<?xml version="1.0" standalone="no"?>
<!DOCTYPE svg PUBLIC "-//W3C//DTD SVG 1.1//EN" "http://www.w3.org/Graphics/SVG/1.1/DTD/svg11.dtd" >
<svg xmlns="http://www.w3.org/2000/svg">
<metadata></metadata>
<defs>
<font id="allitaregular" horiz-adv-x="1095" >
<font-face units-per-em="2048" ascent="1536" descent="-512" />
<missing-glyph horiz-adv-x="681" />
<glyph horiz-adv-x="0" />
<glyph horiz-adv-x="682" />
<glyph horiz-adv-x="0" />
<glyph horiz-adv-x="0" />
<glyph unicode="&#xd;" horiz-adv-x="681" />
<glyph unicode=" "  horiz-adv-x="681" />
<glyph unicode="&#x09;" horiz-adv-x="681" />
<glyph unicode="&#xa0;" horiz-adv-x="681" />
<glyph unicode="!" horiz-adv-x="356" d="M-190 31q17 66 69 122q43 46 84 46q32 0 41 -24.5t-10 -65.5q-2 -3 -10 -18t-19 -34.5t-24 -40.5q-64 -43 -111 -43q-35 0 -20 58zM4 377q19 50 53 106q56 102 103 235.5t93 294.5t66 220q29 12 76.5 15.5t92.5 -3.5t68 -35.5t3 -74.5q-39 -108 -101.5 -230.5 t-123.5 -221t-117 -182t-89.5 -134.5t-31.5 -58h-33q-83 0 -59 68z" />
<glyph unicode="&#x22;" horiz-adv-x="409" d="M-45.5 846q-3.5 8 6.5 31q8 16 72 130.5t78 147.5q6 6 10 21q53 36 110 36q29 0 21 -36q-2 -4 -6 -10.5t-6 -10.5q-14 -31 -88 -133q-17 -23 -37.5 -50.5t-32 -43t-25 -33t-22 -26t-18 -17t-18 -11.5t-17.5 -3q-24 0 -27.5 8zM147 846q-3 8 7 31q8 16 71.5 130.5 t77.5 147.5q4 4 8 21q56 36 113 36q28 0 20 -36q-4 -7 -14 -21q-9 -25 -88 -133q-17 -22 -37 -50t-31 -43t-24.5 -33t-22 -26.5t-18 -17t-18 -11.5t-17.5 -3q-24 0 -27 8z" />
<glyph unicode="#" horiz-adv-x="675" d="M-221 -5.5q-6 10.5 6 38.5q6 18 12 30q73 121 176 261h-24q-61 0 -101 -25q51 89 72 111q37 40 112 44q14 1 31 1q180 265 195 286h-27q-68 0 -118 -20q61 102 101.5 126.5t135.5 24.5q116 169 162 269q10 30 14 35q27 8 60 8q42 0 20 -51q-31 -69 -166 -263h107 q172 256 192 283q52 25 80 25q33 0 23 -43q-64 -79 -201 -265h25q31 0 98 23q-47 -92 -93.5 -122t-119.5 -30q-32 -50 -103.5 -155.5t-89.5 -132.5h29q57 0 121 36q-58 -103 -107.5 -135t-124.5 -32q-126 -191 -159 -271q-14 -27 -17 -51q-44 -16 -73 -16q-23 0 -28 11.5 t7 39.5q26 62 174 289h-117q-146 -208 -196 -332q-33 -8 -57 -8q-25 0 -31 10.5zM154 453h110q51 81 195 288h-111q-192 -285 -194 -288z" />
<glyph unicode="$" horiz-adv-x="731" d="M-104.5 189q10.5 50 41.5 87.5t93.5 55.5t145.5 4q-36 -27 -77.5 -90.5t-59.5 -151.5q-7 -42 -0.5 -71.5t27 -44.5t45.5 -18t54 9t54 37q33 31 41 88.5t-2.5 117t-34.5 142.5l-33 109q-27 89 -41 176t-9.5 184.5t36.5 169.5q2 7 6.5 19t23 47t42 67t66.5 70t94 64 q115 65 260 65q60 117 90 152q51 63 95.5 85.5t72 12.5t48 -34.5t29 -45t9.5 -29.5q-47 51 -109 3t-127 -158q98 -27 153 -83t63.5 -122.5t-12.5 -140t-66.5 -136.5t-108 -111t-127.5 -65q-62 -15 -110 -13.5t-81.5 14.5t-54.5 28t-31 27l-10 12q6 1 16.5 4.5t44 18.5 t68 35.5t83.5 59t95 85.5q55 55 89 110t44.5 106t-26 86.5t-121.5 43.5q-129 9 -219 -47q-16 -9 -36.5 -26.5t-49 -49t-48.5 -80t-22 -102.5q-3 -60 26.5 -168t65.5 -209.5t63 -222.5t21 -205q-9 -106 -119.5 -180.5t-238.5 -69.5q-71 -142 -96 -160q-63 -38 -103 2 q24 12 105 180q-51 22 -86 65t-48.5 92.5t-3 99.5z" />
<glyph unicode="%" horiz-adv-x="784" d="M-199 39q19 38 65.5 95t86 100.5t125.5 134.5q67 71 348 373.5t301 326.5q-119 -61 -176 -61q-29 0 -35 8q-2 -5 -4 -10.5t-3 -8.5t-1 -4q-22 -52 -45.5 -90t-50 -62t-51 -38.5t-58 -21.5t-60.5 -9t-69 -2q-136 0 -37 225q35 88 78 119t113 31q10 0 14.5 -0.5t12 -5 t7.5 -14v-27.5q-47 18 -91.5 -52t-62.5 -148.5t1 -78.5q121 0 190 168q6 12 29 70q-25 39 -10 71q27 66 102 127q10 -104 109 -104q104 0 225 68q49 30 68 30q28 0 34 -49q-319 -331 -569 -606q-16 -18 -76 -83.5t-83 -91.5t-75 -84t-81.5 -93.5t-71.5 -85t-76.5 -94 t-66.5 -87.5q-79 14 -56 64zM146.5 38q-11.5 53 29.5 148q28 67 62 114t65.5 70.5t65.5 33.5t59.5 9.5t50.5 -7.5q44 -12 50.5 -54t-35.5 -153q-16 -37 -33 -67t-35.5 -51t-34 -37t-34.5 -25.5l-32 -16t-31 -9.5t-26 -4t-23.5 -1h-17.5q-69 -3 -80.5 50zM215 82 q-4 -69 28 -62q39 10 107 116q74 115 89 190q8 47 -19 47q-52 0 -115.5 -94.5t-89.5 -196.5z" />
<glyph unicode="&#x26;" horiz-adv-x="964" d="M-104 141q0 80 33.5 156t92 138.5t120 110t134.5 89.5q-49 70 -49 164q0 80 37.5 160t97.5 141t140 99t160 38q82 0 133 -34t51 -111q0 -71 -28.5 -138.5t-78 -123t-104.5 -99.5t-119 -80l-180 -88q-258 -185 -258 -430q0 -107 85 -123q107 -20 288 107q28 20 57 43 q44 35 81.5 80t62.5 89.5t44.5 90t31 84.5t19 69.5t10.5 48.5l3 17q3 0 23.5 -7t52 -22.5t59.5 -37t43.5 -55t5.5 -71.5q-9 -38 -58 -103t-122 -134q35 -69 55 -146q27 -102 25 -187t-39 -187q-14 -39 -47 -72t-69.5 -52t-71.5 -32t-57 -17l-23 -5l-5 53q7 1 18.5 4t41 16.5 t52.5 32t42.5 53.5t20.5 78q2 137 -103 336q-31 -29 -95.5 -56t-143.5 -46.5t-162 -23t-151 10t-112 57.5t-44 115zM412 879q0 -83 49 -154q105 74 167 184t62 234q0 65 -47 65q-52 0 -108 -62t-89.5 -139.5t-33.5 -127.5z" />
<glyph unicode="'" horiz-adv-x="235" d="M-38 824.5q-4 9.5 9 35.5q7 17 72 137t78 156q7 10 10 23q59 38 119 38q35 0 20 -38q-2 -4 -6 -10.5t-6 -10.5q-6 -12 -92 -143q-22 -30 -51 -71.5t-41.5 -58t-29 -36t-28 -25.5t-24.5 -6q-26 0 -30 9.5z" />
<glyph unicode="(" horiz-adv-x="421" d="M-173 41q21 124 91 293q70 165 179 334.5t235 310.5q109 117 196.5 181.5t130.5 64.5q15 0 25 -10.5t10 -30.5q-153 -86 -319 -303q-176 -228 -297 -492q-164 -380 -64 -440q-80 -86 -131 -86q-87 0 -56 178z" />
<glyph unicode=")" horiz-adv-x="403" d="M-297 -90q161 98 346 344q171 226 283 487q72 168 83.5 272.5t-36.5 131.5q81 84 129 84q42 0 57.5 -42t5.5 -111t-34.5 -150.5t-61.5 -167.5q-72 -169 -179.5 -338.5t-232.5 -306.5q-110 -118 -195.5 -182t-127.5 -64q-34 0 -37 43z" />
<glyph unicode="*" horiz-adv-x="520" d="M76 649q-5 32 16 76q1 2 4 7.5t4 8.5q12 7 52 26t63 32q-43 37 -53 61q-14 43 24 78q30 37 62 47q4 2 14 2q0 -7 10 -110q44 86 74 133q40 52 64 39q23 -13 26 -45q-7 -10 -4 -21q-93 -109 -104 -123q56 21 96 21q38 -8 16 -56q-18 -46 -45 -73q-6 -3 -18 -15 q-1 1 -29 15.5t-49 21.5q1 -38 -14 -123q-7 -54 -56 -73q-29 -13 -47 2q-9 4 -6 10q14 48 55 143q-64 -64 -106 -92q-49 -27 -49 8z" />
<glyph unicode="+" horiz-adv-x="567" d="M2 332q14 23 37.5 60t26.5 42q33 47 80.5 59.5t127.5 12.5q97 165 129 244q4 6 9.5 20.5t9.5 20.5q27 10 53 10q36 0 44.5 -10.5t-1.5 -38.5q-13 -27 -36.5 -68t-54.5 -94.5t-48 -83.5h27q82 0 163 24q-36 -61 -67 -100q-29 -45 -79 -58.5t-130 -13.5q-12 -22 -34 -60.5 t-32.5 -57t-24 -44.5t-22 -44t-14.5 -33q-16 -40 -16 -49q-42 -11 -58 -11q-31 0 -43.5 9.5t-3.5 33.5q29 64 145 256h-45q-70 0 -143 -26z" />
<glyph unicode="," horiz-adv-x="311" d="M-83.5 -160q1.5 6 7.5 13q138 35 205 188q6 14 8 35t2 36.5t-1 36t-1 25.5q37 17 76 11.5t60 -39t-7 -107.5q-19 -61 -127.5 -139t-173.5 -78h-14t-13.5 1t-12.5 3t-7 5t-1.5 9z" />
<glyph unicode="-" horiz-adv-x="364" d="M-12 453q2 1 10 7t12 11q74 46 106.5 59t73.5 13q5 1 12.5 1t18 -0.5t17.5 -0.5h34q72 0 113 8q0 -9 -12 -19q-42 -34 -78.5 -49t-60.5 -17.5t-78 -2.5h-33q-37 0 -85 -5t-50 -5z" />
<glyph unicode="." horiz-adv-x="299" d="M58 37q20 68 75 127q43 47 78 47q34 0 42.5 -22.5t-9.5 -65.5q-58 -150 -164 -150q-41 0 -22 64z" />
<glyph unicode="/" horiz-adv-x="468" d="M-274 -57q39 72 444 589q369 470 489 598q49 51 84.5 73t77.5 22q31 0 45 -6q-142 -124 -587 -689q-374 -474 -467 -651q-8 0 -32.5 -1t-37.5 -1q-60 0 -16 66z" />
<glyph unicode="0" horiz-adv-x="763" d="M135 152q0 78 29.5 189.5t80.5 232t123.5 239.5t153 213t175.5 152.5t184 58.5q91 0 153 -59t62 -146q0 -80 -32.5 -191t-87 -229.5t-132.5 -235t-163 -208t-183.5 -148.5t-190.5 -57q-172 0 -172 189zM233.5 106.5q-0.5 -18.5 1.5 -30.5t6.5 -25t13 -20t21.5 -8 q125 -13 304 271.5t281 579t38 308.5q-55 12 -128 -44t-142.5 -151.5t-138.5 -214.5t-122 -234t-88 -209t-40 -139q0 -5 -2 -23t-3 -30t-1.5 -30.5z" />
<glyph unicode="1" horiz-adv-x="743" d="M150 -8q78 138 156 301.5t123.5 270t112.5 270.5t89 215q-12 -2 -58 -16t-87.5 -26t-45.5 -12q-8 0 -14 6l412 238q16 -32 16 -63q0 -16 -39.5 -114t-101.5 -239.5t-120.5 -272.5t-115.5 -257t-67 -148q-25 -56 -53 -93t-49 -53.5t-49 -21.5t-40.5 -3t-39 9.5t-29.5 8.5z " />
<glyph unicode="2" horiz-adv-x="763" d="M57 0q0 47 25 106q798 779 857 1004q21 75 -47 75q-23 0 -50 -9q-34 -11 -65 -30t-54 -39t-46 -49.5t-38 -52t-32.5 -56.5t-25.5 -52.5t-22 -51.5t-18 -42q-74 92 -69.5 171t60.5 136.5t140.5 90t171.5 32.5q86 0 138 -38.5t52 -121.5q0 -47 -21.5 -106t-53 -115 t-85.5 -126.5t-100 -125t-117 -127t-115 -116.5t-116 -110.5t-99 -90.5t-83 -74q340 11 481 127l2 -19q0 -83 -47 -149t-125 -66h-459q-7 0 -37 5q-2 8 -2 20z" />
<glyph unicode="3" horiz-adv-x="729" d="M69 104q-2 44 9 90t33 103q20 -62 58.5 -93.5t127.5 -35.5q57 -3 134 34t142.5 92.5t111.5 123.5t46 123q0 16 -51 17.5t-123 -8.5t-124.5 -19t-80.5 -15l-2 23q0 49 37.5 94t94.5 78.5t127.5 75t134 82t116 101t72.5 130.5q20 72 -38 69q-65 -3 -173 -84 q-119 -89 -167 -182q-5 -10 -9 -20q-39 121 -39 161q0 46 33 84t82.5 60t99.5 33.5t90 11.5q211 0 211 -154q0 -74 -36 -148.5t-93 -133.5q-70 -70 -215 -148l-4 -2l2 -4q31 0 52.5 -14t31 -40t13 -52.5t3.5 -61.5q0 -130 -74.5 -248.5t-194 -190t-247.5 -71.5 q-66 0 -109 18t-61.5 47.5t-20.5 73.5z" />
<glyph unicode="4" horiz-adv-x="851" d="M72 449q105 180 361.5 455.5t379.5 350.5q30 0 88 -26q50 -22 45 -38q0 -3 -2 -5q-21 -25 -74 -139.5t-114.5 -256t-71.5 -163.5q2 0 19.5 0.5t34.5 0.5t40.5 -0.5t43 -2.5t37.5 -5.5t28 -10t10 -15.5q0 -127 -31 -160q-28 29 -121 47.5t-122 -0.5q-5 -11 -59.5 -121.5 t-92.5 -206t-37 -141.5q-13 -10 -43 -20.5t-62.5 -16t-56.5 4.5t-24 38q0 24 43 118.5t95 198.5t60 122q-36 0 -83.5 -16.5t-115.5 -48t-97 -42.5q-12 3 -21.5 5.5t-17 7t-12.5 7t-9 9.5t-6.5 9.5t-4.5 12.5t-2.5 13t-2 17t-2.5 18zM123 434q174 111 391 172 q31 69 123.5 264.5t130.5 282.5q-115 -97 -311 -320.5t-334 -398.5z" />
<glyph unicode="5" horiz-adv-x="841" d="M-46.5 144q3.5 41 15.5 98q55 -159 209 -147q131 10 280 131q133 108 195 235q47 96 29 166q-7 27 -36.5 29t-110 -35t-211.5 -121l-68 137q224 460 293 588q122 -21 209 -21q185 0 278 45q-34 -72 -88 -117t-111.5 -57.5t-113.5 -2.5t-98 42q-6 -13 -122 -237t-145 -283 q30 54 79 92t101 49t98.5 0.5t76.5 -57t30 -121.5q0 -149 -78.5 -291.5t-211.5 -233.5t-279 -91q-68 0 -114 15.5t-69.5 40.5t-32 65.5t-5 81.5z" />
<glyph unicode="6" horiz-adv-x="792" d="M18 158q0 84 34.5 197.5t92 231.5t139 233.5t169.5 206t188.5 147.5t192.5 59q126 2 145 -79q17 -71 -49 -163q-70 -98 -177 -140q-74 -30 -145 -20q159 128 244 242q80 108 24 118q-8 2 -20 1q-55 0 -121.5 -47t-125.5 -116t-117 -153t-96.5 -152t-63.5 -120 q129 111 233 111q77 0 119.5 -41.5t42.5 -118.5q0 -92 -43.5 -196.5t-113 -191.5t-165.5 -144.5t-192 -57.5q-95 0 -145 49t-50 144zM174 28q9 -14 25 -14q104 0 204 180q82 147 115 315q26 135 -6 153q-4 2 -8 2q-54 0 -203 -127q-37 -59 -88 -218q-75 -236 -39 -291z" />
<glyph unicode="7" horiz-adv-x="696" d="M23 29q0 50 72 163t169 234t223.5 265.5t207.5 232.5t149 159q-355 -1 -496 -118q-25 -20 -45 -52q-9 68 -2 117t29 82.5t55 53.5t75 31t90.5 14t100.5 2t105 -3q94 -4 139 -4q35 -1 45 -47t2 -135q-96 -105 -175.5 -196t-183 -220t-181 -241t-146 -238.5t-102.5 -232.5 q-36 -21 -83.5 24.5t-47.5 108.5z" />
<glyph unicode="8" horiz-adv-x="839" d="M109 141q0 80 33.5 156t92 138.5t120 110t134.5 89.5q-49 70 -49 164q0 80 37.5 160t97 141t139.5 99t160 38q82 0 133.5 -34t51.5 -111q0 -71 -28.5 -138.5t-78 -123t-104.5 -99.5t-119 -80q86 -96 86 -207q0 -122 -72.5 -233.5t-187.5 -178.5t-236 -67q-95 0 -152.5 43 t-57.5 133zM291 133q0 -108 69 -108q58 0 121.5 58t103.5 134.5t40 134.5q0 94 -76 211q-258 -185 -258 -430zM625 879q0 -83 49 -154q105 74 167 184t62 234q0 65 -47 65q-52 0 -108 -62t-89.5 -139.5t-33.5 -127.5z" />
<glyph unicode="9" horiz-adv-x="763" d="M55 111q109 -5 215 35t186 103.5t151.5 149t117 160t78.5 146.5q11 26 23.5 60t31.5 92.5t27.5 111t9 101.5t-22 78t-67.5 28q-63 -1 -120.5 -63t-94.5 -149t-59 -173t-23 -144q-2 -99 45 -91q47 7 120 107q45 62 64 111q30 -29 7.5 -90t-100 -127t-155.5 -74 q-75 -9 -118 35.5t-43 124.5q0 73 28 156t78 158.5t113.5 137.5t141.5 99t155 37q120 0 160 -94q44 -101 -2.5 -291.5t-155.5 -374.5q-125 -211 -291.5 -355.5t-298.5 -144.5q-98 0 -147 39.5t-54 100.5z" />
<glyph unicode=":" horiz-adv-x="299" d="M-133 -10.5q-9 16.5 2 45.5l12 24q9 20 28 54.5t23 46.5q2 2 4 9l3 7q52 35 94 35q34 0 42.5 -22.5t-9.5 -65.5q-18 -50 -68 -115q-53 -35 -96 -35q-26 0 -35 16.5zM211 659l8 25q49 78 57 98q0 6 9 19q61 35 92 35q34 0 43 -25t-10 -66q-23 -47 -68 -114 q-65 -37 -100 -37q-50 0 -31 65z" />
<glyph unicode=";" horiz-adv-x="436" d="M-227 -157l2 10q138 35 205 188q9 23 15.5 54.5t11 51.5t14.5 39.5t32 29t58 9.5q224 -62 -81 -293q-38 -28 -40 -30q-33 -26 -105 -59q-117 -54 -112 0zM291 659l8 25q19 48 74.5 105t83.5 47q34 0 42.5 -25t-10.5 -66q-25 -52 -67 -114q-65 -37 -100 -37q-50 0 -31 65z " />
<glyph unicode="&#x3c;" horiz-adv-x="442" d="M-29 465.5q-1 9.5 0.5 18.5t4 21t8 26.5t12.5 31.5q23 17 55 35q98 50 230 141t249 191q9 8 31 23.5t25 17.5q3 -8 1 -25.5t-7 -25.5q-59 -103 -178.5 -212.5t-251.5 -179.5q84 -190 -7 -366q-19 -34 -37 -49q-13 60 -44.5 146.5t-63.5 143.5q-2 3 -7.5 11.5t-7.5 12 t-6 11.5t-4.5 13t-1.5 14.5z" />
<glyph unicode="=" horiz-adv-x="610" d="M-45 186q46 83 90 124.5t92.5 49.5t94.5 4t120.5 -3.5t147.5 18.5q-26 -47 -38 -69t-32.5 -46.5t-34 -32t-42 -16t-58 -9.5t-80.5 -1q-12 0 -50.5 0.5t-56 0t-48 -2t-55.5 -6t-50 -11.5zM121 477q45 81 88 122t90.5 50t92 5.5t119 -4t146.5 15.5q-29 -52 -45.5 -77 t-37.5 -48t-48 -31t-60.5 -12t-90.5 -4h-36h-38t-34.5 -0.5t-37.5 -1.5t-34 -3t-38 -5t-36 -7z" />
<glyph unicode="&#x3e;" horiz-adv-x="442" d="M-195 125q0 44 53 110.5t129.5 130.5t142.5 112.5t112 76.5q-41 87 -41 180q0 63 22 132.5t62 103.5q7 -26 41 -114t64 -164t30 -81q0 -32 -23 -88q-28 -24 -53 -37q-232 -115 -537 -374z" />
<glyph unicode="?" horiz-adv-x="532" d="M-173 -7.5q-6 19.5 7 48.5q16 46 68.5 104.5t81.5 42.5q32 0 40.5 -22.5t-10.5 -63.5q-5 -16 -51 -88q-59 -41 -106 -41q-24 0 -30 19.5zM-47 334q3 8 163 173q399 412 490 570q68 119 -14 119q-30 0 -67.5 -20.5t-77 -59.5t-72.5 -107.5t-47 -152.5q-4 8 -24.5 25 t-37 33.5t-28.5 49t2 72.5q17 59 60 101.5t98 62.5t102.5 28.5t93.5 8.5q340 0 -345 -790q-112 -129 -116 -136q-11 -8 -21.5 -13.5t-20.5 -9t-16.5 -5.5t-16.5 -3t-14 -1h-14.5h-11.5q-35 0 -55.5 13.5t-9.5 41.5z" />
<glyph unicode="@" horiz-adv-x="1275" d="M-123 -2q-19 128 20.5 260t114 238.5t175 203.5t196 163t184.5 110q146 71 310 84.5t289 -32.5t165 -138q38 -87 -18.5 -280.5t-182.5 -383.5q-99 -149 -215 -254q-33 -30 -53.5 -46.5t-52.5 -39t-56 -28t-51 -4t-50.5 23.5t-43.5 62q-35 74 -8 188q6 31 59 139 q-181 -224 -264 -256q-28 -8 -41 -8q-20 0 -38.5 9t-31.5 23t-24 31t-18.5 34.5t-12.5 31.5t-7 23l-3 10q0 6 2.5 23.5t15.5 62.5t35 93.5t67.5 116.5t106.5 132q190 205 338 205q80 0 150 -58q91 -76 94 -159q3 -50 -24 -101q12 -12 12 -18l-23 -35q-23 -34 -66.5 -104 t-84.5 -142q-127 -232 -105 -270q2 -4 11 -4q10 0 16 6q50 37 135 134t166 214q53 77 95 150.5t75.5 151.5t43.5 145.5t0 125t-56 98t-125 56.5q-120 25 -262.5 -3t-284 -100.5t-276 -197.5t-230.5 -283q-55 -90 -82 -172t-26 -144.5t19.5 -115.5t52.5 -88.5t76.5 -60 t89 -34t91.5 -5.5q58 5 105 16.5t72.5 24.5t42.5 25t22 20l6 8q3 0 9 -1.5t20 -9.5t24 -21.5t17 -42t4 -66.5q-3 -45 -81 -81q-107 -50 -244 -39q-192 17 -296 155q-70 91 -90 229zM377 86q0 -6 4 -10h2q41 0 399 422v6q3 4 9 10.5t26 17.5t43 11q30 0 64 -17l34 -18 q23 52 13 92q-9 27 -43 39q-6 4 -23 4q-53 0 -141.5 -55t-169.5 -139q-85 -88 -153.5 -207t-63.5 -156z" />
<glyph unicode="A" horiz-adv-x="1499" d="M-2 244v8q17 -2 33 -2l131 31q114 42 289 217q-104 35 -179 92t-104 106q-19 40 -9.5 58.5t31.5 21.5l21 4q3 -7 9 -18t29 -43t52.5 -60.5t81.5 -61.5t113 -54q87 91 267 297t259 286q23 23 31 30.5t40 36t52.5 42.5t60.5 38.5t72 35.5t80 23q46 11 88 10h4 q44 0 97.5 -10t107.5 -32h2q112 -43 139 -61q6 -4 6 -9q0 -6 -12 -13q-4 -2 -15 -7q-32 -16 -46 -28q-22 -18 -39 -47q-7 -5 -19 -25q-3 -4 -10 -16.5t-12 -18.5q-3 -6 -47 -76q-7 -14 -29 -47q-231 -385 -256 -430q-111 -194 -198 -360t-132 -264t-74.5 -168.5t-36.5 -97.5 l-8 -27q-6 0 -12 -1q-8 0 -16 1q-16 1 -53.5 16t-58.5 45q-20 28 -20 88v9q2 68 42 163q56 134 340 643q-191 -108 -401 -108h-19h-19q-61 -81 -116.5 -141.5t-116 -109t-120.5 -70.5q-41 -15 -79 -14q-18 0 -35 3q-2 2 -6 2q-1 0 -4.5 1t-5.5 1h-2q-4 1 -13.5 3t-13.5 3 q-42 12 -72 28t-42.5 30.5t-19.5 27t-7 19.5zM686 510h17q65 0 129 14q74 16 126 38.5t93.5 45.5t62.5 40l21 16l14 12q164 294 227 399q12 24 17 29q0 1 1 3.5t1 4.5q83 126 223 133l-4 2q-16 11 -19 15l-12 6l-13 6.5l-11 5.5q-3 2 -8.5 4.5t-6.5 3.5q-2 0 -10 4 q-57 18 -100 18h-5q-45 -1 -71 -12l-27 -10q-131 -48 -250 -196q-52 -66 -186.5 -273.5t-208.5 -308.5z" />
<glyph unicode="B" horiz-adv-x="1208" d="M-201 3v13q3 -7 9.5 -18.5t35 -40t66.5 -49.5q38 -22 110 -38q57 -12 125 -12q17 0 35 1q159 6 299 54.5t254.5 146t173.5 233.5q27 68 27 121q0 12 -2 22q-8 60 -43.5 98t-76 60t-72.5 30l-33 9q9 8 24 22.5t57 58.5t77 86.5t73 99.5q36 58 56 106q17 42 17 83v13 q-3 48 -36 80q-47 44 -135 58q-40 7 -81 7q-49 1 -103 -9q-96 -18 -191.5 -84t-149.5 -171q-43 -82 -65 -155q-24 -72 -26 -118q-1 -19 0 -36q0 -24 2 -44q4 -34 10 -48l8 -15q-5 -3 -12.5 -6.5t-29.5 -5.5t-41.5 5t-42 34.5t-36.5 75.5q-6 22 -6 50q0 42 14 99 q24 95 84.5 198t162.5 182q101 79 243 103q38 6 79 6q112 0 248 -48q82 -30 134 -72q53 -42 71 -88q19 -46 18 -98q0 -48 -18 -96q-19 -48 -44 -95t-56 -86t-56.5 -68.5t-43.5 -46.5l-17 -16q53 -35 82 -76q16 -23 30 -55q13 -32 25 -75q10 -38 11 -82q-1 -6 -1 -12 q-2 -50 -18 -95q-17 -60 -52 -124.5t-98.5 -136.5t-144.5 -130t-199.5 -99t-253.5 -49q-27 -2 -52 -2q-48 0 -92 6q-66 10 -113 29.5t-84 46t-59.5 57t-38.5 61.5t-23 59.5t-11 50.5t-4 35zM65 5q-4 17 -4 35q1 18 5 38q8 38 17.5 66t20.5 51q228 451 418 800q2 5 5.5 12 t5.5 11.5t4 7.5q0 2 1 5t1 5q94 146 216 146h7h2q44 -6 65 -15q11 -4 21 -8.5t14 -6.5l4 -3v4l9 -6v-2q-4 0 -14 -5.5t-30.5 -27t-37.5 -53.5q-13 -13 -19 -25q-3 -8 -22 -39q-2 -5 -47 -84q-19 -37 -31 -51q-90 -174 -256 -475q-31 -59 -250 -494q-8 5 -32 25.5t-40 32.5 q-25 21 -33 56z" />
<glyph unicode="C" horiz-adv-x="1181" d="M8 146q12 102 54.5 207t103.5 209.5t134.5 195.5t153 164.5t154.5 117.5q181 106 317 106q152 0 249 -132q13 -19 13 -48q0 -42 -26 -105q-45 -108 -127 -205.5t-147 -120.5q-31 -10 -55 -10q-8 0 -15 1q-30 4 -51 20t-34 33.5t-19 31.5l-6 14q7 4 18.5 12.5t46 38 t68.5 62.5t78 87t81 111q48 76 48 110q1 22 -19 26q-5 1 -11 0q-53 0 -177 -92q-146 -110 -293 -278q-34 -39 -77 -99t-92 -140.5t-90.5 -164.5t-67.5 -170q-28 -86 -32 -158q-1 -9 0 -18q0 -62 28 -112q32 -56 103 -80q67 -23 133 -24h7q62 0 118 15q59 16 119 49t110.5 74 t102.5 95t93.5 106t84.5 113q34 45 62.5 92.5t40.5 71.5l12 25l49 -8q-15 -34 -44 -89.5t-126 -191t-202 -230t-267 -149.5q-85 -29 -171 -29q-77 0 -154 23q-113 34 -181.5 101.5t-88.5 153.5q-13 54 -13 115q0 36 4 73z" />
<glyph unicode="D" horiz-adv-x="1159" d="M-291 41q3 -7 9 -18t33.5 -38.5t64 -48t104.5 -35.5q57 -12 125 -12h27q322 15 531.5 208.5t299.5 531.5q39 154 39 258t-29 165.5t-63.5 93.5t-63.5 41l-28 9q-47 17 -105 20q-11 1 -22 1q-49 0 -101 -11q-64 -13 -124 -41.5t-114 -80t-89 -119.5q-41 -79 -63 -149 t-24 -114q-1 -20 -2 -38q0 -20 2 -38q3 -32 10 -47l7 -14q-4 -3 -11.5 -6t-28.5 -5t-39.5 5t-39.5 34t-34 73q-10 25 -5.5 63t14 83.5t33.5 95.5t52.5 99t72.5 94.5t93 81.5t113 59.5t134 29.5l-10 2q9 2 25 4t64 4q11 0 21 1q36 0 71 -4q45 -5 103.5 -23.5t106 -50 t90.5 -90t66 -136.5v-2q18 -66 23 -127v-27q3 -48 3 -94q0 -338 -178 -610q-146 -223 -373 -344q-182 -96 -352 -96q-31 0 -63 3q-201 22 -303 175q-52 78 -72 184zM-38 54v10q0 45 12 78q12 37 28 69q86 169 229 444.5t166 321.5q7 14 17 29q0 1 1 4t1 4q89 141 206 141h7 h2q39 -6 61 -12q11 -4 21 -8.5t14 -7.5l4 -3l-2 2l8 -6v-2q-3 0 -12.5 -5t-29 -25t-36.5 -50l-18 -24q-11 -25 -20 -39q-1 -1 -7 -11.5t-17 -29.5t-22 -39q-20 -40 -26 -49q-36 -65 -94 -171.5t-100.5 -184t-53.5 -97.5q-157 -305 -238 -473q-4 3 -26.5 21t-40.5 34 q-32 27 -34 79z" />
<glyph unicode="E" horiz-adv-x="1163" d="M-31 168.5q0 -104.5 30 -193t103.5 -160.5t184.5 -112q75 -27 148 -27q21 0 42 2q93 10 176 50t159 103.5t139 135t116 143.5t90 129.5t61 93.5t29 36l-45 8l-18 20q-16 -45 -59.5 -115.5t-110 -154t-148 -160.5t-173.5 -135q-93 -59 -187 -80q-40 -9 -79 -9 q-54 0 -108 17q-49 17 -80 52.5t-43 83.5q-12 50 -12 104q0 50 12 108q12 60 27 113t35 109q22 -30 78.5 -60.5t134.5 -44.5q33 -6 67 -6q58 0 116 18q91 28 165.5 87.5t138.5 142t106 173.5t64 184q19 79 19 147v24q-2 36 -33 71.5t-90 60.5q-60 25 -134 33q-20 2 -42 2 q-59 0 -131 -16q-99 -22 -201 -75q-85 -45 -167 -120t-150 -166t-119.5 -196t-81 -210.5t-29.5 -210zM262 344q128 266 372 486q171 155 311 211q52 21 83 21q34 0 43 -25q3 -8 3 -19q0 -31 -27 -82q-73 -124 -147 -222.5t-135.5 -160t-124 -105.5t-109.5 -64t-95 -31 q-45 -11 -74 -11h-2q-30 0 -60 1.5t-38 0.5z" />
<glyph unicode="F" horiz-adv-x="1001" d="M-90 480q-1 13 -1 26q0 50 12 110q16 78 52 153.5t112 151t181 126.5q68 32 142 49h2q63 15 104 20h2q61 14 181 22q85 6 205 6q49 0 104 -2q189 -4 368 -26q171 -19 281 -19q13 1 25 1q115 2 164 16l48 14q0 -9 -1.5 -24t-12 -53t-28 -68t-56.5 -56.5t-92 -29.5 q-14 -1 -28 -1q-72 0 -156 22q-101 26 -234 69.5t-229 63.5q-159 33 -305 33q-55 0 -109 -5l111 13q-66 -3 -125 -15l5 1q4 1 9 1l-14 -2q-84 -17 -157 -52t-118 -73t-77.5 -74t-46.5 -60l-13 -23q-39 -65 -55 -131q-12 -52 -12 -93v-23q4 -50 15 -90.5t23 -61.5l11 -21 q-9 -4 -23.5 -10t-54.5 -17q-40 -12 -73 -14h-11q-27 0 -56 10q-34 12 -49 43q-16 35 -20 93zM-72 -432q8 68 52 162q18 39 77.5 174.5t115 262t132.5 286t141.5 278t129.5 205.5t108 98q51 9 92 9q36 0 64 -7l34 -16v2q9 -6 9 -8q-4 0 -13 -5t-27 -24t-36 -47 q-55 -83 -176.5 -312.5t-145.5 -269.5h99q56 2 102.5 15.5t73 32t45 36.5t25.5 30l6 13q5 -4 12 -10.5t18 -28t10.5 -44t-23.5 -56t-71 -65.5q-54 -36 -146 -36q-83 0 -196 29q-95 -182 -170 -338t-115 -248.5t-66.5 -159t-34.5 -92.5l-7 -26h-8h-15q-14 2 -44 17.5 t-45 45.5q-10 20 -10 55q0 19 3 42z" />
<glyph unicode="G" horiz-adv-x="1427" d="M4 310q11 105 52 211t102 211.5t135 195t156 160t159 108.5q104 51 191 74q83 22 140 22h5q57 -1 105 -21.5t74 -44t51 -57.5q13 -19 13 -48q0 -42 -26 -105q-45 -108 -127 -205.5t-147 -120.5q-31 -10 -55 -10q-8 0 -15 1q-30 4 -51 20t-34 33.5t-19 31.5l-6 14 q7 4 18.5 12.5t46 38t68.5 63t78 87.5t81 111q48 75 48 111q0 24 -20 31q-9 3 -20 3q-52 0 -157 -69q-155 -102 -309 -279q-41 -46 -93 -124t-108.5 -178t-95 -205t-54.5 -198q-5 -31 -5 -60q0 -58 21 -107q32 -73 113 -101q66 -23 129 -24h5q61 0 110 13q51 13 106.5 51 t94 72t90.5 96.5t82.5 103.5t81.5 114q33 48 43 64l26 53q-447 -144 -485 -353l-6 -16q-5 -16 -22.5 -29.5t-49.5 -9.5q-44 5 -78 41q-27 29 -27 61q0 34 30 71q51 61 180 120q152 69 381.5 137.5t383.5 102.5l154 34q1 -4 1.5 -10.5t3 -24t2.5 -24t-1 -10.5q-2 0 -45 -8 t-110 -21.5t-113 -25.5q-23 -64 -106.5 -237t-155.5 -313l-72 -141q-3 0 -8.5 0.5t-20.5 4t-27.5 9.5t-25.5 19t-19 30t-3.5 45t16.5 62q9 25 76 177q-42 -49 -73.5 -83.5t-76 -75.5t-82.5 -67t-88.5 -49.5t-99.5 -32.5q-36 -6 -78 -6q-15 0 -31 1q-60 3 -124 22 q-113 34 -182.5 102.5t-90.5 156.5q-14 58 -14 123q0 34 4 69z" />
<glyph unicode="H" horiz-adv-x="1067" d="M-76 -115q-1 9 -1 19q0 77 48 194q59 130 127 267l-16 8q-32 17 -49 38.5t-19 40.5t0 35t8 25l5 10q44 -34 114 -71q66 133 152.5 300.5t164 316t93.5 179.5q5 7 10 17l6 12q0 1 1 3t1 3q81 133 192 133h11h2q35 -3 60 -10l34 -16v2q6 -6 6 -9q-3 0 -11.5 -5t-26.5 -23.5 t-35 -46.5q-3 -4 -8.5 -12.5t-8.5 -12.5q-3 -6 -10 -18.5t-10 -18.5q-1 -1 -6 -10t-15.5 -28.5t-21.5 -37.5q-22 -39 -27 -47q-49 -87 -139 -254t-94 -174q-112 -214 -160 -313q85 -25 157 -25q28 0 54 4q99 16 172 48q286 549 309 593q13 26 15 29l4 8q18 32 42 59 q22 27 66 51q40 23 85 23h7h2q37 -6 60 -12l35 -16v2q6 -6 8 -6v-2q-4 0 -13 -5t-27 -24t-36 -47q-10 -15 -16 -25q-12 -23 -21 -35q-1 -1 -6 -10.5t-15 -27.5t-20 -37q-16 -32 -26 -47q-178 -325 -236 -430q-101 -194 -182 -360t-124 -264.5t-71 -169t-36 -97.5l-9 -27 l-30 3q-79 17 -84 111v11q0 78 49 197q33 83 227 469q-88 -31 -190 -31q-86 0 -183 22q-86 -176 -143 -310t-71 -180l-15 -46l-30 2q-78 15 -85 106z" />
<glyph unicode="I" horiz-adv-x="491" d="M-179 -160q8 70 52 168q63 142 225 451.5t264 494.5q4 7 9.5 17t7.5 12l4 8q86 132 204 132q8 0 15 -1h2q43 -6 64 -12l39 -18l-2 2q8 -5 8 -9q-3 0 -12.5 -4.5t-30 -24t-39.5 -48.5l-7 -10l-10 -15t-11 -18.5t-11 -18.5q-2 -1 -7.5 -10t-17 -29t-22.5 -37 q-11 -22 -29 -49q-53 -90 -78.5 -145.5t-29.5 -63.5q-112 -199 -201.5 -369t-137 -270.5t-79 -172.5t-40.5 -100l-9 -28h-8h-15q-14 2 -45 18.5t-45 47.5q-9 20 -10 56q0 21 3 46z" />
<glyph unicode="J" horiz-adv-x="1224" d="M-291 41q3 -7 9 -18t33.5 -38.5t64 -48t104.5 -35.5q58 -13 125 -13q13 0 27 1q244 12 423.5 127.5t292.5 319.5q55 107 131 252.5t127.5 245t73.5 143.5l17 29q0 1 1 4t1 4q89 141 206 141h7h2q39 -6 61 -12q30 -12 37 -19v2l8 -6v-2q-3 0 -12.5 -5t-29 -25t-36.5 -50 l-18 -24q-9 -21 -21 -39l-45 -80q-20 -40 -26 -49q-36 -65 -94 -171.5t-100.5 -184t-53.5 -97.5l-80 -157l-59 -101h-2q-82 -130 -196.5 -230t-234.5 -155t-243 -68q-35 -3 -67 -3q-84 0 -157 23q-101 32 -176 119t-100 220zM655 682q-4 15 -4 34q0 24 6 55q10 55 35.5 119 t72.5 129.5t106 119.5t142 89.5t175 39.5l-10 2q8 1 21.5 2.5t54.5 1.5t80 -4.5t91.5 -19t96.5 -38.5l-39 -43l-27 11q-59 24 -135 26h-10q-71 0 -145 -20q-79 -21 -153.5 -76t-121.5 -137q-44 -77 -69 -146t-29 -113q-3 -32 -3 -58v-19q2 -33 8 -47l7 -15q-4 -2 -12 -5 t-29 -4q-3 -1 -7 -1q-17 0 -32 7q-18 8 -38.5 36t-31.5 74z" />
<glyph unicode="K" horiz-adv-x="876" d="M-179 -48q8 70 52 169q63 142 225 451.5t264 494.5l17 29l4 8q86 132 204 132q8 0 15 -1h2q43 -6 64 -12l37 -19v2q8 -5 8 -8q-3 0 -12.5 -5t-30 -24.5t-39.5 -48.5l-17 -24l-22 -37q-2 -1 -7.5 -10t-17 -29t-22.5 -37q-11 -22 -29 -49q-53 -90 -78.5 -145.5t-29.5 -63.5 l-64 -113q102 93 211.5 186t242.5 196.5t247 169.5t176 69h10q41 -1 71 -15q33 -16 48 -43q14 -27 22 -60q6 -25 6 -50v-17q-2 -34 -7 -60.5t-9.5 -43.5t-5.5 -16q-4 5 -21.5 26t-22 25t-21 17.5t-30 17t-37 8.5t-53.5 6h-3q-163 0 -658 -371q8 -29 59 -269 q75 -351 165 -519q124 -231 313 -231q39 0 81 10q-94 -80 -193 -106q-70 -19 -124 -18q-23 0 -43 3q-69 11 -125.5 65t-93.5 130.5t-64.5 178.5t-42 197t-23 198.5t-10.5 171.5q-1 45 -1 86v40q-36 -29 -136 -113l-26 -51q-115 -214 -191 -375t-95 -215l-19 -55 q-9 -1 -23.5 0.5t-45 18t-44.5 47.5q-9 20 -10 56q0 20 3 45z" />
<glyph unicode="L" horiz-adv-x="1140" d="M-108 -160q10 52 65 94q42 34 109 39q16 1 32 1q52 0 104 -12q70 -16 167 -50q93 108 185 276.5t162.5 326t145.5 309t164.5 262.5t187.5 149q52 27 108 31q12 1 23 1l89 -13q56 -17 101.5 -38t96.5 -53q-101 -25 -194 -80.5t-166 -128t-143 -166t-125 -189t-114 -203 t-107.5 -201.5t-107 -190.5t-112.5 -164.5q103 -41 164.5 -64t151 -50t161.5 -39q102 -14 182 -14q12 1 24 1q88 2 149.5 18.5t99.5 34.5t55 33l17 15v-18.5t-6.5 -44t-19.5 -61.5t-42.5 -63t-70.5 -56q-42 -22 -110 -34q-38 -6 -82 -6q-34 0 -71 4q-75 8 -154 30t-135.5 44 t-135.5 65t-116 65t-116 71q-134 -154 -254 -181q-30 -7 -59 -7l-195 73q-60 32 -90 88l-8 8q1 0 2.5 -1.5t3.5 -2.5q-19 28 -19 63q0 14 3 29zM-30 -201q5 -54 59 -72q20 -7 45 -7q52 0 123 32q62 29 139 119q-63 32 -127 51q-46 13 -84 13q-67 0 -113 -39q-42 -37 -43 -86 q1 -6 1 -11z" />
<glyph unicode="M" horiz-adv-x="1570" d="M66 2q0 84 67 217q59 113 140 257.5t187 320t215 324.5t187 216q-78 -3 -181 -48.5t-200 -123.5t-147 -164q-49 -83 -77 -157t-33 -120q-4 -36 -4 -65v-17q2 -34 9 -49l7 -15q-5 -3 -13 -6.5t-31 -5t-42.5 6t-41 36t-32.5 77.5q-5 20 -5 42q0 106 111 247 q122 158 314 278q224 140 405 140h5q213 -2 286 -207l2 -6v-2q0 -33 -182 -407q-216 -441 -252 -536q-15 -40 -15 -54q0 -7 4 -7h1q29 8 255.5 267.5t438.5 514.5l211 256l2 -2q86 98 184 98q11 0 21 -1h4q28 -4 59 -13l37 -18l-2 2q8 -5 8 -8q-115 -32 -546 -852 q-76 -144 -215 -415q-199 -390 -224 -417q-3 -4 -5 -4q-3 0 -1 10l-32 4q-81 19 -84 110v5q0 84 71 219q9 16 112 212.5t199.5 375t153.5 275.5q-206 -254 -381 -453t-238 -238q-33 -20 -61 -20q-20 0 -37 10q-36 18 -57 39t-37 68q-1 4 -1 9q0 66 163 409q24 53 76 159 q176 367 202 452q16 52 -1 51q-11 -1 -36 -24q-115 -117 -316.5 -433.5t-352.5 -602.5q-143 -270 -142 -330v-6l-31 4q-81 19 -81 115z" />
<glyph unicode="N" horiz-adv-x="1212" d="M-88 780q0 107 52.5 214t141.5 193t217 144.5t269 71.5q56 0 153 -12t117 -33l2 2l6 -8l-6 -2q-6 -23 -50.5 -202.5t-59.5 -248.5t-44 -211.5t-40 -250t-11 -206.5q0 -15 5 -88q42 124 252 515t384 614q51 67 93 97t112 30q58 0 97 -27v2l8 -6v-2q-76 -85 -214.5 -292.5 t-277 -440.5t-246.5 -456.5t-122 -326.5q-27 -6 -58 -6q-20 0 -37 11t-28 30t-19.5 44t-13 53.5t-7.5 58.5t-3.5 58.5t-1.5 54t0 44.5v17q0 69 5.5 142.5t21 163.5t25.5 147.5t36.5 167.5t35.5 146t41.5 160t36.5 138q-132 -188 -285 -436.5t-290.5 -519.5t-151.5 -394 l-28 9q-51 13 -73 39t-30 79q-1 7 -1 16q0 101 138 379q150 302 325 578.5t239 327.5q-92 -6 -174.5 -33.5t-146 -70.5t-114 -98t-82.5 -119q-30 -63 -46 -131q-13 -57 -13 -115v-23q3 -70 25 -133q-21 -12 -51 -12q-52 0 -82.5 51t-30.5 106z" />
<glyph unicode="O" d="M-78 217q-4 34 -4 72q0 71 14 153q22 128 68 258.5t117 258.5t152 227t179 160t193 61q43 0 102 -21t107 -54q48 -32 72 -72q11 -18 11 -36q0 -21 -15 -42q41 -19 68.5 -51t39.5 -74.5t16.5 -81t4.5 -88.5q0 -104 -30 -224.5t-83 -239t-130.5 -228.5t-167 -194 t-199 -134.5t-220.5 -50.5q-65 0 -115 24.5t-79.5 61t-51 93.5t-31.5 106t-18 116zM72 76q8 -41 16.5 -68.5t25 -57t43.5 -44.5t64 -15q56 0 123.5 28.5t129 73t112 89.5t88.5 88q106 121 197.5 338.5t91.5 368.5q0 162 -68 190q-9 12 -23 12q-143 -75 -233 -262 q-36 -77 -36 -128q-1 -15 3 -27q13 -52 73 -52h7q25 1 52 7t41 10.5t33 5.5t28 -8q-6 -4 -15.5 -9.5t-39.5 -19t-58.5 -22.5t-67.5 -13q-14 -1 -26 -1q-23 0 -45 4q-32 8 -65 33.5t-54 68.5q-21 39 -21 89q0 15 2 31q8 68 35.5 133.5t71.5 131.5q-110 -89 -209.5 -226 t-163.5 -275t-96 -267q-21 -87 -21 -151q0 -31 5 -56z" />
<glyph unicode="P" horiz-adv-x="1138" d="M0 -84q0 82 123 346.5t244 486.5t200 355t219 133q19 0 54.5 -11t48.5 -22v2l8 -8q-59 -18 -245 -348t-347.5 -663t-181.5 -402h-2q-57 0 -89 36t-32 95zM135 858q0 82 46.5 159.5t120.5 135t163 101.5t178 66.5t162 22.5q205 0 319 -100q93 -81 93 -212q0 -30 -5 -62 q-27 -186 -165.5 -351.5t-290.5 -211.5q-42 -13 -78 -13q-44 1 -78 19q-62 34 -96 147q27 -7 55 -7q53 0 111 24q90 36 165.5 107.5t137 162t90.5 178.5q20 60 20 108q0 53 -24 91q-46 73 -172 73q-86 0 -175 -24.5t-169 -73t-143 -114.5t-100 -156q-36 -87 -36 -184v-5 q-19 -7 -36 -7q-32 0 -56 24q-36 36 -37 102z" />
<glyph unicode="Q" d="M-78 217q-4 34 -4 72q0 70 14 153q22 127 68 258t117 259t152 227t179 160t193 61q43 0 102 -21t107.5 -53.5t71.5 -72.5q11 -18 11 -36q0 -21 -15 -42q41 -19 68.5 -51t39.5 -74.5t16.5 -81t4.5 -88.5q0 -149 -57.5 -323t-164.5 -337.5t-239 -267.5q85 -176 230 -263 q101 -60 211 -60q50 0 101 12q-94 -79 -193 -106q-70 -18 -124 -18q-23 0 -43 3q-98 16 -173.5 114t-119.5 244q-132 -69 -258 -69q-65 0 -115 24.5t-79.5 61t-51 93.5t-31.5 106t-18 116zM72 76q8 -41 16.5 -68.5t25 -57t43.5 -44.5t64 -15q97 0 230 86q-32 140 -32 276 q0 22 1 44q-1 16 0.5 29t3.5 22t8.5 17t10.5 12t13.5 9t13.5 6.5t15.5 5.5t14.5 5q-1 -25 -1 -50q0 -160 50 -304q80 70 125 121q106 121 197.5 338.5t91.5 368.5q0 162 -68 190q-9 12 -23 12q-143 -75 -233 -262q-36 -77 -36 -128q0 -15 3 -27q13 -52 73 -52h7q25 1 52 7 t41 10.5t33 5.5t28 -8q-6 -4 -15.5 -9.5t-39.5 -19t-58.5 -22.5t-67.5 -13q-14 -1 -26 -1q-24 0 -45 4q-33 8 -65.5 33.5t-53.5 68.5q-21 39 -21 89q0 15 2 31q8 68 35.5 133.5t71.5 131.5q-110 -89 -209.5 -226t-163.5 -275t-96 -267q-21 -87 -21 -151q0 -31 5 -56z" />
<glyph unicode="R" horiz-adv-x="1138" d="M0 -84q0 82 123 346.5t244 486.5t200 355t219 133q19 0 54.5 -11t48.5 -22v2l8 -8q-59 -18 -245 -348t-347.5 -663t-181.5 -402h-2q-57 0 -89 36t-32 95zM135 858q0 82 46.5 159.5t120.5 135t163 101.5t178 66.5t162 22.5q205 0 319 -100q93 -81 93 -212q0 -30 -5 -62 q-27 -186 -165.5 -351.5t-290.5 -211.5q-47 -14 -84 -14q-25 0 -45 7q29 -119 64 -223.5t93 -217.5t124.5 -187t161.5 -111q57 -22 118 -22q41 0 84 10q-94 -80 -194 -106q-70 -19 -124 -18q-23 0 -43 3q-59 9 -108.5 49.5t-84.5 99t-63 138t-45.5 159t-30 170.5t-18 163.5 t-8.5 146.5q-34 47 -49 106q27 -7 55 -8q53 1 111 25q90 36 165.5 107.5t137 162t90.5 178.5q20 60 20 108q0 53 -24 91q-46 73 -172 73q-86 0 -175 -24.5t-169 -73t-143 -114.5t-100 -156q-36 -87 -36 -184v-5q-19 -7 -36 -7q-32 0 -56 24q-36 36 -37 102z" />
<glyph unicode="S" horiz-adv-x="731" d="M-157 49q17 114 106 160q47 25 109 25q33 0 71 -7q-38 -35 -79.5 -108.5t-59.5 -177.5q-4 -24 -4 -45q0 -32 9 -56q15 -40 43 -52q15 -7 32 -7q16 -1 34 5q37 12 68 48q33 37 41 105q3 29 3 59q0 38 -6 80q-10 72 -34 170l-33 131q-27 104 -41 208q-11 77 -11 162 q0 29 1 59q5 116 37 200q2 8 6.5 22.5t23 56t42 79t66.5 82.5t95 77q48 33 102 52t98 23q38 3 71 3q5 -1 9 -1q36 0 57 -4l20 -5q105 -29 165 -95t70 -146q4 -27 3 -54q1 -55 -13 -114q-20 -89 -67 -165.5t-111 -135t-131 -79.5q-57 -16 -101 -16h-10q-48 2 -82 17t-55 32.5 t-31 32.5l-10 14q6 2 16.5 6t44.5 21.5t69 42t85 70.5t96 102q43 52 75 104t48 104q13 40 12 75q0 9 -1 19q-5 42 -42.5 71.5t-107.5 37.5q-19 2 -38 2q-103 0 -183 -57q-16 -11 -36.5 -32t-49 -58.5t-48.5 -95t-22 -121.5v-14q0 -71 26 -187q30 -128 66.5 -249t63.5 -265 q21 -114 21 -201q0 -22 -1 -43q-6 -86 -65 -158.5t-146 -108.5q-67 -28 -132 -28q-20 0 -40 3q-111 14 -173 120q-45 75 -45 158q0 23 4 47z" />
<glyph unicode="T" horiz-adv-x="647" d="M-68 676q10 141 58.5 249.5t124 176t177.5 113t216 63.5q113 18 243 26q70 4 138 5q59 1 119 -3q126 -6 258 -13t245 -14q75 -5 149 -5q36 0 72 2q108 4 183 20q-2 -103 -59.5 -167t-159.5 -64q-71 0 -186.5 26t-224.5 59t-236 64t-221 41q-31 3 -62 3q-61 0 -117 -13 q-89 -10 -176.5 -56.5t-154.5 -119.5q-66 -73 -108 -159q-41 -84 -42 -181q0 -99 51 -186q-67 -25 -124 -25q-9 0 -19 1q-66 5 -108 47q-37 38 -37 96q0 7 1 14zM-53 -299q0 71 99 312t226.5 498.5t255.5 467t179 223.5q36 10 90 10q65 0 100 -24v2l8 -8 q-44 -14 -178 -246.5t-273.5 -516t-254 -535t-129.5 -308.5h-7q-54 0 -85 35t-31 90z" />
<glyph unicode="U" horiz-adv-x="1427" d="M2 700q4 43 34.5 100t91 119t138.5 115t188.5 88t229.5 37q38 0 61 -2q14 2 43 2h5q17 -3 63 -14q11 -4 21 -8.5t14 -7.5l4 -3v2l8 -8q-3 0 -11 -4t-24 -17.5t-32 -33.5q-2 -3 -7.5 -9t-7.5 -9q-1 -1 -2 -4.5t-2 -4.5q-3 -3 -5.5 -6.5t-5.5 -8l-5 -7.5l-2 -2 q-46 -66 -95.5 -143t-115 -188t-118.5 -226t-77 -205q-23 -71 -23 -136q0 -14 1 -28q3 -111 61 -157q34 -27 82 -26q35 0 78 13q68 12 137 72q79 54 139 153q48 76 99.5 168.5t78.5 146.5l27 54q228 437 340 637q16 28 17 31q4 4 4 8q89 136 210 136q8 0 15 -1h2 q52 -11 65 -14l37 -19v2l9 -8l-5 -2q-5 -3 -13 -8t-18 -13t-23 -23t-25 -34q-1 -2 -19 -24q-7 -17 -22 -39q-3 -3 -48 -78q-14 -28 -28 -49q-55 -93 -83.5 -153.5t-29.5 -61.5q-104 -187 -129 -232q-9 -26 -53 -100q-205 -355 -420 -516q-148 -112 -288 -112q-16 0 -31 1 q-100 20 -171.5 57t-108 83t-55.5 100q-16 46 -16 93v15q3 54 13.5 106.5t30 98.5t36.5 81t30 55l13 20q145 275 236 438q10 20 16 29l4 8q22 37 56 68q-107 -26 -207 -82.5t-162 -124.5q-41 -45 -68 -97t-37.5 -94t-14.5 -77.5t-2 -55.5l1 -20q-21 -6 -38 -6q-19 0 -32 8 q-3 1 -8 3t-16.5 12.5t-20 26t-13.5 45.5q-3 17 -3 37q0 16 2 33z" />
<glyph unicode="V" horiz-adv-x="1593" d="M190 857q15 92 82.5 182.5t173.5 148.5q38 22 108 38q59 13 111 13h19q74 -183 90 -447q4 -75 4 -148q0 -187 -28 -368q-40 -252 -119 -423q151 63 297 206t252 317t171.5 368t65.5 358q0 64 -12.5 135t-40.5 111q68 22 137 22q182 0 182 -172q0 -120 -39 -261.5 t-108 -282.5t-168 -279.5t-213.5 -253.5t-252 -202.5t-275.5 -127.5q-83 31 -102 43q-37 24 -37 58q0 13 6 28q50 173 72 375q16 152 17 285q0 42 -2 84q-7 168 -32.5 298.5t-63.5 182.5q-78 -27 -125.5 -88t-56.5 -136q-3 -26 -3 -52q0 -49 11 -99q17 -76 67 -141t122 -99 q-28 -32 -66 -32q-6 -2 -20 -2q-86 0 -146 52t-76 134q-9 43 -9 90q0 41 7 85zM988 820q14 92 54 177t94.5 155.5t113 120.5t110.5 73q49 20 91 27q27 4 47 4q12 0 21 -1q26 -4 44.5 -11t26.5 -15l7 -7q-3 0 -8 0.5t-18.5 1.5t-18.5 1h-8q-3 1 -8 3t-21.5 3.5t-34.5 -1 t-45.5 -14t-54.5 -32.5q-126 -95 -198 -283q-53 -137 -52 -256q0 -44 7 -86q27 -154 159 -158q-5 -4 -13.5 -9.5t-33.5 -18.5t-49 -20q-21 -6 -48 -6h-8q-32 1 -58 16t-51 53t-40 98q-12 55 -12 110q-1 37 5 75z" />
<glyph unicode="W" horiz-adv-x="1732" d="M43 454q-22 60 -22 133q0 75 23 165q50 198 183 335q76 79 168 121q39 20 113 35q62 12 113 13q10 0 20 -1q18 -78 18 -178q-1 -134 -33 -309q-58 -305 -171 -584q37 43 81.5 99t83 107.5t82.5 109.5t82.5 108.5t81 99.5t80 87.5t76.5 68.5t74 45.5t69.5 15.5t65.5 -18 l82 -67q-23 -41 -55 -108.5t-76 -177.5t-78 -216t-50 -221q-9 -60 -8 -111q0 -46 7 -84q13 -72 22 -92v7q1 49 49 187q52 148 135 329.5t199.5 380.5t224.5 327q50 60 94.5 106t104.5 93q62 48 112 68q31 12 62 11q20 -1 42 -5q54 -12 93 -68q-130 -62 -278.5 -200 t-279.5 -309.5t-244 -354t-187 -349.5t-94 -280l2 -2q-2 0 -2 -2v-2q-6 -3 -10 -3q-29 -13 -73 -17q-20 -2 -35 -2q-19 0 -32 3q-78 16 -104 129q-12 52 -12 126q0 248 133 749h2q-2 2 0 4l12 18q-69 -106 -205.5 -275.5t-278.5 -338.5t-194 -240l2 2l-26 -35 q-33 31 -49.5 49t-26.5 35t-8 30.5t12 29.5q82 161 140 348.5t81 342.5q21 143 21 256v20q-2 121 -31 169q-70 -21 -126.5 -82t-89.5 -139q-33 -80 -47 -170q-9 -58 -9 -110q0 -30 3 -60q8 -80 41.5 -144.5t88.5 -90.5q-35 -31 -70 -31q-8 -2 -22 -2q-109 0 -152 116z" />
<glyph unicode="X" horiz-adv-x="1204" d="M-309 -174q3 -5 11 -12t32.5 -17.5t55.5 -14.5q10 -1 22 -1q26 -1 62 5q53 8 114 34q117 48 236 150.5t182 181.5v22q0 94 15 208q17 128 48 256.5t56.5 222.5t57 194.5t33.5 107.5l-2 6q-82 -21 -154.5 -80.5t-121 -136t-77.5 -164.5q-29 -90 -31 -168q0 -6 -1 -12 q1 -70 27 -128q28 -62 86 -89q-48 -31 -84 -31q-8 -2 -25 -2q-118 0 -150 108q-11 37 -11 79q0 88 47 201q78 188 237 324q107 93 232 140q46 20 132 34q71 12 127 12q12 0 23 -1q-2 -8 -51 -160.5t-110 -364.5t-95 -380q27 35 68.5 98.5t77 120t84.5 121.5t93 112.5 t99 82.5t107 43q12 2 24 1q42 0 89 -20q61 -26 120 -90q-82 -4 -164 -35t-146.5 -73.5t-135.5 -105.5t-119.5 -115t-109.5 -117.5t-95 -98.5q-20 -115 -24 -223q-1 -22 -1 -43q-1 -82 13 -147q18 -82 59 -97q20 -7 41 -7q34 0 72 18q62 30 120 93.5t116 145t106 166.5 t85 156t58 116l21 46l47 -29q-6 -16 -17 -42.5t-48 -104t-76 -148.5t-98 -158.5t-117.5 -151t-131.5 -108.5t-143 -49q-61 2 -107.5 25.5t-76 58.5t-50 86.5t-30.5 101t-16 111.5q-36 -47 -59 -76t-67.5 -82.5t-81 -89.5t-81 -74.5t-87 -60.5t-79.5 -26q-24 -3 -46 -3 q-32 0 -60 6q-48 12 -75 31.5t-46.5 45.5t-26 40.5t-8.5 24.5z" />
<glyph unicode="Y" horiz-adv-x="1026" d="M-98 -174q5 -5 14.5 -11.5t36 -16t57.5 -12.5q8 -1 17 -1q27 0 65 7q50 9 105 34t123 100t129.5 170.5t97.5 157t61 108.5q-96 10 -158 50t-86 99t-26 133v9q0 69 20 141q21 76 53 151.5t70 138t76 108.5q-77 -15 -148.5 -59t-125.5 -103.5t-90 -133t-47 -144.5 q-3 -25 -3 -50q0 -46 13 -92q20 -70 73 -121q-33 -8 -62 -8q-35 0 -65 11q-54 21 -79 70t-27 114v8q0 61 26 134q28 77 82 149q65 87 162.5 151t198.5 92q72 21 143 21q29 0 57 -3q99 -12 166 -67q-72 -62 -168 -223q-133 -221 -154 -371q-3 -23 -3 -43q0 -124 119 -124h7 q7 0 15 1q12 26 38.5 85.5t51 116t62 131.5t73 139.5t82.5 131.5t93 116.5t101.5 85.5t109.5 47q21 3 42 3q36 0 76 -11q63 -18 125 -70q-101 -19 -200.5 -107.5t-183.5 -215.5t-167.5 -277.5t-165.5 -301.5t-163.5 -279t-176.5 -218.5t-190 -112.5q-34 -6 -65 -6 q-13 0 -27 1q-42 4 -81.5 23.5t-70 40t-55 44.5t-37 38.5t-16.5 20.5z" />
<glyph unicode="Z" horiz-adv-x="1443" d="M-193 39q1 0 2 -0.5t2 -1.5t3 -2q-5 15 -5 29q1 26 17 52q24 40 90 66q73 33 146 33l270 -113q49 34 61 45q97 59 194 141t179.5 164.5l165 165t181 165.5t196.5 143q147 95 266 106q-85 48 -215 85q-126 36 -279 36h-8q-140 -3 -247.5 -62.5t-151.5 -158.5 q-14 -28 -19.5 -60t-4.5 -55.5t4 -44t6 -30.5t2 -9q-88 26 -136 66q-47 41 -53 83q-1 10 -1 19q0 33 16 69q20 46 63 86t99 72.5t116 49.5q107 31 248.5 31t287 -29t289.5 -94t246 -156q-99 -1 -213.5 -49.5t-219 -123t-226 -176.5t-224.5 -198t-226.5 -200.5t-219.5 -170.5 q293 -156 448 -202q109 -31 203 -43q68 -9 116 -8q17 1 33 1q56 4 96 13.5t56 19.5l15 10q-2 -7 -5 -18t-19 -41t-36.5 -55.5t-59.5 -52t-87 -39.5q-37 -10 -90 -10q-14 1 -29 1q-72 4 -156 29q-73 23 -137 52t-129.5 72t-98 67t-105 82.5t-89.5 72.5q-173 -106 -313 -115 h-8q-129 0 -232 95q-54 40 -67 88zM-109 69q-2 -8 -2 -16q0 -36 43 -56q32 -14 80 -14q42 0 97 11q66 14 176 78q-34 27 -117 65q-63 26 -118 26q-49 0 -92 -21q-56 -28 -67 -73z" />
<glyph unicode="[" horiz-adv-x="593" d="M-138 -76q2 26 19 68q17 48 88 176q217 400 523 911q38 66 95.5 97.5t110.5 31.5q17 0 49 4.5t46 4.5q7 0 11 -2.5t1 -8.5l-25 -37.5t-26 -38t-21 -26.5q-4 -6 -27.5 -11.5t-54 -12t-45.5 -13.5q-150 -253 -516 -905q-9 -18 -27 -50.5t-24 -45.5q-15 -40 -8.5 -58 t37.5 -18q36 0 73 6q-23 -46 -44 -74t-44 -39.5t-40 -14.5t-46 -3q-37 0 -57.5 4t-35 16.5t-12.5 38.5z" />
<glyph unicode="\" horiz-adv-x="462" d="M25 -121q70 156 188 651q52 238 79 430.5t21 258.5q23 6 54 6q41 0 52 -20.5t13 -74.5q-13 -153 -110 -598q-117 -532 -142 -589q-24 -66 -86 -66q-13 0 -36.5 1t-32.5 1z" />
<glyph unicode="]" horiz-adv-x="759" d="M-176 -102q1 12 8 30q18 40 37 68q18 -6 57 -6q59 0 115 76q31 56 57 96q175 301 506 905q-7 7 -29.5 13.5t-40 12t-16.5 11.5q20 51 49 102q8 11 23 11q14 0 41 -4.5t43 -4.5q33 0 54.5 -12t28 -41t-19.5 -76q-312 -568 -510 -911q-25 -45 -61.5 -103t-44.5 -73 q-58 -79 -110 -103t-128 -24q-16 0 -25 0.5t-19 4t-13 10t-2 18.5z" />
<glyph unicode="^" horiz-adv-x="610" d="M6 508q7 8 16.5 17.5t21.5 21t19 18.5q125 115 255.5 255.5t216.5 256.5q45 51 51 56q33 -10 35 -47.5t-13 -86.5q-3 -13 -4 -20q-24 -115 -44 -256t-23 -217q-27 -19 -39 -19q-61 0 -70.5 102.5t23.5 250.5q-280 -306 -418 -353h-4q-7 0 -14.5 5.5t-8.5 15.5z" />
<glyph unicode="_" horiz-adv-x="786" d="M-37 -168q0 12 22.5 53.5t34.5 53.5q20 -3 212.5 4.5t363 5.5t170.5 -27v-6q-8 -12 -30 -51.5t-36 -59.5q-29 9 -107.5 7t-186.5 -5.5t-206.5 -6.5t-167.5 4.5t-69 27.5z" />
<glyph unicode="`" horiz-adv-x="460" d="M84 1124q7 37 31 62t63 22q10 -31 74.5 -114t120 -157t51.5 -91q-6 -35 -33 -23q-42 24 -116.5 86.5t-134.5 127.5t-56 87z" />
<glyph unicode="a" horiz-adv-x="724" d="M-119 162q0 6 2.5 23.5t16 62t35.5 93.5t67.5 117t106.5 132q190 205 337 205q80 0 150 -58q91 -76 94 -159q0 -5 1 -10q0 -45 -25 -91q12 -12 12 -18l-23 -35q-23 -34 -66.5 -104t-84.5 -142q-108 -198 -108 -255q0 -10 3 -15q2 -4 11 -4q10 0 16 6q46 35 174.5 208 t192.5 267t108 160h2q16 -3 23 -17q2 -5 2 -11q0 -5 -2 -9q-2 -12 -6.5 -21l-8.5 -17l-4 -7l-35 -51q-34 -51 -100 -147t-129 -185q-92 -131 -145.5 -183.5t-94.5 -52.5q-14 0 -22 2q-76 22 -111 91q-20 42 -20 96q0 42 12 92q6 27 60 139q-180 -223 -265 -256 q-28 -8 -41 -8q-20 0 -38.5 9t-31.5 23t-24 31t-18.5 34.5t-12.5 31.5t-7 23zM39 86q0 -6 4 -10h2q41 0 399 422v6q3 4 9 10.5t26 17.5t43 11q30 0 64 -17l35 -18q16 34 16 64q0 14 -4 28q-9 27 -43 39q-6 4 -23 4q-53 0 -141.5 -55t-169.5 -139q-86 -88 -154 -207 q-64 -111 -63 -151v-5z" />
<glyph unicode="b" horiz-adv-x="704" d="M-117 78q-9 19 -9 48q0 60 40 165q27 67 362 710q38 72 58 111q4 4 4 8l4 8l127 240q57 -14 88 -39q35 -25 43 -69q3 -17 4 -35q0 -29 -8 -57q-14 -46 -43 -91q-7 -9 -166 -301l-49 -88q50 31 108 31q44 0 93 -19q35 -12 51 -84q11 -47 11 -84q0 -20 -3 -36q68 41 209 77 l24 -41q-168 -48 -235 -92q-17 -149 -145 -295q-23 -25 -46.5 -46.5t-42.5 -35t-37.5 -24.5t-32 -17.5t-24 -10l-16.5 -5.5l-6 -2q-39 -8 -82 -8q-62 0 -86 24q-15 18 -15 48q7 79 80 146.5t279 207.5q26 70 38 143q5 32 6 54q0 28 -9 40q-15 15 -37 15q-24 0 -52 -17 t-44.5 -33t-16.5 -18l-61 -90l-37 -74l-51 -98q-31 -57 -47 -90q-56 -109 -62 -154q-19 -51 -24 -82v-2h-2q-31 9 -46 11q-2 1 -14 3.5t-15 3.5t-13 4t-13.5 5t-11 6t-11 8t-8.5 9.5t-8 11.5zM129 80q13 3 52.5 29t95.5 79.5t88 110.5l24 35q-81 -48 -180 -136 q-83 -74 -83 -107q0 -6 3 -11z" />
<glyph unicode="c" horiz-adv-x="618" d="M-74 150q0 3 -1 5q-1 33 5 85q6 56 31 126t68 138q130 205 276 205q80 0 168 -58l27 -18l2 -2q51 -34 51 -80q-2 -57 -96 -119q-9 -6 -19 -6t-17.5 7.5t-10 14.5t-2.5 9v2h2q80 51 90 82q6 17 0 26q-1 3 -3 5t-3 2l-2 1q-54 0 -134 -63t-139 -150q-51 -78 -86 -192 q-21 -94 -22 -151q0 -52 18 -74q8 -11 25 -11q32 0 102 48q0 3 12 12q84 54 230 221l250 289l2 2h2l4 -4q3 -3 7.5 -9t6.5 -14q1 -5 1 -11q0 -23 -19 -52q-57 -80 -229.5 -272t-243.5 -222l-13 -8q-73 -43 -135 -43q-135 0 -197 201v2q0 1 -0.5 2.5t-1.5 5.5l-2 8 q-4 26 -4 60z" />
<glyph unicode="d" horiz-adv-x="829" d="M-104 49q0 9 2.5 35t15.5 90t34.5 127.5t67 144t105.5 144.5q193 205 340 205q76 0 149 -58l19 -16l121 227l4 8l4 9l125 239l2 -2q48 -7 88 -37q35 -27 43 -71q3 -17 4 -33q0 -28 -9 -57q-14 -46 -44 -91l-166 -301q-61 -117 -125 -231q-32 -59 -53 -102l-52 -101 q-106 -194 -106 -252q0 -12 4 -18q3 -6 8 -6q11 0 15 8q10 15 109 172t195 309.5t97 153.5h2q17 -3 27 -19q5 -13 2.5 -27t-6 -24t-5.5 -12q-1 -1 -52 -83t-131.5 -211.5t-137.5 -219.5q-66 -103 -125 -103q-12 0 -18 2q-74 18 -111 89q-20 39 -20 94q0 42 12 94 q11 48 80 178q-41 -44 -113.5 -144.5t-131.5 -174.5t-93 -88q-32 -9 -41 -9q-28 0 -52 16.5t-39 39.5t-25.5 48t-14.5 40.5t-4 17.5zM51 -27q2 -2 5 -2q22 -1 92 83q80 96 191.5 238.5t166.5 196.5h2q0 1 1 3.5t1 3.5q36 63 98 184q-6 2 -18 2q-21 0 -50 -13t-56.5 -32 t-57 -42.5t-50 -42.5t-37 -35t-17.5 -17v-2l-52 -49q-105 -109 -195 -283q-52 -100 -52 -149q0 -36 28 -44z" />
<glyph unicode="e" horiz-adv-x="620" d="M-66 172q0 3 -1 7q0 33 5 83q5 56 30 126t69 138q127 205 276 205q79 0 168 -57l27 -19v-2q38 -24 41 -65q1 -5 1 -10q0 -83 -132 -218h-2v-2q-126 -108 -203 -108q-17 0 -23 2q-16 3 -22 18q-15 -38 -27 -75v-2q-7 -28 -14 -70q-7 -47 -7 -81q0 -53 17 -75 q10 -13 23 -10q9 -4 23.5 -4.5t43.5 6.5t62 23.5t80.5 55t97.5 93.5t113.5 145.5t128.5 204.5v2h2q23 -5 23 -32.5t-23 -77.5q-13 -27 -47.5 -80t-95 -127t-126.5 -136q-68 -64 -150 -104q-69 -34 -131 -33q-12 0 -24 1q-70 8 -118 55.5t-76 144.5l-2 2l-1 6q-1 5 -1 11 q-5 27 -5 59zM209 317q3 -5 10 -5q5 0 12 3q49 14 138 84h-2l2 2q1 1 4.5 5.5t5.5 5.5q119 125 119 186q-54 -2 -134 -64.5t-137 -148.5q-2 -2 -2 -4q-18 -38 -18 -55q0 -5 2 -9z" />
<glyph unicode="f" horiz-adv-x="425" d="M-373 -283q9 38 44 110t136 261l240 453l4 8l4 8l125 238h2q48 -7 88 -37q35 -26 43 -70q3 -17 3 -33q0 -29 -9 -58q-14 -46 -43 -91l-88 -162q-1 -5 -1 -10q0 -34 24 -47q16 -4 24 -4q10 0 22 3t22.5 7t21.5 9t18 9t13 7l6 4q36 41 68.5 78.5t52.5 62.5t35 44t22 29l8 9 h2q16 -3 23 -17q3 -9 3 -18v-6q-2 -13 -6 -22l-4 -9q0 -1 -18.5 -25t-56 -70.5t-78.5 -94.5h-2q0 -1 -1 -2t-1 -2l-2 -3q-23 -25 -62.5 -40t-79.5 -15q-36 0 -63 15q-19 8 -27 18q-3 -34 -8 -82.5t-22.5 -150t-40 -188.5t-63 -176.5t-89.5 -135.5q-88 -84 -147 -84 q-11 0 -23 4q-75 18 -111 88q-20 39 -20 94q0 42 12 94zM-236 -498q3 -6 9.5 -6t17.5 6q53 29 98.5 100t76.5 165.5t50.5 177t34.5 170.5q-42 -72 -78 -142q-32 -58 -53 -102l-51 -100q-108 -201 -108 -255q0 -9 3 -14z" />
<glyph unicode="g" horiz-adv-x="808" d="M-316 -647q3 30 19.5 65t29 53t31.5 42q9 9 15 18q79 112 338 311l10 21q14 27 54.5 107t64.5 126l51 105q-142 -164 -211 -193q-28 -8 -41 -8q-28 0 -52 16.5t-39 39.5t-25.5 48t-14.5 40.5t-4 17.5q0 6 2.5 23.5t15.5 62.5t34.5 93.5t67 116.5t105.5 132 q193 205 340 205q80 0 150 -58q88 -73 94 -159q0 -38 -19 -86l21 -19h2l-2 -2q-2 0 -13 -10t-30 -32t-35 -48q-81 -131 -164 -281l211 138q4 4 23.5 17t50.5 27.5t51 14.5q25 0 31 -25v-2l-2 -2q-2 0 -57.5 -33.5t-160 -101t-204.5 -137.5l-27 -49q-228 -437 -280 -516 q-73 -115 -156.5 -180.5t-155.5 -65.5q-43 0 -73 24q-30 36 -40 75q-7 29 -7 53q0 8 1 16zM-246 -717l2 -2q5 0 17.5 9t36.5 35.5t53 66t71 110t86 158.5l31 57q-307 -260 -307 -391q0 -24 10 -43zM66 80q0 -2 4 -2q53 0 329 330q25 61 69.5 106t98.5 45q17 0 35 -6 q27 -11 53 -29q9 24 9 46q0 16 -5 30q-9 26 -41 39q-6 4 -22 4q-54 0 -141.5 -54.5t-169.5 -139.5q-88 -91 -159 -217q-61 -110 -61 -144q0 -5 1 -8z" />
<glyph unicode="h" horiz-adv-x="851" d="M-178 -88q-12 20 -12 49q0 90 110 272q23 37 61 105.5t77 142.5t83 157.5t75.5 145t57.5 110.5l25 50q0 4 4 8l4 9l125 239h2q55 -14 88 -39q36 -25 44 -69q3 -17 3 -34q0 -28 -9 -58q-14 -46 -44 -91l-166 -301q-30 -55 -67.5 -124l-62.5 -115t-32 -60q-47 -79 -86 -159 l7 6q97 138 295.5 339.5t252.5 233.5q11 7 25 10v2l2 -2q21 15 41 15q25 0 72 -33q28 -21 46.5 -39.5t24.5 -26.5l6 -8v-2h-2l-20 -23q-19 -24 -55 -70t-68 -93q-22 -35 -57 -90l-58 -97l-28 -51q-3 -7 -11.5 -21t-11.5 -22q-103 -201 -104 -255q0 -10 4 -15q2 -4 8 -4 q10 0 16 6q93 74 452 630l3 5h2q16 -3 23 -17q2 -5 2 -11q0 -7 -3 -16q-5 -16 -10.5 -26t-7.5 -12q-1 -1 -33.5 -51t-96.5 -147t-122 -185q-92 -133 -142 -184.5t-89 -51.5q-15 0 -21 2q-70 20 -106 91q-19 40 -19 95q0 42 11 93q9 44 120 264q11 23 17 35q17 33 37 76v4h2 q0 2 2 4l10 18q-118 -117 -145 -147q-47 -50 -90 -98t-75 -88t-60 -77.5t-48 -67.5t-36 -55.5t-26 -44.5t-17 -32t-10 -20l-3 -7v-2l-12 -2v-4h-2q-37 -12 -78 -12q-70 0 -94 43z" />
<glyph unicode="i" horiz-adv-x="382" d="M-141 125q13 51 137 299q16 33 39 76v4q0 2 4 4q79 153 127 197q57 49 88 49q28 0 72 -33q28 -21 47.5 -39.5t24.5 -26.5l5 -8v-2q-4 -4 -22 -24.5t-54.5 -67.5t-68.5 -94q-22 -35 -57 -90l-56 -97q-28 -45 -28 -51q-21 -33 -25 -43q-103 -201 -103 -255q0 -10 3 -15 q2 -4 8 -4q10 0 16 6q45 35 158.5 193.5t204 296.5t92.5 145h4q14 -3 21 -17q4 -11 -0.5 -27t-10.5 -26t-8 -12q0 -1 -33 -52t-94.5 -144.5t-124.5 -186.5q-89 -132 -140 -184t-91 -52q-13 0 -21 2q-73 22 -104 91q-20 40 -20 98q0 40 10 90zM223 846q-12 23 -12 49t12 55 q25 61 71 95t105 34q77 0 121 -53q15 -18 15 -38v-7q-2 -21 -21.5 -45t-34.5 -35.5t-49 -36.5q-41 -29 -51 -41q-9 -13 -13.5 -24.5t-4.5 -19t1 -12.5t3 -8l2 -3l4 -4l-6 2q-2 0 -12.5 2.5t-28.5 9.5t-36.5 17t-36.5 26.5t-28 36.5z" />
<glyph unicode="j" horiz-adv-x="497" d="M-528 -537q-1 10 -1 19q0 40 25 71q27 34 72 34q7 0 14 -1q-17 -10 -27.5 -37.5t-4.5 -51.5t30 -25q3 -1 6 -1q30 0 72 63q46 71 164 304l28 56l68 126l10 19l117 233l154 310q25 62 69.5 107.5t98.5 45.5q18 0 36 -6q23 -7 62.5 -35t54.5 -43l2 -2l-2 -2 q-41 -31 -78 -90q9 15 -2 -7q-85 -166 -422 -770q-116 -204 -118 -204q-1 0 16 33q-31 -49 -67 -91.5t-77.5 -79.5t-83 -56t-84.5 -22h-8q-38 0 -73 24q-43 28 -51 79zM381 950q25 60 72.5 94.5t105.5 34.5q74 0 121 -53q14 -20 14 -40v-7q-7 -48 -104 -115q-42 -29 -51 -43 q-14 -20 -17.5 -36.5t-0.5 -22.5l3 -6l6 -4h-8q-4 1 -11.5 3t-27 10t-36.5 17.5t-35.5 26t-28.5 35.5q-12 25 -12 52q0 26 10 54z" />
<glyph unicode="k" horiz-adv-x="681" d="M-174 -88q-12 20 -12 49q0 90 110 272q23 37 61 105.5t77 142.5t83 157.5t75.5 145t57.5 110.5l25 50l8 17l125 239h2q55 -14 88 -39q36 -25 44 -69q3 -17 3 -34q0 -28 -9 -58q-14 -46 -44 -91q-18 -27 -125 -229q69 49 117 49q23 0 33 -10q17 -15 31.5 -32t29 -41 t21.5 -47t4 -51t-17 -54q-32 -48 -101 -110.5t-155 -100.5q-14 -97 -14 -159q0 -76 21 -101q10 -13 22 -13q5 0 11 3t9 7l3 3h2l10 6q53 53 151 210.5t168 305.5h2q16 -3 19 -17q3 -5 3 -12q0 -4 -1 -8q-2 -12 -5.5 -21t-6.5 -17l-4 -7l-18 -34q-18 -34 -47.5 -88 t-64.5 -114.5t-76 -123.5t-75 -105q-15 -18 -21 -21l-16 -20l-2 -2q-48 -45 -104 -45q-43 3 -75.5 35t-49 71.5t-27 93.5t-13 81.5t-3.5 54.5q-56 -104 -95 -194.5t-50 -129.5l-11 -39v-2h-2q-37 -12 -78 -12q-70 0 -94 43zM236 391q42 23 86 51t99 67t88.5 78t31.5 66 q0 23 -19 23q-50 0 -215 -156z" />
<glyph unicode="l" horiz-adv-x="450" d="M-178 -17q-10 32 -10 70q0 42 12 90q8 35 41.5 103t117.5 229q14 25 21 39q70 129 240 451l4 10l4 8v-2l125 240h2q54 -14 88 -37q35 -26 43 -70q3 -17 4 -34q0 -28 -9 -57q-14 -46 -44 -91l-164 -303l-127 -230q-9 -19 -27.5 -55t-25.5 -49l-51 -98q-106 -196 -107 -254 q0 -6 2 -11q11 -16 37 -16q81 0 250 199q33 39 68.5 85.5t62.5 85t49 71t34 51.5l13 20v2h2q11 0 19 -10q11 -11 8 -33q-1 -13 -30.5 -63t-86.5 -128.5t-119 -148.5q-168 -190 -284 -190q-41 0 -82 26q-60 32 -80 100z" />
<glyph unicode="m" horiz-adv-x="1280" d="M-182 -88q-12 21 -12 51q0 91 108 270q67 108 143 256l25 52q4 4 4 8l4 8l125 238h2q50 -6 88 -37q35 -26 43 -70q3 -17 4 -35q0 -28 -8 -56q-14 -46 -43 -91q-10 -14 -51 -81t-68 -116l-61 -114q109 140 290.5 322.5t229.5 211.5q15 7 25 10v2h2q51 -4 94 -51 q20 -21 32 -46.5t14.5 -37t2.5 -16.5l-62 -86q-62 -85 -141 -196.5t-114 -166.5q-78 -118 -79 -189q0 -3 1 -7q30 83 116 209q97 141 296.5 348t252.5 239q27 17 54 17q6 0 30 -6q8 -3 54 -31q28 -21 47 -39.5t24 -26.5l6 -8v-2q-4 -4 -22 -24.5t-54.5 -67.5t-68.5 -94 q-22 -35 -57 -90l-39 -68q-45 -78 -45 -80l-25 -43q-103 -201 -103 -255q0 -10 3 -15q2 -4 8 -4q10 0 16 6q45 35 158.5 193.5t204 296.5t92.5 145h4q14 -3 21 -17q2 -5 2 -11q-1 -7 -3 -16q-4 -16 -10 -26t-8 -12q0 -1 -33 -52t-94.5 -144.5t-124.5 -186.5 q-89 -132 -140 -184t-91 -52q-13 0 -21 2q-73 22 -104 91q-20 40 -20 98q0 41 10 90q13 51 137 299q16 33 39 76v4q0 2 4 4l14 29q-83 -83 -147 -154q-80 -86 -146.5 -168.5t-103.5 -137t-65.5 -103t-37 -66.5t-12.5 -29v-2h-2q-6 -12 -18 -12q-6 0 -12 2l-7 2 q-84 55 -84 160q0 73 41 170q61 143 215 389q-100 -93 -209 -209q-83 -87 -151 -169.5t-106 -137.5t-64 -99t-34.5 -63t-8.5 -21l-2 -2v-6h-2q-39 -12 -80 -12q-71 0 -92 43z" />
<glyph unicode="n" horiz-adv-x="790" d="M-199 -88q-12 20 -12 49q0 90 111 272q64 106 141 256l27 52l4 8l4 8l125 238h2q48 -7 88 -37q35 -26 43 -70q3 -16 3 -33q0 -29 -9 -58q-14 -46 -43 -91q-2 -3 -23.5 -38t-48.5 -80.5t-45 -78.5q-23 -39 -47 -86q110 140 285 315.5t221 202.5q27 17 53 17q17 0 33 -8 q16 -5 51 -29q28 -21 47.5 -39.5t24.5 -26.5l6 -8v-2q-5 -5 -22.5 -25t-54.5 -67t-69 -94q-22 -35 -57 -90q-80 -136 -84 -148q-2 -3 -25 -43q-103 -201 -103 -255q0 -10 3 -15q2 -4 8 -4q11 0 17 6q45 35 158 193.5t203.5 296.5t92.5 145h4q14 -3 21 -17q2 -5 2 -11 q0 -7 -2 -16q-4 -16 -10.5 -26t-8.5 -12q0 -1 -32.5 -52t-94.5 -145t-124 -186q-89 -131 -140.5 -183.5t-91.5 -52.5q-12 0 -20 2q-74 22 -105 91q-20 40 -20 98q0 41 10 90q9 44 120 264q11 23 17 35q16 33 39 76v4q0 2 4 4q15 30 21 39q-54 -49 -154 -156 q-258 -270 -360 -479l-9 -29v-2h-2q-36 -12 -77 -12q-71 0 -95 43z" />
<glyph unicode="o" horiz-adv-x="704" d="M-97 150v10q1 32 5 80q6 56 30.5 126t67.5 138q130 205 277 205h12q5 0 13 -0.5t32.5 -4t47 -9.5t51 -20t50.5 -32q23 -20 23 -35l-4 -8q63 -63 74 -143q3 -27 3.5 -48.5t-3.5 -46t-7.5 -39t-7.5 -28t-4 -14.5q-21 -50 -41 -82q55 18 221 184v2h2q3 -1 8 -4t11 -13 q4 -6 4 -14q0 -5 -2 -10q-7 -18 -52 -64.5t-112.5 -92t-116.5 -46.5q-23 -34 -47 -61.5t-36 -39.5l-13 -11q-149 -140 -270 -158h-10q-135 0 -197 201v2q0 1 -0.5 2.5t-1.5 5.5l-2 8q-4 26 -5 60zM86 -35q17 -31 43 -31h2q10 0 34 10t71.5 40.5t99.5 76.5q34 26 88 113 q-28 40 -37 118q-5 47 -5 91q0 29 2 56q6 68 19 98q1 4 11 24q-54 -25 -113.5 -79t-103.5 -120q-126 -220 -126 -332q0 -39 15 -65zM438 402q-1 -19 -1 -37q0 -87 18 -144q6 10 10.5 19l10 20l9.5 19q25 53 30 105q2 21 2 38q-1 27 -5 46q-8 32 -20 54q-18 25 -27 25h-2 l-4 -4q-17 -29 -21 -141z" />
<glyph unicode="p" horiz-adv-x="788" d="M-367 -326q11 47 144 300q24 46 37 71q61 112 239 453l4 8l4 8l125 238h2q47 -6 88 -37q24 -18 37 -47q66 75 158 75q63 0 123 -32q104 -57 104 -166q0 -43 -16 -94l133 51h2l17 -53l-3 -3q-76 -22 -176 -61q-20 -46 -67 -121q-26 -40 -54 -76.5t-54 -64.5t-52 -52.5 t-49.5 -42.5t-44 -32.5t-37.5 -24t-29 -16t-19 -9.5l-7 -3q-20 -2 -49 -2q-95 0 -127 39q-20 20 -17 59q18 122 357 291l6 10q46 75 74 147.5t30 118.5q1 6 1 12q0 36 -13 56q-26 16 -51 16q-58 0 -129 -80q-3 -73 -54 -147l-131 -240l-2 -2v-2l-80 -147l-77 -142 q-13 -27 -54 -102l-51 -100q-107 -195 -107 -252q0 -4 1 -8v-3q-6 -30 -9 -67v-2h-4q-2 0 -4 2q-74 18 -110 88q-21 43 -21 99q0 41 12 89zM119 45q14 0 86 63t133 134q-191 -105 -219 -197z" />
<glyph unicode="q" horiz-adv-x="835" d="M-102 162q0 6 2.5 23.5t15.5 62.5t35 93.5t67.5 116.5t106.5 132q190 205 338 205q79 0 149 -58q92 -76 95 -159v-8q0 -35 -15 -70q-16 -39 -32 -58.5t-19 -19.5v-2l-6 4q-3 -68 -51 -143l-103 -189q0 -4 2 -4q12 0 89 91q93 109 194.5 242t124.5 175q11 -6 16 -23 q1 -5 1 -11q0 -22 -19 -52q-4 -5 -35.5 -51.5t-62.5 -91t-76.5 -106t-84.5 -108.5t-79 -85.5t-66 -49.5l-12 -8q-7 -7 -16 -10q-5 -52 -12.5 -108t-25.5 -149.5t-40.5 -171.5t-60 -156t-82.5 -120q-90 -81 -148 -81q-16 0 -22 2q-76 21 -111 90q-20 39 -20 94q0 42 12 94 q8 36 42 104.5t138 266.5q126 233 213 403q-180 -227 -266 -260q-28 -8 -41 -8q-28 0 -52 16.5t-39 39.5t-25.5 48t-14.5 40.5t-4 17.5zM53 80q0 -2 4 -2h2q51 0 378 388q16 18 22 26l41 79h2q59 -17 88 -39q27 -18 37 -47q25 48 25 85q0 16 -5 30q-9 28 -41 39q-6 4 -22 4 q-54 0 -142 -54.5t-170 -139.5q-88 -91 -158 -217q-62 -110 -62 -144q0 -5 1 -8zM84 -723q3 -5 9 -5q7 0 18 7q44 23 82.5 76.5t65.5 116t50 142.5t37 144t25 133l-78 -141q-9 -19 -27.5 -53.5t-25.5 -48.5l-52 -101q-107 -199 -107 -255q0 -10 3 -15zM887 598l9 10 q1 -1 -5 -12l-2 2h-2z" />
<glyph unicode="r" horiz-adv-x="636" d="M35 887l12 22q62 90 151.5 162t151.5 72q16 0 31 -6q48 -23 57 -72q1 -9 1 -18q1 -31 -15 -71q-20 -50 -59 -99.5t-59.5 -72.5t-39.5 -42l236 -150q5 -2 37 -22q30 -20 49 -38t23.5 -25t4.5 -9v-2q-71 -76 -143 -178h-2q-22 -33 -55 -86l-66 -107q-6 -10 -11 -18.5 t-7 -11.5t-2 -4l-25 -41q-103 -195 -103 -247q0 -9 3 -13q3 -5 8 -5q11 0 16 5q44 35 166 198.5t189 261.5t102 150v2l2 -2q18 -4 21 -17q2 -5 2 -11q-1 -4 -1 -8q-2 -11 -6 -19.5t-8 -15.5l-4 -7l-34 -49q-33 -49 -96.5 -141t-123.5 -177q-90 -128 -140 -177.5t-91 -49.5 q-3 0 -10 1t-11 1q-78 22 -108 92q-16 38 -16 85q0 41 12 89q9 46 116 248l209 336q-214 128 -307 195q-58 45 -58 83q0 5 1 9zM174 819l51 -33q13 7 88 107q82 117 82 153q0 6 -2 9q0 4 -10 4q-15 0 -209 -240z" />
<glyph unicode="s" horiz-adv-x="497" d="M-121 -104q1 -2 4.5 -6.5t5.5 -7t5.5 -6.5t6.5 -6t8 -4t9.5 -1.5t10.5 2.5t12 6q34 34 55 182l22 144q10 92 33 213q41 188 148 266q63 50 147 50q9 0 19 -1l18 -2q52 -17 57 -20h2v-3q39 -11 47 -32q3 -10 -2 -15q-1 -3 -22 -6q-1 0 -8.5 -3t-9.5 -3.5t-9 -4t-10.5 -5.5 t-10.5 -6.5t-10.5 -9t-9.5 -11t-10.5 -13.5t-9 -16t-8.5 -20l-68 -278l-12 -35q64 21 132 62t112.5 78.5t80 68t41.5 32.5l9 -2q29 -6 32 -16v-2q0 -5 -3 -12q-4 -8 -9 -13l-4 -4l-2 2l-10 -9q-9 -9 -27 -25.5t-43 -37t-60 -45t-74 -48t-89 -47.5t-101 -42 q-81 -309 -249 -366q-34 -15 -97 -15l-8 2q-12 2 -26 8q-12 7 -24 17q-11 10 -11 25q0 19 20 41z" />
<glyph unicode="t" horiz-adv-x="436" d="M-115 123q10 44 136 284q29 55 45 87q22 40 85 162t95 182h-187q2 25 17.5 46.5t50.5 26.5h158q5 6 8 11.5t11 22.5t20.5 42.5t42.5 82t71 130.5h2q59 -17 88 -39q52 -39 52 -92v-6q-3 -57 -62 -152h307q-6 -63 -106 -73h-240l-123 -230q-45 -86 -125 -229l-53 -105 q-9 -17 -20.5 -39.5t-19 -37t-11.5 -21.5q-109 -203 -109 -256q0 -8 2 -12q4 -4 11 -4q10 0 14 2q1 0 2 1t2 1q26 4 89 70.5t134.5 159.5t138.5 184.5t113 157.5l47 67h2q19 -3 25 -19q4 -9 4 -20.5t-2.5 -20t-5.5 -15.5l-2 -7q-1 0 -27 -39.5t-69.5 -102.5t-95 -133 t-113.5 -143.5t-113 -122.5q-86 -82 -147 -82q-17 0 -23 2q-74 20 -110 90q-21 41 -21 97q0 42 12 92z" />
<glyph unicode="u" horiz-adv-x="811" d="M-122 25q-12 39 -12 81q0 65 28 140q35 101 106 239q11 27 29 62v4q2 0 4 4q61 119 112 156q52 41 88 41q25 0 86 -27q74 -36 97 -59v-2q-80 -80 -131 -148v-2q-20 -27 -49 -72q-70 -113 -72 -118l-21 -35q-60 -115 -102 -215q-36 -86 -36 -108q0 -4 1 -5q6 -6 14 -6 q9 0 17 4q22 14 64.5 64t99.5 127t100 137t101.5 143.5t68.5 97.5q65 131 117 177q57 49 88 49q28 0 72 -33q28 -21 47 -39.5t24.5 -26.5t5.5 -10q-45 -20 -118 -151q-80 -136 -84 -148q-2 -3 -25 -43q-51 -98 -91.5 -186t-59.5 -139.5t-15 -57.5q2 -4 8 -4q11 0 17 6 q45 35 153.5 190.5t194.5 290.5t88 142h4q14 -3 21 -17q2 -5 2 -11q0 -7 -2 -16q-4 -16 -10.5 -26t-8.5 -12q0 -9 -168 -258q-235 -348 -297 -348q-12 0 -20 2q-75 22 -105 90q-8 16 -8 44q1 33 11 82q20 92 53 175q1 3 14.5 39.5t28.5 66.5l-101 -145q-49 -67 -83 -110 t-76.5 -93t-74.5 -75t-53 -25q-14 0 -22 2q-90 17 -120 115z" />
<glyph unicode="v" horiz-adv-x="638" d="M-80 121v5q0 34 12 94q12 66 46 220q8 34 12 52q21 86 102 452q2 2 2 8l56 248h2q61 -15 100 -39q42 -25 64 -70q21 -42 21 -85q-1 -4 -1 -6q-2 -46 -14 -89q-2 -3 -12.5 -45.5t-29.5 -121t-34 -136.5l-56 -229l-22 -105l-21 -98q-36 -149 -36 -217q0 -36 10 -49 q6 -6 12 -6q10 0 12 2q5 0 7 2q40 6 137 167.5t170 307.5t78 162h2q24 -5 35 -25t10 -38l-2 -17v-2l-4 -6v-4q-2 -2 -10 -29t-13 -57.5t4 -47.5q5 -8 14 -8h2q7 0 9 2q31 7 67 49.5t56 78.5t20 40h2q18 0 25 -20q3 -6 3 -14q0 -24 -26 -64q-84 -123 -162 -123q-21 0 -37 8 q-9 3 -30 39q-72 -140 -118.5 -216.5t-115.5 -166.5q-61 -82 -123 -82q-14 0 -22 2q-88 23 -142 96.5t-61 180.5z" />
<glyph unicode="w" horiz-adv-x="1216" d="M-59 137q15 61 139 312q14 34 37 81v2h2q0 3 2 7q84 160 131 202q57 54 88 54q25 0 72 -35q30 -22 49 -41.5t23.5 -27t4.5 -9.5h3l-3 -2q-71 -84 -145 -193v-2q-22 -35 -57 -92l-86 -153l-25 -47q-104 -204 -104 -264q0 -12 4 -19q0 -4 8 -4t14 6q55 44 206 260t247 371 l2 2v2l2 -2q1 0 4 0.5t8.5 1t10.5 0.5q93 0 137 -53q26 -30 26 -82q0 -25 -6 -56l-18 -82l-21 -98q-36 -148 -36 -216q0 -36 10 -50q6 -6 14 -6t12 2q2 0 4 2q40 6 137 167.5t170 307.5t78 162h2q24 -5 35 -25t10 -38l-2 -17v-2l-4 -6h2l-2 -4l-4 -11q-4 -12 -8.5 -29 t-8 -35t-3.5 -34.5t6 -24.5q5 -8 16 -8q7 0 11 2q30 7 65.5 49.5t55.5 78.5t20 40h2q18 0 27 -20q3 -7 3 -14q0 -25 -28 -64q-34 -49 -80 -79t-88 -30q-22 0 -37 9q-15 6 -22 24q-70 -136 -117.5 -213t-116.5 -170q-65 -82 -125 -82q-14 0 -22 2q-88 23 -141.5 96.5 t-59.5 180.5v11q0 62 47 261l-33 -45q-169 -249 -174 -256q-90 -139 -141.5 -193.5t-91.5 -54.5q-4 0 -11 1t-10 1q-75 21 -106 95q-20 42 -20 102q0 42 10 94z" />
<glyph unicode="x" horiz-adv-x="661" d="M-420 -324h6q73 0 149 22q79 23 148.5 64.5t123.5 82t104 87.5l-29 62q-21 56 -31.5 119t-10.5 98l-1 35q-1 12 -1 34q0 56 7 177q2 59 2 108q0 179 -31 228l-2 2h15q27 0 56 -3t70.5 -11.5t73 -29t41.5 -51.5q4 -15 6 -36.5t2.5 -45.5t0.5 -50t-1 -52t-2.5 -50t-3.5 -45 t-3 -36.5t-2 -24.5l-1 -10l-2 -12v-37q0 -94 10 -176q57 83 123 186.5t105 167.5t39 66h4q17 -3 28 -21q6 -11 7.5 -26t-0.5 -24l-2 -9v-2l-5 -6l-2 -4l-5 -12q-5 -12 -11.5 -28t-12 -35.5t-7 -35t3.5 -25.5q7 -10 24 -4q15 3 31.5 14t32 26t30 32t26.5 34t21.5 30.5 t15.5 22.5l5 9h2q17 -2 23 -18q2 -5 2 -12q0 -27 -35 -68q-38 -49 -88 -79t-92 -30q-22 0 -37 9q-16 8 -19 24q-116 -183 -190 -276q46 -225 178 -252q4 -2 14 -2q40 0 82.5 38t67.5 95l2 4v-2q1 0 5 -1t7.5 -2.5t8 -3.5t8.5 -5.5t6 -8.5q7 -13 -2 -28q-17 -33 -52 -68 q-31 -31 -78 -49t-67.5 -20t-32.5 -2q-189 11 -293 153q-108 -105 -253.5 -194.5t-219.5 -92.5h-6q-25 0 -43 8q-20 8 -28 20.5t-12 26t-3 22.5v9z" />
<glyph unicode="y" horiz-adv-x="854" d="M-188 -562q4 29 21.5 65t29 52.5t31.5 43.5q6 6 14 18q79 112 338 311l12 21l66 131q-82 -74 -168 -74q-23 0 -33 2q-75 17 -109 70q-29 46 -29 123q0 12 1 24q1 27 18 74.5t66 167.5q8 26 22 61v4q0 3 2 5q50 120 94 157q44 41 76 41q22 0 80 -28q20 -10 36.5 -19.5 t26 -16t15.5 -12t9 -7.5l3 -3v-4q-1 0 -16.5 -18.5t-42.5 -55t-51 -75.5q-16 -27 -41 -72l-58 -119q-4 -8 -4 -10l-12 -27q-47 -129 -47 -181q0 -19 6 -28q5 -8 16 -8h2q36 0 104 81.5t120 163.5t106 177l86 174q25 62 69.5 108t98.5 46q17 0 35 -6q44 -13 119 -78l2 -2 l-2 -2q-41 -31 -78 -90q-35 -56 -242 -439l215 140q4 4 23.5 17t50.5 27.5t51 14.5q25 0 31 -25v-2l-2 -2q-2 0 -57.5 -33.5t-160.5 -101t-206 -137.5l-25 -49q-228 -437 -280 -516q-73 -115 -156.5 -180.5t-155.5 -65.5q-43 0 -73 24q-30 35 -40 74q-7 29 -7 53v16z M-117 -631l2 -2q5 0 17.5 9t37 35.5t53.5 66t71 110t86 158.5l30 57q-307 -260 -307 -391q0 -24 10 -43z" />
<glyph unicode="z" horiz-adv-x="618" d="M-260 -676q4 27 21.5 60.5t29 49t31.5 40.5l14 16q75 99 324 281l4 2l10 8q146 265 158 377q3 36 -17 59q-23 27 -82 27q-18 0 -26 -2h-4v2l-60 114v2l33 41q17 19 55.5 45.5t149.5 98.5q22 17 53 35v2h2q0 2 4 2q4 4 6 4q-95 -18 -245 -56l-2 -2v2q-3 27 4 37 q11 14 47 25l29 6h2q120 32 235 53q4 2 8 2q8 0 18 -3t24 -15.5t22 -32.5q26 -61 41 -108l2 -2l-2 -2q-13 -5 -35.5 -14.5t-28.5 -12.5h-2v-2q-28 -12 -71 -37l-78 -43q-32 -18 -33 -18q-6 -5 -33 -21q-23 -13 -80 -53q89 -25 144 -78q69 -69 69 -167q0 -29 -6 -62 q54 44 100 107t72.5 120.5t46 111.5t26.5 84t7 35q27 13 32 -29q1 -9 1 -18q0 -69 -52 -180q-35 -75 -87 -147q-38 -53 -73.5 -88.5t-92.5 -69.5q-7 -24 -33 -78q-155 -301 -240 -420l-10 -14q-75 -109 -157 -170.5t-154 -61.5q-43 0 -74 25q-30 33 -40 69q-7 27 -7 49 q-1 8 0 15zM-188 -741h2q10 0 38 24.5t91.5 111t134.5 218.5q18 29 28 51q-304 -240 -303 -364q-1 -22 9 -41z" />
<glyph unicode="{" horiz-adv-x="481" d="M-121 -61q0 49 37 125t81 142t81 137t37 112q0 11 -7.5 33t-7.5 34q0 35 25 80q33 -11 71 17.5t75 84t77 124.5t84.5 140.5t90 131t100 97.5t108.5 38q25 0 44.5 -11t19.5 -34q0 -12 -9 -35q-40 6 -84 -24t-84 -85t-73 -109.5t-66 -114t-49 -81.5q-61 -87 -103.5 -120.5 t-142.5 -77.5q20 -16 29 -24.5t17 -25t8 -36.5q0 -46 -31.5 -115.5t-70 -129.5t-70 -125.5t-31.5 -104.5q0 -33 37 -33q5 0 41 6q-23 -42 -63 -70t-85 -28q-38 0 -62 22t-24 60z" />
<glyph unicode="|" horiz-adv-x="663" d="M6 -111q3 28 164 306t350 600t234 413q8 4 16 4q45 0 76 -47q-375 -631 -621 -1063q-12 -22 -39.5 -69t-47 -83t-34.5 -71q-36 -6 -38 -6q-24 0 -60 16z" />
<glyph unicode="}" horiz-adv-x="548" d="M-274 -100q0 23 20 55q30 -6 31 -6q30 0 72 37.5t79 89.5t66.5 103.5t38.5 80.5q18 24 46.5 65.5t41 58.5t37.5 45t47.5 43.5t58 34.5t80.5 36q-4 3 -12.5 8t-12 7.5t-10 7.5t-9.5 8.5t-7 9t-5.5 11.5t-3 13.5t-1.5 16.5q0 40 33.5 111t73 136t73 132.5t33.5 101.5 q0 56 -64 49q69 80 152 80q69 0 69 -68q0 -51 -36.5 -131t-81 -149.5t-81 -143.5t-36.5 -114l10 -25q16 -6 41 -2q-18 -30 -47 -58.5t-56 -47.5t-58 -46t-50 -55q-23 -32 -57.5 -93t-64.5 -116.5t-72 -117.5t-82 -107t-92.5 -74.5t-106.5 -29.5q-57 0 -57 43z" />
<glyph unicode="~" horiz-adv-x="888" d="M78.5 458q-2.5 40 19 77t56 67.5t83 46t97.5 8.5q35 -5 186 -61.5t174 -56.5q38 0 73.5 35.5t51.5 76.5q40 -24 34 -68t-34.5 -87.5t-72 -76t-78.5 -32.5q-49 0 -232 57t-203 54q-25 -3 -43.5 -10t-29.5 -14t-20.5 -20.5t-13 -21t-9.5 -23.5t-8 -22q-28 31 -30.5 71z" />
<glyph unicode="&#xa7;" horiz-adv-x="794" d="M-21.5 36.5q2.5 23.5 8.5 50.5t22 54.5t36 49t52 33.5t69 9q-76 -88 -97 -192q-16 -84 19 -104q8 -5 18 -5q62 0 129 82.5t56 135.5q-5 23 -26 48.5t-44.5 45t-45.5 48t-28 56.5q-19 90 47 181.5t162 132.5q-27 58 -7 121.5t64.5 116t112 86.5t133.5 34q96 0 113 -57 q14 -50 11 -90.5t-18.5 -63.5t-38 -40.5t-47.5 -22t-47 -8t-36 0.5q47 59 69 148q23 91 -15 103q-4 1 -9 1q-37 0 -78.5 -41.5t-65.5 -93.5t-18 -82q6 -28 36.5 -60t61.5 -67.5t39 -71.5q19 -86 -45.5 -178t-154.5 -133q27 -78 -16.5 -171t-128.5 -151.5t-165 -45.5 q-26 4 -36 7t-29.5 13t-33 30.5t-25.5 53.5q-6 13 -3.5 36.5zM281 434q14 -62 100 -104q49 22 80.5 66.5t21.5 92.5q-14 61 -100 107q-48 -22 -80 -68.5t-22 -93.5z" />
<glyph unicode="&#xa8;" horiz-adv-x="460" d="M18 1020q0 62 53.5 124t112.5 62q39 0 39 -35q0 -65 -53 -125.5t-115 -60.5q-16 0 -26.5 9t-10.5 26zM246 1018q0 64 52.5 126t113.5 62q41 0 41 -37q0 -64 -55.5 -124t-116.5 -60q-15 0 -25 9t-10 24z" />
<glyph unicode="&#xad;" horiz-adv-x="364" d="M-12 453q2 1 10 7t12 11q74 46 106.5 59t73.5 13q5 1 12.5 1t18 -0.5t17.5 -0.5h34q72 0 113 8q0 -9 -12 -19q-42 -34 -78.5 -49t-60.5 -17.5t-78 -2.5h-33q-37 0 -85 -5t-50 -5z" />
<glyph unicode="&#xb0;" horiz-adv-x="389" d="M16 885q0 64 48 139.5t120.5 127.5t137.5 52q31 0 52 -24t21 -56q0 -61 -48.5 -134t-120.5 -124t-134 -51q-35 0 -55.5 18t-20.5 52zM129 944q0 -20 29 -20q44 0 90.5 53.5t46.5 97.5q0 33 -29 33q-35 0 -86 -63.5t-51 -100.5z" />
<glyph unicode="&#xb4;" horiz-adv-x="460" d="M51 977v14q30 34 130 114t143 128q92 0 92 -51q0 -42 -70 -95.5t-152 -88.5t-122 -35q-5 0 -13 5t-8 9z" />
<glyph unicode="&#xb5;" horiz-adv-x="864" d="M-84 -256q-21 31 40.5 147.5t159.5 262t194.5 289.5t150 251.5t22.5 126.5q316 87 108 -248q-64 -103 -234 -319q-64 -82 -64 -90q0 -12 10 -12q41 0 167 145.5t236.5 313t112.5 223.5q258 -3 73 -298q-62 -99 -230 -302q-105 -127 -109 -149q-1 -3 0 -5q2 -50 105 68 q39 44 77 94q27 16 26 -10q-2 -39 -52 -105q-80 -104 -182 -125q-21 -4 -42 -4q-49 0 -49 55q0 15 2.5 32t10 37.5t12 33.5t17 38l16.5 33t18.5 35t15.5 29q-36 -43 -55 -65t-65 -71t-79.5 -77.5t-76 -55.5t-76.5 -34q-4 -8 -47.5 -81.5t-63.5 -122t-20 -87.5 q-25 -17 -66 -1.5t-63 48.5z" />
<glyph unicode="&#xb6;" horiz-adv-x="626" d="M-52 -21.5q-1 30.5 11 68t32 80.5t47.5 88.5t55.5 89.5t58.5 86.5t55 75.5t45 61.5t28.5 40.5q-76 -61 -119 -61q-38 0 -79.5 22t-41.5 52q0 108 54.5 222.5t145.5 206.5t220 151t266 59q22 0 45 -3t51 -10.5t46 -24t18 -40.5q0 -44 -90 -115q0 18 -13 31t-32 18 q-218 -372 -455 -807q-29 -53 -87.5 -169.5t-90.5 -174.5q-17 -30 -33 -45t-29 -18t-30 8t-29 23t-33 36q-16 18 -17 48.5zM33 -106q77 175 191 381t259.5 450.5t214.5 370.5q-27 0 -39 2q-19 -44 -101 -181t-177.5 -294.5t-186 -315.5t-138.5 -273.5t-23 -139.5zM174 558 q8 -7 23 -7q32 0 185.5 226t205.5 319q-53 27 -176 -100q-114 -117 -194 -260q-82 -146 -44 -178z" />
<glyph unicode="&#xb8;" horiz-adv-x="282" d="M-33 -266q0 24 27 55q28 -7 62.5 -7t64 20t29.5 53q0 7 -2.5 12t-11 9.5t-10 5.5t-13.5 5q9 30 39 63.5t57 33.5l6 -4l-57 -70q51 -14 51 -57q0 -70 -59.5 -107t-133.5 -37q-49 0 -49 25z" />
<glyph unicode="&#xc0;" horiz-adv-x="1499" d="M-2 244v8q82 -10 164 29q114 42 289 217q-104 35 -179 92t-104 106q-19 40 -9.5 58.5t31.5 21.5l21 4q3 -7 9 -18t29 -43t52.5 -60.5t81.5 -61.5t113 -54q87 91 267 297t259 286q23 23 31 30.5t40 36t52.5 42.5t60.5 38.5t72.5 35.5t80 22.5t91 11t97.5 -10.5t108 -32h2 q112 -43 139 -61q15 -10 -6 -22q-4 -2 -15 -7q-32 -16 -46 -28q-22 -18 -39 -47q-7 -5 -19 -25q-3 -4 -10 -16.5t-12 -18.5q-3 -6 -47 -76q-7 -14 -29 -47q-231 -385 -256 -430q-111 -194 -198 -360t-132 -264t-74.5 -168.5t-36.5 -97.5l-8 -27q-11 -1 -27.5 0t-54 16 t-58.5 44.5t-19.5 97.5t41.5 163q56 134 340 643q-199 -113 -420 -108h-19q-61 -81 -116.5 -141.5t-116 -109t-120 -70t-114.5 -11.5q-2 2 -6 2q-1 0 -4.5 1t-5.5 1h-2q-4 1 -13.5 3t-13.5 3q-42 12 -72 28t-42.5 30.5t-19.5 27t-7 19.5zM686 510q73 -2 146.5 13.5 t125.5 38.5t93.5 46t62.5 40l21 16l14 12q164 294 227 399q12 24 17 29q0 1 1 3.5t1 4.5q83 126 223 133l-4 2q-16 11 -19 15l-12 6l-13 6.5l-11 5.5q-3 2 -8.5 4.5t-6.5 3.5q-2 0 -10 4q-60 19 -105 18t-71 -12l-27 -10q-131 -48 -250 -196q-52 -66 -186.5 -273.5 t-208.5 -308.5zM1069 1692q7 37 31 62t63 22q10 -31 74.5 -114.5t120 -157.5t51.5 -91q-6 -34 -33 -22q-42 24 -116.5 86.5t-134.5 127.5t-56 87z" />
<glyph unicode="&#xc1;" horiz-adv-x="1499" d="M-2 244v8q82 -10 164 29q114 42 289 217q-104 35 -179 92t-104 106q-19 40 -9.5 58.5t31.5 21.5l21 4q3 -7 9 -18t29 -43t52.5 -60.5t81.5 -61.5t113 -54q87 91 267 297t259 286q23 23 31 30.5t40 36t52.5 42.5t60.5 38.5t72.5 35.5t80 22.5t91 11t97.5 -10.5t108 -32h2 q112 -43 139 -61q15 -10 -6 -22q-4 -2 -15 -7q-32 -16 -46 -28q-22 -18 -39 -47q-7 -5 -19 -25q-3 -4 -10 -16.5t-12 -18.5q-3 -6 -47 -76q-7 -14 -29 -47q-231 -385 -256 -430q-111 -194 -198 -360t-132 -264t-74.5 -168.5t-36.5 -97.5l-8 -27q-11 -1 -27.5 0t-54 16 t-58.5 44.5t-19.5 97.5t41.5 163q56 134 340 643q-199 -113 -420 -108h-19q-61 -81 -116.5 -141.5t-116 -109t-120 -70t-114.5 -11.5q-2 2 -6 2q-1 0 -4.5 1t-5.5 1h-2q-4 1 -13.5 3t-13.5 3q-42 12 -72 28t-42.5 30.5t-19.5 27t-7 19.5zM686 510q73 -2 146.5 13.5 t125.5 38.5t93.5 46t62.5 40l21 16l14 12q164 294 227 399q12 24 17 29q0 1 1 3.5t1 4.5q83 126 223 133l-4 2q-16 11 -19 15l-12 6l-13 6.5l-11 5.5q-3 2 -8.5 4.5t-6.5 3.5q-2 0 -10 4q-60 19 -105 18t-71 -12l-27 -10q-131 -48 -250 -196q-52 -66 -186.5 -273.5 t-208.5 -308.5zM1196 1417v15q30 34 129.5 113.5t142.5 127.5q93 0 93 -51q0 -42 -70 -95.5t-152 -88.5t-122 -35q-5 0 -13 5t-8 9z" />
<glyph unicode="&#xc2;" horiz-adv-x="1499" d="M-2 244v8q82 -10 164 29q114 42 289 217q-104 35 -179 92t-104 106q-19 40 -9.5 58.5t31.5 21.5l21 4q3 -7 9 -18t29 -43t52.5 -60.5t81.5 -61.5t113 -54q87 91 267 297t259 286q23 23 31 30.5t40 36t52.5 42.5t60.5 38.5t72.5 35.5t80 22.5t91 11t97.5 -10.5t108 -32h2 q112 -43 139 -61q15 -10 -6 -22q-4 -2 -15 -7q-32 -16 -46 -28q-22 -18 -39 -47q-7 -5 -19 -25q-3 -4 -10 -16.5t-12 -18.5q-3 -6 -47 -76q-7 -14 -29 -47q-231 -385 -256 -430q-111 -194 -198 -360t-132 -264t-74.5 -168.5t-36.5 -97.5l-8 -27q-11 -1 -27.5 0t-54 16 t-58.5 44.5t-19.5 97.5t41.5 163q56 134 340 643q-199 -113 -420 -108h-19q-61 -81 -116.5 -141.5t-116 -109t-120 -70t-114.5 -11.5q-2 2 -6 2q-1 0 -4.5 1t-5.5 1h-2q-4 1 -13.5 3t-13.5 3q-42 12 -72 28t-42.5 30.5t-19.5 27t-7 19.5zM686 510q73 -2 146.5 13.5 t125.5 38.5t93.5 46t62.5 40l21 16l14 12q164 294 227 399q12 24 17 29q0 1 1 3.5t1 4.5q83 126 223 133l-4 2q-16 11 -19 15l-12 6l-13 6.5l-11 5.5q-3 2 -8.5 4.5t-6.5 3.5q-2 0 -10 4q-60 19 -105 18t-71 -12l-27 -10q-131 -48 -250 -196q-52 -66 -186.5 -273.5 t-208.5 -308.5zM1210 1425v5q30 39 170 144.5t179 111.5l16 -11q-18 -127 6 -233q-3 -2 -19 -11t-29 -15.5t-17 -6.5h-3q-21 0 -37 43.5t-22 79.5q-166 -121 -209 -121q-21 0 -35 14z" />
<glyph unicode="&#xc3;" horiz-adv-x="1499" d="M-2 244v8q82 -10 164 29q114 42 289 217q-104 35 -179 92t-104 106q-19 40 -9.5 58.5t31.5 21.5l21 4q3 -7 9 -18t29 -43t52.5 -60.5t81.5 -61.5t113 -54q87 91 267 297t259 286q23 23 31 30.5t40 36t52.5 42.5t60.5 38.5t72.5 35.5t80 22.5t91 11t97.5 -10.5t108 -32h2 q112 -43 139 -61q15 -10 -6 -22q-4 -2 -15 -7q-32 -16 -46 -28q-22 -18 -39 -47q-7 -5 -19 -25q-3 -4 -10 -16.5t-12 -18.5q-3 -6 -47 -76q-7 -14 -29 -47q-231 -385 -256 -430q-111 -194 -198 -360t-132 -264t-74.5 -168.5t-36.5 -97.5l-8 -27q-11 -1 -27.5 0t-54 16 t-58.5 44.5t-19.5 97.5t41.5 163q56 134 340 643q-199 -113 -420 -108h-19q-61 -81 -116.5 -141.5t-116 -109t-120 -70t-114.5 -11.5q-2 2 -6 2q-1 0 -4.5 1t-5.5 1h-2q-4 1 -13.5 3t-13.5 3q-42 12 -72 28t-42.5 30.5t-19.5 27t-7 19.5zM686 510q73 -2 146.5 13.5 t125.5 38.5t93.5 46t62.5 40l21 16l14 12q164 294 227 399q12 24 17 29q0 1 1 3.5t1 4.5q83 126 223 133l-4 2q-16 11 -19 15l-12 6l-13 6.5l-11 5.5q-3 2 -8.5 4.5t-6.5 3.5q-2 0 -10 4q-60 19 -105 18t-71 -12l-27 -10q-131 -48 -250 -196q-52 -66 -186.5 -273.5 t-208.5 -308.5zM1096 1401q-1 34 38.5 87t103.5 92t120 28q42 -7 107.5 -51t109.5 -44q35 0 71.5 26.5t60.5 52.5t30 26l12 -4q-74 -218 -269 -199q-102 10 -200 74q-20 14 -20 16q-17 13 -32 10t-34.5 -19.5t-35 -35t-33.5 -36.5t-29 -23z" />
<glyph unicode="&#xc4;" horiz-adv-x="1499" d="M-2 244v8q82 -10 164 29q114 42 289 217q-104 35 -179 92t-104 106q-19 40 -9.5 58.5t31.5 21.5l21 4q3 -7 9 -18t29 -43t52.5 -60.5t81.5 -61.5t113 -54q87 91 267 297t259 286q23 23 31 30.5t40 36t52.5 42.5t60.5 38.5t72.5 35.5t80 22.5t91 11t97.5 -10.5t108 -32h2 q112 -43 139 -61q15 -10 -6 -22q-4 -2 -15 -7q-32 -16 -46 -28q-22 -18 -39 -47q-7 -5 -19 -25q-3 -4 -10 -16.5t-12 -18.5q-3 -6 -47 -76q-7 -14 -29 -47q-231 -385 -256 -430q-111 -194 -198 -360t-132 -264t-74.5 -168.5t-36.5 -97.5l-8 -27q-11 -1 -27.5 0t-54 16 t-58.5 44.5t-19.5 97.5t41.5 163q56 134 340 643q-199 -113 -420 -108h-19q-61 -81 -116.5 -141.5t-116 -109t-120 -70t-114.5 -11.5q-2 2 -6 2q-1 0 -4.5 1t-5.5 1h-2q-4 1 -13.5 3t-13.5 3q-42 12 -72 28t-42.5 30.5t-19.5 27t-7 19.5zM686 510q73 -2 146.5 13.5 t125.5 38.5t93.5 46t62.5 40l21 16l14 12q164 294 227 399q12 24 17 29q0 1 1 3.5t1 4.5q83 126 223 133l-4 2q-16 11 -19 15l-12 6l-13 6.5l-11 5.5q-3 2 -8.5 4.5t-6.5 3.5q-2 0 -10 4q-60 19 -105 18t-71 -12l-27 -10q-131 -48 -250 -196q-52 -66 -186.5 -273.5 t-208.5 -308.5zM1202 1462q0 62 53.5 124.5t112.5 62.5q39 0 39 -35q0 -65 -53 -126t-115 -61q-16 0 -26.5 9t-10.5 26zM1430 1460q0 64 52 126.5t113 62.5q41 0 41 -37q0 -64 -55.5 -124.5t-116.5 -60.5q-15 0 -24.5 9t-9.5 24z" />
<glyph unicode="&#xc5;" horiz-adv-x="1499" d="M-2 244v8q82 -10 164 29q114 42 289 217q-104 35 -179 92t-104 106q-19 40 -9.5 58.5t31.5 21.5l21 4q3 -7 9 -18t29 -43t52.5 -60.5t81.5 -61.5t113 -54q87 91 267 297t259 286q23 23 31 30.5t40 36t52.5 42.5t60.5 38.5t72.5 35.5t80 22.5t91 11t97.5 -10.5t108 -32h2 q112 -43 139 -61q15 -10 -6 -22q-4 -2 -15 -7q-32 -16 -46 -28q-22 -18 -39 -47q-7 -5 -19 -25q-3 -4 -10 -16.5t-12 -18.5q-3 -6 -47 -76q-7 -14 -29 -47q-231 -385 -256 -430q-111 -194 -198 -360t-132 -264t-74.5 -168.5t-36.5 -97.5l-8 -27q-11 -1 -27.5 0t-54 16 t-58.5 44.5t-19.5 97.5t41.5 163q56 134 340 643q-199 -113 -420 -108h-19q-61 -81 -116.5 -141.5t-116 -109t-120 -70t-114.5 -11.5q-2 2 -6 2q-1 0 -4.5 1t-5.5 1h-2q-4 1 -13.5 3t-13.5 3q-42 12 -72 28t-42.5 30.5t-19.5 27t-7 19.5zM686 510q73 -2 146.5 13.5 t125.5 38.5t93.5 46t62.5 40l21 16l14 12q164 294 227 399q12 24 17 29q0 1 1 3.5t1 4.5q83 126 223 133l-4 2q-16 11 -19 15l-12 6l-13 6.5l-11 5.5q-3 2 -8.5 4.5t-6.5 3.5q-2 0 -10 4q-60 19 -105 18t-71 -12l-27 -10q-131 -48 -250 -196q-52 -66 -186.5 -273.5 t-208.5 -308.5zM1280 1468q0 64 47 140t119.5 129t138.5 53q31 0 52.5 -24t21.5 -56q0 -60 -48.5 -133t-120.5 -124.5t-134 -51.5q-76 0 -76 67zM1391 1532q0 -23 28 -23q46 0 91.5 53t45.5 99q0 31 -24 31q-37 0 -89 -61t-52 -99z" />
<glyph unicode="&#xc6;" horiz-adv-x="2662" d="M-2 244v8q82 -10 164 29q114 42 289 217q-104 35 -179 92t-104 106q-19 40 -9.5 58.5t31.5 21.5l21 4q3 -7 9 -18t29 -43t52.5 -60.5t81.5 -61.5t113 -54q87 91 267 297t259 286q23 23 31 30.5t40 36t52.5 42.5t60.5 38.5t72.5 35.5t80 22.5t91 11t97.5 -10.5t108 -32h2 q112 -43 139 -61q15 -10 -6 -22q-4 -2 -15 -7q-32 -16 -46 -28q-22 -18 -39 -47q-7 -5 -19 -25q-3 -4 -10 -16.5t-12 -18.5q-3 -6 -47 -76q-7 -14 -29 -47q-231 -385 -256 -430q-111 -194 -198 -360t-132 -264t-74.5 -168.5t-36.5 -97.5l-8 -27q-11 -1 -27.5 0t-54 16 t-58.5 44.5t-19.5 97.5t41.5 163q56 134 340 643q-199 -113 -420 -108h-19q-61 -81 -116.5 -141.5t-116 -109t-120 -70t-114.5 -11.5q-2 2 -6 2q-1 0 -4.5 1t-5.5 1h-2q-4 1 -13.5 3t-13.5 3q-42 12 -72 28t-42.5 30.5t-19.5 27t-7 19.5zM686 510q73 -2 146.5 13.5 t125.5 38.5t93.5 46t62.5 40l21 16l14 12q164 294 227 399q12 24 17 29q0 1 1 3.5t1 4.5q83 126 223 133l-4 2q-16 11 -19 15l-12 6l-13 6.5l-11 5.5q-3 2 -8.5 4.5t-6.5 3.5q-2 0 -10 4q-60 19 -105 18t-71 -12l-27 -10q-131 -48 -250 -196q-52 -66 -186.5 -273.5 t-208.5 -308.5zM985 168.5q0 104.5 29.5 210t81 210.5t119.5 196t150 166t167 120q102 54 201 75.5t173.5 13.5t133.5 -33t90 -60.5t33 -71.5q4 -78 -18.5 -171t-64.5 -184t-106 -173.5t-138.5 -142t-165.5 -87.5t-183 -12q-78 14 -134.5 44.5t-78.5 60.5 q-20 -56 -35 -108.5t-27 -113t-11.5 -113t12 -100t42.5 -83t80 -52.5q93 -29 187.5 -8t186.5 79.5t173.5 135.5t148 160.5t110 154t59.5 115.5l18 -20l45 -8q-6 0 -46 -62t-101 -151.5t-149 -189t-190 -174t-224 -105.5t-250 16q-111 40 -184.5 112t-103.5 160.5t-30 193z M1278 344q8 1 38 0t59 -1.5t77 10.5t95 31t109.5 64t124 105.5t135 160t146.5 222.5q59 111 -4 124q-66 13 -214 -80q-190 -120 -357 -318q-130 -154 -209 -318z" />
<glyph unicode="&#xc7;" horiz-adv-x="1181" d="M8.5 145.5q11.5 102.5 54 207.5t103.5 209.5t134.5 195.5t153 164.5t154.5 117.5q383 225 566 -26q32 -45 -13 -153t-127 -205.5t-147 -120.5q-40 -13 -70 -9t-51 20t-34 33.5t-19 31.5l-6 14q7 4 18.5 12.5t46 38t68.5 62.5t78 87t81 111q79 125 28.5 135.5 t-187.5 -91.5q-146 -110 -293 -278q-34 -39 -77 -99t-92 -140.5t-90.5 -164.5t-68 -170t-31 -158.5t28 -129t102.5 -80.5q66 -23 132.5 -24t125.5 15t119 49t110.5 74t102.5 95t93.5 106t84.5 113q34 45 62.5 92.5t40.5 71.5l12 25l49 -8q-15 -34 -44 -89.5t-126 -191 t-202 -230t-266.5 -149.5t-325.5 -6q-113 34 -181.5 101.5t-88.5 153t-8.5 188zM121 -512q0 25 26 55q28 -7 62.5 -7t64 20t29.5 53q0 9 -7 16t-12.5 9.5t-17.5 7.5q8 30 38.5 63t57.5 33l7 -4l-58 -70q51 -14 51 -57q0 -70 -59 -107t-133 -37q-49 0 -49 25z" />
<glyph unicode="&#xc8;" horiz-adv-x="1163" d="M-31 168.5q0 104.5 29.5 210t81 210.5t119.5 196t150 166t167 120q102 54 201 75.5t173.5 13.5t133.5 -33t90 -60.5t33 -71.5q4 -78 -18.5 -171t-64.5 -184t-106 -173.5t-138.5 -142t-165.5 -87.5t-183 -12q-78 14 -134.5 44.5t-78.5 60.5q-20 -56 -35 -108.5t-27 -113 t-11.5 -113t12 -100t42.5 -83t80 -52.5q93 -29 187.5 -8t186.5 79.5t173.5 135.5t148 160.5t110 154t59.5 115.5l18 -20l45 -8q-6 0 -46 -62t-101 -151.5t-149 -189t-190 -174t-224 -105.5t-250 16q-111 40 -184.5 112t-103.5 160.5t-30 193zM262 344q8 1 38 0t59.5 -1.5 t77 10.5t94.5 31t109.5 64t124 105.5t135.5 160t147 222.5q59 111 -4 124q-66 13 -213 -79q-191 -120 -358 -318q-131 -154 -210 -319zM391 1567q7 37 31 62t63 22q10 -31 74.5 -114.5t120 -157.5t51.5 -91q-6 -34 -33 -22q-42 24 -116.5 86.5t-134.5 127.5t-56 87z" />
<glyph unicode="&#xc9;" horiz-adv-x="1163" d="M-31 168.5q0 104.5 29.5 210t81 210.5t119.5 196t150 166t167 120q102 54 201 75.5t173.5 13.5t133.5 -33t90 -60.5t33 -71.5q4 -78 -18.5 -171t-64.5 -184t-106 -173.5t-138.5 -142t-165.5 -87.5t-183 -12q-78 14 -134.5 44.5t-78.5 60.5q-20 -56 -35 -108.5t-27 -113 t-11.5 -113t12 -100t42.5 -83t80 -52.5q93 -29 187.5 -8t186.5 79.5t173.5 135.5t148 160.5t110 154t59.5 115.5l18 -20l45 -8q-6 0 -46 -62t-101 -151.5t-149 -189t-190 -174t-224 -105.5t-250 16q-111 40 -184.5 112t-103.5 160.5t-30 193zM262 344q8 1 38 0t59.5 -1.5 t77 10.5t94.5 31t109.5 64t124 105.5t135.5 160t147 222.5q59 111 -4 124q-66 13 -213 -79q-191 -120 -358 -318q-131 -154 -210 -319zM678 1264v14q30 34 129.5 114t142.5 128q92 0 92 -52q0 -42 -70 -95.5t-152 -88.5t-122 -35q-5 0 -12.5 5.5t-7.5 9.5z" />
<glyph unicode="&#xca;" horiz-adv-x="1163" d="M-31 168.5q0 104.5 29.5 210t81 210.5t119.5 196t150 166t167 120q102 54 201 75.5t173.5 13.5t133.5 -33t90 -60.5t33 -71.5q4 -78 -18.5 -171t-64.5 -184t-106 -173.5t-138.5 -142t-165.5 -87.5t-183 -12q-78 14 -134.5 44.5t-78.5 60.5q-20 -56 -35 -108.5t-27 -113 t-11.5 -113t12 -100t42.5 -83t80 -52.5q93 -29 187.5 -8t186.5 79.5t173.5 135.5t148 160.5t110 154t59.5 115.5l18 -20l45 -8q-6 0 -46 -62t-101 -151.5t-149 -189t-190 -174t-224 -105.5t-250 16q-111 40 -184.5 112t-103.5 160.5t-30 193zM262 344q8 1 38 0t59.5 -1.5 t77 10.5t94.5 31t109.5 64t124 105.5t135.5 160t147 222.5q59 111 -4 124q-66 13 -213 -79q-191 -120 -358 -318q-131 -154 -210 -319zM664 1237v4q30 39 169.5 144.5t178.5 111.5l16 -10q-18 -128 6 -234q-2 -1 -19 -10t-29.5 -15.5t-16.5 -6.5h-2q-21 0 -37.5 44t-22.5 78 q-164 -120 -209 -120q-20 0 -34 14z" />
<glyph unicode="&#xcb;" horiz-adv-x="1163" d="M-31 168.5q0 104.5 29.5 210t81 210.5t119.5 196t150 166t167 120q102 54 201 75.5t173.5 13.5t133.5 -33t90 -60.5t33 -71.5q4 -78 -18.5 -171t-64.5 -184t-106 -173.5t-138.5 -142t-165.5 -87.5t-183 -12q-78 14 -134.5 44.5t-78.5 60.5q-20 -56 -35 -108.5t-27 -113 t-11.5 -113t12 -100t42.5 -83t80 -52.5q93 -29 187.5 -8t186.5 79.5t173.5 135.5t148 160.5t110 154t59.5 115.5l18 -20l45 -8q-6 0 -46 -62t-101 -151.5t-149 -189t-190 -174t-224 -105.5t-250 16q-111 40 -184.5 112t-103.5 160.5t-30 193zM262 344q8 1 38 0t59.5 -1.5 t77 10.5t94.5 31t109.5 64t124 105.5t135.5 160t147 222.5q59 111 -4 124q-66 13 -213 -79q-191 -120 -358 -318q-131 -154 -210 -319zM625 1321q0 62 53.5 124t112.5 62q38 0 38 -34q0 -65 -52.5 -126t-114.5 -61q-16 0 -26.5 9t-10.5 26zM852 1319q0 64 52.5 126t113.5 62 q41 0 41 -37q0 -64 -55.5 -124t-116.5 -60q-15 0 -25 9t-10 24z" />
<glyph unicode="&#xcc;" horiz-adv-x="491" d="M-179 -160.5q8 70.5 52 168.5q63 142 225 451.5t264 494.5q4 7 9.5 17t7.5 12l4 8q91 140 219 131h2q43 -6 64 -12l39 -18l-2 2q8 -5 8 -9q-3 0 -12.5 -4.5t-30 -24t-39.5 -48.5l-7 -10l-10 -15t-11 -18.5t-11 -18.5q-2 -1 -7.5 -10t-17 -29t-22.5 -37q-11 -22 -29 -49 q-53 -90 -78.5 -145.5t-29.5 -63.5q-112 -199 -201.5 -369t-137 -270.5t-79 -172.5t-40.5 -100l-9 -28q-9 -1 -23.5 0.5t-45 18t-45 47.5t-6.5 101.5zM274 1522q7 37 31 62t64 22q10 -31 74.5 -114.5t119.5 -157.5t51 -91q-6 -34 -32 -22q-42 24 -116.5 86.5t-135 127.5 t-56.5 87z" />
<glyph unicode="&#xcd;" horiz-adv-x="491" d="M-179 -160.5q8 70.5 52 168.5q63 142 225 451.5t264 494.5q4 7 9.5 17t7.5 12l4 8q91 140 219 131h2q43 -6 64 -12l39 -18l-2 2q8 -5 8 -9q-3 0 -12.5 -4.5t-30 -24t-39.5 -48.5l-7 -10l-10 -15t-11 -18.5t-11 -18.5q-2 -1 -7.5 -10t-17 -29t-22.5 -37q-11 -22 -29 -49 q-53 -90 -78.5 -145.5t-29.5 -63.5q-112 -199 -201.5 -369t-137 -270.5t-79 -172.5t-40.5 -100l-9 -28q-9 -1 -23.5 0.5t-45 18t-45 47.5t-6.5 101.5zM461 1206v15q30 34 129.5 113.5t142.5 127.5q92 0 92 -51q0 -42 -70 -95.5t-152 -88.5t-122 -35q-5 0 -12.5 5t-7.5 9z " />
<glyph unicode="&#xce;" horiz-adv-x="491" d="M-179 -160.5q8 70.5 52 168.5q63 142 225 451.5t264 494.5q4 7 9.5 17t7.5 12l4 8q91 140 219 131h2q43 -6 64 -12l39 -18l-2 2q8 -5 8 -9q-3 0 -12.5 -4.5t-30 -24t-39.5 -48.5l-7 -10l-10 -15t-11 -18.5t-11 -18.5q-2 -1 -7.5 -10t-17 -29t-22.5 -37q-11 -22 -29 -49 q-53 -90 -78.5 -145.5t-29.5 -63.5q-112 -199 -201.5 -369t-137 -270.5t-79 -172.5t-40.5 -100l-9 -28q-9 -1 -23.5 0.5t-45 18t-45 47.5t-6.5 101.5zM401 1249v4q30 39 170 144.5t179 111.5l16 -10q-18 -127 6 -233q-3 -2 -19 -11t-29 -15.5t-17 -6.5h-2q-21 0 -37.5 44 t-22.5 79q-166 -121 -209 -121q-21 0 -35 14z" />
<glyph unicode="&#xcf;" horiz-adv-x="491" d="M-179 -160.5q8 70.5 52 168.5q63 142 225 451.5t264 494.5q4 7 9.5 17t7.5 12l4 8q91 140 219 131h2q43 -6 64 -12l39 -18l-2 2q8 -5 8 -9q-3 0 -12.5 -4.5t-30 -24t-39.5 -48.5l-7 -10l-10 -15t-11 -18.5t-11 -18.5q-2 -1 -7.5 -10t-17 -29t-22.5 -37q-11 -22 -29 -49 q-53 -90 -78.5 -145.5t-29.5 -63.5q-112 -199 -201.5 -369t-137 -270.5t-79 -172.5t-40.5 -100l-9 -28q-9 -1 -23.5 0.5t-45 18t-45 47.5t-6.5 101.5zM406 1223q0 62 53 124t112 62q39 0 39 -35q0 -64 -53 -125t-115 -61q-16 0 -26 9t-10 26zM633 1221q0 64 52.5 126 t113.5 62q41 0 41 -37q0 -64 -55.5 -124t-116.5 -60q-15 0 -25 9t-10 24z" />
<glyph unicode="&#xd0;" horiz-adv-x="1159" d="M-291 41q3 -7 9 -18t33.5 -38.5t64 -48t105 -35.5t151.5 -12q322 15 531.5 208.5t299.5 531.5q39 154 39 258t-29 165.5t-63.5 93.5t-63.5 41l-28 9q-47 17 -105 20t-122.5 -10t-124.5 -41.5t-114 -80t-89 -119.5q-41 -79 -63 -149t-24.5 -114t0.5 -76.5t10 -46.5l7 -14 q-4 -3 -11.5 -6t-28.5 -5t-39.5 5t-39.5 34t-34 73q-10 25 -5.5 63t14 83.5t33.5 95.5t52.5 99t72.5 94.5t93 81.5t113 59.5t134 29.5l-10 2q9 2 25 4.5t63.5 4t92.5 -3.5t103.5 -23.5t106 -50t90.5 -90t66 -136.5v-2q18 -66 23 -127v-27q28 -395 -175 -704 q-146 -223 -373 -344q-215 -114 -415 -93q-201 22 -303 175q-52 78 -72 184zM-262 418q13 46 60.5 60t183.5 14h153h113q222 0 323 8q43 -11 47 -19q23 -43 -40 -57q-57 -14 -305 -14h-1h-1h-1h-1h-1h-1h-1h-1h-1h-1h-1h-1h-1h-1h-1h-1h-1h-1h-1h-1h-1h-1h-1h-1h-1h-10h-107 q-123 0 -249 -5.5t-134 -5.5q-1 1 -3 4.5l-4 7t-3 7.5zM-37.5 53.5q-1.5 51.5 11 88.5t28.5 69q86 169 229 444.5t166 321.5q7 14 17 29q0 1 1 4t1 4q91 145 213 141h2q39 -6 61 -12q11 -4 21 -8.5t14 -7.5l4 -3l-2 2l8 -6v-2q-3 0 -12.5 -5t-29 -25t-36.5 -50l-18 -24 q-11 -25 -20 -39q-1 -1 -7 -11.5t-17 -29.5t-22 -39q-20 -40 -26 -49q-36 -65 -94 -171.5t-100.5 -184t-53.5 -97.5q-157 -305 -238 -473q-4 3 -26.5 21t-40.5 34q-32 27 -33.5 78.5z" />
<glyph unicode="&#xd1;" horiz-adv-x="1212" d="M-88 780q0 107 52.5 214t141.5 193t217 144.5t269 71.5q56 0 153 -12t117 -33l2 2l6 -8l-6 -2q-6 -23 -50.5 -202.5t-59.5 -248.5t-44 -211.5t-40 -250t-11 -206.5q0 -15 5 -88q42 124 252 515t384 614q51 67 93 97t112 30q58 0 97 -27v2l8 -6v-2q-76 -85 -214.5 -292.5 t-277 -440.5t-246.5 -456.5t-122 -326.5q-27 -6 -58 -6q-20 0 -37 11t-28 30t-19.5 44t-13 53.5t-7.5 58.5t-3.5 58.5t-1.5 54t0 44.5v17q0 69 5.5 142.5t21 163.5t25.5 147.5t36.5 167.5t35.5 146t41.5 160t36.5 138q-132 -188 -285 -436.5t-290.5 -519.5t-151.5 -394 l-28 9q-51 13 -73 39t-30 79q-13 93 137 395t325 578.5t239 327.5q-92 -6 -174.5 -33.5t-146 -70.5t-114 -98t-82 -119t-47 -131.5t-12.5 -137t25 -133.5q-21 -12 -51 -12q-52 0 -82.5 51t-30.5 106zM575 1444q-2 31 32 78.5t85.5 91.5t120 71t127.5 17q52 -8 104.5 -38 t100.5 -54.5t98 -24.5q38 0 78.5 20t67 44.5t50 44.5t31.5 20l15 -4q-97 -261 -351 -250q-142 6 -289 87q-44 25 -42 28q-23 15 -44 11.5t-48.5 -24.5t-49.5 -44t-46.5 -45.5t-39.5 -28.5z" />
<glyph unicode="&#xd2;" d="M-78 217q-12 97 10 224.5t68 258.5t117 259t152 227t179 160t193 61q43 0 102 -21t107.5 -53.5t72 -72.5t-4.5 -78q41 -19 68.5 -51t39.5 -74.5t16.5 -81t4.5 -88.5q0 -104 -30 -224.5t-83 -239t-130.5 -228.5t-167 -194t-199 -134.5t-220.5 -50.5q-65 0 -115 24.5 t-79.5 61t-51 93.5t-31.5 106t-18 116zM72 76q8 -41 16.5 -68.5t25 -57t43.5 -44.5t64 -15q56 0 123.5 28.5t129 73t112 89.5t88.5 88q106 121 197.5 338.5t91.5 368.5q0 162 -68 190q-9 12 -23 12q-143 -75 -233 -262q-46 -100 -32.5 -155t79.5 -52q25 1 52 7t41 10.5 t33 5.5t28 -8q-6 -4 -15.5 -9.5t-39.5 -19t-58.5 -22.5t-67.5 -13t-71.5 3.5t-65 33t-53.5 68.5q-27 51 -19 119.5t35.5 134t71.5 131.5q-110 -89 -209.5 -226t-163.5 -275t-95.5 -267t-16.5 -207zM666 1673q7 37 31 62t63 22q10 -31 74.5 -114t120 -157t51.5 -91 q-6 -35 -33 -23q-42 24 -116.5 86.5t-134.5 127.5t-56 87z" />
<glyph unicode="&#xd3;" d="M-78 217q-12 97 10 224.5t68 258.5t117 259t152 227t179 160t193 61q43 0 102 -21t107.5 -53.5t72 -72.5t-4.5 -78q41 -19 68.5 -51t39.5 -74.5t16.5 -81t4.5 -88.5q0 -104 -30 -224.5t-83 -239t-130.5 -228.5t-167 -194t-199 -134.5t-220.5 -50.5q-65 0 -115 24.5 t-79.5 61t-51 93.5t-31.5 106t-18 116zM72 76q8 -41 16.5 -68.5t25 -57t43.5 -44.5t64 -15q56 0 123.5 28.5t129 73t112 89.5t88.5 88q106 121 197.5 338.5t91.5 368.5q0 162 -68 190q-9 12 -23 12q-143 -75 -233 -262q-46 -100 -32.5 -155t79.5 -52q25 1 52 7t41 10.5 t33 5.5t28 -8q-6 -4 -15.5 -9.5t-39.5 -19t-58.5 -22.5t-67.5 -13t-71.5 3.5t-65 33t-53.5 68.5q-27 51 -19 119.5t35.5 134t71.5 131.5q-110 -89 -209.5 -226t-163.5 -275t-95.5 -267t-16.5 -207zM457 1430v14q30 34 129.5 114t142.5 128q92 0 92 -52q0 -42 -70 -95.5 t-152 -88.5t-122 -35q-5 0 -12.5 5.5t-7.5 9.5z" />
<glyph unicode="&#xd4;" d="M-78 217q-12 97 10 224.5t68 258.5t117 259t152 227t179 160t193 61q43 0 102 -21t107.5 -53.5t72 -72.5t-4.5 -78q41 -19 68.5 -51t39.5 -74.5t16.5 -81t4.5 -88.5q0 -104 -30 -224.5t-83 -239t-130.5 -228.5t-167 -194t-199 -134.5t-220.5 -50.5q-65 0 -115 24.5 t-79.5 61t-51 93.5t-31.5 106t-18 116zM72 76q8 -41 16.5 -68.5t25 -57t43.5 -44.5t64 -15q56 0 123.5 28.5t129 73t112 89.5t88.5 88q106 121 197.5 338.5t91.5 368.5q0 162 -68 190q-9 12 -23 12q-143 -75 -233 -262q-46 -100 -32.5 -155t79.5 -52q25 1 52 7t41 10.5 t33 5.5t28 -8q-6 -4 -15.5 -9.5t-39.5 -19t-58.5 -22.5t-67.5 -13t-71.5 3.5t-65 33t-53.5 68.5q-27 51 -19 119.5t35.5 134t71.5 131.5q-110 -89 -209.5 -226t-163.5 -275t-95.5 -267t-16.5 -207zM567 1466v4q30 39 169.5 144.5t178.5 111.5l17 -10q-18 -127 6 -233 q-3 -1 -19.5 -10.5t-29.5 -16t-17 -6.5h-2q-21 0 -37 43.5t-22 79.5q-166 -121 -209 -121q-21 0 -35 14z" />
<glyph unicode="&#xd5;" d="M-78 217q-12 97 10 224.5t68 258.5t117 259t152 227t179 160t193 61q43 0 102 -21t107.5 -53.5t72 -72.5t-4.5 -78q41 -19 68.5 -51t39.5 -74.5t16.5 -81t4.5 -88.5q0 -104 -30 -224.5t-83 -239t-130.5 -228.5t-167 -194t-199 -134.5t-220.5 -50.5q-65 0 -115 24.5 t-79.5 61t-51 93.5t-31.5 106t-18 116zM72 76q8 -41 16.5 -68.5t25 -57t43.5 -44.5t64 -15q56 0 123.5 28.5t129 73t112 89.5t88.5 88q106 121 197.5 338.5t91.5 368.5q0 162 -68 190q-9 12 -23 12q-143 -75 -233 -262q-46 -100 -32.5 -155t79.5 -52q25 1 52 7t41 10.5 t33 5.5t28 -8q-6 -4 -15.5 -9.5t-39.5 -19t-58.5 -22.5t-67.5 -13t-71.5 3.5t-65 33t-53.5 68.5q-27 51 -19 119.5t35.5 134t71.5 131.5q-110 -89 -209.5 -226t-163.5 -275t-95.5 -267t-16.5 -207zM301 1468q-2 26 25.5 65t68.5 74.5t96 57.5t103 14t122 -51t122 -43 q39 0 80 26.5t68.5 52.5t33.5 26l12 -2q-82 -224 -300 -205q-116 10 -227 76q-22 14 -22 16q-23 22 -57 0t-71.5 -61t-53.5 -46z" />
<glyph unicode="&#xd6;" d="M-78 217q-12 97 10 224.5t68 258.5t117 259t152 227t179 160t193 61q43 0 102 -21t107.5 -53.5t72 -72.5t-4.5 -78q41 -19 68.5 -51t39.5 -74.5t16.5 -81t4.5 -88.5q0 -104 -30 -224.5t-83 -239t-130.5 -228.5t-167 -194t-199 -134.5t-220.5 -50.5q-65 0 -115 24.5 t-79.5 61t-51 93.5t-31.5 106t-18 116zM72 76q8 -41 16.5 -68.5t25 -57t43.5 -44.5t64 -15q56 0 123.5 28.5t129 73t112 89.5t88.5 88q106 121 197.5 338.5t91.5 368.5q0 162 -68 190q-9 12 -23 12q-143 -75 -233 -262q-46 -100 -32.5 -155t79.5 -52q25 1 52 7t41 10.5 t33 5.5t28 -8q-6 -4 -15.5 -9.5t-39.5 -19t-58.5 -22.5t-67.5 -13t-71.5 3.5t-65 33t-53.5 68.5q-27 51 -19 119.5t35.5 134t71.5 131.5q-110 -89 -209.5 -226t-163.5 -275t-95.5 -267t-16.5 -207zM582 1477q0 62 53.5 124t112.5 62q38 0 38 -35q0 -64 -53 -125t-115 -61 q-16 0 -26 9t-10 26zM809 1475q0 64 52.5 126t113.5 62q41 0 41 -37q0 -64 -55.5 -124t-116.5 -60q-15 0 -25 9t-10 24z" />
<glyph unicode="&#xd8;" d="M-139 -268q27 50 220 319t359 481q364 463 490 598q49 51 84.5 73t77.5 22q31 0 45 -6q-145 -127 -588 -689q-176 -222 -365 -496t-237 -366q-8 0 -32.5 -1t-37.5 -1q-60 0 -16 66zM-78 217q-12 97 10 224.5t68 258.5t117 259t152 227t179 160t193 61q43 0 102 -21 t107.5 -53.5t72 -72.5t-4.5 -78q41 -19 68.5 -51t39.5 -74.5t16.5 -81t4.5 -88.5q0 -104 -30 -224.5t-83 -239t-130.5 -228.5t-167 -194t-199 -134.5t-220.5 -50.5q-65 0 -115 24.5t-79.5 61t-51 93.5t-31.5 106t-18 116zM72 76q8 -41 16.5 -68.5t25 -57t43.5 -44.5t64 -15 q56 0 123.5 28.5t129 73t112 89.5t88.5 88q106 121 197.5 338.5t91.5 368.5q0 162 -68 190q-9 12 -23 12q-143 -75 -233 -262q-46 -100 -32.5 -155t79.5 -52q25 1 52 7t41 10.5t33 5.5t28 -8q-6 -4 -15.5 -9.5t-39.5 -19t-58.5 -22.5t-67.5 -13t-71.5 3.5t-65 33t-53.5 68.5 q-27 51 -19 119.5t35.5 134t71.5 131.5q-110 -89 -209.5 -226t-163.5 -275t-95.5 -267t-16.5 -207z" />
<glyph unicode="&#xd9;" horiz-adv-x="1427" d="M2 700q4 43 34.5 100t91 119t138.5 115t188.5 88t229.5 37q38 0 61 -2q14 2 43 2h5q17 -3 63 -14q11 -4 21 -8.5t14 -7.5l4 -3v2l8 -8q-3 0 -11 -4t-24 -17.5t-32 -33.5q-2 -3 -7.5 -9t-7.5 -9q-1 -1 -2 -4.5t-2 -4.5q-3 -3 -5.5 -6.5t-5.5 -8l-5 -7.5l-2 -2 q-46 -66 -95.5 -143t-115 -188t-118.5 -226t-77 -205q-28 -86 -22 -164q2 -111 60.5 -157t160.5 -13q68 12 137 72q79 54 139 153q48 76 99.5 168.5t78.5 146.5l27 54q228 437 340 637q16 28 17 31q4 4 4 8q95 144 225 135h2q52 -11 65 -14l37 -19v2l9 -8l-5 -2 q-5 -3 -13 -8t-18 -13t-23 -23t-25 -34q-1 -2 -19 -24q-7 -17 -22 -39q-3 -3 -48 -78q-14 -28 -28 -49q-55 -93 -83.5 -153.5t-29.5 -61.5q-104 -187 -129 -232q-9 -26 -53 -100q-205 -355 -420 -516q-165 -125 -319 -111q-100 20 -171.5 57t-108 83t-55.5 99.5t-16 108 t13.5 107t30 98.5t36.5 81t30 55l13 20q145 275 236 438q10 20 16 29l4 8q22 37 56 68q-107 -26 -207 -82.5t-162 -124.5q-41 -45 -68 -97t-37.5 -94t-14.5 -77.5t-2 -55.5l1 -20q-46 -13 -70 2q-3 1 -8 3t-16.5 12.5t-20 26t-13.5 46t-1 69.5zM786 1567q7 37 31 62t64 22 q10 -31 74.5 -114.5t119.5 -157.5t51 -91q-6 -34 -32 -22q-42 24 -116.5 86.5t-135 127.5t-56.5 87z" />
<glyph unicode="&#xda;" horiz-adv-x="1427" d="M2 700q4 43 34.5 100t91 119t138.5 115t188.5 88t229.5 37q38 0 61 -2q14 2 43 2h5q17 -3 63 -14q11 -4 21 -8.5t14 -7.5l4 -3v2l8 -8q-3 0 -11 -4t-24 -17.5t-32 -33.5q-2 -3 -7.5 -9t-7.5 -9q-1 -1 -2 -4.5t-2 -4.5q-3 -3 -5.5 -6.5t-5.5 -8l-5 -7.5l-2 -2 q-46 -66 -95.5 -143t-115 -188t-118.5 -226t-77 -205q-28 -86 -22 -164q2 -111 60.5 -157t160.5 -13q68 12 137 72q79 54 139 153q48 76 99.5 168.5t78.5 146.5l27 54q228 437 340 637q16 28 17 31q4 4 4 8q95 144 225 135h2q52 -11 65 -14l37 -19v2l9 -8l-5 -2 q-5 -3 -13 -8t-18 -13t-23 -23t-25 -34q-1 -2 -19 -24q-7 -17 -22 -39q-3 -3 -48 -78q-14 -28 -28 -49q-55 -93 -83.5 -153.5t-29.5 -61.5q-104 -187 -129 -232q-9 -26 -53 -100q-205 -355 -420 -516q-165 -125 -319 -111q-100 20 -171.5 57t-108 83t-55.5 99.5t-16 108 t13.5 107t30 98.5t36.5 81t30 55l13 20q145 275 236 438q10 20 16 29l4 8q22 37 56 68q-107 -26 -207 -82.5t-162 -124.5q-41 -45 -68 -97t-37.5 -94t-14.5 -77.5t-2 -55.5l1 -20q-46 -13 -70 2q-3 1 -8 3t-16.5 12.5t-20 26t-13.5 46t-1 69.5zM1087 1419v15 q30 34 130 113.5t143 127.5q92 0 92 -51q0 -42 -70 -95.5t-152 -88.5t-122 -35q-5 0 -13 5t-8 9z" />
<glyph unicode="&#xdb;" horiz-adv-x="1427" d="M2 700q4 43 34.5 100t91 119t138.5 115t188.5 88t229.5 37q38 0 61 -2q14 2 43 2h5q17 -3 63 -14q11 -4 21 -8.5t14 -7.5l4 -3v2l8 -8q-3 0 -11 -4t-24 -17.5t-32 -33.5q-2 -3 -7.5 -9t-7.5 -9q-1 -1 -2 -4.5t-2 -4.5q-3 -3 -5.5 -6.5t-5.5 -8l-5 -7.5l-2 -2 q-46 -66 -95.5 -143t-115 -188t-118.5 -226t-77 -205q-28 -86 -22 -164q2 -111 60.5 -157t160.5 -13q68 12 137 72q79 54 139 153q48 76 99.5 168.5t78.5 146.5l27 54q228 437 340 637q16 28 17 31q4 4 4 8q95 144 225 135h2q52 -11 65 -14l37 -19v2l9 -8l-5 -2 q-5 -3 -13 -8t-18 -13t-23 -23t-25 -34q-1 -2 -19 -24q-7 -17 -22 -39q-3 -3 -48 -78q-14 -28 -28 -49q-55 -93 -83.5 -153.5t-29.5 -61.5q-104 -187 -129 -232q-9 -26 -53 -100q-205 -355 -420 -516q-165 -125 -319 -111q-100 20 -171.5 57t-108 83t-55.5 99.5t-16 108 t13.5 107t30 98.5t36.5 81t30 55l13 20q145 275 236 438q10 20 16 29l4 8q22 37 56 68q-107 -26 -207 -82.5t-162 -124.5q-41 -45 -68 -97t-37.5 -94t-14.5 -77.5t-2 -55.5l1 -20q-46 -13 -70 2q-3 1 -8 3t-16.5 12.5t-20 26t-13.5 46t-1 69.5zM977 1425v5 q30 39 169.5 144.5t178.5 111.5l16 -11q-18 -125 7 -233q-3 -1 -19.5 -10.5t-29.5 -16t-17 -6.5h-2q-21 0 -37 43.5t-22 79.5q-166 -121 -209 -121q-21 0 -35 14z" />
<glyph unicode="&#xdc;" horiz-adv-x="1427" d="M2 700q4 43 34.5 100t91 119t138.5 115t188.5 88t229.5 37q38 0 61 -2q14 2 43 2h5q17 -3 63 -14q11 -4 21 -8.5t14 -7.5l4 -3v2l8 -8q-3 0 -11 -4t-24 -17.5t-32 -33.5q-2 -3 -7.5 -9t-7.5 -9q-1 -1 -2 -4.5t-2 -4.5q-3 -3 -5.5 -6.5t-5.5 -8l-5 -7.5l-2 -2 q-46 -66 -95.5 -143t-115 -188t-118.5 -226t-77 -205q-28 -86 -22 -164q2 -111 60.5 -157t160.5 -13q68 12 137 72q79 54 139 153q48 76 99.5 168.5t78.5 146.5l27 54q228 437 340 637q16 28 17 31q4 4 4 8q95 144 225 135h2q52 -11 65 -14l37 -19v2l9 -8l-5 -2 q-5 -3 -13 -8t-18 -13t-23 -23t-25 -34q-1 -2 -19 -24q-7 -17 -22 -39q-3 -3 -48 -78q-14 -28 -28 -49q-55 -93 -83.5 -153.5t-29.5 -61.5q-104 -187 -129 -232q-9 -26 -53 -100q-205 -355 -420 -516q-165 -125 -319 -111q-100 20 -171.5 57t-108 83t-55.5 99.5t-16 108 t13.5 107t30 98.5t36.5 81t30 55l13 20q145 275 236 438q10 20 16 29l4 8q22 37 56 68q-107 -26 -207 -82.5t-162 -124.5q-41 -45 -68 -97t-37.5 -94t-14.5 -77.5t-2 -55.5l1 -20q-46 -13 -70 2q-3 1 -8 3t-16.5 12.5t-20 26t-13.5 46t-1 69.5zM979 1462q0 62 53.5 124.5 t112.5 62.5q39 0 39 -35q0 -65 -53 -126t-115 -61q-16 0 -26.5 9t-10.5 26zM1206 1460q0 64 52.5 126.5t113.5 62.5q41 0 41 -37q0 -64 -55.5 -124.5t-116.5 -60.5q-15 0 -25 9t-10 24z" />
<glyph unicode="&#xdd;" horiz-adv-x="1026" d="M-98 -174q5 -5 14.5 -11.5t36 -16t58 -12.5t81.5 6t105 34t123 100t129.5 170.5t97.5 157t61 108.5q-96 10 -158 50t-86 99t-25.5 132.5t19.5 150t53 152t70 138t76 108.5q-77 -15 -148.5 -59t-125.5 -103.5t-90 -133t-46.5 -145t9.5 -141.5t73 -121q-73 -17 -127 3.5 t-79 69.5t-27 113.5t26 142t82 149.5q65 87 162.5 151t198.5 92.5t200 17t166 -66.5q-72 -62 -168 -223q-133 -221 -154 -371q-23 -171 123 -167q7 0 15 1q12 26 38.5 85.5t51 116t62 131.5t73 139.5t82.5 131.5t93 116.5t101.5 85.5t110 46.5t117.5 -7.5t125 -70 q-101 -19 -200.5 -107.5t-183.5 -215.5t-167.5 -277.5t-165.5 -301.5t-163.5 -279t-176.5 -218.5t-190 -112.5q-49 -9 -91.5 -5t-82 23.5t-70 40t-55 44.5t-37 38.5t-16.5 20.5zM770 1419v15q30 34 129.5 113.5t142.5 127.5q93 0 93 -51q0 -42 -70 -95.5t-152 -88.5 t-122 -35q-5 0 -13 5t-8 9z" />
<glyph unicode="&#xdf;" horiz-adv-x="993" d="M-123 -186q48 26 120.5 129t131 208t142 259t118.5 215q37 64 76.5 125.5t103 145.5t124 145.5t133.5 105t137 43.5q110 0 110 -86q0 -70 -34.5 -129.5t-83.5 -103.5t-98 -86.5t-83.5 -98t-34.5 -119.5q0 -26 13.5 -95t29 -146.5t28 -156t10 -139t-24.5 -79.5 q-80 -67 -160.5 -94.5t-141.5 -18t-110 38.5t-74.5 70t-25.5 80q0 54 82 141q-12 -24 -7 -54.5t23.5 -60t45 -59t56 -51.5t57.5 -39t50 -19.5t33 6.5q41 41 41.5 139.5t-21.5 195.5t-41.5 195t-13.5 130q8 42 50.5 103t96 122.5t106 123t88.5 121.5t36 101q0 31 -25 31 q-53 0 -120 -72t-135.5 -188.5t-140.5 -258t-143 -286t-134.5 -266.5t-123.5 -206.5t-102 -98.5q-24 -16 -85 -3.5t-79 40.5z" />
<glyph unicode="&#xe0;" horiz-adv-x="724" d="M-119 162q0 6 2.5 23.5t16 62t35.5 93.5t67.5 117t106.5 132q190 205 337 205q80 0 150 -58q91 -76 94 -159q3 -50 -24 -101q12 -12 12 -18l-23 -35q-23 -34 -66.5 -104t-84.5 -142q-127 -232 -105 -270q2 -4 11 -4q10 0 16 6q46 35 174.5 208t192.5 267t108 160h2 q16 -3 23 -17q3 -9 0.5 -20.5t-7 -20.5l-8.5 -17l-4 -7l-35 -51q-34 -51 -100 -147t-129 -185q-92 -131 -145.5 -183.5t-94.5 -52.5q-14 0 -22 2q-76 22 -111 91q-35 74 -8 188q6 27 60 139q-180 -223 -265 -256q-28 -8 -41 -8q-20 0 -38.5 9t-31.5 23t-24 31t-18.5 34.5 t-12.5 31.5t-7 23zM39 86q0 -6 4 -10h2q41 0 399 422v6q3 4 9 10.5t26 17.5t43 11q30 0 64 -17l35 -18q23 51 12 92q-9 27 -43 39q-6 4 -23 4q-53 0 -141.5 -55t-169.5 -139q-85 -88 -153.5 -207t-63.5 -156zM489 1124q7 37 31 62t64 22q10 -31 74.5 -114t119.5 -157t51 -91 q-6 -35 -32 -23q-42 24 -116.5 86.5t-135 127.5t-56.5 87z" />
<glyph unicode="&#xe1;" horiz-adv-x="724" d="M-119 162q0 6 2.5 23.5t16 62t35.5 93.5t67.5 117t106.5 132q190 205 337 205q80 0 150 -58q91 -76 94 -159q3 -50 -24 -101q12 -12 12 -18l-23 -35q-23 -34 -66.5 -104t-84.5 -142q-127 -232 -105 -270q2 -4 11 -4q10 0 16 6q46 35 174.5 208t192.5 267t108 160h2 q16 -3 23 -17q3 -9 0.5 -20.5t-7 -20.5l-8.5 -17l-4 -7l-35 -51q-34 -51 -100 -147t-129 -185q-92 -131 -145.5 -183.5t-94.5 -52.5q-14 0 -22 2q-76 22 -111 91q-35 74 -8 188q6 27 60 139q-180 -223 -265 -256q-28 -8 -41 -8q-20 0 -38.5 9t-31.5 23t-24 31t-18.5 34.5 t-12.5 31.5t-7 23zM39 86q0 -6 4 -10h2q41 0 399 422v6q3 4 9 10.5t26 17.5t43 11q30 0 64 -17l35 -18q23 51 12 92q-9 27 -43 39q-6 4 -23 4q-53 0 -141.5 -55t-169.5 -139q-85 -88 -153.5 -207t-63.5 -156zM483 977v14q30 34 130 114t143 128q92 0 92 -51q0 -42 -70 -95.5 t-152 -88.5t-122 -35q-5 0 -13 5t-8 9z" />
<glyph unicode="&#xe2;" horiz-adv-x="724" d="M-119 162q0 6 2.5 23.5t16 62t35.5 93.5t67.5 117t106.5 132q190 205 337 205q80 0 150 -58q91 -76 94 -159q3 -50 -24 -101q12 -12 12 -18l-23 -35q-23 -34 -66.5 -104t-84.5 -142q-127 -232 -105 -270q2 -4 11 -4q10 0 16 6q46 35 174.5 208t192.5 267t108 160h2 q16 -3 23 -17q3 -9 0.5 -20.5t-7 -20.5l-8.5 -17l-4 -7l-35 -51q-34 -51 -100 -147t-129 -185q-92 -131 -145.5 -183.5t-94.5 -52.5q-14 0 -22 2q-76 22 -111 91q-35 74 -8 188q6 27 60 139q-180 -223 -265 -256q-28 -8 -41 -8q-20 0 -38.5 9t-31.5 23t-24 31t-18.5 34.5 t-12.5 31.5t-7 23zM39 86q0 -6 4 -10h2q41 0 399 422v6q3 4 9 10.5t26 17.5t43 11q30 0 64 -17l35 -18q23 51 12 92q-9 27 -43 39q-6 4 -23 4q-53 0 -141.5 -55t-169.5 -139q-85 -88 -153.5 -207t-63.5 -156zM391 983v4q30 39 169.5 144.5t178.5 111.5l17 -10 q-18 -128 6 -234q-64 -32 -66 -32h-2q-21 0 -37 43.5t-22 79.5q-166 -121 -209 -121q-21 0 -35 14z" />
<glyph unicode="&#xe3;" horiz-adv-x="724" d="M-119 162q0 6 2.5 23.5t16 62t35.5 93.5t67.5 117t106.5 132q190 205 337 205q80 0 150 -58q91 -76 94 -159q3 -50 -24 -101q12 -12 12 -18l-23 -35q-23 -34 -66.5 -104t-84.5 -142q-127 -232 -105 -270q2 -4 11 -4q10 0 16 6q46 35 174.5 208t192.5 267t108 160h2 q16 -3 23 -17q3 -9 0.5 -20.5t-7 -20.5l-8.5 -17l-4 -7l-35 -51q-34 -51 -100 -147t-129 -185q-92 -131 -145.5 -183.5t-94.5 -52.5q-14 0 -22 2q-76 22 -111 91q-35 74 -8 188q6 27 60 139q-180 -223 -265 -256q-28 -8 -41 -8q-20 0 -38.5 9t-31.5 23t-24 31t-18.5 34.5 t-12.5 31.5t-7 23zM39 86q0 -6 4 -10h2q41 0 399 422v6q3 4 9 10.5t26 17.5t43 11q30 0 64 -17l35 -18q23 51 12 92q-9 27 -43 39q-6 4 -23 4q-53 0 -141.5 -55t-169.5 -139q-85 -88 -153.5 -207t-63.5 -156zM348 854q-1 28 33.5 72t91 76t105.5 24q38 -7 94 -42.5t94 -35.5 q32 0 64 21.5t53 43t26 21.5l11 -2q-67 -189 -246 -165q-90 12 -168 64q-15 9 -14 11q-19 17 -46 -1t-56 -50t-42 -37z" />
<glyph unicode="&#xe4;" horiz-adv-x="724" d="M-119 162q0 6 2.5 23.5t16 62t35.5 93.5t67.5 117t106.5 132q190 205 337 205q80 0 150 -58q91 -76 94 -159q3 -50 -24 -101q12 -12 12 -18l-23 -35q-23 -34 -66.5 -104t-84.5 -142q-127 -232 -105 -270q2 -4 11 -4q10 0 16 6q46 35 174.5 208t192.5 267t108 160h2 q16 -3 23 -17q3 -9 0.5 -20.5t-7 -20.5l-8.5 -17l-4 -7l-35 -51q-34 -51 -100 -147t-129 -185q-92 -131 -145.5 -183.5t-94.5 -52.5q-14 0 -22 2q-76 22 -111 91q-35 74 -8 188q6 27 60 139q-180 -223 -265 -256q-28 -8 -41 -8q-20 0 -38.5 9t-31.5 23t-24 31t-18.5 34.5 t-12.5 31.5t-7 23zM39 86q0 -6 4 -10h2q41 0 399 422v6q3 4 9 10.5t26 17.5t43 11q30 0 64 -17l35 -18q23 51 12 92q-9 27 -43 39q-6 4 -23 4q-53 0 -141.5 -55t-169.5 -139q-85 -88 -153.5 -207t-63.5 -156zM461 903q0 62 53.5 124.5t112.5 62.5q39 0 39 -35 q0 -65 -53 -126t-115 -61q-16 0 -26.5 9t-10.5 26zM688 901q0 64 52.5 126.5t113.5 62.5q41 0 41 -37q0 -64 -55.5 -124.5t-116.5 -60.5q-15 0 -25 9t-10 24z" />
<glyph unicode="&#xe5;" horiz-adv-x="724" d="M-119 162q0 6 2.5 23.5t16 62t35.5 93.5t67.5 117t106.5 132q190 205 337 205q80 0 150 -58q91 -76 94 -159q3 -50 -24 -101q12 -12 12 -18l-23 -35q-23 -34 -66.5 -104t-84.5 -142q-127 -232 -105 -270q2 -4 11 -4q10 0 16 6q46 35 174.5 208t192.5 267t108 160h2 q16 -3 23 -17q3 -9 0.5 -20.5t-7 -20.5l-8.5 -17l-4 -7l-35 -51q-34 -51 -100 -147t-129 -185q-92 -131 -145.5 -183.5t-94.5 -52.5q-14 0 -22 2q-76 22 -111 91q-35 74 -8 188q6 27 60 139q-180 -223 -265 -256q-28 -8 -41 -8q-20 0 -38.5 9t-31.5 23t-24 31t-18.5 34.5 t-12.5 31.5t-7 23zM39 86q0 -6 4 -10h2q41 0 399 422v6q3 4 9 10.5t26 17.5t43 11q30 0 64 -17l35 -18q23 51 12 92q-9 27 -43 39q-6 4 -23 4q-53 0 -141.5 -55t-169.5 -139q-85 -88 -153.5 -207t-63.5 -156zM604 891q0 64 47 140t119.5 128.5t138.5 52.5q31 0 52.5 -23.5 t21.5 -55.5q0 -60 -48.5 -133.5t-120.5 -125t-134 -51.5q-76 0 -76 68zM715 954q0 -22 28 -22q46 0 92 52.5t46 98.5q0 31 -25 31q-37 0 -89 -61t-52 -99z" />
<glyph unicode="&#xe6;" horiz-adv-x="1345" d="M-119 162q0 6 2.5 23.5t16 62t35.5 93.5t67.5 117t106.5 132q190 205 337 205q80 0 150 -58q91 -76 94 -159q3 -50 -24 -101q12 -12 12 -18l-23 -35q-23 -34 -66.5 -104t-84.5 -142q-127 -232 -105 -270q2 -4 11 -4q10 0 16 6q49 39 186 221l31 -49v-2 q-92 -131 -145.5 -183.5t-94.5 -52.5q-14 0 -22 2q-76 22 -111 91q-35 74 -8 188q6 27 60 139q-180 -223 -265 -256q-28 -8 -41 -8q-20 0 -38.5 9t-31.5 23t-24 31t-18.5 34.5t-12.5 31.5t-7 23zM39 86q0 -6 4 -10h2q41 0 399 422v6q3 4 9 10.5t26 17.5t43 11q30 0 64 -17 l35 -18q23 51 12 92q-9 27 -43 39q-6 4 -23 4q-53 0 -141.5 -55t-169.5 -139q-85 -88 -153.5 -207t-63.5 -156zM492.5 172.5q-0.5 32.5 4.5 89t30 126.5t69 138q127 205 276 205q79 0 168 -57l27 -19v-2q38 -24 41 -65q9 -85 -131 -228h-2v-2q-126 -108 -203 -108 q-16 0 -22 2q-17 3 -23 18q-15 -38 -27 -75v-2q-7 -28 -14 -70q-18 -120 10 -156q10 -13 23 -10q9 -4 23.5 -4.5t43.5 6.5t62 23.5t80.5 55t97.5 93.5t113.5 145.5t128.5 204.5v2h2q46 -10 0 -110q-13 -27 -47.5 -80t-95 -127t-127 -136.5t-149 -103t-155.5 -32.5 q-70 8 -118 55.5t-76 144.5l-2 2l-1 6q-1 5 -1 11q-5 27 -5.5 59.5zM768 317q5 -8 23 -2q47 14 137 84h-2l2 2q1 1 4.5 5.5t5.5 5.5q119 125 119 186q-54 -2 -134 -64.5t-137 -148.5q-2 -2 -2 -4q-24 -50 -16 -64z" />
<glyph unicode="&#xe7;" horiz-adv-x="618" d="M-74.5 149.5q0.5 -33.5 4.5 -59.5q1 -3 1.5 -6t1 -5t1 -3t0.5 -2v-2q62 -201 197 -201q62 0 135 43q5 2 13 8q71 30 243.5 222t229.5 272q24 37 18 63q-2 8 -6.5 14t-7.5 9l-4 4h-2l-2 -2q-57 -68 -250 -289q-146 -167 -230 -221q-12 -9 -12 -12q-70 -48 -102 -48 q-17 0 -25 11q-36 47 4 225q35 114 86 192q59 87 139 150t134 63q6 -2 8 -8q6 -9 0 -26q-4 -14 -26.5 -34.5t-43.5 -34.5l-20 -13h-2v-2q0 -2 2.5 -9t10 -14.5t17.5 -7.5t19 6q94 62 96 119q0 46 -51 80l-2 2l-27 18q-88 58 -168 58q-146 0 -276 -205q-43 -68 -68 -138 t-30.5 -126.5t-5 -90zM-2 -311q0 23 27 55q28 -7 62 -7t63.5 20t29.5 53q0 7 -2.5 12t-11 9.5t-10 5.5t-13.5 5q8 30 39 63.5t58 33.5l6 -5l-58 -69q52 -14 52 -58q0 -70 -59 -106.5t-134 -36.5q-49 0 -49 25z" />
<glyph unicode="&#xe8;" horiz-adv-x="620" d="M-66.5 172.5q-0.5 32.5 4.5 89t30 126.5t69 138q127 205 276 205q79 0 168 -57l27 -19v-2q38 -24 41 -65q9 -85 -131 -228h-2v-2q-126 -108 -203 -108q-17 0 -23 2q-16 3 -22 18q-15 -38 -27 -75v-2q-7 -28 -14 -70q-18 -120 10 -156q10 -13 23 -10q9 -4 23.5 -4.5 t43.5 6.5t62 23.5t80.5 55t97.5 93.5t113.5 145.5t128.5 204.5v2h2q46 -10 0 -110q-13 -27 -47.5 -80t-95 -127t-127 -136.5t-149 -103t-155.5 -32.5q-70 8 -118 55.5t-76 144.5l-2 2l-1 6q-1 5 -1 11q-5 27 -5.5 59.5zM121 1124q7 37 31 62t63 22q10 -31 74.5 -114 t120 -157t51.5 -91q-6 -35 -33 -23q-42 24 -116.5 86.5t-134.5 127.5t-56 87zM209 317q5 -8 22 -2q49 14 138 84h-2l2 2q1 1 4.5 5.5t5.5 5.5q119 125 119 186q-54 -2 -134 -64.5t-137 -148.5q-2 -2 -2 -4q-24 -50 -16 -64z" />
<glyph unicode="&#xe9;" horiz-adv-x="620" d="M-66.5 172.5q-0.5 32.5 4.5 89t30 126.5t69 138q127 205 276 205q79 0 168 -57l27 -19v-2q38 -24 41 -65q9 -85 -131 -228h-2v-2q-126 -108 -203 -108q-17 0 -23 2q-16 3 -22 18q-15 -38 -27 -75v-2q-7 -28 -14 -70q-18 -120 10 -156q10 -13 23 -10q9 -4 23.5 -4.5 t43.5 6.5t62 23.5t80.5 55t97.5 93.5t113.5 145.5t128.5 204.5v2h2q46 -10 0 -110q-13 -27 -47.5 -80t-95 -127t-127 -136.5t-149 -103t-155.5 -32.5q-70 8 -118 55.5t-76 144.5l-2 2l-1 6q-1 5 -1 11q-5 27 -5.5 59.5zM172 793v14q30 34 129.5 114t142.5 128q93 0 93 -52 q0 -42 -70 -95.5t-152 -88.5t-122 -35q-5 0 -13 5.5t-8 9.5zM209 317q5 -8 22 -2q49 14 138 84h-2l2 2q1 1 4.5 5.5t5.5 5.5q119 125 119 186q-54 -2 -134 -64.5t-137 -148.5q-2 -2 -2 -4q-24 -50 -16 -64z" />
<glyph unicode="&#xea;" horiz-adv-x="620" d="M-66.5 172.5q-0.5 32.5 4.5 89t30 126.5t69 138q127 205 276 205q79 0 168 -57l27 -19v-2q38 -24 41 -65q9 -85 -131 -228h-2v-2q-126 -108 -203 -108q-17 0 -23 2q-16 3 -22 18q-15 -38 -27 -75v-2q-7 -28 -14 -70q-18 -120 10 -156q10 -13 23 -10q9 -4 23.5 -4.5 t43.5 6.5t62 23.5t80.5 55t97.5 93.5t113.5 145.5t128.5 204.5v2h2q46 -10 0 -110q-13 -27 -47.5 -80t-95 -127t-127 -136.5t-149 -103t-155.5 -32.5q-70 8 -118 55.5t-76 144.5l-2 2l-1 6q-1 5 -1 11q-5 27 -5.5 59.5zM174 801v4q30 39 169.5 144.5t178.5 111.5l17 -10 q-18 -128 6 -234q-3 -1 -19.5 -10.5t-29.5 -16t-17 -6.5h-2q-21 0 -37 43.5t-22 79.5q-166 -121 -209 -121q-20 0 -35 15zM209 317q5 -8 22 -2q49 14 138 84h-2l2 2q1 1 4.5 5.5t5.5 5.5q119 125 119 186q-54 -2 -134 -64.5t-137 -148.5q-2 -2 -2 -4q-24 -50 -16 -64z" />
<glyph unicode="&#xeb;" horiz-adv-x="620" d="M-66.5 172.5q-0.5 32.5 4.5 89t30 126.5t69 138q127 205 276 205q79 0 168 -57l27 -19v-2q38 -24 41 -65q9 -85 -131 -228h-2v-2q-126 -108 -203 -108q-17 0 -23 2q-16 3 -22 18q-15 -38 -27 -75v-2q-7 -28 -14 -70q-18 -120 10 -156q10 -13 23 -10q9 -4 23.5 -4.5 t43.5 6.5t62 23.5t80.5 55t97.5 93.5t113.5 145.5t128.5 204.5v2h2q46 -10 0 -110q-13 -27 -47.5 -80t-95 -127t-127 -136.5t-149 -103t-155.5 -32.5q-70 8 -118 55.5t-76 144.5l-2 2l-1 6q-1 5 -1 11q-5 27 -5.5 59.5zM209 317q5 -8 22 -2q49 14 138 84h-2l2 2q1 1 4.5 5.5 t5.5 5.5q119 125 119 186q-54 -2 -134 -64.5t-137 -148.5q-2 -2 -2 -4q-24 -50 -16 -64zM236 836q0 62 53 124t112 62q39 0 39 -35q0 -65 -53 -125.5t-115 -60.5q-16 0 -26 9t-10 26zM463 834q0 64 52.5 126t113.5 62q41 0 41 -37q0 -64 -55.5 -124t-116.5 -60q-15 0 -25 9 t-10 24z" />
<glyph unicode="&#xec;" horiz-adv-x="382" d="M-141 125q13 51 137 299q16 33 39 76v4q0 2 4 4q79 153 127 197q57 49 88 49q28 0 72 -33q28 -21 47.5 -39.5t24.5 -26.5l5 -8v-2q-4 -4 -22 -24.5t-54.5 -67.5t-68.5 -94q-22 -35 -57 -90l-56 -97q-28 -45 -28 -51q-21 -33 -25 -43q-122 -237 -100 -270q2 -4 8 -4 q10 0 16 6q45 35 158.5 193.5t204 296.5t92.5 145h4q14 -3 21 -17q4 -11 -0.5 -27t-10.5 -26t-8 -12q0 -1 -33 -52t-94.5 -144.5t-124.5 -186.5q-89 -132 -140 -184t-91 -52q-13 0 -21 2q-73 22 -104 91q-35 69 -10 188zM131 1104q7 37 31 62t63 22q10 -31 74.5 -114.5 t120 -157.5t51.5 -91q-6 -34 -33 -22q-42 24 -116.5 86.5t-134.5 127.5t-56 87z" />
<glyph unicode="&#xed;" horiz-adv-x="382" d="M-141 125q13 51 137 299q16 33 39 76v4q0 2 4 4q79 153 127 197q57 49 88 49q28 0 72 -33q28 -21 47.5 -39.5t24.5 -26.5l5 -8v-2q-4 -4 -22 -24.5t-54.5 -67.5t-68.5 -94q-22 -35 -57 -90l-56 -97q-28 -45 -28 -51q-21 -33 -25 -43q-122 -237 -100 -270q2 -4 8 -4 q10 0 16 6q45 35 158.5 193.5t204 296.5t92.5 145h4q14 -3 21 -17q4 -11 -0.5 -27t-10.5 -26t-8 -12q0 -1 -33 -52t-94.5 -144.5t-124.5 -186.5q-89 -132 -140 -184t-91 -52q-13 0 -21 2q-73 22 -104 91q-35 69 -10 188zM303 813v14q30 34 129.5 114t142.5 128q93 0 93 -51 q0 -42 -70 -95.5t-152 -88.5t-122 -35q-5 0 -13 5t-8 9z" />
<glyph unicode="&#xee;" horiz-adv-x="382" d="M-141 125q13 51 137 299q16 33 39 76v4q0 2 4 4q79 153 127 197q57 49 88 49q28 0 72 -33q28 -21 47.5 -39.5t24.5 -26.5l5 -8v-2q-4 -4 -22 -24.5t-54.5 -67.5t-68.5 -94q-22 -35 -57 -90l-56 -97q-28 -45 -28 -51q-21 -33 -25 -43q-122 -237 -100 -270q2 -4 8 -4 q10 0 16 6q45 35 158.5 193.5t204 296.5t92.5 145h4q14 -3 21 -17q4 -11 -0.5 -27t-10.5 -26t-8 -12q0 -1 -33 -52t-94.5 -144.5t-124.5 -186.5q-89 -132 -140 -184t-91 -52q-13 0 -21 2q-73 22 -104 91q-35 69 -10 188zM195 821v4q30 39 169.5 144.5t178.5 111.5l16 -10 q-18 -127 6 -233q-3 -2 -19 -11t-29 -15.5t-17 -6.5h-2q-21 0 -37.5 44t-22.5 79q-166 -121 -209 -121q-20 0 -34 14z" />
<glyph unicode="&#xef;" horiz-adv-x="382" d="M-141 125q13 51 137 299q16 33 39 76v4q0 2 4 4q79 153 127 197q57 49 88 49q28 0 72 -33q28 -21 47.5 -39.5t24.5 -26.5l5 -8v-2q-4 -4 -22 -24.5t-54.5 -67.5t-68.5 -94q-22 -35 -57 -90l-56 -97q-28 -45 -28 -51q-21 -33 -25 -43q-122 -237 -100 -270q2 -4 8 -4 q10 0 16 6q45 35 158.5 193.5t204 296.5t92.5 145h4q14 -3 21 -17q4 -11 -0.5 -27t-10.5 -26t-8 -12q0 -1 -33 -52t-94.5 -144.5t-124.5 -186.5q-89 -132 -140 -184t-91 -52q-13 0 -21 2q-73 22 -104 91q-35 69 -10 188zM190 840q0 62 53.5 124t112.5 62q39 0 39 -35 q0 -65 -53 -125.5t-115 -60.5q-16 0 -26.5 9t-10.5 26zM418 838q0 64 52.5 126t113.5 62q41 0 41 -37q0 -64 -55.5 -124t-116.5 -60q-15 0 -25 9t-10 24z" />
<glyph unicode="&#xf0;" horiz-adv-x="763" d="M147 232q4 110 42 215.5t106.5 195t148.5 135.5q67 40 129 24.5t91 -85.5q29 -83 14 -171t-60 -149.5t-81 -38.5q48 59 82 155q41 116 -4 132q-27 10 -85 -24q-50 -30 -113 -91.5t-120 -139.5t-81 -154.5t5 -137.5q16 -30 41 -39.5t54.5 -0.5t61 27.5t65 48.5t61.5 57.5 t55.5 59.5t42.5 50.5t27 34.5q86 120 154.5 286.5t72.5 331.5q-76 13 -82 13q-46 0 -96.5 -7.5t-63.5 -13.5l5 7q5 7 10.5 13t14.5 16t20 18t25 17.5t31 16t36.5 12t43.5 7.5t50 0q-16 125 -80 227q36 14 72 13.5t76 -30t73 -87.5q36 -62 39 -164q76 -11 119 -6t59 16l17 12 q1 -4 1.5 -10.5t-1 -24t-6 -32.5t-17 -31t-31.5 -25q-34 -15 -145 7q-25 -242 -174 -502q-104 -188 -245.5 -322.5t-252.5 -146.5q-100 -13 -161 90q-50 85 -46 195z" />
<glyph unicode="&#xf1;" horiz-adv-x="790" d="M-199 -88q-48 80 99 321q64 106 141 256l27 52l4 8l4 8l125 238h2q48 -7 88 -37q35 -26 43 -70.5t-6 -90.5t-43 -91q-2 -3 -23.5 -38t-48.5 -80.5t-45 -78.5q-23 -39 -47 -86q110 140 285 315.5t221 202.5q27 17 53 17q17 0 33 -8q16 -5 51 -29q28 -21 47.5 -39.5 t24.5 -26.5l6 -8v-2q-5 -5 -22.5 -25t-54.5 -67t-69 -94q-22 -35 -57 -90q-80 -136 -84 -148q-2 -3 -25 -43q-122 -237 -100 -270q2 -4 8 -4q11 0 17 6q45 35 158 193.5t203.5 296.5t92.5 145h4q14 -3 21 -17q4 -11 -0.5 -27t-10.5 -26t-8 -12q0 -1 -32.5 -52t-94.5 -145 t-124 -186q-89 -131 -140.5 -183.5t-91.5 -52.5q-12 0 -20 2q-74 22 -105 91q-35 69 -10 188q9 44 120 264q11 23 17 35q16 33 39 76v4q0 2 4 4q15 30 21 39q-54 -49 -154 -156q-258 -270 -360 -479l-9 -29v-2h-2q-36 -12 -77 -12q-71 0 -95 43zM328 860q-1 24 24 61t63 71 t88.5 55t94.5 14t111 -48.5t112 -41.5q37 0 74.5 25t62.5 50t31 25l12 -4q-77 -214 -279 -193q-106 11 -206 74q-21 13 -20 15q-22 20 -53 -1.5t-65 -58.5t-50 -43z" />
<glyph unicode="&#xf2;" horiz-adv-x="704" d="M-97 149.5q-1 33.5 4.5 90t30.5 126.5t68 138q130 205 277 205h12q5 0 13 -0.5t32.5 -4t47 -9.5t51 -20t50.5 -32q23 -20 23 -35l-4 -8q63 -63 74 -143q3 -27 3.5 -48.5t-3.5 -46t-7.5 -39t-7.5 -28t-4 -14.5q-21 -50 -41 -82q55 18 221 184v2h2q3 -1 8 -4t11 -13.5 t2 -23.5q-7 -18 -52 -64.5t-112.5 -92t-116.5 -46.5q-23 -34 -47 -61.5t-36 -39.5l-13 -11q-149 -140 -270 -158h-10q-135 0 -197 201v2q0 1 -0.5 2.5t-1.5 5.5l-2 8q-4 26 -5 59.5zM86 -35q17 -31 43 -31h2q10 0 34 10t71.5 40.5t99.5 76.5q34 26 88 113q-28 40 -37 118.5 t-3 146.5t19 98q1 4 11 24q-54 -25 -113.5 -79t-103.5 -120q-170 -297 -111 -397zM162 1124q7 37 31 62t63 22q10 -31 74.5 -114t120 -157t51.5 -91q-6 -35 -33 -23q-42 24 -116.5 86.5t-134.5 127.5t-56 87zM437.5 401.5q-4.5 -111.5 17.5 -180.5q6 10 10.5 19l10 20 l9.5 19q25 52 30 104.5t-2.5 84.5t-20.5 54q-18 25 -27 25h-2l-4 -4q-17 -30 -21.5 -141.5z" />
<glyph unicode="&#xf3;" horiz-adv-x="704" d="M-97 149.5q-1 33.5 4.5 90t30.5 126.5t68 138q130 205 277 205h12q5 0 13 -0.5t32.5 -4t47 -9.5t51 -20t50.5 -32q23 -20 23 -35l-4 -8q63 -63 74 -143q3 -27 3.5 -48.5t-3.5 -46t-7.5 -39t-7.5 -28t-4 -14.5q-21 -50 -41 -82q55 18 221 184v2h2q3 -1 8 -4t11 -13.5 t2 -23.5q-7 -18 -52 -64.5t-112.5 -92t-116.5 -46.5q-23 -34 -47 -61.5t-36 -39.5l-13 -11q-149 -140 -270 -158h-10q-135 0 -197 201v2q0 1 -0.5 2.5t-1.5 5.5l-2 8q-4 26 -5 59.5zM86 -35q17 -31 43 -31h2q10 0 34 10t71.5 40.5t99.5 76.5q34 26 88 113q-28 40 -37 118.5 t-3 146.5t19 98q1 4 11 24q-54 -25 -113.5 -79t-103.5 -120q-170 -297 -111 -397zM170 977v14q30 34 129.5 114t142.5 128q93 0 93 -51q0 -42 -70.5 -95.5t-152.5 -88.5t-122 -35q-5 0 -12.5 5t-7.5 9zM437.5 401.5q-4.5 -111.5 17.5 -180.5q6 10 10.5 19l10 20l9.5 19 q25 52 30 104.5t-2.5 84.5t-20.5 54q-18 25 -27 25h-2l-4 -4q-17 -30 -21.5 -141.5z" />
<glyph unicode="&#xf4;" horiz-adv-x="704" d="M-97 149.5q-1 33.5 4.5 90t30.5 126.5t68 138q130 205 277 205h12q5 0 13 -0.5t32.5 -4t47 -9.5t51 -20t50.5 -32q23 -20 23 -35l-4 -8q63 -63 74 -143q3 -27 3.5 -48.5t-3.5 -46t-7.5 -39t-7.5 -28t-4 -14.5q-21 -50 -41 -82q55 18 221 184v2h2q3 -1 8 -4t11 -13.5 t2 -23.5q-7 -18 -52 -64.5t-112.5 -92t-116.5 -46.5q-23 -34 -47 -61.5t-36 -39.5l-13 -11q-149 -140 -270 -158h-10q-135 0 -197 201v2q0 1 -0.5 2.5t-1.5 5.5l-2 8q-4 26 -5 59.5zM86 -35q17 -31 43 -31h2q10 0 34 10t71.5 40.5t99.5 76.5q34 26 88 113q-28 40 -37 118.5 t-3 146.5t19 98q1 4 11 24q-54 -25 -113.5 -79t-103.5 -120q-170 -297 -111 -397zM166 983v4q30 39 169.5 144.5t178.5 111.5l16 -10q-18 -125 7 -234q-64 -32 -66 -32h-2q-21 0 -37 43.5t-22 79.5q-166 -121 -209 -121q-21 0 -35 14zM437.5 401.5q-4.5 -111.5 17.5 -180.5 q6 10 10.5 19l10 20l9.5 19q25 52 30 104.5t-2.5 84.5t-20.5 54q-18 25 -27 25h-2l-4 -4q-17 -30 -21.5 -141.5z" />
<glyph unicode="&#xf5;" horiz-adv-x="704" d="M-97 149.5q-1 33.5 4.5 90t30.5 126.5t68 138q130 205 277 205h12q5 0 13 -0.5t32.5 -4t47 -9.5t51 -20t50.5 -32q23 -20 23 -35l-4 -8q63 -63 74 -143q3 -27 3.5 -48.5t-3.5 -46t-7.5 -39t-7.5 -28t-4 -14.5q-21 -50 -41 -82q55 18 221 184v2h2q3 -1 8 -4t11 -13.5 t2 -23.5q-7 -18 -52 -64.5t-112.5 -92t-116.5 -46.5q-23 -34 -47 -61.5t-36 -39.5l-13 -11q-149 -140 -270 -158h-10q-135 0 -197 201v2q0 1 -0.5 2.5t-1.5 5.5l-2 8q-4 26 -5 59.5zM86 -35q17 -31 43 -31h2q10 0 34 10t71.5 40.5t99.5 76.5q34 26 88 113q-28 40 -37 118.5 t-3 146.5t19 98q1 4 11 24q-54 -25 -113.5 -79t-103.5 -120q-170 -297 -111 -397zM102 975q-1 42 29.5 108t79.5 114.5t92 35.5q29 -8 58 -38t55 -54.5t53 -24.5t55 32t46.5 64.5t23.5 32.5l8 -4q-20 -96 -51.5 -155t-66.5 -77.5t-72 -18t-71 20t-60 40t-41 37.5t-13 18 q-16 26 -39.5 -0.5t-49 -74t-36.5 -56.5zM437.5 401.5q-4.5 -111.5 17.5 -180.5q6 10 10.5 19l10 20l9.5 19q25 52 30 104.5t-2.5 84.5t-20.5 54q-18 25 -27 25h-2l-4 -4q-17 -30 -21.5 -141.5z" />
<glyph unicode="&#xf6;" horiz-adv-x="704" d="M-97 149.5q-1 33.5 4.5 90t30.5 126.5t68 138q130 205 277 205h12q5 0 13 -0.5t32.5 -4t47 -9.5t51 -20t50.5 -32q23 -20 23 -35l-4 -8q63 -63 74 -143q3 -27 3.5 -48.5t-3.5 -46t-7.5 -39t-7.5 -28t-4 -14.5q-21 -50 -41 -82q55 18 221 184v2h2q3 -1 8 -4t11 -13.5 t2 -23.5q-7 -18 -52 -64.5t-112.5 -92t-116.5 -46.5q-23 -34 -47 -61.5t-36 -39.5l-13 -11q-149 -140 -270 -158h-10q-135 0 -197 201v2q0 1 -0.5 2.5t-1.5 5.5l-2 8q-4 26 -5 59.5zM86 -35q17 -31 43 -31h2q10 0 34 10t71.5 40.5t99.5 76.5q34 26 88 113q-28 40 -37 118.5 t-3 146.5t19 98q1 4 11 24q-54 -25 -113.5 -79t-103.5 -120q-170 -297 -111 -397zM135 1020q0 62 53.5 124t112.5 62q39 0 39 -35q0 -65 -53 -125.5t-115 -60.5q-16 0 -26.5 9t-10.5 26zM362 1018q0 64 52.5 126t113.5 62q41 0 41 -37q0 -64 -55.5 -124t-116.5 -60 q-15 0 -25 9t-10 24zM437.5 401.5q-4.5 -111.5 17.5 -180.5q6 10 10.5 19l10 20l9.5 19q25 52 30 104.5t-2.5 84.5t-20.5 54q-18 25 -27 25h-2l-4 -4q-17 -30 -21.5 -141.5z" />
<glyph unicode="&#xf8;" horiz-adv-x="704" d="M-238 -356q37 68 445 589q369 470 489 598q49 51 84.5 73t77.5 22q31 0 45 -6q-145 -127 -588 -689q-374 -474 -467 -651q-8 0 -32 -1t-37 -1q-61 0 -17 66zM-97 149.5q-1 33.5 4.5 90t30.5 126.5t68 138q130 205 277 205h12q5 0 13 -0.5t32.5 -4t47 -9.5t51 -20 t50.5 -32q23 -20 23 -35l-4 -8q63 -63 74 -143q3 -27 3.5 -48.5t-3.5 -46t-7.5 -39t-7.5 -28t-4 -14.5q-21 -50 -41 -82q55 18 221 184v2h2q3 -1 8 -4t11 -13.5t2 -23.5q-7 -18 -52 -64.5t-112.5 -92t-116.5 -46.5q-23 -34 -47 -61.5t-36 -39.5l-13 -11q-149 -140 -270 -158 h-10q-135 0 -197 201v2q0 1 -0.5 2.5t-1.5 5.5l-2 8q-4 26 -5 59.5zM86 -35q17 -31 43 -31h2q10 0 34 10t71.5 40.5t99.5 76.5q34 26 88 113q-28 40 -37 118.5t-3 146.5t19 98q1 4 11 24q-54 -25 -113.5 -79t-103.5 -120q-170 -297 -111 -397zM437.5 401.5 q-4.5 -111.5 17.5 -180.5q6 10 10.5 19l10 20l9.5 19q25 52 30 104.5t-2.5 84.5t-20.5 54q-18 25 -27 25h-2l-4 -4q-17 -30 -21.5 -141.5z" />
<glyph unicode="&#xf9;" horiz-adv-x="811" d="M-122 25q-30 98 16 221q35 101 106 239q11 27 29 62v4q2 0 4 4q61 119 112 156q52 41 88 41q25 0 86 -27q74 -36 97 -59v-2q-80 -80 -131 -148v-2q-20 -27 -49 -72q-70 -113 -72 -118l-21 -35q-60 -115 -102 -215.5t-35 -112.5q6 -6 14 -6q9 0 17 4q22 14 64.5 64 t99.5 127t100 137t101.5 143.5t68.5 97.5q65 131 117 177q57 49 88 49q28 0 72 -33q28 -21 47 -39.5t24.5 -26.5t5.5 -10q-45 -20 -118 -151q-80 -136 -84 -148q-2 -3 -25 -43q-51 -98 -91.5 -186t-59.5 -139.5t-15 -57.5q2 -4 8 -4q11 0 17 6q45 35 153.5 190.5 t194.5 290.5t88 142h4q14 -3 21 -17q4 -11 -0.5 -27t-10.5 -26t-8 -12q0 -9 -168 -258q-235 -348 -297 -348q-12 0 -20 2q-75 22 -105 90q-17 34 2.5 126t53.5 175q1 3 14.5 39.5t28.5 66.5l-101 -145q-49 -67 -83 -110t-76.5 -93t-74.5 -75t-53 -25q-14 0 -22 2 q-90 17 -120 115zM215 1124q7 37 31 62t63 22q10 -31 74.5 -114t120 -157t51.5 -91q-6 -35 -33 -23q-42 24 -116.5 86.5t-134.5 127.5t-56 87z" />
<glyph unicode="&#xfa;" horiz-adv-x="811" d="M-122 25q-30 98 16 221q35 101 106 239q11 27 29 62v4q2 0 4 4q61 119 112 156q52 41 88 41q25 0 86 -27q74 -36 97 -59v-2q-80 -80 -131 -148v-2q-20 -27 -49 -72q-70 -113 -72 -118l-21 -35q-60 -115 -102 -215.5t-35 -112.5q6 -6 14 -6q9 0 17 4q22 14 64.5 64 t99.5 127t100 137t101.5 143.5t68.5 97.5q65 131 117 177q57 49 88 49q28 0 72 -33q28 -21 47 -39.5t24.5 -26.5t5.5 -10q-45 -20 -118 -151q-80 -136 -84 -148q-2 -3 -25 -43q-51 -98 -91.5 -186t-59.5 -139.5t-15 -57.5q2 -4 8 -4q11 0 17 6q45 35 153.5 190.5 t194.5 290.5t88 142h4q14 -3 21 -17q4 -11 -0.5 -27t-10.5 -26t-8 -12q0 -9 -168 -258q-235 -348 -297 -348q-12 0 -20 2q-75 22 -105 90q-17 34 2.5 126t53.5 175q1 3 14.5 39.5t28.5 66.5l-101 -145q-49 -67 -83 -110t-76.5 -93t-74.5 -75t-53 -25q-14 0 -22 2 q-90 17 -120 115zM223 977v14q30 34 130 114t143 128q92 0 92 -51q0 -42 -70 -95.5t-152 -88.5t-122 -35q-5 0 -13 5t-8 9z" />
<glyph unicode="&#xfb;" horiz-adv-x="811" d="M-122 25q-30 98 16 221q35 101 106 239q11 27 29 62v4q2 0 4 4q61 119 112 156q52 41 88 41q25 0 86 -27q74 -36 97 -59v-2q-80 -80 -131 -148v-2q-20 -27 -49 -72q-70 -113 -72 -118l-21 -35q-60 -115 -102 -215.5t-35 -112.5q6 -6 14 -6q9 0 17 4q22 14 64.5 64 t99.5 127t100 137t101.5 143.5t68.5 97.5q65 131 117 177q57 49 88 49q28 0 72 -33q28 -21 47 -39.5t24.5 -26.5t5.5 -10q-45 -20 -118 -151q-80 -136 -84 -148q-2 -3 -25 -43q-51 -98 -91.5 -186t-59.5 -139.5t-15 -57.5q2 -4 8 -4q11 0 17 6q45 35 153.5 190.5 t194.5 290.5t88 142h4q14 -3 21 -17q4 -11 -0.5 -27t-10.5 -26t-8 -12q0 -9 -168 -258q-235 -348 -297 -348q-12 0 -20 2q-75 22 -105 90q-17 34 2.5 126t53.5 175q1 3 14.5 39.5t28.5 66.5l-101 -145q-49 -67 -83 -110t-76.5 -93t-74.5 -75t-53 -25q-14 0 -22 2 q-90 17 -120 115zM219 983v4q30 39 169.5 144.5t178.5 111.5l17 -10q-18 -128 6 -234q-64 -32 -66 -32h-2q-21 0 -37 43.5t-22 79.5q-166 -121 -209 -121q-21 0 -35 14z" />
<glyph unicode="&#xfc;" horiz-adv-x="811" d="M-122 25q-30 98 16 221q35 101 106 239q11 27 29 62v4q2 0 4 4q61 119 112 156q52 41 88 41q25 0 86 -27q74 -36 97 -59v-2q-80 -80 -131 -148v-2q-20 -27 -49 -72q-70 -113 -72 -118l-21 -35q-60 -115 -102 -215.5t-35 -112.5q6 -6 14 -6q9 0 17 4q22 14 64.5 64 t99.5 127t100 137t101.5 143.5t68.5 97.5q65 131 117 177q57 49 88 49q28 0 72 -33q28 -21 47 -39.5t24.5 -26.5t5.5 -10q-45 -20 -118 -151q-80 -136 -84 -148q-2 -3 -25 -43q-51 -98 -91.5 -186t-59.5 -139.5t-15 -57.5q2 -4 8 -4q11 0 17 6q45 35 153.5 190.5 t194.5 290.5t88 142h4q14 -3 21 -17q4 -11 -0.5 -27t-10.5 -26t-8 -12q0 -9 -168 -258q-235 -348 -297 -348q-12 0 -20 2q-75 22 -105 90q-17 34 2.5 126t53.5 175q1 3 14.5 39.5t28.5 66.5l-101 -145q-49 -67 -83 -110t-76.5 -93t-74.5 -75t-53 -25q-14 0 -22 2 q-90 17 -120 115zM188 1020q0 62 53.5 124t112.5 62q39 0 39 -35q0 -65 -53 -125.5t-115 -60.5q-16 0 -26.5 9t-10.5 26zM416 1018q0 64 52.5 126t113.5 62q41 0 41 -37q0 -64 -55.5 -124t-116.5 -60q-15 0 -25 9t-10 24z" />
<glyph unicode="&#xfd;" horiz-adv-x="854" d="M-187.5 -562.5q3.5 29.5 21 65.5t29 52.5t31.5 43.5q6 6 14 18q79 112 338 311l12 21l66 131q-82 -74 -168 -74q-23 0 -33 2q-75 17 -108.5 70t-28.5 147q1 27 18 74.5t66 167.5q8 26 22 61v4q0 3 2 5q50 120 94 157q44 41 76 41q22 0 80 -28q20 -10 36.5 -19.5t26 -16 t15.5 -12t9 -7.5l3 -3v-4q-1 0 -16.5 -18.5t-42.5 -55t-51 -75.5q-16 -27 -41 -72l-58 -119q-4 -8 -4 -10l-12 -27q-65 -176 -41 -209q5 -8 16 -8h2q36 0 104 81.5t120 163.5t106 177l86 174q25 62 69.5 108t98.5 46q17 0 35 -6q44 -13 119 -78l2 -2l-2 -2q-41 -31 -78 -90 q-35 -56 -242 -439l215 140q4 4 23.5 17t50.5 27.5t51 14.5q25 0 31 -25v-2l-2 -2q-2 0 -57.5 -33.5t-160.5 -101t-206 -137.5l-25 -49q-228 -437 -280 -516q-73 -115 -156.5 -180.5t-155.5 -65.5q-43 0 -73 24q-30 35 -40 74t-6.5 68.5zM-117 -631l2 -2q5 0 17.5 9t37 35.5 t53.5 66t71 110t86 158.5l30 57q-361 -306 -297 -434zM244 977v14q30 34 129.5 114t142.5 128q92 0 92 -51q0 -42 -70 -95.5t-152 -88.5t-122 -35q-5 0 -12.5 5t-7.5 9z" />
<glyph unicode="&#xff;" horiz-adv-x="854" d="M-187.5 -562.5q3.5 29.5 21 65.5t29 52.5t31.5 43.5q6 6 14 18q79 112 338 311l12 21l66 131q-82 -74 -168 -74q-23 0 -33 2q-75 17 -108.5 70t-28.5 147q1 27 18 74.5t66 167.5q8 26 22 61v4q0 3 2 5q50 120 94 157q44 41 76 41q22 0 80 -28q20 -10 36.5 -19.5t26 -16 t15.5 -12t9 -7.5l3 -3v-4q-1 0 -16.5 -18.5t-42.5 -55t-51 -75.5q-16 -27 -41 -72l-58 -119q-4 -8 -4 -10l-12 -27q-65 -176 -41 -209q5 -8 16 -8h2q36 0 104 81.5t120 163.5t106 177l86 174q25 62 69.5 108t98.5 46q17 0 35 -6q44 -13 119 -78l2 -2l-2 -2q-41 -31 -78 -90 q-35 -56 -242 -439l215 140q4 4 23.5 17t50.5 27.5t51 14.5q25 0 31 -25v-2l-2 -2q-2 0 -57.5 -33.5t-160.5 -101t-206 -137.5l-25 -49q-228 -437 -280 -516q-73 -115 -156.5 -180.5t-155.5 -65.5q-43 0 -73 24q-30 35 -40 74t-6.5 68.5zM-117 -631l2 -2q5 0 17.5 9t37 35.5 t53.5 66t71 110t86 158.5l30 57q-361 -306 -297 -434zM209 1020q0 62 53.5 124t112.5 62q39 0 39 -35q0 -65 -53 -125.5t-115 -60.5q-16 0 -26.5 9t-10.5 26zM436 1018q0 64 52.5 126t113.5 62q41 0 41 -37q0 -64 -55.5 -124t-116.5 -60q-15 0 -25 9t-10 24z" />
<glyph unicode="&#x178;" horiz-adv-x="1026" d="M-98 -174q5 -5 14.5 -11.5t36 -16t58 -12.5t81.5 6t105 34t123 100t129.5 170.5t97.5 157t61 108.5q-96 10 -158 50t-86 99t-25.5 132.5t19.5 150t53 152t70 138t76 108.5q-77 -15 -148.5 -59t-125.5 -103.5t-90 -133t-46.5 -145t9.5 -141.5t73 -121q-73 -17 -127 3.5 t-79 69.5t-27 113.5t26 142t82 149.5q65 87 162.5 151t198.5 92.5t200 17t166 -66.5q-72 -62 -168 -223q-133 -221 -154 -371q-23 -171 123 -167q7 0 15 1q12 26 38.5 85.5t51 116t62 131.5t73 139.5t82.5 131.5t93 116.5t101.5 85.5t110 46.5t117.5 -7.5t125 -70 q-101 -19 -200.5 -107.5t-183.5 -215.5t-167.5 -277.5t-165.5 -301.5t-163.5 -279t-176.5 -218.5t-190 -112.5q-49 -9 -91.5 -5t-82 23.5t-70 40t-55 44.5t-37 38.5t-16.5 20.5zM778 1343q0 62 53.5 124.5t112.5 62.5q39 0 39 -35q0 -65 -53 -125.5t-115 -60.5 q-16 0 -26.5 9t-10.5 25zM1006 1341q0 64 52 126.5t113 62.5q41 0 41 -37q0 -64 -55.5 -124t-116.5 -60q-15 0 -24.5 8.5t-9.5 23.5z" />
<glyph unicode="&#x2c6;" horiz-adv-x="524" d="M57 983v4q30 39 170 144.5t179 111.5l16 -10q-18 -128 6 -234q-64 -32 -66 -32h-2q-21 0 -37 43.5t-22 79.5q-166 -121 -209 -121q-21 0 -35 14z" />
<glyph unicode="&#x2dc;" horiz-adv-x="524" d="M12 975q-1 42 29.5 108t79.5 114.5t92 35.5q29 -8 58 -38t55 -54.5t53 -24.5t55 32t46.5 64.5t23.5 32.5l8 -4q-20 -96 -51.5 -155t-66.5 -77.5t-72 -18t-71 20t-60 40t-41 37.5t-13 18q-16 26 -39.5 -0.5t-49 -74t-36.5 -56.5z" />
<glyph unicode="&#x2000;" horiz-adv-x="895" />
<glyph unicode="&#x2001;" horiz-adv-x="1790" />
<glyph unicode="&#x2002;" horiz-adv-x="895" />
<glyph unicode="&#x2003;" horiz-adv-x="1790" />
<glyph unicode="&#x2004;" horiz-adv-x="596" />
<glyph unicode="&#x2005;" horiz-adv-x="447" />
<glyph unicode="&#x2006;" horiz-adv-x="298" />
<glyph unicode="&#x2007;" horiz-adv-x="298" />
<glyph unicode="&#x2008;" horiz-adv-x="223" />
<glyph unicode="&#x2009;" horiz-adv-x="358" />
<glyph unicode="&#x200a;" horiz-adv-x="99" />
<glyph unicode="&#x2010;" horiz-adv-x="364" d="M-12 453q2 1 10 7t12 11q74 46 106.5 59t73.5 13q5 1 12.5 1t18 -0.5t17.5 -0.5h34q72 0 113 8q0 -9 -12 -19q-42 -34 -78.5 -49t-60.5 -17.5t-78 -2.5h-33q-37 0 -85 -5t-50 -5z" />
<glyph unicode="&#x2011;" horiz-adv-x="364" d="M-12 453q2 1 10 7t12 11q74 46 106.5 59t73.5 13q5 1 12.5 1t18 -0.5t17.5 -0.5h34q72 0 113 8q0 -9 -12 -19q-42 -34 -78.5 -49t-60.5 -17.5t-78 -2.5h-33q-37 0 -85 -5t-50 -5z" />
<glyph unicode="&#x2012;" horiz-adv-x="364" d="M-12 453q2 1 10 7t12 11q74 46 106.5 59t73.5 13q5 1 12.5 1t18 -0.5t17.5 -0.5h34q72 0 113 8q0 -9 -12 -19q-42 -34 -78.5 -49t-60.5 -17.5t-78 -2.5h-33q-37 0 -85 -5t-50 -5z" />
<glyph unicode="&#x2013;" horiz-adv-x="524" d="M10 365q5 8 24.5 44.5t29 50t29.5 36.5t42.5 32t50.5 9q24 0 103 -4.5t134 -1.5t99 20q-45 -83 -88 -122.5t-88.5 -45.5t-89 -0.5t-111.5 4.5t-135 -22z" />
<glyph unicode="&#x2014;" horiz-adv-x="962" d="M25 360q42 75 77 111t83 51t130 15q51 0 154 -6.5t154 -6.5q294 0 350 25q-19 -37 -35 -62.5t-33 -45t-33 -30t-36 -18t-43 -9.5t-52.5 -3.5t-65.5 0.5h-46q-20 0 -128.5 2t-188 2.5t-167.5 -5.5t-120 -20z" />
<glyph unicode="&#x2018;" horiz-adv-x="395" d="M33 881q-30 54 51 151q69 84 159 130q98 50 127 3q7 -11 9 -26q-86 -21 -148.5 -92.5t-62.5 -157.5l2 -21q-22 -20 -62 -17.5t-75 30.5z" />
<glyph unicode="&#x2019;" horiz-adv-x="290" d="M2 846q0 17 18 35q84 19 146.5 95.5t62.5 160.5l-2 16q5 9 20 11t33 -3t35.5 -15t29 -27t11.5 -36q0 -55 -59.5 -120.5t-138 -108.5t-133.5 -43q-23 10 -23 35z" />
<glyph unicode="&#x201a;" horiz-adv-x="290" d="M-63 -121q0 17 16 37q83 24 145 100.5t62 161.5v15q6 8 20.5 8.5t35 -9t39 -22.5t31.5 -33t13 -39q0 -53 -63.5 -113.5t-144 -98.5t-134.5 -38q-20 7 -20 31z" />
<glyph unicode="&#x201c;" horiz-adv-x="516" d="M-27 893q0 56 53.5 124t127 113.5t127.5 45.5q32 7 58 -18q21 -20 5 -32q-41 21 -99.5 -21.5t-100.5 -114.5t-42 -128l2 -16q-9 -16 -41 -17.5t-61 16t-29 48.5zM190 893q0 56 53.5 124t127 113.5t127.5 45.5q32 7 58 -18q21 -20 5 -32q-41 21 -99.5 -21.5t-100.5 -114.5 t-42 -128l3 -16q-9 -16 -41 -17.5t-61.5 16t-29.5 48.5z" />
<glyph unicode="&#x201d;" horiz-adv-x="516" d="M-55 872q41 -21 99 22t100 115t42 128l-2 16q9 16 41 17.5t61 -16t29 -48.5q0 -56 -53.5 -124t-126.5 -113.5t-127 -45.5q-32 -7 -58 17q-21 20 -5 32zM162 872q41 -21 99 22t100 115t42 128l-2 16q9 16 41 17.5t61 -16t29 -48.5q0 -56 -53.5 -124t-126.5 -113.5 t-127 -45.5q-32 -7 -58 17q-21 20 -5 32z" />
<glyph unicode="&#x201e;" horiz-adv-x="516" d="M-61 -117q0 12 16 33q84 24 145.5 98.5t61.5 159.5v19q6 9 21.5 9.5t33.5 -7.5t35.5 -21t29 -32.5t11.5 -39.5q0 -52 -61.5 -113.5t-140 -101t-130.5 -39.5q-22 9 -22 35zM178 -117q0 10 17 33q83 24 144.5 98.5t61.5 159.5v19q6 9 21.5 9.5t33.5 -7.5t35.5 -21t29 -32.5 t11.5 -39.5q0 -52 -61 -113.5t-139.5 -101t-130.5 -39.5q-23 10 -23 35z" />
<glyph unicode="&#x2022;" horiz-adv-x="567" d="M51 317q0 63 31 137t79.5 136.5t115 104.5t131.5 42q41 0 65.5 -19.5t24.5 -58.5q0 -91 -53.5 -186.5t-140.5 -159t-175 -63.5q-78 0 -78 67z" />
<glyph unicode="&#x2026;" horiz-adv-x="954" d="M45 16q0 21 22 78.5t37 79.5q13 9 40.5 22t39.5 13q18 0 28.5 -1.5t20 -11t9.5 -26.5q0 -65 -48 -129t-112 -64q-37 0 -37 39zM362 16q0 19 23.5 78t36.5 80q56 35 82 35q55 0 55 -37q0 -66 -48 -130.5t-112 -64.5q-37 0 -37 39zM680 14q0 57 42.5 126t96.5 69 q58 0 58 -35q0 -67 -48 -132t-112 -65q-37 0 -37 37z" />
<glyph unicode="&#x202f;" horiz-adv-x="358" />
<glyph unicode="&#x2039;" horiz-adv-x="339" d="M25 377q0 22 18 67q20 20 37 27q61 32 121 72.5t134.5 95.5t113.5 82q-4 -40 -36.5 -86.5t-81 -88t-90 -71t-83.5 -55.5q32 -66 32 -135q0 -94 -63 -179q-11 45 -37 120.5t-43 101.5q-1 2 -7 11t-8 12.5t-4.5 11t-2.5 14.5z" />
<glyph unicode="&#x205f;" horiz-adv-x="447" />
<glyph unicode="&#x20ac;" horiz-adv-x="696" d="M199 365q4 6 12 22t11 21.5t10.5 17.5t11.5 16l12 12t15 10.5t17 6.5t22 5t26 1q54 106 80 148q-66 -4 -103 -15q43 75 56 89q27 30 88 33q13 1 30 1q53 79 121 158.5t155.5 162t185.5 134t184 51.5q53 0 89.5 -20.5t37.5 -69.5q3 -93 -10 -155.5t-34.5 -90.5 t-52.5 -42.5t-59.5 -14.5t-60.5 -3t-50 -12q46 52 81 109t52 101.5t25 81.5t7 57t-7 20q-49 0 -129 -58.5t-156.5 -139.5t-138.5 -156.5t-88 -118.5q91 0 307.5 7.5t243.5 19.5q-17 -28 -47 -50t-63.5 -36t-80 -23.5t-85.5 -13.5t-92.5 -6t-87.5 -2t-85 1t-71 1l-80 -156 q76 0 285.5 8.5t238.5 18.5q-12 -19 -32 -35.5t-43 -28t-55 -20.5t-60 -14.5t-66.5 -9.5t-67 -6t-68 -3t-62.5 -1t-59 0.5t-48 0.5q-14 -15 -32 -78.5t-30 -135t-9.5 -130.5t26.5 -62q71 -12 163 35.5t165 132.5t90 172q77 -107 -8 -224q-69 -94 -205 -149 q-147 -59 -259 -29q-125 34 -138 169q-1 14 -1 29q0 97 72 270q-55 -3 -96 -14z" />
<glyph unicode="&#x25fc;" horiz-adv-x="798" d="M0 0v799h799v-799h-799z" />
</font>
</defs>
</svg>
