<?xml version="1.0" standalone="no"?>
<!DOCTYPE svg PUBLIC "-//W3C//DTD SVG 1.1//EN" "http://www.w3.org/Graphics/SVG/1.1/DTD/svg11.dtd" >
<svg xmlns="http://www.w3.org/2000/svg">
<metadata></metadata>
<defs>
<font id="amylightregular" horiz-adv-x="671" >
<font-face units-per-em="2048" ascent="1536" descent="-512" />
<missing-glyph horiz-adv-x="534" />
<glyph horiz-adv-x="0" />
<glyph unicode="&#xd;" horiz-adv-x="534" />
<glyph horiz-adv-x="0" />
<glyph horiz-adv-x="0" />
<glyph unicode=" "  horiz-adv-x="534" />
<glyph unicode="&#x09;" horiz-adv-x="534" />
<glyph unicode="&#xa0;" horiz-adv-x="534" />
<glyph unicode="!" horiz-adv-x="835" d="M1 -182.5q-7 28.5 1 72.5t27.5 90.5t38.5 64.5q18 16 50 24.5t62 12.5q37 4 76 0l-86 -92l131 100l18 -33q-59 -61 -112 -114q-47 -45 -92 -86t-70 -52q-37 -16 -44 12.5zM166 188q88 186 160 342q31 66 61.5 131.5t55 119t43 92t24.5 51.5q12 25 35.5 40t46.5 25 q27 10 59 19l-108 -213l159 215l123 2q-8 -8 -16 -19q-18 -23 -35 -55q-6 -10 -31.5 -51t-63.5 -101.5t-85 -135.5t-96 -150q-113 -180 -254 -402z" />
<glyph unicode="&#x22;" horiz-adv-x="636" d="M-18 1217q2 4 3 8t3 8q4 8 9 15t9 18q10 23 22.5 42t24.5 42q2 4 2 8t2 8q29 45 51.5 88t51.5 90q20 2 39.5 3t36.5 1q18 0 32 -2l-100 -108l156 118l22 -38q-70 -74 -133 -136q-53 -53 -108.5 -100t-84.5 -61q-25 -10 -38 -4zM252 1217q2 4 3 8t3 8q4 8 9 15t9 18 q10 23 22.5 42t25.5 42q2 4 2 8t2 8q29 45 51 88t51 90q20 2 39.5 3t36.5 1q18 0 33 -2l-101 -108l156 118l22 -38q-70 -74 -133 -136q-53 -53 -108.5 -100t-83.5 -61q-25 -10 -39 -4z" />
<glyph unicode="#" horiz-adv-x="868" d="M-6 70q16 47 37 100q16 47 38.5 107.5t49.5 130.5q-8 2 -17 2q-16 0 -29.5 7t-23.5 15t-20 21l104 -9q0 2 1 2t1 3l-119 24l-2 6l39 2l37 13l62 -2q20 53 39.5 107t39.5 108q-29 2 -52 4t-40 4q-20 2 -37 2l-12 47h47q23 0 52.5 1t64.5 1q45 121 78 209t41 106 q10 25 26.5 40.5t32.5 25.5q18 10 39 18l-94 -215l127 217l78 4l-13 -18q-6 -10 -13 -24.5t-17 -32.5q-4 -6 -16.5 -35t-33 -73t-46 -100.5t-54.5 -119.5h193q45 121 77.5 208t40.5 105q10 25 26.5 40.5t33.5 25.5q18 10 39 18l-97 -215l127 217l11 2l-21 -67l-6 -68 l-106 -266h8q16 -2 29.5 -8t23.5 -15q10 -8 20 -20l-96 6l-2 -4l111 -22l2 -5l-39 -4l-35 -12h-55l-37 -86q-14 -35 -28.5 -66.5t-30.5 -64.5q31 -4 55 -5t43 -3q23 -2 39 -2l12 -49h-176q-35 -74 -63.5 -138.5t-51.5 -111.5q-25 -55 -47 -105l-67 17q16 45 36 98 q16 47 39 107.5t49 132.5h-221q-35 -74 -63.5 -138.5t-50.5 -111.5q-25 -55 -48 -105zM262 487l103 -2q27 -4 53 -5t53 -3q20 53 39.5 105.5t40.5 105.5l-98 2q-23 2 -48.5 3t-48.5 3q-23 -51 -47 -103t-47 -106z" />
<glyph unicode="%" horiz-adv-x="890" d="M-20 35q190 264 344 479q66 92 129 181t116.5 163t89 124t46.5 62q20 25 41.5 41.5t41.5 26.5q23 10 46 18l-170 -215l202 218h8l-40 -66l-31 -68l-326 -438q-82 -102 -159.5 -198.5t-139.5 -174.5q-72 -90 -137 -172l-27 9q25 35 53.5 68.5t43.5 74.5q-29 -35 -54.5 -70 t-54.5 -69zM182 811q-4 35 2 81t35 99q27 51 57.5 84t59.5 49q33 20 63 29l72 -45q-2 0 -4 2q-4 2 -7 2t-7 2q-10 2 -37 -5t-56 -28q-14 -10 -32.5 -29.5t-34.5 -39.5q-20 -23 -41 -49q14 16 33 34q31 31 77 66q43 35 66 38t29 3l8 -4q2 -2 2 -4q8 -6 16 -17 q6 -10 11.5 -25.5t7.5 -39.5q2 -25 -5.5 -57.5t-18.5 -65.5t-26.5 -61.5t-29.5 -43.5q-16 -16 -30.5 -26t-26.5 -19q-14 -8 -27 -16l-12 -2l-15 -8l-35 -4q2 2 9 6q4 4 10 6t14 6t17.5 12.5t17.5 16.5t18 20q-2 0 -6 -4q-6 -4 -30 -22q-12 -10 -28.5 -16.5t-31.5 -10.5 q-18 -6 -35 -8l-32 18q-12 35 -17 76zM220 806.5q-1 -20.5 3 -34.5q6 -16 17 -24q33 6 65 24q29 16 60.5 43t60.5 74q27 45 36 77.5t8 53t-7 31t-10 10.5q-6 -2 -19 -14l-12 -13l-14 19h-5q-4 0 -28 -11q-12 -6 -30.5 -22t-39 -41t-40.5 -54.5t-32 -62.5q-12 -35 -13 -55.5z M430 217q-4 35 2 82t35 100q27 51 57.5 83t59.5 48q33 20 63 29l72 -45q-2 0 -4 2q-4 2 -7 2t-8 2q-10 2 -35.5 -5t-54.5 -28q-16 -10 -34.5 -29.5t-34.5 -39.5q-20 -23 -39 -49q14 16 33 34q29 29 75 66q45 35 66.5 39t28.5 2l8 -4q2 -2 2 -4q8 -6 16 -17q6 -10 12.5 -25.5 t8.5 -39.5q0 -25 -6.5 -57.5t-18.5 -65.5t-27.5 -61.5t-29.5 -42.5q-16 -16 -30.5 -26.5t-27.5 -19.5q-14 -8 -26 -14l-13 -4l-14 -6l-35 -4q2 0 8 4q4 2 10.5 6t14.5 8t17.5 11.5t17.5 15.5t18 20q-2 0 -6 -4q-6 -4 -31 -22q-12 -10 -27.5 -16.5t-29.5 -10.5q-16 -6 -35 -8 l-35 18q-12 35 -16 76zM469 213q0 -20 4 -35q6 -16 16 -24q31 6 64 24q29 16 60.5 43t60.5 74q27 45 37 78t9 54.5t-8 30.5t-12 9q-6 0 -18 -12l-12 -13l-15 17h-4q-4 0 -28 -10q-12 -6 -31 -22.5t-39.5 -41.5t-39.5 -54.5t-32 -62.5q-12 -35 -12 -55z" />
<glyph unicode="'" horiz-adv-x="387" d="M2 995q2 4 3 8.5t3 8.5q4 8 9.5 15t9.5 17q10 23 22 42.5t25 41.5q2 4 2 8.5t2 8.5q29 45 51.5 88t50.5 90q20 2 40 3t36 1q18 0 33 -2l-101 -108l156 118l23 -39q-70 -74 -134 -135q-53 -53 -108 -100t-84 -62q-25 -10 -39 -4z" />
<glyph unicode="(" horiz-adv-x="946" d="M-31.5 120q17.5 122 73.5 255t134 262t150 231q61 92 116.5 164t106.5 131q8 4 15 9.5t18 11.5q29 20 54.5 36.5t53.5 32.5q4 4 11.5 2t13.5 0q61 27 123 35q2 -4 4 -5t6 -5q4 -2 5 -3t5 -3q-68 -35 -158 -117q-25 -23 -58.5 -60.5t-71.5 -83.5t-77.5 -96.5t-76.5 -97.5 l-8 -28q57 66 124.5 139.5t137.5 142.5q86 86 138 124t81 50q0 -2 1 -2t1 -2q10 -8 18.5 -14t18.5 -12q-25 -20 -48.5 -39t-45.5 -27q-10 -2 -25.5 -16.5t-28.5 -18.5q-23 -4 -46 -23.5t-50 -46t-52.5 -58.5t-49.5 -62q-18 -23 -43 -58q-2 -2 -7 -16q-14 -16 -28.5 -32.5 t-30.5 -35.5h-2v-2q-33 -39 -66.5 -82t-70.5 -90q-35 -49 -83 -133t-80 -180t-31.5 -196.5t63.5 -182.5q78 -104 162 -168.5t151 -101.5q80 -43 154 -64q-141 10 -269 49q-55 16 -111.5 41t-110.5 59t-100 78t-79 101q-49 86 -31.5 208z" />
<glyph unicode=")" horiz-adv-x="1705" d="M-133 -342q25 20 48.5 38.5t45.5 27.5q10 2 25.5 16t27.5 18q20 4 45 23.5t51.5 46.5t52 58.5t50.5 62.5q8 10 20.5 25.5t22.5 31.5q4 4 4 8t2 9q14 16 28.5 32.5t31.5 34.5h2v2q33 39 66.5 82t70.5 90q35 49 83 133t79.5 180.5t31.5 196.5t-63 182q-80 104 -163 169 t-150 102q-80 43 -154 63q141 -14 268 -51q55 -16 111.5 -40.5t110 -57.5t99.5 -77t81 -101q33 -57 34.5 -132t-18.5 -158t-58 -173t-86.5 -177t-99.5 -168t-98 -149q-61 -92 -116.5 -163.5t-106.5 -131.5q-8 -4 -15.5 -9t-17.5 -11q-29 -20 -54.5 -36.5t-54.5 -33.5 q-4 -4 -11 -2t-13 0q-61 -27 -123 -35q-2 4 -4 5t-6 5q-4 2 -5 3.5t-5 3.5q68 35 157 116q25 23 58.5 61t71.5 84t78 96t77 97l8 29q-57 -66 -124.5 -139.5t-137.5 -143.5q-86 -86 -138.5 -123.5t-80.5 -50.5q0 2 -1 2t-1 2q-10 8 -18.5 14.5t-18.5 12.5z" />
<glyph unicode="*" horiz-adv-x="526" d="M4 995h219q-47 41 -84 72t-43 37q-16 14 -24 33q-4 8 -4 16l73 -70l-73 80v4l24 -16l23 -14l129 -113q2 41 4 81t4 69q2 35 4 65l10 2q0 -16 -2 -31.5t2 -31.5q2 16 2 32.5t2 32.5l9 2v-78q0 -35 -1.5 -79t-1.5 -89q37 16 70 34t60 30q31 14 57 27l6 -9q-14 -8 -28.5 -14 t-24.5 -16q16 6 29.5 13t27.5 15l6 -6q-20 -12 -43 -24q-20 -10 -45.5 -24.5t-54.5 -31.5h82t43 -2q10 0 20.5 -3t16.5 -7q8 -6 14 -10l-100 6l108 -14l2 -2l-28 -3l-27 -6l-150 4q27 -27 51.5 -49t43.5 -39q23 -20 39 -37l-5 -10q-12 10 -22 21.5t-27 17.5l49 -43l-4 -8 q-25 20 -51 43q-23 20 -53.5 45t-61.5 51q0 -59 -1 -103t-1 -54q-2 -12 -4 -21.5t-6 -17.5t-10 -15l6 101l-14 -107l-4 -2v29l-6 26l4 158q-59 -33 -104.5 -58.5t-55.5 -29.5q-18 -8 -37 -8q-8 0 -18 2l90 43l-101 -39h-4l25 16l20 17l148 78q-39 2 -73 4t-60 4q-31 2 -58 2 l-2 10q16 0 30.5 -1t31.5 3q-16 2 -31.5 2h-32.5z" />
<glyph unicode="+" horiz-adv-x="1351" d="M-33 940q131 -2 292 -2t325 -2q31 104 58.5 203.5t51 179.5t40 135t22.5 76q14 47 33.5 77.5t37.5 49.5q23 23 43 33l-122 -404l157 408l86 4q-6 -12 -14 -33q-8 -16 -18.5 -43t-20.5 -61q-4 -16 -23.5 -71.5t-49 -140.5t-66.5 -190.5t-76 -222.5q127 -2 239.5 -2h198.5 q100 0 187 -2l-150 -86q-72 -4 -154 -8q-72 -4 -165 -8.5t-197 -8.5q-53 -156 -106.5 -307.5t-94.5 -271.5q-49 -141 -92 -269l-35 170q27 98 60 209q29 94 63.5 214t71.5 249q-147 -8 -290.5 -15t-260.5 -12q-2 14 -4 28.5t-6 31.5h2h-2q-4 16 -7.5 34.5t-7.5 35.5 q-2 6 -3 11t-3 11z" />
<glyph unicode="," horiz-adv-x="290" d="M-68 -449l17 56l112 141l-108 -115l143 207q-18 -6 -37 -4q-16 2 -31.5 11.5t-27.5 35.5q-8 16 1 32.5t27.5 31t43 27t47.5 22.5q29 10 58.5 10t55.5 -14q4 -2 6.5 -4t6.5 -4l-47 -58l53 47q12 -18 10 -43.5t-12 -52.5q-23 -27 -43.5 -49.5t-36.5 -38.5q-33 -37 -73 -79 t-77 -77q-43 -41 -88 -82z" />
<glyph unicode="-" horiz-adv-x="507" d="M-18 598q8 -2 18 -2h55h152q92 0 148.5 -1t86.5 -1q37 -2 52 -2l-78 -37q2 -4 -19 -10q-16 -4 -58 -8.5t-120 -8.5q-47 -2 -78.5 -3t-42.5 -3q-25 -2 -43 3t-30 10q-14 6 -23 14l211 6l-217 8z" />
<glyph unicode="." horiz-adv-x="380" d="M68 6q0 20 19 46t46 48.5t56.5 38t48.5 15.5q29 0 42 2t18 -6.5t4 -34t-1 -78.5q0 -20 -22.5 -46t-53 -48.5t-63.5 -38t-51 -15.5t-27.5 10.5t-12.5 28t-3 38v40.5z" />
<glyph unicode="/" horiz-adv-x="741" d="M-332 -408l29 207q236 430 426 783q82 150 162 298t147.5 272t114.5 212t63 117q31 57 63 95t56 60q29 25 57 39l-272 -489l309 495l88 5q-12 -18 -28 -41q-14 -20 -33 -52t-43 -75q-12 -23 -67.5 -117t-138.5 -233.5t-183.5 -310.5t-204.5 -345q-244 -412 -545 -920z " />
<glyph unicode="0" horiz-adv-x="768" d="M2 229q-6 80 9.5 185.5t76.5 224.5q61 117 133 188.5t133 112.5q72 47 144 66l164 -103q-4 2 -13 4q-6 2 -13 4t-18 7q-20 4 -80.5 -12.5t-125.5 -61.5q-35 -23 -77 -67t-81 -91q-45 -53 -90 -115q37 39 76 78q35 35 78.5 75t95.5 77q49 37 87 56.5t63.5 27.5t42 8 t22.5 -2q10 -2 18 -10l6 -7q20 -12 37 -36q14 -23 26.5 -59t16.5 -89q2 -55 -13 -130t-42 -150.5t-61.5 -140t-67.5 -97.5q-35 -35 -67.5 -61.5t-61.5 -42.5q-33 -23 -62 -35l-28 -6l-33 -17l-80 -10l19 12q10 6 24 13.5t33 17.5q18 10 38.5 27.5t39.5 35.5q20 23 41 48 q-6 -2 -15 -11q-10 -6 -24.5 -18t-42.5 -33q-29 -23 -66 -37t-69 -24q-39 -10 -78 -19l-76 43q-31 80 -39 174zM90 218q0 -50 10 -81q12 -37 37 -55q72 18 146 57q63 35 135.5 97.5t138.5 166.5q63 104 85 179t19.5 122.5t-17.5 69t-23 21.5q-20 -4 -46 -29q-12 -12 -26 -29 l-35 39q-2 4 -10 2t-22.5 -7t-41.5 -19q-27 -12 -69.5 -50t-88.5 -92.5t-90.5 -122t-72.5 -143.5q-29 -76 -29 -126z" />
<glyph unicode="1" horiz-adv-x="479" d="M2 236l268 618l-190 -98l4 63l301 228l-39 -97l-176 -397l236 485l49 -32l-328 -914v-80l-102 146l57 182l-76 -152z" />
<glyph unicode="2" horiz-adv-x="831" d="M0 219q-6 33 16 74q20 35 70.5 83t157.5 103q211 111 330.5 175.5t132.5 86.5q6 12 12 24.5t7 25t-7 24.5t-33 23q-12 4 -38.5 -1.5t-62.5 -15.5t-79 -26.5t-86 -32.5q-100 -39 -221 -94l159 -19q-59 -18 -108 -28q-41 -10 -79 -13.5t-44 8.5q-8 10 -6 29t8 35 q6 20 16 43l211 139l-200 -94q2 29 10 51q4 20 13 40t24 28q14 8 65 30.5t109 45.5q68 27 145 57l260 -207q16 -41 0 -86q-14 -39 -62 -87t-163 -95q-115 -49 -208 -116t-161 -126q-80 -70 -141 -145l557 139l-8 -57l-432 -160l416 131l-119 -143q-96 -23 -178 -37 q-35 -6 -71 -11.5t-66.5 -8.5t-54 -2t-36.5 7q-25 10 -36 44t-15 69q-6 41 -4 90z" />
<glyph unicode="3" horiz-adv-x="886" d="M-59 250q66 -37 143 -55q66 -16 150.5 -15.5t177.5 43.5q92 43 127.5 77t39 60.5t-17 43t-41.5 24.5q-23 8 -68.5 13t-93.5 10q-55 4 -118 8l-86 102q166 57 297 109q55 20 109 42.5t98 42t72 35t32 25.5q16 41 -36 67.5t-163 26.5q-55 -2 -109.5 -17t-97.5 -36 q-51 -23 -96 -51l123 -21q-12 -6 -31 -10q-16 -4 -39.5 -7t-58.5 -3q-35 -2 -58.5 2t-37.5 8q-16 6 -27 10q6 20 27 43q16 16 48 36t85 34t97 24.5t77 16.5q37 8 67 12h-12q-8 0 -22.5 -1t-42.5 -1q-29 -2 -75 -12t-89 -25q-53 -16 -107 -34q-10 -4 -12 2q-2 4 7 17t38 42 t96.5 43t139.5 20q82 8 182 7q68 -59 117 -113q41 -47 66.5 -93t0.5 -75q-12 -14 -41.5 -28.5t-69.5 -29t-86.5 -27.5t-93.5 -26q-110 -28 -241 -55q78 -4 143 -18q55 -12 106.5 -36t65.5 -67q12 -43 18.5 -85t-6 -85t-47.5 -88t-102 -94q-70 -51 -131.5 -67.5t-108.5 -18.5 q-55 -2 -104 14l-58 84q4 -4 25 -6t72 -4q41 -2 87 7t85 20q45 12 88 28q-45 -12 -90 -20q-41 -8 -87 -14.5t-93 -4.5q-47 0 -82 8.5t-60 18.5q-29 10 -49 27z" />
<glyph unicode="4" horiz-adv-x="913" d="M-53 573q51 57 110 113q49 47 114 101.5t132 99.5q68 43 152 87t157 79q86 41 174 80l54 -58q-10 -14 -21 -26q-10 -12 -22.5 -25.5t-26.5 -30.5q-14 -16 -34.5 -28.5t-43.5 -22.5q-25 -10 -53 -20l131 116q-25 0 -61 -18q-33 -16 -84.5 -50t-128.5 -100 q-78 -66 -144.5 -134t-118.5 -122q-59 -66 -108 -122l281 14l71 190l117 37l-45 -256l18 -6l219 47l-8 -35l-73 -20l65 -4l-231 -82l-58 -299l-6 -12l-4 -9l-12 90l-6 -90l-125 -57l47 360l-252 -26l-78 164l352 358q-20 -12 -45 -31q-23 -16 -55.5 -38.5t-73.5 -57.5 q-43 -35 -83 -73t-72 -70q-37 -37 -72 -74z" />
<glyph unicode="5" horiz-adv-x="892" d="M-59 166q29 -8 75 -10q41 -2 103.5 4t154.5 24t159 60.5t110 87.5q51 51 84 110q-10 25 -29 43q-16 16 -39.5 28.5t-58.5 14.5q-35 0 -82 -9t-88 -21q-49 -14 -101 -33l-43 39q31 10 58 18q23 8 45 16.5t37 12.5q12 4 47 6t69 6q41 4 90 6q-4 2 -18 6q-12 2 -36.5 4.5 t-71.5 0.5q-47 -4 -88.5 -10.5t-75.5 -16.5q-39 -10 -74 -23l-76 78l316 367l438 69l-23 -51l-262 -78l262 52l-10 -47q-25 -23 -47 -43q-23 -16 -47.5 -35t-50.5 -29q-27 -12 -62 -21.5t-65 -15.5q-37 -8 -74 -12q33 10 63 18q27 8 55.5 18.5t49.5 20.5q20 10 40.5 20.5 t37.5 20.5q20 10 37 23l-340 -64l-183 -227q80 18 150 29q59 10 118.5 12t90.5 -14q29 -16 44 -49t23 -68q8 -39 11 -86q-4 -43 -25 -90q-16 -41 -51 -92.5t-94 -104.5t-110.5 -77.5t-89.5 -32t-60.5 -6.5t-24.5 1q-4 -2 -20.5 4.5t-38.5 12.5q-25 8 -56 18l121 2 q86 8 152.5 38t113.5 63q53 37 94 82q-27 -20 -51 -41q-23 -16 -46 -33t-40 -25q-37 -16 -87 -32.5t-109 -28.5q-31 -6 -72 -7t-78 -1q-43 0 -88 4z" />
<glyph unicode="6" horiz-adv-x="770" d="M4 293.5q8 103.5 54 215.5t112 200q66 90 145.5 145t151.5 90q82 37 166 60q-23 -16 -47 -33q-23 -16 -49.5 -33.5t-57.5 -40.5t-68.5 -59.5t-72.5 -73.5q-39 -43 -78 -90q4 4 21 18q14 12 38.5 36t69.5 65q43 41 94.5 76.5t96.5 64.5q53 31 102 57l45 -6q-10 -8 -29 -24 q-16 -14 -42.5 -36t-67.5 -51q-41 -31 -116 -94t-150.5 -142t-138 -160t-79.5 -144q-18 -63 -6.5 -117.5t43 -86.5t81.5 -37t112 30q61 35 98 85t57 97q23 53 33 113q-6 -20 -14 -45q-8 -23 -21.5 -50.5t-35.5 -62.5q-23 -35 -57 -62.5t-66 -50.5q-37 -25 -80 -45 q16 14 37 35q33 33 86 99q27 31 48 70.5t35.5 77.5t21.5 67.5t3 42.5q-4 12 -8 22t-14.5 17.5t-28.5 8.5t-49 -7q-31 -10 -61.5 -28t-55.5 -36q-29 -23 -55 -45q41 53 84 94q37 35 80 62.5t84 23.5q39 -4 71.5 -31.5t52 -65.5t25.5 -82t-8 -81q-8 -25 -24.5 -63.5t-41 -81.5 t-58.5 -84t-78 -71t-99 -42t-123 4q-102 25 -139 103.5t-29 182z" />
<glyph unicode="7" horiz-adv-x="739" d="M2 829l160 218q119 12 221 20q43 4 87 7t82 6t68.5 5t47.5 2l18 -43l-258 -24l272 2l7 -82q-68 -63 -136 -135q-57 -61 -121.5 -139t-115.5 -156q-51 -80 -93 -167t-72 -159.5t-47.5 -122t-19.5 -53.5q-4 -4 -14 8.5t-20 30.5q-12 20 -29 49q0 47 14 101q12 47 38 107.5 t79 131.5q51 70 106.5 136.5t102.5 119.5q53 61 104 117l-155 -156q-61 -63 -121 -124.5t-82 -96.5q-25 -35 -43.5 -69.5t-32.5 -63.5q-16 -35 -29 -63l-8 49q4 35 25 75q16 35 50 85.5t93 109.5t124 126t122 122q66 66 131 129l-422 -70l92 39l-112 -20l-15 -27 q14 -2 29 -6q29 -8 61 -10q16 -2 33 0t33 6q18 4 35 6l-80 -25q-27 -8 -59 -12q-29 -4 -67 -1t-83 17z" />
<glyph unicode="8" horiz-adv-x="870" d="M-31.5 102q-13.5 43 4 95.5t52.5 105.5q20 33 75.5 83t126 105.5t146.5 111.5t140.5 101.5t107.5 76t47 34.5t7 16.5t3 24.5v29l31 -31q12 -12 21 -23.5t9 -15.5q-2 -4 -31.5 -32.5t-78.5 -70.5t-111.5 -89.5t-130.5 -85.5q-66 -39 -112 -74t-79.5 -70t-58 -71.5 t-49.5 -77.5t-21.5 -76t23 -57.5t51 -30.5t66.5 2q68 23 115 67t65 109q10 35 8 72t-6 67q-6 37 -16 72q14 -20 24 -43q10 -18 19.5 -37.5t13.5 -34.5q4 -14 5 -48t-1 -68q-2 -41 -4 -91q8 23 14 50q4 23 7.5 54.5t1.5 67.5q-4 37 -11.5 66t-13.5 49q-8 23 -16 41l37 12 q2 -2 21 -40.5t36.5 -95t23 -121t-24.5 -118t-102.5 -86t-209.5 -26.5q-106 4 -158.5 31.5t-66 70.5zM193 797q0 49 23.5 99t73.5 91t138 53q176 25 273.5 27t113.5 -8q14 -12 19 -37q2 -13 0 -27q-49 6 -101 11q-43 4 -92 4t-90 -11q-41 -10 -78 -23t-65 -26 q-35 -14 -64 -28q66 20 129 36q53 14 114.5 24.5t108.5 6.5t68.5 -10t30.5 -14q8 -8 6 -19l-4 -74l-23 9q-84 10 -162 14q-66 2 -133 -4t-108 -35t-48.5 -66.5t1.5 -72.5q8 -41 32 -86l-30 -8l-74 118l51 -131q-18 10 -37 27q-16 14 -32.5 33.5t-28.5 48.5t-12 78z" />
<glyph unicode="9" horiz-adv-x="700" d="M-2 698q6 33 29.5 75t78.5 91t121 94.5t126.5 80t106.5 56t60 21.5q12 -8 25 -16q25 -18 43 -39l24 -31l-61 -14l67 -4q4 -14 11 -29q4 -12 8 -24.5t4 -18.5q-2 -8 -22.5 -27.5t-47.5 -42.5q-31 -25 -67 -55h-4q20 27 39 49q16 18 29.5 37t17.5 27q6 14 2 18q-2 2 -4 2 q-78 -25 -150 -59q-61 -29 -126.5 -72t-108.5 -100q-43 -59 -62.5 -97t-25.5 -61q-8 -27 -2 -41q57 6 114 23q49 14 105.5 39.5t107.5 68.5q49 43 88 77t66 56q31 27 53 45l12 -22l-82 -90l97 78l2 -23l-539 -784l2 71l113 207l-117 -164q12 27 27 58q12 27 30.5 62.5 t44.5 76.5q27 41 62 95t70 102q37 55 79 114q-70 -49 -129 -90q-51 -35 -99 -67.5t-69 -42.5q-23 -10 -45 16.5t-41 60.5q-23 41 -43 99q6 23 21 51q12 25 34.5 57.5t63.5 73.5t68.5 65.5t48.5 40.5q23 18 39 29q-49 -27 -90 -51q-35 -23 -71 -49.5t-54 -50.5 q-39 -51 -58 -86q-12 -20 -20 -35q-10 33 -2 69z" />
<glyph unicode=":" horiz-adv-x="387" d="M2 421q-2 28 4 66.5t17.5 76.5t25.5 71t29 49q23 23 58.5 36t72.5 17q41 6 90 6l-98 -120l153 133l23 -39q-68 -82 -129 -150q-53 -59 -106.5 -112.5t-82.5 -69.5q-27 -16 -41 -4t-16 40zM2 894q-2 28 4 66.5t17.5 76.5t25.5 71t29 49q23 23 58.5 36t72.5 17q41 6 90 7 l-98 -121l153 133l23 -39q-68 -82 -129 -150q-53 -59 -106.5 -112.5t-82.5 -69.5q-27 -16 -41 -4t-16 40z" />
<glyph unicode=";" horiz-adv-x="335" d="M-61 287l16 55l113 141l-109 -114l143 206q-18 -6 -36 -4q-16 2 -32 11.5t-28 35.5q-8 16 1 33t27.5 31t43 26.5t47.5 22.5q29 10 58.5 10t56.5 -14q4 -2 6 -4t6 -4l-47 -57l53 47q12 -18 10 -44t-12 -53q-23 -27 -43 -49t-37 -39q-33 -37 -73 -79t-76 -76 q-43 -41 -88 -82zM-1 942q7 49 26.5 101.5t37.5 74.5q18 20 51 31.5t66 15.5q37 6 80 4l-88 -106l137 119l21 -35q-61 -72 -115 -133q-47 -53 -94 -100.5t-74 -61.5q-37 -20 -46 10.5t-2 79.5z" />
<glyph unicode="&#x3c;" horiz-adv-x="649" d="M-55 612h2q0 2 -2 4q76 104 153.5 214t143 203t113.5 160t63 87q27 37 50.5 59.5t43.5 36.5q23 16 43 25l-229 -316l256 316l61 -4q-10 -12 -22 -27q-10 -14 -26.5 -32.5t-37.5 -47.5q-10 -14 -59 -78.5t-122 -157.5t-161 -208l-176 -230q86 -94 174 -190t162 -177 t126 -139.5l68 -76.5q31 -35 47.5 -63.5t26.5 -51.5q10 -25 14 -45l-258 291l254 -318l-16 -57q-8 10 -21 27q-23 27 -67 80q-12 14 -64.5 76.5t-131.5 154.5t-173 203.5t-188 224.5q-2 -4 -3 -5t-3 -5q-4 8 -8.5 15t-8.5 13t-6 11.5t-6 11.5q-4 4 -12 16z" />
<glyph unicode="=" horiz-adv-x="534" d="M-25 567q2 -2 11 -2q6 0 14 -1t20 1h89q53 -2 123.5 -2t134.5 -2q74 -2 151 -2l-43 -57q-68 -6 -133 -15q-55 -6 -115.5 -12t-107.5 -10q-29 -4 -47.5 -5t-26.5 -3q-29 -2 -43 16q-8 8 -12 21l125 10l-131 10zM-25 780q2 -2 11 -2q6 0 14 -1t20 1h89q53 -2 123.5 -2 t134.5 -2q74 -2 151 -2l-43 -55q-68 -6 -133 -15q-55 -6 -115.5 -13t-107.5 -11q-29 -4 -47.5 -5t-26.5 -3q-16 -2 -26.5 4t-16.5 14q-8 8 -12 21l125 8l-131 12z" />
<glyph unicode="&#x3e;" horiz-adv-x="649" d="M-55 -127q2 20 12 45q10 23 27.5 51.5t48.5 63.5q16 18 68.5 76.5t126 139.5t161.5 177t174 190q-90 115 -178 230t-159.5 208t-121 157.5t-59.5 78.5q-23 29 -38 47.5t-25 32.5q-12 14 -23 27l61 4l256 -316l-229 316q20 -8 43 -25q18 -14 43 -36.5t51 -59.5 q14 -20 62.5 -87t114 -160t143.5 -202.5t153 -214.5l-2 -4h2q-8 -12 -12 -16q-4 -6 -6 -11t-6 -12q-4 -6 -8 -13t-9 -15q-2 4 -3 5t-3 5q-94 -113 -188 -224.5t-173 -203.5t-131 -154.5t-65 -76.5q-47 -53 -67 -80q-12 -16 -21 -27l-16 57l254 318z" />
<glyph unicode="?" horiz-adv-x="1091" d="M94 33q0 -51 36 -87t87 -36t87 36t36 87t-36 87t-87 36t-87 -36t-36 -87zM185.5 1211.5q-13.5 74.5 2 147.5t65.5 139.5t142 119.5q98 57 191.5 67.5t172.5 -16.5t139 -85t92 -138t34 -175t-37 -196q-39 -100 -101.5 -207.5t-133 -209t-142 -192.5t-130 -159.5 t-95.5 -109.5t-37 -43q0 -4 -16.5 5t-34.5 19q-23 12 -49 31q203 328 346 604q61 117 116.5 235.5t91.5 220t47 178.5t-15 112q-47 59 -97.5 75.5t-99.5 -0.5q-18 -4 -48 -13t-73 -32q-51 -27 -94 -71.5t-73 -98t-46 -108t-16 -99.5q0 -47 5 -76.5t11 -45.5q8 -20 14 -31 q-8 55 -4 115q4 51 16.5 111.5t47.5 117.5q35 59 70.5 89t64.5 42q-57 -76 -88 -184q-29 -98 -34 -185.5t1 -152.5q8 -78 25 -146q-55 33 -103.5 86.5t-81 119t-46 140z" />
<glyph unicode="@" horiz-adv-x="866" d="M-335 43q-7 53 2 123t40 158t92 194q94 160 209 292t240 209t252 83t243 -90q43 -35 57.5 -93.5t6.5 -132t-33.5 -156.5t-63.5 -166t-83 -160t-92.5 -139.5t-90.5 -103.5t-77 -53q-29 -10 -48.5 -4t-35.5 19q-18 14 -31 34q-4 20 -2 58q2 31 11 80t32 120l-215 -325 l-96 16q-25 59 -33 133q-8 63 -3 147.5t42 182.5q35 98 85 161.5t95 104.5q53 45 106 72q20 2 43 2q18 -2 41 -6t41 -19q20 -16 25.5 -65t3.5 -94q35 59 66.5 100t48.5 61l7 -5t15 -11t15.5 -12t7.5 -8q0 -4 -1 -6.5t-1 -6.5v-8q2 2 4 2l12 -4q6 -4 10 -6t9 -6l30 -35 q-4 -4 -18.5 -21.5t-14.5 -23.5q0 -4 -12 -23.5t-28 -42.5q-18 -27 -39 -59q-27 -45 -52 -92q-23 -41 -44 -88t-35 -90q-29 -88 -35 -129t0 -41q4 0 25.5 24.5t53 64.5t68.5 90t72 101q6 10 35.5 61.5t60.5 123t51.5 154.5t10 157t-62.5 127t-169 65q-94 10 -181 -22.5 t-165 -95t-146.5 -145.5t-125 -172t-98.5 -179t-66 -164q-37 -111 -23.5 -207t68.5 -160.5t150.5 -91t220.5 1.5q61 14 121.5 45t115.5 72t104.5 89t92.5 95q98 113 184 244q16 -10 29 -24q10 -12 18 -28.5t6 -39.5q0 -10 -29.5 -52t-82 -97.5t-123 -118t-152.5 -116.5 t-174 -92t-185 -45t-185.5 25.5t-176.5 118.5q0 2 -10 20.5t-21.5 54.5t-18.5 89zM-6 92q0 -16 2 -30.5t6 -24.5q4 -13 10 -23l11 6q-4 12 -9 25q-4 10 -6 21.5t-4 21.5t-1 26.5t1 32.5q0 20 2 43q-2 -16 -6 -32q-4 -14 -6 -31.5t0 -34.5zM21 178.5q-3 -72.5 2 -102.5 q4 -35 6 -45q2 -8 4 -13l14 15q-8 31 -12 71q-4 35 0 84.5t22 112.5q16 61 44 117.5t53.5 100.5t46 70.5t22.5 31.5l-22.5 -22.5t-47 -55.5t-54 -81t-42.5 -100q-33 -111 -36 -183.5zM61.5 117q-1.5 -47 6.5 -49q6 -2 38.5 42t75.5 104t85 123.5t67 100.5q14 33 27.5 62.5 t29.5 58.5q0 20 1 49t1 54.5t-2 45t-8 25.5q-8 6 -29.5 -8t-50.5 -46t-63.5 -78t-69.5 -101q-37 -55 -59.5 -129t-35 -140.5t-14 -113.5zM350 127q2 6 11.5 41t25.5 83t39.5 104.5t54.5 107.5q33 53 59.5 93t47.5 67q23 31 41 51q-37 -18 -72 -59.5t-62.5 -87.5t-47 -87 t-25.5 -55q-31 -70 -45.5 -118t-20.5 -78.5t-6 -46.5v-15z" />
<glyph unicode="A" horiz-adv-x="921" d="M-892 566q12 38 43.5 69t71.5 54.5t70 33.5q65 22 151 22h7q111 0 202 -35.5t181 -82.5q20 -10 43 -23q20 -10 45 -23.5t53 -23.5q90 131 209 270.5t236 274.5t217 263t154 239q-143 -150 -289 -265q-61 -49 -131 -96t-140.5 -82t-141.5 -57q-60 -18 -114 -18 q-10 0 -20 1q-45 2 -70.5 28t-40.5 54q-16 35 -22 78q12 -31 31 -53q16 -20 38.5 -38.5t55.5 -22.5q33 -6 60.5 -2t47.5 12q23 8 43 20q-33 -8 -65 -14q-29 -4 -59.5 -4t-55.5 14q-29 16 -50.5 40t-33.5 42q16 -10 46 -19.5t76 -11.5h14q42 0 100 10q68 12 159 44 q121 43 223.5 108.5t180.5 126.5q90 72 164 152l8 -13l2 -2q0 -2 4 -6q0 -4 4 -4h2v-29q-12 -27 -29 -55q-14 -25 -32.5 -56.5t-40.5 -62.5q-23 -33 -64 -84l-82 -102q-47 -59 -100 -123q76 78 126 133.5t88 103.5t73 99t78 123l24 -27q-2 -6 -4 -14q-4 -16 -4 -29 q0 -12 4 -9t8 7l10 15v8l7 -19q8 -16 24.5 -50t31.5 -80t25 -102q6 -34 5 -70q0 -23 -2 -46q-6 -53 -24.5 -111.5t-41.5 -112.5t-46.5 -100.5t-39.5 -74.5h2l-12 -19l-8 -12q-2 -2 -2 -4q-43 -74 -91.5 -156t-90.5 -152.5t-70.5 -120.5t-34.5 -58q-37 -59 -66.5 -119 t-49.5 -114t-30 -101q-5 -26 -6 -47q0 -18 4 -33l4 -17q5 -2 11 -2q31 1 81 45q60 52 130.5 135t144.5 182t134.5 184t99 141.5t40.5 54.5q16 0 17 -27q-37 -63 -90.5 -145t-115.5 -167t-130 -166t-132.5 -144.5t-122.5 -101.5q-55 -36 -97 -36h-4q-66 2 -80 62q-6 25 -7 56 q1 42 13 98q20 94 67.5 211.5t104.5 234.5q49 16 123 57t135 115q-23 -37 -48.5 -78t-52 -83t-51 -83t-45.5 -74q-63 -98 -111 -208.5t-52 -223.5q-2 -8 -3 -20q2 -8 3.5 -18.5t7.5 -16.5q6 -8 12 -8h6q-2 0 -4 4q-4 6 -6 18q0 4 -1 9.5t-1 9.5q-1 10 -1 20q-1 53 17 115 q20 74 56 147q16 33 38.5 74t49.5 82q55 92 107 181t90 157t57.5 102.5t7.5 18.5q-6 -14 -43 -70q16 38 16 74q-1 23 -7 45q-18 56 -38 86q4 6 6 11t6 11q35 51 66 105q27 47 54.5 105.5t47.5 117.5q10 31 13.5 59.5t3.5 53.5q8 -14 15 -44t7 -81q0 -43 -13 -89t-30 -87 q-18 -47 -41 -92q29 43 51 88q18 39 34 86t18 94q0 47 -8.5 87t-18.5 71q-12 37 -29 65q-18 -31 -45.5 -75t-60.5 -94t-68 -100t-65 -91q-49 -66 -128 -155t-165 -189l-2 -2l-74 -86l2 2q-23 -27 -43 -51.5t-37 -43.5q-2 0 -2 -2q-4 -6 -10 -12t-10 -12q25 -4 50.5 -6 t53.5 -2q106 2 178 22.5t117 50.5q27 18 57 47q32 29 50 63q17 31 16 63v6q-2 36 -39 71q10 -16 19 -35q6 -16 9 -35.5t-5 -41.5q-8 -27 -27 -50q15 35 15 68q0 37 -14 67q-13 28 -36.5 44t-50.5 14q39 0 72 -10q29 -10 51 -35t26 -78v-7q0 -36 -18 -74q-20 -42 -62 -80 t-105.5 -65.5t-147.5 -39.5q-61 -10 -125 -10t-123 6q-49 -63 -89 -118.5t-63 -96.5q-23 -43 -36 -74t-20 -57.5t-14.5 -55t-17.5 -69.5q-11 -2 -22 -2q-31 0 -54 18q-12 8 -21 18.5t-15 20.5q-8 10 -11 22q0 31 15 84q12 45 39.5 115t85.5 172q8 14 16 27.5t16 29.5 q-47 10 -87 23.5t-68 24.5q-35 12 -62 22q-41 12 -76.5 22.5t-70.5 17.5t-71 10t-77 3q-100 -4 -165.5 -34.5t-100.5 -57.5q31 39 93.5 68.5t121.5 38.5q31 4 62 4q33 -1 66 -5q65 -8 118 -22t88 -27.5t41 -15.5q-98 53 -200 71q-49 9 -99 9q-55 0 -111 -10 q-29 -6 -60.5 -17.5t-61 -29t-53 -41t-36.5 -51.5q-17 25 -17 50q0 12 4 24zM-137 33q8 49 26 102q16 47 43 106.5t72 123.5q29 37 71 88t91 108q55 66 113.5 131.5t105.5 118.5q55 61 109 119q-113 -106 -213 -211q-43 -45 -87 -93t-85 -95.5t-75 -90.5t-54 -80 q-43 -74 -68 -134t-35 -103q-12 -51 -14 -90zM293 -172q2 -16 4 -27q0 -4 2 -8q4 -8 8 -10q4 -4 8 -4q2 -2 7 -2q-2 0 -5 4l-4 8t-2 10q-2 10 -4 25.5t-2 28.5q0 10 2 24t6 31q4 18 9 39q-6 -14 -13 -29q-10 -29 -14 -59q-3 -11 -3 -21q0 -5 1 -10z" />
<glyph unicode="B" horiz-adv-x="872" d="M-1126 -116q12 38 42.5 70t69.5 54.5t70 32.5q69 22 153 22h7q111 0 201.5 -35.5t179.5 -82.5q43 -25 86 -45q35 -18 75.5 -35t73.5 -25q35 -10 70 -17t73 -9h21q49 2 102 12q45 10 101.5 29.5t111.5 56.5t92 67.5t60 53.5q27 27 43 49q-43 -41 -86 -78 q-37 -31 -80 -60.5t-80 -45.5t-67.5 -25.5t-53.5 -13.5q45 25 99.5 68.5t113 115.5t117.5 175.5t117 246.5q8 18 17 48t16.5 63.5t10.5 67.5t-3 61q18 -33 30 -72q11 -35 15 -82q1 -11 1 -23q0 -37 -11 -79q-10 -43 -18.5 -71t-12.5 -44q-4 -8 -6 -14.5t-4 -10.5 q-2 -6 -5 -10q2 0 5 4q2 4 4 10t6 21q14 35 30.5 85t20.5 91q3 23 3 44q0 25 -4 47q-7 42 -15 67q20 -27 36 -72q10 -30 10 -69q0 -20 -3 -44q-4 -53 -22.5 -110.5t-39.5 -106.5q-23 -57 -51 -112q10 14 33.5 56t47 97t41.5 120q16 58 15 112v12q-2 47 -18.5 82t-38 60.5 t-45 42t-37.5 24.5q-4 0 -8 4q-2 0 -11 4q-24 7 -46 7q-9 0 -19 -1q-32 -4 -59 -14q-33 -10 -62 -27v51q80 33 152 84q61 43 123.5 108.5t101.5 156.5q23 55 27 96q0 37 -18.5 55.5l-20.5 20.5q-10 3 -21 3q-29 0 -69 -20q-54 -26 -95 -78q-18 -41 -36.5 -78.5t-36.5 -72.5 q-37 -72 -99.5 -174.5t-132.5 -214.5v-2q-16 -25 -30.5 -49.5t-28.5 -49.5q0 2 2 2q-16 -29 -33.5 -56.5t-30.5 -47.5q0 -2 -2 -2q-53 -94 -96 -177t-61 -141q-16 -47 -23.5 -79.5t-11.5 -60t-6 -56.5t-6 -72q-23 -10 -41.5 -8t-34.5 10q-14 6 -24.5 15.5t-18.5 19.5t-15 21 q-3 16 -3 36.5t3 46.5q4 47 20.5 121t55.5 185q35 102 93.5 213.5t126 227.5t140 231.5t136 226t115 213t75.5 190.5q-117 -170 -241 -309q-53 -59 -113.5 -116.5t-124 -104.5t-129.5 -79t-129 -38q-10 -1 -20 -1q-32 0 -56 16q-31 20 -49 46q-23 31 -35 74q16 -25 39 -47 q18 -18 45 -33.5t60 -13.5q33 0 59.5 9t44.5 20q23 12 39 28q-31 -16 -61 -26q-27 -10 -58 -14.5t-57 5.5q-33 10 -57.5 30t-38.5 36q17 -6 47 -11q13 -2 31 -3q19 0 45 4q46 6 111 28.5t151 71.5q111 61 201.5 143t156.5 156q76 86 135 176l12 -10l2 -2q0 -2 5 -6 q2 -2 6 -2h2l4 -29q-10 -29 -21 -59q-10 -27 -22 -60.5t-29 -68.5q-16 -35 -48 -92.5t-64 -114.5q-37 -68 -80 -139q61 90 101 152.5t70.5 115.5t56.5 109.5t56 134.5l29 -21q-2 -6 -2 -14q-4 -14 0 -31q4 -16 7 -8t9 10q4 0 4 12q0 6 -2 11l35 -60q-12 -29 -26 -63 q-12 -29 -27.5 -68t-34.5 -82q35 28 78 50q26 13 48 14q14 0 26 -6q27 -12 52.5 -32t43.5 -48q18 -26 28 -60q5 -18 4 -38q0 -17 -3 -35q-16 -55 -54.5 -104.5t-87.5 -90.5t-101 -75t-95 -58h22t19 -4q35 -14 80 -42t61 -56q39 -64 39 -154q0 -19 -2 -40q-10 -116 -92 -294 q-31 -66 -87.5 -132.5t-127 -123.5t-151.5 -102t-161 -70q-39 -12 -86 -15t-88 -3t-68.5 2t-29.5 2q-82 10 -153.5 26.5t-125.5 32.5q-63 20 -114 43q-84 25 -148 40q-57 13 -128 13h-19q-102 -4 -168 -34.5t-98 -57.5q31 39 92 69t121 38q32 4 64 4t64 -4 q64 -8 117.5 -22.5t89 -27t39.5 -14.5q-98 51 -198 69q-48 9 -99 9q-55 0 -112 -10q-29 -6 -60.5 -17.5t-61.5 -29t-53.5 -40t-33.5 -50.5v-2q-17 25 -17 50q1 12 5 24zM-88 14q-3 -26 -3 -49t3 -41q0 49 8 107q8 49 24.5 111.5t51.5 131.5q20 41 53 99.5t72 124.5 q45 72 91 146.5t85 133.5q45 70 88 135q-94 -125 -176 -243q-35 -51 -71 -105.5t-67.5 -108t-57 -102.5t-40.5 -88q-31 -80 -44 -143.5t-17 -108.5zM680 930q47 39 84 80q33 35 59.5 75.5t28.5 77.5v9q0 30 -10 52q-12 26 -29 42q10 -23 18 -56q4 -16 7 -30v-16.5t-2 -18.5 q0 -2 -5 -10q-12 -39 -37.5 -76t-50.5 -66q-31 -35 -63 -63zM750 1028q4 4 8 10q4 4 8 9.5t8 13.5l-20 -27q-2 -2 -2 -4t-2 -2z" />
<glyph unicode="C" horiz-adv-x="731" d="M-68 125q-3 31 -4 66q0 68 12 150q18 124 83 288q47 123 104 218t120.5 169t128 127t124.5 90q141 86 288 113q23 10 41 10q8 0 15 -2q20 -4 36.5 -26.5t18.5 -76.5q0 -53 -21.5 -140t-61.5 -173t-97 -154.5t-129 -87.5q-17 -4 -32 -4q-26 0 -45 12q-30 18 -48 44 q-23 31 -33 73q10 -18 27 -35q14 -14 36.5 -28.5t57.5 -18.5q8 -1 15 -1q33 0 65 22q39 26 69 61q35 41 66 97q-35 -43 -70 -78q-29 -29 -61.5 -54.5t-54.5 -27.5q-33 -4 -55.5 5t-37.5 21q-16 14 -26 33h8q28 1 74 11q53 12 108 65q63 61 109.5 132t73 132.5t31.5 105.5 t-13 50q-18 12 -51 8q-29 -4 -77 -24.5t-120 -75.5q-72 -57 -121 -102.5t-82 -80.5q-37 -39 -61 -69q66 59 125 112q51 45 100 87t76 61q55 35 93 47t63 16q-53 -29 -142.5 -99.5t-183.5 -172.5t-181 -233.5t-138 -282.5q-48 -147 -58 -258q-4 -48 -4 -90q0 -54 6 -98 q12 -78 37 -125.5t45 -67.5q-4 0 -9 -1t-9 1l-8 2q-10 4 -26.5 19.5t-37 52t-40 99t-32.5 161.5q-4 31 -4 63q0 44 8 90q14 80 33 148q23 80 58 155q-37 -72 -62 -147q-23 -66 -39 -146q-11 -54 -11 -108q0 -27 3 -53q12 -143 42 -213t46 -90q-4 2 -12 10q-41 35 -65.5 86 t-37.5 100q-14 57 -18 119q-2 -8 -2 -41t8 -77t25.5 -93t50.5 -88q35 -41 65.5 -55.5t53.5 -16.5q27 -2 51 8q23 4 82 46.5t145 130.5q43 45 95.5 107.5t99.5 121.5t82 104.5t43 55.5q0 -1 16 -13q12 -8 -17.5 -53t-79.5 -105.5t-108.5 -127t-103.5 -115.5 q-180 -199 -301 -199q-18 0 -54 16.5t-72 53.5t-66 98.5t-40 153.5zM549 795q10 -4 18 -4q4 0 8 -1q13 0 31 5q10 4 22.5 11t24.5 17q14 10 29 25q-14 -10 -29 -19q-12 -8 -25.5 -15t-25.5 -11q-23 -8 -39 -8h-14z" />
<glyph unicode="D" horiz-adv-x="983" d="M-1156 -116q12 38 43.5 70t71.5 54.5t70 32.5q35 10 73 16t85 6q111 0 202 -35.5t181 -82.5q43 -25 86 -45q35 -18 76 -35t73 -25q35 -10 70 -17t74 -9h18q49 2 103 12q47 10 103 29.5t112 56.5q55 37 92 67.5t59 53.5q27 27 43 49q-43 -41 -86 -78q-37 -31 -80 -60.5 t-80 -45.5t-67.5 -25.5t-52.5 -13.5q47 27 103 72.5t118 123.5q111 152 209 301q41 63 84 133t82 140.5t70.5 137.5t51.5 126q25 74 31 129q4 33 4 61q0 19 -2 35q4 -6 9.5 -13t9.5 -15q3 -21 3 -44q0 -12 -1 -24q-2 -33 -7.5 -75t-21.5 -91q-16 -53 -36.5 -99t-39.5 -81 q-23 -41 -45 -76q33 41 62 88q25 39 50 88t40 96q16 53 20 92.5t2 63.5q16 -45 17 -94v-7q0 -57 -29 -143q-31 -90 -70 -178q-45 -102 -102 -213q61 115 113 221q20 45 40.5 92.5t36 92.5t24.5 83q7 31 7 55v11q-2 68 -23.5 124t-48.5 97q-31 47 -69 86q-14 12 -27.5 21.5 t-23.5 15.5q-12 8 -27 13q-10 3 -21 3q-29 0 -68 -20q-54 -26 -95 -78q-18 -41 -37 -78.5t-37 -72.5q-39 -72 -100.5 -174.5t-130.5 -214.5l-2 -2q-14 -25 -28.5 -49.5t-31.5 -49.5l2 2q-16 -29 -32.5 -56.5l-28.5 -47.5l-2 -2q-55 -94 -97.5 -177t-62.5 -141 q-16 -47 -23.5 -79.5t-10.5 -60t-5 -56.5t-6 -72q-23 -10 -41.5 -8t-34.5 10q-14 6 -24.5 15.5t-18.5 19.5t-14 21q-3 16 -3 36.5t3 46.5q4 47 20.5 121t55.5 185q35 102 93 213.5t125.5 227.5t139.5 231.5t136.5 226t114.5 213t77 190.5q-117 -170 -242 -309 q-53 -59 -113.5 -116.5t-125 -104.5t-130 -79t-129.5 -38q-10 -1 -20 -1q-33 0 -55 16q-30 20 -48 46q-23 31 -34 74q16 -25 39 -47q18 -18 44.5 -33.5t59.5 -13.5q33 0 59.5 9t44.5 20q23 12 39 28q-31 -16 -61 -26q-27 -10 -58.5 -14.5t-58.5 5.5q-31 10 -55.5 30 t-40.5 36q18 -6 49 -11q14 -2 31 -3q21 0 46 4q46 6 110.5 28.5t150.5 71.5q111 61 202 143t156 156q76 86 136 176l12 -10l2 -2q0 -2 4 -6q2 -2 6 -2h2l4 -29q-10 -29 -20 -59q-10 -27 -23.5 -60.5t-29.5 -68.5t-47 -92.5t-64 -114.5q-37 -68 -80 -139q61 90 101 152.5 t71 115.5t56.5 109.5t56.5 134.5l28 -21q-2 -6 -2 -14q-4 -14 0 -31q4 -16 7.5 -8t9.5 10q4 0 4 12q0 6 -2 11l33 -60q-12 -29 -25 -63q-12 -29 -27.5 -68t-33.5 -82q36 28 78 50q26 13 47 14q14 0 26 -6q6 -2 19 -11q16 -8 36 -20q16 -10 37 -26.5t43 -39.5q33 -35 62 -86 q25 -41 45 -97q18 -51 18 -108v-12q-2 -41 -21.5 -104.5t-51 -139t-72.5 -157.5t-85 -159t-87 -143.5t-80 -111.5q-39 -55 -93.5 -108.5t-117 -98.5t-130 -80.5t-134.5 -56.5q-41 -12 -87 -15t-87 -3t-70 2t-31 2q-82 10 -152.5 26.5t-123.5 32.5q-63 20 -117 43 q-41 12 -77 22.5t-70.5 17.5t-69.5 10t-76 3q-102 -4 -167.5 -34.5t-98.5 -57.5q31 39 92.5 69t120.5 38q32 4 63.5 4t63.5 -4q64 -8 118 -22.5t89 -27t41 -14.5q-98 51 -200 69q-49 9 -99 9q-55 0 -111 -10q-29 -6 -60.5 -17.5t-61 -29t-53 -40t-36.5 -50.5v-2 q-17 25 -17 50q0 12 4 24zM-115 14q-2 -26 -2 -49t2 -41q0 49 9 107q8 49 24 111.5t51 131.5q20 41 53 99.5t72 124.5q45 72 91 146.5t85 133.5q45 70 86 135q-94 -125 -176 -243q-35 -51 -69.5 -105.5t-66.5 -108t-58.5 -102.5t-40.5 -88q-31 -80 -43.5 -143.5 t-16.5 -108.5z" />
<glyph unicode="E" horiz-adv-x="684" d="M-133 168v21q0 41 6 85q6 47 23.5 108.5t52.5 127.5q25 45 63.5 71.5t80.5 41t82 19.5t71 5q-33 14 -62.5 40t-42.5 52q-16 34 -16 84q-1 23 3 49q10 84 75 166q92 104 185 166t169 94q88 37 170 52q22 8 39 8q9 0 16 -2q20 -4 37 -26.5t19 -76.5q0 -53 -21.5 -140 t-61.5 -173t-97.5 -154.5t-129.5 -85.5q-19 -5 -36 -5q-24 1 -42 11q-30 18 -47 44q-23 31 -30 73q8 -18 24 -35q14 -14 37 -27t58 -18q9 -2 18 -2q32 0 62 22q38 28 69 62q35 41 66 95q-35 -43 -70 -78q-29 -29 -60.5 -54.5t-56.5 -27.5q-33 -4 -54.5 5t-35.5 21 q-16 14 -29 33h9q28 1 74 11q52 12 108 65q63 61 109.5 132t73 132.5t31.5 105.5t-13 50q-18 12 -52 8q-29 -4 -76 -24.5t-118 -75.5q-72 -55 -122 -101.5t-83 -81.5q-37 -39 -61 -69q66 59 125 112q51 45 101 87t75 61q55 35 94 48t63 17q-35 -18 -86 -55t-109.5 -89 t-121 -118.5t-121.5 -144.5q-12 -16 -29 -43q-16 -26 -23 -58q-3 -15 -3 -31q0 -18 4 -37q8 -36 43 -69l8 -6l6 -33q-23 -4 -46 -7t-49 -12t-51.5 -27.5t-51.5 -53.5q-37 -51 -54.5 -114.5t-23.5 -123.5q-5 -39 -5 -79q0 -30 3 -60q4 -113 34.5 -177t55.5 -89q-12 -4 -19 -2 l-8 2q-8 4 -23.5 17.5t-34 43t-35.5 79.5t-32 130q-4 18 -5 45t-3 54q-2 29 -2 61q-2 -6 -4 -16t-3 -24.5t-1 -37.5q-1 -22 -1 -38.5t1 -28.5q2 -24 2 -25q16 -104 41.5 -158.5t40.5 -70.5q-6 2 -15 10q-25 20 -44 49t-32.5 60.5t-21.5 63.5t-12 58q-4 39 -4 71t2 56 q2 27 4 51q-2 -4 -4 -12t-4 -20.5t-4 -32.5q-4 -25 -3 -46.5t1 -37.5h2v-20q4 -49 21.5 -115t60.5 -119q35 -41 65.5 -55.5t52.5 -16.5q27 -2 52 9q23 4 82 46t145 132q43 45 95 106.5t99 120.5t82 104.5t43 57.5q2 -4 19 -14q12 -8 -18.5 -53.5t-81 -106t-108.5 -127 t-104 -115.5q-176 -197 -294 -197h-5q-20 0 -58 17.5t-76 59.5t-68.5 110.5t-34.5 173.5zM487 797q10 -4 21 -4q4 0 8 -1q13 0 31 5q10 4 21.5 11t23.5 17l29 25q-14 -10 -29 -19q-12 -8 -25.5 -15t-25.5 -11q-23 -8 -39 -8h-15z" />
<glyph unicode="F" horiz-adv-x="587" d="M-356 510q-1 11 -1 22q0 22 5 46q8 34 43 63q78 59 193.5 79.5t238.5 22.5q59 96 116.5 190.5t107.5 185.5t89 175t62 158l-4 -4q2 2 2 3t2 3q-16 4 -28.5 9t-20.5 10q-10 4 -17 6q-84 25 -148 40q-50 12 -111 12q-16 0 -34 -1q-102 -2 -167.5 -33t-98.5 -57 q31 39 92.5 67.5t120.5 36.5q32 4 64 4t64 -4q65 -8 118 -21.5t88 -26.5t41 -15q-97 53 -199 71q-48 9 -97 9q-56 0 -114 -11q-29 -6 -60.5 -17t-61 -28.5t-53 -41t-36.5 -52.5q-17 25 -17 50q1 13 5 25q12 38 43 68.5t71 54t70 33.5q63 20 158 21h11q104 0 191 -35 q91 -37 181 -82q43 -25 86 -45q35 -18 76 -34.5t73 -24.5q46 -14 94 -22q39 -7 81 -7h20q106 2 178 22.5t119 51.5q27 18 56 47q30 28 48 62q17 30 17 63v7q-2 36 -39 71q10 -16 18 -35q6 -16 9 -35.5t-5 -42.5q-8 -27 -26 -49q15 33 15 65q0 36 -14 67q-13 28 -36 44 q-20 14 -43 14h-6h13q32 0 59 -8q29 -10 50 -36t25 -79v-7q-1 -35 -19 -73q-20 -42 -62 -79t-105.5 -64.5t-147.5 -40.5h3q-69 -10 -139 -10h-23q-82 2 -157 14.5t-139.5 28.5t-109.5 33q-4 -14 -22.5 -68.5t-46.5 -115.5q-16 -35 -48 -93.5t-65 -113.5q-37 -66 -80 -138 q61 90 101 152.5t71 116t56.5 110t56.5 133.5l28 -22q-2 -6 -2 -14q-4 -12 0 -29q4 -16 7.5 -8t9.5 10q4 0 4 10q0 4 -2 10l35 -59q-31 -80 -66 -160q-29 -68 -63.5 -145.5t-67.5 -138.5q-16 -31 -37.5 -69t-48.5 -81q123 -12 214 -30.5t112 -22.5q10 -4 17 -7t17 -7v-5 q0 -2 3 -2l-3 -16q-51 12 -112 21q-53 8 -124 14t-153 6q-29 -45 -57.5 -92t-58.5 -96q0 -2 -2 -5q-14 -23 -28.5 -47t-29.5 -49l2 2q-18 -29 -34.5 -57.5t-28.5 -48.5l-2 -2q-53 -94 -96.5 -176t-63.5 -142q-16 -47 -23.5 -79.5t-10.5 -60.5t-5 -56.5t-6 -71.5 q-18 -6 -35 -6q-22 0 -41 10q-25 10 -43 33q-8 8 -14 20q-3 16 -3 37t3 47q4 47 20.5 121t55.5 184q41 119 110.5 248t151.5 264q-16 -4 -29.5 -6t-28.5 -6q-96 -25 -157.5 -52.5t-99.5 -55t-56 -51t-29 -42.5q0 23 5.5 53.5t21.5 61.5q12 25 37.5 42.5t50.5 29.5 q29 14 64 24q-23 -2 -48 -8q-23 -6 -48 -16t-48 -33q-25 -23 -34 -50.5t-11 -53.5q-2 -31 4 -62q-18 39 -24 76zM-156 -162q-3 -26 -3 -49t3 -43q0 49 9 107q8 49 24.5 112.5t50.5 132.5q20 41 53 98t72 123q31 51 64 103.5t62.5 99.5t56 89t45.5 71h-5q-35 -47 -88 -122 t-108 -159t-102.5 -166.5t-71.5 -144.5q-31 -80 -44.5 -143.5t-17.5 -108.5zM313 733l4 4z" />
<glyph unicode="G" horiz-adv-x="948" d="M-104 125q-3 31 -3 66q0 68 13 150q18 124 82 288q47 123 104.5 218t119.5 169t126.5 127t126.5 90q141 86 291 113q22 10 39 10q7 0 14 -2q20 -4 36.5 -26.5t18.5 -76.5q0 -53 -21.5 -140t-61.5 -173t-97 -154.5t-129 -87.5q-17 -4 -32 -4q-26 0 -46 12q-31 17 -47 44 q-23 31 -31 73q8 -18 25 -35q14 -14 36.5 -28.5t57.5 -18.5q8 -1 15 -1q33 0 65 22q39 26 70 61q35 41 65 97q-33 -43 -67 -78q-29 -29 -62 -54.5t-55 -27.5q-33 -4 -55.5 5t-36.5 21q-18 14 -29 33h9q29 0 75 11q53 12 109 65q63 61 109 132t71.5 132.5t31 105.5t-13.5 50 q-18 12 -51 8q-29 -4 -76 -24.5t-119 -75.5q-72 -57 -121 -102.5t-81 -80.5q-37 -39 -62 -69q66 59 125 112q49 45 99.5 87t74.5 61q55 35 94 47t64 16q-53 -29 -142 -99.5t-184.5 -172.5t-182.5 -233.5t-136 -282.5q-49 -147 -59 -258q-5 -51 -5 -94q0 -52 7 -94 q12 -78 36.5 -125.5t44.5 -67.5q-4 0 -8 -1t-10 1l-8 2q-8 4 -25.5 19.5t-37 52t-39 99t-31.5 161.5q-4 31 -4 64q0 43 7 89q13 80 34 148q23 80 55 155q-37 -72 -62 -147q-23 -66 -39 -146q-11 -54 -11 -108q0 -26 3 -53q12 -143 43 -213t47 -90q-8 4 -14 10 q-41 35 -64.5 86t-35.5 100q-14 57 -19 119q-2 -8 -2 -41t7.5 -77t24.5 -93t52 -88q33 -41 63.5 -55.5t53.5 -16.5q27 -2 51 8q23 4 83 46.5t147 130.5q31 33 66.5 75.5t72.5 86.5t70.5 87t58.5 76q76 104 138 178t77 91q8 6 15 12l14 12q2 -2 4 -2h2l14 -8 q-70 -80 -131 -178q-53 -84 -106.5 -193.5t-82.5 -234.5q-23 -96 -26 -164q-2 -23 -2 -43q0 -40 5 -71q7 -46 20.5 -73.5t23.5 -44.5q-20 10 -45 27.5t-45 46.5q-16 23 -21.5 53.5t-3.5 59.5q0 33 8 67q-10 -23 -16 -47q-4 -23 -6 -49t8 -57q8 -33 29.5 -53.5t44.5 -34.5 q25 -16 55 -25q-55 0 -102 12q-41 10 -76 33t-41 68q-5 27 -5 56q0 56 19 118q27 94 74 188q-23 -25 -44 -48t-40 -46q-182 -199 -301 -199q-18 0 -54 16.5t-73 53.5t-67.5 98.5t-40.5 153.5zM514 795q10 -4 21 -4q4 -1 8 -1q13 0 30 5q10 4 21.5 11t23.5 17l29 25 q-12 -10 -26 -19q-12 -8 -26.5 -15t-25.5 -11q-23 -8 -41 -8h-14z" />
<glyph unicode="H" horiz-adv-x="1030" d="M-808 501q12 38 43.5 68.5t70.5 54t69 33.5q35 10 74 15.5t86 5.5h11q103 0 190 -35q92 -37 180 -82l12 -6l13.5 -9t17.5 -9q70 137 159 282.5t173 284.5t153.5 269t100.5 241q-117 -170 -242 -309q-53 -59 -113.5 -117t-124 -105t-129 -78.5t-129.5 -39.5q-10 -1 -20 -1 q-31 0 -55 15q-30 20 -49 49q-23 33 -35 74q16 -25 39 -47q18 -18 44.5 -33.5t59.5 -13.5q33 0 59.5 9t45.5 19q23 12 38 27q-31 -16 -61 -25q-27 -8 -57.5 -13t-57.5 5q-33 10 -57.5 29.5t-40.5 36.5q18 -6 49 -12q14 -3 32 -2q21 0 45 4q46 6 110.5 28.5t150.5 69.5 q111 63 202 145t157 156q76 86 135 176l12 -12l6 -7q2 -2 6 -2h2l4 -28q-10 -29 -20 -60q-10 -27 -22.5 -60.5t-28.5 -68.5t-48 -94t-65 -115q-37 -68 -80 -137q61 90 101.5 152.5t71 116t56 109.5t56.5 134l29 -22q-2 -6 -3 -15q-4 -12 0 -28t7.5 -8t9.5 10q4 0 4 12 q0 6 -2 10l35 -59q-31 -82 -66 -162q-29 -68 -63.5 -145.5t-67.5 -139.5q-39 -72 -100.5 -173t-130.5 -214l-2 -2q-14 -25 -28.5 -49t-29.5 -49l2 2q-16 -25 -30.5 -49.5t-26.5 -44.5q12 -6 23 -6q88 -29 184 -29h12q104 2 176 22.5t119 51.5q27 18 57 47t48 63q17 32 17 65 q0 39 -38 75q10 -16 18 -35q6 -16 8.5 -35.5t-3.5 -42.5q-4 -16 -12.5 -27.5t-16.5 -21.5q15 33 15 65q0 36 -13 67q-12 28 -35.5 44t-50.5 14h13q32 0 59 -8q29 -10 51 -35.5t24 -79.5v-7q0 -36 -18 -74q-20 -42 -62 -78.5t-105.5 -64.5t-145.5 -40q-70 -12 -140 -12 q-21 0 -43 1q-92 5 -176 21q-45 -80 -81 -150.5t-52 -121.5q-16 -47 -23.5 -79t-10.5 -59.5t-5 -57t-6 -72.5q-18 -6 -35 -6q-22 0 -41 10q-14 6 -24.5 15t-18.5 18q-8 8 -14 20q-3 16 -3 37t3 47q4 47 20.5 122t55.5 185q25 68 57 140q-29 8 -50.5 16t-37.5 14l-31 13 q-85 25 -149 40q-51 12 -112 12q-16 0 -34 -1q-102 -2 -167.5 -33t-98.5 -57q31 39 92.5 67.5t120.5 36.5q32 4 63.5 4t64.5 -4q65 -8 118 -21.5t89 -26.5t40 -15q-98 52 -198 70q-50 9 -102 9q-54 0 -110 -10q-29 -6 -60.5 -17t-61 -28.5t-53 -41t-34.5 -52.5 q-17 25 -17 50q0 12 4 25zM-109 0q-3 -26 -3 -49t3 -41q0 49 9 106q8 47 24.5 110.5t50.5 133.5q20 41 53 98.5t72 122.5q45 74 91.5 149t84.5 134q45 70 89 135q-94 -125 -177 -244q-35 -51 -70.5 -105t-67.5 -107.5t-57.5 -102.5t-39.5 -88q-31 -80 -44 -143.5t-18 -108.5 zM328 -244q-6 25 -7 55q1 43 13 98q20 93 67.5 210t106.5 233q47 18 122 59.5t134 114.5q-23 -37 -48.5 -78.5t-51 -83.5t-51 -82t-46.5 -73q-63 -98 -111 -209t-53 -223v-23q0 -6 2.5 -17t6.5 -16q4 -4 7 -5t7 -3t6 -2q-2 2 -4 6t-4 7.5t-2 11.5h-2h2q-2 4 -2 18 q-1 13 -1 27q1 50 17 107q22 73 56 149q14 31 36.5 72t49.5 84q55 92 107 181t90 155.5t57.5 101.5t9.5 18q-12 -16 -49 -78q12 31 14 62t-4 58.5t-16.5 52t-20.5 40.5q18 29 34.5 53.5t28.5 43.5q14 23 25 39q78 106 143.5 204.5t100.5 182.5l-2 -2l2 6q4 14 -8 18 q-10 2 -46 -10t-108 -70q-37 -29 -59.5 -53.5t-36.5 -42.5q-16 -23 -23 -39q12 18 33 41q16 18 42 44t62 54q35 29 60.5 43.5t42.5 20.5q20 6 33 4q-4 0 -35 -16.5t-74 -47t-90 -77.5t-82 -109q-35 -61 -49.5 -107t-18.5 -75q-4 -35 2 -58q-25 6 -45 23q-16 14 -32.5 39 t-22.5 68q-1 7 -1 13q0 36 26 80q32 52 82.5 101t109 90t103.5 60q41 16 67 24q28 8 44 9q8 0 14 0.5t10 -0.5q8 -1 10 -3l2 -2q0 -2 2 -4t6 -2h2v-22q-10 -23 -20 -48q-10 -23 -24.5 -48t-31.5 -54q-16 -29 -48.5 -73t-63.5 -89q-37 -53 -78 -108q59 70 98 119t69 92 t56.5 87t59.5 105l22 -18l-4 -13q-2 -6 -2 -22q2 -12 6 -6t8 8q4 0 4 8v8l23 -47q-33 -63 -68 -127q-29 -53 -64.5 -114.5t-68.5 -108.5q-6 -10 -36.5 -61.5t-74.5 -125t-93.5 -157.5t-92.5 -157.5t-73.5 -126t-36.5 -60.5q-35 -59 -66 -118.5t-51 -113.5q-19 -53 -29 -100 q-5 -26 -5 -47q0 -19 3 -35q0 -4 1 -6t1 -4t2 -4q5 -2 11 -2q31 0 81 44q60 52 130.5 135t144.5 182.5t134.5 184.5t99 141t40.5 54q18 -4 17 -28q-37 -63 -90.5 -145.5t-116 -167.5t-130 -166t-132 -143t-122.5 -100q-55 -36 -97 -36h-4q-66 3 -80 63zM376 -240 q1 -16 3 -26q2 0 4 -6.5t6 -10.5q2 -2 5 -3t5 -3t4 -2q-2 2 -4 6t-4 7.5t-2 9.5q-2 10 -4 25.5t-2 27.5q0 10 2 24.5t6 30.5q4 18 8 39q-4 -14 -10 -29q-4 -12 -9 -28.5t-7 -30.5q-1 -11 -2 -21q1 -5 1 -10z" />
<glyph unicode="I" horiz-adv-x="360" d="M-358 1102q18 -27 41 -47q18 -18 44.5 -32.5t59.5 -14.5t59.5 9t44.5 19q23 12 39 29q-33 -18 -63 -27q-29 -10 -58.5 -13t-56.5 7q-33 10 -56.5 29.5t-39.5 36.5q18 -6 48 -12q14 -3 31 -2q20 0 45 4q46 6 110.5 27.5t150.5 70.5q113 61 204 144t156 157q76 86 136 176 l10 -12l2 -2q0 -2 4 -7q2 -2 6 -2h2l4 -28q-10 -29 -20 -60q-10 -27 -22.5 -60.5t-28.5 -68.5t-47 -93t-64 -113q-37 -66 -80 -138q61 88 101 150.5t70 117t55.5 110.5t56.5 134l28 -22q-2 -6 -2 -15v-14t2 -14q2 -16 6.5 -8t10.5 8q4 0 4 12q0 6 -2 10l33 -59 q-33 -82 -66 -162q-29 -68 -62.5 -144.5t-66.5 -138.5q-39 -72 -101.5 -174t-129.5 -213q0 -2 -1 -2t-1 -2q-16 -25 -29.5 -49t-30.5 -47l2 2q-16 -29 -33.5 -57.5t-29.5 -48.5v-2q-55 -94 -98.5 -176t-61.5 -142q-16 -47 -23.5 -80t-10.5 -60.5t-5 -56t-6 -71.5 q-18 -6 -35 -6h-7q-20 2 -36 10q-27 12 -41 33q-8 8 -14 20q-5 18 -5 43q0 19 3 41q4 47 20.5 121t57.5 184q35 102 93 214t125.5 227.5t139.5 231.5t135.5 226.5t114.5 213t76 192.5q-117 -170 -242 -309q-53 -59 -113.5 -116.5t-124 -106t-129 -80t-129.5 -37.5 q-10 -1 -20 -1q-31 0 -55 15q-30 20 -50 47q-23 31 -34 74zM-115 2q-3 -26 -3 -49t3 -43q0 49 9 106q8 49 25.5 111.5t51.5 132.5q20 43 52 100t73 123q43 74 89 149t85 134q45 70 88 135q-94 -127 -176 -246q-35 -51 -69.5 -105t-66.5 -107.5t-58.5 -102.5t-40.5 -88 q-31 -80 -44.5 -142.5t-17.5 -107.5z" />
<glyph unicode="J" horiz-adv-x="331" d="M-847 -185q5 58 39 126.5t91.5 138.5t128.5 129q72 59 127 73q43 12 76 12q10 0 18 -1q45 -6 80 -31q-139 -55 -272 -152.5t-223 -250.5q35 82 89 148.5t107 113.5q61 55 129 98q-31 -16 -67 -39q-31 -20 -72 -54t-84 -81q-59 -63 -82.5 -121.5t-34.5 -95.5 q-6 -25 -4 -39h-2h2q2 -45 53 -45h8q60 4 160 90q33 27 78 71t94.5 97t98.5 114.5t90 127.5q43 66 91 150.5t97 174.5t96.5 178.5t85 162t63.5 125.5t36 71l4 8h2l244 402q-51 -66 -131 -156t-173.5 -174t-195.5 -146.5t-197 -72.5q-10 -1 -20 -1q-32 0 -55 15 q-29 20 -45 47q-20 31 -31 74q14 -27 37 -47q18 -18 43.5 -32.5t58.5 -14.5t58.5 9t46.5 19q23 12 41 29q-33 -18 -64 -27q-29 -10 -58.5 -13t-56.5 7q-33 10 -55 29.5t-37 36.5q18 -6 48 -12q14 -2 31 -2q20 0 45 4q46 6 111.5 27.5t153.5 70.5q117 61 211 144t164 157 q82 86 145 176l11 -12l2 -2q0 -2 4 -7q2 -2 6 -2h2l2 -12l-4 -49l-41 -135l53 102l15 -12v-14q0 -6 -1 -12.5t-1 -8.5q-2 -4 -3.5 -8t-5.5 -8q-4 -6 -8 -10l15 -15l-103 -213q-129 -291 -240.5 -498.5t-212 -359t-194.5 -260.5t-186 -201q-70 -70 -133.5 -112.5 t-110.5 -67.5q-55 -29 -105 -43q-36 -11 -66 -11q-52 0 -87 32q-31 29 -31 77q0 7 1 14zM-156 156q45 63 88 123.5t87 127t90.5 142.5t99.5 172q23 41 61.5 114.5t80.5 154.5t80 154t56 109l19 80l-27 -53l-28 -53q-37 -78 -76 -154t-99 -186q-57 -106 -116.5 -211 t-115.5 -201t-107.5 -178t-92.5 -141z" />
<glyph unicode="K" horiz-adv-x="804" d="M-358 1102q18 -25 41 -47q18 -18 44.5 -33.5t59.5 -13.5q33 0 59.5 9t44.5 19q23 12 39 27q-33 -16 -63 -25q-29 -8 -58.5 -13t-56.5 5q-33 10 -56.5 29.5t-39.5 36.5q18 -6 48 -12q14 -3 31 -2q20 0 45 4q46 6 110.5 28.5t150.5 69.5q113 63 204 145t156 156 q76 86 136 176l10 -12l6 -7q2 -2 6 -2h2l4 -28q-10 -29 -20 -60q-10 -27 -22.5 -60.5t-28.5 -68.5t-47 -94t-64 -115q-37 -68 -80 -137q61 90 101 152.5t70 116t55.5 109.5t56.5 134l28 -22q-2 -6 -2 -15v-13t2 -15q2 -16 6.5 -8t10.5 10q4 0 4 12q0 6 -2 10l33 -59 q-33 -82 -66 -162q-29 -68 -62.5 -145.5t-66.5 -139.5q-39 -72 -101.5 -173t-129.5 -214l-2 -2q-10 -18 -21.5 -35.5t-21.5 -35.5q166 84 315 182q63 41 130 90t128 103.5t113.5 112.5t87.5 120q49 84 75 150q24 67 36 117q11 46 11 78v6q-1 34 -8 56q14 -9 36 -31 q20 -20 20 -60v-7q-2 -35 -19.5 -86t-40.5 -102q-25 -59 -57 -123q39 63 68 125q25 53 45 109q18 50 18 84v7q-2 25 -14.5 44.5t-26.5 35.5q-18 18 -39 33q-2 2 -2 4l-2 2q35 -10 64 -24q23 -12 43 -28.5t20 -39.5t-15.5 -93.5t-60.5 -165.5t-128 -201.5t-216 -198.5 q-117 -80 -211 -137.5t-166 -98.5l2 -2q37 -16 74 -39q29 -20 60.5 -49t50.5 -68q7 -15 7 -42q0 -18 -3 -40q-8 -57 -22.5 -132.5t-28 -159.5t-14.5 -160v-7q1 -72 19 -128q20 -58 72 -82l-4 -2q-10 -2 -27.5 0t-41.5 16q-27 16 -45.5 42t-30.5 54q-14 31 -25 68 q4 -23 13 -45q6 -18 14 -40t18 -40t23.5 -30.5t24.5 -20.5q12 -8 24 -12q-45 0 -82 36q-31 37 -45 87.5t-20 97.5q-6 42 -6 87v23q-4 -23 -7 -45q-2 -20 -1 -47.5t8 -58.5q10 -63 29.5 -110.5t66.5 -74.5q23 -14 51.5 -14t52.5 4q29 6 60 19q4 0 8 1t8 1q-14 -12 -33 -23 q-16 -10 -39.5 -19t-52.5 -14q-12 -2 -24 -2q-19 0 -39 4q-32 6 -60 31t-48.5 73t-29.5 128q-3 28 -3 57q-1 52 9 103q14 80 35 150.5t41.5 130t26.5 100.5q4 16 1 41.5t-7 39.5q20 -18 37 -40q14 -18 26.5 -44t16.5 -53v-6q2 -4 2 -24q0 -16 -1 -49t-8 -91q-2 -2 -2 -4 q10 51 17 96q4 39 4 79t-16 67q-14 29 -39 53.5t-47 42.5q-29 23 -60 39q-10 8 -19.5 13t-13.5 10q-98 -55 -150 -82t-63 -45q-8 -12 -14 -22.5t-12 -18.5v-2q-55 -96 -98.5 -178.5t-61.5 -141.5q-16 -47 -23.5 -79t-10.5 -59.5t-5 -57t-6 -72.5q-23 -8 -42.5 -6t-35.5 10 q-14 6 -24.5 15t-16.5 18q-8 8 -14 20q-5 18 -5 43q0 19 3 41q4 47 20.5 122t57.5 185q35 102 93 214t125.5 227.5t139.5 231.5t135.5 226.5t114.5 213t76 190.5q-117 -170 -242 -309q-53 -59 -113.5 -117t-124 -105t-129 -78.5t-129.5 -39.5q-10 -1 -20 -1q-31 0 -55 15 q-30 20 -50 49q-23 33 -34 74zM-115 0q-3 -26 -3 -49t3 -41q0 49 9 106q8 47 25 110.5t52 133.5q20 41 52 98.5t73 122.5q43 74 89 149t85 134q45 70 88 135q-94 -125 -176 -244q-35 -51 -69.5 -105t-66.5 -107.5t-58.5 -102.5t-40.5 -88q-31 -80 -44.5 -143.5t-17.5 -108.5 z" />
<glyph unicode="L" horiz-adv-x="331" d="M-664 -182q-9 20 -9 39q-1 19 9 37q18 34 54.5 61t79.5 43t73 20q35 4 74 4h4q37 0 82 -8q20 -4 39.5 -8t38.5 -8q4 43 19.5 117.5t56.5 195.5q35 102 93 214t125.5 227.5t139.5 231.5t136.5 226.5t114.5 213t77 192.5q-117 -170 -242 -309q-53 -59 -113.5 -116.5 t-125 -106t-130 -80t-129.5 -37.5q-11 -1 -21 -1q-30 0 -50 13q-28 18 -47 44t-28 49.5t-11 27.5q2 -2 12 -16.5t28.5 -32t45 -30.5t57.5 -13q33 0 59.5 9t45.5 19q23 12 38 29q-31 -18 -61 -27q-27 -10 -58.5 -13t-58.5 7q-33 10 -56.5 29.5t-39.5 36.5q18 -6 49 -12 q14 -3 32 -2q21 0 45 4q46 6 110.5 27.5t150.5 70.5q111 61 202 144t156 157q76 86 136 176l12 -12l2 -2q0 -2 4 -7q2 -2 6 -2h2l4 -28q-10 -29 -20 -60q-10 -27 -23.5 -60.5t-29.5 -68.5t-47 -93t-64 -113q-37 -66 -80 -138q61 88 101 150.5t71 117t56.5 110.5t56.5 134 l28 -22q-2 -6 -2 -15q-4 -14 0 -28q2 -16 6.5 -8t10.5 8q4 0 4 12q0 6 -2 10l33 -59q-31 -82 -64 -162q-29 -68 -63.5 -144.5t-67.5 -138.5q-39 -72 -100.5 -174t-130.5 -213q0 -2 -2 -4q-27 -45 -60 -96q-16 -29 -31.5 -56.5t-27.5 -47.5q-2 0 -2 -2q-55 -94 -97 -176 t-63 -142q-12 -37 -18.5 -63.5t-10.5 -49t-6 -42t-4 -44.5q37 -23 72 -47t69 -51q39 -33 76 -59q33 -23 71 -47.5t68 -36.5q41 -20 88.5 -35.5t100.5 -24.5q67 -10 121 -10q31 0 57 3q74 9 125 32q31 12 64.5 35.5t55.5 54.5q22 30 28 66q1 5 1 11q0 31 -26 64q2 -2 6 -13 t7 -26.5t2 -35t-11 -37.5q-12 -27 -37 -43q23 32 28 66q2 12 2 25q0 20 -6 39q-8 30 -28 49t-47 21q39 -4 70 -20q25 -14 44 -43q14 -22 14 -58q0 -11 -1 -24q-4 -39 -32 -77t-75 -68q-47 -28 -115 -46q-61 -16 -134 -16h-17q-119 0 -231.5 32t-202.5 71q-104 45 -197 104 q-78 37 -138 62.5t-142 35.5q-43 6 -81 6q-51 0 -91 -11q-70 -19 -107 -40q37 33 103 52q59 17 113 16h12q63 -2 125.5 -20.5t113.5 -41t84 -41t37 -20.5q-87 65 -185 101q-88 32 -186 32h-22q-29 0 -62.5 -6t-65.5 -18.5t-59.5 -32t-42.5 -45.5zM-113 -49q2 0 4 -2 q2 43 17.5 127t64.5 184q20 43 53 100.5t72 122.5q45 74 91.5 149t84.5 134q45 69 86 135q-94 -127 -176 -246q-35 -51 -69.5 -105t-66.5 -107.5t-58.5 -102.5t-40.5 -88q-41 -111 -51.5 -185.5t-10.5 -115.5zM180 557q2 0 2 2q0 -2 -2 -2z" />
<glyph unicode="M" horiz-adv-x="1447" d="M-332 1108q16 -25 39 -47q18 -18 45 -33.5t60 -13.5q33 0 59.5 9t44.5 19q23 12 39 29q-31 -16 -61 -27q-27 -10 -58 -14t-57 6q-33 10 -57.5 29.5t-40.5 36.5q19 -6 49 -12q14 -3 31 -2q19 0 45 4q46 6 111 28.5t151 71.5q111 61 201.5 143t156.5 156q76 86 135 176 l12 -12l7 -6q2 -2 6 -2h2l4 -29q-10 -29 -21 -59q-10 -27 -22 -61t-29 -68q-16 -35 -48 -94.5t-64 -114.5q-37 -68 -80 -138q61 90 101 152.5t70.5 116t56.5 110t56 133.5l29 -20q-2 -6 -2 -14q-4 -14 0 -31q4 -16 7 -8t9 10q4 0 4 12q0 6 -2 10l35 -59q-31 -82 -65 -162 q-29 -68 -64 -145.5t-67 -138.5q-39 -72 -100.5 -173.5t-131.5 -213.5l-2 -3q-14 -25 -28.5 -49t-28.5 -49q0 2 2 2q-18 -29 -34.5 -56.5t-29.5 -47.5q0 -2 -2 -2q-53 -96 -96 -178t-63 -142q-20 -66 -26.5 -102.5t-10.5 -77.5q20 27 59 75t89 111.5t107.5 138t114.5 152.5 q55 74 120 165t130.5 184.5t128 182.5t111.5 160.5t81 117.5t38 54l30 62q12 -8 21 -17q-8 -18 -16.5 -35.5t-18.5 -35.5v-10q0 -2 -2 -5q-6 -6 -8 -10l-60 -119q39 63 67 112.5t50 90.5q14 -18 21.5 -39.5t3.5 -46.5q0 -10 9 -17t21 -11q4 -10 0 -15q-10 -6 -16 -16 q-8 -23 -4 -50.5t-6 -50.5q-4 -10 -8 -18t-4 -18q-4 -29 -15.5 -54.5t-21.5 -52.5q-29 -53 -59.5 -113.5t-63.5 -121.5l-2 -2q-12 -25 -24.5 -49.5t-26.5 -49.5q2 0 2 2q-14 -29 -28.5 -56.5t-25.5 -47.5q0 -2 -2 -2q-47 -96 -81.5 -178t-49.5 -142q-16 -66 -20 -104.5 t-4 -81.5q16 23 53 75t85 122.5t104.5 155.5t111.5 175q39 61 84 134t91 150t92 153.5t89 148.5q98 168 201 338q12 16 25 14l4 -16q-6 -29 -15 -60q-8 -27 -18 -60.5t-25 -68.5q-14 -35 -40.5 -94t-53.5 -114q-33 -68 -67 -138q53 90 87.5 152.5t60.5 116t46.5 110 t44.5 133.5l31 -20v-14v-14.5t2 -16.5q4 -16 7 -8t9 10q8 0 4 12q-2 6 -4 10l39 -59q-25 -82 -51 -162q-23 -68 -50.5 -145.5t-55.5 -138.5q-31 -72 -84.5 -173.5t-112.5 -214.5q-2 0 -2 -2q-12 -25 -25.5 -49t-25.5 -49q0 2 2 2q-16 -29 -29.5 -56.5t-24.5 -47.5l-2 -2 q-47 -94 -81.5 -177t-49.5 -143q-12 -47 -16 -78.5t-6 -59.5t-1 -57.5t1 -72.5q-18 -6 -35 -6h-7q-20 2 -36 10q-16 6 -26.5 15.5t-18.5 17.5t-16 20q-9 28 -9 75v9q0 47 11.5 122t40.5 185q35 135 105.5 285t150 301.5t154.5 299t122 276.5q-31 -53 -73 -127t-89 -154 t-95 -162t-91 -153q-31 -51 -71 -112.5t-82 -127t-86 -132.5t-85 -128q-96 -145 -196 -297q-23 -8 -42.5 -6t-35.5 10q-14 6 -25.5 15.5t-19.5 17.5t-17 20q-8 26 -8 67v17q0 47 11.5 122t39.5 185q43 160 132.5 338.5t183.5 358.5q-35 -51 -75 -109.5t-81 -117t-81 -117 t-77 -109.5q-61 -86 -146 -198.5t-167 -220t-147.5 -193.5t-89.5 -117q-2 -2 -2 -8q-4 0 -7 -2l-4 -4l-2 4q-12 -3 -24 -3q-20 0 -39 9q-14 6 -24.5 15.5t-18.5 17.5t-15 20q-3 16 -3 37t3 47q4 47 20.5 122t55.5 185q35 102 93.5 214t126 227.5t139 231.5t136 226.5 t115 213t76.5 190.5q-117 -170 -241 -309q-53 -59 -113.5 -116.5t-124 -105t-129.5 -79t-129 -39.5q-8 -1 -15 -1q-35 0 -61 16q-31 20 -49 48q-23 31 -35 74zM-89 -46q1 -28 1 -36q0 10 2 42t9 79t24.5 105.5t48.5 121.5q20 41 53 99.5t72 121.5q45 74 91 149t85 134 q45 70 88 135q-94 -125 -176 -243q-35 -51 -71 -105.5t-67.5 -108t-57.5 -102.5t-40 -88q-29 -72 -42 -131t-17 -102q-3 -34 -3 -59v-12zM547 51q0 -53 8 -90q-4 29 -4 62q0 22 2 45q4 47 15.5 110.5t39.5 132.5q16 41 44 98.5t63 122.5q37 74 76.5 149t74.5 134 q39 70 76 135q-82 -125 -154 -243q-31 -51 -61.5 -105.5t-58 -108t-49 -102.5t-33.5 -88q-25 -80 -32 -143.5t-7 -108.5zM977 -166q0 -53 8 -90q-2 24 -2 51t2 55q4 47 15.5 111t39.5 133q16 41 44 99.5t63 121.5q37 74 77 149t74 134q39 70 76 135q-84 -125 -155 -244 q-31 -51 -62 -105t-58.5 -107.5t-48 -102.5t-32.5 -88q-25 -80 -33 -143.5t-8 -108.5z" />
<glyph unicode="N" horiz-adv-x="1013" d="M-387 1108q20 -25 43 -47q20 -18 48 -33.5t60 -13.5q33 0 58.5 9t44.5 19q23 12 37 29q-29 -16 -60 -27q-27 -10 -57.5 -14t-56.5 6q-35 10 -60.5 29.5t-42.5 36.5q18 -6 49 -12q14 -3 32 -2q21 0 45 4q46 6 108.5 28.5t144.5 71.5q106 61 191.5 143t144.5 156 q68 86 121 176l12 -12q0 -2 2 -2q2 -2 6 -4q2 -2 6 -2h3l6 -29q-6 -29 -15 -59q-8 -27 -18 -61t-25 -68q-14 -35 -40.5 -94.5t-55.5 -114.5q-33 -68 -68 -138q53 90 88 152.5t62 116t47.5 110t46.5 133.5l29 -20v-14v-14.5t2 -16.5q4 -16 7 -8t9 10q8 0 4 12q-2 6 -4 10 l39 -59q-27 -82 -53 -162q-23 -68 -50.5 -145.5t-56.5 -138.5q-33 -72 -87 -173.5t-113 -213.5l-2 -3q-12 -25 -25.5 -49t-25.5 -49q0 2 2 2q-16 -29 -30.5 -56.5t-25.5 -47.5v-2q-47 -96 -83 -178t-52 -142q-16 -61 -19 -98t-5 -76q27 33 70.5 88t99 127t118 155t125.5 169 q47 66 100.5 142.5t109.5 157.5t112.5 161.5t107.5 156.5q121 176 242 357l29 14l-7 -53l-2 -4q-4 -20 -17 -70.5t-36 -106.5q-14 -35 -40.5 -94t-53.5 -114q-33 -68 -68 -138q53 90 88 152.5t60.5 116t46 110t45.5 133.5l31 -20q-2 -6 -2 -14v-14.5t4 -16.5q4 -16 7 -8 t9 10q2 0 2 12q-2 6 -2 10l39 -59q-25 -82 -51 -162q-23 -68 -50.5 -145.5t-56.5 -138.5q-33 -72 -86 -173.5t-112 -214.5v-2q-14 -25 -26.5 -49t-24.5 -49q0 2 2 2q-16 -29 -30.5 -56.5t-25.5 -47.5v-2q-47 -94 -83 -177t-50 -143q-12 -47 -16 -78.5t-5 -59.5t-1 -57.5 v-72.5q-18 -6 -34 -6h-8q-18 2 -34 10q-16 6 -26.5 15.5t-18.5 17.5t-17 20q-8 31 -8 84q0 47 10.5 122t40.5 185q37 141 113 300t160 319t160.5 313.5t117.5 286.5q-35 -53 -87 -133t-113.5 -171t-125 -185.5t-118.5 -174.5q-45 -63 -102.5 -143t-120 -163t-124 -165 t-114.5 -152.5t-94 -122.5t-59 -77v-8q-4 0 -9 -2q-4 -4 -4 -6l-2 -2l-2 6q-31 -6 -59 8q-16 6 -26.5 15.5t-18.5 17.5t-17 20q-8 26 -8 67v17q2 47 12.5 122t40.5 185q27 102 76 214t108.5 227.5t122 231.5t118 226.5t98.5 213t61 190.5q-106 -170 -219 -309 q-49 -59 -105.5 -116.5t-116 -105t-122 -79t-125.5 -39.5q-8 -1 -15 -1q-35 0 -61 16q-31 20 -53 48q-25 31 -41 74zM-55 -32q2 -28 4 -42h2v48t4 79t16.5 99.5t36.5 113.5q16 41 45 99.5t62 121.5q39 74 80 149t75 134q39 70 76 135q-84 -125 -156 -243 q-31 -51 -62.5 -105.5t-59 -108t-49 -102.5t-33.5 -88q-20 -68 -28.5 -123t-11.5 -97q-2 -25 -1 -46q-1 -13 0 -24zM545 -166q0 -53 8 -90q-2 24 -2 51t2 55q4 47 15.5 111t39.5 133q16 41 44 99.5t61 121.5q39 74 77.5 149t73.5 134q37 70 76 135q-82 -125 -154 -244 q-31 -51 -61.5 -105t-58 -107.5t-49 -102.5t-33.5 -88q-23 -80 -31 -143.5t-8 -108.5z" />
<glyph unicode="O" horiz-adv-x="911" d="M-54 194q-1 21 -1 44q0 132 36 294q42 190 158 400q76 137 149.5 222t139.5 130q66 44 120 60q51 15 90 15h5q41 -1 63.5 -10.5t24.5 -9.5q14 -6 31 -18q10 -8 27.5 -37t24.5 -59.5t-5 -57t-57 -30.5q-4 35 -7.5 59.5t-13.5 30.5q-14 12 -53 -13.5t-92.5 -83 t-116.5 -142.5t-129 -187q-51 -80 -94 -180.5t-72 -205t-42 -201.5q-7 -55 -7 -102q0 -37 4 -69v-2q2 -31 8 -55q4 -23 12.5 -42.5t20.5 -23.5t48 13.5t87 57.5t110.5 99.5t114.5 136.5q41 53 83 121t83 154q41 88 62 158q20 70 25 122q2 22 2 41q0 27 -4 49q-7 38 -21 64 q-33 61 -103 80q2 14 7 24q4 10 10 18.5t20 12.5l16 -3q15 -3 34.5 -16.5t40 -42t30.5 -79.5q23 -54 23 -119q0 -24 -4 -50q-12 -95 -42 -187.5t-69 -168t-61 -108.5q-47 -68 -103.5 -140.5t-119 -134t-129 -104.5t-132.5 -51q-40 -10 -67 -10h-9q-59 8 -104 98.5t-52 238.5 zM29 51v-16q0 -41 8 -67q10 -32 22 -48q14 -23 31 -31q-4 2 -10 11q-12 14 -17 34q-12 37 -16 87.5t-6 97.5q-1 26 -1 53.5t1 56.5q-4 -29 -6 -59q-4 -27 -5 -58.5t-1 -60.5zM69 92q3 -82 15 -127t18 -51q8 -10 16.5 -13t12.5 -5q3 -1 5.5 -1t4.5 1q-4 2 -8 10 q-10 14 -18 37h-2h2q-4 10 -5 18t-4 19q-6 25 -11 67.5t-5 100t10.5 129t34.5 157.5q31 117 83 222.5t101 187.5q57 96 123 180q-59 -72 -114 -152q-47 -68 -97.5 -152.5t-78.5 -170.5q-54 -145 -70 -260q-14 -97 -13 -171v-26z" />
<glyph unicode="P" horiz-adv-x="802" d="M-868 652q12 28 42.5 52.5t70.5 42t71 25.5q35 8 73 12t85 4q111 0 202 -27.5t181 -62.5q33 -14 69 -28q31 -12 67 -24.5t70 -20.5q72 131 155 265t161 264t140.5 251t90.5 223q-117 -170 -241 -309q-53 -59 -113.5 -116.5t-124 -104.5t-129 -79t-129.5 -38 q-10 -1 -20 -1q-31 0 -55 16q-30 20 -50 46q-23 31 -35 74q16 -25 39 -47q18 -18 45 -33.5t60 -13.5q33 0 59.5 9t44.5 20q23 12 39 28q-31 -16 -61 -26q-27 -10 -58 -14.5t-57 5.5q-33 10 -57.5 30t-38.5 36q18 -6 48 -11q13 -2 30 -3q20 0 46 4q46 6 110.5 28.5 t150.5 71.5q111 61 202 143t156 156q76 86 137 176l10 -10l3 -2q0 -2 4 -6q2 -2 6 -2h2l4 -29q-10 -29 -21 -59q-10 -27 -22 -60.5t-29 -68.5q-16 -35 -48 -92.5t-64 -114.5q-37 -68 -80 -139q61 90 101 152.5t70.5 115.5t56.5 109.5t56 134.5l29 -21q-2 -6 -2 -14 q0 -6 -1 -14.5t1 -16.5q4 -16 7 -8t9 10q4 0 5 12q0 6 -3 11l35 -60q-10 -20 -18 -45q-10 -23 -20.5 -50.5t-24.5 -61.5q16 2 39.5 5t48 5t47 2t35.5 -2q35 -10 80 -31.5t61 -44.5q39 -50 39 -121q0 -13 -1 -27q-9 -90 -93 -225q-31 -51 -87.5 -101t-127 -94t-151.5 -79 t-161 -53q-35 -10 -76.5 -12.5t-80.5 -2.5q-16 -29 -31.5 -54.5t-26.5 -43.5q0 -2 -2 -2q-53 -94 -96 -177t-61 -141q-16 -47 -23.5 -79.5t-11.5 -60t-6 -56.5t-6 -72q-19 -8 -35 -8h-7q-18 2 -34 10q-14 6 -24.5 15.5t-18.5 19.5t-15 21q-3 16 -3 36.5t3 46.5 q4 47 20.5 121t55.5 185q45 123 115 252q-66 10 -121 21t-96 22q-49 12 -86 26q-84 19 -148 31q-48 9 -106 9q-19 0 -39 -1q-102 -2 -168 -25.5t-98 -44.5q31 29 92 52.5t121 29.5q29 3 58 3q34 0 70 -4q64 -7 117.5 -17t88 -19.5t40.5 -11.5q-98 39 -200 53q-47 7 -94 7 q-56 0 -115 -9q-29 -4 -60.5 -12t-61.5 -21.5t-53.5 -32t-35.5 -38.5q-17 19 -17 38q1 9 5 18zM-43 14q-3 -26 -3 -49t3 -41q0 49 8 107q8 49 24.5 111.5t51.5 131.5q23 41 54.5 99.5t70.5 124.5q45 72 91 146.5t85 133.5q45 70 88 135q-94 -125 -176 -243 q-35 -51 -71 -105.5t-67.5 -108t-57 -102.5t-40.5 -88q-31 -80 -44 -143.5t-17 -108.5zM266 598q14 0 47 3t74 11.5t89 22.5t95 37q55 29 92 53.5t60 40.5q27 20 43 37q-43 -33 -86 -60q-37 -23 -80 -47t-80 -34q-37 -12 -67.5 -19t-53.5 -10q45 18 99.5 52t113 89 t117.5 134t117 190q8 14 17 36.5t16.5 48t9.5 51.5t-4 46q20 -25 33 -55q10 -27 14 -63q1 -8 1 -16q0 -29 -11 -61q-10 -35 -18.5 -55t-12.5 -35l-10 -20q-2 -4 -4 -6l2 4q2 4 5 8t7 14q12 27 29.5 67t21.5 68q2 16 2 30q0 22 -4 41q-6 32 -14 50q20 -20 36 -54 q10 -22 10 -53q0 -16 -3 -34q-6 -41 -23.5 -85t-38.5 -81q-22 -43 -51 -86q10 12 33.5 44t47.5 75t41 91q15 43 15 85v10q-2 37 -18.5 63.5t-38 46t-45 31t-37.5 17.5l-8 4q-4 2 -10 2l-2 2q-19 5 -39 5q-7 0 -13 -1q-28 -2 -52.5 -7t-44 -11t-30.5 -10q-27 -61 -56.5 -127 t-57.5 -119q-37 -72 -99.5 -174.5t-132.5 -214.5v-2q-10 -16 -21.5 -35t-21.5 -35z" />
<glyph unicode="Q" horiz-adv-x="888" d="M-376 224v11q0 30 24 68q35 53 118 78q38 11 82 11q54 0 119 -17q14 123 58.5 264t128.5 293q76 137 149.5 222t139 130t119.5 60q51 15 90 15h5q41 -1 63.5 -10.5t24.5 -9.5q14 -6 31 -18q10 -8 27.5 -37t25 -59.5t-5 -57t-57.5 -30.5q-2 35 -6 59.5t-15 30.5 q-14 12 -53 -13.5t-92 -83t-116.5 -142.5t-129.5 -187q-35 -53 -64.5 -114.5t-55 -128t-45 -136.5t-31.5 -135q74 -47 137 -105.5t115 -113.5q35 35 67.5 73.5t67.5 85.5q41 53 83 121t83 154q41 88 61.5 157.5t25.5 122.5q2 20 2 39q0 28 -4 51q-8 37 -22 64 q-33 61 -102 80q0 14 6 24q4 10 11 18.5t22 12.5q27 -2 49 -18q20 -14 39.5 -43t29.5 -80q23 -55 23 -121q0 -23 -3 -48q-11 -95 -42 -187.5t-70 -168t-61 -108.5q-47 -68 -104.5 -141.5t-120.5 -135.5q25 -31 44 -56t33 -44q16 -23 27 -41q53 -68 98 -117t115 -94 q86 -55 158 -68q54 -9 90 -9q12 0 22 1q-23 -6 -52.5 -7t-61 4t-63.5 14.5t-58 23.5q-55 29 -104.5 72t-85 85t-58.5 72.5t-25 37.5q51 -98 124 -171t175 -120q27 -12 60 -20.5t67 -10.5q10 -1 19 -1q25 0 49 5q32 5 57 23q-2 -45 -32.5 -69t-73.5 -32q-31 -6 -64 -6 q-12 0 -25 1q-46 3 -77 13q-63 16 -143 72q-90 61 -145.5 143t-102.5 170q-4 8 -10 19l-25 49q-47 -37 -95 -61.5t-95 -30.5q-40 -10 -67 -10h-9q-37 6 -69 43t-53.5 99t-30.5 146q-5 44 -5 94q0 45 4 93q-59 20 -110 20q-33 0 -74 -6t-75 -24.5t-54 -49.5q-11 -18 -11 -43 q0 -16 5 -36q-2 18 4 38q4 16 13 35t28 33q23 16 49 25q-33 -20 -52.5 -49t-23.5 -60t5 -56.5t32 -39.5q-33 20 -53 47q-16 23 -22 58zM43 51v-16q0 -40 8 -67q10 -31 23 -48q14 -23 30 -31q-4 2 -10 11q-12 14 -16 34q-12 37 -16.5 87.5t-6.5 97.5q-1 27 -1 54t1 56 q-4 -29 -6 -59q-4 -27 -5 -58.5t-1 -60.5zM83 126q1 -65 7 -111t14.5 -71.5t12.5 -29.5q8 -10 16 -13t12 -5q3 -1 6 -1t5 1q-4 2 -9 10q-10 14 -18 37h-2h2q-4 10 -5 18t-3 19q-8 37 -15 108q-2 23 -2 50q0 55 9 124q-4 4 -9.5 5t-9.5 5q-11 -76 -11 -136v-10zM102 317 q6 -2 19 -10q4 31 11 61.5t18 65.5q33 117 85 222.5t101 187.5q57 96 121 180q-59 -72 -115 -152q-47 -68 -97 -152.5t-79 -170.5q-23 -63 -38 -120.5t-26 -111.5zM143 41q2 -31 9 -55q4 -23 12 -42.5t20 -23.5q2 -1 5 -1q16 0 55 21q45 23 106 74q-33 57 -67 97 q-29 35 -61 66.5t-72 60.5q-11 -68 -11 -126q0 -36 4 -69v-2z" />
<glyph unicode="R" horiz-adv-x="827" d="M-868 652q12 28 42.5 52.5t70.5 42t71 25.5q35 8 73 12t85 4q111 0 202 -27.5t181 -62.5q33 -14 69 -28q31 -12 67 -24.5t70 -20.5q72 131 155 265t161 264t140.5 251t90.5 223q-117 -170 -241 -309q-53 -59 -113.5 -116.5t-124 -104.5t-129 -79t-129.5 -38 q-10 -1 -20 -1q-31 0 -55 16q-30 20 -50 46q-23 31 -35 74q16 -25 39 -47q18 -18 45 -33.5t60 -13.5q33 0 59.5 9t44.5 20q23 12 39 28q-31 -16 -61 -26q-27 -10 -58 -14.5t-57 5.5q-33 10 -57.5 30t-38.5 36q18 -6 48 -11q13 -2 30 -3q20 0 46 4q46 6 110.5 28.5 t150.5 71.5q111 61 202 143t156 156q76 86 137 176l10 -10l3 -2q0 -2 4 -6q2 -2 6 -2h2l4 -29q-10 -29 -21 -59q-10 -27 -22 -60.5t-29 -68.5q-16 -35 -48 -92.5t-64 -114.5q-37 -68 -80 -139q61 90 101 152.5t70.5 115.5t56.5 109.5t56 134.5l29 -21q-2 -6 -2 -14 q0 -6 -1 -14.5t1 -16.5q4 -16 7 -8t9 10q4 0 5 12q0 6 -3 11l35 -60q-10 -20 -18 -45q-10 -23 -20.5 -50.5t-24.5 -61.5q16 2 39.5 5t48 5t47 2t35.5 -2q35 -10 80 -31.5t61 -44.5q39 -50 39 -121q0 -13 -1 -27q-9 -90 -93 -225q-29 -45 -76 -90t-107.5 -86t-130 -74.5 t-141.5 -56.5q29 -20 58.5 -48t48.5 -65q7 -15 7 -42q0 -18 -3 -40q-8 -57 -22.5 -132.5t-29 -159.5t-14.5 -160t18.5 -134.5t71.5 -82.5l-4 -2q-10 -2 -27.5 0t-41.5 16q-27 16 -45.5 42t-30.5 54q-14 31 -25 68q4 -23 13 -45q6 -18 14 -40t18 -40t23.5 -30.5t23.5 -20.5 q12 -8 25 -12q-45 0 -82 36q-31 37 -45 87.5t-20 97.5q-7 47 -7 97v13q-4 -23 -6 -45q-2 -20 -1 -47.5t7 -58.5q10 -63 30 -110.5t67 -74.5q23 -14 51 -14t53 4q29 6 59 19q4 0 8.5 1t8.5 1q-14 -12 -33 -23q-16 -10 -39.5 -19t-52.5 -14q-12 -2 -24 -2q-19 0 -39 4 q-32 6 -60.5 31t-49 73t-28.5 128q-2 25 -2 49q0 55 10 111q14 80 35 150.5t40.5 130t25.5 100.5q4 16 1 41.5t-7 39.5q20 -18 36 -40q14 -18 26.5 -44t16.5 -53v-6q4 -4 5 -24q0 -16 -2.5 -49t-8.5 -91q0 -2 -2 -4q10 51 17 96q4 39 4 79t-17 67q-18 41 -54 71.5t-62 47.5 q-4 -2 -9 -2q-35 -10 -76.5 -12.5t-80.5 -2.5q-16 -29 -31.5 -54.5t-26.5 -43.5q0 -2 -2 -2q-53 -94 -96 -177t-61 -141q-16 -47 -23.5 -79.5t-11.5 -60t-6 -56.5t-6 -72q-23 -10 -41.5 -8t-34.5 10q-14 6 -24.5 15.5t-18.5 19.5t-15 21q-3 16 -3 36.5t3 46.5q4 47 20.5 121 t55.5 185q45 123 115 252q-66 10 -121 21t-96 22q-49 12 -86 26q-84 19 -148 31q-48 9 -106 9q-19 0 -39 -1q-102 -2 -168 -25.5t-98 -44.5q31 29 92 52.5t121 29.5q29 3 58 3q34 0 70 -4q64 -7 117.5 -17t88 -19.5t40.5 -11.5q-98 39 -200 53q-47 7 -94 7q-56 0 -115 -9 q-29 -4 -60.5 -12t-61.5 -21.5t-53.5 -32t-35.5 -38.5q-17 19 -17 38q1 9 5 18zM-43 14q-3 -26 -3 -49t3 -41q0 49 8 107q8 49 24.5 111.5t51.5 131.5q23 41 54.5 99.5t70.5 124.5q45 72 91 146.5t85 133.5q45 70 88 135q-94 -125 -176 -243q-35 -51 -71 -105.5t-67.5 -108 t-57 -102.5t-40.5 -88q-31 -80 -44 -143.5t-17 -108.5zM266 598q14 0 47 3t74 11.5t89 22.5t95 37q55 29 92 53.5t60 40.5q27 20 43 37q-43 -33 -86 -60q-37 -23 -80 -47t-80 -34q-37 -12 -67.5 -19t-53.5 -10q45 18 99.5 52t113 89t117.5 134t117 190q8 14 17 36.5t16.5 48 t9.5 51.5t-4 46q20 -25 33 -55q10 -27 14 -63q1 -8 1 -16q0 -29 -11 -61q-10 -35 -18.5 -55t-12.5 -35l-10 -20q-2 -4 -4 -6l2 4q2 4 5 8t7 14q12 27 29.5 67t21.5 68q2 16 2 30q0 22 -4 41q-6 32 -14 50q20 -20 36 -54q10 -22 10 -53q0 -16 -3 -34q-6 -41 -23.5 -85 t-38.5 -81q-22 -43 -51 -86q10 12 33.5 44t47.5 75t41 91q15 43 15 85v10q-2 37 -18.5 63.5t-38 46t-45 31t-37.5 17.5l-8 4q-4 2 -10 2l-2 2q-19 5 -39 5q-7 0 -13 -1q-28 -2 -52.5 -7t-44 -11t-30.5 -10q-27 -61 -56.5 -127t-57.5 -119q-37 -72 -99.5 -174.5 t-132.5 -214.5v-2q-10 -16 -21.5 -35t-21.5 -35z" />
<glyph unicode="S" horiz-adv-x="612" d="M-55 -210q-3 16 -3 34q0 28 8 64q13 56 47 118t78 112t96 78q40 21 80 21q12 0 23 -2l43 -33q-25 0 -57 -12q-29 -10 -67.5 -35.5t-86.5 -73.5q-27 -27 -58.5 -70.5t-54 -86.5t-30.5 -79t12 -46q14 -10 37 -17q18 -4 43 -3t60 14q33 12 63.5 31.5t56 44t45 51t29.5 51.5 q-31 -43 -67 -78q-33 -29 -76 -56.5t-96 -33.5q-22 -3 -38 -3t-26 3l2 2q16 2 51 8t72 27q23 12 40 24.5t30 22.5q14 10 24 22q-29 -20 -57 -39q-25 -16 -54.5 -29.5t-54.5 -15.5q-10 -2 -16 -2h-12l14 13q2 0 2 1t2 1l37 30q55 49 116.5 117t108.5 133.5t69 119.5 q10 26 10 44q0 21 -13 33q-10 6 -31.5 5t-52.5 -5t-68 -9t-75 -5q-37 -2 -63 5t-43 16t-25.5 17.5l-10.5 10.5q-31 50 -31 110q-1 20 3 40q14 84 51 192q47 115 105.5 205t119.5 158.5t123.5 118.5t122.5 85q137 82 278 107q23 10 41 10q8 0 15 -2q20 -4 36.5 -27t18.5 -76 q0 -53 -21.5 -140t-61.5 -173t-97.5 -154.5t-128.5 -87.5q-17 -4 -32 -4q-26 0 -45 12q-30 18 -48 44q-23 31 -33 73q10 -18 27 -35q14 -14 36.5 -28.5t57.5 -18.5q8 -1 15 -1q33 0 65 22q39 26 69 61q35 41 66 97q-35 -43 -70 -78q-29 -29 -61.5 -54.5t-55.5 -27.5 q-33 -4 -55 5t-37 21q-16 14 -26 33h8q28 1 74 11q53 12 108 65q63 61 109.5 132t73 132.5t31.5 105.5t-13 50q-18 12 -51 8q-29 -4 -76 -24.5t-119 -75.5q-72 -57 -122 -102.5t-83 -80.5q-37 -39 -61 -69q66 59 125 112q51 45 100 87t76 61q55 35 94 47t62 16 q-53 -29 -141.5 -99.5t-183.5 -172.5t-182 -233.5t-139 -282.5q-23 -70 -35 -125q-12 6 -24 16.5t-18 26.5q-8 16 -9.5 40.5t0.5 49.5q2 29 7 61l-17 -92q-4 -29 1 -50t14.5 -36.5t20.5 -26t19 -16.5q0 -2 -1 -3t-1 -3q-12 2 -32.5 14.5t-36.5 51.5q-8 19 -8 47q0 13 1 25 q5 44 15 85q12 49 31 103q-16 -33 -31 -70q-12 -33 -22.5 -74t-10.5 -82v-8q0 -34 16 -58q18 -26 37 -40q23 -16 54 -23q8 -4 16 -4q14 -3 29 -3q19 0 39 4q37 8 73 13q26 4 51 4q10 0 20 -1q34 -2 58 -27l11 -23q10 -22 14 -62q1 -11 1 -24q0 -32 -7 -74q-10 -58 -47 -130 q-33 -61 -62.5 -101.5t-53.5 -65t-38 -35.5l-14 -11q-47 -35 -105 -47q-24 -5 -46 -4q-33 0 -62 10q-39 12 -47 54zM541 795q10 -4 18 -4q4 0 8 -1q13 0 31 5q10 4 22.5 11t24.5 17q14 10 29 25q-14 -10 -29 -19q-12 -8 -25.5 -15t-25.5 -11q-23 -8 -39 -8h-14z" />
<glyph unicode="T" horiz-adv-x="419" d="M-262 1489q-8 19 -8 37q0 20 10 38q18 34 53 60.5t78 42.5t74 21q28 5 60 5q45 0 99 -10q109 -16 194 -68t165 -110q39 -31 76 -57q33 -23 70.5 -47.5t68.5 -36.5q43 -23 89 -38t99 -23q66 -9 121 -9q31 0 58 3q75 8 124 30q31 12 65 35.5t57.5 54.5t27.5 68v8 q0 33 -27 68q8 -16 13 -37q4 -16 3 -37t-12 -41q-14 -27 -34 -43q20 33 25 67q2 13 2 25q0 20 -5 38q-8 30 -27.5 49.5t-46.5 23.5q41 -4 70 -21q25 -14 43 -43q14 -22 13 -57q0 -12 -1 -25q-4 -39 -31.5 -76.5t-74.5 -67.5t-113 -48q-60 -17 -135 -17h-16q-123 2 -239 35 t-208 74q-23 -43 -49.5 -92t-50.5 -90q-29 -49 -58 -99q61 90 101.5 152.5t70.5 116.5q10 -10 18.5 -21.5t16.5 -21.5q6 -6 7 -18.5t8 -18.5q8 -10 19 -14.5t20 -14.5q-23 -51 -46.5 -102.5t-46.5 -92.5q-39 -72 -101 -174t-130 -213q0 -2 -1 -2t-1 -2q-16 -25 -29.5 -49 t-29.5 -47l2 2q-16 -29 -34 -57.5t-30 -48.5v-2q-55 -94 -98 -176t-62 -142q-16 -47 -23 -80t-10.5 -60.5t-5.5 -56t-6 -71.5q-18 -6 -34 -6h-8q-19 2 -36 10q-27 12 -41 33q-8 8 -14 20q-5 18 -5 43q0 19 3 41q4 47 20.5 121t57.5 184q43 121 114.5 255t154.5 272.5 t166 273.5t147 260q-37 16 -66 31.5t-51 28.5q-25 14 -43 26q-78 37 -139.5 62.5t-143.5 38.5q-41 6 -76 6q-53 -1 -95 -13q-70 -20 -105 -41q35 33 101 53q59 18 115 18q6 0 11 -1q63 -4 124.5 -22.5t113 -40t84 -41t36.5 -21.5q-86 66 -184 102q-93 34 -197 33h-12 q-29 0 -61.5 -7t-64 -19.5t-59.5 -30.5t-42 -45h-2zM-57 2q-3 -26 -3 -49t3 -43q0 49 8 106q8 49 25.5 111.5t52.5 132.5q20 43 52 100.5t73 122.5q43 74 89 149t85 134q45 69 88 135q-94 -127 -176 -246q-35 -51 -70 -105t-66.5 -107.5t-58.5 -102.5t-41 -88 q-31 -80 -44 -142.5t-17 -107.5z" />
<glyph unicode="U" horiz-adv-x="1032" d="M-393 1108q20 -25 43 -47q20 -18 48 -33.5t60 -13.5q33 0 58.5 9t44.5 19q23 12 37 29q-29 -16 -60 -27q-27 -10 -57.5 -14t-56.5 6q-33 10 -59.5 29.5t-43.5 36.5q18 -6 49 -12q14 -3 32 -2q21 0 45 4q46 6 108.5 28.5t144.5 71.5q106 61 191 143t145 156q70 86 123 176 l12 -12v-2q0 -2 6 -4q2 -2 6 -2h2l7 -29q-6 -29 -15 -59q-8 -27 -18 -61t-25 -68q-14 -35 -40.5 -94.5t-55.5 -114.5q-33 -68 -68 -138q53 90 89 152.5t61.5 116t47 110t46.5 133.5l31 -20q-2 -6 -2 -14v-14.5t2 -16.5q4 -16 8 -8t10 10q2 0 2 12q-2 6 -2 10l37 -59 q-27 -82 -53 -162q-23 -68 -50.5 -145.5t-56.5 -138.5q-33 -72 -87 -173.5t-113 -213.5l-2 -3q-12 -25 -24.5 -49t-27.5 -49l2 2q-14 -29 -28.5 -56.5t-24.5 -47.5l-2 -2q-47 -96 -83 -178t-52 -142q-12 -47 -16.5 -78.5t-6.5 -59.5t-1 -57.5t1 -72.5q6 -2 12 -2q27 0 70 27 q45 27 127 101.5t209 227.5q84 113 143.5 197t98.5 144.5t61.5 97t32.5 55.5q51 98 100.5 191t92.5 184q14 0 22 -15q-16 -33 -30.5 -62.5t-24.5 -51.5q-12 -27 -25 -52q20 35 37 62.5t31 54.5q27 -4 49.5 -19.5t28.5 -37.5q4 -10 -4.5 -23.5t-12.5 -29.5q0 -6 -11 -27 t-22.5 -44.5t-18.5 -41t-3 -12.5q4 4 14.5 20t21.5 37.5t22.5 45.5t21.5 40q2 -23 11 -31q5 -4 5 -13q0 -8 -4 -18q-2 -4 -8 -17t-13.5 -28.5t-13.5 -29t-6 -17.5q-33 -63 -72.5 -138t-80.5 -155v-2q-14 -25 -26.5 -49t-25.5 -49q0 2 2 2q-16 -29 -29.5 -56.5t-23.5 -47.5 l-2 -2q-47 -94 -83 -177t-50 -143q-10 -45 -15 -75.5t-7.5 -56.5t-1.5 -52.5t1 -63.5q-8 -2 -17 -2t-19 -2h-7q-16 -1 -29 7q-16 10 -27 27t-17 38.5t-10 44.5q-8 53 -9 123q6 39 15.5 86t25.5 106q16 66 43 135.5t60 141.5q-47 -70 -92.5 -132.5t-75.5 -96.5 q-41 -41 -95.5 -107t-114 -128t-120.5 -107.5t-113 -47.5q-37 14 -65 35q-25 16 -46.5 39t-25.5 49q-8 26 -8 67v17q2 47 12 122t41 185q29 102 78 214t107.5 227.5t121 231.5t117.5 226.5t98 213t62 190.5q-104 -170 -217 -309q-49 -59 -104.5 -116.5t-116 -105t-123 -79 t-125.5 -39.5q-8 -1 -15 -1q-36 0 -62 16q-32 20 -54 48q-25 31 -41 74zM-61 6q0 -53 6 -90q-3 24 -3 51t3 56q4 47 16 110.5t41 132.5q16 41 45 99.5t64 121.5q39 74 78.5 149t74.5 134q39 70 76 135q-84 -125 -156 -243q-31 -51 -62.5 -105.5t-59 -108t-49 -102.5 t-33.5 -88q-25 -80 -33 -143.5t-8 -108.5zM539 -166q0 -53 8 -90q-2 24 -2 51t2 55q4 47 15 111t40 133q16 41 44 99.5t61 121.5q39 74 78.5 149t74.5 134q39 70 76 135q-84 -125 -156 -244q-31 -51 -61.5 -105t-58 -107.5t-48 -102.5t-32.5 -88q-25 -80 -33 -143.5 t-8 -108.5z" />
<glyph unicode="V" horiz-adv-x="899" d="M-551 768q29 -16 59 -25q27 -8 58 -9t59 14q29 14 48.5 33.5t31.5 35.5q14 20 23 41q-20 -27 -43 -49q-20 -18 -46 -34.5t-55 -20.5q-14 -2 -27 -2q-19 0 -39 4q-32 6 -55 14q20 2 50 10t69 34t86 72t101 126q70 102 111.5 211.5t64.5 201.5q25 109 35 211l16 -4l12 -4h4 v2l4 -6l39 -12q6 -39 15 -84q6 -39 12 -91.5t14 -111.5q2 -72 4 -143q2 -63 4 -137t2 -144q-6 -156 -10 -299q-2 -61 -2 -123.5t1 -121t3 -109.5t8 -86q20 -141 50 -230.5t67 -111.5q33 -20 60 -17q12 0 22 7q39 96 76 182q31 74 63.5 146.5t53.5 113.5q37 76 55 110 q10 20 16 31l-41 -71q-18 -33 -39.5 -74t-39.5 -82q-20 -43 -47 -102.5t-52 -112.5q-29 -63 -61 -131q-8 -4 -17 -4q-16 0 -10 16q2 10 24.5 61.5t49.5 108.5q31 68 70 150q-12 -23 -31 -54q-16 -27 -37 -65.5t-45 -89.5q-18 -37 -30.5 -56.5t-22.5 -29.5t-17 -15 q8 41 21 88q10 41 25.5 90.5t33.5 98.5q49 129 120 285.5t161 316.5q90 162 186 306t178 251.5t137.5 171t65.5 63.5q8 0 22.5 -10t28.5 -20q16 -14 33 -31l53 4q-31 -14 -67 -49q-33 -29 -76 -80t-94 -133q-27 -43 -49.5 -81t-40.5 -71q94 135 161.5 214t112.5 122 q53 51 86 70l53 -14q-31 -49 -59 -103q-25 -47 -49.5 -102t-38.5 -109q-6 14 -13 33q-6 25 -0.5 54.5t15.5 52.5q16 41 32.5 68.5t32.5 45.5q18 23 35 37q-12 -2 -24 -8q-10 -6 -24.5 -16.5t-29.5 -28.5q-16 -18 -29.5 -36.5t-23.5 -33.5q-12 -16 -22 -31q-29 -37 -70 -94 t-89 -126.5t-99.5 -146.5t-98.5 -149.5t-86 -137t-63 -109.5q-23 -41 -49.5 -95.5t-55 -115t-59.5 -124t-57 -122.5q-68 -141 -136 -293q-16 0 -37.5 2t-44 8t-42 16.5t-29.5 26.5q-20 25 -43 74q-18 41 -41 113.5t-41 185.5q-19 104 -23 226q-2 65 -2 131q0 59 2 120 q4 129 11.5 261t10.5 256q1 46 1 91q0 73 -3 143q-5 110 -26 199q-20 -201 -65 -372q-18 -74 -45 -150t-61 -144.5t-78 -123.5t-97 -88q-34 -22 -66 -22q-5 0 -10 1q-37 4 -67 21q-37 18 -68 49z" />
<glyph unicode="W" horiz-adv-x="1476" d="M-303 1120q16 -23 37 -41q16 -16 39.5 -28.5t52.5 -10.5t49.5 10.5t36.5 18.5q18 10 33 25q-27 -16 -51 -25q-23 -8 -49.5 -13t-49.5 3q-29 10 -50 26.5t-36 30.5q16 -6 42 -9q9 -1 19 -1q20 0 46 4q39 6 92 27.5t125 66.5q92 57 163.5 132t122.5 143q59 80 103 159 l10 -10l6 -6q2 -2 4 -2h2l7 -25q-4 -25 -13 -53q-6 -25 -15 -55.5t-20 -61.5q-12 -33 -35.5 -84t-45.5 -102q-27 -59 -58 -125q45 82 76 137.5t52.5 104.5t39 99t37.5 122l27 -21v-12v-13t2 -13q4 -12 7 -6t7 8q2 0 2 10q0 4 -2 10l33 -53l-43 -144q-20 -61 -44 -130.5 t-46 -125.5q-29 -66 -74 -156.5t-96 -193.5v-4q-12 -23 -23.5 -44t-21.5 -44l2 2q-12 -27 -24.5 -51.5t-20.5 -42.5l-2 -2q-41 -86 -71 -160t-42 -127q-10 -43 -13 -71.5t-5.5 -53t-1.5 -51.5t1 -63q5 -2 11 -2q22 0 59 24q39 27 108.5 94.5t178.5 206.5q72 102 122 179 t83.5 131.5t52 88t27.5 50.5q43 88 84.5 173t76.5 165q14 0 21 -13q-14 -29 -25.5 -56.5t-21.5 -47.5q-10 -25 -21 -45q16 31 30.5 57.5t27.5 48.5q23 -2 42 -16t23 -35q4 -8 -2 -20.5t-10 -26.5q0 -4 -9.5 -23.5t-18.5 -40t-16 -37t-3 -12.5t12 19.5t18.5 35t19.5 39 t17 35.5q2 -20 10.5 -26t2.5 -27l-7.5 -15t-11.5 -25.5t-11 -27t-7 -16.5q-27 -57 -59.5 -124.5t-67.5 -139.5l-2 -2q-10 -23 -21.5 -44.5t-21.5 -43.5l2 2q-12 -27 -24.5 -52.5t-20.5 -43.5h-2q-39 -86 -69 -161t-42 -128q-2 -6 -3 -11.5t-1 -11.5q-16 -49 -20.5 -86 t-2.5 -59q2 -27 9 -45q9 -12 29 -12q14 0 32 6q39 10 112.5 56t198.5 155q59 53 95 95t57 73q23 37 35 63q-10 -20 -35 -55q-23 -29 -66 -75t-121 -114q-94 -82 -154.5 -120.5t-97 -52t-54 -9.5t-25.5 8q10 -4 29.5 2.5t60.5 30.5q45 29 114.5 85t155.5 154.5t182.5 248 t192.5 364.5q96 217 143 369.5t66 251.5q19 94 19 162q0 15 -1 28q-76 -43 -139 -111q-27 -29 -53.5 -66.5t-48 -85.5t-37 -105.5t-19.5 -125.5q-5 -43 -5 -75q1 -31 5 -51q10 -42 25 -58q18 -20 45 -18q-33 -29 -66 -41q-29 -10 -58.5 -8t-51.5 36q-23 35 -28 105 q-1 19 -1 39q-1 54 9 116q14 85 48.5 173t92.5 159q57 72 113.5 106t103.5 46q37 10 72 10q15 0 30 -2q-4 -20 -6 -37q-2 -14 -1 -27.5t7 -19.5q10 -14 7 -28.5t-5 -30.5t-9 -58.5t-22 -119.5q-8 -41 -25.5 -99.5t-35.5 -113.5l-45 -136q27 55 49 111q20 47 42 102.5 t34 104.5q23 100 29 168q4 37 4 71q8 -4 14 -12q4 -8 8 -21t2 -38q-4 -25 5.5 -46.5t21.5 -37.5q14 -20 33 -37q-31 -160 -97 -334q-55 -150 -151 -335t-250 -371q-76 -92 -163 -175.5t-172 -145.5t-157.5 -100t-117.5 -40q-8 -3 -16 -3q-9 0 -17 4q-16 7 -28.5 20.5 t-20.5 29.5t-15 31q-10 23 -15 51.5t-7 54.5q-2 29 -2 60q4 35 12 76.5t21 95.5q14 59 35.5 121.5t50.5 127.5q-39 -63 -77 -120.5t-67 -87.5q-33 -37 -79 -97.5t-97 -117t-103.5 -98.5t-97.5 -44q-31 12 -55 29q-23 14 -41 33.5t-20 44.5q-6 27 -6 75q0 41 8 108t35 167 q35 137 106.5 292.5t149 312.5t144.5 303.5t89 266.5q-86 -154 -184 -280q-41 -53 -89.5 -106.5t-99.5 -96.5t-105 -72.5t-108 -37.5q-10 -2 -19 -2q-27 0 -47 13q-26 17 -44 40q-23 27 -35 65zM-10 145q0 -47 6 -82q-2 22 -2 46.5t2 50.5q4 43 13 99t32 120q14 37 37.5 89 t52.5 112q33 66 67.5 133t63.5 121q33 63 64 122q-70 -113 -131 -221q-27 -47 -53.5 -96t-49 -97t-41 -92t-28.5 -79q-20 -72 -26.5 -128.5t-6.5 -97.5zM507 44v-27q0 -52 3 -74h2q-2 14 -2 35q0 32 4 80q6 80 43 180q14 39 36.5 90t51.5 110q33 66 66.5 134.5t62.5 121.5 q33 63 64 121q-72 -113 -131 -221q-27 -47 -52.5 -96t-49 -96.5t-41 -91.5t-27.5 -81q-29 -111 -30 -185zM537 -66h2h-2z" />
<glyph unicode="X" horiz-adv-x="851" d="M-344 -125q16 -35 51 -49q22 -9 54 -9q11 0 22 1q47 4 119 51q20 12 62 56t98.5 107.5t123 138.5t133.5 151q86 96 171 185t151 161q78 82 150 155q-72 -66 -152 -143q-68 -66 -153 -152t-171 -182q-68 -74 -134 -150.5t-124.5 -142t-103.5 -112.5t-68 -62 q-53 -33 -88 -42t-57 -7q-25 2 -41 16l29 4q35 8 73 27q35 16 79 44t93 75q47 45 84 84t60 67q27 33 45 60q-47 -53 -94 -103q-41 -41 -86 -85t-80 -70q-41 -29 -79 -45.5t-52 -20.5q35 31 74.5 74t77.5 89t71 89t55 74q12 16 24.5 33.5t24.5 36.5q41 57 90.5 119.5 t102.5 127.5q-27 96 -52.5 191.5t-54 182.5t-61.5 164t-72 136q37 -190 41 -362q0 -18 1 -37q0 -56 -5 -115q-6 -78 -23.5 -150.5t-48 -136t-79.5 -108.5q-35 -33 -78 -38q-20 -2 -38 -2q-22 0 -44 3q-45 8 -90 27q35 -6 71 -7q31 0 66 6.5t63 28.5q29 23 44.5 44.5 t23.5 41.5q8 23 12 45q-12 -31 -33 -57q-16 -23 -40.5 -46.5t-53.5 -33.5q-37 -12 -73.5 -15t-63.5 -1q20 8 51 23.5t66 49t72.5 89t74.5 143.5q47 116 59 228q9 85 10 158q0 24 -1 46q-4 106 -25 207h21l14 -2q2 0 4 2v2l6 -4l45 -2q18 -35 41 -74q18 -35 42 -81t50 -99 q23 -57 46 -119q18 -53 40.5 -116.5t42.5 -127.5q20 23 40 44.5t40 43.5q125 135 254 254t236 206q106 88 177 138q67 48 80 47h1q20 -4 49 -32q14 -14 31 -33l57 -2q-35 -12 -80 -37q-39 -23 -94 -63.5t-125 -108.5q-74 -70 -125 -125q125 111 212 173.5t142 96.5 q66 37 105 52l55 -21q-43 -41 -82 -86q-35 -39 -70.5 -86t-60.5 -94q-4 10 -8 33q-2 23 9.5 48t25.5 46q23 35 46 57.5t44 38.5q23 18 43 29q-14 0 -29 -4q-27 -6 -63 -35q-18 -16 -36.5 -29.5t-33.5 -25.5q-16 -14 -31 -27q-35 -29 -89 -76t-118.5 -104.5t-133 -120 t-131 -122.5t-117 -113.5t-86.5 -90.5q-16 -18 -35 -39.5t-37 -44.5q14 -49 30.5 -104t34 -110.5t35 -109t35.5 -98.5q37 -88 74 -163q33 -66 72.5 -128.5t78.5 -86.5q14 -15 45 -15q1 0 3 1q30 1 61 11q33 12 63.5 34t47.5 57q16 33 17 58.5t-7 41.5q-8 20 -27 35 q10 -16 17 -37q4 -18 3 -43t-16 -55q-14 -31 -34.5 -49.5t-43 -28.5t-43 -14.5t-34.5 -6.5q25 4 58.5 18.5t55.5 61.5q12 27 12 53q0 8 -1 16q-5 34 -19 62q-16 33 -43 64q45 -2 82 -11q31 -8 56.5 -26.5t25.5 -50.5q0 -45 -20.5 -85t-54.5 -71t-78 -47q-39 -14 -79 -14h-10 v2q-23 0 -41 6t-30 14q-10 6 -25 19q-31 29 -85 94t-126 190q-51 92 -90 200.5t-74 225.5q-72 -86 -141.5 -173t-120.5 -152q-2 -4 -4 -5.5t-4 -5.5q-41 -51 -94.5 -91t-107.5 -64.5t-103 -29.5q-11 -1 -21 -1q-36 0 -61 14q-33 19 -43 33q-8 12 -8 21q0 12 14 22zM815 -416 h4h-4z" />
<glyph unicode="Y" horiz-adv-x="768" d="M-453 1008q18 -25 41 -47q18 -18 45 -34t60 -14q33 0 59.5 9.5t44.5 19.5q23 12 39 29q-33 -16 -63 -27q-29 -10 -58.5 -14t-56.5 6q-33 10 -56.5 29.5t-39.5 35.5q18 -6 48 -11q14 -2 31 -2q20 0 45 3q46 6 110.5 28.5t150.5 72.5q113 61 204 143t156 156q76 86 135 176 l11 -13l6 -6q2 -2 6 -2h2l6 -28q-10 -29 -20 -60q-10 -27 -23.5 -60.5t-30.5 -68.5q-16 -35 -46.5 -94t-63.5 -115q-37 -68 -80 -137q61 90 101 152.5t70 116t55.5 109.5t56.5 134l28 -20q-2 -6 -2 -15v-14t2 -16q2 -16 6 -8t11 10q4 0 4 12q0 6 -2 10l32 -59 q-33 -82 -65 -162q-29 -68 -62.5 -145.5t-66.5 -139.5q-31 -57 -78 -135t-100 -166q-35 -57 -52.5 -108.5t-15.5 -73.5q-12 -4 -25.5 9t-23.5 34.5t-17.5 51.5t-9.5 61q-1 6 -1 13q0 36 18 82q22 54 49 101q31 55 72 115q-47 -66 -84 -127q-31 -53 -55 -111q-20 -46 -20 -83 q0 -9 1 -17q4 -43 17.5 -75t28.5 -53.5t29.5 -31.5t20.5 -10q8 0 18.5 7t20.5 18l23 22q66 49 136 121t132.5 145.5t113 137t72.5 94.5q84 137 154.5 266t109.5 242q10 4 18.5 12t18.5 14q-8 -23 -25.5 -72t-41.5 -102q-16 -35 -48 -94t-65 -115q-37 -68 -80 -137 q61 90 101 152.5t71 116t56.5 109.5t56.5 134l28 -20q-2 -6 -2 -15q-4 -14 0 -30t7.5 -8t9.5 10q4 0 4 12q0 6 -2 10l35 -59q-31 -82 -66 -162q-29 -68 -63.5 -145.5t-67.5 -139.5q-39 -72 -100.5 -173t-130.5 -214l-2 -2q-14 -25 -28.5 -49.5t-29.5 -48.5q0 2 2 2 q-18 -29 -34.5 -56.5t-28.5 -48.5q0 -2 -2 -2q-53 -96 -96.5 -178t-63.5 -141q-16 -47 -23.5 -79t-10.5 -59.5t-5 -57t-6 -72.5q-18 -6 -35 -6q-21 0 -41 10q-14 6 -24.5 15t-18.5 17t-14 21q-3 16 -3 37t3 47q4 47 20.5 121.5t55.5 185.5q41 117 110.5 246t149.5 262 q-59 -66 -122 -130.5t-117 -115.5t-94 -78.5t-54 -19.5q-41 25 -76 77t-43 122q-1 9 -1 18q0 27 9 56q12 40 29 77q18 41 45 86q57 96 114.5 190.5t106.5 183.5t88 172t59 157q-117 -170 -241 -310q-53 -59 -113.5 -116.5t-124 -104.5t-129 -78.5t-129.5 -40.5q-8 -1 -15 -1 q-35 0 -60 17q-31 19 -50 48q-23 31 -35 74zM272 -94q-3 -26 -3 -49t3 -41q0 49 9 106q8 47 24.5 110.5t50.5 133.5q20 41 53 99.5t72 121.5q45 74 91 148.5t85 134.5q45 70 88 135q-94 -125 -176 -244q-35 -51 -70.5 -105.5t-67.5 -107.5t-57.5 -102t-39.5 -88 q-31 -80 -44.5 -143.5t-17.5 -108.5z" />
<glyph unicode="Z" horiz-adv-x="468" d="M-686 -56q-1 6 -1 12q0 26 13 64q14 41 47 79t81 67t108 42q37 8 80 8q26 0 53 -3q35 -2 69 -12q8 14 15.5 24.5t13.5 20.5q10 16 21.5 33.5t21.5 35.5q29 45 60.5 92.5t66.5 96.5l133 182q12 16 24.5 33.5t29.5 34.5q78 98 158.5 189t158.5 171q-59 29 -107.5 64.5 t-83.5 64.5q-41 35 -71 70q-57 45 -101.5 75.5t-109.5 49.5q-41 10 -78 11h-10q-30 0 -58 -5q-32 -6 -58 -16.5t-42 -18.5q38 33 98 49q38 10 72 9q20 0 39 -3q51 -6 99 -30.5t85 -51t59.5 -49t26.5 -24.5q-57 76 -128.5 120t-166.5 50q-25 2 -55.5 -2t-61 -15.5t-58 -30 t-46.5 -45.5q-1 7 -1 13q0 37 20 67q24 35 61 59.5t77 39t69 18.5q13 1 26 1q49 0 109 -17q86 -27 143 -86.5t111 -128.5q27 -35 51 -66q23 -27 47.5 -54.5t46.5 -43.5q10 -8 19.5 -15.5t19.5 -13.5q66 68 124 123t102 95t72 62.5t34 22.5q10 0 23.5 -6t27.5 -16 q16 -10 33 -23l35 6q0 -4 2 -6q-29 -16 -96.5 -67.5t-166.5 -161.5q-20 -23 -37.5 -43.5t-33.5 -38.5q6 0 8 -2q139 139 223 206.5t123 92.5h8q8 -2 25.5 -10.5t31 -26.5t17.5 -48q1 -6 0 -13q0 -27 -12 -64q-14 -41 -47 -79t-80 -66q-46 -28 -108 -42q-38 -9 -80 -8 q-26 0 -54 3q-10 2 -18.5 3t-16.5 3q-59 -63 -123.5 -132t-123 -134.5t-107.5 -123t-80 -96.5q-8 -8 -14 -16t-11 -16q-12 -14 -22 -27.5t-23 -30.5h2l-65 -92q-43 -59 -86 -121.5t-84 -118.5q59 -29 106.5 -63.5t81.5 -63.5q39 -35 72 -69q55 -47 101 -78t112 -49 q41 -10 78 -10t68.5 6t57 15t44.5 20q-39 -33 -99 -49q-44 -11 -83 -11q-15 0 -29 2q-53 8 -101.5 32t-85 50.5t-60 49t-25.5 26.5q57 -78 129.5 -122t169.5 -48q25 -2 54 2t59 14.5t57.5 28.5t48.5 45q1 -6 1 -12q-1 -36 -21 -67q-24 -36 -60.5 -60.5t-77.5 -38.5t-68 -16 q-14 -1 -28 -1q-52 0 -107 17q-86 27 -144.5 86t-109.5 127q-25 35 -49 67q-23 29 -48.5 55.5t-47.5 43.5q-8 6 -15.5 11t-13.5 11q-10 -12 -18 -24.5t-15 -22.5q-2 -4 -4 -6t-4 -6q-37 -53 -87 -98t-101 -77q-52 -32 -100 -46q-27 -7 -48 -7q-18 0 -32 5q-35 10 -45.5 21 t-10.5 22q0 10 13 18q20 -25 55 -33q9 -2 21 -2q23 0 54 8q46 12 113 66q23 16 67 71.5t103 133.5q-4 2 -7 4t-7 4q-59 -78 -105.5 -133t-68.5 -74q-51 -39 -84 -53t-55 -16q-25 -4 -41 6l28 10q35 14 72 37q33 20 73 54t85 83q25 25 45 48.5t37 43.5q-6 2 -7 4 q-37 -41 -73.5 -82t-69.5 -69q-35 -33 -71.5 -54.5t-51.5 -27.5q47 47 100.5 117.5t96.5 136.5q-59 13 -108 13q-12 0 -24 -1q-58 -4 -104 -25q-29 -12 -64.5 -33.5t-63.5 -51.5q-28 -31 -40 -69q-5 -17 -5 -34q0 -23 9 -47q-4 18 -2 39q2 16 7.5 37.5t21.5 44.5 q18 27 41 43l-10 -10l10 10q-12 -23 -20 -45q-8 -20 -12.5 -42t-0.5 -42t11.5 -31.5t11.5 -17.5q6 -8 12 -9l-12 -30h-2q-2 0 -4 2q-8 2 -25.5 10t-31 25.5t-17.5 47.5zM-162 180q2 0 2 -1t4 -1q14 20 25.5 36.5t19.5 27.5q8 12 15 22q-8 -12 -19 -24q-10 -10 -21 -26.5 t-26 -33.5zM-141 172q12 -4 14 -6q43 53 88 111.5t90 117.5q80 100 157 195.5t138 171.5q72 88 137 166q-68 -74 -141 -156q-63 -72 -140 -164t-155 -192q-47 -61 -96 -124t-92 -120zM584 1053l6 6l6 6q-4 -6 -12 -12zM688 1096q37 -6 69 -6q19 0 37 2q46 6 85 22 q29 12 63.5 33.5t62 52.5t41.5 70q6 17 5 35q0 23 -9 47q4 -18 2 -39q-2 -16 -7 -39t-19 -43q-23 -31 -43 -43q4 2 8 10l-8 -10q12 20 20 43q8 18 12.5 40.5t0.5 43.5q-10 35 -19.5 45t-13.5 12q-10 -6 -20.5 -13t-20.5 -18q-18 -16 -34.5 -33.5t-31.5 -29.5l-28 -29 q-29 -27 -67 -66.5t-85 -86.5z" />
<glyph unicode="[" d="M-82 -231l84 102l84 6v8l-66 4l33 17h29l-8 28q78 418 141 762q27 147 53.5 292t49 264.5t38 204.5t21.5 114q10 55 25.5 96t31.5 68l-100 -4l-55 -21l83 102l132 13l-113 8l31 14l151 -2l4 2v-2l301 -6l-18 21h12q2 0 4 -3.5t6 -3.5q20 4 33 -4t31 -12q6 0 13 1t14 -1 q25 -10 53 -20h2h-72l-295 6l365 -21l-15 -41l-458 -20q-8 -23 -15 -64l-19 -85.5t-37.5 -172t-51.5 -234.5t-59.5 -272.5t-63.5 -289t-62.5 -279.5t-54 -247.5t-43.5 -192.5l371 -6l-23 20q8 0 13 -2q2 0 4 -2t6 -2q18 4 31.5 -4t31.5 -12q6 0 13.5 1t11.5 -3 q16 -6 28.5 -10.5t28.5 -8.5l2 -2h-71l-293 8l358 -22l-14 -39l-522 -25l-7 -24l-6 24l-125 -6zM131 -117v-2l2 2h-2zM377 1309l104 430l-22 -2z" />
<glyph unicode="\" horiz-adv-x="741" d="M-711 1686l88 -5l490 -495l-451 489q33 -14 72 -39q35 -23 79 -60.5t97 -94.5q27 -29 105.5 -117t190.5 -212t246 -272.5t271 -297.5q319 -352 711 -783l102 -207q-485 508 -878 920q-168 174 -331 345t-296 310.5t-222 233.5t-110 117q-41 43 -71.5 74.5t-51.5 52.5 q-25 23 -41 41z" />
<glyph unicode="]" d="M-96 -188h71l293 -7l-362 21l14 41l457 20q8 23 14 64q4 18 19.5 85.5t38 172t51 234.5t59.5 272.5t63.5 289t62.5 279.5t54.5 248t42.5 192l-370 7l22 -21q-8 0 -12 2q-2 0 -4 2t-6 2q-18 -4 -31.5 4.5t-32.5 12.5q-6 0 -13 -1t-11 3q-16 6 -28.5 10t-29.5 8l-2 2h72 l293 -8l-359 22l15 39l522 25l6 25l6 -25l127 6l58 21l-86 -103l-84 -6v-8l65 -4l-33 -17h-28l8 -28q-78 -418 -141 -762q-27 -147 -53.5 -291.5t-49 -264.5t-38 -206t-21.5 -113q-10 -55 -25.5 -96t-32.5 -67l101 4l55 20l-84 -102l-131 -13l113 -8l-31 -14l-152 2l-4 -2v2 l-301 6l19 -20h-13q-2 0 -4 3t-6 3q-20 -4 -32.5 4t-28.5 12q-6 0 -13.5 -1t-13.5 1q-25 10 -53 21h-2zM438 -111l23 2l82 428zM786 1745h2v2z" />
<glyph unicode="^" horiz-adv-x="532" d="M227 1139l4 2l205 241l101 23q29 -80 51 -143q20 -53 36.5 -99.5t20.5 -48.5q0 -2 -27 2l-28 4l-47 51l-74 177l-170 -181l-10 4l45 39z" />
<glyph unicode="_" horiz-adv-x="888" d="M-39 -29q8 -2 19 -2q10 0 22 -1t31 1h149q92 -2 211 -2h228q127 0 256 -2l-60 -41q-111 -4 -217 -10q-92 -4 -193.5 -9t-177.5 -9q-47 -2 -79.5 -3.5t-43.5 -1.5q-25 -2 -43 2.5t-32 10.5q-16 6 -29 14l207 6h2h-2l-219 8z" />
<glyph unicode="`" horiz-adv-x="409" d="M-59 1462l8 39l196 -119l-139 109q14 2 33 2q16 0 34.5 -1t41.5 -3q45 -47 84 -90t84 -88q4 -4 5 -8.5t5 -8.5q20 -23 39.5 -42t38.5 -42q8 -10 16 -17t14 -15q2 -2 14.5 -16.5t27 -30t26.5 -30t14 -16.5q-2 -2 -16 9.5t-32.5 26t-36 27.5t-25.5 17q-18 6 -46 22.5 t-61 39t-69.5 48t-73.5 52.5q-84 61 -182 135z" />
<glyph unicode="a" d="M-54 286q5 84 42 183q35 98 85 161.5t95 104.5q53 45 106 72q20 2 43 2q18 -2 41 -6t41 -19q19 -16 25 -65q4 -36 5 -70q0 -12 -1 -24q35 59 66.5 100t48.5 61l7 -5t15 -11t15.5 -12t7.5 -8q0 -4 -1 -6.5t-1 -6.5v-8q2 2 4 2l12 -4q6 -4 10 -6t9 -6q4 -4 13 -14.5 t17 -20.5q-4 -4 -18.5 -21.5t-14.5 -23.5q0 -4 -12 -23.5t-28 -42.5q-18 -27 -39 -59q-27 -45 -52 -92q-23 -41 -44 -88t-35 -90q-29 -88 -35 -129t0 -41q4 0 25.5 24.5t53 64.5t68.5 90t72 101t60.5 96.5t41.5 79.5q20 39 35 74q6 4 14 4q19 0 19 -31q0 -12 -22 -53 q-24 -45 -61.5 -105.5t-83.5 -129t-91 -129t-82 -101.5t-55 -47q-29 -10 -48.5 -4t-35.5 19q-18 14 -31 34q-4 20 -2 58q2 31 11 80t32 120l-215 -325l-96 16q-25 59 -33 133q-5 39 -5 86q0 29 2 61zM-6 92q0 -16 2 -30.5t6 -24.5q4 -12 10 -23l11 6q-4 12 -9 25 q-4 10 -6 21.5t-4 21.5t-1 26.5t1 32.5q0 20 2 43q-2 -16 -6 -32q-4 -14 -6 -32q-1 -9 -1 -17.5t1 -16.5zM21 178q-1 -27 -1 -48q0 -35 3 -54q4 -35 6 -45q2 -8 4 -13l14 15q-8 31 -12 71q-2 18 -2 39t2 45q4 50 22 113q16 61 45 119.5t58 103.5q33 53 65 99 q-35 -35 -67 -76q-29 -35 -56.5 -83t-44.5 -102q-33 -112 -36 -184zM62 117q0 -7 -1 -14q0 -34 7 -35h1q7 0 37 42q32 44 75.5 104t85.5 123.5t67 100.5q14 33 27.5 62.5t29.5 58.5q0 20 1 49t1 54.5t-2 45t-8 25.5q-2 2 -6 2q-7 0 -23 -10q-22 -14 -51 -46t-63.5 -78 t-69.5 -101q-37 -55 -59.5 -129t-34.5 -140.5t-14 -113.5zM350 127q12 57 33 115q16 49 41 108.5t57 112.5q33 53 59.5 93t47.5 67q23 31 41 51q-37 -18 -72 -59.5t-62.5 -87.5t-47 -87t-25.5 -55q-31 -72 -45.5 -120t-20.5 -79q-6 -29 -6 -49v-10z" />
<glyph unicode="b" horiz-adv-x="718" d="M-123 57q-3 14 -3 32.5t3 41.5q4 41 18.5 104.5t49.5 159.5q31 88 81 185.5t108.5 197t120.5 199.5t117.5 196.5t98.5 184.5t66 166q-49 -98 -107 -181q-49 -72 -116.5 -136t-143.5 -83q-14 -4 -27 -4q-21 0 -37 12q-26 18 -43 42q-20 29 -30 69q14 -23 35 -41 q16 -16 38.5 -29.5t51.5 -11.5q29 0 50 7.5t38 17.5q18 10 35 24q-27 -14 -54 -22q-23 -8 -49 -11t-49 5q-29 10 -50.5 25.5t-33.5 29.5q16 -6 43 -9t61.5 1t77.5 19.5t90 45.5q53 35 93.5 82t68.5 88q33 49 56 101l10 -11l2 -2q0 -2 2 -4t6 -2h2l4 -24q-8 -25 -16 -52 q-8 -23 -20.5 -53.5t-26.5 -58.5q-14 -31 -41 -81t-56 -99q-33 -57 -69 -119q53 78 88 131t60.5 100t48 96.5t49.5 116.5l26 -20q-2 -6 -2 -13q-4 -12 0 -24q2 -14 5 -7t9 9q4 0 5 8q0 4 -3 10l29 -51q-29 -72 -57 -139q-25 -59 -54.5 -126t-58.5 -120 q-41 -78 -110.5 -190.5t-141.5 -233.5q27 31 60.5 65t66.5 63.5t59.5 50t41.5 20.5q3 1 7 0q23 0 58 -21q14 -18 25 -49q4 -16 3 -47t-5 -66.5t-11.5 -73.5t-15.5 -67q-10 -29 -18.5 -50t-14.5 -34l-12 -24q14 23 31 53q12 27 27.5 63.5t25.5 88.5q12 58 12 98q0 14 -1 24 q-5 46 -13 64q23 -20 29 -39q4 -16 5 -47t-1 -60q-2 -35 -6 -73q6 43 12 80q4 33 7 62.5t-1 43.5q0 2 -2 2q25 -23 36 -77q4 -22 4 -47q0 -36 -9 -79q-27 -109 -88.5 -208t-133 -173.5t-144.5 -115.5q-59 -33 -102 -33q-11 0 -20 2q-43 8 -63 66q-8 25 -8 58q0 46 16 107 q16 63 48 93t67 41q26 8 55 8q14 0 29 -2q-78 -80 -113 -142.5t-42 -106.5q-3 -21 -4 -37q0 -19 5 -31q8 -24 16 -23h4q53 0 103 52q52 54 94.5 135t74.5 175t47 174q12 63 12 109q0 12 -1 24q-4 51 -29 50h-2q-29 -2 -73.5 -39t-89.5 -80q-53 -53 -111 -117 q-47 -82 -85 -153.5t-54 -122.5q-12 -41 -19.5 -69t-10.5 -52.5t-5 -49t-4 -61.5q-16 -6 -30 -6h-6q-16 2 -32 8q-23 12 -37 29q-8 8 -12 18zM-29 47q0 43 9 92q6 41 21 96.5t44 114.5q16 37 45 87t64 106q39 63 77.5 127.5t73.5 117.5q37 61 76 117q-82 -109 -152 -211 q-31 -43 -61.5 -91t-58 -94t-50 -88t-34.5 -77q-27 -70 -38.5 -124t-15.5 -93q-2 -22 -2 -42t2 -38z" />
<glyph unicode="c" horiz-adv-x="565" d="M-72 179q0 81 22.5 176.5t65.5 184.5t104.5 161.5t141.5 105.5q20 2 43 2q18 -2 41 -6.5t41 -18.5q6 -4 15.5 -19t13.5 -32.5t-3 -32t-32 -16.5q0 39 -10 49q-8 6 -28.5 -8t-50.5 -46t-64.5 -78t-69.5 -101q-31 -49 -56.5 -110.5t-41.5 -123.5q-15 -64 -19 -120 q-1 -14 -1 -27q0 -39 9 -66q2 -4 3 -5t3 -5t2 -6q7 -2 15 -2q30 -1 74 31q54 40 116 103.5t125.5 140.5t114.5 142.5t83.5 108.5t35.5 41l20 -31q-61 -84 -127 -165q-55 -70 -119.5 -147t-124.5 -134q-72 -71 -140 -107q-61 -33 -94 -32h-7q-51 6 -76 59t-25 134zM-18 92 q0 -18 4 -34.5t8 -26.5l4 -8q4 -8 8 -11q2 -2 10 -6q4 -2 7 -2q-4 2 -7 6q-4 4 -8 19q-10 25 -14 59q-2 10 -1 26.5t1 32.5v43q-4 -16 -6 -32q-4 -14 -5 -31.5t-1 -34.5zM9 178q-1 -31 -1 -54q0 -31 2 -48q2 -6 2 -12.5t2 -10.5q2 -8 5.5 -19t9.5 -18q8 -8 14 -8h6 q-2 2 -4 6t-5 7.5t-5 11.5q-4 12 -4 20q-5 29 -9 93q0 7 -1 14q0 59 24 141q16 61 45 119.5t57 103.5q33 53 66 99q-35 -35 -68 -76q-29 -35 -56.5 -83t-43.5 -102q-33 -112 -36 -184z" />
<glyph unicode="d" horiz-adv-x="655" d="M-65 286q6 84 42 183q35 98 85.5 161.5t95.5 104.5q53 45 106 72q20 2 43 2q18 -2 40 -6t40 -19q14 -10 20.5 -35.5t8.5 -56.5q61 109 130.5 220.5t133 219t114 207t74.5 185.5l-2 -2l2 6q0 4 -3 11t-7 7q-10 4 -46 -10t-103 -76q-35 -33 -55.5 -59.5t-32.5 -46.5 q-14 -23 -21 -43q10 20 29 45q33 47 98 108q33 31 58.5 47.5t41.5 22.5q20 8 33 6q-4 -2 -34.5 -19.5t-71.5 -52t-84 -86t-72 -118.5q-31 -68 -41 -117t-10 -82q0 -37 8 -64q-25 6 -47 23q-20 14 -39.5 41t-30.5 74q-3 12 -3 25q1 35 21 77q28 57 73.5 112.5t101 99.5 t100.5 67q39 18 65 27q28 9 44 11q8 1 14 1.5t10 -1.5q8 -2 10 -4v2l3 -2l2 -2q0 -2 2 -4t6 -2h2l4 -24q-8 -25 -16 -52q-8 -23 -20.5 -53.5t-27.5 -58.5q-16 -31 -42.5 -81t-55.5 -99q-33 -57 -67 -119q53 78 87.5 131t60.5 100t48.5 96.5t48.5 116.5l25 -20q-2 -6 -2 -13 q0 -16 2 -24q2 -14 5 -7t9 9q2 0 2 8q0 4 -2 10l31 -51q-29 -72 -57 -139q-25 -59 -54.5 -126t-58.5 -120q-25 -47 -63.5 -112.5t-84 -138t-91.5 -149.5t-87 -148.5t-72.5 -134t-45.5 -107.5q-29 -88 -37.5 -141.5t-1.5 -51.5q25 4 62.5 39t79.5 86t85 114.5t80 123 t65.5 110.5t40.5 80q4 4 13 4q14 0 20 -29q2 -10 -22.5 -57t-64.5 -110.5t-91 -135t-101.5 -131t-94.5 -97.5q-42 -36 -69 -36h-3q-23 2 -38.5 -1t-29.5 3q-23 12 -37 29q-8 8 -12 18q-2 14 -2 39q0 23 4 56.5t16 83.5l-161 -246l-97 16q-25 59 -32 133q-5 36 -5 79 q0 32 3 68zM-18 92q0 -16 2 -30.5t6 -24.5q4 -12 10 -23l10 6q-4 12 -8 25q-4 10 -6 21.5t-2 21.5q-2 10 -1 26.5t1 32.5v43q-4 -16 -6 -32q-4 -14 -5 -31.5t-1 -34.5zM9 178q-1 -31 -1 -54q0 -31 2 -48q2 -16 4 -27.5t4 -17.5q2 -8 5 -13l12 15q-10 31 -12 71q-2 16 -2 34 q0 22 3 50q5 50 21 113q16 61 45 119.5t57 103.5q33 53 66 99q-35 -35 -68 -76q-29 -35 -56.5 -83t-43.5 -102q-33 -112 -36 -184zM49 117v-17q0 -30 6 -32q4 0 24.5 25.5t50.5 65.5t63.5 88t64.5 93q4 14 8 26.5t8 28.5q41 115 109 234q0 37 -2 67.5t-10 36.5t-28.5 -8 t-49.5 -46t-63.5 -78t-71.5 -101q-35 -55 -58.5 -129t-36 -140.5t-14.5 -113.5zM303 47q0 43 8 92q6 41 21.5 96.5t44.5 114.5q14 31 36.5 71t48 84t54.5 91t57 92q66 104 140 217q-82 -109 -152 -211q-31 -43 -61.5 -91t-58 -94t-50 -88t-35.5 -77q-29 -70 -39 -124 t-14 -93q-2 -22 -2 -42t2 -38z" />
<glyph unicode="e" horiz-adv-x="522" d="M-70 179q0 81 22.5 176.5t65.5 184.5t104.5 161.5t141.5 105.5q20 2 43 2q18 -2 41 -6t41 -19q8 -8 12 -14q0 -2 1 -3t1 -3q25 -50 25 -97v-13q-4 -54 -28.5 -97t-61.5 -71q-37 -30 -74 -40q-17 -5 -32 -4q-18 0 -34 6q-30 12 -38 52q20 0 45 8q23 6 50.5 22.5t57.5 49.5 q6 6 17.5 21t24 35.5t22.5 42t16 40.5q1 -15 1 -30q0 -71 -30 -127q-38 -68 -124 -99q27 6 53 18q23 10 48.5 32t43.5 60q8 14 13 39t7.5 49.5t-2 48t-16.5 38.5q-2 2 -4 2q-8 8 -30.5 -9.5t-53.5 -52.5t-67.5 -84t-71.5 -104q-31 -49 -56.5 -110.5t-41.5 -123.5 q-15 -64 -19 -120q-1 -14 -1 -27q0 -39 9 -66q2 -4 3 -5t3 -5t2 -6q7 -2 15 -2q30 -1 74 31q54 40 116 103.5t125.5 140.5t114.5 142.5t84 108.5t35 41l20 -31q-61 -84 -127 -165q-55 -70 -119.5 -147t-124.5 -134q-72 -71 -139 -107q-60 -33 -95 -32h-7q-51 6 -76 59 t-25 134zM-16 92q0 -18 4 -34.5t8 -26.5l4 -8q4 -9 8 -11q2 -2 10 -6q4 -2 7 -2q-4 2 -7 6q-4 4 -8 19q-10 25 -14 59q-2 10 -1 26.5t1 32.5v43q-4 -16 -6 -32q-4 -14 -5 -31.5t-1 -34.5zM11 178q-1 -31 -1 -54q0 -31 2 -48q2 -6 2 -12.5t2 -10.5q2 -8 5.5 -19.5t9.5 -17.5 q8 -8 14 -8h6q-2 2 -4 6t-5 7.5t-5 11.5q-4 12 -4 20q-5 29 -9 93q0 7 -1 14q0 59 24 141q16 61 45 119.5t58 103.5q33 53 65 99q-35 -35 -68 -76q-29 -35 -56.5 -83t-43.5 -102q-33 -112 -36 -184z" />
<glyph unicode="f" horiz-adv-x="507" d="M-334 -406q2 41 11.5 104.5t37.5 160.5q25 86 67 178t91 188.5t103.5 193.5t103.5 189v-6l49 103q4 10 9 19t9 19h3v2q2 4 6 17q10 16 24.5 38.5t34.5 33.5l-6 -13q-12 -31 -37 -81t-49 -99l-60 -119q33 53 57.5 95t44 77t35 67t29.5 66l11 31l8 4q2 0 4 2q2 0 3 1t3 1 l4 2q2 2 2 4q8 0 8 -4q2 0 0 -1t11 -1q12 0 15 -1t3 -5q0 -2 1 -4t1 -6t2 -6h10l4 -10q-23 -96 -45 -173t-65 -167q-2 -4 -2 -6.5t-2 -6.5q18 0 49 1t64.5 5.5t67.5 10.5t60 16q33 12 56.5 27.5t40.5 27.5q18 15 30 29q6 -2 13 -8q6 -6 6 -13q0 -6 -4 -14q-6 -8 -19.5 -22.5 t-36 -29.5t-57.5 -29.5t-82 -20.5t-77.5 -9t-49.5 -3q-23 -2 -35 0q8 -33 8 -80q0 -36 -5 -81q-11 -102 -42.5 -216.5t-81 -230t-109.5 -205t-131 -136.5q-49 -32 -100 -32q-23 0 -46 6q-14 4 -23.5 11t-15.5 15q-8 8 -13 21q-6 22 -6 55v18zM-240 -410v-16q0 -35 7 -63 q-1 14 -1 29q0 30 3 63q4 41 14 96t37 115q12 31 31.5 70.5t43 83.5t50 91t51.5 93q59 104 125 217q-74 -109 -139 -211q-55 -88 -107.5 -184.5t-75.5 -166.5t-31 -124t-8 -93zM-212 -438q-2 -24 -2 -37q0 -14 3 -14q37 0 99 63q53 55 103 139t95 186.5t73.5 205t38.5 194.5 q4 33 4 62q0 53 -12 94q-39 -78 -96 -180.5t-113.5 -209t-102.5 -202.5t-62 -160q-23 -88 -28 -141z" />
<glyph unicode="g" horiz-adv-x="577" d="M-284 -472q-2 15 -2 31q0 35 10 73q16 57 49.5 115t83.5 106q47 47 90 61q33 11 62 11q8 0 16 -1q37 -4 71 -26q-104 -47 -196.5 -126t-139.5 -208q12 68 46 122t69 93q41 45 88 82q-25 -12 -49 -33q-23 -16 -48.5 -43t-53.5 -68q-35 -53 -45.5 -101t-10.5 -77 q-2 -10 -1 -18t3 -15v-2q9 -35 50 -35q4 0 10 1q49 4 116 73q23 23 51.5 59t59.5 81t59.5 95t51.5 103q25 61 45 123t36.5 119t27.5 105t18 83l-211 -321l-97 16q-25 59 -32 133q-5 39 -5 86q0 29 2 61q5 85 42 183t86 161.5t94 104.5q53 45 106 72q20 2 43 2q18 -2 41 -6 t41 -19q18 -16 23.5 -52t5.5 -77q0 -47 -6 -100l-35 -35q4 55 6 101q1 19 1 37t-1 34q-2 33 -10 41q-8 6 -29.5 -8t-50.5 -46t-63.5 -78t-69.5 -101t-58.5 -129t-36 -140.5t-14.5 -113.5t6 -49q4 -2 23.5 22.5t47.5 62t59.5 84t62.5 90.5t54.5 79.5t35.5 54.5l4 14l43 21 l23 8l30 -6q-35 -172 -76.5 -317.5t-103.5 -289.5q-10 -23 -19 -44t-20 -48q10 25 19.5 47.5t19.5 44.5q16 37 32.5 71t32 72t30 82t26.5 97q16 61 37.5 139t38.5 140l28 -7l-10 -50t-30.5 -127t-49 -172t-65.5 -187q-23 -55 -50.5 -105.5t-55 -93.5t-53 -76.5t-42.5 -54.5 q-45 -57 -88 -93t-78 -56q-41 -23 -78 -35q-28 -8 -55 -8q-8 0 -16 1q-33 3 -60 25q-35 27 -42 75zM-12 92q0 -16 2 -30.5t6 -24.5q4 -12 10 -23l10 6q-4 12 -8 25q-4 10 -6 21.5t-2 21.5q-2 10 -2 26.5v32.5q0 20 2 43q-2 -16 -6 -32q-4 -14 -6 -32q-1 -8 -1 -17t1 -17z M15 178q-1 -31 -1 -54q0 -31 2 -48q2 -16 4.5 -27.5t4.5 -17.5q2 -8 4 -13l12 15q-8 31 -12 71q-2 18 -2 39t2 45q4 50 22 113q16 61 45 119.5t58 103.5q33 53 65 99q-35 -35 -67 -76q-29 -35 -56.5 -83t-44.5 -102q-33 -111 -36 -184z" />
<glyph unicode="h" horiz-adv-x="749" d="M-106 57q-3 14 -3 32.5t3 41.5q4 41 18 104.5t49 159.5q31 88 81 185.5t108.5 197t121 199.5t117.5 196.5t98 184.5t66 166v-2v6q0 4 -3 11t-7 7q-10 4 -46 -10t-104 -76q-35 -33 -55.5 -59.5t-32.5 -46.5q-14 -23 -20 -43q10 20 28 45q33 47 99 108q35 31 59.5 47.5 t40.5 22.5q20 8 33 6q-4 -2 -34 -19.5t-71 -52t-84 -86t-73 -118.5q-29 -68 -40.5 -117t-11.5 -82q0 -6 -1 -11q0 -30 10 -53q-25 6 -47 23q-18 14 -39 41t-31 74q-3 12 -3 25q0 35 20 77q28 57 74 112.5t101.5 99.5t100.5 67q39 18 65.5 27t42.5 11q8 1 14.5 1.5t10.5 -1.5 q8 -2 10 -4v2q2 0 2 -2l2 -2q0 -2 2 -4t6 -2h2l5 -24q-8 -25 -17 -52q-8 -23 -20.5 -53.5t-26.5 -58.5q-14 -31 -41 -81t-55 -99q-33 -57 -70 -119q53 78 88 131t60.5 100t48 96.5t49.5 116.5l27 -20q-2 -6 -3 -13q-4 -12 0 -24q2 -14 5.5 -7t9.5 9q4 0 4 8q0 4 -2 10 l29 -51q-29 -72 -58 -139q-25 -59 -54.5 -126t-57.5 -120q-25 -47 -64 -112.5t-83 -138t-91 -149.5t-88 -148.5t-73 -134t-46 -107.5q-25 -76 -34 -126.5t-7 -62.5v-8q2 2 3 2t5 4q8 6 21.5 49t42.5 109.5t76 149.5t123 167q70 78 136 129.5t119.5 82t89 44t46.5 15.5 q4 4 8 4l20 -11l13 -8l-13 -14l21 10l16 -10h17v-21q-23 -18 -66 -77.5t-93 -143.5t-100.5 -183t-86.5 -195q-38 -97 -54 -183q-8 -44 -8 -79t8 -62l8 -17q5 -2 11 -2q30 1 69 45q47 52 98.5 136t100.5 183t90 185t65.5 142.5t26.5 54.5q20 -4 21 -29q-31 -70 -69 -157 t-80 -174t-88 -168.5t-93 -143t-94 -96.5q-38 -28 -74 -28q-8 0 -16 1q-44 6 -60 60q-14 45 -13 110v24q3 81 25.5 181t60.5 201.5t88 196t112 163.5q-96 -57 -173 -132t-137.5 -163t-105.5 -187t-80 -206q-20 -4 -39 -4q-16 0 -32.5 1t-26.5 7q-2 2 -4 3t-4 3 q-18 10 -33 29q-8 8 -12 16zM-13 72q1 -22 1 -25q0 4 1 29.5t7 67.5t21.5 95.5t43.5 110.5q14 31 37 71t48.5 84t54 91t57.5 92q66 104 139 217q-82 -109 -151 -211q-31 -43 -61.5 -91t-58.5 -94t-50.5 -88t-34.5 -77q-25 -68 -37 -121t-15 -91q-2 -28 -2 -48v-12zM287 -137 q-1 -8 0 -15q0 -12 1 -22q3 -16 7 -27l4 -8q4 -8 8 -10q2 -2 10 -6q4 -2 7 -2q-4 2 -7 6q-4 4 -8 18q-4 10 -7 27.5t-3 32.5q-2 10 -1 26.5t3 32.5q2 20 2 43q-4 -16 -8 -33q-4 -14 -6 -30.5t-2 -32.5zM315 -156q0 -16 2 -22q0 -8 3.5 -19.5t9.5 -17.5q10 -10 14 -10 q2 -1 3.5 -1t2.5 1q-2 2 -4 6l-4 8t-4 12h-2h2q-4 12 -4 21q-6 30 -6 64q0 40 8 82q14 80 41 161q12 39 33.5 88t45 98.5t45 94.5t34.5 75q-35 -61 -68 -123q-29 -53 -57.5 -115.5t-47.5 -115.5q-37 -111 -43 -183q-4 -54 -4 -86v-18z" />
<glyph unicode="i" horiz-adv-x="350" d="M-98 57q-3 14 -3 32.5t3 41.5q4 41 17 104.5t48 159.5q27 76 59.5 139.5t64.5 113.5t59.5 85t44.5 53l20 -16q8 -6 15.5 -12t7.5 -8v-21q2 2 4 2q-2 0 10 -4q6 -4 10 -6t8 -6t13.5 -14.5t17.5 -20.5q-4 -4 -18.5 -21.5t-14.5 -23.5q0 -4 -12 -23.5t-29 -42.5 q-18 -27 -39 -59q-27 -45 -51 -92q-23 -41 -44 -88t-36 -90q-29 -88 -37 -136.5t-2 -46.5q14 4 47 38t74 85t85 111.5t84 118t70 105.5t42 75q4 4 10 4q10 0 16 -27q2 -10 -23.5 -54t-67.5 -104.5t-93 -128t-99 -126t-87 -99.5t-58 -47q-18 -6 -33 -6q-9 0 -16 2 q-20 6 -37 19q-18 14 -30 34zM0 127q12 57 33 115q16 49 40.5 108.5t57.5 112.5t59.5 93t47.5 67q23 31 41 51q-37 -18 -72 -59.5t-62.5 -87.5t-47 -87t-25.5 -55q-31 -72 -45.5 -120t-20.5 -79q-6 -30 -6 -50v-9zM258 903q0 33 16.5 60.5t41 48t53 34t53.5 17.5h8 q19 -1 29 -9q12 -10 15 -28q1 -7 1 -14q0 -12 -3 -24q-5 -20 -11 -36q-12 -25 -23.5 -36t-38.5 -42q-23 -25 -34 -56.5t-15 -45.5q-16 16 -38 49q-20 30 -19 62v6q0 25 8 45t18 37q10 18 27 30q-18 -14 -33 -30q-12 -16 -22 -36t-10 -44q-2 -25 9 -48.5t25 -39.5 q16 -23 35 -39q-27 12 -47 35q-16 16 -30.5 42.5t-14.5 61.5z" />
<glyph unicode="j" horiz-adv-x="313" d="M-640 -474q-1 11 -1 23q0 38 13 81q16 57 51.5 115t84.5 108q49 47 94 60q34 10 60 10q8 0 16 -1q37 -6 72 -26q-106 -47 -201.5 -127t-144.5 -207q16 68 50 123t71 94q41 45 92 80q-25 -12 -49 -33q-23 -16 -51.5 -43t-57.5 -68q-37 -53 -48 -101t-13 -77q0 -23 2 -33 q9 -37 49 -37q4 0 9 1q48 4 118 73q23 23 53.5 58.5t62.5 81t62.5 95.5t55.5 103q18 45 39.5 99.5t43 114t42 119.5t38.5 116q43 131 86 270l33 27l25 71l43 21l24 8l29 -6q-10 -37 -20.5 -71t-21.5 -69.5t-24.5 -76.5t-29.5 -90q-31 -88 -64 -175t-63.5 -166t-60 -146.5 t-54.5 -117.5q27 51 53.5 101.5t52 106t51 117.5t54.5 142q12 33 32.5 94.5t42 127t41 126t29.5 91.5l27 -6q-61 -240 -119.5 -412t-118 -297t-120 -215t-121.5 -166q-47 -57 -92 -92t-80 -55q-41 -23 -78 -37q-29 -8 -55 -8q-45 0 -76 26q-33 27 -38 75zM186 903 q0 33 16.5 60.5t41 48t53 34t53.5 17.5h8q19 0 29 -9q12 -10 15 -28q2 -7 2 -14q0 -12 -4 -24q-5 -21 -11 -36q-10 -25 -22.5 -36t-38.5 -42q-23 -25 -33 -56.5t-14 -45.5q-16 16 -39 49q-21 30 -21 62v6q0 25 8.5 45t18.5 37q10 18 26 30q-16 -14 -30 -30 q-12 -16 -22.5 -36t-12.5 -44q-2 -25 9 -48.5t26 -39.5q16 -23 35 -39q-27 12 -48 35q-16 16 -30.5 42.5t-14.5 61.5z" />
<glyph unicode="k" horiz-adv-x="661" d="M-104 57q-3 14 -3 32.5t3 41.5q4 41 17 104.5t48 159.5q47 133 133 282.5t178.5 299t171 291t111.5 256.5v-2v6q0 4 -3 11t-7 7q-10 4 -46 -10t-104 -76q-35 -33 -55.5 -59.5t-32.5 -46.5q-14 -23 -20 -43q10 20 28 45q33 47 99 108q35 31 59.5 47.5t40.5 22.5q20 8 33 6 q-4 -2 -34 -19.5t-71 -52t-84 -86t-73 -118.5q-29 -68 -40.5 -117t-11.5 -82q0 -6 -1 -11q0 -30 10 -53q-25 6 -47 23q-18 14 -39 41t-31 74q-3 12 -3 25q0 35 20 77q28 57 74 112.5t101.5 99.5t100.5 67q39 18 65.5 27t42.5 11q8 1 14.5 1.5t10.5 -1.5q8 -2 10 -4v2l2 -2 l2 -2q0 -2 2 -4t6 -2h2l5 -24q-8 -25 -17 -52q-8 -23 -20.5 -53.5t-26.5 -58.5q-14 -31 -40.5 -81t-55.5 -99q-33 -57 -70 -119q53 78 88 131t60.5 100t48 96.5t49.5 116.5l25 -20q-2 -6 -3 -13q0 -16 3 -24q2 -14 5 -7t9 9q4 0 4 8q0 4 -2 10l29 -51q-29 -72 -58 -139 q-25 -59 -54.5 -126t-57.5 -120q-25 -47 -64 -112.5t-83 -138t-91 -149.5t-88 -148.5t-72.5 -134t-46.5 -107.5q-25 -76 -34 -126.5t-7 -62.5v-8q2 2 3 2t5 4q8 6 21.5 49t42.5 109.5t76 149.5t123 167q76 86 146.5 139.5t125.5 81.5q66 35 123 52l16 -35 q-104 -41 -189 -96.5t-153 -126.5q28 9 56 9q71 0 139 -56l37 -35l-62 -84l66 78q4 -2 6 -7q4 -10 2 -14q-4 -12 -10 -18q-4 -6 -9 -9q-31 -37 -70.5 -97t-80.5 -135t-79 -156t-63 -159q-26 -78 -36 -148q-4 -27 -3 -51q0 -39 9 -71l8 -16q5 -2 11 -2q30 0 69 44 q47 52 98 136t100.5 183.5t90.5 185.5t65.5 142t26.5 54q16 -2 20 -30q-31 -70 -68.5 -156t-79.5 -173t-88 -169t-93 -143q-46 -62 -94 -96q-39 -28 -75 -29q-8 0 -16 2q-47 9 -67 69q-15 45 -14 107q0 21 2 43q6 90 33.5 198.5t73.5 212t107.5 189.5t135.5 133 q-48 41 -94 44h-7q-44 0 -104 -38q-84 -102 -143.5 -222t-102.5 -253q-20 -4 -39 -4q-16 0 -32.5 1t-26.5 7q-2 2 -4 3t-4 3q-18 10 -33 29q-8 8 -12 16zM-11 72q1 -22 1 -25q0 4 1 29.5t7 67.5t21.5 95.5t43.5 110.5q14 31 37 71t48.5 84t54 91t57.5 92q66 104 139 217 q-82 -109 -151 -211q-31 -43 -61.5 -91t-58.5 -94t-50.5 -88t-34.5 -77q-25 -68 -37 -121t-15 -91q-2 -28 -2 -48v-12zM186 -375q-1 -7 -1 -14q0 -11 2 -21q3 -16 8 -26l4 -8q4 -9 8 -11q2 -2 10 -6q4 -2 6 -2q-4 2 -6 6q-4 4 -8 19q-4 10 -7 26.5t-5 30.5v27.5t2 34.5 q2 20 4 43q-4 -16 -8 -33q-4 -14 -6.5 -31.5t-2.5 -34.5zM215 -391q0 -16 2 -23q0 -8 3 -19.5t9 -17.5q10 -10 15 -10q2 -1 3.5 -1t2.5 1q-2 2 -4 6t-4 8.5t-4 12.5l-2 -2l2 2q-4 12 -5 20q-5 30 -5 63q0 40 8 83q14 80 40 162q12 39 34 88t45.5 98t45 94t33.5 76 q-35 -61 -67 -123q-29 -53 -57.5 -115.5t-47.5 -115.5q-39 -112 -44 -184q-4 -52 -4 -82q0 -12 1 -21z" />
<glyph unicode="l" horiz-adv-x="417" d="M-110 36q18 122 65 268.5t102 283.5q31 63 73 151t83 168q47 94 96 191q70 117 126.5 225.5t82.5 200.5l-2 -2l2 6q0 4 -3 11t-7 7q-10 4 -46 -10t-104 -76q-35 -33 -55 -59.5t-33 -46.5q-14 -23 -20 -43q10 20 29 45q33 47 98 108q33 31 58.5 47.5t41.5 22.5q20 8 33 6 q-4 -2 -34 -19.5t-70.5 -52t-83.5 -86t-74 -118.5q-31 -68 -41 -117t-10 -82q0 -37 8 -64q-25 6 -47 23q-20 14 -40 41t-30 74q-3 12 -3 25q1 35 21 77q28 57 73.5 112.5t101 99.5t100.5 67q39 18 65 27q28 9 44 11q8 1 14 1.5t10 -1.5q8 -2 10 -4v2l2 -2l2 -2q0 -2 2 -4 t7 -2h2l4 -24q-8 -25 -17 -52q-8 -23 -20 -53.5t-27 -58.5q-16 -31 -42.5 -81t-55.5 -99q-33 -57 -68 -119q53 78 88 131t60.5 100t48 96.5t49.5 116.5l25 -20q-2 -6 -2 -13q0 -16 2 -24q2 -14 5 -7t9 9q4 0 4 8q0 4 -2 10l29 -51q-29 -72 -58 -139q-25 -59 -54.5 -126 t-57.5 -120q-4 -10 -31 -66.5t-63.5 -137.5t-78.5 -173t-78 -173t-62.5 -138t-30.5 -68q-31 -66 -55.5 -130t-40 -123.5t-19.5 -110.5q-1 -15 -2 -28q0 -34 8 -60l8 -17q5 -2 11 -2q30 1 69 45q47 52 98.5 136t100.5 183t90 185t65.5 142.5t26.5 54.5q20 -4 21 -29 q-31 -70 -69 -154.5t-80 -170.5t-88 -166t-92 -141.5t-93 -98.5q-45 -35 -87 -35h-5q-74 2 -92 81q-9 40 -9 90t9 111zM-59 -137q-1 -8 -1 -15q0 -12 2 -22q3 -16 7 -27l4 -8q4 -8 8 -10q2 -2 10 -6q4 -2 6 -2q-4 2 -6 6q-4 4 -8 18q-4 10 -7 27.5t-5 32.5v26.5t2 32.5 q2 20 4 43q-4 -16 -8 -33q-4 -14 -6 -30.5t-2 -32.5zM-31 -156q0 -16 2 -22q0 -8 3.5 -19.5t9.5 -17.5q10 -10 14 -10q2 -1 3.5 -1t2.5 1q-2 2 -4 6l-4 8t-4 12h-2h2q-4 12 -4 21q-6 30 -6 64q0 40 8 82q14 80 41 161q12 35 30.5 80t40.5 92q47 100 91.5 198.5t76.5 172.5 q32 73 48 111q10 25 11 26l-3 -6q-6 -12 -33 -66.5t-61.5 -127t-72.5 -150.5t-69 -140q-53 -111 -91 -231q-31 -100 -31 -201q0 -22 1 -43z" />
<glyph unicode="m" horiz-adv-x="1169" d="M-113 131q4 41 18.5 104.5t49.5 159.5q27 76 59.5 139.5t64.5 113.5t58.5 85t42.5 53q12 -8 23 -16q8 -6 15 -12t7 -8q0 -4 -1 -6.5t-1 -6.5v-8q2 2 4 2t11 -4l12 -6t8 -6t13.5 -14.5t17.5 -20.5q-4 -4 -18.5 -21.5t-14.5 -23.5q0 -4 -12.5 -23.5t-28.5 -42.5 q-18 -27 -39 -59q-27 -45 -51 -92q-23 -41 -44.5 -88t-35.5 -90q-23 -70 -33 -114t-8 -60q-2 -8 -2 -23q31 76 80 164q41 74 103.5 170t150.5 201q86 104 160.5 171.5t130.5 108.5q66 47 116 74q12 -10 21 -19l14 -14t6 -8q-2 -2 -2 -12q0 -4 -2 -9q2 2 4 2t11 -4q6 -6 9 -8 t7 -6t12 -15.5t17 -21.5l-20.5 -20.5t-16.5 -20.5t-15.5 -21.5t-31.5 -39.5q-20 -25 -45 -56q-33 -43 -62 -86q-25 -37 -51.5 -83t-44.5 -87q-31 -68 -44 -110.5t-15 -59.5q-2 -8 -2 -20q0 2 22.5 39t61 92t90 119.5t108.5 118.5q45 43 92 77.5t88 61.5t74 44t51 28 q12 8 21 10l20 -10l13 -11l-15 -12l23 10l16 -10h17l-3 -20q-23 -18 -65.5 -78t-91.5 -144t-99.5 -183t-86.5 -195q-38 -97 -54 -183q-8 -44 -8 -79t8 -62q2 -4 2 -7t2 -5q0 -4 2 -4q5 -2 11 -2q30 0 69 44q47 52 98.5 136t101.5 183t90 185t65.5 142.5t27.5 54.5 q18 -4 19 -31q-31 -70 -68 -155.5t-80 -173t-88 -169t-92 -143t-94 -96.5q-38 -28 -74 -28q-8 0 -16 1q-44 6 -60 60q-14 45 -13 110v24q3 81 25.5 180t59.5 200.5t88 196t111 163.5q-39 -27 -83 -60.5t-87 -74.5q-57 -55 -107.5 -120.5t-91.5 -125.5q-47 -68 -88 -137h-23 q-16 -4 -28 0q-18 4 -31.5 14.5t-24.5 20.5q-10 12 -18 29v11q0 24 6 60q8 39 29.5 101.5t64.5 154.5q39 84 83 150.5t85 113.5q-59 -47 -141 -117.5t-156 -162.5q-63 -78 -124.5 -171t-110.5 -177q-57 -98 -111 -195q-29 -10 -50.5 -3t-35.5 20q-18 14 -29 34q-5 15 -5 37 q0 17 3 37zM-12 127q12 57 32 115q16 49 41 108.5t58 112.5t59.5 93t46.5 67q23 31 41 51q-37 -18 -71.5 -59.5t-62.5 -87.5t-47.5 -87t-25.5 -55q-31 -72 -45 -120t-20 -79q-6 -30 -7 -50q1 -5 1 -9zM485 297q20 55 45 111q23 47 51.5 103t67.5 107q37 49 68 86t53 62 q25 29 47 47q-39 -14 -78 -52t-71.5 -81t-55 -81t-30.5 -52q-37 -68 -56.5 -115t-29.5 -78q-10 -37 -11 -57zM707 -135q0 -37 10 -62l4 -8q4 -8 6 -10t10 -6q4 -2 6 -2q-2 2 -4 6l-4 8t-4 10q-4 10 -7 26.5t-5 31.5q-2 10 -1 27.5t3 33.5q2 20 4 43q-4 -16 -8 -33 q-4 -14 -7 -31.5t-3 -33.5zM735 -152q2 -8 2 -22q2 -8 5.5 -19.5t9.5 -17.5q6 -10 14 -10q2 -1 3.5 -1t2.5 1q-2 2 -4 6t-5 8t-5 12v-2v2q-2 4 -2 9.5t-2 11.5q-4 29 -4 60q0 42 7 86q13 80 42 161q12 39 33.5 88t45 98.5t44 94.5t32.5 75q-35 -61 -67 -122 q-29 -53 -56.5 -116t-46.5 -116q-39 -111 -45 -183q-4 -54 -5 -86q1 -10 1 -18z" />
<glyph unicode="n" horiz-adv-x="808" d="M-109 57q-3 14 -3 32.5t3 41.5q4 41 17.5 104.5t48.5 159.5q27 76 59.5 139.5t64.5 113.5t59.5 85t43.5 53l21 -16q8 -6 15 -12t7 -8v-21q2 2 4 2t11 -4q6 -4 10 -6t8 -6t13.5 -14.5t17.5 -20.5q-4 -4 -18.5 -21.5t-14.5 -23.5q0 -4 -12.5 -23.5t-28.5 -42.5 q-18 -27 -39 -59q-27 -45 -51 -92q-23 -41 -44.5 -88t-35.5 -90q-23 -70 -32 -114t-9 -60q0 -4 -1 -9.5t-1 -9.5q8 16 31.5 60.5t64.5 105.5t98.5 137t135.5 156q119 123 223.5 191.5t165.5 97.5q8 6 16 8l21 -10l12 -11l-12 -12l20 10l17 -10h16v-20q-23 -18 -65.5 -78 t-93 -144t-100.5 -183t-87 -195.5t-53 -182.5q-8 -42 -8 -77q0 -36 8 -64q2 -4 2 -7t2 -5q0 -4 2 -4q6 -2 12 -2q31 0 70 44q47 52 98 136t100.5 183t89 185t65.5 142.5t28 54.5q16 -2 20 -31q-31 -70 -68.5 -155.5t-79.5 -173t-88 -169t-93.5 -143t-94.5 -96.5 q-38 -28 -74 -28q-8 0 -16 1q-41 6 -59 58q-16 46 -15 113v16q2 78 23.5 175t56.5 196.5t84 192.5t107 165q-53 -39 -114.5 -90.5t-119.5 -110.5q-59 -61 -116.5 -136t-105.5 -142.5t-82 -117.5t-42 -65v-6q-29 -10 -48 -3t-36 20q-18 14 -31 34zM-10 127q12 57 33 115 q16 49 40.5 108.5t57.5 112.5t59.5 93t46.5 67q23 31 41 51q-37 -18 -71.5 -59.5t-62.5 -87.5t-47.5 -87t-25.5 -55q-31 -72 -45 -120t-20 -79q-6 -30 -6 -50v-9zM348 -135q-1 -7 -1 -14q0 -11 2 -21q3 -16 7 -27l4 -8q5 -8 9 -10q2 -2 5 -3t5 -3t4 -2q-2 2 -4 6l-4 8t-4 10 q-4 10 -7.5 26.5t-5.5 31.5v27.5t2 33.5q2 20 5 43q-4 -16 -9 -33q-4 -14 -6 -31.5t-2 -33.5zM377 -152q0 -16 2 -22q0 -8 3 -19.5t9 -17.5q10 -10 15 -10q2 -1 3.5 -1t2.5 1q-2 2 -4 6t-4.5 8t-4.5 12l-2 -2v2q0 4 -1 9.5t-1 11.5q-5 30 -5 63q0 39 8 83q14 80 40 161 q12 39 34 88t45.5 98.5t45 94.5t33.5 75q-35 -61 -68 -122q-29 -53 -57.5 -116t-46.5 -116q-39 -111 -45 -183q-4 -44 -4 -73q0 -19 2 -31z" />
<glyph unicode="o" horiz-adv-x="548" d="M-88 179q0 81 22.5 176.5t64.5 184.5t104.5 161.5t142.5 105.5q20 2 43 2q18 -2 40.5 -6t41.5 -19q6 -4 15 -19t13 -32.5t-3 -32t-31 -16.5q0 39 -11 49q-8 6 -29.5 -8t-50 -46t-63.5 -78t-70 -101q-29 -43 -52 -97.5t-39 -112.5q-14 -57 -22 -110q-4 -27 -4 -51 q0 -22 3 -41q0 -16 4 -31q4 -12 8 -23t10 -14q6 -2 25.5 7.5t47.5 31t59.5 54t62.5 75.5h2q23 29 44 66t44 84q45 94 47 150v14q0 46 -12 71q-18 35 -56 45q0 8 4 17q6 14 25 14q20 -4 48 -19.5t95 -19.5h12q28 0 57 8q36 10 64 19q35 13 66 29q6 -4 8 -9q1 -2 1 -5 q0 -8 -9 -19q-8 -8 -28.5 -17.5t-48 -16.5t-57.5 -11t-54 -4q-25 -2 -45.5 0t-34.5 6l-31 6q27 -35 27 -85v-7q-2 -55 -19.5 -110.5t-41 -101.5t-36.5 -67q-25 -37 -55.5 -75.5t-64 -72.5t-69.5 -57.5t-73 -27.5q-25 -6 -41 -6q-51 6 -75.5 59t-24.5 134zM-35 92 q0 -18 3 -34.5t7 -26.5q2 0 6.5 -7.5t8.5 -11.5q2 -2 10 -6q4 -2 6 -2l-6 6q-8 8 -10 19q-4 10 -7 26.5t-6 32.5q-2 10 -2 26.5v32.5q0 20 2 43q-2 -16 -6 -32q-4 -14 -6 -32q-1 -9 -1 -17.5t1 -16.5zM-7 178q-1 -31 -1 -54q0 -31 2 -48q2 -6 2 -12.5t2 -10.5q2 -8 5 -19.5 t9 -17.5q8 -8 15 -8h6q-2 2 -4 6t-5.5 7.5t-5.5 11.5q-4 12 -4 20q-6 29 -9 93v12q0 60 24 143q16 61 44.5 119.5t57.5 103.5q33 53 66 99q-35 -35 -68 -76q-29 -35 -56.5 -83t-43.5 -102q-33 -112 -36 -184z" />
<glyph unicode="p" horiz-adv-x="755" d="M-272 -406q-1 12 -1 25q0 34 4 79q5 64 27 161q18 86 53 178t78 188.5t89.5 193.5t89.5 189v-6l41 103q6 14 12 27t12 30q6 16 19.5 38.5t33.5 33.5q-4 -8 -4 -13q-10 -31 -31.5 -81t-41.5 -99q-25 -57 -52 -119q29 53 50.5 95t39 77t29.5 67t25 66l8 31l8 4q2 0 4 2 q2 0 2 1t2 1t4 3t4 3t4.5 -1t4.5 -1q2 -2 0 -3t10 -1t15 -1t3 -5q0 -2 1 -4t1 -6t2 -6h13l4 -10q-8 -127 -53 -261q25 29 62.5 68t75.5 75t70.5 61.5t49.5 27.5q3 1 7 1q24 0 58 -22q14 -18 25 -49q4 -16 3 -47t-5 -66.5t-11.5 -73.5t-15.5 -67q-10 -29 -18.5 -50t-14.5 -34 l-12 -24q14 23 31 53q12 27 27.5 63.5t25.5 88.5q12 58 12 98q0 13 -1 24q-5 45 -13 64q10 -10 17 -19.5t12 -19.5q4 -16 5 -47t-1 -60q-2 -35 -6 -73q6 43 12 80q4 33 7 62.5t-1 43.5l-2 2q23 -23 35 -77q5 -23 5 -50q0 -35 -9 -76q-27 -109 -88.5 -208t-133 -173.5 t-144.5 -115.5q-59 -33 -102 -33q-10 0 -20 2q-43 8 -62 66q-9 25 -9 58q0 45 16 107q16 63 48 93t67 41q26 8 55 8q14 0 29 -2q-78 -80 -113 -142.5t-42 -106.5q-3 -21 -3 -37q0 -18 4 -31q8 -23 16 -23h4q53 0 104 52q52 54 94 135t74 175t46 174q11 62 11 108q0 13 -1 25 q-4 50 -29 50h-2q-25 -2 -64.5 -33t-80.5 -71t-76 -76.5t-47 -49.5q-41 -109 -94 -213t-103.5 -205.5t-92.5 -202t-60 -198.5q-12 -63 -17 -109q-2 -21 -2 -37q0 -18 3 -30v-16v-11q2 -8 2 -15t2 -15q-11 -1 -21 -1h-10q-14 1 -31 5q-14 4 -24.5 11t-18.5 15t-14 21 q-8 27 -10 73zM-176 -410q2 -45 10 -79q-6 41 -6 92q0 41 7 97.5t30 115.5t64.5 152t86.5 184q51 104 111 217q-68 -109 -123 -211q-49 -88 -95 -184.5t-63 -166.5q-16 -70 -20 -124q-3 -36 -3 -65q0 -15 1 -28z" />
<glyph unicode="q" horiz-adv-x="657" d="M-73 286q5 85 42 183q35 98 85 161.5t96 104.5q53 45 106 72q20 2 43 2q18 -2 39.5 -6t42.5 -19q18 -16 23.5 -52t5.5 -77q-2 -47 -9 -100l-12 -14h4q-4 -12 -6 -15l-2 -4q8 12 10 19q8 -2 15.5 -2h13.5h4h21q-8 -10 -16.5 -20.5t-18.5 -24.5q-12 -18 -23.5 -42 t-21.5 -44q-10 -25 -23 -50q16 31 33 58q14 23 28.5 47t24.5 41q14 23 25.5 30t17.5 11h4q37 -14 70 -17q-2 -6 -21.5 -45t-42 -85t-42 -84t-21.5 -44q49 0 92 37t82 88t73.5 106.5t69.5 94.5q6 -2 13 -8q6 -7 6 -14q0 -6 -4 -13q-20 -35 -56 -91t-79.5 -109.5t-87.5 -90.5 q-39 -33 -71 -33q-5 0 -9 1q23 -51 25 -130q1 -11 1 -23q0 -69 -13 -144q-15 -88 -48 -176.5t-81 -156t-113 -106.5q-50 -30 -108 -30q-17 0 -34 2q-25 2 -39 24q-8 8 -14 23q-8 27 -9 73q0 41 9.5 104.5t33.5 160.5q18 76 50 156.5t73 166.5l-125 -192l-96 16 q-25 59 -33 133q-5 39 -5 86q0 29 2 61zM-25 92q0 -16 2.5 -30.5t6.5 -24.5q4 -12 10 -23l10 6q-4 12 -8 25q-4 10 -6 21.5t-4 21.5t-1 26.5t1 32.5q0 20 2 43q-2 -16 -6 -32q-4 -14 -6 -32q-2 -9 -2 -19q0 -7 1 -15zM3 180q-1 -30 -1 -54q0 -31 2 -50q4 -35 6 -45 q2 -8 4 -13l15 17q-8 33 -13 71q-2 18 -2 38.5t2 45.5q4 48 23 111q16 61 45 119.5t57 103.5q33 53 66 99q-35 -35 -68 -76q-29 -35 -56.5 -83t-43.5 -102q-33 -111 -36 -182zM43 117v-17q0 -30 6 -32q6 0 38 41t72 98t82 118.5t68 102.5q16 31 30.5 60.5t29.5 58.5l2 -2 q2 20 3 50t1 58.5t-2 51t-8 28.5q-2 2 -6 2q-9 0 -24 -10q-22 -14 -50.5 -46t-63.5 -78t-69 -101q-37 -55 -59.5 -129t-35 -140.5t-14.5 -113.5zM115 -410q0 -45 6 -79q-2 21 -2 44t2 48q4 41 13 97t32 116q23 59 70 152t94 184q55 104 119 217q-70 -109 -132 -211 q-53 -88 -102.5 -184.5t-69.5 -166.5t-25 -124t-5 -93zM142 -438q-1 -16 -1 -26q0 -25 4 -25q36 0 88 47q43 39 79 99t63.5 136t42.5 155q13 74 13 146v10q-1 76 -21 140q-37 -78 -74 -147.5t-71 -136t-60.5 -130t-40.5 -127.5q-20 -88 -22 -141z" />
<glyph unicode="r" horiz-adv-x="550" d="M25 526q29 43 59 97q27 45 59.5 102t63.5 119q2 2 2 4t2 4q-2 -2 -2 -4t-2 -4q-43 47 -62 80q-2 6 -10 18q-29 55 -29 117v10q2 68 31 131q18 41 43 55.5t47 14.5q10 -2 17.5 -2h11.5h4q-12 6 -29 10q-13 3 -27 3q-21 0 -42 -7q-20 -8 -32.5 -23.5t-20.5 -31.5 q-8 -20 -15 -41q14 29 26.5 50t43.5 32q-54 -66 -64 -145q-4 -29 -4 -56q0 -45 10 -84q-35 33 -45 76q-6 25 -6 49q-1 18 3 37q8 43 29.5 80.5t49.5 62.5q23 18 55 22l20 2q21 0 41 -6q30 -10 54.5 -32.5t34.5 -55.5q7 -23 7 -50q0 -12 -2 -26q-5 -42 -16.5 -85t-25.5 -80 t-24 -62q-4 -10 -12.5 -25.5t-18.5 -35.5l-4 4l4 -4q25 -23 50.5 -44.5t51.5 -37.5q18 4 39 -8.5t23 -26.5q2 2 4 2t10 -4q6 -4 10 -6t8 -6q2 -2 6.5 -7.5t10.5 -9.5q4 -6 16 -18q-4 -4 -19.5 -21.5t-15.5 -23.5q0 -4 -12 -23.5t-29 -42.5q-18 -27 -38 -59q-27 -45 -52 -92 q-23 -41 -44 -88t-36 -90q-29 -88 -37 -136.5t-1 -46.5q16 4 47.5 38t72.5 85t86 111.5t84 118t69 105.5t42 75q4 4 10 4q17 0 17 -29q0 -12 -24 -52q-26 -44 -68 -104.5t-93 -128t-99 -126t-87 -99.5t-57 -47t-33 -6q-8 0 -16 2q-20 6 -37 19q-18 14 -31 34q-3 14 -3 32.5 t3 41.5q4 41 17.5 104.5t47.5 159.5q41 115 91.5 200t91.5 136q-14 10 -29 25q-12 12 -29.5 27.5t-34.5 33.5q-25 -47 -53 -98t-55 -98q-31 -53 -62 -107zM176 127q12 57 33 115q16 49 40.5 108.5t59.5 112.5q63 106 105 160q23 31 41 51q-37 -18 -72 -59.5t-62.5 -87.5 t-47 -87t-25.5 -55q-31 -72 -45.5 -120t-20.5 -79q-6 -30 -6 -50v-9zM190 960q6 -48 33 -83l-6 -13l6 13q2 -7 10 -15q-6 6 -10 15q43 93 69 173q19 61 19 103q0 13 -2 25q-7 37 -23 40h-4q-14 0 -30 -18q-18 -22 -36 -61q-16 -39 -24 -85q-4 -27 -5 -54q1 -20 3 -40z" />
<glyph unicode="s" horiz-adv-x="512" d="M-61 -25q-1 3 -1 6q0 12 17 34q22 28 56 62t72 69.5t64 64.5l-10 27q-12 20 -25.5 49.5t-25.5 60.5t-23.5 62.5t-19.5 56.5q-13 44 -13 88q0 33 8 65q18 76 60.5 139.5t103.5 107.5q62 43 128 59q29 7 57 7q35 -1 71 -11q64 -20 109 -82q6 -9 6 -22q0 -19 -14 -46 q-24 -45 -67 -84q-44 -38 -90 -56q-16 -6 -29 -7q-26 0 -43 22q61 45 110 82q41 33 73 61.5t28 38.5q-6 12 -17 21q-10 8 -23.5 15t-35.5 12q-18 3 -35 3q-23 0 -46 -6q-40 -10 -50 -16l-17 -8l17 4q16 4 38.5 8t46 6t42.5 0q33 -6 47 -17t16 -17q-16 7 -35 7q-19 -1 -41 -7 q-45 -14 -91 -45t-85 -80.5t-57 -108.5q-21 -59 -20 -121q-1 -19 1 -39q8 -82 19 -135l6 -29q55 39 121 94.5t123 110t101.5 99t56.5 67.5q26 -5 26 -23q1 -6 -1 -10q-8 -26 -43.5 -64t-87.5 -83t-106.5 -90t-103.5 -85t-74 -67l7 -28q8 -39 15 -82q4 -23 4 -45 q0 -19 -3 -38q-6 -40 -28.5 -75t-71.5 -57q-39 -10 -73 -10q-9 0 -17 1q-35 4 -72 20.5t-55 63.5zM0 -15q0 -17 20 -16q22 0 55.5 13.5t65 35t47.5 41.5q4 -23 0 -48t-18 -47q-14 -20 -38 -34q-21 -12 -53 -12h-9q10 -1 20 -1q32 1 54 11q30 14 44.5 40t13.5 59.5t-14 70.5 q-2 10 -6 21.5t-10 27.5l-8 17q-86 -78 -124 -117q-40 -41 -40 -62zM70 651q18 35 45 72q23 31 57.5 65.5t81.5 63.5t88 38t74 9q37 0 71 -8q-37 16 -75 20q-11 1 -22 1q-26 0 -58 -6q-45 -9 -96 -44t-83 -72.5t-51 -68.5q-22 -37 -32 -70z" />
<glyph unicode="t" horiz-adv-x="421" d="M-476 974q12 38 42.5 68.5t70 54t70.5 33.5q35 10 74 15.5t84 7.5q117 0 212 -40t187 -87q8 16 15.5 28.5t11.5 22.5l10 21q68 115 123 219t84 194q4 10 7 19.5t5 19.5q2 0 2 -2q2 -2 6 -2h2l5 -24q-8 -25 -17 -52q-8 -23 -20.5 -53.5t-26.5 -58.5q-16 -31 -43 -81 t-55 -99q-33 -57 -68 -119q53 78 88 131t60.5 100t48 96.5t49.5 116.5l24 -18q-2 -4 -2 -12v-13.5t2 -13.5q2 -14 5.5 -7t9.5 9q4 0 4 8q0 4 -2 10l29 -51q-29 -72 -58 -139q-25 -59 -54.5 -126t-57.5 -120q-8 -14 -35 -76q58 -25 124 -40q58 -13 123 -14q9 0 17 1 q104 2 176 22.5t119 51.5q27 18 57 47q30 28 48 62q16 30 16 63v7q-2 36 -39 71q10 -16 18 -35q6 -16 9 -35.5t-3 -42.5q-12 -29 -28 -49q15 35 15 67q0 36 -14 67q-14 28 -36.5 44t-48.5 14q39 0 71 -10q29 -10 51.5 -34.5t24.5 -77.5v-5q0 -50 -36 -104q-38 -56 -114 -98 q-74 -42 -188 -60q-46 -7 -98 -8q-77 0 -166 16q-35 6 -65.5 12.5t-59.5 12.5q-35 -78 -82 -181.5t-90 -197.5t-73.5 -163.5t-37.5 -82.5q-31 -66 -55 -130t-39.5 -123.5t-19.5 -110.5q-1 -15 -2 -28q0 -34 8 -60l8 -17q5 -2 11 -2q30 1 69 45q47 52 98.5 136t100.5 183 t90 185t65.5 142.5t26.5 54.5q20 -4 20 -29q-31 -70 -68.5 -154.5t-79.5 -170.5t-88 -166t-92 -141q-45 -62 -93 -99q-45 -35 -88 -35h-5q-74 2 -92 81q-9 39 -9 88q0 51 10 113q18 122 65 268.5t102 283.5q35 72 83 169t89 183q-63 16 -112.5 31.5t-93.5 26t-87 16.5t-94 6 q-102 -4 -167.5 -35t-98.5 -57q31 39 92 67.5t121 36.5q33 4 66 4t67 -4q66 -8 119 -22q63 -16 123 -41q-98 53 -198 71q-47 9 -97 9q-56 0 -115 -11q-29 -6 -60.5 -17t-61.5 -28.5t-53.5 -41t-33.5 -52.5q-17 25 -17 50q0 12 4 25zM-68 -137q-1 -7 -1 -14q1 -13 3 -23 q4 -16 7 -27l4 -8q4 -8 8 -10q2 -2 10 -6q4 -2 6 -2q-4 2 -6 6q-4 4 -8 18q-4 10 -7 27.5t-3 32.5q-2 10 -1 26.5t3 32.5q2 20 2 43q-4 -16 -8 -33q-4 -14 -6.5 -30.5t-2.5 -32.5zM-39 -156q0 -16 2 -22q0 -8 3 -19.5t9 -17.5q8 -8 15 -8h6q-2 2 -4 6t-4 7t-4 11h-2h2 q-4 12 -4 21q-6 30 -6 64q0 40 8 82q14 80 41 161q12 35 30 80t41 92q47 100 91 198.5t77 172.5q32 73 48 111q10 24 10 26q0 1 -3 -6q-6 -12 -32.5 -66.5t-61.5 -127t-72.5 -150.5t-68.5 -140q-53 -111 -91 -231q-31 -100 -31 -201q0 -22 1 -43z" />
<glyph unicode="u" horiz-adv-x="733" d="M-114 90q-1 12 -1 24q1 60 13 132q14 86 43.5 173t75.5 167t106 137l7 -4t15.5 -11.5t14.5 -17.5t4 -22q-2 -14 2 -13.5t8 4.5q6 6 12 19l17 -10l-60 -76l72 65l10 -6q-43 -61 -90 -147t-83 -178.5t-52 -181.5q-7 -40 -7 -75q0 -44 11 -81q2 -4 2 -5t2 -6q0 -4 2 -6 q6 -2 12 -2q29 0 68 37q47 45 98.5 119t101.5 162t90 162.5t65.5 125t27.5 48.5h2q35 59 67.5 100t51.5 63l20 -16q8 -6 15.5 -12t7.5 -8v-21q2 2 4 2t10 -4q6 -4 10.5 -6t8.5 -6t13 -14.5t17 -20.5q-4 -4 -18 -21.5t-14 -23.5q0 -4 -12.5 -23.5t-28.5 -42.5 q-18 -27 -39 -59q-27 -45 -51 -92q-23 -41 -44.5 -88t-35.5 -90q-29 -88 -37 -136.5t-2 -46.5q14 4 47 38t74 85t86 111.5t84 118t68.5 105.5t41.5 75q4 4 10 4q17 0 17 -29q0 -12 -24 -52q-26 -44 -67.5 -104.5t-93 -128t-99.5 -126t-87 -99.5t-57 -47q-29 -10 -49.5 -4 t-36.5 19q-18 14 -31 34q-4 16 -2 43q0 23 5 59t20 89q-41 -72 -84 -133.5t-87 -107.5q-45 -45 -89 -69q-35 -19 -68 -19q-8 0 -16 1q-43 8 -67 54t-27 116zM-63 29q0 -27 3 -39.5t7 -22.5q0 -2 4 -9t8 -11t8 -6q2 -2 6 -2q-2 2 -4 6l-4 8t-4 12q-4 10 -7 25.5t-5 32.5v25.5 t2 33.5q2 20 4 43q-4 -18 -8 -37q-4 -16 -7 -31.5t-3 -27.5zM-33 12q2 -20 1 -19t-1 -5q2 -6 4.5 -17.5t10.5 -19.5t14 -8q2 -1 3.5 -1t2.5 1q-2 2 -4 6t-5 7t-5 11q0 4 -4 21q-5 29 -5 63q0 21 2 43q5 60 21 124.5t42 131t60 129.5q-35 -43 -62.5 -105.5t-46 -128 t-25.5 -127.5q-4 -40 -4 -72q0 -18 1 -34zM399 127q12 57 33 115q16 49 41 108.5t57 112.5q33 53 59.5 93t47.5 67q23 31 41 51q-37 -18 -72 -59.5t-62.5 -87.5t-47 -87t-25.5 -55q-31 -72 -45 -120t-20 -79q-7 -33 -7 -54v-5z" />
<glyph unicode="v" d="M-73 18q-5 31 -5 69q0 66 15 153q27 156 73.5 273.5t85.5 188.5q18 31 37 54q14 20 28.5 37.5t22.5 21.5t14.5 5t10.5 5q6 2 10 6q-29 -43 -53 -88q-23 -41 -47.5 -89t-46.5 -97q-23 -49 -35 -87t-19 -64q-8 -31 -10 -52q23 59 45 117q20 49 44 101.5t46 93.5 q23 39 40.5 67.5t29.5 48.5q14 23 25 41q2 -4 6 -8q6 -6 10 0q2 4 12 4q4 0 6 -2l11 -14l-66 -121l78 123l37 -23q-45 -76 -86 -157q-37 -72 -77 -162t-73 -184q-27 -79 -35 -139q-6 -44 -6 -78q0 -13 1 -25q3 -43 13.5 -71.5t16.5 -41.5q-10 -8 -32.5 -16t-47.5 6 q-16 10 -26.5 36.5t-16.5 55.5q-8 35 -12 76q0 -31 4 -62q4 -27 11 -54t20 -48q10 -18 25.5 -22.5t30.5 -2t29.5 8.5t22.5 10q4 4 6 4v2q39 27 97.5 92.5t120 157.5t119 202.5t98.5 227.5q12 -4 36.5 -4t57.5 7t69.5 24.5t73.5 50.5q6 -4 8 -12q1 -2 1 -6t-2 -10 q-3 -10 -19 -25q-12 -12 -38 -26.5t-53.5 -27t-54 -18.5t-43.5 0q-47 -121 -118.5 -246t-147.5 -229.5t-146.5 -178t-113.5 -94.5q-47 27 -78 82q-27 47 -40 133z" />
<glyph unicode="w" horiz-adv-x="1214" d="M-106 90l-2 34q0 56 12 122q14 86 45 173t76 167t104 137l7 -4t15.5 -11.5t14.5 -17.5t4 -22q-2 -14 2 -13.5t8 4.5q6 6 13 19l16 -10l-57 -76l69 65l12 -6q-43 -61 -91 -147t-84 -178q-36 -93 -52 -182q-7 -40 -7 -76q0 -43 11 -80q2 -4 3 -5t3 -6q2 -4 2 -6q6 -2 12 -2 q29 0 68 37q47 45 98.5 119t101.5 162t90 162.5t64.5 125t26.5 48.5q16 -2 21 -31q-8 -10 -11 -23q-4 -8 -4 -10q-4 -6 -4 -14t4 -13q10 -8 21.5 -19t13.5 -21q0 -6 -1 -10.5t-1 -8.5q-2 -4 -2 -6q-14 -29 -24.5 -50.5t-14.5 -31.5q-31 -72 -45 -120t-20 -79q-8 -37 -6 -59 q12 55 32 111q16 47 40 105t54 112q16 -8 25 -11q-23 -41 -50.5 -97t-43.5 -107q-27 -82 -35 -125q-2 -14 -12 -65.5t-16 -109.5q-3 -33 -3 -63q0 -22 2 -43q4 -49 33 -59q16 -6 31 -4q86 31 147.5 90t106.5 135t77.5 161t61.5 162q-23 -53 -55.5 -128.5t-73.5 -149.5 t-91 -133.5t-108 -75.5q43 35 88.5 101.5t89.5 153.5t83.5 187.5t71.5 199.5t54.5 193.5t30.5 168.5q4 35 4 63q0 33 -5 59q-9 48 -38 58h18.5t20.5 -10q6 -4 14.5 -23.5t14.5 -42.5q8 -27 14 -59q-2 35 -8 61q-4 23 -12 44.5t-21 29.5q-25 12 -43 8t-22 -6q0 2 -2 4 q60 29 105 29q28 1 50 -11q58 -30 80 -111q16 -57 16 -133q0 -32 -2 -67q-10 -119 -49 -250t-102.5 -261t-149.5 -233.5t-190 -168t-223 -64.5q-35 0 -57.5 27.5t-35 73t-15.5 100.5q-2 33 -2 66q0 23 1 45q2 56 8.5 103.5t14.5 80.5q-41 -72 -84 -133.5t-87 -107.5 q-44 -45 -88 -69q-35 -19 -68 -19q-8 0 -17 1q-43 8 -65.5 54t-26.5 116zM-55 29q-1 -11 -1 -19q0 -12 2 -20q3 -12 7 -23q0 -2 4 -9t8 -11q2 -2 10 -6q4 -2 7 -2q-4 2 -7 6q-6 4 -8 20q-4 10 -7 25.5t-5 32.5v25.5t2 33.5q2 20 4 43q-4 -18 -8 -37q-4 -16 -6 -31.5 t-2 -27.5zM-27 12q2 -20 1 -19t1 -5q0 -6 2.5 -17.5t10.5 -19.5t14 -8q2 -1 3.5 -1t2.5 1q-2 2 -4 6t-4 7t-4 11h-2h2q-4 12 -4 21q-5 32 -5 67q-1 73 21 163q32 134 103 261q-35 -43 -63 -105.5t-46 -128t-26 -127.5q-5 -41 -4 -74q0 -17 1 -32zM1032 440q18 49 35 103 q12 47 23.5 107.5t13.5 125.5v21q0 53 -8 90q-10 45 -25 71q-16 31 -37 48q14 -27 25 -62q10 -30 17 -70q5 -32 6 -68q0 -11 -1 -22q-2 -51 -9 -109.5t-17 -111.5q-11 -62 -23 -123z" />
<glyph unicode="x" horiz-adv-x="663" d="M-315 -10q33 -35 71 -58q33 -20 77 -30q17 -4 34 -5q28 0 57 11q47 16 95.5 58t89.5 89q45 53 88 117q-41 -53 -82 -98q-35 -41 -80 -79t-88 -56q-34 -13 -65 -13h-14q-38 4 -67 18q57 14 101.5 48.5t82.5 77.5t72.5 93t71.5 101q-45 -57 -88 -108q-37 -43 -77 -85 t-68 -65q-41 -29 -71 -38t-44 -11q-10 4 -17.5 10t-13.5 10q49 4 102.5 39t104.5 88.5t99 117t91 126.5q-10 29 -20 53q-39 68 -68 134q-27 53 -47 110q-18 52 -18 85v7q4 29 10 43q2 2 9 10.5t18 6.5q10 -2 16 -8.5t14 -2.5t12.5 9.5t14.5 7.5q12 4 14 1t0 -9 q-23 -4 -28.5 -30t-0.5 -63.5t18 -83t26.5 -85t25 -68.5t15.5 -37q4 -10 8 -20.5t8 -20.5q41 61 71.5 112.5t47.5 80.5q61 98 111 148t86 70q33 18 59 17h5q28 -2 50 -10q37 -16 47 -49q6 -16 6 -33q-8 18 -18 33l-2 2q-4 6 -10 10q-10 10 -27.5 17.5t-44.5 2.5 q-43 -6 -63 -26q-12 -10 -19 -23q14 12 31 21q14 8 30.5 13t32.5 5l25 -6q-27 -12 -56.5 -56t-65.5 -108.5t-76 -142.5t-85 -158q-14 -25 -28.5 -49.5t-28.5 -48.5q30 -70 58 -114q25 -40 46 -41q2 0 4 1q16 2 40 25.5t52.5 58.5t59.5 79t59 89q68 107 146 240q4 -2 10 -6 q10 -6 12 -27q0 -6 -20.5 -45t-53 -93t-74.5 -116.5t-84 -116t-81 -91.5t-66 -42q-4 -1 -9 -1q-31 0 -61 39q-34 44 -67 116q-63 -96 -130.5 -173t-137.5 -111q-43 -21 -85 -21q-28 1 -54 9q-68 22 -131 122z" />
<glyph unicode="y" horiz-adv-x="675" d="M-228 -474q-1 11 -1 23q0 38 12 81q16 57 53 115t86 108q49 47 92 60q33 10 60 10q8 0 16 -1q37 -6 72 -26q-104 -47 -199.5 -126t-144.5 -206q14 68 50 122t71 93q41 45 90 80q-25 -12 -49 -33q-23 -16 -50.5 -43t-56.5 -68q-39 -53 -50 -101t-11 -77q-2 -18 0 -33 q9 -37 49 -37q4 0 9 1q48 4 120 73q23 23 53.5 58.5t62 81t61.5 95.5t54 103q41 92 86 218t84 241q-41 -74 -86 -139.5t-90 -113.5t-90 -73q-36 -19 -71 -19q-9 0 -17 1q-43 6 -66.5 53t-26.5 117q-1 12 -1 25q0 59 12 131q14 86 44 172t76 165.5t105 137.5q14 -6 23 -15 q8 -6 14 -16t4 -23q-2 -14 2 -13t8 5q6 6 13 19l16 -11l-59 -77l71 65l11 -6q-43 -61 -90.5 -147.5t-83 -178.5t-51.5 -181q-8 -40 -8 -76q0 -43 11 -79q2 -4 2 -7t3 -5q0 -4 2 -4q25 -8 57.5 15.5t68 66.5t73.5 100.5t74 118t67.5 120.5t58.5 109q2 4 2 8.5t2 8.5q0 4 2 6 l8 8q16 31 28.5 53.5t16.5 30.5l2 6l43 21l25 8l31 -6q-10 -37 -20.5 -71t-23 -69.5t-25.5 -76.5t-30 -90q-31 -88 -63.5 -175t-63 -166t-60.5 -146.5t-54 -117.5q27 51 53.5 101.5t52 106t51 118t54.5 141.5q12 33 32.5 94.5t42 127t41 126t29.5 91.5l27 -6 q-59 -240 -118.5 -412t-118 -297t-119 -215t-121.5 -166q-47 -57 -92.5 -92t-80.5 -55q-41 -23 -79 -37q-28 -8 -55 -8q-8 0 -16 1q-34 3 -58 25q-35 27 -40 75zM-6 100q0 -25 3 -38t7 -23l4 -8q6 -11 8 -13q4 -4 9 -4q2 -2 6 -2q-2 2 -4 6t-4.5 7.5t-4.5 11.5 q-4 10 -7 25.5t-5 31.5v25.5t2 34.5q2 20 4 43q-4 -16 -8 -35q-4 -16 -7 -32.5t-3 -29.5zM23 84q4 -18 3 -18t-1 -5q2 -8 4 -18t10 -18q4 -4 6 -5.5t6 -3.5t8 -2q-2 2 -4 6t-5 7.5t-5 11.5v2q-2 4 -2 9t-2 9q-5 32 -5 67q0 74 22 164q34 134 104 261q-35 -43 -62.5 -105.5 t-46 -128t-27.5 -127.5q-5 -40 -5 -71q0 -19 2 -35z" />
<glyph unicode="z" horiz-adv-x="542" d="M-139 -309q4 41 17 104.5t46 159.5q31 90 80 187.5t109 197.5q64 98 64 159q-1 13 -3 25q-16 64 -90 78l-12 -6t-9 -4q-4 -2 -8 -2l-22 20q12 8 40.5 31t62.5 52.5t70 63.5t63.5 62.5t43 49t9.5 26.5q-18 18 -58 19h-7q-37 0 -75 -11q-41 -12 -72.5 -38.5t-33.5 -65.5v-6 q2 -2 2 -5q0 -8 4 -20t12 -20q10 -10 29 2q8 6 16 14q-6 -2 -12 -6q-14 -8 -23 -6q-10 4 -14 20q8 -10 20.5 -9t24.5 7q14 8 29 18q-27 -45 -52.5 -49t-40 15.5t-11.5 55.5t38 71q73 70 157 70q39 0 81 -15l24 -33q10 -14 17.5 -26.5t5.5 -20.5q-2 -16 -17.5 -33.5 t-56.5 -52.5q-20 -18 -41.5 -36.5t-40.5 -33.5q-23 -16 -43 -30q25 12 49 28q23 14 48.5 33t48.5 41q23 20 36 34.5t19 24.5q8 10 8 17q4 -2 8 -8q6 -10 5 -27q-16 -25 -48 -50.5t-70 -50t-79 -46t-74 -37.5q39 -6 80 -31t71 -60q28 -36 38 -80q3 -12 3 -24q0 -32 -18 -65 q-6 -12 8.5 -9.5t26.5 9.5q45 10 87 48t83 87t79 100t73 88q6 -2 12 -8q5 -5 5 -13q0 -6 -5 -14q-25 -35 -66 -91t-88 -110t-94 -90q-42 -33 -75 -32h-7q15 -42 15 -102q0 -13 -1 -28q-4 -79 -26.5 -167t-62.5 -176t-94 -155q-53 -68 -121 -107q-54 -31 -115 -31 q-15 0 -31 2q-23 2 -37 24q-8 8 -12 23q-4 16 -4 40q0 15 2 34zM-43 -313q-2 -22 -2 -42.5t2 -37.5v17q0 34 6 75t20.5 97.5t43.5 115.5q27 55 76 140t102 171l-2 25q-29 -43 -58.5 -90t-56.5 -92.5t-48.5 -87t-33.5 -74.5q-27 -70 -36 -124t-13 -93zM72 -346q47 39 88 99.5 t74.5 136t55.5 154.5q20 80 26 156q1 21 2 40q0 54 -11 100q-25 -45 -50.5 -86t-47.5 -82q-61 -100 -112.5 -190.5t-80.5 -182.5q-30 -88 -36 -141q-3 -28 -2 -40q0 -11 2 -11q35 0 92 47z" />
<glyph unicode="{" horiz-adv-x="602" d="M-41 645q27 -2 51 2q23 4 46.5 12.5t41.5 26.5q12 12 17.5 54t10.5 100.5t12 130t22.5 143.5t43 138.5t72.5 115.5q68 74 121.5 89.5t90 3t56 -35t21.5 -20.5t2 -7t-2 -22l-4 -33q-10 18 -24 35q-14 14 -35 26.5t-56 16.5q-35 2 -58 -62.5t-39.5 -157.5t-29 -193.5 t-22.5 -167.5q-10 -68 -34.5 -111t-49.5 -65q-29 -27 -63 -39q45 -2 81 -23q31 -16 54.5 -54t19.5 -106q-2 -45 -13 -112.5t-24.5 -143t-26 -151.5t-17.5 -138.5t-1 -103.5t25 -45q31 -8 62.5 1t58.5 26q31 18 61 43l41 -33q-45 -47 -94 -74q-43 -23 -96.5 -30t-106.5 34 q-53 39 -69.5 122t-13.5 178.5t15.5 184.5t14.5 142t-22.5 105.5t-55.5 97.5q-37 51 -84 100z" />
<glyph unicode="|" horiz-adv-x="186" d="M37 -174v1575h104v-1575h-104z" />
<glyph unicode="}" horiz-adv-x="608" d="M-41 -251q0 9 2 22l4 32q6 -20 23 -36q12 -14 34.5 -25.5t57.5 -15.5q23 -2 40 27.5t31.5 79.5t25.5 112.5t20.5 128t16.5 127t15 106.5q10 68 35 110t49 64q29 27 64 41q-45 2 -82 23q-31 16 -54.5 53t-19.5 107q2 45 13.5 112.5t24.5 143t25.5 151.5t17.5 138.5 t1 102.5t-24 46q-31 8 -64 -1t-59 -26q-31 -18 -60 -43l-41 33q43 47 95 74q41 23 95 28.5t107 -32.5q35 -27 53.5 -74t25.5 -104.5t4 -122t-9 -126t-12 -113.5t-8 -87q-4 -53 21.5 -107.5t55.5 -97.5q37 -53 84 -98q-27 2 -51 -2q-23 -4 -46.5 -12.5t-41.5 -26.5 q-12 -12 -17 -54t-10.5 -100.5t-12.5 -130.5t-22.5 -143.5t-43 -138t-72.5 -115.5q-68 -74 -121 -89.5t-90 -3t-56.5 35t-21.5 20.5t-2 7z" />
<glyph unicode="~" horiz-adv-x="802" d="M23 1032q16 41 47 74q27 29 70.5 48.5t113.5 12.5q70 -6 111 -19t68.5 -25.5t50 -21.5t57.5 -9t68.5 16t62.5 37q33 23 63 55l29 -29l-72 -102l47 29q-10 -35 -32 -62q-20 -23 -55.5 -41t-92.5 -14q-57 2 -106.5 18.5t-89 36t-70.5 37t-51 23.5q-23 4 -54.5 -7.5 t-64.5 -27.5q-37 -20 -78 -45l-4 12l63 62z" />
<glyph unicode="&#xa8;" horiz-adv-x="604" d="M38 1395q-1 41 9 57t31.5 24.5t46.5 12.5q27 4 61 4l-36 -84l73 92l25 -26q-29 -57 -53 -105q-23 -41 -44.5 -79t-37.5 -48q-25 -16 -41.5 8.5t-24.5 63.5t-9 80zM327 1395q-1 41 9 57t31.5 24.5t46.5 12.5q27 4 61 4l-37 -84l74 92l25 -26q-29 -57 -54 -105 q-23 -41 -44 -79t-38 -48q-25 -16 -41 8.5t-24 63.5t-9 80z" />
<glyph unicode="&#xad;" horiz-adv-x="507" d="M-18 598q8 -2 18 -2h55h152q92 0 148.5 -1t86.5 -1q37 -2 52 -2l-78 -37q2 -4 -19 -10q-16 -4 -58 -8.5t-120 -8.5q-47 -2 -78.5 -3t-42.5 -3q-25 -2 -43 3t-30 10q-14 6 -23 14l211 6l-217 8z" />
<glyph unicode="&#xb0;" horiz-adv-x="425" d="M-14 1733q-4 45 16.5 73.5t42.5 44.5q27 20 64 29l139 -31h-10q-4 0 -10.5 1t-12.5 1q-14 2 -45 -6t-57 -26q-14 -10 -24.5 -28.5t-18.5 -35.5q-8 -23 -17 -43q8 14 19 31q16 27 57 59q35 31 63.5 36t38.5 5q4 0 7.5 -1t7.5 -1q4 -2 6 -2q16 -4 35 -12q16 -8 35.5 -20.5 t39.5 -30.5q20 -20 37 -48t26 -55.5t9 -52.5t-8 -37q-10 -14 -21.5 -24.5t-21.5 -18.5q-12 -8 -27 -14l-16 -4l-14 -6l-43 -9q2 2 8 6q4 4 9 6.5l13 6.5q14 8 25 26q6 8 10 19l-4 -4q-4 -4 -9 -9.5t-16 -13.5q-10 -8 -27.5 -14t-33.5 -10q-20 -6 -43 -11l-61 13 q-45 27 -82 61q-31 29 -57.5 67t-28.5 83zM99 1681.5q-3 -26.5 5 -53.5q8 -29 25.5 -47t34.5 -29q20 -12 41 -18q37 8 69 27q27 16 51.5 39.5t28.5 64.5q4 39 -8 67.5t-29.5 45t-35 23.5t-23.5 7q-12 -4 -18 -12q-4 -6 -7 -10l-34 12h-6q-4 -2 -12.5 -4t-18.5 -8 q-12 -6 -25.5 -20.5t-24 -36t-13.5 -48z" />
<glyph unicode="&#xb4;" horiz-adv-x="768" d="M408 1065q78 68 141 121q55 45 98 82q23 21 43 39q-2 0 2 -7.5t8 -15.5q6 -10 11 -22l-256 -183l266 166q4 -18 8 -31q2 -8 6 -20q2 -6 4 -10l-23 -14q-22 -13 -54.5 -31.5t-71.5 -40t-72 -40t-56 -29.5l-22 -11l-16 24q-8 10 -16 23z" />
<glyph unicode="&#xb5;" horiz-adv-x="745" d="M-51 -240q0 4 2 12.5t7 38t17.5 88t33 164t52 264t78.5 390.5h174q-39 -182 -64.5 -319.5t-47.5 -260.5q-12 -61 8 -76.5t56 -1t76 51t65 84.5q0 6 2 19t12 64.5t30.5 152.5t57.5 286h176q-18 -90 -33.5 -168t-29 -148.5t-26.5 -135t-26 -128.5q-12 -66 14.5 -79 t67.5 8.5t83 67.5t61 99h57q-37 -102 -106.5 -168.5t-141.5 -88t-129 7t-69 116.5q-53 -63 -119 -99t-123 -32q-10 -47 -17.5 -88t-17.5 -82z" />
<glyph unicode="&#xb6;" horiz-adv-x="729" d="M78 700q2 61 24 134q10 33 27.5 61.5t38.5 54.5q41 49 111 84q47 23 119.5 32t149.5 10t149.5 -1t119.5 -2l-33 -100h-125q4 -6 7.5 -13.5t7.5 -13.5q23 -49 22 -108v-25.5t-4 -26.5q-2 -10 -3 -24t-5 -29l-180 -846l-133 -2l116 543q-8 -4 -15 -6t-15 -4l-31 -6 l-111 -527h-133l109 527q-29 4 -50.5 13t-43.5 24q-18 14 -36 30.5t-30 36.5q-14 20 -23.5 42t-17.5 44q-12 45 -12 98zM440 485h11h26t23 4l69 324q4 20 6.5 37.5t2.5 34.5q0 16 -2.5 28.5t-6.5 22.5q-6 10 -11 19.5t-13 17.5z" />
<glyph unicode="&#xb8;" horiz-adv-x="313" d="M71 -214.5q-3 15.5 5 31t24.5 28t36.5 18.5l4 196l62 -49q2 0 3 -21.5t1 -48t1 -49t5 -24.5l88 -100q8 -31 -1 -71t-28.5 -78t-45 -67.5t-46.5 -39.5q-4 0 -23.5 1t-23.5 15q20 20 45 53t45.5 68t31.5 68.5t5 56.5q-12 31 -34.5 30.5t-48 -18.5t-50.5 -47t-39 -51 q-2 0 0 9t4 21.5t2 24.5t-4 16q-16 12 -19 27.5z" />
<glyph unicode="&#xc0;" horiz-adv-x="921" d="M-891.5 566.5q12.5 37.5 43.5 68.5t71 54.5t70 33.5q68 23 158 22q111 0 202 -35.5t181 -82.5q20 -10 43 -23q20 -10 45 -23.5t53 -23.5q90 131 209 270.5t236 274.5t217 263t154 239q-143 -150 -289 -265q-61 -49 -131 -96t-140.5 -82t-141.5 -56.5t-134 -17.5 q-45 2 -70.5 28t-40.5 54q-16 35 -22 78q12 -31 31 -53q16 -20 38.5 -38.5t55.5 -22.5q33 -6 60.5 -2t47.5 12q23 8 43 20q-33 -8 -65 -14q-29 -4 -59.5 -4t-55.5 14q-29 16 -50.5 40t-33.5 42q16 -10 46 -19.5t76 -11.5t113.5 9.5t159.5 44.5q121 43 223.5 108.5 t180.5 126.5q90 72 164 152l8 -13l2 -2q0 -2 4 -6q0 -4 4 -4h2v-29q-12 -27 -29 -55q-14 -25 -32.5 -56.5t-40.5 -62.5q-23 -33 -64 -84l-82 -102q-47 -59 -100 -123q76 78 126 133.5t88 103.5t73 99t78 123l24 -27q-2 -6 -4 -14q-4 -16 -4 -29q0 -12 4 -9t8 7l10 15v8 l7 -19q8 -16 24.5 -50t31.5 -80t24.5 -102t3.5 -116q-6 -53 -24.5 -111.5t-41.5 -112.5t-46.5 -100.5t-39.5 -74.5h2l-12 -19l-8 -12q-2 -2 -2 -4q-43 -74 -91.5 -156t-90.5 -152.5t-70.5 -120.5t-34.5 -58q-37 -59 -66.5 -119t-50 -114t-30 -101t-1.5 -80l4 -17 q33 -10 92.5 42.5t130 135.5t144.5 182t134.5 184t99 141.5t40.5 54.5q16 0 17 -27q-37 -63 -90.5 -145t-115.5 -167t-130 -166t-132.5 -144.5t-122.5 -101.5t-101 -36q-66 2 -80.5 62.5t6 154t68 211t104.5 234.5q49 16 123 57t135 115q-23 -37 -48.5 -78t-52 -83t-51 -83 t-45.5 -74q-63 -98 -111 -208.5t-52 -223.5q-2 -8 -3 -20q2 -8 3.5 -18.5t7.5 -16.5q6 -8 12 -8h6q-2 0 -4 4q-4 6 -6 18q0 4 -1 9.5t-1 9.5q-4 61 16.5 135t55.5 147q16 33 38.5 74t49.5 82q55 92 107 181t90 157t57.5 102.5t7.5 18.5q-6 -14 -43 -70q27 63 9.5 119.5 t-38.5 85.5q4 6 6 11t6 11q35 51 66 105q27 47 54.5 105.5t47.5 117.5q10 31 13.5 59.5t3.5 53.5q8 -14 15 -44t7 -81q0 -43 -13 -89t-30 -87q-18 -47 -41 -92q29 43 51 88q18 39 34 86t18 94q0 47 -8.5 87t-18.5 71q-12 37 -29 65q-18 -31 -45.5 -75t-60.5 -94t-68 -100 t-65 -91q-49 -66 -128 -155t-165 -189l-2 -2l-74 -86l2 2q-23 -27 -43 -51.5t-37 -43.5q-2 0 -2 -2q-4 -6 -10 -12t-10 -12q25 -4 50.5 -6t53.5 -2q106 2 178 22.5t117 50.5q27 18 57.5 47t49 63t16.5 69.5t-39 70.5q10 -16 19 -35q6 -16 9 -35.5t-5 -41.5q-8 -27 -27 -50 q16 37 15 72t-14 62.5t-36.5 44t-50.5 14.5q39 0 72 -10q29 -10 51 -35t26 -78q2 -39 -18 -81t-62 -80t-105.5 -65.5t-147.5 -39.5q-61 -10 -125 -10t-123 6q-49 -63 -89 -118.5t-63 -96.5q-23 -43 -36 -74t-20 -57.5t-14.5 -55t-17.5 -69.5q-45 -8 -76 16q-12 8 -21 18.5 t-15 20.5q-8 10 -11 22q0 31 15 84q12 45 39.5 115t85.5 172q8 14 16 27.5t16 29.5q-47 10 -87 23.5t-68 24.5q-35 12 -62 22q-41 12 -76.5 22.5t-70.5 17.5t-71 10t-77 3q-100 -4 -165.5 -34.5t-100.5 -57.5q31 39 93.5 68.5t121.5 38.5q63 8 128 -0.5t118 -22.5t88 -27.5 t41 -15.5q-98 53 -199.5 71.5t-210.5 -1.5q-29 -6 -60.5 -17.5t-61 -29t-53 -41t-36.5 -51.5q-25 37 -12.5 74.5zM-137 33q8 49 26 102q16 47 43 106.5t72 123.5q29 37 71 88t91 108q55 66 113.5 131.5t105.5 118.5q55 61 109 119q-113 -106 -213 -211q-43 -45 -87 -93 t-85 -95.5t-75 -90.5t-54 -80q-43 -74 -68 -134t-35 -103q-12 -51 -14 -90zM293 -172.5q2 -15.5 4 -26.5q0 -4 2 -8q4 -8 8 -10q4 -4 8 -4q2 -2 7 -2q-2 0 -5 4l-4 8t-2 10q-2 10 -4 25.5t-2 28.5q0 10 2 24t6 31q4 18 9 39q-6 -14 -13 -29q-10 -29 -14 -59q-4 -16 -2 -31.5 zM621 1913l8 39l196 -119l-139 109q14 2 33 2q16 0 34.5 -1t41.5 -3q45 -47 84 -90t84 -88q4 -4 5 -8.5t5 -8.5q20 -23 39.5 -42t38.5 -42q8 -10 16 -17t14 -15q2 -2 14.5 -16.5t27 -30t26.5 -30t14 -16.5q-2 -2 -16 9.5t-32.5 26t-36 27.5t-25.5 17q-18 6 -46 22.5t-61 39 t-69.5 48t-73.5 52.5q-84 61 -182 135z" />
<glyph unicode="&#xc1;" horiz-adv-x="921" d="M-891.5 566.5q12.5 37.5 43.5 68.5t71 54.5t70 33.5q68 23 158 22q111 0 202 -35.5t181 -82.5q20 -10 43 -23q20 -10 45 -23.5t53 -23.5q90 131 209 270.5t236 274.5t217 263t154 239q-143 -150 -289 -265q-61 -49 -131 -96t-140.5 -82t-141.5 -56.5t-134 -17.5 q-45 2 -70.5 28t-40.5 54q-16 35 -22 78q12 -31 31 -53q16 -20 38.5 -38.5t55.5 -22.5q33 -6 60.5 -2t47.5 12q23 8 43 20q-33 -8 -65 -14q-29 -4 -59.5 -4t-55.5 14q-29 16 -50.5 40t-33.5 42q16 -10 46 -19.5t76 -11.5t113.5 9.5t159.5 44.5q121 43 223.5 108.5 t180.5 126.5q90 72 164 152l8 -13l2 -2q0 -2 4 -6q0 -4 4 -4h2v-29q-12 -27 -29 -55q-14 -25 -32.5 -56.5t-40.5 -62.5q-23 -33 -64 -84l-82 -102q-47 -59 -100 -123q76 78 126 133.5t88 103.5t73 99t78 123l24 -27q-2 -6 -4 -14q-4 -16 -4 -29q0 -12 4 -9t8 7l10 15v8 l7 -19q8 -16 24.5 -50t31.5 -80t24.5 -102t3.5 -116q-6 -53 -24.5 -111.5t-41.5 -112.5t-46.5 -100.5t-39.5 -74.5h2l-12 -19l-8 -12q-2 -2 -2 -4q-43 -74 -91.5 -156t-90.5 -152.5t-70.5 -120.5t-34.5 -58q-37 -59 -66.5 -119t-50 -114t-30 -101t-1.5 -80l4 -17 q33 -10 92.5 42.5t130 135.5t144.5 182t134.5 184t99 141.5t40.5 54.5q16 0 17 -27q-37 -63 -90.5 -145t-115.5 -167t-130 -166t-132.5 -144.5t-122.5 -101.5t-101 -36q-66 2 -80.5 62.5t6 154t68 211t104.5 234.5q49 16 123 57t135 115q-23 -37 -48.5 -78t-52 -83t-51 -83 t-45.5 -74q-63 -98 -111 -208.5t-52 -223.5q-2 -8 -3 -20q2 -8 3.5 -18.5t7.5 -16.5q6 -8 12 -8h6q-2 0 -4 4q-4 6 -6 18q0 4 -1 9.5t-1 9.5q-4 61 16.5 135t55.5 147q16 33 38.5 74t49.5 82q55 92 107 181t90 157t57.5 102.5t7.5 18.5q-6 -14 -43 -70q27 63 9.5 119.5 t-38.5 85.5q4 6 6 11t6 11q35 51 66 105q27 47 54.5 105.5t47.5 117.5q10 31 13.5 59.5t3.5 53.5q8 -14 15 -44t7 -81q0 -43 -13 -89t-30 -87q-18 -47 -41 -92q29 43 51 88q18 39 34 86t18 94q0 47 -8.5 87t-18.5 71q-12 37 -29 65q-18 -31 -45.5 -75t-60.5 -94t-68 -100 t-65 -91q-49 -66 -128 -155t-165 -189l-2 -2l-74 -86l2 2q-23 -27 -43 -51.5t-37 -43.5q-2 0 -2 -2q-4 -6 -10 -12t-10 -12q25 -4 50.5 -6t53.5 -2q106 2 178 22.5t117 50.5q27 18 57.5 47t49 63t16.5 69.5t-39 70.5q10 -16 19 -35q6 -16 9 -35.5t-5 -41.5q-8 -27 -27 -50 q16 37 15 72t-14 62.5t-36.5 44t-50.5 14.5q39 0 72 -10q29 -10 51 -35t26 -78q2 -39 -18 -81t-62 -80t-105.5 -65.5t-147.5 -39.5q-61 -10 -125 -10t-123 6q-49 -63 -89 -118.5t-63 -96.5q-23 -43 -36 -74t-20 -57.5t-14.5 -55t-17.5 -69.5q-45 -8 -76 16q-12 8 -21 18.5 t-15 20.5q-8 10 -11 22q0 31 15 84q12 45 39.5 115t85.5 172q8 14 16 27.5t16 29.5q-47 10 -87 23.5t-68 24.5q-35 12 -62 22q-41 12 -76.5 22.5t-70.5 17.5t-71 10t-77 3q-100 -4 -165.5 -34.5t-100.5 -57.5q31 39 93.5 68.5t121.5 38.5q63 8 128 -0.5t118 -22.5t88 -27.5 t41 -15.5q-98 53 -199.5 71.5t-210.5 -1.5q-29 -6 -60.5 -17.5t-61 -29t-53 -41t-36.5 -51.5q-25 37 -12.5 74.5zM-137 33q8 49 26 102q16 47 43 106.5t72 123.5q29 37 71 88t91 108q55 66 113.5 131.5t105.5 118.5q55 61 109 119q-113 -106 -213 -211q-43 -45 -87 -93 t-85 -95.5t-75 -90.5t-54 -80q-43 -74 -68 -134t-35 -103q-12 -51 -14 -90zM293 -172.5q2 -15.5 4 -26.5q0 -4 2 -8q4 -8 8 -10q4 -4 8 -4q2 -2 7 -2q-2 0 -5 4l-4 8t-2 10q-2 10 -4 25.5t-2 28.5q0 10 2 24t6 31q4 18 9 39q-6 -14 -13 -29q-10 -29 -14 -59q-4 -16 -2 -31.5 zM965 1643q78 68 141 121q55 45 98 82q23 21 43 39q-2 0 2 -7.5t8 -15.5q6 -10 11 -22l-256 -183l266 166q4 -18 8 -31q2 -8 6 -20q2 -6 4 -10l-23 -14q-22 -13 -54.5 -31.5t-71.5 -40t-72 -40t-56 -29.5l-22 -11l-16 24q-8 10 -16 23z" />
<glyph unicode="&#xc2;" horiz-adv-x="921" d="M-891.5 566.5q12.5 37.5 43.5 68.5t71 54.5t70 33.5q68 23 158 22q111 0 202 -35.5t181 -82.5q20 -10 43 -23q20 -10 45 -23.5t53 -23.5q90 131 209 270.5t236 274.5t217 263t154 239q-143 -150 -289 -265q-61 -49 -131 -96t-140.5 -82t-141.5 -56.5t-134 -17.5 q-45 2 -70.5 28t-40.5 54q-16 35 -22 78q12 -31 31 -53q16 -20 38.5 -38.5t55.5 -22.5q33 -6 60.5 -2t47.5 12q23 8 43 20q-33 -8 -65 -14q-29 -4 -59.5 -4t-55.5 14q-29 16 -50.5 40t-33.5 42q16 -10 46 -19.5t76 -11.5t113.5 9.5t159.5 44.5q121 43 223.5 108.5 t180.5 126.5q90 72 164 152l8 -13l2 -2q0 -2 4 -6q0 -4 4 -4h2v-29q-12 -27 -29 -55q-14 -25 -32.5 -56.5t-40.5 -62.5q-23 -33 -64 -84l-82 -102q-47 -59 -100 -123q76 78 126 133.5t88 103.5t73 99t78 123l24 -27q-2 -6 -4 -14q-4 -16 -4 -29q0 -12 4 -9t8 7l10 15v8 l7 -19q8 -16 24.5 -50t31.5 -80t24.5 -102t3.5 -116q-6 -53 -24.5 -111.5t-41.5 -112.5t-46.5 -100.5t-39.5 -74.5h2l-12 -19l-8 -12q-2 -2 -2 -4q-43 -74 -91.5 -156t-90.5 -152.5t-70.5 -120.5t-34.5 -58q-37 -59 -66.5 -119t-50 -114t-30 -101t-1.5 -80l4 -17 q33 -10 92.5 42.5t130 135.5t144.5 182t134.5 184t99 141.5t40.5 54.5q16 0 17 -27q-37 -63 -90.5 -145t-115.5 -167t-130 -166t-132.5 -144.5t-122.5 -101.5t-101 -36q-66 2 -80.5 62.5t6 154t68 211t104.5 234.5q49 16 123 57t135 115q-23 -37 -48.5 -78t-52 -83t-51 -83 t-45.5 -74q-63 -98 -111 -208.5t-52 -223.5q-2 -8 -3 -20q2 -8 3.5 -18.5t7.5 -16.5q6 -8 12 -8h6q-2 0 -4 4q-4 6 -6 18q0 4 -1 9.5t-1 9.5q-4 61 16.5 135t55.5 147q16 33 38.5 74t49.5 82q55 92 107 181t90 157t57.5 102.5t7.5 18.5q-6 -14 -43 -70q27 63 9.5 119.5 t-38.5 85.5q4 6 6 11t6 11q35 51 66 105q27 47 54.5 105.5t47.5 117.5q10 31 13.5 59.5t3.5 53.5q8 -14 15 -44t7 -81q0 -43 -13 -89t-30 -87q-18 -47 -41 -92q29 43 51 88q18 39 34 86t18 94q0 47 -8.5 87t-18.5 71q-12 37 -29 65q-18 -31 -45.5 -75t-60.5 -94t-68 -100 t-65 -91q-49 -66 -128 -155t-165 -189l-2 -2l-74 -86l2 2q-23 -27 -43 -51.5t-37 -43.5q-2 0 -2 -2q-4 -6 -10 -12t-10 -12q25 -4 50.5 -6t53.5 -2q106 2 178 22.5t117 50.5q27 18 57.5 47t49 63t16.5 69.5t-39 70.5q10 -16 19 -35q6 -16 9 -35.5t-5 -41.5q-8 -27 -27 -50 q16 37 15 72t-14 62.5t-36.5 44t-50.5 14.5q39 0 72 -10q29 -10 51 -35t26 -78q2 -39 -18 -81t-62 -80t-105.5 -65.5t-147.5 -39.5q-61 -10 -125 -10t-123 6q-49 -63 -89 -118.5t-63 -96.5q-23 -43 -36 -74t-20 -57.5t-14.5 -55t-17.5 -69.5q-45 -8 -76 16q-12 8 -21 18.5 t-15 20.5q-8 10 -11 22q0 31 15 84q12 45 39.5 115t85.5 172q8 14 16 27.5t16 29.5q-47 10 -87 23.5t-68 24.5q-35 12 -62 22q-41 12 -76.5 22.5t-70.5 17.5t-71 10t-77 3q-100 -4 -165.5 -34.5t-100.5 -57.5q31 39 93.5 68.5t121.5 38.5q63 8 128 -0.5t118 -22.5t88 -27.5 t41 -15.5q-98 53 -199.5 71.5t-210.5 -1.5q-29 -6 -60.5 -17.5t-61 -29t-53 -41t-36.5 -51.5q-25 37 -12.5 74.5zM-137 33q8 49 26 102q16 47 43 106.5t72 123.5q29 37 71 88t91 108q55 66 113.5 131.5t105.5 118.5q55 61 109 119q-113 -106 -213 -211q-43 -45 -87 -93 t-85 -95.5t-75 -90.5t-54 -80q-43 -74 -68 -134t-35 -103q-12 -51 -14 -90zM293 -172.5q2 -15.5 4 -26.5q0 -4 2 -8q4 -8 8 -10q4 -4 8 -4q2 -2 7 -2q-2 0 -5 4l-4 8t-2 10q-2 10 -4 25.5t-2 28.5q0 10 2 24t6 31q4 18 9 39q-6 -14 -13 -29q-10 -29 -14 -59q-4 -16 -2 -31.5 zM647 1704l7 2l266 243l102 23q4 -80 6 -143q0 -27 1 -53.5t2 -48t2 -34.5l1 -14q0 -2 -7 -1t-17 3t-25 6l-12 76l-10 148l-238 -179l-8 5l51 38z" />
<glyph unicode="&#xc3;" horiz-adv-x="921" d="M-891.5 566.5q12.5 37.5 43.5 68.5t71 54.5t70 33.5q68 23 158 22q111 0 202 -35.5t181 -82.5q20 -10 43 -23q20 -10 45 -23.5t53 -23.5q90 131 209 270.5t236 274.5t217 263t154 239q-143 -150 -289 -265q-61 -49 -131 -96t-140.5 -82t-141.5 -56.5t-134 -17.5 q-45 2 -70.5 28t-40.5 54q-16 35 -22 78q12 -31 31 -53q16 -20 38.5 -38.5t55.5 -22.5q33 -6 60.5 -2t47.5 12q23 8 43 20q-33 -8 -65 -14q-29 -4 -59.5 -4t-55.5 14q-29 16 -50.5 40t-33.5 42q16 -10 46 -19.5t76 -11.5t113.5 9.5t159.5 44.5q121 43 223.5 108.5 t180.5 126.5q90 72 164 152l8 -13l2 -2q0 -2 4 -6q0 -4 4 -4h2v-29q-12 -27 -29 -55q-14 -25 -32.5 -56.5t-40.5 -62.5q-23 -33 -64 -84l-82 -102q-47 -59 -100 -123q76 78 126 133.5t88 103.5t73 99t78 123l24 -27q-2 -6 -4 -14q-4 -16 -4 -29q0 -12 4 -9t8 7l10 15v8 l7 -19q8 -16 24.5 -50t31.5 -80t24.5 -102t3.5 -116q-6 -53 -24.5 -111.5t-41.5 -112.5t-46.5 -100.5t-39.5 -74.5h2l-12 -19l-8 -12q-2 -2 -2 -4q-43 -74 -91.5 -156t-90.5 -152.5t-70.5 -120.5t-34.5 -58q-37 -59 -66.5 -119t-50 -114t-30 -101t-1.5 -80l4 -17 q33 -10 92.5 42.5t130 135.5t144.5 182t134.5 184t99 141.5t40.5 54.5q16 0 17 -27q-37 -63 -90.5 -145t-115.5 -167t-130 -166t-132.5 -144.5t-122.5 -101.5t-101 -36q-66 2 -80.5 62.5t6 154t68 211t104.5 234.5q49 16 123 57t135 115q-23 -37 -48.5 -78t-52 -83t-51 -83 t-45.5 -74q-63 -98 -111 -208.5t-52 -223.5q-2 -8 -3 -20q2 -8 3.5 -18.5t7.5 -16.5q6 -8 12 -8h6q-2 0 -4 4q-4 6 -6 18q0 4 -1 9.5t-1 9.5q-4 61 16.5 135t55.5 147q16 33 38.5 74t49.5 82q55 92 107 181t90 157t57.5 102.5t7.5 18.5q-6 -14 -43 -70q27 63 9.5 119.5 t-38.5 85.5q4 6 6 11t6 11q35 51 66 105q27 47 54.5 105.5t47.5 117.5q10 31 13.5 59.5t3.5 53.5q8 -14 15 -44t7 -81q0 -43 -13 -89t-30 -87q-18 -47 -41 -92q29 43 51 88q18 39 34 86t18 94q0 47 -8.5 87t-18.5 71q-12 37 -29 65q-18 -31 -45.5 -75t-60.5 -94t-68 -100 t-65 -91q-49 -66 -128 -155t-165 -189l-2 -2l-74 -86l2 2q-23 -27 -43 -51.5t-37 -43.5q-2 0 -2 -2q-4 -6 -10 -12t-10 -12q25 -4 50.5 -6t53.5 -2q106 2 178 22.5t117 50.5q27 18 57.5 47t49 63t16.5 69.5t-39 70.5q10 -16 19 -35q6 -16 9 -35.5t-5 -41.5q-8 -27 -27 -50 q16 37 15 72t-14 62.5t-36.5 44t-50.5 14.5q39 0 72 -10q29 -10 51 -35t26 -78q2 -39 -18 -81t-62 -80t-105.5 -65.5t-147.5 -39.5q-61 -10 -125 -10t-123 6q-49 -63 -89 -118.5t-63 -96.5q-23 -43 -36 -74t-20 -57.5t-14.5 -55t-17.5 -69.5q-45 -8 -76 16q-12 8 -21 18.5 t-15 20.5q-8 10 -11 22q0 31 15 84q12 45 39.5 115t85.5 172q8 14 16 27.5t16 29.5q-47 10 -87 23.5t-68 24.5q-35 12 -62 22q-41 12 -76.5 22.5t-70.5 17.5t-71 10t-77 3q-100 -4 -165.5 -34.5t-100.5 -57.5q31 39 93.5 68.5t121.5 38.5q63 8 128 -0.5t118 -22.5t88 -27.5 t41 -15.5q-98 53 -199.5 71.5t-210.5 -1.5q-29 -6 -60.5 -17.5t-61 -29t-53 -41t-36.5 -51.5q-25 37 -12.5 74.5zM-137 33q8 49 26 102q16 47 43 106.5t72 123.5q29 37 71 88t91 108q55 66 113.5 131.5t105.5 118.5q55 61 109 119q-113 -106 -213 -211q-43 -45 -87 -93 t-85 -95.5t-75 -90.5t-54 -80q-43 -74 -68 -134t-35 -103q-12 -51 -14 -90zM293 -172.5q2 -15.5 4 -26.5q0 -4 2 -8q4 -8 8 -10q4 -4 8 -4q2 -2 7 -2q-2 0 -5 4l-4 8t-2 10q-2 10 -4 25.5t-2 28.5q0 10 2 24t6 31q4 18 9 39q-6 -14 -13 -29q-10 -29 -14 -59q-4 -16 -2 -31.5 zM445 1706q16 41 47 74q27 29 70.5 48.5t113.5 12.5q70 -6 111 -19t68.5 -25.5t50 -21.5t57.5 -9t68.5 16t62.5 37q33 23 63 55l29 -29l-72 -102l47 29q-10 -35 -32 -62q-20 -23 -55.5 -41t-92.5 -14q-57 2 -106.5 18.5t-89 36t-70.5 37t-51 23.5q-23 4 -54.5 -7.5 t-64.5 -27.5q-37 -20 -78 -45l-4 12l63 62z" />
<glyph unicode="&#xc4;" horiz-adv-x="921" d="M-891.5 566.5q12.5 37.5 43.5 68.5t71 54.5t70 33.5q68 23 158 22q111 0 202 -35.5t181 -82.5q20 -10 43 -23q20 -10 45 -23.5t53 -23.5q90 131 209 270.5t236 274.5t217 263t154 239q-143 -150 -289 -265q-61 -49 -131 -96t-140.5 -82t-141.5 -56.5t-134 -17.5 q-45 2 -70.5 28t-40.5 54q-16 35 -22 78q12 -31 31 -53q16 -20 38.5 -38.5t55.5 -22.5q33 -6 60.5 -2t47.5 12q23 8 43 20q-33 -8 -65 -14q-29 -4 -59.5 -4t-55.5 14q-29 16 -50.5 40t-33.5 42q16 -10 46 -19.5t76 -11.5t113.5 9.5t159.5 44.5q121 43 223.5 108.5 t180.5 126.5q90 72 164 152l8 -13l2 -2q0 -2 4 -6q0 -4 4 -4h2v-29q-12 -27 -29 -55q-14 -25 -32.5 -56.5t-40.5 -62.5q-23 -33 -64 -84l-82 -102q-47 -59 -100 -123q76 78 126 133.5t88 103.5t73 99t78 123l24 -27q-2 -6 -4 -14q-4 -16 -4 -29q0 -12 4 -9t8 7l10 15v8 l7 -19q8 -16 24.5 -50t31.5 -80t24.5 -102t3.5 -116q-6 -53 -24.5 -111.5t-41.5 -112.5t-46.5 -100.5t-39.5 -74.5h2l-12 -19l-8 -12q-2 -2 -2 -4q-43 -74 -91.5 -156t-90.5 -152.5t-70.5 -120.5t-34.5 -58q-37 -59 -66.5 -119t-50 -114t-30 -101t-1.5 -80l4 -17 q33 -10 92.5 42.5t130 135.5t144.5 182t134.5 184t99 141.5t40.5 54.5q16 0 17 -27q-37 -63 -90.5 -145t-115.5 -167t-130 -166t-132.5 -144.5t-122.5 -101.5t-101 -36q-66 2 -80.5 62.5t6 154t68 211t104.5 234.5q49 16 123 57t135 115q-23 -37 -48.5 -78t-52 -83t-51 -83 t-45.5 -74q-63 -98 -111 -208.5t-52 -223.5q-2 -8 -3 -20q2 -8 3.5 -18.5t7.5 -16.5q6 -8 12 -8h6q-2 0 -4 4q-4 6 -6 18q0 4 -1 9.5t-1 9.5q-4 61 16.5 135t55.5 147q16 33 38.5 74t49.5 82q55 92 107 181t90 157t57.5 102.5t7.5 18.5q-6 -14 -43 -70q27 63 9.5 119.5 t-38.5 85.5q4 6 6 11t6 11q35 51 66 105q27 47 54.5 105.5t47.5 117.5q10 31 13.5 59.5t3.5 53.5q8 -14 15 -44t7 -81q0 -43 -13 -89t-30 -87q-18 -47 -41 -92q29 43 51 88q18 39 34 86t18 94q0 47 -8.5 87t-18.5 71q-12 37 -29 65q-18 -31 -45.5 -75t-60.5 -94t-68 -100 t-65 -91q-49 -66 -128 -155t-165 -189l-2 -2l-74 -86l2 2q-23 -27 -43 -51.5t-37 -43.5q-2 0 -2 -2q-4 -6 -10 -12t-10 -12q25 -4 50.5 -6t53.5 -2q106 2 178 22.5t117 50.5q27 18 57.5 47t49 63t16.5 69.5t-39 70.5q10 -16 19 -35q6 -16 9 -35.5t-5 -41.5q-8 -27 -27 -50 q16 37 15 72t-14 62.5t-36.5 44t-50.5 14.5q39 0 72 -10q29 -10 51 -35t26 -78q2 -39 -18 -81t-62 -80t-105.5 -65.5t-147.5 -39.5q-61 -10 -125 -10t-123 6q-49 -63 -89 -118.5t-63 -96.5q-23 -43 -36 -74t-20 -57.5t-14.5 -55t-17.5 -69.5q-45 -8 -76 16q-12 8 -21 18.5 t-15 20.5q-8 10 -11 22q0 31 15 84q12 45 39.5 115t85.5 172q8 14 16 27.5t16 29.5q-47 10 -87 23.5t-68 24.5q-35 12 -62 22q-41 12 -76.5 22.5t-70.5 17.5t-71 10t-77 3q-100 -4 -165.5 -34.5t-100.5 -57.5q31 39 93.5 68.5t121.5 38.5q63 8 128 -0.5t118 -22.5t88 -27.5 t41 -15.5q-98 53 -199.5 71.5t-210.5 -1.5q-29 -6 -60.5 -17.5t-61 -29t-53 -41t-36.5 -51.5q-25 37 -12.5 74.5zM-137 33q8 49 26 102q16 47 43 106.5t72 123.5q29 37 71 88t91 108q55 66 113.5 131.5t105.5 118.5q55 61 109 119q-113 -106 -213 -211q-43 -45 -87 -93 t-85 -95.5t-75 -90.5t-54 -80q-43 -74 -68 -134t-35 -103q-12 -51 -14 -90zM293 -172.5q2 -15.5 4 -26.5q0 -4 2 -8q4 -8 8 -10q4 -4 8 -4q2 -2 7 -2q-2 0 -5 4l-4 8t-2 10q-2 10 -4 25.5t-2 28.5q0 10 2 24t6 31q4 18 9 39q-6 -14 -13 -29q-10 -29 -14 -59q-4 -16 -2 -31.5 zM618 1831q-1 41 9 57t31.5 24.5t46.5 12.5q27 4 61 4l-36 -84l73 92l25 -26q-29 -57 -53 -105q-23 -41 -44.5 -79t-37.5 -48q-25 -16 -41.5 8.5t-24.5 63.5t-9 80zM907 1831q-1 41 9 57t31.5 24.5t46.5 12.5q27 4 61 4l-37 -84l74 92l25 -26q-29 -57 -54 -105 q-23 -41 -44 -79t-38 -48q-25 -16 -41 8.5t-24 63.5t-9 80z" />
<glyph unicode="&#xc5;" horiz-adv-x="921" d="M-891.5 566.5q12.5 37.5 43.5 68.5t71 54.5t70 33.5q68 23 158 22q111 0 202 -35.5t181 -82.5q20 -10 43 -23q20 -10 45 -23.5t53 -23.5q90 131 209 270.5t236 274.5t217 263t154 239q-143 -150 -289 -265q-61 -49 -131 -96t-140.5 -82t-141.5 -56.5t-134 -17.5 q-45 2 -70.5 28t-40.5 54q-16 35 -22 78q12 -31 31 -53q16 -20 38.5 -38.5t55.5 -22.5q33 -6 60.5 -2t47.5 12q23 8 43 20q-33 -8 -65 -14q-29 -4 -59.5 -4t-55.5 14q-29 16 -50.5 40t-33.5 42q16 -10 46 -19.5t76 -11.5t113.5 9.5t159.5 44.5q121 43 223.5 108.5 t180.5 126.5q90 72 164 152l8 -13l2 -2q0 -2 4 -6q0 -4 4 -4h2v-29q-12 -27 -29 -55q-14 -25 -32.5 -56.5t-40.5 -62.5q-23 -33 -64 -84l-82 -102q-47 -59 -100 -123q76 78 126 133.5t88 103.5t73 99t78 123l24 -27q-2 -6 -4 -14q-4 -16 -4 -29q0 -12 4 -9t8 7l10 15v8 l7 -19q8 -16 24.5 -50t31.5 -80t24.5 -102t3.5 -116q-6 -53 -24.5 -111.5t-41.5 -112.5t-46.5 -100.5t-39.5 -74.5h2l-12 -19l-8 -12q-2 -2 -2 -4q-43 -74 -91.5 -156t-90.5 -152.5t-70.5 -120.5t-34.5 -58q-37 -59 -66.5 -119t-50 -114t-30 -101t-1.5 -80l4 -17 q33 -10 92.5 42.5t130 135.5t144.5 182t134.5 184t99 141.5t40.5 54.5q16 0 17 -27q-37 -63 -90.5 -145t-115.5 -167t-130 -166t-132.5 -144.5t-122.5 -101.5t-101 -36q-66 2 -80.5 62.5t6 154t68 211t104.5 234.5q49 16 123 57t135 115q-23 -37 -48.5 -78t-52 -83t-51 -83 t-45.5 -74q-63 -98 -111 -208.5t-52 -223.5q-2 -8 -3 -20q2 -8 3.5 -18.5t7.5 -16.5q6 -8 12 -8h6q-2 0 -4 4q-4 6 -6 18q0 4 -1 9.5t-1 9.5q-4 61 16.5 135t55.5 147q16 33 38.5 74t49.5 82q55 92 107 181t90 157t57.5 102.5t7.5 18.5q-6 -14 -43 -70q27 63 9.5 119.5 t-38.5 85.5q4 6 6 11t6 11q35 51 66 105q27 47 54.5 105.5t47.5 117.5q10 31 13.5 59.5t3.5 53.5q8 -14 15 -44t7 -81q0 -43 -13 -89t-30 -87q-18 -47 -41 -92q29 43 51 88q18 39 34 86t18 94q0 47 -8.5 87t-18.5 71q-12 37 -29 65q-18 -31 -45.5 -75t-60.5 -94t-68 -100 t-65 -91q-49 -66 -128 -155t-165 -189l-2 -2l-74 -86l2 2q-23 -27 -43 -51.5t-37 -43.5q-2 0 -2 -2q-4 -6 -10 -12t-10 -12q25 -4 50.5 -6t53.5 -2q106 2 178 22.5t117 50.5q27 18 57.5 47t49 63t16.5 69.5t-39 70.5q10 -16 19 -35q6 -16 9 -35.5t-5 -41.5q-8 -27 -27 -50 q16 37 15 72t-14 62.5t-36.5 44t-50.5 14.5q39 0 72 -10q29 -10 51 -35t26 -78q2 -39 -18 -81t-62 -80t-105.5 -65.5t-147.5 -39.5q-61 -10 -125 -10t-123 6q-49 -63 -89 -118.5t-63 -96.5q-23 -43 -36 -74t-20 -57.5t-14.5 -55t-17.5 -69.5q-45 -8 -76 16q-12 8 -21 18.5 t-15 20.5q-8 10 -11 22q0 31 15 84q12 45 39.5 115t85.5 172q8 14 16 27.5t16 29.5q-47 10 -87 23.5t-68 24.5q-35 12 -62 22q-41 12 -76.5 22.5t-70.5 17.5t-71 10t-77 3q-100 -4 -165.5 -34.5t-100.5 -57.5q31 39 93.5 68.5t121.5 38.5q63 8 128 -0.5t118 -22.5t88 -27.5 t41 -15.5q-98 53 -199.5 71.5t-210.5 -1.5q-29 -6 -60.5 -17.5t-61 -29t-53 -41t-36.5 -51.5q-25 37 -12.5 74.5zM-137 33q8 49 26 102q16 47 43 106.5t72 123.5q29 37 71 88t91 108q55 66 113.5 131.5t105.5 118.5q55 61 109 119q-113 -106 -213 -211q-43 -45 -87 -93 t-85 -95.5t-75 -90.5t-54 -80q-43 -74 -68 -134t-35 -103q-12 -51 -14 -90zM293 -172.5q2 -15.5 4 -26.5q0 -4 2 -8q4 -8 8 -10q4 -4 8 -4q2 -2 7 -2q-2 0 -5 4l-4 8t-2 10q-2 10 -4 25.5t-2 28.5q0 10 2 24t6 31q4 18 9 39q-6 -14 -13 -29q-10 -29 -14 -59q-4 -16 -2 -31.5 zM623 1857q-12 38 2 83t44 73.5t60 44.5q37 20 76 29l127 -31h-10q-4 0 -9 1t-12 1q-14 2 -47.5 -6t-66.5 -26q-16 -10 -33.5 -28.5t-32.5 -35.5q-16 -23 -33 -43l31 31q29 29 78 59q47 31 76.5 36t40.5 5q4 0 6 -1t6 -1q4 -2 6 -2q14 -4 31 -12q14 -8 28.5 -20.5 t28.5 -30.5q14 -20 20.5 -48t4.5 -55.5t-9.5 -52.5t-21.5 -37q-14 -14 -29.5 -24.5t-29.5 -18.5q-16 -8 -31 -14l-18 -4l-17 -6l-47 -9q4 2 10 6q4 4 11.5 6.5t17.5 6.5q16 8 35 26q8 8 16 19q-2 0 -6 -4t-11 -9.5t-22 -13.5q-14 -8 -33.5 -14t-37.5 -10q-23 -6 -45 -11 l-58 13q-37 27 -61 61q-23 29 -35 67zM709 1835q-4 -29 7 -47t24 -29q14 -12 34 -18q43 8 80 27q33 16 66 39.5t51 64.5q18 39 16 67.5t-13 45t-25.5 23.5t-20.5 7q-14 -4 -22 -12l-11 -10l-30 12h-7q-4 -2 -12 -4t-22 -8t-33 -20.5t-37 -36t-30.5 -48t-14.5 -53.5z" />
<glyph unicode="&#xc6;" horiz-adv-x="1605" d="M-891.5 566.5q12.5 37.5 43.5 68.5t71 54.5t70 33.5q68 23 158 22q111 0 202 -35.5t181 -82.5q20 -10 43 -23q20 -10 45 -23.5t53 -23.5q90 131 209 270.5t236 274.5t217 263t154 239q-143 -150 -289 -265q-61 -49 -131 -96t-140.5 -82t-141.5 -56.5t-134 -17.5 q-45 2 -70.5 28t-40.5 54q-16 35 -22 78q12 -31 31 -53q16 -20 38.5 -38.5t55.5 -22.5q33 -6 60.5 -2t47.5 12q23 8 43 20q-33 -8 -65 -14q-29 -4 -59.5 -4t-55.5 14q-29 16 -50.5 40t-33.5 42q16 -10 46 -19.5t76 -11.5t113.5 9.5t159.5 44.5q121 43 223.5 108.5 t180.5 126.5q90 72 164 152l8 -13l2 -2q0 -2 4 -6q0 -4 4 -4h2v-29q-12 -27 -29 -55q-14 -25 -32.5 -56.5t-40.5 -62.5q-23 -33 -64 -84l-82 -102q-47 -59 -100 -123q76 78 126 133.5t88 103.5t73 99t78 123l24 -27q-2 -6 -4 -14q-4 -16 -4 -29q0 -12 4 -9t8 7l10 15v8 l7 -19q8 -16 24.5 -50t31.5 -80t24.5 -102t3.5 -116q-6 -53 -24.5 -111.5t-41.5 -112.5t-46.5 -100.5t-39.5 -74.5h2l-12 -19l-8 -12q-2 -2 -2 -4l-287 -487q-37 -59 -66.5 -119t-50 -114t-30 -101t-1.5 -80l4 -17q16 -4 40 7.5t51.5 36t60.5 58.5t68 75l18 -35 q-78 -84 -149.5 -137.5t-122.5 -51.5q-66 2 -80.5 62.5t6 154t68 211t104.5 234.5q49 16 123 57t135 115l-197 -318q-63 -98 -111 -208.5t-52 -223.5q-2 -8 -3 -20q2 -8 3.5 -18.5t7.5 -16.5q6 -8 12 -8h6q-2 0 -4 4q-4 6 -6 18q0 4 -1 9.5t-1 9.5q-4 61 16.5 135t55.5 147 q16 33 38.5 74t49.5 82q55 92 107 181t90 157t57.5 102.5t7.5 18.5l-43 -70q27 63 9.5 119.5t-38.5 85.5l12 22q35 51 66 105q27 47 54.5 105.5t47.5 117.5q10 31 13.5 59.5t3.5 53.5q8 -14 15 -44t7 -81q0 -43 -13 -89t-30 -87q-18 -47 -41 -92q29 43 51 88q18 39 34 86 t18 94q0 47 -8.5 87t-18.5 71q-12 37 -29 65q-18 -31 -45.5 -75t-60.5 -94t-68 -100t-65 -91q-49 -66 -128 -155t-165 -189l-2 -2l-74 -86l2 2l-80 -95q-2 0 -2 -2l-20 -24q25 -4 50.5 -6t53.5 -2q106 2 178 22.5t117 50.5q27 18 57.5 47t49 63t16.5 69.5t-39 70.5 q10 -16 19 -35q6 -16 9 -35.5t-5 -41.5q-8 -27 -27 -50q16 37 15 72t-14 62.5t-36.5 44t-50.5 14.5q39 0 72 -10q29 -10 51 -35t26 -78q2 -39 -18 -81t-62 -80t-105.5 -65.5t-147.5 -39.5q-61 -10 -125 -10t-123 6q-49 -63 -89 -118.5t-63 -96.5q-23 -43 -36 -74t-20 -57.5 t-14.5 -55t-17.5 -69.5q-45 -8 -76 16q-12 8 -21 18.5t-15 20.5q-8 10 -11 22q0 31 15 84q12 45 39.5 115t85.5 172q8 14 16 27.5t16 29.5q-47 10 -87 23.5t-68 24.5q-35 12 -62 22q-41 12 -76.5 22.5t-70.5 17.5t-71 10t-77 3q-100 -4 -165.5 -34.5t-100.5 -57.5 q31 39 93.5 68.5t121.5 38.5q63 8 128 -0.5t118 -22.5t88 -27.5t41 -15.5q-98 53 -199.5 71.5t-210.5 -1.5q-29 -6 -60.5 -17.5t-61 -29t-53 -41t-36.5 -51.5q-25 37 -12.5 74.5zM-137 33q8 49 26 102q16 47 43 106.5t72 123.5q29 37 71 88t91 108q55 66 113.5 131.5 t105.5 118.5q55 61 109 119q-113 -106 -213 -211q-43 -45 -87 -93t-85 -95.5t-75 -90.5t-54 -80q-43 -74 -68 -134t-35 -103q-12 -51 -14 -90zM293 -172.5q2 -15.5 4 -26.5q0 -4 2 -8q4 -8 8 -10q4 -4 8 -4q2 -2 7 -2q-2 0 -5 4l-4 8t-2 10q-2 10 -4 25.5t-2 28.5q0 10 2 24 t6 31q4 18 9 39q-6 -14 -13 -29q-10 -29 -14 -59q-4 -16 -2 -31.5zM539 141q-2 51 6 107q6 47 23.5 108.5t52.5 126.5q25 45 63.5 72t80.5 41t82 19.5t71 5.5q-33 14 -63 39.5t-42 52.5q-23 49 -12.5 133t73.5 166q92 104 185.5 165.5t169.5 94.5q88 37 170 51q33 12 55 6 q20 -4 36.5 -26.5t18.5 -75.5q0 -53 -21.5 -140.5t-61.5 -173.5t-97 -154.5t-129 -84.5q-47 -12 -77.5 5t-47.5 44q-23 31 -31 74q8 -18 25 -35q14 -14 36.5 -27.5t57.5 -17.5q41 -8 80 19.5t70 62.5q35 41 65 94q-35 -43 -69 -78q-29 -29 -60.5 -54.5t-56.5 -27.5 q-33 -4 -54.5 5.5t-35.5 21.5q-16 14 -29 33q31 -2 83 10t108 65q63 61 109 132t73 132.5t32 105.5t-14 50q-18 12 -51 8q-29 -4 -76 -24.5t-118 -75.5q-72 -55 -122 -101t-83 -81q-37 -39 -62 -70q66 59 125 113q51 45 101.5 87t74.5 60q55 35 94 48.5t64 17.5 q-35 -18 -86 -55t-109.5 -89.5t-121 -119t-121.5 -144.5q-12 -16 -28.5 -42.5t-24 -58.5t1 -68t43.5 -68l8 -7l6 -32q-23 -4 -46.5 -7.5t-49 -12.5t-51 -27.5t-52.5 -53.5q-37 -51 -54 -114.5t-24 -122.5q-8 -68 -2 -139q4 -113 35 -177.5t56 -89.5q-12 -4 -19 -2l-8 2 q-8 4 -23.5 17.5t-34 43t-36 80t-31.5 130.5q-4 18 -5 44.5t-3 53.5q-2 29 -2 61q-2 -6 -4 -16t-3 -24.5t-1 -36.5q-2 -43 0 -67t2 -26q16 -104 41.5 -158.5t40.5 -70.5q-6 2 -15 10q-25 20 -44 49t-32.5 61t-21.5 63.5t-12 58.5q-4 39 -4.5 70.5t2.5 56.5q2 27 4 51 q-2 -4 -4 -12t-4.5 -20.5t-4.5 -33.5q-4 -25 -3 -46t1 -38h2v-20q4 -49 21.5 -114.5t60.5 -119.5q35 -41 66 -55t53 -16q27 -2 51 8q23 4 82.5 46t145.5 132q43 45 95 106.5t99 121t82 104.5t43 57q2 -4 18 -14q12 -8 -18.5 -53t-80.5 -105.5t-108.5 -127t-103.5 -116.5 q-180 -201 -299 -196q-20 0 -58 17.5t-76 59.5t-68.5 110.5t-34.5 172.5zM1159 770q10 -4 21 -4q16 -2 39 4q10 4 21 11t24 18l28 24q-14 -10 -28 -18q-12 -8 -25.5 -15.5t-26.5 -11.5q-23 -8 -38 -8h-15z" />
<glyph unicode="&#xc7;" horiz-adv-x="731" d="M-68.5 125q-9.5 92 9 216t82.5 288q47 123 104 218t120.5 169t128 127t124.5 90q141 86 288 113q33 14 56 8q20 -4 36.5 -26.5t18.5 -76.5q0 -53 -21.5 -140t-61.5 -173t-97 -154.5t-129 -87.5q-47 -10 -77 7.5t-48 44.5q-23 31 -33 73q10 -18 27 -35q14 -14 36.5 -28.5 t57.5 -18.5q41 -6 80 20.5t69 61.5q35 41 66 97q-35 -43 -70 -78q-29 -29 -61.5 -54.5t-54.5 -27.5q-33 -4 -55.5 5t-37.5 21q-16 14 -26 33q29 -2 82 10.5t108 65.5q63 61 109.5 132t73 132.5t31.5 105.5t-13 50q-18 12 -51 8q-29 -4 -77 -24.5t-120 -75.5 q-72 -57 -121 -102.5t-82 -80.5q-37 -39 -61 -69q66 59 125 112q51 45 100 87t76 61q55 35 93 47t63 16q-53 -29 -142.5 -99.5t-183.5 -172.5t-181 -233.5t-138 -282.5q-49 -147 -58.5 -258t3 -188.5t37 -125t44.5 -67.5q-4 0 -9 -1t-9 1l-8 2q-10 4 -26.5 19.5t-37 52 t-40 99t-32.5 161.5q-10 72 3.5 152.5t33.5 148.5q23 80 58 155q-37 -72 -62 -147q-23 -66 -39 -146.5t-8 -160.5q12 -143 42 -213t46 -90q-4 2 -12 10q-41 35 -65.5 86t-37.5 100q-14 57 -18 119q-2 -8 -2 -41t8 -77t25.5 -93t50.5 -88q35 -41 65.5 -55.5t53.5 -16.5 q27 -2 51 8q23 4 82 46.5t145 130.5q43 45 95.5 107.5t99.5 121.5t82 104.5t43 55.5q0 -1 16 -13q12 -8 -17.5 -53t-79.5 -105.5t-108.5 -127t-103.5 -115.5q-180 -199 -301 -199q-18 0 -54 16.5t-72 53.5t-66.5 98.5t-40 153.5zM52.5 -280q-2.5 8 4.5 16.5t21 15t31 9.5 l3 104l53 -26q2 0 3 -11.5t1 -25.5t0.5 -26t4.5 -13l75 -53q7 -16 -1 -37.5t-24.5 -41.5t-38.5 -36t-39 -21q-4 0 -20.5 0.5t-20.5 8.5q18 10 39 27.5t38.5 36t27 36.5t4.5 30q-10 17 -29.5 16.5t-41 -10t-43 -25t-33.5 -26.5q-2 0 0 4.5t3.5 11t1.5 13t-3 8.5 q-14 7 -16.5 15zM549 795q10 -4 18 -4q14 -2 39 4q10 4 22.5 11t24.5 17q14 10 29 25q-14 -10 -29 -19q-12 -8 -25.5 -15t-25.5 -11q-23 -8 -39 -8h-14z" />
<glyph unicode="&#xc8;" horiz-adv-x="684" d="M-133 168q-2 51 6 106q6 47 23.5 108.5t52.5 127.5q25 45 63.5 71.5t80.5 41t82 19.5t71 5q-33 14 -62.5 40t-42.5 52q-23 49 -12.5 133t74.5 166q92 104 185 166t169 94q88 37 170 52q33 12 55 6q20 -4 37 -26.5t19 -76.5q0 -53 -21.5 -140t-61.5 -173t-97.5 -154.5 t-129.5 -85.5q-47 -12 -77.5 5.5t-47.5 44.5q-23 31 -30 73q8 -18 24 -35q14 -14 37 -27t58 -18q41 -8 79.5 20t69.5 62q35 41 66 95q-35 -43 -70 -78q-29 -29 -60.5 -54.5t-56.5 -27.5q-33 -4 -54.5 5t-35.5 21q-16 14 -29 33q31 -2 83.5 10.5t107.5 65.5q63 61 109.5 132 t73 132.5t31.5 105.5t-13 50q-18 12 -52 8q-29 -4 -76 -24.5t-118 -75.5q-72 -55 -122 -101.5t-83 -81.5q-37 -39 -61 -69q66 59 125 112q51 45 101 87t75 61q55 35 94 48t63 17q-35 -18 -86 -55t-109.5 -89t-121 -118.5t-121.5 -144.5q-12 -16 -28.5 -43t-23.5 -58.5 t1 -67.5t43 -69l8 -6l6 -33q-23 -4 -46 -7t-49 -12t-51.5 -27.5t-51.5 -53.5q-37 -51 -54.5 -114.5t-23.5 -123.5q-8 -68 -2 -139q4 -113 34.5 -177t55.5 -89q-12 -4 -19 -2l-8 2q-8 4 -23.5 17.5t-34 43t-35.5 79.5t-32 130q-4 18 -5 45t-3 54q-2 29 -2 61q-2 -6 -4 -16 t-3 -24.5t-1 -37.5q-2 -43 0 -66.5t2 -25.5q16 -104 41.5 -158.5t40.5 -70.5q-6 2 -15 10q-25 20 -44 49t-32.5 60.5t-21.5 63.5t-12 58q-4 39 -4 71t2 56q2 27 4 51q-2 -4 -4 -12t-4 -20.5t-4 -32.5q-4 -25 -3 -46.5t1 -37.5h2v-20q4 -49 21.5 -115t60.5 -119 q35 -41 65.5 -55.5t52.5 -16.5q27 -2 52 9q23 4 82 46t145 132q43 45 95 106.5t99 120.5t82 104.5t43 57.5q2 -4 19 -14q12 -8 -18.5 -53.5t-81 -106t-108.5 -127t-104 -115.5q-180 -201 -299 -197q-20 0 -58 17.5t-76 59.5t-68.5 110.5t-34.5 173.5zM347 1769l8 39 l196 -119l-139 109q14 2 33 2q16 0 34.5 -1t41.5 -3q45 -47 84 -90t84 -88q4 -4 5 -8.5t5 -8.5q20 -23 39.5 -42t38.5 -42q8 -10 16 -17t14 -15q2 -2 14.5 -16.5t27 -30t26.5 -30t14 -16.5q-2 -2 -16 9.5t-32.5 26t-36 27.5t-25.5 17q-18 6 -46 22.5t-61 39t-69.5 48 t-73.5 52.5q-84 61 -182 135zM487 797q10 -4 21 -4q16 -2 39 4q10 4 21.5 11t23.5 17l29 25q-14 -10 -29 -19q-12 -8 -25.5 -15t-25.5 -11q-23 -8 -39 -8h-15z" />
<glyph unicode="&#xc9;" horiz-adv-x="684" d="M-133 168q-2 51 6 106q6 47 23.5 108.5t52.5 127.5q25 45 63.5 71.5t80.5 41t82 19.5t71 5q-33 14 -62.5 40t-42.5 52q-23 49 -12.5 133t74.5 166q92 104 185 166t169 94q88 37 170 52q33 12 55 6q20 -4 37 -26.5t19 -76.5q0 -53 -21.5 -140t-61.5 -173t-97.5 -154.5 t-129.5 -85.5q-47 -12 -77.5 5.5t-47.5 44.5q-23 31 -30 73q8 -18 24 -35q14 -14 37 -27t58 -18q41 -8 79.5 20t69.5 62q35 41 66 95q-35 -43 -70 -78q-29 -29 -60.5 -54.5t-56.5 -27.5q-33 -4 -54.5 5t-35.5 21q-16 14 -29 33q31 -2 83.5 10.5t107.5 65.5q63 61 109.5 132 t73 132.5t31.5 105.5t-13 50q-18 12 -52 8q-29 -4 -76 -24.5t-118 -75.5q-72 -55 -122 -101.5t-83 -81.5q-37 -39 -61 -69q66 59 125 112q51 45 101 87t75 61q55 35 94 48t63 17q-35 -18 -86 -55t-109.5 -89t-121 -118.5t-121.5 -144.5q-12 -16 -28.5 -43t-23.5 -58.5 t1 -67.5t43 -69l8 -6l6 -33q-23 -4 -46 -7t-49 -12t-51.5 -27.5t-51.5 -53.5q-37 -51 -54.5 -114.5t-23.5 -123.5q-8 -68 -2 -139q4 -113 34.5 -177t55.5 -89q-12 -4 -19 -2l-8 2q-8 4 -23.5 17.5t-34 43t-35.5 79.5t-32 130q-4 18 -5 45t-3 54q-2 29 -2 61q-2 -6 -4 -16 t-3 -24.5t-1 -37.5q-2 -43 0 -66.5t2 -25.5q16 -104 41.5 -158.5t40.5 -70.5q-6 2 -15 10q-25 20 -44 49t-32.5 60.5t-21.5 63.5t-12 58q-4 39 -4 71t2 56q2 27 4 51q-2 -4 -4 -12t-4 -20.5t-4 -32.5q-4 -25 -3 -46.5t1 -37.5h2v-20q4 -49 21.5 -115t60.5 -119 q35 -41 65.5 -55.5t52.5 -16.5q27 -2 52 9q23 4 82 46t145 132q43 45 95 106.5t99 120.5t82 104.5t43 57.5q2 -4 19 -14q12 -8 -18.5 -53.5t-81 -106t-108.5 -127t-104 -115.5q-180 -201 -299 -197q-20 0 -58 17.5t-76 59.5t-68.5 110.5t-34.5 173.5zM487 797q10 -4 21 -4 q16 -2 39 4q10 4 21.5 11t23.5 17l29 25q-14 -10 -29 -19q-12 -8 -25.5 -15t-25.5 -11q-23 -8 -39 -8h-15zM646 1481q78 68 141 121q55 45 98 82q23 21 43 39q-2 0 2 -7.5t8 -15.5q6 -10 11 -22l-256 -183l266 166q4 -18 8 -31q2 -8 6 -20q2 -6 4 -10l-23 -14 q-22 -13 -54.5 -31.5t-71.5 -40t-72 -40t-56 -29.5l-22 -11l-16 24q-8 10 -16 23z" />
<glyph unicode="&#xca;" horiz-adv-x="684" d="M-133 168q-2 51 6 106q6 47 23.5 108.5t52.5 127.5q25 45 63.5 71.5t80.5 41t82 19.5t71 5q-33 14 -62.5 40t-42.5 52q-23 49 -12.5 133t74.5 166q92 104 185 166t169 94q88 37 170 52q33 12 55 6q20 -4 37 -26.5t19 -76.5q0 -53 -21.5 -140t-61.5 -173t-97.5 -154.5 t-129.5 -85.5q-47 -12 -77.5 5.5t-47.5 44.5q-23 31 -30 73q8 -18 24 -35q14 -14 37 -27t58 -18q41 -8 79.5 20t69.5 62q35 41 66 95q-35 -43 -70 -78q-29 -29 -60.5 -54.5t-56.5 -27.5q-33 -4 -54.5 5t-35.5 21q-16 14 -29 33q31 -2 83.5 10.5t107.5 65.5q63 61 109.5 132 t73 132.5t31.5 105.5t-13 50q-18 12 -52 8q-29 -4 -76 -24.5t-118 -75.5q-72 -55 -122 -101.5t-83 -81.5q-37 -39 -61 -69q66 59 125 112q51 45 101 87t75 61q55 35 94 48t63 17q-35 -18 -86 -55t-109.5 -89t-121 -118.5t-121.5 -144.5q-12 -16 -28.5 -43t-23.5 -58.5 t1 -67.5t43 -69l8 -6l6 -33q-23 -4 -46 -7t-49 -12t-51.5 -27.5t-51.5 -53.5q-37 -51 -54.5 -114.5t-23.5 -123.5q-8 -68 -2 -139q4 -113 34.5 -177t55.5 -89q-12 -4 -19 -2l-8 2q-8 4 -23.5 17.5t-34 43t-35.5 79.5t-32 130q-4 18 -5 45t-3 54q-2 29 -2 61q-2 -6 -4 -16 t-3 -24.5t-1 -37.5q-2 -43 0 -66.5t2 -25.5q16 -104 41.5 -158.5t40.5 -70.5q-6 2 -15 10q-25 20 -44 49t-32.5 60.5t-21.5 63.5t-12 58q-4 39 -4 71t2 56q2 27 4 51q-2 -4 -4 -12t-4 -20.5t-4 -32.5q-4 -25 -3 -46.5t1 -37.5h2v-20q4 -49 21.5 -115t60.5 -119 q35 -41 65.5 -55.5t52.5 -16.5q27 -2 52 9q23 4 82 46t145 132q43 45 95 106.5t99 120.5t82 104.5t43 57.5q2 -4 19 -14q12 -8 -18.5 -53.5t-81 -106t-108.5 -127t-104 -115.5q-180 -201 -299 -197q-20 0 -58 17.5t-76 59.5t-68.5 110.5t-34.5 173.5zM477 1395l7 2l266 243 l102 23q4 -80 6 -143q0 -27 1 -53.5t2 -48t2 -34.5l1 -14q0 -2 -7 -1t-17 3t-25 6l-12 76l-10 148l-238 -179l-8 5l51 38zM487 797q10 -4 21 -4q16 -2 39 4q10 4 21.5 11t23.5 17l29 25q-14 -10 -29 -19q-12 -8 -25.5 -15t-25.5 -11q-23 -8 -39 -8h-15z" />
<glyph unicode="&#xcb;" horiz-adv-x="684" d="M-133 168q-2 51 6 106q6 47 23.5 108.5t52.5 127.5q25 45 63.5 71.5t80.5 41t82 19.5t71 5q-33 14 -62.5 40t-42.5 52q-23 49 -12.5 133t74.5 166q92 104 185 166t169 94q88 37 170 52q33 12 55 6q20 -4 37 -26.5t19 -76.5q0 -53 -21.5 -140t-61.5 -173t-97.5 -154.5 t-129.5 -85.5q-47 -12 -77.5 5.5t-47.5 44.5q-23 31 -30 73q8 -18 24 -35q14 -14 37 -27t58 -18q41 -8 79.5 20t69.5 62q35 41 66 95q-35 -43 -70 -78q-29 -29 -60.5 -54.5t-56.5 -27.5q-33 -4 -54.5 5t-35.5 21q-16 14 -29 33q31 -2 83.5 10.5t107.5 65.5q63 61 109.5 132 t73 132.5t31.5 105.5t-13 50q-18 12 -52 8q-29 -4 -76 -24.5t-118 -75.5q-72 -55 -122 -101.5t-83 -81.5q-37 -39 -61 -69q66 59 125 112q51 45 101 87t75 61q55 35 94 48t63 17q-35 -18 -86 -55t-109.5 -89t-121 -118.5t-121.5 -144.5q-12 -16 -28.5 -43t-23.5 -58.5 t1 -67.5t43 -69l8 -6l6 -33q-23 -4 -46 -7t-49 -12t-51.5 -27.5t-51.5 -53.5q-37 -51 -54.5 -114.5t-23.5 -123.5q-8 -68 -2 -139q4 -113 34.5 -177t55.5 -89q-12 -4 -19 -2l-8 2q-8 4 -23.5 17.5t-34 43t-35.5 79.5t-32 130q-4 18 -5 45t-3 54q-2 29 -2 61q-2 -6 -4 -16 t-3 -24.5t-1 -37.5q-2 -43 0 -66.5t2 -25.5q16 -104 41.5 -158.5t40.5 -70.5q-6 2 -15 10q-25 20 -44 49t-32.5 60.5t-21.5 63.5t-12 58q-4 39 -4 71t2 56q2 27 4 51q-2 -4 -4 -12t-4 -20.5t-4 -32.5q-4 -25 -3 -46.5t1 -37.5h2v-20q4 -49 21.5 -115t60.5 -119 q35 -41 65.5 -55.5t52.5 -16.5q27 -2 52 9q23 4 82 46t145 132q43 45 95 106.5t99 120.5t82 104.5t43 57.5q2 -4 19 -14q12 -8 -18.5 -53.5t-81 -106t-108.5 -127t-104 -115.5q-180 -201 -299 -197q-20 0 -58 17.5t-76 59.5t-68.5 110.5t-34.5 173.5zM487 797q10 -4 21 -4 q16 -2 39 4q10 4 21.5 11t23.5 17l29 25q-14 -10 -29 -19q-12 -8 -25.5 -15t-25.5 -11q-23 -8 -39 -8h-15zM530 1577q-1 41 9 57t31.5 24.5t46.5 12.5q27 4 61 4l-36 -84l73 92l25 -26q-29 -57 -53 -105q-23 -41 -44.5 -79t-37.5 -48q-25 -16 -41.5 8.5t-24.5 63.5t-9 80z M819 1577q-1 41 9 57t31.5 24.5t46.5 12.5q27 4 61 4l-37 -84l74 92l25 -26q-29 -57 -54 -105q-23 -41 -44 -79t-38 -48q-25 -16 -41 8.5t-24 63.5t-9 80z" />
<glyph unicode="&#xcc;" horiz-adv-x="360" d="M-358 1102q18 -27 41 -47q18 -18 44.5 -32.5t59.5 -14.5t59.5 9t44.5 19q23 12 39 29q-33 -18 -63 -27q-29 -10 -58.5 -13t-56.5 7q-33 10 -56.5 29.5t-39.5 36.5q18 -6 48 -11.5t76 1t110.5 28t150.5 70.5q113 61 204 144t156 157q76 86 136 176l10 -12l2 -2q0 -2 4 -7 q2 -2 6 -2h2l4 -28q-10 -29 -20 -60q-10 -27 -22.5 -60.5t-28.5 -68.5t-47 -93t-64 -113q-37 -66 -80 -138q61 88 101 150.5t70 117t55.5 110.5t56.5 134l28 -22q-2 -6 -2 -15v-14t2 -14q2 -16 6.5 -8t10.5 8q4 0 4 12q0 6 -2 10l33 -59q-33 -82 -66 -162 q-29 -68 -62.5 -144.5t-66.5 -138.5q-39 -72 -101.5 -174t-129.5 -213q0 -2 -1 -2t-1 -2q-16 -25 -29.5 -49t-30.5 -47l2 2q-16 -29 -33.5 -57.5t-29.5 -48.5v-2q-55 -94 -98.5 -176t-61.5 -142q-16 -47 -23.5 -80t-10.5 -60.5t-5 -56t-6 -71.5q-23 -8 -42.5 -6t-35.5 10 q-27 12 -41 33q-8 8 -14 20q-8 31 -2 84q4 47 20.5 121t57.5 184q35 102 93 214t125.5 227.5t139.5 231.5t135.5 226.5t114.5 213t76 192.5q-117 -170 -242 -309q-53 -59 -113.5 -116.5t-124 -106t-129 -80t-129.5 -37.5q-45 -6 -75.5 14t-49.5 47q-23 31 -34 74zM-115 2 q-6 -53 0 -92q0 49 9 106q8 49 25.5 111.5t51.5 132.5q20 43 52 100t73 123q43 74 89 149t85 134q45 70 88 135q-94 -127 -176 -246q-35 -51 -69.5 -105t-66.5 -107.5t-58.5 -102.5t-40.5 -88q-31 -80 -44.5 -142.5t-17.5 -107.5zM220 2011l8 39l196 -119l-139 109 q14 2 33 2q16 0 34.5 -1t41.5 -3q45 -47 84 -90t84 -88q4 -4 5 -8.5t5 -8.5q20 -23 39.5 -42t38.5 -42q8 -10 16 -17t14 -15q2 -2 14.5 -16.5t27 -30t26.5 -30t14 -16.5q-2 -2 -16 9.5t-32.5 26t-36 27.5t-25.5 17q-18 6 -46 22.5t-61 39t-69.5 48t-73.5 52.5 q-84 61 -182 135z" />
<glyph unicode="&#xcd;" horiz-adv-x="360" d="M-358 1102q18 -27 41 -47q18 -18 44.5 -32.5t59.5 -14.5t59.5 9t44.5 19q23 12 39 29q-33 -18 -63 -27q-29 -10 -58.5 -13t-56.5 7q-33 10 -56.5 29.5t-39.5 36.5q18 -6 48 -11.5t76 1t110.5 28t150.5 70.5q113 61 204 144t156 157q76 86 136 176l10 -12l2 -2q0 -2 4 -7 q2 -2 6 -2h2l4 -28q-10 -29 -20 -60q-10 -27 -22.5 -60.5t-28.5 -68.5t-47 -93t-64 -113q-37 -66 -80 -138q61 88 101 150.5t70 117t55.5 110.5t56.5 134l28 -22q-2 -6 -2 -15v-14t2 -14q2 -16 6.5 -8t10.5 8q4 0 4 12q0 6 -2 10l33 -59q-33 -82 -66 -162 q-29 -68 -62.5 -144.5t-66.5 -138.5q-39 -72 -101.5 -174t-129.5 -213q0 -2 -1 -2t-1 -2q-16 -25 -29.5 -49t-30.5 -47l2 2q-16 -29 -33.5 -57.5t-29.5 -48.5v-2q-55 -94 -98.5 -176t-61.5 -142q-16 -47 -23.5 -80t-10.5 -60.5t-5 -56t-6 -71.5q-23 -8 -42.5 -6t-35.5 10 q-27 12 -41 33q-8 8 -14 20q-8 31 -2 84q4 47 20.5 121t57.5 184q35 102 93 214t125.5 227.5t139.5 231.5t135.5 226.5t114.5 213t76 192.5q-117 -170 -242 -309q-53 -59 -113.5 -116.5t-124 -106t-129 -80t-129.5 -37.5q-45 -6 -75.5 14t-49.5 47q-23 31 -34 74zM-115 2 q-6 -53 0 -92q0 49 9 106q8 49 25.5 111.5t51.5 132.5q20 43 52 100t73 123q43 74 89 149t85 134q45 70 88 135q-94 -127 -176 -246q-35 -51 -69.5 -105t-66.5 -107.5t-58.5 -102.5t-40.5 -88q-31 -80 -44.5 -142.5t-17.5 -107.5zM461 1743q78 68 141 121q55 45 98 82 q23 21 43 39q-2 0 2 -7.5t8 -15.5q6 -10 11 -22l-256 -183l266 166q4 -18 8 -31q2 -8 6 -20q2 -6 4 -10l-23 -14q-22 -13 -54.5 -31.5t-71.5 -40t-72 -40t-56 -29.5l-22 -11l-16 24q-8 10 -16 23z" />
<glyph unicode="&#xce;" horiz-adv-x="360" d="M-358 1102q18 -27 41 -47q18 -18 44.5 -32.5t59.5 -14.5t59.5 9t44.5 19q23 12 39 29q-33 -18 -63 -27q-29 -10 -58.5 -13t-56.5 7q-33 10 -56.5 29.5t-39.5 36.5q18 -6 48 -11.5t76 1t110.5 28t150.5 70.5q113 61 204 144t156 157q76 86 136 176l10 -12l2 -2q0 -2 4 -7 q2 -2 6 -2h2l4 -28q-10 -29 -20 -60q-10 -27 -22.5 -60.5t-28.5 -68.5t-47 -93t-64 -113q-37 -66 -80 -138q61 88 101 150.5t70 117t55.5 110.5t56.5 134l28 -22q-2 -6 -2 -15v-14t2 -14q2 -16 6.5 -8t10.5 8q4 0 4 12q0 6 -2 10l33 -59q-33 -82 -66 -162 q-29 -68 -62.5 -144.5t-66.5 -138.5q-39 -72 -101.5 -174t-129.5 -213q0 -2 -1 -2t-1 -2q-16 -25 -29.5 -49t-30.5 -47l2 2q-16 -29 -33.5 -57.5t-29.5 -48.5v-2q-55 -94 -98.5 -176t-61.5 -142q-16 -47 -23.5 -80t-10.5 -60.5t-5 -56t-6 -71.5q-23 -8 -42.5 -6t-35.5 10 q-27 12 -41 33q-8 8 -14 20q-8 31 -2 84q4 47 20.5 121t57.5 184q35 102 93 214t125.5 227.5t139.5 231.5t135.5 226.5t114.5 213t76 192.5q-117 -170 -242 -309q-53 -59 -113.5 -116.5t-124 -106t-129 -80t-129.5 -37.5q-45 -6 -75.5 14t-49.5 47q-23 31 -34 74zM-115 2 q-6 -53 0 -92q0 49 9 106q8 49 25.5 111.5t51.5 132.5q20 43 52 100t73 123q43 74 89 149t85 134q45 70 88 135q-94 -127 -176 -246q-35 -51 -69.5 -105t-66.5 -107.5t-58.5 -102.5t-40.5 -88q-31 -80 -44.5 -142.5t-17.5 -107.5zM432 1684l7 2l266 243l102 23q4 -80 6 -143 q0 -27 1 -53.5t2 -48t2 -34.5l1 -14q0 -2 -7 -1t-17 3t-25 6l-12 76l-10 148l-238 -179l-8 5l51 38z" />
<glyph unicode="&#xcf;" horiz-adv-x="360" d="M-358 1102q18 -27 41 -47q18 -18 44.5 -32.5t59.5 -14.5t59.5 9t44.5 19q23 12 39 29q-33 -18 -63 -27q-29 -10 -58.5 -13t-56.5 7q-33 10 -56.5 29.5t-39.5 36.5q18 -6 48 -11.5t76 1t110.5 28t150.5 70.5q113 61 204 144t156 157q76 86 136 176l10 -12l2 -2q0 -2 4 -7 q2 -2 6 -2h2l4 -28q-10 -29 -20 -60q-10 -27 -22.5 -60.5t-28.5 -68.5t-47 -93t-64 -113q-37 -66 -80 -138q61 88 101 150.5t70 117t55.5 110.5t56.5 134l28 -22q-2 -6 -2 -15v-14t2 -14q2 -16 6.5 -8t10.5 8q4 0 4 12q0 6 -2 10l33 -59q-33 -82 -66 -162 q-29 -68 -62.5 -144.5t-66.5 -138.5q-39 -72 -101.5 -174t-129.5 -213q0 -2 -1 -2t-1 -2q-16 -25 -29.5 -49t-30.5 -47l2 2q-16 -29 -33.5 -57.5t-29.5 -48.5v-2q-55 -94 -98.5 -176t-61.5 -142q-16 -47 -23.5 -80t-10.5 -60.5t-5 -56t-6 -71.5q-23 -8 -42.5 -6t-35.5 10 q-27 12 -41 33q-8 8 -14 20q-8 31 -2 84q4 47 20.5 121t57.5 184q35 102 93 214t125.5 227.5t139.5 231.5t135.5 226.5t114.5 213t76 192.5q-117 -170 -242 -309q-53 -59 -113.5 -116.5t-124 -106t-129 -80t-129.5 -37.5q-45 -6 -75.5 14t-49.5 47q-23 31 -34 74zM-115 2 q-6 -53 0 -92q0 49 9 106q8 49 25.5 111.5t51.5 132.5q20 43 52 100t73 123q43 74 89 149t85 134q45 70 88 135q-94 -127 -176 -246q-35 -51 -69.5 -105t-66.5 -107.5t-58.5 -102.5t-40.5 -88q-31 -80 -44.5 -142.5t-17.5 -107.5zM390 1850q-1 41 9 57t31.5 24.5t46.5 12.5 q27 4 61 4l-36 -84l73 92l25 -26q-29 -57 -53 -105q-23 -41 -44.5 -79t-37.5 -48q-25 -16 -41.5 8.5t-24.5 63.5t-9 80zM679 1850q-1 41 9 57t31.5 24.5t46.5 12.5q27 4 61 4l-37 -84l74 92l25 -26q-29 -57 -54 -105q-23 -41 -44 -79t-38 -48q-25 -16 -41 8.5t-24 63.5 t-9 80z" />
<glyph unicode="&#xd1;" horiz-adv-x="1013" d="M-387 1108q20 -25 43 -47q20 -18 48 -33.5t60 -13.5q33 0 58.5 9t44.5 19q23 12 37 29q-29 -16 -60 -27q-27 -10 -57.5 -14t-56.5 6q-35 10 -60.5 29.5t-42.5 36.5q18 -6 49 -11.5t77 1t108.5 29t144.5 71.5q106 61 191.5 143t144.5 156q68 86 121 176l12 -12q0 -2 2 -2 q2 -2 6 -4q2 -2 6 -2h3l6 -29q-6 -29 -15 -59q-8 -27 -18 -61t-25 -68q-14 -35 -40.5 -94.5t-55.5 -114.5q-33 -68 -68 -138q53 90 88 152.5t62 116t47.5 110t46.5 133.5l29 -20v-14v-14.5t2 -16.5q4 -16 7 -8t9 10q8 0 4 12q-2 6 -4 10l39 -59q-27 -82 -53 -162 q-23 -68 -50.5 -145.5t-56.5 -138.5q-33 -72 -87 -173.5t-113 -213.5l-2 -3q-12 -25 -25.5 -49t-25.5 -49q0 2 2 2q-16 -29 -30.5 -56.5t-25.5 -47.5v-2q-47 -96 -83 -178t-52 -142q-16 -61 -19 -98t-5 -76q27 33 70.5 88t99 127t118 155t125.5 169q47 66 100.5 142.5 t109.5 157.5t112.5 161.5t107.5 156.5q121 176 242 357l29 14l-7 -53l-2 -4q-4 -20 -17 -70.5t-36 -106.5q-14 -35 -40.5 -94t-53.5 -114q-33 -68 -68 -138q53 90 88 152.5t60.5 116t46 110t45.5 133.5l31 -20q-2 -6 -2 -14v-14.5t4 -16.5q4 -16 7 -8t9 10q2 0 2 12 q-2 6 -2 10l39 -59q-25 -82 -51 -162q-23 -68 -50.5 -145.5t-56.5 -138.5q-33 -72 -86 -173.5t-112 -214.5v-2q-14 -25 -26.5 -49t-24.5 -49q0 2 2 2q-16 -29 -30.5 -56.5t-25.5 -47.5v-2q-47 -94 -83 -177t-50 -143q-12 -47 -16 -78.5t-5 -59.5t-1 -57.5v-72.5 q-23 -8 -41.5 -6t-34.5 10q-16 6 -26.5 15.5t-18.5 17.5t-17 20q-8 31 -8 84q0 47 10.5 122t40.5 185q37 141 113 300t160 319t160.5 313.5t117.5 286.5q-35 -53 -87 -133t-113.5 -171t-125 -185.5t-118.5 -174.5q-45 -63 -102.5 -143t-120 -163t-124 -165t-114.5 -152.5 t-94 -122.5t-59 -77v-8q-4 0 -9 -2q-4 -4 -4 -6l-2 -2l-2 6q-31 -6 -59 8q-16 6 -26.5 15.5t-18.5 17.5t-17 20q-10 31 -8 84q2 47 12.5 122t40.5 185q27 102 76 214t108.5 227.5t122 231.5t118 226.5t98.5 213t61 190.5q-106 -170 -219 -309q-49 -59 -105.5 -116.5 t-116 -105t-122 -79t-125.5 -39.5q-45 -4 -76 15.5t-53 47.5q-25 31 -41 74zM-55 -32.5q2 -28.5 4 -41.5h2v48t4 79t16.5 99.5t36.5 113.5q16 41 45 99.5t62 121.5q39 74 80 149t75 134q39 70 76 135q-84 -125 -156 -243q-31 -51 -62.5 -105.5t-59 -108t-49 -102.5 t-33.5 -88q-20 -68 -28.5 -123t-11.5 -97t-1 -70.5zM545 -166q0 -53 8 -90q-4 49 0 106q4 47 15.5 111t39.5 133q16 41 44 99.5t61 121.5q39 74 77.5 149t73.5 134q37 70 76 135q-82 -125 -154 -244q-31 -51 -61.5 -105t-58 -107.5t-49 -102.5t-33.5 -88q-23 -80 -31 -143.5 t-8 -108.5zM644 1653q16 41 47 74q27 29 70.5 48.5t113.5 12.5q70 -6 111 -19t68.5 -25.5t50 -21.5t57.5 -9t68.5 16t62.5 37q33 23 63 55l29 -29l-72 -102l47 29q-10 -35 -32 -62q-20 -23 -55.5 -41t-92.5 -14q-57 2 -106.5 18.5t-89 36t-70.5 37t-51 23.5 q-23 4 -54.5 -7.5t-64.5 -27.5q-37 -20 -78 -45l-4 12l63 62z" />
<glyph unicode="&#xd2;" horiz-adv-x="911" d="M-54 194.5q-7 147.5 35 338t158 399.5q76 137 149.5 222t139.5 130t120 60.5t95 14.5t63.5 -10.5t24.5 -9.5q14 -6 31 -18q10 -8 27.5 -37t24.5 -59.5t-5 -57t-57 -30.5q-4 35 -7.5 59.5t-13.5 30.5q-14 12 -53 -13.5t-92.5 -83t-116.5 -142.5t-129 -187 q-51 -80 -94 -180.5t-72 -205t-42 -201.5t-3 -171v-2q2 -31 8 -55q4 -23 12.5 -42.5t20.5 -23.5t48 13.5t87 57.5t110.5 99.5t114.5 136.5q41 53 83 121t83 154q41 88 61.5 157.5t25.5 122t-2 90t-21 64.5q-33 61 -103 80q2 14 7 24q4 10 10 18.5t20 12.5l16 -3 q15 -3 34.5 -16.5t40 -42t30.5 -79.5q31 -74 19.5 -169t-42 -187.5t-69.5 -168t-61 -108.5q-47 -68 -103.5 -140.5t-119 -134t-129 -104.5t-132.5 -51q-47 -12 -76 -10q-59 8 -104 99t-52 238.5zM29 51q-2 -51 8 -82.5t22 -48.5q14 -23 31 -31q-4 2 -10 11q-12 14 -17 34 q-12 37 -16 87.5t-6 97.5q-2 53 0 110q-4 -29 -6 -59q-4 -27 -5 -58.5t-1 -60.5zM69 92q3 -82 15 -127t18 -51q8 -10 16.5 -13t12.5 -5q6 -2 10 0q-4 2 -8 10q-10 14 -18 37h-2h2q-4 10 -5 18t-4 19q-6 25 -11 67.5t-5 100t10.5 129t34.5 157.5q31 117 83 222.5t101 187.5 q57 96 123 180q-59 -72 -114 -152q-47 -68 -97.5 -152.5t-78.5 -170.5q-53 -145 -69.5 -260t-13.5 -197zM324 1706l8 39l196 -119l-139 109q14 2 33 2q16 0 34.5 -1t41.5 -3q45 -47 84 -90t84 -88q4 -4 5 -8.5t5 -8.5q20 -23 39.5 -42t38.5 -42q8 -10 16 -17t14 -15 q2 -2 14.5 -16.5t27 -30t26.5 -30t14 -16.5q-2 -2 -16 9.5t-32.5 26t-36 27.5t-25.5 17q-18 6 -46 22.5t-61 39t-69.5 48t-73.5 52.5q-84 61 -182 135z" />
<glyph unicode="&#xd3;" horiz-adv-x="911" d="M-54 194.5q-7 147.5 35 338t158 399.5q76 137 149.5 222t139.5 130t120 60.5t95 14.5t63.5 -10.5t24.5 -9.5q14 -6 31 -18q10 -8 27.5 -37t24.5 -59.5t-5 -57t-57 -30.5q-4 35 -7.5 59.5t-13.5 30.5q-14 12 -53 -13.5t-92.5 -83t-116.5 -142.5t-129 -187 q-51 -80 -94 -180.5t-72 -205t-42 -201.5t-3 -171v-2q2 -31 8 -55q4 -23 12.5 -42.5t20.5 -23.5t48 13.5t87 57.5t110.5 99.5t114.5 136.5q41 53 83 121t83 154q41 88 61.5 157.5t25.5 122t-2 90t-21 64.5q-33 61 -103 80q2 14 7 24q4 10 10 18.5t20 12.5l16 -3 q15 -3 34.5 -16.5t40 -42t30.5 -79.5q31 -74 19.5 -169t-42 -187.5t-69.5 -168t-61 -108.5q-47 -68 -103.5 -140.5t-119 -134t-129 -104.5t-132.5 -51q-47 -12 -76 -10q-59 8 -104 99t-52 238.5zM29 51q-2 -51 8 -82.5t22 -48.5q14 -23 31 -31q-4 2 -10 11q-12 14 -17 34 q-12 37 -16 87.5t-6 97.5q-2 53 0 110q-4 -29 -6 -59q-4 -27 -5 -58.5t-1 -60.5zM69 92q3 -82 15 -127t18 -51q8 -10 16.5 -13t12.5 -5q6 -2 10 0q-4 2 -8 10q-10 14 -18 37h-2h2q-4 10 -5 18t-4 19q-6 25 -11 67.5t-5 100t10.5 129t34.5 157.5q31 117 83 222.5t101 187.5 q57 96 123 180q-59 -72 -114 -152q-47 -68 -97.5 -152.5t-78.5 -170.5q-53 -145 -69.5 -260t-13.5 -197zM699 1475q78 68 141 121q55 45 98 82q23 21 43 39q-2 0 2 -7.5t8 -15.5q6 -10 11 -22l-256 -183l266 166q4 -18 8 -31q2 -8 6 -20q2 -6 4 -10l-23 -14 q-22 -13 -54.5 -31.5t-71.5 -40t-72 -40t-56 -29.5l-22 -11l-16 24q-8 10 -16 23z" />
<glyph unicode="&#xd4;" horiz-adv-x="911" d="M-54 194.5q-7 147.5 35 338t158 399.5q76 137 149.5 222t139.5 130t120 60.5t95 14.5t63.5 -10.5t24.5 -9.5q14 -6 31 -18q10 -8 27.5 -37t24.5 -59.5t-5 -57t-57 -30.5q-4 35 -7.5 59.5t-13.5 30.5q-14 12 -53 -13.5t-92.5 -83t-116.5 -142.5t-129 -187 q-51 -80 -94 -180.5t-72 -205t-42 -201.5t-3 -171v-2q2 -31 8 -55q4 -23 12.5 -42.5t20.5 -23.5t48 13.5t87 57.5t110.5 99.5t114.5 136.5q41 53 83 121t83 154q41 88 61.5 157.5t25.5 122t-2 90t-21 64.5q-33 61 -103 80q2 14 7 24q4 10 10 18.5t20 12.5l16 -3 q15 -3 34.5 -16.5t40 -42t30.5 -79.5q31 -74 19.5 -169t-42 -187.5t-69.5 -168t-61 -108.5q-47 -68 -103.5 -140.5t-119 -134t-129 -104.5t-132.5 -51q-47 -12 -76 -10q-59 8 -104 99t-52 238.5zM29 51q-2 -51 8 -82.5t22 -48.5q14 -23 31 -31q-4 2 -10 11q-12 14 -17 34 q-12 37 -16 87.5t-6 97.5q-2 53 0 110q-4 -29 -6 -59q-4 -27 -5 -58.5t-1 -60.5zM69 92q3 -82 15 -127t18 -51q8 -10 16.5 -13t12.5 -5q6 -2 10 0q-4 2 -8 10q-10 14 -18 37h-2h2q-4 10 -5 18t-4 19q-6 25 -11 67.5t-5 100t10.5 129t34.5 157.5q31 117 83 222.5t101 187.5 q57 96 123 180q-59 -72 -114 -152q-47 -68 -97.5 -152.5t-78.5 -170.5q-53 -145 -69.5 -260t-13.5 -197zM555 1389l7 2l266 243l102 23q4 -80 6 -143q0 -27 1 -53.5t2 -48t2 -34.5l1 -14q0 -2 -7 -1t-17 3t-25 6l-12 76l-10 148l-238 -179l-8 5l51 38z" />
<glyph unicode="&#xd5;" horiz-adv-x="911" d="M-54 194.5q-7 147.5 35 338t158 399.5q76 137 149.5 222t139.5 130t120 60.5t95 14.5t63.5 -10.5t24.5 -9.5q14 -6 31 -18q10 -8 27.5 -37t24.5 -59.5t-5 -57t-57 -30.5q-4 35 -7.5 59.5t-13.5 30.5q-14 12 -53 -13.5t-92.5 -83t-116.5 -142.5t-129 -187 q-51 -80 -94 -180.5t-72 -205t-42 -201.5t-3 -171v-2q2 -31 8 -55q4 -23 12.5 -42.5t20.5 -23.5t48 13.5t87 57.5t110.5 99.5t114.5 136.5q41 53 83 121t83 154q41 88 61.5 157.5t25.5 122t-2 90t-21 64.5q-33 61 -103 80q2 14 7 24q4 10 10 18.5t20 12.5l16 -3 q15 -3 34.5 -16.5t40 -42t30.5 -79.5q31 -74 19.5 -169t-42 -187.5t-69.5 -168t-61 -108.5q-47 -68 -103.5 -140.5t-119 -134t-129 -104.5t-132.5 -51q-47 -12 -76 -10q-59 8 -104 99t-52 238.5zM29 51q-2 -51 8 -82.5t22 -48.5q14 -23 31 -31q-4 2 -10 11q-12 14 -17 34 q-12 37 -16 87.5t-6 97.5q-2 53 0 110q-4 -29 -6 -59q-4 -27 -5 -58.5t-1 -60.5zM69 92q3 -82 15 -127t18 -51q8 -10 16.5 -13t12.5 -5q6 -2 10 0q-4 2 -8 10q-10 14 -18 37h-2h2q-4 10 -5 18t-4 19q-6 25 -11 67.5t-5 100t10.5 129t34.5 157.5q31 117 83 222.5t101 187.5 q57 96 123 180q-59 -72 -114 -152q-47 -68 -97.5 -152.5t-78.5 -170.5q-53 -145 -69.5 -260t-13.5 -197zM429 1481q16 41 47 74q27 29 70.5 48.5t113.5 12.5q70 -6 111 -19t68.5 -25.5t50 -21.5t57.5 -9t68.5 16t62.5 37q33 23 63 55l29 -29l-72 -102l47 29q-10 -35 -32 -62 q-20 -23 -55.5 -41t-92.5 -14q-57 2 -106.5 18.5t-89 36t-70.5 37t-51 23.5q-23 4 -54.5 -7.5t-64.5 -27.5q-37 -20 -78 -45l-4 12l63 62z" />
<glyph unicode="&#xd6;" horiz-adv-x="911" d="M-54 194.5q-7 147.5 35 338t158 399.5q76 137 149.5 222t139.5 130t120 60.5t95 14.5t63.5 -10.5t24.5 -9.5q14 -6 31 -18q10 -8 27.5 -37t24.5 -59.5t-5 -57t-57 -30.5q-4 35 -7.5 59.5t-13.5 30.5q-14 12 -53 -13.5t-92.5 -83t-116.5 -142.5t-129 -187 q-51 -80 -94 -180.5t-72 -205t-42 -201.5t-3 -171v-2q2 -31 8 -55q4 -23 12.5 -42.5t20.5 -23.5t48 13.5t87 57.5t110.5 99.5t114.5 136.5q41 53 83 121t83 154q41 88 61.5 157.5t25.5 122t-2 90t-21 64.5q-33 61 -103 80q2 14 7 24q4 10 10 18.5t20 12.5l16 -3 q15 -3 34.5 -16.5t40 -42t30.5 -79.5q31 -74 19.5 -169t-42 -187.5t-69.5 -168t-61 -108.5q-47 -68 -103.5 -140.5t-119 -134t-129 -104.5t-132.5 -51q-47 -12 -76 -10q-59 8 -104 99t-52 238.5zM29 51q-2 -51 8 -82.5t22 -48.5q14 -23 31 -31q-4 2 -10 11q-12 14 -17 34 q-12 37 -16 87.5t-6 97.5q-2 53 0 110q-4 -29 -6 -59q-4 -27 -5 -58.5t-1 -60.5zM69 92q3 -82 15 -127t18 -51q8 -10 16.5 -13t12.5 -5q6 -2 10 0q-4 2 -8 10q-10 14 -18 37h-2h2q-4 10 -5 18t-4 19q-6 25 -11 67.5t-5 100t10.5 129t34.5 157.5q31 117 83 222.5t101 187.5 q57 96 123 180q-59 -72 -114 -152q-47 -68 -97.5 -152.5t-78.5 -170.5q-53 -145 -69.5 -260t-13.5 -197zM527 1561q-1 41 9 57t31.5 24.5t46.5 12.5q27 4 61 4l-36 -84l73 92l25 -26q-29 -57 -53 -105q-23 -41 -44.5 -79t-37.5 -48q-25 -16 -41.5 8.5t-24.5 63.5t-9 80z M816 1561q-1 41 9 57t31.5 24.5t46.5 12.5q27 4 61 4l-37 -84l74 92l25 -26q-29 -57 -54 -105q-23 -41 -44 -79t-38 -48q-25 -16 -41 8.5t-24 63.5t-9 80z" />
<glyph unicode="&#xd8;" horiz-adv-x="911" d="M-54 194.5q-7 147.5 35 338t158 399.5q76 137 149.5 222t139.5 130t120 60.5t95 14.5t63.5 -10.5t24.5 -9.5q14 -6 31 -18q10 -8 27.5 -37t24.5 -59.5t-5 -57t-57 -30.5q-4 35 -7.5 59.5t-13.5 30.5q-14 12 -53 -13.5t-92.5 -83t-116.5 -142.5t-129 -187 q-51 -80 -94 -180.5t-72 -205t-42 -201.5t-3 -171v-2q2 -31 8 -55q4 -23 12.5 -42.5t20.5 -23.5t48 13.5t87 57.5t110.5 99.5t114.5 136.5q41 53 83 121t83 154q41 88 61.5 157.5t25.5 122t-2 90t-21 64.5q-33 61 -103 80q2 14 7 24q4 10 10 18.5t20 12.5l16 -3 q15 -3 34.5 -16.5t40 -42t30.5 -79.5q31 -74 19.5 -169t-42 -187.5t-69.5 -168t-61 -108.5q-47 -68 -103.5 -140.5t-119 -134t-129 -104.5t-132.5 -51q-47 -12 -76 -10q-59 8 -104 99t-52 238.5zM-43 -457l29 207q236 430 426 783q82 150 162 298t147.5 272t114.5 212 t63 117q31 57 63 95t56 60q29 25 57 39l-272 -489l309 495l88 5q-12 -18 -28 -41q-14 -20 -33 -52t-43 -75q-12 -23 -67.5 -117t-138.5 -233.5t-183.5 -310.5t-204.5 -345q-244 -412 -545 -920zM29 51q-2 -51 8 -82.5t22 -48.5q14 -23 31 -31q-4 2 -10 11q-12 14 -17 34 q-12 37 -16 87.5t-6 97.5q-2 53 0 110q-4 -29 -6 -59q-4 -27 -5 -58.5t-1 -60.5zM69 92q3 -82 15 -127t18 -51q8 -10 16.5 -13t12.5 -5q6 -2 10 0q-4 2 -8 10q-10 14 -18 37h-2h2q-4 10 -5 18t-4 19q-6 25 -11 67.5t-5 100t10.5 129t34.5 157.5q31 117 83 222.5t101 187.5 q57 96 123 180q-59 -72 -114 -152q-47 -68 -97.5 -152.5t-78.5 -170.5q-53 -145 -69.5 -260t-13.5 -197z" />
<glyph unicode="&#xd9;" horiz-adv-x="1032" d="M-393 1108q20 -25 43 -47q20 -18 48 -33.5t60 -13.5q33 0 58.5 9t44.5 19q23 12 37 29q-29 -16 -60 -27q-27 -10 -57.5 -14t-56.5 6q-33 10 -59.5 29.5t-43.5 36.5q18 -6 49 -11.5t77 1t108.5 29t144.5 71.5q106 61 191 143t145 156q70 86 123 176l12 -12v-2q0 -2 6 -4 q2 -2 6 -2h2l7 -29q-6 -29 -15 -59q-8 -27 -18 -61t-25 -68q-14 -35 -40.5 -94.5t-55.5 -114.5q-33 -68 -68 -138q53 90 89 152.5t61.5 116t47 110t46.5 133.5l31 -20q-2 -6 -2 -14v-14.5t2 -16.5q4 -16 8 -8t10 10q2 0 2 12q-2 6 -2 10l37 -59q-27 -82 -53 -162 q-23 -68 -50.5 -145.5t-56.5 -138.5q-33 -72 -87 -173.5t-113 -213.5l-2 -3q-12 -25 -24.5 -49t-27.5 -49l2 2q-14 -29 -28.5 -56.5t-24.5 -47.5l-2 -2q-47 -96 -83 -178t-52 -142q-12 -47 -16.5 -78.5t-6.5 -59.5t-1 -57.5t1 -72.5q29 -8 82 25q45 27 127 101.5t209 227.5 q84 113 143.5 197t98.5 144.5t61.5 97t32.5 55.5q51 98 100.5 191t92.5 184q14 0 22 -15q-16 -33 -30.5 -62.5t-24.5 -51.5q-12 -27 -25 -52q20 35 37 62.5t31 54.5q27 -4 49.5 -19.5t28.5 -37.5q4 -10 -4.5 -23.5t-12.5 -29.5q0 -6 -11 -27t-22.5 -44.5t-18.5 -41t-3 -12.5 q4 4 14.5 20t21.5 37.5t22.5 45.5t21.5 40q2 -23 11 -31t1 -31q-2 -4 -8 -17t-13.5 -28.5t-13.5 -29t-6 -17.5q-33 -63 -72.5 -138t-80.5 -155v-2q-14 -25 -26.5 -49t-25.5 -49q0 2 2 2q-16 -29 -29.5 -56.5t-23.5 -47.5l-2 -2q-47 -94 -83 -177t-50 -143q-10 -45 -15 -75.5 t-7.5 -56.5t-1.5 -52.5t1 -63.5q-8 -2 -17 -2t-19 -2q-20 -2 -36 7.5t-27 26.5t-17 38.5t-10 44.5q-8 53 -9 123q6 39 15.5 86t25.5 106q16 66 43 135.5t60 141.5q-47 -70 -92.5 -132.5t-75.5 -96.5q-41 -41 -95.5 -107t-114 -128t-120.5 -107.5t-113 -47.5q-37 14 -65 35 q-25 16 -46.5 39t-25.5 49q-10 31 -8 84q2 47 12 122t41 185q29 102 78 214t107.5 227.5t121 231.5t117.5 226.5t98 213t62 190.5q-104 -170 -217 -309q-49 -59 -104.5 -116.5t-116 -105t-123 -79t-125.5 -39.5q-45 -4 -77 15.5t-54 47.5q-25 31 -41 74zM-61 6q0 -53 6 -90 q-6 49 0 107q4 47 16 110.5t41 132.5q16 41 45 99.5t64 121.5q39 74 78.5 149t74.5 134q39 70 76 135q-84 -125 -156 -243q-31 -51 -62.5 -105.5t-59 -108t-49 -102.5t-33.5 -88q-25 -80 -33 -143.5t-8 -108.5zM539 -166q0 -53 8 -90q-4 49 0 106q4 47 15 111t40 133 q16 41 44 99.5t61 121.5q39 74 78.5 149t74.5 134q39 70 76 135q-84 -125 -156 -244q-31 -51 -61.5 -105t-58 -107.5t-48 -102.5t-32.5 -88q-25 -80 -33 -143.5t-8 -108.5zM549 1786l8 39l196 -119l-139 109q14 2 33 2q16 0 34.5 -1t41.5 -3q45 -47 84 -90t84 -88 q4 -4 5 -8.5t5 -8.5q20 -23 39.5 -42t38.5 -42q8 -10 16 -17t14 -15q2 -2 14.5 -16.5t27 -30t26.5 -30t14 -16.5q-2 -2 -16 9.5t-32.5 26t-36 27.5t-25.5 17q-18 6 -46 22.5t-61 39t-69.5 48t-73.5 52.5q-84 61 -182 135z" />
<glyph unicode="&#xda;" horiz-adv-x="1032" d="M-393 1108q20 -25 43 -47q20 -18 48 -33.5t60 -13.5q33 0 58.5 9t44.5 19q23 12 37 29q-29 -16 -60 -27q-27 -10 -57.5 -14t-56.5 6q-33 10 -59.5 29.5t-43.5 36.5q18 -6 49 -11.5t77 1t108.5 29t144.5 71.5q106 61 191 143t145 156q70 86 123 176l12 -12v-2q0 -2 6 -4 q2 -2 6 -2h2l7 -29q-6 -29 -15 -59q-8 -27 -18 -61t-25 -68q-14 -35 -40.5 -94.5t-55.5 -114.5q-33 -68 -68 -138q53 90 89 152.5t61.5 116t47 110t46.5 133.5l31 -20q-2 -6 -2 -14v-14.5t2 -16.5q4 -16 8 -8t10 10q2 0 2 12q-2 6 -2 10l37 -59q-27 -82 -53 -162 q-23 -68 -50.5 -145.5t-56.5 -138.5q-33 -72 -87 -173.5t-113 -213.5l-2 -3q-12 -25 -24.5 -49t-27.5 -49l2 2q-14 -29 -28.5 -56.5t-24.5 -47.5l-2 -2q-47 -96 -83 -178t-52 -142q-12 -47 -16.5 -78.5t-6.5 -59.5t-1 -57.5t1 -72.5q29 -8 82 25q45 27 127 101.5t209 227.5 q84 113 143.5 197t98.5 144.5t61.5 97t32.5 55.5q51 98 100.5 191t92.5 184q14 0 22 -15q-16 -33 -30.5 -62.5t-24.5 -51.5q-12 -27 -25 -52q20 35 37 62.5t31 54.5q27 -4 49.5 -19.5t28.5 -37.5q4 -10 -4.5 -23.5t-12.5 -29.5q0 -6 -11 -27t-22.5 -44.5t-18.5 -41t-3 -12.5 q4 4 14.5 20t21.5 37.5t22.5 45.5t21.5 40q2 -23 11 -31t1 -31q-2 -4 -8 -17t-13.5 -28.5t-13.5 -29t-6 -17.5q-33 -63 -72.5 -138t-80.5 -155v-2q-14 -25 -26.5 -49t-25.5 -49q0 2 2 2q-16 -29 -29.5 -56.5t-23.5 -47.5l-2 -2q-47 -94 -83 -177t-50 -143q-10 -45 -15 -75.5 t-7.5 -56.5t-1.5 -52.5t1 -63.5q-8 -2 -17 -2t-19 -2q-20 -2 -36 7.5t-27 26.5t-17 38.5t-10 44.5q-8 53 -9 123q6 39 15.5 86t25.5 106q16 66 43 135.5t60 141.5q-47 -70 -92.5 -132.5t-75.5 -96.5q-41 -41 -95.5 -107t-114 -128t-120.5 -107.5t-113 -47.5q-37 14 -65 35 q-25 16 -46.5 39t-25.5 49q-10 31 -8 84q2 47 12 122t41 185q29 102 78 214t107.5 227.5t121 231.5t117.5 226.5t98 213t62 190.5q-104 -170 -217 -309q-49 -59 -104.5 -116.5t-116 -105t-123 -79t-125.5 -39.5q-45 -4 -77 15.5t-54 47.5q-25 31 -41 74zM-61 6q0 -53 6 -90 q-6 49 0 107q4 47 16 110.5t41 132.5q16 41 45 99.5t64 121.5q39 74 78.5 149t74.5 134q39 70 76 135q-84 -125 -156 -243q-31 -51 -62.5 -105.5t-59 -108t-49 -102.5t-33.5 -88q-25 -80 -33 -143.5t-8 -108.5zM539 -166q0 -53 8 -90q-4 49 0 106q4 47 15 111t40 133 q16 41 44 99.5t61 121.5q39 74 78.5 149t74.5 134q39 70 76 135q-84 -125 -156 -244q-31 -51 -61.5 -105t-58 -107.5t-48 -102.5t-32.5 -88q-25 -80 -33 -143.5t-8 -108.5zM721 1288q78 68 141 121q55 45 98 82q23 21 43 39q-2 0 2 -7.5t8 -15.5q6 -10 11 -22l-256 -183 l266 166q4 -18 8 -31q2 -8 6 -20q2 -6 4 -10l-23 -14q-22 -13 -54.5 -31.5t-71.5 -40t-72 -40t-56 -29.5l-22 -11l-16 24q-8 10 -16 23z" />
<glyph unicode="&#xdb;" horiz-adv-x="1032" d="M-393 1108q20 -25 43 -47q20 -18 48 -33.5t60 -13.5q33 0 58.5 9t44.5 19q23 12 37 29q-29 -16 -60 -27q-27 -10 -57.5 -14t-56.5 6q-33 10 -59.5 29.5t-43.5 36.5q18 -6 49 -11.5t77 1t108.5 29t144.5 71.5q106 61 191 143t145 156q70 86 123 176l12 -12v-2q0 -2 6 -4 q2 -2 6 -2h2l7 -29q-6 -29 -15 -59q-8 -27 -18 -61t-25 -68q-14 -35 -40.5 -94.5t-55.5 -114.5q-33 -68 -68 -138q53 90 89 152.5t61.5 116t47 110t46.5 133.5l31 -20q-2 -6 -2 -14v-14.5t2 -16.5q4 -16 8 -8t10 10q2 0 2 12q-2 6 -2 10l37 -59q-27 -82 -53 -162 q-23 -68 -50.5 -145.5t-56.5 -138.5q-33 -72 -87 -173.5t-113 -213.5l-2 -3q-12 -25 -24.5 -49t-27.5 -49l2 2q-14 -29 -28.5 -56.5t-24.5 -47.5l-2 -2q-47 -96 -83 -178t-52 -142q-12 -47 -16.5 -78.5t-6.5 -59.5t-1 -57.5t1 -72.5q29 -8 82 25q45 27 127 101.5t209 227.5 q84 113 143.5 197t98.5 144.5t61.5 97t32.5 55.5q51 98 100.5 191t92.5 184q14 0 22 -15q-16 -33 -30.5 -62.5t-24.5 -51.5q-12 -27 -25 -52q20 35 37 62.5t31 54.5q27 -4 49.5 -19.5t28.5 -37.5q4 -10 -4.5 -23.5t-12.5 -29.5q0 -6 -11 -27t-22.5 -44.5t-18.5 -41t-3 -12.5 q4 4 14.5 20t21.5 37.5t22.5 45.5t21.5 40q2 -23 11 -31t1 -31q-2 -4 -8 -17t-13.5 -28.5t-13.5 -29t-6 -17.5q-33 -63 -72.5 -138t-80.5 -155v-2q-14 -25 -26.5 -49t-25.5 -49q0 2 2 2q-16 -29 -29.5 -56.5t-23.5 -47.5l-2 -2q-47 -94 -83 -177t-50 -143q-10 -45 -15 -75.5 t-7.5 -56.5t-1.5 -52.5t1 -63.5q-8 -2 -17 -2t-19 -2q-20 -2 -36 7.5t-27 26.5t-17 38.5t-10 44.5q-8 53 -9 123q6 39 15.5 86t25.5 106q16 66 43 135.5t60 141.5q-47 -70 -92.5 -132.5t-75.5 -96.5q-41 -41 -95.5 -107t-114 -128t-120.5 -107.5t-113 -47.5q-37 14 -65 35 q-25 16 -46.5 39t-25.5 49q-10 31 -8 84q2 47 12 122t41 185q29 102 78 214t107.5 227.5t121 231.5t117.5 226.5t98 213t62 190.5q-104 -170 -217 -309q-49 -59 -104.5 -116.5t-116 -105t-123 -79t-125.5 -39.5q-45 -4 -77 15.5t-54 47.5q-25 31 -41 74zM-61 6q0 -53 6 -90 q-6 49 0 107q4 47 16 110.5t41 132.5q16 41 45 99.5t64 121.5q39 74 78.5 149t74.5 134q39 70 76 135q-84 -125 -156 -243q-31 -51 -62.5 -105.5t-59 -108t-49 -102.5t-33.5 -88q-25 -80 -33 -143.5t-8 -108.5zM539 -166q0 -53 8 -90q-4 49 0 106q4 47 15 111t40 133 q16 41 44 99.5t61 121.5q39 74 78.5 149t74.5 134q39 70 76 135q-84 -125 -156 -244q-31 -51 -61.5 -105t-58 -107.5t-48 -102.5t-32.5 -88q-25 -80 -33 -143.5t-8 -108.5zM675 1307l7 2l266 243l102 23q4 -80 6 -143q0 -27 1 -53.5t2 -48t2 -34.5l1 -14q0 -2 -7 -1t-17 3 t-25 6l-12 76l-10 148l-238 -179l-8 5l51 38z" />
<glyph unicode="&#xdc;" horiz-adv-x="1032" d="M-393 1108q20 -25 43 -47q20 -18 48 -33.5t60 -13.5q33 0 58.5 9t44.5 19q23 12 37 29q-29 -16 -60 -27q-27 -10 -57.5 -14t-56.5 6q-33 10 -59.5 29.5t-43.5 36.5q18 -6 49 -11.5t77 1t108.5 29t144.5 71.5q106 61 191 143t145 156q70 86 123 176l12 -12v-2q0 -2 6 -4 q2 -2 6 -2h2l7 -29q-6 -29 -15 -59q-8 -27 -18 -61t-25 -68q-14 -35 -40.5 -94.5t-55.5 -114.5q-33 -68 -68 -138q53 90 89 152.5t61.5 116t47 110t46.5 133.5l31 -20q-2 -6 -2 -14v-14.5t2 -16.5q4 -16 8 -8t10 10q2 0 2 12q-2 6 -2 10l37 -59q-27 -82 -53 -162 q-23 -68 -50.5 -145.5t-56.5 -138.5q-33 -72 -87 -173.5t-113 -213.5l-2 -3q-12 -25 -24.5 -49t-27.5 -49l2 2q-14 -29 -28.5 -56.5t-24.5 -47.5l-2 -2q-47 -96 -83 -178t-52 -142q-12 -47 -16.5 -78.5t-6.5 -59.5t-1 -57.5t1 -72.5q29 -8 82 25q45 27 127 101.5t209 227.5 q84 113 143.5 197t98.5 144.5t61.5 97t32.5 55.5q51 98 100.5 191t92.5 184q14 0 22 -15q-16 -33 -30.5 -62.5t-24.5 -51.5q-12 -27 -25 -52q20 35 37 62.5t31 54.5q27 -4 49.5 -19.5t28.5 -37.5q4 -10 -4.5 -23.5t-12.5 -29.5q0 -6 -11 -27t-22.5 -44.5t-18.5 -41t-3 -12.5 q4 4 14.5 20t21.5 37.5t22.5 45.5t21.5 40q2 -23 11 -31t1 -31q-2 -4 -8 -17t-13.5 -28.5t-13.5 -29t-6 -17.5q-33 -63 -72.5 -138t-80.5 -155v-2q-14 -25 -26.5 -49t-25.5 -49q0 2 2 2q-16 -29 -29.5 -56.5t-23.5 -47.5l-2 -2q-47 -94 -83 -177t-50 -143q-10 -45 -15 -75.5 t-7.5 -56.5t-1.5 -52.5t1 -63.5q-8 -2 -17 -2t-19 -2q-20 -2 -36 7.5t-27 26.5t-17 38.5t-10 44.5q-8 53 -9 123q6 39 15.5 86t25.5 106q16 66 43 135.5t60 141.5q-47 -70 -92.5 -132.5t-75.5 -96.5q-41 -41 -95.5 -107t-114 -128t-120.5 -107.5t-113 -47.5q-37 14 -65 35 q-25 16 -46.5 39t-25.5 49q-10 31 -8 84q2 47 12 122t41 185q29 102 78 214t107.5 227.5t121 231.5t117.5 226.5t98 213t62 190.5q-104 -170 -217 -309q-49 -59 -104.5 -116.5t-116 -105t-123 -79t-125.5 -39.5q-45 -4 -77 15.5t-54 47.5q-25 31 -41 74zM-61 6q0 -53 6 -90 q-6 49 0 107q4 47 16 110.5t41 132.5q16 41 45 99.5t64 121.5q39 74 78.5 149t74.5 134q39 70 76 135q-84 -125 -156 -243q-31 -51 -62.5 -105.5t-59 -108t-49 -102.5t-33.5 -88q-25 -80 -33 -143.5t-8 -108.5zM539 -166q0 -53 8 -90q-4 49 0 106q4 47 15 111t40 133 q16 41 44 99.5t61 121.5q39 74 78.5 149t74.5 134q39 70 76 135q-84 -125 -156 -244q-31 -51 -61.5 -105t-58 -107.5t-48 -102.5t-32.5 -88q-25 -80 -33 -143.5t-8 -108.5zM671 1540q-1 41 9 57t31.5 24.5t46.5 12.5q27 4 61 4l-36 -84l73 92l25 -26q-29 -57 -53 -105 q-23 -41 -44.5 -79t-37.5 -48q-25 -16 -41.5 8.5t-24.5 63.5t-9 80zM960 1540q-1 41 9 57t31.5 24.5t46.5 12.5q27 4 61 4l-37 -84l74 92l25 -26q-29 -57 -54 -105q-23 -41 -44 -79t-38 -48q-25 -16 -41 8.5t-24 63.5t-9 80z" />
<glyph unicode="&#xdd;" horiz-adv-x="768" d="M-453 1008q18 -25 41 -47q18 -18 45 -34t60 -14q33 0 59.5 9.5t44.5 19.5q23 12 39 29q-33 -16 -63 -27q-29 -10 -58.5 -14t-56.5 6q-33 10 -56.5 29.5t-39.5 35.5q18 -6 48 -11t76 1t110.5 28.5t150.5 72.5q113 61 204 143t156 156q76 86 135 176l11 -13l6 -6q2 -2 6 -2 h2l6 -28q-10 -29 -20 -60q-10 -27 -23.5 -60.5t-30.5 -68.5q-16 -35 -46.5 -94t-63.5 -115q-37 -68 -80 -137q61 90 101 152.5t70 116t55.5 109.5t56.5 134l28 -20q-2 -6 -2 -15v-14t2 -16q2 -16 6 -8t11 10q4 0 4 12q0 6 -2 10l32 -59q-33 -82 -65 -162 q-29 -68 -62.5 -145.5t-66.5 -139.5q-31 -57 -78 -135t-100 -166q-35 -57 -52.5 -108.5t-15.5 -73.5q-12 -4 -25.5 9t-23.5 34.5t-17.5 51.5t-9.5 61q-4 41 17.5 95t48.5 101q31 55 72 115q-47 -66 -84 -127q-31 -53 -55.5 -110.5t-18.5 -100.5q4 -43 17.5 -75t28.5 -53.5 t29.5 -31.5t20.5 -10q8 0 18.5 7t20.5 18l23 22q66 49 136 121t132.5 145.5t113 137t72.5 94.5q84 137 154.5 266t109.5 242q10 4 18.5 12t18.5 14q-8 -23 -25.5 -72t-41.5 -102q-16 -35 -48 -94t-65 -115q-37 -68 -80 -137q61 90 101 152.5t71 116t56.5 109.5t56.5 134 l28 -20q-2 -6 -2 -15q-4 -14 0 -30t7.5 -8t9.5 10q4 0 4 12q0 6 -2 10l35 -59q-31 -82 -66 -162q-29 -68 -63.5 -145.5t-67.5 -139.5q-39 -72 -100.5 -173t-130.5 -214l-2 -2q-14 -25 -28.5 -49.5t-29.5 -48.5q0 2 2 2q-18 -29 -34.5 -56.5t-28.5 -48.5q0 -2 -2 -2 q-53 -96 -96.5 -178t-63.5 -141q-16 -47 -23.5 -79t-10.5 -59.5t-5 -57t-6 -72.5q-41 -14 -76 4q-14 6 -24.5 15t-18.5 17t-14 21q-6 31 0 84q4 47 20.5 121.5t55.5 185.5q41 117 110.5 246t149.5 262q-59 -66 -122 -130.5t-117 -115.5t-94 -78.5t-54 -19.5q-41 25 -76 77 t-43 122q-4 35 8 74.5t29 76.5q18 41 45 86q57 96 114.5 190.5t106.5 183.5t88 172t59 157q-117 -170 -241 -310q-53 -59 -113.5 -116.5t-124 -104.5t-129 -78.5t-129.5 -40.5q-45 -4 -75.5 15.5t-49.5 48.5q-23 31 -35 74zM272 -94q-6 -53 0 -90q0 49 9 106 q8 47 24.5 110.5t50.5 133.5q20 41 53 99.5t72 121.5q45 74 91 148.5t85 134.5q45 70 88 135q-94 -125 -176 -244q-35 -51 -70.5 -105.5t-67.5 -107.5t-57.5 -102t-39.5 -88q-31 -80 -44.5 -143.5t-17.5 -108.5zM646 1563q78 68 141 121q55 45 98 82q23 21 43 39 q-2 0 2 -7.5t8 -15.5q6 -10 11 -22l-256 -183l266 166q4 -18 8 -31q2 -8 6 -20q2 -6 4 -10l-23 -14q-22 -13 -54.5 -31.5t-71.5 -40t-72 -40t-56 -29.5l-22 -11l-16 24q-8 10 -16 23z" />
<glyph unicode="&#xe0;" d="M-54 286.5q5 84.5 42 182.5q35 98 85 161.5t95 104.5q53 45 106 72q20 2 43 2q18 -2 41 -6t41 -19q20 -16 25.5 -65t3.5 -94q35 59 66.5 100t48.5 61l7 -5t15 -11t15.5 -12t7.5 -8q0 -4 -1 -6.5t-1 -6.5v-8q2 2 4 2l12 -4q6 -4 10 -6t9 -6q4 -4 13 -14.5t17 -20.5 q-4 -4 -18.5 -21.5t-14.5 -23.5q0 -4 -12 -23.5t-28 -42.5q-18 -27 -39 -59q-27 -45 -52 -92q-23 -41 -44 -88t-35 -90q-29 -88 -35 -129t0 -41q4 0 25.5 24.5t53 64.5t68.5 90t72 101t60.5 96.5t41.5 79.5q20 39 35 74q6 4 14 4q13 0 19 -29q2 -10 -21.5 -55t-61.5 -105.5 t-84 -129t-91 -129t-82 -101.5t-55 -47q-29 -10 -48.5 -4t-35.5 19q-18 14 -31 34q-4 20 -2 58q2 31 11 80t32 120l-215 -325l-96 16q-25 59 -33 133q-8 63 -3 147.5zM-6 92q0 -16 2 -30.5t6 -24.5q4 -12 10 -23l11 6q-4 12 -9 25q-4 10 -6 21.5t-4 21.5t-1 26.5t1 32.5 q0 20 2 43q-2 -16 -6 -32q-4 -14 -6 -31.5t0 -34.5zM21 178.5q-3 -72.5 2 -102.5q4 -35 6 -45q2 -8 4 -13l14 15q-8 31 -12 71q-4 35 0 84.5t22 112.5q16 61 45 119.5t58 103.5q33 53 65 99q-35 -35 -67 -76q-29 -35 -56.5 -83t-44.5 -102q-33 -111 -36 -183.5zM61.5 117 q-1.5 -47 6.5 -49q6 -2 38.5 42t75.5 104t85 123.5t67 100.5q14 33 27.5 62.5t29.5 58.5q0 20 1 49t1 54.5t-2 45t-8 25.5q-8 6 -29.5 -8t-50.5 -46t-63.5 -78t-69.5 -101q-37 -55 -59.5 -129t-35 -140.5t-14 -113.5zM80 1190l8 39l196 -119l-139 109q14 2 33 2 q16 0 34.5 -1t41.5 -3q45 -47 84 -90t84 -88q4 -4 5 -8.5t5 -8.5q20 -23 39.5 -42t38.5 -42q8 -10 16 -17t14 -15q2 -2 14.5 -16.5t27 -30t26.5 -30t14 -16.5q-2 -2 -16 9.5t-32.5 26t-36 27.5t-25.5 17q-18 6 -46 22.5t-61 39t-69.5 48t-73.5 52.5q-84 61 -182 135z M350 127q12 57 33 115q16 49 41 108.5t57 112.5q33 53 59.5 93t47.5 67q23 31 41 51q-37 -18 -72 -59.5t-62.5 -87.5t-47 -87t-25.5 -55q-31 -72 -45.5 -120t-20.5 -79q-8 -36 -6 -59z" />
<glyph unicode="&#xe1;" d="M-54 286.5q5 84.5 42 182.5q35 98 85 161.5t95 104.5q53 45 106 72q20 2 43 2q18 -2 41 -6t41 -19q20 -16 25.5 -65t3.5 -94q35 59 66.5 100t48.5 61l7 -5t15 -11t15.5 -12t7.5 -8q0 -4 -1 -6.5t-1 -6.5v-8q2 2 4 2l12 -4q6 -4 10 -6t9 -6q4 -4 13 -14.5t17 -20.5 q-4 -4 -18.5 -21.5t-14.5 -23.5q0 -4 -12 -23.5t-28 -42.5q-18 -27 -39 -59q-27 -45 -52 -92q-23 -41 -44 -88t-35 -90q-29 -88 -35 -129t0 -41q4 0 25.5 24.5t53 64.5t68.5 90t72 101t60.5 96.5t41.5 79.5q20 39 35 74q6 4 14 4q13 0 19 -29q2 -10 -21.5 -55t-61.5 -105.5 t-84 -129t-91 -129t-82 -101.5t-55 -47q-29 -10 -48.5 -4t-35.5 19q-18 14 -31 34q-4 20 -2 58q2 31 11 80t32 120l-215 -325l-96 16q-25 59 -33 133q-8 63 -3 147.5zM-6 92q0 -16 2 -30.5t6 -24.5q4 -12 10 -23l11 6q-4 12 -9 25q-4 10 -6 21.5t-4 21.5t-1 26.5t1 32.5 q0 20 2 43q-2 -16 -6 -32q-4 -14 -6 -31.5t0 -34.5zM21 178.5q-3 -72.5 2 -102.5q4 -35 6 -45q2 -8 4 -13l14 15q-8 31 -12 71q-4 35 0 84.5t22 112.5q16 61 45 119.5t58 103.5q33 53 65 99q-35 -35 -67 -76q-29 -35 -56.5 -83t-44.5 -102q-33 -111 -36 -183.5zM61.5 117 q-1.5 -47 6.5 -49q6 -2 38.5 42t75.5 104t85 123.5t67 100.5q14 33 27.5 62.5t29.5 58.5q0 20 1 49t1 54.5t-2 45t-8 25.5q-8 6 -29.5 -8t-50.5 -46t-63.5 -78t-69.5 -101q-37 -55 -59.5 -129t-35 -140.5t-14 -113.5zM350 127q12 57 33 115q16 49 41 108.5t57 112.5 q33 53 59.5 93t47.5 67q23 31 41 51q-37 -18 -72 -59.5t-62.5 -87.5t-47 -87t-25.5 -55q-31 -72 -45.5 -120t-20.5 -79q-8 -36 -6 -59zM381 915q78 68 141 121q55 45 98 82q23 21 43 39q-2 0 2 -7.5t8 -15.5q6 -10 11 -22l-256 -183l266 166q4 -18 8 -31q2 -8 6 -20 q2 -6 4 -10l-23 -14q-22 -13 -54.5 -31.5t-71.5 -40t-72 -40t-56 -29.5l-22 -11l-16 24q-8 10 -16 23z" />
<glyph unicode="&#xe2;" d="M-54 286.5q5 84.5 42 182.5q35 98 85 161.5t95 104.5q53 45 106 72q20 2 43 2q18 -2 41 -6t41 -19q20 -16 25.5 -65t3.5 -94q35 59 66.5 100t48.5 61l7 -5t15 -11t15.5 -12t7.5 -8q0 -4 -1 -6.5t-1 -6.5v-8q2 2 4 2l12 -4q6 -4 10 -6t9 -6q4 -4 13 -14.5t17 -20.5 q-4 -4 -18.5 -21.5t-14.5 -23.5q0 -4 -12 -23.5t-28 -42.5q-18 -27 -39 -59q-27 -45 -52 -92q-23 -41 -44 -88t-35 -90q-29 -88 -35 -129t0 -41q4 0 25.5 24.5t53 64.5t68.5 90t72 101t60.5 96.5t41.5 79.5q20 39 35 74q6 4 14 4q13 0 19 -29q2 -10 -21.5 -55t-61.5 -105.5 t-84 -129t-91 -129t-82 -101.5t-55 -47q-29 -10 -48.5 -4t-35.5 19q-18 14 -31 34q-4 20 -2 58q2 31 11 80t32 120l-215 -325l-96 16q-25 59 -33 133q-8 63 -3 147.5zM-6 92q0 -16 2 -30.5t6 -24.5q4 -12 10 -23l11 6q-4 12 -9 25q-4 10 -6 21.5t-4 21.5t-1 26.5t1 32.5 q0 20 2 43q-2 -16 -6 -32q-4 -14 -6 -31.5t0 -34.5zM21 178.5q-3 -72.5 2 -102.5q4 -35 6 -45q2 -8 4 -13l14 15q-8 31 -12 71q-4 35 0 84.5t22 112.5q16 61 45 119.5t58 103.5q33 53 65 99q-35 -35 -67 -76q-29 -35 -56.5 -83t-44.5 -102q-33 -111 -36 -183.5zM61.5 117 q-1.5 -47 6.5 -49q6 -2 38.5 42t75.5 104t85 123.5t67 100.5q14 33 27.5 62.5t29.5 58.5q0 20 1 49t1 54.5t-2 45t-8 25.5q-8 6 -29.5 -8t-50.5 -46t-63.5 -78t-69.5 -101q-37 -55 -59.5 -129t-35 -140.5t-14 -113.5zM350 127q12 57 33 115q16 49 41 108.5t57 112.5 q33 53 59.5 93t47.5 67q23 31 41 51q-37 -18 -72 -59.5t-62.5 -87.5t-47 -87t-25.5 -55q-31 -72 -45.5 -120t-20.5 -79q-8 -36 -6 -59zM374 979l7 2l266 243l102 23q4 -80 6 -143q0 -27 1 -53.5t2 -48t2 -34.5l1 -14q0 -2 -7 -1t-17 3t-25 6l-12 76l-10 148l-238 -179l-8 5 l51 38z" />
<glyph unicode="&#xe3;" d="M-54 286.5q5 84.5 42 182.5q35 98 85 161.5t95 104.5q53 45 106 72q20 2 43 2q18 -2 41 -6t41 -19q20 -16 25.5 -65t3.5 -94q35 59 66.5 100t48.5 61l7 -5t15 -11t15.5 -12t7.5 -8q0 -4 -1 -6.5t-1 -6.5v-8q2 2 4 2l12 -4q6 -4 10 -6t9 -6q4 -4 13 -14.5t17 -20.5 q-4 -4 -18.5 -21.5t-14.5 -23.5q0 -4 -12 -23.5t-28 -42.5q-18 -27 -39 -59q-27 -45 -52 -92q-23 -41 -44 -88t-35 -90q-29 -88 -35 -129t0 -41q4 0 25.5 24.5t53 64.5t68.5 90t72 101t60.5 96.5t41.5 79.5q20 39 35 74q6 4 14 4q13 0 19 -29q2 -10 -21.5 -55t-61.5 -105.5 t-84 -129t-91 -129t-82 -101.5t-55 -47q-29 -10 -48.5 -4t-35.5 19q-18 14 -31 34q-4 20 -2 58q2 31 11 80t32 120l-215 -325l-96 16q-25 59 -33 133q-8 63 -3 147.5zM-6 92q0 -16 2 -30.5t6 -24.5q4 -12 10 -23l11 6q-4 12 -9 25q-4 10 -6 21.5t-4 21.5t-1 26.5t1 32.5 q0 20 2 43q-2 -16 -6 -32q-4 -14 -6 -31.5t0 -34.5zM21 178.5q-3 -72.5 2 -102.5q4 -35 6 -45q2 -8 4 -13l14 15q-8 31 -12 71q-4 35 0 84.5t22 112.5q16 61 45 119.5t58 103.5q33 53 65 99q-35 -35 -67 -76q-29 -35 -56.5 -83t-44.5 -102q-33 -111 -36 -183.5zM61.5 117 q-1.5 -47 6.5 -49q6 -2 38.5 42t75.5 104t85 123.5t67 100.5q14 33 27.5 62.5t29.5 58.5q0 20 1 49t1 54.5t-2 45t-8 25.5q-8 6 -29.5 -8t-50.5 -46t-63.5 -78t-69.5 -101q-37 -55 -59.5 -129t-35 -140.5t-14 -113.5zM185 946q16 41 47 74q27 29 70.5 48.5t113.5 12.5 q70 -6 111 -19t68.5 -25.5t50 -21.5t57.5 -9t68.5 16t62.5 37q33 23 63 55l29 -29l-72 -102l47 29q-10 -35 -32 -62q-20 -23 -55.5 -41t-92.5 -14q-57 2 -106.5 18.5t-89 36t-70.5 37t-51 23.5q-23 4 -54.5 -7.5t-64.5 -27.5q-37 -20 -78 -45l-4 12l63 62zM350 127 q12 57 33 115q16 49 41 108.5t57 112.5q33 53 59.5 93t47.5 67q23 31 41 51q-37 -18 -72 -59.5t-62.5 -87.5t-47 -87t-25.5 -55q-31 -72 -45.5 -120t-20.5 -79q-8 -36 -6 -59z" />
</font>
</defs>
</svg>
