<?xml version="1.0" standalone="no"?>
<!DOCTYPE svg PUBLIC "-//W3C//DTD SVG 1.1//EN" "http://www.w3.org/Graphics/SVG/1.1/DTD/svg11.dtd" >
<svg>
<metadata>
Created by FontForge 20090622 at Mon Sep  7 08:30:53 2015
 By deploy user
Copyright (c) 2015 by Olexstudio. All rights reserved.
</metadata>
<defs>
<font id="BeautySignature" horiz-adv-x="436" >
  <font-face 
    font-family="Beauty Signature"
    font-weight="400"
    font-stretch="normal"
    units-per-em="2000"
    panose-1="2 0 0 0 0 0 0 0 0 0"
    ascent="1600"
    descent="-400"
    x-height="210"
    cap-height="513"
    bbox="-542 -1111 1741 1144"
    underline-thickness="50"
    underline-position="-50"
    unicode-range="U+000D-U+FB00"
  />
<missing-glyph horiz-adv-x="198" 
 />
    <glyph glyph-name="l_l" unicode="ll" horiz-adv-x="475" 
d="M519 53q-11 -21 -54 -40.5t-70 -19.5q-56 0 -93 45q-58 -35 -110 -35q-53 0 -94 29t-58 80q-81 -56 -120 -56q-14 0 -23 6l-5 8q46 -16 140 69q-8 34 -8 65q0 41 21.5 109.5t62.5 128t84 59.5q29 0 47.5 -24t18.5 -55q0 -67 -54.5 -142.5t-123.5 -134.5q25 -93 116 -93
q35 0 80 26q-23 51 -23 106q0 63 38.5 129t96.5 66q57 0 57 -86q0 -142 -122 -240q35 -40 81 -40q26 0 63 18.5t52 21.5zM191 457q-43 -18 -80.5 -105t-37.5 -141l1 -31q51 51 97 119.5t46 117.5q0 14 -6.5 27t-19.5 13zM387 337q-44 0 -72 -59.5t-28 -109.5q0 -35 13 -72
q47 37 74.5 90t27.5 111q0 25 -10 39z" />
    <glyph glyph-name="t_t" unicode="tt" horiz-adv-x="447" 
d="M309 6q18 0 36.5 14.5t35.5 40.5t29.5 47.5t26.5 51t18 36.5q14 21 16 21t2 -5q0 -39 -22.5 -97t-63 -105.5t-81.5 -47.5q-73 0 -85 212v6q-47 -8 -94 -12q23 -83 23 -153q0 -38 -9 -49l-6 8l-10 -3q-18 10 -45.5 50.5t-58 90t-44.5 66.5q-9 0 -9 7q0 4 9.5 7.5t24 6.5
t28 5l27 4t15.5 2q-21 131 -21 262q0 8 6 8q8 0 15 -13t13 -35t11 -46.5t9 -54l7 -50.5t5.5 -42t2.5 -24q17 1 50 5l49 6v13q0 70 8 152l6 9q4 0 7 -9q6 -21 9.5 -48.5t5.5 -63.5t3 -51q2 0 18 0.5t28 0.5t25 -1.5t16 -5.5q0 -3 -7.5 -7.5t-19.5 -8.5l-22 -7.5t-22 -6.5
l-12 -3q15 -142 36 -179l4 -3zM29 168q48 -36 85 -121q-4 16 -17.5 56t-16.5 63q-34 0 -51 2z" />
    <glyph glyph-name="F_l" unicode="Fl" horiz-adv-x="481" 
d="M526 108q-8 -38 -73.5 -91.5t-104.5 -53.5q-31 0 -52.5 23.5t-28.5 56.5q-72 -38 -94 -38q-5 0 -9 2q0 3 44 34.5t53 36.5q-12 112 36 264q-21 -2 -75 -9.5t-83 -10.5q2 -42 -3 -199t-12 -170q-5 0 -11 18q-7 18 -13.5 95.5t-6.5 112.5l1 137q-68 2 -111 -9q-8 0 -8 5
q0 27 120 49q-1 27 9 105.5t19 93.5h4q11 -13 11 -72l1 -119q13 -1 39.5 2.5t36.5 3.5q46 0 88 -13q37 110 74 110q28 0 46 -35.5t23 -71t5 -65.5q0 -132 -145 -232q5 -21 8 -31t13.5 -21t27.5 -14q19 -3 52 18t70 51t49 37zM317 650q33 0 82 -7.5t61 -21.5q0 -5 -18 -5
q-86 0 -327 -29q-15 -2 -71 -12.5t-86 -10.5q-8 0 -8 6q0 29 149.5 54.5t217.5 25.5zM379 404q-22 -34 -47 -136.5t-27 -153.5q95 90 95 181q0 22 -8.5 58.5t-9.5 51.5l-2 3q-1 0 -1 -4z" />
    <glyph glyph-name="T_h" unicode="Th" horiz-adv-x="624" 
d="M296 540q39 0 94 -5t69 -16q0 -7 -19 -7q-24 -4 -70 -7t-62 -5q-45 -5 -133 -18.5t-160.5 -22t-131.5 -8.5h-5v3l-4 4l5 5l11 5q1 -1 1.5 -0.5t-0.5 1.5q73 31 194 51t211 20zM175 53v-91q0 -13 -5 -19q-5 0 -10 15q-37 94 -37 335q0 27 6 79.5t6 78.5q0 8 7 8
q11 0 19 -97q14 -160 14 -309zM544 73q22 0 63.5 18t55.5 18q4 0 4 -8q0 -19 -51.5 -47.5t-74.5 -28.5q-48 0 -80.5 33.5t-32.5 81.5q0 29 10 55q-26 -27 -77.5 -118.5t-63.5 -102.5q0 -7 -4 -7q-2 0 -4.5 2t-3.5 2l-1 5q-30 45 -30 159q0 25 3.5 70t10.5 104.5t23.5 101.5
t37.5 42q4 0 4 -5q0 -26 -9.5 -79.5t-11.5 -73.5q-1 -8 -4.5 -98.5t-12.5 -133.5q25 57 68.5 107.5t91.5 62.5q6 11 13 14q4 0 4 -10q0 -6 -1 -30.5t-0.5 -37.5t4 -34t11 -32.5t22 -20.5t36.5 -9z" />
    <glyph glyph-name="T_l" unicode="Tl" horiz-adv-x="479" 
d="M508 111q-8 -38 -73.5 -91.5t-104.5 -53.5q-31 0 -52.5 23.5t-28.5 56.5q-36 -20 -75 -33q0 -1 1 -20.5t0 -32t-5 -17.5q-5 0 -10 15q-37 95 -37 335q0 68 8 124q0 1 0.5 6.5t1.5 11l2 11.5t2.5 9.5t3.5 3.5q13 0 20 -97q15 -187 14 -329q9 6 32 23t36 25q-8 75 28 234.5
t88 159.5q28 0 46 -35.5t23 -71t5 -65.5q0 -132 -145 -232q5 -21 8 -31t13.5 -21t27.5 -14q19 -3 52 18t70 51t49 37zM296 540q40 0 94.5 -5t68.5 -16q-1 -7 -19 -7q-19 -3 -41.5 -5t-49 -4t-41.5 -3q-32 -3 -188 -26t-237 -23h-5v3l-4 4l5 5l11 5q1 -1 1.5 -0.5t-0.5 1.5
q73 31 194.5 51t210.5 20zM361 407q-22 -34 -47 -136.5t-27 -153.5q95 90 95 181q0 22 -8.5 58.5t-9.5 51.5l-2 3q-1 0 -1 -4z" />
    <glyph glyph-name="F_h" unicode="Fh" horiz-adv-x="322" 
d="M682 108q9 0 9 -7q0 -20 -51.5 -48.5t-75.5 -28.5q-48 0 -80.5 33.5t-32.5 81.5q0 29 10 55q-26 -26 -78.5 -118.5t-62.5 -102.5q0 -8 -3 -8q-1 0 -2.5 1t-3.5 2.5t-3 1.5l-1 5q-30 45 -30 159q0 82 3 108q-64 -35 -93 -35q-15 0 -29 3q47 10 126 59q0 2 6 30.5t6 39.5v3
q-20 -2 -74 -9.5t-83 -10.5q2 -42 -3 -199t-12 -170q-5 1 -11 18q-7 18 -13.5 96.5t-6.5 111.5l1 137q-68 2 -111 -9q-8 0 -8 5q0 9 9.5 16.5t27 13t31.5 9t32 7t20 3.5q-1 27 9 105.5t19 93.5h4q11 -13 11 -72l1 -119q13 -1 39.5 2.5t36.5 3.5q44 0 86 -12q11 42 20.5 70.5
t29.5 75t47 72t58 25.5q41 0 41 -60q0 -74 -49 -154t-115 -121q-1 -19 -2.5 -65t-4 -80t-8.5 -64q25 55 69.5 109t90.5 61q6 11 13 14q4 0 4 -15q0 -5 -0.5 -29.5t-0.5 -36.5t3.5 -33t11 -31.5t21.5 -19.5t35 -9q23 0 65 18t52 18zM317 650q33 0 82 -7.5t61 -21.5
q0 -5 -18 -5q-86 0 -327 -29q-15 -2 -71 -12.5t-86 -10.5q-8 0 -8 6q0 29 149.5 54.5t217.5 25.5zM464 582q-25 0 -49.5 -35t-40 -84.5t-25.5 -91.5t-13 -66q61 47 101.5 115t40.5 138q0 24 -14 24z" />
    <glyph glyph-name="f_f" unicode="ff" horiz-adv-x="454" 
d="M440 157q53 0 62 -17q0 -5 -8 -8q-28 -13 -97 -28.5t-101 -15.5h-9q0 -28 3 -84t3 -83q-24 0 -39.5 90.5t-15.5 135.5q0 133 65 188q-53 31 -77 31q-32 0 -55.5 -17.5t-35 -41t-18 -59.5t-8 -60.5t-1.5 -57.5v-23q9 1 42.5 6.5t50.5 5.5q7 0 12 -6q-1 -16 -39 -32.5
t-64 -21.5q2 -18 13.5 -73.5t11.5 -78.5q0 -6 -1 -9q-16 1 -39 65t-26 92q-62 0 -101 34l5 13q8 2 24 2q7 0 30 -1t36 0q-1 32 -2 70.5t8 78.5t23.5 73t44 54t70.5 21q34 0 56.5 -14t49.5 -44q20 10 39 10q20 0 48.5 -16t28.5 -34q0 -4 -5 -4q-2 0 -11.5 5t-23.5 9.5
t-25 4.5q-24 0 -41 -22.5t-24.5 -58t-10 -63.5t-2.5 -54q86 38 154 38z" />
    <glyph glyph-name=".notdef" horiz-adv-x="198" 
 />
    <glyph glyph-name=".null" horiz-adv-x="0" 
 />
    <glyph glyph-name="nonmarkingreturn" horiz-adv-x="666" 
 />
    <glyph glyph-name="NULL" horiz-adv-x="0" 
 />
    <glyph glyph-name="NULL" horiz-adv-x="0" 
 />
    <glyph glyph-name="CR" unicode="&#xd;" horiz-adv-x="198" 
 />
    <glyph glyph-name="space" unicode=" " horiz-adv-x="198" 
 />
    <glyph glyph-name="exclam" unicode="!" horiz-adv-x="121" 
d="M95 256q0 -80 -13 -92q-3 0 -7 13q-6 22 -11.5 49.5t-8 47l-7 53l-6.5 47.5q-2 11 -14.5 74t-12.5 96q0 34 8 34q5 0 8 -5l19 -63.5t18.5 -63.5t13 -55t10.5 -66t3 -69zM104 122l3 -12q-1 -3 -6.5 -33.5t-14.5 -53.5t-21 -23q-15 0 -15 38q0 29 11.5 54.5t36.5 30.5z" />
    <glyph glyph-name="quotedbl" unicode="&#x22;" horiz-adv-x="159" 
d="M32 472v26q0 6 -3.5 19t-2.5 19l4 6h10q17 -9 27 -28.5t10 -40.5q0 -26 -20 -55t-45 -29q-7 0 -7 5q0 7 13.5 35t13.5 43zM106 472v16q0 13 -7 48l5 6h9q37 -19 37 -69q0 -25 -19.5 -54.5t-44.5 -29.5q-8 0 -8 8q0 2 14 32.5t14 42.5z" />
    <glyph glyph-name="numbersign" unicode="#" horiz-adv-x="379" 
d="M297 349q92 -10 105 -27q0 -2 -13 -6q-17 -3 -50 -4t-43 -2q0 -47 -9 -117q69 -13 81 -27q-1 -8 -79 -8l-7 1q-19 -161 -33 -175q-6 0 -6 16q-6 36 -6 72q0 44 3 87q-10 0 -34 -1.5t-37 -0.5q-12 -151 -22 -162q-3 0 -8 16q-11 58 -11 112l1 31q-18 -1 -69.5 -8.5
t-74.5 -7.5q-5 0 -5 6q0 21 56 36t94 18l7 106q-66 -6 -98 -6h-9q-5 3 -5 9q0 10 45.5 22.5t69.5 16.5q-1 26 12 96t26 70q6 0 6 -8q0 -26 -1 -77t-1 -76q34 4 74 1q1 28 15 81.5t30 53.5q6 0 6 -9q0 -14 -5 -43t-5 -44v-42zM243 200q2 18 4.5 54.5t5.5 54.5q-10 -1 -34 -1
t-37 -2q-4 -68 -8 -104q46 0 69 -2z" />
    <glyph glyph-name="dollar" unicode="$" horiz-adv-x="268" 
d="M257 447q2 -16 2 -23q0 -34 -10.5 -75.5t-33.5 -41.5q-4 0 -8 4q23 23 23 70q0 31 -2.5 45t-15 27t-39.5 22q-37 -176 -43 -248q3 -5 14 -22t15.5 -25t12 -23t10.5 -27.5t3 -25.5q0 -36 -24 -57.5t-60 -24.5q-5 -30 -12 -39q-3 0 -4.5 8t-2.5 18.5t-1 11.5
q-28 0 -48.5 17t-20.5 44q0 4 2 10q8 -7 14 -20t15 -20t30 -7l7 1q0 77 5 172q-2 4 -10 18.5l-11 20l-10 19t-10 20.5l-8 19.5t-7.5 21.5l-5.5 20.5t-4 22t-1 21.5q0 47 33 83t80 36q20 0 29 -2q5 21 13 21q6 0 6 -8l-1 -17q32 -11 48.5 -24.5t30.5 -42.5zM149 101
q0 23 -26 60q-4 -49 -16 -111q42 16 42 51zM93 295q11 78 50 184q-34 0 -56.5 -21t-22.5 -55q0 -38 29 -108z" />
    <glyph glyph-name="percent" unicode="%" horiz-adv-x="255" 
d="M141 397q0 -29 -20.5 -49.5t-50.5 -20.5q-23 0 -38 15.5t-15 38.5t10.5 42t31.5 25l8 -1l1 1q9 4 23 4q21 0 35.5 -16.5t14.5 -38.5zM65 429q-9 -18 -9 -31q0 -8 4 -22l5 -3h13q9 0 16 10.5t7 19.5q0 25 -30 30zM218 491q0 -35 -79 -267t-90 -243q-4 1 -4 11
q0 68 66.5 288t100.5 220q6 0 6 -9zM196 187q21 0 32.5 -20.5t11.5 -42.5q0 -34 -18.5 -59t-51.5 -25q-23 0 -37.5 13t-14.5 36q0 24 18 49t41 25q6 0 6 -5l-1 -7q-23 -27 -23 -55q0 -5 2 -11q1 0 2 -0.5t2 -0.5q37 3 37 54q0 13 -6 25q-12 6 -27 6v1q0 8 9 12.5t18 4.5z
" />
    <glyph glyph-name="ampersand" unicode="&#x26;" horiz-adv-x="404" 
d="M230 159q18 -6 70 -14.5t96 -14.5l43 -6q0 -7 -16 -7q-49 -6 -101 -6q-33 0 -87 12q3 -66 -41 -130t-108 -64q-36 0 -58 25t-22 61q0 28 13 59t27 50.5t38 48.5q-59 33 -59 74q0 35 43 66.5t80 31.5q20 0 37.5 -10.5t17.5 -29.5q0 -23 -17 -63.5t-34 -53.5q21 -11 65 -25
v24q6 -4 13 -28zM68 240q12 -22 42 -34q42 55 49 91q1 3 -9 3q-19 0 -51 -18t-32 -36zM218 119v8q-31 7 -91 29l-37 -44t-28 -46t-15 -54q0 -46 43 -46q46 0 87 52.5t41 100.5z" />
    <glyph glyph-name="quotesingle" unicode="'" horiz-adv-x="103" 
d="M41 472v16q0 13 -7 48l5 6h9q37 -19 37 -69q0 -25 -19.5 -54.5t-44.5 -29.5q-8 0 -8 8q0 2 14 32.5t14 42.5z" />
    <glyph glyph-name="parenleft" unicode="(" horiz-adv-x="176" 
d="M6 148q0 33 14 85.5t43.5 99.5t63.5 47l8 -7q-39 -36 -61.5 -98t-22.5 -120q0 -77 59 -149q35 -43 71 -58q17 -8 17 -10q-6 -4 -20 -4q-64 0 -118 74t-54 140z" />
    <glyph glyph-name="parenright" unicode=")" horiz-adv-x="173" 
d="M162 164q0 -33 -14 -85.5t-43.5 -99.5t-63.5 -47l-8 7q39 36 61.5 98t22.5 120q0 77 -59 149q-35 43 -71 58q-17 8 -17 10q6 4 20 4q64 0 118 -74t54 -140z" />
    <glyph glyph-name="asterisk" unicode="*" horiz-adv-x="164" 
d="M102 467q68 -10 68 -18t-47 -8l-20 1q28 -37 28 -47q0 -2 -3 -2q-10 0 -40 30q0 -51 -4 -51q-5 0 -11 19.5t-8 30.5q-41 -41 -48 -41q-2 0 -2 2q0 19 38 63q-28 2 -43 9v7q9 4 30 6q-31 31 -31 36q0 4 4 4q2 0 2 -2.5t-1 -3.5l2 2q0 3 -1 3q12 0 46 -24q0 47 4 63l7 1
q9 -15 14 -60q12 17 37 35l5 -5q-9 -22 -26 -49v-1z" />
    <glyph glyph-name="plus" unicode="+" horiz-adv-x="272" 
d="M248 130l8 -8q0 -10 -39.5 -14.5t-63.5 -4.5q-5 -89 -17 -98q-19 1 -26 99q-60 4 -90 11l-4 11q5 6 13.5 10t20.5 6t19.5 3t21.5 2t17 1q-2 82 8 117h13q19 -31 24 -117q54 -3 95 -18z" />
    <glyph glyph-name="comma" unicode="," horiz-adv-x="72" 
d="M26 44l4 5h6q28 -15 28 -51q0 -19 -14.5 -40.5t-32.5 -21.5q-6 0 -6 6q0 10 8.5 26t11.5 29.5t-5 46.5z" />
    <glyph glyph-name="hyphen" unicode="-" horiz-adv-x="174" 
d="M19 88l-2 9q16 13 53 13q55 0 85 -10q8 -4 8 -5q0 -10 -23 -14.5t-39 -4.5q-58 0 -82 12z" />
    <glyph glyph-name="period" unicode="." horiz-adv-x="89" 
d="M9 36q0 2 0.5 7t0.5 7l16 3l5 4h6q18 0 32 -17.5t14 -36.5l-1 -11q-8 -14 -18 -14q-23 0 -39 17.5t-16 40.5z" />
    <glyph glyph-name="slash" unicode="/" horiz-adv-x="169" 
d="M192 551l3 -10q0 -33 -84.5 -279.5t-109.5 -291.5q-9 -17 -14 -19q-1 3 -1 10q0 61 55.5 233.5t92.5 252.5q48 104 58 104z" />
    <glyph glyph-name="zero" unicode="0" horiz-adv-x="276" 
d="M9 179q0 34 15.5 93.5t47 113t66.5 53.5q10 0 14 -5q-3 -3 -11 -7q-37 -18 -64 -98.5t-27 -131.5q0 -143 66 -152q33 10 61 70t41 121.5t13 99.5q0 67 -40 103q20 -2 34.5 -17t21.5 -37t10 -42.5t3 -39.5q0 -33 -8.5 -81t-24.5 -99.5t-45.5 -87t-66.5 -35.5
q-31 0 -53.5 17.5t-33 47t-15 57t-4.5 57.5z" />
    <glyph glyph-name="one" unicode="1" horiz-adv-x="229" 
d="M224 29l8 -9q0 -17 -80 -17h-119q-28 0 -42 1l-6 14q32 42 125 40q-9 26 -9 82q0 77 18.5 166t49.5 159q-63 -52 -108 -52q-6 0 -16 2l-4 14q16 26 79 66t92 40q11 0 11 -8q0 -11 -24 -35q-2 -63 -31 -225t-48 -210q57 -3 104 -28z" />
    <glyph glyph-name="two" unicode="2" horiz-adv-x="306" 
d="M102 47q43 -1 123 -13.5t91 -29.5q-1 -14 -72 -14q-33 0 -72 3t-85.5 7l-71.5 6l-4 13q23 18 64 25q52 51 101.5 145t49.5 158q0 70 -52 70q-34 0 -86.5 -31t-52.5 -63q0 -2 3 -17q3 -6 3 -8q0 -4 -4 -4q-10 0 -16.5 12.5t-6.5 24.5q0 51 58.5 91.5t111.5 40.5
q43 0 66.5 -35t23.5 -80q0 -80 -51 -163t-121 -138z" />
    <glyph glyph-name="three" unicode="3" horiz-adv-x="229" 
d="M226 408q0 -65 -86 -132q36 -15 59 -48t23 -72q0 -64 -39.5 -109.5t-101.5 -45.5q-30 0 -63 17.5t-33 45.5l1 7l5 -2q16 -19 31 -26.5t40 -7.5q51 0 83.5 35.5t32.5 87.5q0 47 -39.5 75.5t-88.5 28.5q-21 0 -21 6t19.5 12.5t27.5 6.5q25 0 37 -3q68 85 68 124
q0 36 -50 36q-17 0 -51.5 -5.5t-36.5 -13.5l-10 6l1 9q36 45 111 45q35 0 58 -21t23 -56z" />
    <glyph glyph-name="four" unicode="4" horiz-adv-x="279" 
d="M259 387q9 0 9 -28q0 -42 -35.5 -198t-58.5 -171q-8 0 -8 41q0 21 2 42t6 45t7.5 40l9.5 44.5t9 41.5q-39 -10 -83 -10q-56 0 -120 25q33 44 108.5 130t110.5 134h2q9 0 9 -18q0 -58 -128 -204l-15 -17q-3 0 -3 -1q0 -3 2.5 -4.5t9 -1.5h7.5q33 -7 107 -11q37 121 52 121
z" />
    <glyph glyph-name="five" unicode="5" horiz-adv-x="342" 
d="M258 460q96 0 114 -24q0 -5 -14 -5l-63 -6q-37 -3 -103.5 -15t-83.5 -14q-5 -30 -14.5 -61.5t-25 -74.5l-21.5 -60q37 0 67 -7t53.5 -30.5t23.5 -61.5q0 -49 -45 -76t-98 -27q-35 0 -44 11q0 3 14 7q37 9 60 19q52 22 67 53l1 15q0 23 -21 39t-45.5 22.5t-45.5 13.5
t-21 15q0 6 13 6q-8 38 7 94.5t38 97.5q-59 -5 -102 5l16 11q12 2 36 10t33 10q136 33 204 33z" />
    <glyph glyph-name="six" unicode="6" horiz-adv-x="281" 
d="M289 419q12 0 17 -5q-1 -4 -11 -7q-72 -20 -159.5 -125t-87.5 -180q0 -28 17 -43t46 -15q40 0 80.5 26t40.5 64q0 20 -17.5 29.5t-39.5 9.5q-34 0 -72 -20q5 20 36 31.5t56 11.5q31 0 50.5 -20t19.5 -51q0 -52 -52 -88.5t-106 -36.5q-45 0 -74.5 28t-29.5 73
q0 58 46.5 133.5t115 130t124.5 54.5z" />
    <glyph glyph-name="seven" unicode="7" horiz-adv-x="228" 
d="M115 533q22 0 72 -9.5t50 -22.5q0 -3 -2 -3l-3 -8q-23 -20 -97.5 -185.5t-94.5 -224.5q-2 -5 -5 -17.5t-6 -22.5t-7 -15q-7 1 -7 40q0 85 63 226.5t126 197.5q-7 -5 -88 -2t-88 3l-6 11q17 32 93 32z" />
    <glyph glyph-name="eight" unicode="8" horiz-adv-x="279" 
d="M181 309q40 -26 66.5 -65t26.5 -82q0 -65 -44.5 -113t-108.5 -48q-49 0 -84.5 29t-35.5 77t45 111.5t89 63.5q1 0 7 -3l-10 -9q-10 -10 -25 -26.5t-29.5 -36t-24.5 -45.5t-10 -50q0 -34 24.5 -50t59.5 -16q42 0 76 38.5t34 81.5q0 39 -17 70.5t-41.5 52.5t-48.5 39.5
t-41 39.5t-17 45q0 34 32.5 55t68.5 21q35 0 59.5 -20.5t24.5 -55.5q0 -31 -23 -60.5t-53 -43.5zM113 409q0 -20 27 -51t31 -41q2 2 9.5 12.5t11 14.5t9.5 14t9 16.5t5.5 15t2.5 16.5q0 18 -11.5 28t-30.5 10q-39 0 -61 -25q-2 -6 -2 -10z" />
    <glyph glyph-name="nine" unicode="9" horiz-adv-x="207" 
d="M196 477q6 0 6 -15q0 -66 -65.5 -262.5t-97.5 -222.5q-3 1 -3 9q0 79 92 322q-22 -9 -36 -9q-40 0 -65.5 31.5t-25.5 71.5q0 45 34.5 80t79.5 35q38 0 38 -34q0 -4 -6 -4l-5 1q-4 5 -16 9q-32 -8 -56 -32t-24 -55q0 -30 17.5 -52.5t46.5 -22.5q21 0 26 4q3 8 14 43.5
t20 58t20 39.5q2 5 6 5z" />
    <glyph glyph-name="colon" unicode=":" horiz-adv-x="136" 
d="M10 94q0 2 0.5 7t0.5 7l16 3l5 4h6q18 0 32 -17.5t14 -36.5l-1 -11q-8 -14 -18 -14q-23 0 -39 17.5t-16 40.5zM10 225q0 3 0.5 7t0.5 7l16 3l5 4h6q18 0 32 -17.5t14 -36.5l-1 -11q-8 -14 -18 -14q-23 0 -39 17.5t-16 40.5z" />
    <glyph glyph-name="semicolon" unicode=";" horiz-adv-x="125" 
d="M10 225q0 3 0.5 7t0.5 7l16 3l5 4h6q18 0 32 -17.5t14 -36.5l-1 -11q-8 -14 -18 -14q-23 0 -39 17.5t-16 40.5zM26 127l4 5h6q28 -15 28 -51q0 -19 -14.5 -40.5t-32.5 -21.5q-6 0 -6 6q0 10 8.5 26t11.5 29.5t-5 46.5z" />
    <glyph glyph-name="less" unicode="&#x3c;" horiz-adv-x="265" 
d="M264 526q-7 -21 -12 -21q-6 0 -6 6l9 -3q-56 -109 -127 -195q-3 -4 -33 -37t-43 -53h-1l17 -12q42 -29 112 -94.5t103 -90.5q18 -14 18 -19h-2q-13 0 -43 16.5t-72 45.5l-74 52l-73 54l-45 34q17 37 127.5 166t144.5 151z" />
    <glyph glyph-name="equal" unicode="=" horiz-adv-x="330" 
d="M221 213q24 0 61.5 -6.5t44.5 -17.5q0 -3 -5.5 -5t-14 -3.5t-16.5 -2.5l-15.5 -2t-8.5 -1q-83 -10 -225 -10h-13l-4 11q37 37 196 37zM171 115q40 0 92 -7.5t63 -24.5q-1 -10 -61 -10q-39 -3 -78 -3q-18 0 -52.5 3t-53.5 3.5t-51 -3.5l-6 10q10 16 40 24t56 8h51z" />
    <glyph glyph-name="greater" unicode="&#x3e;" horiz-adv-x="300" 
d="M18 -4q7 21 12 21q6 0 6 -6l-9 3q56 109 127 195q3 4 33 37t43 53h1l-17 12q-42 29 -112 94.5t-103 90.5q-18 14 -18 19h2q13 0 43 -16.5t72 -45.5l74 -52l73 -54l45 -34q-17 -37 -127.5 -166t-144.5 -151z" />
    <glyph glyph-name="question" unicode="?" horiz-adv-x="256" 
d="M157 585q41 0 63 -26t22 -68q0 -33 -32 -95t-80.5 -138t-60.5 -99q-13 -19 -14 -19q-3 0 -3 5q0 49 36.5 117.5l73 132.5t36.5 100q0 50 -45 50q-34 0 -67.5 -21t-36.5 -52l-5 -9q-9 0 -9 26q0 37 41.5 66.5t80.5 29.5zM93 102l3 -12q0 -1 -5 -11l-8.5 -17t-10 -18.5
t-11.5 -19.5t-11 -16t-11.5 -12.5t-9.5 -4.5q-10 0 -10 26q0 28 20 57.5t47 29.5q3 0 7 -2z" />
    <glyph glyph-name="at" unicode="@" horiz-adv-x="338" 
d="M238 462q37 0 64.5 -24.5t27.5 -61.5q0 -23 -15 -32h-5q0 38 -12.5 60.5t-49.5 22.5q-60 0 -107 -52t-68 -117t-21 -122q0 -19 4.5 -40t18 -40t33.5 -19q35 0 107 73l5 5q-19 -11 -40 -11q-26 0 -42.5 21t-16.5 48q0 56 49.5 103.5t106.5 47.5q12 0 19 -7l1 -9
q-43 -5 -87 -48.5t-44 -86.5q0 -12 8 -23q6 -3 13 -3q13 0 34.5 18t31.5 33q15 66 41 104l12 -3q2 -12 2 -19q0 -32 -10.5 -97t-10.5 -98q0 -12 3 -35t3 -34q0 -10 -3 -13q-21 1 -33 47t-12 76v10l-1 -1q-7 -39 -55.5 -86t-87.5 -47q-45 0 -69 46t-24 95q0 67 25.5 138.5
t80 126t124.5 54.5z" />
    <glyph glyph-name="A" unicode="A" 
d="M336 214q40 1 88.5 -5.5t60.5 -25.5q0 -6 -38 -6l-101 -7q28 -140 28 -197q0 -10 -3 -19l-2 -1q-14 0 -81 42.5t-88 60.5q-39 34 -77 93q-75 -159 -101 -202l-7 -5q-5 0 -5 8q0 59 62 196.5t110 210.5q4 6 20 27.5t27 38.5t14 28h-1h1l3 7v2l24 1h-5q1 0 1 -2
q6 -6 12.5 -19.5t12.5 -34l11.5 -39.5t11 -45l9 -42t8 -38.5t5.5 -26.5zM252 432q-13 -40 -58.5 -128t-54.5 -122q21 12 70.5 20.5t79.5 8.5q-9 94 -37 221zM352 -9q-28 90 -51 175q-27 1 -78.5 -3.5t-74.5 -4.5q161 -117 204 -167z" />
    <glyph glyph-name="B" unicode="B" horiz-adv-x="477" 
d="M51 388q1 0 3 -4q12 -17 12 -88q0 -54 3 -81q2 -21 5.5 -63.5t7 -75.5t9.5 -63q1 -9 13.5 -48t12.5 -44q0 -1 -0.5 -3t-0.5 -3q-5 0 -14 9q-43 42 -61 132.5t-18 176.5q0 28 8.5 78t9.5 71q3 6 10 6zM390 118q132 -7 160 -45q-21 0 -64.5 8t-65.5 8q-13 0 -39 -2
q-25 -58 -79 -97.5t-116 -39.5q-19 0 -37.5 12t-18.5 30q0 34 41 64t90 45t83 15q4 14 4 22q0 35 -35.5 63t-72.5 28h-13q-20 -20 -58 -37.5t-67 -19.5v1l-4 1l-2 5q12 59 112 80q17 22 31 57.5t14 60.5q0 53 -31 85t-84 32q-40 0 -69 -11.5t-42 -26l-31.5 -35t-33.5 -30.5
q-4 0 -4 6q0 56 65 98.5t122 42.5q67 0 110 -43.5t43 -111.5q0 -56 -44 -121q46 7 91.5 -36.5t45.5 -89.5zM112 184q7 6 26 16.5t28 18.5q-31 -10 -54 -35zM186 -5q48 7 80.5 26t58.5 57q-41 -10 -88.5 -31.5t-62.5 -46.5l2 -2z" />
    <glyph glyph-name="C" unicode="C" horiz-adv-x="360" 
d="M284 522q32 0 51 -23.5t19 -55.5q0 -42 -38 -117.5t-75 -76.5q-1 1 -1 4q0 1 7.5 10l15.5 19t10 12q14 20 29.5 70t15.5 74q0 17 -9 32q-13 11 -23 11q-29 0 -83 -43q-71 -58 -116 -143t-45 -172q0 -53 29 -93t80 -40q32 0 64.5 15t46 25.5t51.5 47.5l41 40
q-4 -50 -78.5 -106.5t-127.5 -56.5q-64 0 -107.5 48.5t-43.5 114.5q0 106 49.5 200.5t135.5 158.5q61 45 102 45z" />
    <glyph glyph-name="D" unicode="D" horiz-adv-x="428" 
d="M359 187q91 -16 120 -33q-24 0 -68.5 6t-59.5 7q-38 -86 -121 -160t-165 -74q-87 0 -87 62q0 51 38 96t90 71q5 38 7 80.5t2.5 98t1.5 80.5q0 91 15 91q4 0 6 -6q22 -62 22 -194q0 -85 -9 -131q49 18 92 18q32 0 70 -5q32 104 32 155q0 87 -47 138t-134 51
q-36 0 -67 -11.5t-47.5 -25l-33 -27t-25.5 -15.5q4 29 39 55.5t76 40.5t70 14q102 0 157 -62.5t55 -165.5q0 -75 -29 -154zM58 -23q64 0 138.5 63.5t105.5 129.5l-27 1q-61 0 -132 -31q-1 -12 -17 -63t-22 -57q-6 0 -6 42q0 18 4 54q-30 -18 -56 -53t-26 -67l1 -9l3 -4
q16 -6 34 -6z" />
    <glyph glyph-name="E" unicode="E" horiz-adv-x="411" 
d="M374 610q-15 -12 -200.5 -37t-205.5 -35q-9 3 -9 7q0 31 133.5 57t191.5 26q68 0 88 -13zM321 223l25 1q25 0 36.5 -0.5t32.5 -2t34.5 -5t21.5 -8.5q-2 -2 -9 -2q-20 0 -41.5 -1.5t-47.5 -4t-41 -3.5q16 -51 16 -108q0 -56 -24 -106t-74 -50q-53 0 -94 31.5t-63 80.5
t-33 100t-11 99q0 19 2 57q-32 0 -46 7l1 13q32 12 48 17l1 1q4 43 26 121.5t45 78.5q3 0 3 -4l-3 -14q-4 -14 -9.5 -35.5t-11 -45.5t-9.5 -49t-5 -42l17 3l37.5 4t25.5 2q21 0 68 -9.5t55 -19.5q-1 -5 -9 -8q-15 -7 -94.5 -9t-101.5 -8v-27q0 -187 83 -261q41 -37 77 -37
q30 0 43 40.5t13 79.5q0 55 -15 99q-25 -2 -51 18l-7 10q-1 17 10 29t28 12q31 0 51 -44z" />
    <glyph glyph-name="F" unicode="F" horiz-adv-x="322" 
d="M317 650q34 0 82.5 -7.5t60.5 -21.5q0 -5 -18 -5q-86 0 -327 -29q-15 -2 -71 -12.5t-86 -10.5q-8 0 -8 7l5 5q49 37 161.5 55.5t200.5 18.5zM215 375q28 0 64 -6t45 -19q-1 -6 -13 -6q-93 -15 -172 -22q2 -42 -3 -199t-12 -170q-5 0 -11 18q-7 18 -13.5 96.5t-6.5 111.5
l1 137q-67 2 -111 -9q-8 0 -8 5q0 27 120 49q-1 27 9 105t19 94h4q11 -14 11 -72l1 -119q13 -1 39.5 2.5t36.5 3.5z" />
    <glyph glyph-name="G" unicode="G" horiz-adv-x="473" 
d="M544 163q-2 -4 -31.5 -10.5t-67 -12t-40.5 -6.5q6 -17 6 -34q0 -51 -35.5 -85.5t-81 -47t-94.5 -12.5q-200 0 -200 185q0 71 45 167t121 169.5t151 73.5q40 0 67.5 -22t27.5 -62q0 -31 -12.5 -71t-34.5 -50l-7 1q16 10 22.5 47t6.5 68q0 27 -18.5 41.5t-45.5 14.5
q-62 0 -129 -69t-107 -156.5t-40 -147.5q0 -81 38.5 -112t121.5 -31q34 0 68.5 8t64 31.5t29.5 58.5q0 13 -4 24q-68 -16 -115 -16q-26 0 -43 17q-2 4 -2 13q0 31 34.5 47t69.5 16q26 0 52.5 -12t33.5 -34q67 9 111 9h19h19zM286 138q24 0 66 8q-13 17 -51 17q-33 0 -54 -17
l2 -7q4 -1 37 -1z" />
    <glyph glyph-name="H" unicode="H" horiz-adv-x="362" 
d="M303 227q90 0 103 -16q0 -2 -3.5 -4t-7.5 -2.5t-9 -1t-6 -0.5q-11 -2 -37 -7.5t-40 -7.5q0 -40 -4.5 -132.5t-10.5 -103.5q-3 1 -10 21q-6 22 -10 52.5t-5 50.5t-2 58t-2 51q-73 0 -175 -7q0 -212 -21 -248l-4 4q-7 16 -13 109t-6 135q-21 -2 -42 4l-4 4q1 8 19.5 16
t25.5 6q15 251 36 351l6 8q3 0 6 -8q9 -31 9 -102q0 -94 -11 -239q72 12 92 12l80 -1q0 240 23 380l6 9q4 0 7 -8q9 -28 9 -120z" />
    <glyph glyph-name="I" unicode="I" horiz-adv-x="406" 
d="M280 513q59 0 137 -7t95 -24q0 -6 -18 -6q-17 -2 -47 -2.5t-42 -1.5q-138 -10 -378 -10q-62 0 -62 11q0 3 8 6q17 3 49 10.5t46 10.5q69 13 212 13zM216 -6q43 1 102.5 -5.5t71.5 -24.5q0 -6 -13 -6q-95 -12 -244 -12q-99 0 -118 7q-3 5 -3 9l3 3q27 24 181 28
q-15 71 -15 120q0 97 5 217q0 19 4.5 51.5t12.5 32.5q3 0 5 -5q10 -19 16 -82.5t6 -105.5q0 -145 -14 -227z" />
    <glyph glyph-name="J" unicode="J" horiz-adv-x="229" 
d="M47 420l22 15q63 -99 63 -341q0 -34 -3 -69q100 37 167 37q22 0 36 -5q-22 -9 -92.5 -26.5t-113.5 -42.5q-7 -53 -24.5 -103t-57.5 -93t-93 -43q-17 0 -31 13t-14 30q0 100 175 209q7 52 7 135q0 192 -41 284zM-49 -206q45 0 78 53t44 107q-44 -34 -83.5 -78t-39.5 -80z
M-153 385q68 36 157 65t151 29q17 0 17 -4q0 -8 -14 -14.5t-23 -7.5q-123 -22 -179 -48q-71 -35 -105 -43l-12 4z" />
    <glyph glyph-name="K" unicode="K" horiz-adv-x="365" 
d="M155 450q41 19 125 45.5t113 26.5q5 0 7 -3q0 -5 -52 -29.5l-113.5 -51.5t-73.5 -33q14 -142 14 -212q8 -7 58 -39t91 -61t42 -40q-12 1 -86.5 39t-104.5 55q1 -38 -12 -154.5t-24 -133.5q-6 0 -6 23q-5 49 -5 118q0 19 1 80.5t0 94.5q-5 4 -35.5 24t-45.5 32t-30.5 33
t-15.5 40q0 28 21.5 55.5t42.5 42t53 31.5q1 23 -3 66t-4 62q0 8 4 11q19 0 39 -122zM48 304q0 -8 10.5 -20t21.5 -20.5l28 -21t20 -14.5q0 23 -3 75t-3 80q-1 0 -11.5 -7.5t-14.5 -10t-13.5 -10t-13.5 -12.5l-10 -12t-8.5 -13.5t-2.5 -13.5z" />
    <glyph glyph-name="L" unicode="L" horiz-adv-x="355" 
d="M321 26q70 0 93 -14q-19 -6 -61 -9.5t-52 -5.5q-200 -35 -246 -48q-7 -42 -27 -74t-56 -32q-23 0 -37 13t-14 36q0 17 5 30t16 22.5t20 15t26 14t24 12.5q3 21 3 65q0 70 -6.5 212t-6.5 213q0 30 6 36q2 0 7 -14q17 -79 31 -224q16 -183 16 -240q0 -6 -0.5 -18t-0.5 -17
q125 27 260 27zM-13 -97q1 3 6 8l7 16q-26 -13 -32 -32q9 0 19 8z" />
    <glyph glyph-name="M" unicode="M" horiz-adv-x="483" 
d="M492 142q4 -7 4 -32q0 -27 -6.5 -59t-24.5 -61.5t-45 -29.5q-88 0 -87 257v11q-15 -14 -45.5 -45.5t-47.5 -47.5h1q-4 -4 -12.5 -10.5t-12.5 -10.5q2 -8 -2 -14l-10 7l-2 3q-5 10 -18 29t-18 29l-26 50l-41 90.5t-42 89.5v-16q0 -67 -2 -150.5t-10 -185.5t-22 -117
q-2 0 -3.5 3.5t-2.5 8.5l-1 5q-10 60 -10 165q0 183 27 330q-8 16 -8 24t5 8q3 0 8 -4.5t7 -5.5l1 -3q99 -82 167 -331l15 17v1q10 13 35 42.5t42 52.5t30 46q0 5 2 49.5t5 80t10.5 79t22 68.5t35.5 25q23 0 35.5 -21t12.5 -46q0 -45 -25 -118.5t-53 -111.5q-5 -98 -5 -117
q0 -150 31 -184l10 -2q15 2 27 14t20 31.5t12.5 36.5t9.5 40t7 30zM411 533q-18 -33 -23 -129q25 83 25 117l-1 9v4z" />
    <glyph glyph-name="N" unicode="N" horiz-adv-x="393" 
d="M453 190q0 -18 -42 -31t-65 -13q-19 0 -32 4q-5 -26 -14 -61.5t-25.5 -79.5t-29.5 -47l-2 -9q-32 3 -99 133.5t-96 204.5q10 -68 10 -126q0 -55 -8.5 -143t-26.5 -104q-6 1 -6 17q-4 34 -5 71t-0.5 87.5t0.5 71.5q0 24 -2.5 72.5t-2.5 73.5q0 5 1.5 41t-0.5 41q2 8 8 8
t11 -16q9 -6 15.5 -14t16.5 -24t11 -17q-2 -2 4 -7q22 -36 72 -139q1 -2 94 -209q11 22 25 92.5t14 97.5v4q-44 34 -63.5 115.5t-19.5 157.5q0 106 53 106q25 0 43 -26t26 -65t11.5 -70t3.5 -55q0 -65 -14 -154q29 -9 46 -9q35 0 88 21zM240 409q0 -46 12 -106t32 -90
q5 58 5 104q0 131 -39 181v1q-10 -29 -10 -90z" />
    <glyph glyph-name="O" unicode="O" horiz-adv-x="522" 
d="M428 239q30 -1 56.5 0t57.5 -0.5t55 -6.5q-37 -13 -163 -16q22 -106 -44 -184.5t-175 -78.5q-89 0 -148.5 62.5t-59.5 151.5q0 39 10 84.5t29 90.5t53 74.5t76 29.5q17 0 25 -6l-5 -4q-43 -4 -74 -30.5t-47 -66t-23 -79t-7 -81.5q0 -76 46.5 -129t121.5 -53q76 0 128 48
t52 124q0 20 -5 47q-32 0 -71 5.5t-83 18t-73 38t-29 59.5q0 37 38 63t77 26q59 0 112.5 -61.5t69.5 -125.5zM169 336q0 -21 25.5 -39t63.5 -29t68.5 -17t52.5 -8q-16 43 -54 91.5t-74 48.5q-24 0 -53 -13t-29 -34z" />
    <glyph glyph-name="P" unicode="P" horiz-adv-x="418" 
d="M482 316q0 -1 -1 -2q-74 -3 -146 -12q-19 -44 -73.5 -79.5t-107.5 -50.5q0 -200 -25 -226q-4 0 -4 21q-1 32 -7.5 100t-7.5 103q-28 -1 -58 10.5t-30 36.5q0 22 32 47t57 29q0 9 1.5 63t3 76t5.5 61t10 69l5 8q4 0 7 -8q16 -47 16 -189l-1 -65q69 16 140 21q28 49 28 111
q0 74 -44.5 117t-118.5 43q-68 0 -120 -39t-57 -104q-3 -19 -3 -20l-5 3q-6 10 -6 28q0 74 61.5 122t137.5 48q92 0 146 -56.5t54 -148.5q0 -48 -21 -101l121 -1l9 1q0 -1 1 -2zM70 220q22 -5 40 -5v33q-1 0 -8 -4l-14 -8t-13 -8.5t-6 -6.5zM155 219q64 14 116 75
q-66 -10 -114 -27q0 -16 -2 -48z" />
    <glyph glyph-name="Q" unicode="Q" horiz-adv-x="588" 
d="M635 123q8 -13 8 -43q0 -64 -44 -116.5t-107 -52.5q-58 0 -107 49q-39 -11 -86 -11q-128 0 -213 65.5t-85 189.5q0 120 89.5 197t211.5 77q69 0 115.5 -28.5t46.5 -93.5q49 -23 78 -75t29 -108q0 -127 -155 -204q39 -34 80 -34q61 0 99.5 53.5t38.5 116.5q0 12 1 18z
M527 174q0 39 -18 76.5t-49 58.5q-9 -53 -52 -101t-94 -54q13 -66 70 -146q54 12 98.5 62t44.5 104zM396 330q-44 0 -65 -44t-21 -93l1 -18q48 12 81 55t39 95q-14 5 -35 5zM45 204q0 -104 72.5 -156.5t180.5 -52.5q24 0 54 5q-52 68 -74 151q-32 1 -63.5 15t-31.5 41v1
q9 -6 20.5 -15.5t17 -13t17.5 -6.5t30 -3h7q-8 71 23 136.5t99 65.5q18 0 33 -4q-10 72 -121 72q-106 0 -185 -66t-79 -170z" />
    <glyph glyph-name="R" unicode="R" horiz-adv-x="396" 
d="M259 206q54 -38 133.5 -120t86.5 -124q-17 13 -47.5 46.5t-42.5 44.5q-98 90 -162 127q-18 -15 -51.5 -29.5t-58.5 -18.5q-6 -201 -19 -217q-2 0 -8 17q-18 71 -18 196q-18 3 -25.5 4.5t-23.5 6.5t-23 14.5t-7 23.5q0 26 24.5 44.5t54.5 25.5q0 10 -0.5 47.5t0 55.5
t2.5 47t6 51l5 8l8 -7q24 -78 24 -198q60 0 101 -22q63 54 63 123q0 76 -45 115t-122 39q-7 0 -20.5 -2t-20.5 -2q0 13 27.5 18.5t49.5 5.5q76 0 124 -49.5t48 -126.5q0 -87 -63 -144zM41 180q9 -5 30 -5v25q-12 -4 -27 -15zM117 180q37 9 58 21q-22 7 -58 7v-28z" />
    <glyph glyph-name="S" unicode="S" horiz-adv-x="373" 
d="M425 174q-2 -4 -42.5 -24l-87.5 -43l-55 -27q6 -48 -22 -90t-76 -42q-24 0 -40 11.5t-16 34.5q0 10 3.5 19t12.5 17.5l15 14.5t20.5 14.5t19.5 11l21 10.5l16 8q-6 22 -28.5 48t-49.5 52.5t-54 57t-45 71t-18 84.5q0 88 53 146t139 58q76 0 120.5 -37t44.5 -112
q0 -49 -43 -110t-88 -61l-3 3l2 4q42 24 70.5 68.5t28.5 90.5q0 112 -129 112q-68 0 -108.5 -45.5t-40.5 -114.5q0 -46 25 -88.5t56 -70t63.5 -65t44.5 -72.5q154 65 191 66zM144 -13q22 0 37 22.5t17 46.5l-9 -4.5t-10 -5.5t-10 -6t-11 -6.5t-9.5 -7t-9 -8t-7.5 -8t-6 -9
t-3 -9.5l6 -4zM222 293h1h-1z" />
    <glyph glyph-name="T" unicode="T" horiz-adv-x="344" 
d="M296 540q39 0 94 -5t69 -16q0 -7 -19 -7q-24 -4 -70 -7t-62 -5q-45 -5 -133 -18.5t-160.5 -22t-131.5 -8.5h-5v3l-4 4l5 5l11 5q1 -1 1.5 -0.5t-0.5 1.5q73 31 194 51t211 20zM175 53v-91q0 -13 -5 -19q-5 0 -10 15q-37 94 -37 335q0 27 6 79.5t6 78.5q0 8 7 8
q11 0 19 -97q14 -160 14 -309z" />
    <glyph glyph-name="U" unicode="U" horiz-adv-x="475" 
d="M551 4q3 -12 -21.5 -21.5t-37.5 -9.5q-42 0 -72 24.5t-44.5 58t-23 83t-10 85t-2.5 77.5v16q-4 -14 -14 -54t-18 -68t-21.5 -69t-29 -69t-36 -55t-47 -41t-57.5 -14q-111 0 -111 221q0 44 9.5 133.5t22.5 103.5q3 0 3 -13q0 -11 -1.5 -45.5t-2 -67.5t0 -76t5.5 -78.5
t13.5 -66.5t25.5 -49t40 -18q40 0 72 46.5t51.5 113.5t36.5 134t36.5 114t42.5 48q8 -2 12 -6t5 -7l2 -3q3 -15 3 -17q0 -14 -2 -54.5t-2.5 -74.5t1 -80t9 -81.5t20 -68t36.5 -50t56 -17.5q18 0 50 16z" />
    <glyph glyph-name="V" unicode="V" horiz-adv-x="413" 
d="M476 282q-18 -17 -74 -17q-37 0 -73 15q-13 -42 -30.5 -88t-46 -104.5t-66 -96t-74.5 -37.5q-108 0 -108 369q0 119 11 134q6 0 6 -19q4 -36 10 -118q0 -4 2.5 -35.5t4.5 -50.5t6 -53.5t9 -58t12 -50t16.5 -45t21.5 -27.5l14 -2q26 7 55 45.5t52 90t39 94t25 75.5
q-33 24 -45 51t-12 70q0 25 4.5 52t20.5 52.5t40 25.5q33 0 48 -26.5t15 -62.5q0 -64 -24 -162q46 -23 109 -23q10 0 32 2zM265 404q0 -44 30 -71q21 80 21 130q0 49 -19 51q-32 -21 -32 -110z" />
    <glyph glyph-name="W" unicode="W" horiz-adv-x="618" 
d="M669 191q-17 -17 -89 -17q-26 0 -47 7q-15 -54 -41 -103t-72.5 -88t-100.5 -39q-30 0 -57.5 16t-39.5 43q-49 -74 -106 -74q-41 0 -67 27.5t-35 62t-9 74.5q0 55 27 166t54 142v-4q0 -22 -25.5 -127.5t-25.5 -162.5q0 -21 3.5 -42.5t11 -45t23.5 -38.5t39 -15
q21 0 42.5 19t31.5 35t24 42q-10 148 40 337q7 26 12 34l4 5l3 3v1q19 7 21 7q10 0 18 -4q5 -3 8.5 -8t5.5 -9t4 -10.5t2.5 -11t1 -12.5t0.5 -11v-12v-11q0 -137 -74 -296q3 -36 17.5 -55t48.5 -19q41 0 79 36.5t60 79.5t33 85q-66 42 -66 152q0 49 21 113t56 77l13 -1
q7 -4 12 -11.5t9 -18t6.5 -22t4 -26.5t2.5 -26.5t1.5 -27.5t0.5 -25v-23v-17q0 -55 -17 -144q36 -11 69 -11q10 0 31 2t32 2zM285 353q-15 -72 -24 -144q24 96 24 144zM456 339q0 -76 43 -120q17 88 17 172q0 68 -8 100l-3 4l-5 -3q0 -1 -11 -24.5t-22 -60t-11 -68.5z" />
    <glyph glyph-name="X" unicode="X" horiz-adv-x="438" 
d="M425 240q72 0 86 -4q0 -1 -3.5 -2.5t-8.5 -3t-9.5 -2t-9 -1.5t-5.5 -1q-4 -1 -44 -5t-57 -10q16 -42 27 -107t11 -111q0 -89 -51 -89q-15 0 -33 11.5t-36.5 33.5t-35.5 45t-36 54.5l-31 52.5l-26.5 48l-18.5 34q-10 -13 -60 -82.5l-95 -130t-53 -66.5l-1 4q0 36 69 146.5
t117 173.5q-23 43 -67.5 141t-44.5 115q0 6 1 8q6 -1 36.5 -51l65 -112t37.5 -67q45 52 146 144.5t132 92.5q5 0 6 -3q0 -1 -60.5 -65l-126 -133t-73.5 -78v-1q5 -8 26.5 -45l40.5 -68l42.5 -67.5t43.5 -60.5t33 -29h1l1 2q6 20 6 22q2 18 2 27q0 114 -30 237q1 0 35 1.5
t51 1.5z" />
    <glyph glyph-name="Y" unicode="Y" horiz-adv-x="472" 
d="M371 590q39 0 65.5 -35.5t26.5 -75.5q0 -82 -64.5 -132t-151.5 -61q-17 -104 -17 -183q0 -27 4 -55.5t8.5 -47t13 -50.5t12.5 -51q-6 2 -28 46q-40 88 -40 212q0 60 8 129q-126 12 -213.5 92t-87.5 204q0 13 4 21q5 -4 13 -27t16.5 -52.5t30 -63.5t50 -62.5t79 -48
t115.5 -20.5q6 36 16 74t28.5 83.5t47.5 74.5t64 29zM256 331q56 8 108.5 47.5t52.5 92.5q0 22 -10 43.5t-29 28.5h-12q-19 0 -39 -26t-34.5 -65.5t-23 -69t-13.5 -51.5z" />
    <glyph glyph-name="Z" unicode="Z" horiz-adv-x="501" 
d="M571 549q53 0 53 -35q0 -23 -27 -43t-54 -30t-54 -16q-17 -28 -73.5 -136t-106 -186t-92.5 -111l-2 -1q0 -14 83.5 -47.5t113.5 -33.5q115 0 115 81q0 19 -9 38.5t-24 27.5l3 1q20 0 33 -27t13 -48q0 -51 -42 -75.5t-96 -24.5q-93 0 -219 83q-55 -43 -117 -43
q-44 0 -81.5 23.5t-37.5 64.5q0 30 22.5 49.5t52.5 19.5q35 0 61.5 -8.5t40.5 -17.5t50 -36v1q48 43 91.5 108t94 160.5t69.5 127.5q-72 -1 -172.5 14.5t-134.5 45.5l8 1q28 0 110.5 -16t126.5 -16q59 0 86 9q63 96 115 96zM66 -32q38 0 80 26q-60 44 -97 44h-27
q-9 0 -19 -7.5t-10 -16.5q0 -23 23.5 -34.5t49.5 -11.5zM578 505q0 3 -3 3q-21 0 -49 -33q52 20 52 30z" />
    <glyph glyph-name="bracketleft" unicode="[" horiz-adv-x="111" 
d="M3 459q0 3 5 3q38 5 69 5q8 0 24 -2l8 -7l-2 -3q-5 -2 -23 -7l-32 -9t-14 -7q0 -16 5 -51t6 -40q7 -62 7 -218q0 -14 -3.5 -42.5t-3.5 -41.5q-4 -4 -4 -9h2l6 -1l10 -2q52 -9 53 -13q-11 -9 -106 -14q0 12 3.5 38t3.5 39q0 64 -7 191.5t-7 190.5z" />
    <glyph glyph-name="backslash" unicode="\" horiz-adv-x="184" 
d="M-35 540q0 2 3 2h1l1 1l1 1l-1 -1l-1 -1h-2l-1 1q0 2 4 2q1 0 1 -2q18 -11 127 -278.5t109 -302.5q0 -4 -1 -4q-3 0 -8.5 7t-11.5 17.5t-11 21l-10 20.5l-6 12q-64 119 -129 273.5t-65 230.5z" />
    <glyph glyph-name="bracketright" unicode="]" horiz-adv-x="134" 
d="M125 7q0 -3 -5 -3q-38 -5 -69 -5q-8 0 -24 2l-8 7l2 3q5 2 23 7l32 9t14 7q0 16 -5 51t-6 40q-7 62 -7 218q0 14 3.5 42.5t3.5 41.5q4 4 4 9h-2l-6 1l-10 2q-52 9 -53 13q11 9 106 14q0 -12 -3.5 -38t-3.5 -39q0 -63 7 -191t7 -191z" />
    <glyph glyph-name="asciicircum" unicode="^" horiz-adv-x="266" 
d="M132 557q-1 0 -2 -2l-1 -2l-12.5 -18l-17 -24t-18.5 -23.5t-21.5 -23t-20.5 -15t-20 -6.5q-7 0 -7 5t50.5 80.5t60.5 85.5q3 3 4 3q13 0 79 -82t67 -92q-4 -2 -7 -2q-17 0 -38.5 17.5t-51.5 51t-31 34.5l-11 11l-2 1v1z" />
    <glyph glyph-name="underscore" unicode="_" horiz-adv-x="336" 
d="M51 -30q-10 0 -34 4v9q80 23 154 23q23 0 67 -5.5t62 -6.5q35 0 35 -6q-14 -18 -284 -18z" />
    <glyph glyph-name="grave" unicode="`" horiz-adv-x="161" 
d="M10 649l4 12l8 1q54 0 88 -65.5t34 -125.5q0 -10 -6 -10l-8 5q-12 20 -33 61t-41 70t-46 52z" />
    <glyph glyph-name="a" unicode="a" horiz-adv-x="359" 
d="M252 156q1 -5 1.5 -35t7.5 -43q11 -21 83 -28t78 -15q0 -14 -41 -21.5t-65 -7.5q-85 0 -99 55q-21 -36 -68 -73t-84 -37q-35 0 -53 25.5t-18 61.5q0 68 54.5 132t121.5 64q32 0 61.5 -13t29.5 -40q0 -6 -6 -10q-3 0 -10 9t-9 11q-10 7 -41 7q-58 0 -105 -52.5t-47 -110.5
q0 -18 8 -31q14 -7 19 -7q22 0 74 36t68 57q0 46 28 71z" />
    <glyph glyph-name="b" unicode="b" horiz-adv-x="354" 
d="M411 186q7 -6 7 -17q0 -17 -13 -35t-39 -36t-37.5 -25t-37.5 -21q-50 -58 -79 -58q-13 0 -19 7q7 13 36 40t51.5 53.5t22.5 46.5q0 9 -29 9q-35 0 -70.5 -24t-58.5 -52l-44 -52t-30 -24q-25 0 -42.5 45.5t-23 89.5t-5.5 73q0 53 18 152.5t44 109.5q4 0 4 -5
q0 -13 -5.5 -39.5t-6.5 -36.5q-10 -130 -10 -156q0 -72 28 -163l3 4q2 3 7 9t7 9q11 15 31 33q76 70 162 70q21 0 40.5 -13t19.5 -33t-15 -42q47 31 84 81z" />
    <glyph glyph-name="c" unicode="c" horiz-adv-x="230" 
d="M1 78q0 26 8.5 59.5t23 66t39 54.5t53.5 22q18 0 29 -9.5t11 -26.5q0 -12 -11 -38t-21 -27q-4 2 -4 6q0 9 4 26.5t4 26.5l-3 8h-3q-34 0 -58 -61.5t-24 -101.5q0 -21 2 -34t13 -23.5t31 -10.5q27 0 70 35t76.5 71t35.5 36v-5q0 -48 -71.5 -115.5t-122.5 -67.5
q-41 0 -61.5 33t-20.5 76z" />
    <glyph glyph-name="d" unicode="d" horiz-adv-x="354" 
d="M238 444zM453 98q0 -35 -50.5 -65.5t-88.5 -30.5q-40 0 -70 26t-43 66l-24.5 -34t-29 -38t-31.5 -24.5t-45 -12.5q-33 0 -50 27t-17 62q0 74 46.5 124.5t118.5 50.5l18 -1v21.5t0.5 30t1.5 32.5t3 35t5.5 30.5t8.5 25.5t12 15q18 6 20 6q10 0 24 -10q10 -18 10 -34
q0 -29 -7 -94t-15 -82q19 -13 36 -36t17 -42q0 -6 -2 -10q-5 0 -12 15q-16 28 -45 48q-6 -23 -15 -46q9 -124 95 -124q68 0 129 69zM235 410h1h-1zM67 32q32 3 76 62t44 91v32h-7q-57 0 -94 -38t-37 -95q0 -41 18 -52z" />
    <glyph glyph-name="e" unicode="e" horiz-adv-x="283" 
d="M235 32q19 0 38.5 3t43 8t37.5 7q-9 -23 -64.5 -37.5t-91.5 -14.5q-70 0 -118 37t-48 105v6q-75 22 -97 45l3 10l2 -2v1q18 -6 52.5 -13t43.5 -9q18 54 50 81t86 27q24 0 41.5 -16.5t17.5 -39.5q0 -45 -38 -70.5t-84 -25.5q-10 0 -28 2q0 -30 14 -51.5t38 -32.5t49 -15.5
t53 -4.5zM163 236q-52 0 -76 -62h16q26 0 53 15t27 39l-1 4q-6 4 -19 4z" />
    <glyph glyph-name="f" unicode="f" horiz-adv-x="287" 
d="M212 125q95 0 107 -18q0 -4 -11 -8q-32 -12 -100 -21t-110 -9q3 -26 18.5 -111.5t15.5 -128.5q0 -8 -1 -12q-19 2 -47 102.5t-35 149.5q-81 8 -81 18q0 9 28.5 15.5t47.5 8.5q-18 277 125 277q30 0 66 -18l6 -8q0 -5 -10 -5q-39 0 -64.5 -7t-40.5 -18.5t-23 -35.5
t-10 -49t-2 -68q0 -9 0.5 -19.5t1.5 -23t1 -19.5q52 8 118 8z" />
    <glyph glyph-name="g" unicode="g" horiz-adv-x="479" 
d="M575 338l1 -6q0 -18 -21 -33q-33 -23 -102.5 -55.5t-95.5 -47.5q-70 -41 -162 -113q286 -48 286 -201q0 -49 -45.5 -88.5t-102 -57t-104.5 -17.5q-40 0 -75.5 5t-73 18.5t-60 42.5t-22.5 71q0 99 118 195q-58 18 -83 52q-69 0 -81 23q37 -5 43 -5l27 1q-13 29 -13 57
q0 51 39 82.5t91 31.5q35 0 62 -22.5t27 -57.5q0 -29 -25 -52t-51.5 -33.5t-57.5 -17.5q18 -11 65 -20q10 12 31 28.5t44 31.5t58 36l61 35.5l66 35.5l59.5 31.5l55.5 28.5t41 21zM70 131q38 8 80 29.5t42 49.5q0 21 -14.5 32t-34.5 11q-37 0 -63 -20.5t-26 -55.5
q0 -25 16 -46zM431 -117q0 37 -31 67t-80 48.5t-90 28.5t-79 15l-18.5 -18l-20.5 -20t-18 -19.5t-18 -22.5l-14 -21.5t-13 -24.5t-7 -25t-3 -28q0 -96 176 -96q35 0 83 12t90.5 40t42.5 64z" />
    <glyph glyph-name="h" unicode="h" horiz-adv-x="362" 
d="M291 73q22 0 63.5 18t55.5 18q4 0 4 -8q0 -19 -51.5 -47.5t-74.5 -28.5q-48 0 -80.5 33.5t-32.5 81.5q0 29 10 55q-27 -27 -78.5 -118.5t-62.5 -102.5q0 -7 -4 -7q-2 0 -4.5 2t-3.5 2l-1 5q-30 45 -30 159q0 25 3.5 70t10.5 104.5t23.5 101.5t37.5 42q4 0 4 -5
q0 -26 -9.5 -79.5t-11.5 -73.5q-1 -8 -4.5 -98.5t-12.5 -133.5q25 57 68.5 107.5t91.5 62.5q13 -1 16 -26.5t2 -55t16 -54t55 -24.5z" />
    <glyph glyph-name="i" unicode="i" horiz-adv-x="241" 
d="M96 51q26 0 69.5 29t76.5 58t36 29q2 0 2 -1q0 -31 -69.5 -98t-110.5 -67q-68 0 -68 104q0 22 9.5 58.5t11.5 46.5q5 6 10 6q13 0 13 -63q0 -25 4.5 -63.5t15.5 -38.5zM112 357h-4q-15 0 -15 24q0 22 19.5 43.5t40.5 21.5q9 0 19 -5l2 -14q-8 -19 -26.5 -39t-35.5 -31z
" />
    <glyph glyph-name="j" unicode="j" horiz-adv-x="233" 
d="M95 284h-3q-16 0 -16 24q0 22 18.5 43.5t40.5 21.5q10 0 20 -5l2 -14q-7 -17 -26 -38t-36 -32zM228 68q32 0 49 -8q-21 -10 -71.5 -19.5t-70.5 -16.5q-7 -27 -15.5 -54.5t-24.5 -65t-33.5 -65.5t-43 -47.5t-52.5 -19.5q-91 0 -91 75q0 41 20.5 74.5t57 57.5t68.5 38.5
t74 28.5q29 91 29 109q0 13 -20.5 19.5t-50.5 9.5t-35 4q-1 -1 -1 1l-3 6q19 10 77 10q68 0 68 -57q0 -13 -16 -90q47 10 85 10zM-49 -178q17 0 33 8.5t29 26.5t23 33.5t20 41t14 37l12 34.5q-62 -25 -110 -64.5t-48 -90.5q0 -2 3 -14l7 -7q15 -5 17 -5z" />
    <glyph glyph-name="k" unicode="k" horiz-adv-x="331" 
d="M129 89q1 0 11.5 -2t22 -5t14.5 -3q3 -1 24.5 -4t46.5 -7l50.5 -8.5t43.5 -8t19 -5.5q-1 -12 -42.5 -19t-64.5 -7q-32 0 -130 20q-8 -63 -18 -72q-9 1 -18 82q-87 23 -87 58l3 4q5 39 78 83q0 135 16 192h1h13l1 -1q16 -44 19 -166q63 27 103 27q64 0 64 -27q0 -5 -9 -5
q-20 4 -72 -14.5t-86 -35.5q0 -39 -3 -76zM21 106q42 -8 64 -10q-2 32 -2 48q-5 -2 -16 -7.5l-17.5 -9t-14.5 -9.5t-14 -12z" />
    <glyph glyph-name="l" unicode="l" horiz-adv-x="314" 
d="M348 62v-1q0 -35 -62.5 -63t-103.5 -28q-74 0 -129 60q-70 -22 -123 -22q-28 0 -33 13q14 5 61 15t76 21q-30 46 -30 110q0 45 22.5 106t65 110.5t89.5 49.5q41 0 66 -25t25 -66q0 -86 -51.5 -173t-127.5 -123q44 -46 108 -46q38 0 78 17.5t69 44.5zM50 159q0 -47 22 -84
q66 38 108.5 113t42.5 152q0 43 -42 43q-31 0 -63 -44.5t-50 -96.5t-18 -83z" />
    <glyph glyph-name="m" unicode="m" horiz-adv-x="614" 
d="M430 82q36 0 90 23t99 46.5t60 23.5q7 0 9 -2q0 -6 -11 -14q-143 -126 -250 -126q-46 0 -77 25.5t-40 71.5q-52 -83 -101 -85l-3 -2q-19 0 -29.5 16t-12.5 37q-2 -4 -11 -20t-14 -24l-15 -23t-17.5 -24t-17.5 -19.5t-20.5 -16.5t-21.5 -8h-1l-10 4q-31 45 -31 105
q0 97 36 144l14 -3q5 -17 5 -44q0 -33 -4.5 -95.5t-5.5 -73.5q13 18 34 60l11 -4l-8 9q35 68 89 122q8 17 17 23l13 -4q8 -14 8 -43q0 -14 -3 -41.5t-3 -40.5v-3q46 65 102 126q9 37 19 37q5 0 5 -8q2 -10 5 -40t9 -47q20 -62 82 -62z" />
    <glyph glyph-name="n" unicode="n" horiz-adv-x="301" 
d="M349 67q0 -18 -31 -43t-51 -25q-13 0 -29 32.5t-33 73t-30 52.5l-7 2q-22 -5 -50.5 -44.5t-49.5 -78.5t-25 -41q-4 0 -7 9q-6 17 -10 76t-16 77q-13 5 -24 5q-25 0 -37 -8h-4q-9 0 -9 5q0 20 23.5 33t44.5 13q59 0 67 -79q47 83 96 83q32 0 53 -27t28.5 -59.5t15 -59.5
t15.5 -27q12 0 36.5 17t31.5 17q2 0 2 -3z" />
    <glyph glyph-name="o" unicode="o" horiz-adv-x="410" 
d="M356 178q23 0 63 11.5t56 13.5q-8 -24 -59.5 -43.5t-82.5 -19.5l-20 1q-7 -61 -50 -100.5t-104 -39.5q-49 0 -81.5 32.5t-32.5 81.5q0 47 32 89q-93 -6 -121 22l1 7q22 6 77 9t84 11l6 6l6.5 6.5t6 5.5t7 6t7 5t8 4t8 2t9.5 1q13 0 22.5 -9.5t9.5 -22.5q0 -16 -14 -29
t-30 -13l-1 4v-1l1 -2v-1q0 -1 -2 -1h-3q-38 -23 -48 -39q-17 -30 -17 -56q0 -25 19.5 -52t43.5 -27q30 0 49.5 7t32 25.5t18.5 33t16 46.5q-21 7 -44 27t-25 39q4 14 8 22h1q9 16 29 16q27 0 49 -19.5t22 -46.5v-6q17 -6 43 -6zM241 220l-2 1q1 0 1 -0.5t1 -0.5z" />
    <glyph glyph-name="p" unicode="p" horiz-adv-x="334" 
d="M51 112q0 -123 14 -207q2 -9 8 -39.5t9 -51.5t3 -39q0 -13 -4 -17q-4 0 -11 10q-64 94 -64 269q0 39 11 91t34 52h5l2 -6l-1 -1v-3q-6 -30 -6 -58zM401 215q22 0 36 -5q0 -3 -32 -11q-60 -13 -121 -31q-5 -62 -46.5 -104.5t-102.5 -42.5q-27 0 -45.5 13.5t-18.5 39.5
q0 44 55.5 76.5t109.5 41.5q0 41 -27.5 62.5t-69.5 21.5q-37 0 -60.5 -10t-47 -27t-44.5 -25l-5 1q1 37 65.5 69t105.5 32q53 0 89 -30.5t42 -83.5q62 13 117 13zM135 71q34 0 61 23t35 57q-101 -37 -113 -73l1 -5l3 -2h13z" />
    <glyph glyph-name="q" unicode="q" horiz-adv-x="328" 
d="M236 121q-18 -30 -27 -43t-29 -36.5t-41 -33.5t-46 -10q-34 0 -62 25.5t-28 58.5q0 53 63.5 115t117.5 62q18 0 41 -12t24 -28q-12 5 -31 5q-59 0 -108 -42.5t-49 -101.5q0 -14 9.5 -23.5t23.5 -9.5q30 0 57 32t54 72.5t49 52.5q12 1 19 -6.5t7 -19.5q0 -134 -41 -334
q10 22 46 92.5t53 110.5q5 11 10 10l8 -3q-1 -41 -48 -146.5t-78 -118.5h-4l-13 10q-6 17 -6 53q0 40 4.5 84.5t13 100t11.5 84.5z" />
    <glyph glyph-name="r" unicode="r" horiz-adv-x="389" 
d="M292 -7q38 0 87 27.5t61 28.5q-1 -24 -63 -55.5t-92 -34.5q-25 -2 -45.5 11t-20.5 37q0 13 14 50t23 43q-55 4 -96 31q-36 -47 -99.5 -88.5t-114.5 -41.5q-32 0 -40 14q0 4 6 4q56 0 122.5 48t96.5 102q-6 11 -6 28q0 53 37 62q36 -5 36 -44q0 -15 -11 -41q26 -25 88 -25
h16q22 30 47 30q14 0 27 -15v-1q6 -8 6 -15q0 -39 -58 -47q-55 -71 -55 -95q0 -13 34 -13z" />
    <glyph glyph-name="s" unicode="s" horiz-adv-x="292" 
d="M136 100q40 19 112 45t99 26h5q0 -5 -27 -19q-121 -65 -163 -83q16 -19 16 -48q0 -30 -22 -51t-53 -21q-27 0 -46 14.5t-19 41.5q0 35 52 68q-10 10 -30.5 27t-31 27.5t-19.5 30.5t-9 45q0 46 31.5 78.5t77.5 32.5q29 0 44.5 -8.5t38.5 -31.5q1 -3 7 -15.5t10 -22.5
t4 -15q0 -7 -3 -11q-5 0 -14.5 17.5t-27.5 34t-46 16.5q-32 0 -54 -19.5t-22 -51.5q0 -25 14 -42.5t40 -36t36 -28.5zM104 -2q10 0 17 7t7 17q0 8 -7 19q-30 -22 -36 -38l2 -2q9 -3 17 -3z" />
    <glyph glyph-name="t" unicode="t" horiz-adv-x="332" 
d="M339 190q46 0 51 -7q-2 -17 -89.5 -34t-134.5 -22q24 -75 24 -154q0 -42 -10 -53l-6 8l-11 -4q-18 11 -47 52.5t-60 93t-44 68.5q-10 0 -10 5q0 15 107 28q-22 154 -22 270q0 8 5 8q11 0 21.5 -23.5t18 -64t13 -73t10 -72t4.5 -40.5q73 14 180 14zM65 127q52 -41 88 -124
q-1 5 -15.5 51.5t-20.5 70.5q-18 0 -52 2z" />
    <glyph glyph-name="u" unicode="u" horiz-adv-x="371" 
d="M240 53q32 0 103 46t77 46q2 0 6 -2q-1 -36 -74 -88t-114 -52q-32 0 -59 30q-21 -25 -50 -43t-58 -18q-70 0 -70 99q0 28 13.5 83t32.5 55q7 0 7 -9q0 -20 -3 -60.5t-3 -61.5q0 -44 22 -57q11 0 21 2.5t21.5 8t18.5 9.5l20 12l18 11q-6 27 2.5 77t26.5 68l9 1
q6 -20 3 -55t3 -68.5t27 -33.5z" />
    <glyph glyph-name="v" unicode="v" horiz-adv-x="433" 
d="M305 225q32 0 96.5 9t95.5 9q10 0 14 -1q-1 -16 -94 -38.5t-125 -22.5q-27 0 -49 7q-18 -54 -72 -122.5t-101 -81.5l-13 1q-5 5 -7 6q-22 28 -35.5 78.5t-13.5 91.5q0 13 4.5 34.5t12.5 21.5q16 0 32.5 -80t16.5 -114l-1 -22q31 18 77.5 97t56.5 119l-2 1q-16 23 -16 57
q0 18 9 30.5t25 14.5q44 -2 44 -44q0 -26 -5 -42q17 -9 50 -9z" />
    <glyph glyph-name="w" unicode="w" horiz-adv-x="501" 
d="M441 290q29 0 74 -7.5t52 -22.5q0 -5 -9 -8q-35 -13 -230 -13q39 -69 39 -124q0 -36 -29 -56t-66 -20q-55 0 -86 27q-19 -30 -51 -58.5t-59 -28.5q-36 0 -52.5 33.5t-16.5 73.5q0 38 11 94.5t28 77.5l6 -2l1 -3q-8 -61 -8 -115q0 -113 30 -113q23 0 80 85q-11 28 -11 47
q0 23 13.5 45.5t34.5 22.5q10 0 20 -7q15 -15 15 -41q0 -36 -17 -70q8 -12 29.5 -19.5t38.5 -7.5q29 0 43.5 12.5t14.5 41.5q0 47 -20 105l-6 7q3 25 47.5 34.5t83.5 9.5z" />
    <glyph glyph-name="x" unicode="x" horiz-adv-x="407" 
d="M483 296l2 -4l-3 -5q-62 -47 -193 -47q-11 0 -33 2q-10 -35 -31 -66.5t-38 -48.5t-53 -50q8 -10 31 -31l42 -38.5t20 -18.5q1 -6 -13 -6q-62 0 -117 64q-20 -17 -56 -38t-53 -21h-3q0 2 41 40t50 45q-54 67 -54 157q0 43 12 43q4 0 7 -6q12 -21 31 -76t39 -82
q4 4 15.5 17l15.5 17.5l14 16.5t14.5 18.5l12 17.5t11.5 20t8 20.5t7 23.5q-31 18 -31 53q0 13 8 27l10 9l13 5q26 3 40 -17.5t14 -47.5q22 -6 57 -6q77 0 155 15l3 3v-1z" />
    <glyph glyph-name="y" unicode="y" horiz-adv-x="288" 
d="M266 37q0 -51 -9 -152.5t-9 -151.5q0 -3 1 -18t1 -26.5t-2 -15.5q-19 1 -29 63.5t-10 100.5q0 133 21 315q-29 -33 -84 -66.5t-91 -33.5q-39 0 -60 27.5t-21 67.5q0 25 13.5 53.5t35.5 28.5q4 0 4 -11q-13 -19 -13 -52q0 -21 8.5 -42t27.5 -21q49 0 190 89q9 30 16 30
q4 0 6 -7q4 -12 5 -27.5t0 -41.5t-1 -29v-80z" />
    <glyph glyph-name="z" unicode="z" horiz-adv-x="350" 
d="M400 58q0 -31 -14 -53t-33 -33t-49.5 -17.5t-52.5 -7.5t-52 -1q-25 0 -52 3.5t-61.5 10l-51.5 9.5q-35 -25 -58 -25q-9 0 -13 2q-6 -5 -13 3.5t-7 15.5q0 15 9 25t28.5 14.5t28 5.5t28.5 2q22 20 56.5 70.5t48.5 66.5q-37 0 -90.5 11.5t-66.5 31.5q0 5 8 5q14 0 42.5 -3
t43.5 -3q52 0 106 3q44 48 83 48q22 0 35 -15l6 -17q-1 -46 -96 -58q-20 -20 -63.5 -69.5t-68.5 -73.5q95 -15 171 -15q81 0 111 27q2 2 10 13l15 20.5t8 9.5q4 0 4 -6zM-35 -50q21 11 34 22h-8q-7 0 -17 -2l-5 -3l-1 -1h-1v1q-3 -3 -5 -10l2 -3q1 -3 1 -4z" />
    <glyph glyph-name="braceleft" unicode="{" horiz-adv-x="292" 
d="M309 1l-2 -6q-30 -37 -85 -37q-69 0 -106.5 43t-56.5 117q-20 -8 -38.5 6t-18.5 35q0 20 12 31t32 13q2 -2 10 -2l14 -8q11 22 19 67l14 78t32 59.5t72 26.5h14l8 -7l-2 -6q-5 0 -7 1q-44 -10 -65.5 -42t-23 -68t-9 -81.5t-26.5 -71.5q8 -15 17.5 -49.5t18 -57t36 -41.5
t72.5 -19q14 0 36 9t33 10zM42 165l1 -6q0 1 -0.5 3t-0.5 3z" />
    <glyph glyph-name="bar" unicode="|" horiz-adv-x="88" 
d="M79 558q0 -227 -23 -549q-11 -141 -20 -185q-1 -7 -6 -18t-6 -16q-3 -12 -5 -12q-3 0 -3 4q0 1 -0.5 3t-0.5 3q1 3 1 11q-1 -1 -2.5 0.5t-1.5 2.5q-10 38 -10 141q0 163 13 372.5t35 349.5q4 36 13 40l4 6q12 -28 12 -153zM33 -175q1 38 8 109t9 100q22 427 22 584
q0 25 -1 38l-1 14q-1 15 -2 22l-1 2l-1 2v1l1 2q-1 1 -1 0v-3h1q0 -365 -39 -884z" />
    <glyph glyph-name="braceright" unicode="}" horiz-adv-x="274" 
d="M1 6q7 -2 19.5 -7.5t22 -8t20.5 -2.5q28 0 49 10t33 21.5t23 37.5t14.5 39.5l11.5 45.5q-4 5 -9 15.5l-6 12.5q-2 11 -5 38.5t-5.5 47.5t-10 46.5t-17 43t-26.5 28.5t-40 12l-1 6l7 6h12q24 0 42.5 -10t29 -21t19 -36t11 -37t7 -43.5t5.5 -37.5q2 -4 5 -14t6 -15l12 7
q1 0 3 0.5t4 0.5h12q30 -12 30 -43q0 -21 -27 -35q-12 -2 -24 0q-18 -68 -51.5 -108.5t-95.5 -40.5q-48 0 -78 34zM243 157v-6v6z" />
    <glyph glyph-name="asciitilde" unicode="~" horiz-adv-x="306" 
d="M46 243q-29 0 -57 -16l-2 6l7 12q30 24 68 24q36 0 88.5 -26.5t79.5 -26.5q19 0 34 11.5t24 23.5t13 12v-3q-18 -72 -78 -72q-32 0 -88 27.5t-89 27.5z" />
    <glyph glyph-name="currency" unicode="&#xa4;" horiz-adv-x="265" 
d="M9 179q0 66 38 159l-83 53l21 34q2 3 23 -7.5l42 -21t23 -7.5q11 17 30 32.5t39 23.5t37 0.5t22 -33.5q-39 23 -67.5 6.5t-47 -61.5t-27.5 -88t-9 -72q0 -143 66 -152q33 10 61 70t41 121.5t13 99.5q0 67 -40 103q40 -4 59 -63q1 -3 21 3.5l42 14t24 7.5q4 0 12.5 -8.5
t9.5 -14.5q1 -5 -50 -23t-51 -22q0 -53 -14.5 -137t-42.5 -132l43 -49q2 -7 -4 -13t-14 -10t-8 -5q-2 -3 -12 8.5l-20 23t-12 9.5q-28 -28 -59 -28q-46 0 -72 38l-50 -43l-25 25q-1 2 14 12.5l30.5 21.5t14.5 13l-1 3q-1 2 -2.5 6.5t-2.5 6.5q-12 38 -12 96z" />
    <glyph glyph-name="dieresis" unicode="&#xa8;" horiz-adv-x="154" 
d="M20 464q1 3 1 10l12 2l4 3h4l8 -1q25 -17 25 -39v-7l-11 -10h-4q-16 0 -26.5 12.5t-12.5 29.5zM87 455v19l12 2l4 3h4l8 -1q25 -17 25 -39v-7l-11 -10h-4q-12 0 -25 10.5t-13 22.5z" />
    <glyph glyph-name="guillemotleft" unicode="&#xab;" horiz-adv-x="482" 
d="M264 526q-7 -21 -12 -21q-6 0 -6 6l9 -3q-56 -109 -127 -195q-3 -4 -33 -37t-43 -53h-1l17 -12q42 -29 112 -94.5t103 -90.5q18 -14 18 -19h-2q-13 0 -43 16.5t-72 45.5l-74 52l-73 54l-45 34q17 37 127.5 166t144.5 151zM418 526q-7 -21 -12 -21q-6 0 -6 6l9 -3
q-56 -109 -127 -195q-3 -4 -33 -37t-43 -53h-1l17 -12q42 -29 112 -94.5t103 -90.5q18 -14 18 -19h-2q-13 0 -43 16.5t-72 45.5l-74 52l-73 54l-45 34q17 37 127.5 166t144.5 151z" />
    <glyph glyph-name="guillemotright" unicode="&#xbb;" horiz-adv-x="482" 
d="M29 526q34 -22 144.5 -151t127.5 -166l-45 -34l-73 -54l-74 -52t-72 -45.5t-43 -16.5h-2q0 6 18 19q33 25 103 90.5t112 94.5l17 12h-1q-13 20 -43 53t-33 37q-71 86 -127 195l9 3q0 -6 -6 -6q-5 0 -12 21zM183 526q34 -22 144.5 -151t127.5 -166l-45 -34l-73 -54
l-74 -52t-72 -45.5t-43 -16.5h-2q0 6 18 19q33 25 103 90.5t112 94.5l17 12h-1q-13 20 -43 53t-33 37q-71 86 -127 195l9 3q0 -6 -6 -6q-5 0 -12 21z" />
    <glyph glyph-name="Agrave" unicode="&#xc0;" 
d="M336 214q40 1 88.5 -5.5t60.5 -25.5q0 -6 -38 -6l-101 -7q28 -140 28 -197q0 -10 -3 -19l-2 -1q-14 0 -81 42.5t-88 60.5q-39 34 -77 93q-75 -159 -101 -202l-7 -5q-5 0 -5 8q0 59 62 196.5t110 210.5q4 6 20 27.5t27 38.5t14 28h-1h1l3 7v2l24 1h-5q1 0 1 -2
q6 -6 12.5 -19.5t12.5 -34l11.5 -39.5t11 -45l9 -42t8 -38.5t5.5 -26.5zM252 432q-13 -40 -58.5 -128t-54.5 -122q21 12 70.5 20.5t79.5 8.5q-9 94 -37 221zM352 -9q-28 90 -51 175q-27 1 -78.5 -3.5t-74.5 -4.5q161 -117 204 -167zM152 664l4 12l8 1q54 0 88 -65.5
t34 -125.5q0 -10 -6 -10l-8 5q-12 20 -33 61t-41 70t-46 52z" />
    <glyph glyph-name="Aacute" unicode="&#xc1;" 
d="M336 214q40 1 88.5 -5.5t60.5 -25.5q0 -6 -38 -6l-101 -7q28 -140 28 -197q0 -10 -3 -19l-2 -1q-14 0 -81 42.5t-88 60.5q-39 34 -77 93q-75 -159 -101 -202l-7 -5q-5 0 -5 8q0 59 62 196.5t110 210.5q4 6 20 27.5t27 38.5t14 28h-1h1l3 7v2l24 1h-5q1 0 1 -2
q6 -6 12.5 -19.5t12.5 -34l11.5 -39.5t11 -45l9 -42t8 -38.5t5.5 -26.5zM252 432q-13 -40 -58.5 -128t-54.5 -122q21 12 70.5 20.5t79.5 8.5q-9 94 -37 221zM352 -9q-28 90 -51 175q-27 1 -78.5 -3.5t-74.5 -4.5q161 -117 204 -167zM333 693h4l3 -12q-67 -77 -89 -159
q0 -1 -1.5 -8t-3.5 -14t-4.5 -14.5t-5 -12t-4.5 -4.5q-16 8 -16 52q0 51 35 111.5t82 60.5z" />
    <glyph glyph-name="Acircumflex" unicode="&#xc2;" 
d="M336 214q40 1 88.5 -5.5t60.5 -25.5q0 -6 -38 -6l-101 -7q28 -140 28 -197q0 -10 -3 -19l-2 -1q-14 0 -81 42.5t-88 60.5q-39 34 -77 93q-75 -159 -101 -202l-7 -5q-5 0 -5 8q0 59 62 196.5t110 210.5q4 6 20 27.5t27 38.5t14 28h-1h1l3 7v2l24 1h-5q1 0 1 -2
q6 -6 12.5 -19.5t12.5 -34l11.5 -39.5t11 -45l9 -42t8 -38.5t5.5 -26.5zM252 432q-13 -40 -58.5 -128t-54.5 -122q21 12 70.5 20.5t79.5 8.5q-9 94 -37 221zM352 -9q-28 90 -51 175q-27 1 -78.5 -3.5t-74.5 -4.5q161 -117 204 -167zM262 560q0 -1 -13.5 -20t-21 -28.5
t-21 -24.5t-24.5 -22t-21 -7q-5 0 -5 5l1 5q8 7 29.5 44l42 69t28.5 32q12 0 71 -73.5t59 -80.5q-1 -2 -6 -2q-28 0 -89 71l-19 20z" />
    <glyph glyph-name="Atilde" unicode="&#xc3;" 
d="M336 214q40 1 88.5 -5.5t60.5 -25.5q0 -6 -38 -6l-101 -7q28 -140 28 -197q0 -10 -3 -19l-2 -1q-14 0 -81 42.5t-88 60.5q-39 34 -77 93q-75 -159 -101 -202l-7 -5q-5 0 -5 8q0 59 62 196.5t110 210.5q4 6 20 27.5t27 38.5t14 28h-1h1l3 7v2l24 1h-5q1 0 1 -2
q6 -6 12.5 -19.5t12.5 -34l11.5 -39.5t11 -45l9 -42t8 -38.5t5.5 -26.5zM252 432q-13 -40 -58.5 -128t-54.5 -122q21 12 70.5 20.5t79.5 8.5q-9 94 -37 221zM352 -9q-28 90 -51 175q-27 1 -78.5 -3.5t-74.5 -4.5q161 -117 204 -167zM169 524q-29 0 -57 -16l-2 6l7 12
q30 24 68 24q36 0 88.5 -26.5t79.5 -26.5q19 0 34 11.5t24 23.5t13 12v-3q-18 -72 -78 -72q-32 0 -88 27.5t-89 27.5z" />
    <glyph glyph-name="Adieresis" unicode="&#xc4;" 
d="M336 214q40 1 88.5 -5.5t60.5 -25.5q0 -6 -38 -6l-101 -7q28 -140 28 -197q0 -10 -3 -19l-2 -1q-14 0 -81 42.5t-88 60.5q-39 34 -77 93q-75 -159 -101 -202l-7 -5q-5 0 -5 8q0 59 62 196.5t110 210.5q4 6 20 27.5t27 38.5t14 28h-1h1l3 7v2l24 1h-5q1 0 1 -2
q6 -6 12.5 -19.5t12.5 -34l11.5 -39.5t11 -45l9 -42t8 -38.5t5.5 -26.5zM252 432q-13 -40 -58.5 -128t-54.5 -122q21 12 70.5 20.5t79.5 8.5q-9 94 -37 221zM352 -9q-28 90 -51 175q-27 1 -78.5 -3.5t-74.5 -4.5q161 -117 204 -167zM188 516q1 3 1 10l12 2l4 3h4l8 -1
q25 -17 25 -39v-7l-11 -10h-4q-16 0 -26.5 12.5t-12.5 29.5zM255 507v19l12 2l4 3h4l8 -1q25 -17 25 -39v-7l-11 -10h-4q-12 0 -25 10.5t-13 22.5z" />
    <glyph glyph-name="Aring" unicode="&#xc5;" 
d="M336 214q40 1 88.5 -5.5t60.5 -25.5q0 -6 -38 -6l-101 -7q28 -140 28 -197q0 -10 -3 -19l-2 -1q-14 0 -81 42.5t-88 60.5q-39 34 -77 93q-75 -159 -101 -202l-7 -5q-5 0 -5 8q0 59 62 196.5t110 210.5q4 6 20 27.5t27 38.5t14 28h-1h1l3 7v2l24 1h-5q1 0 1 -2
q6 -6 12.5 -19.5t12.5 -34l11.5 -39.5t11 -45l9 -42t8 -38.5t5.5 -26.5zM252 432q-13 -40 -58.5 -128t-54.5 -122q21 12 70.5 20.5t79.5 8.5q-9 94 -37 221zM352 -9q-28 90 -51 175q-27 1 -78.5 -3.5t-74.5 -4.5q161 -117 204 -167zM267 486q-33 0 -54 22t-21 55
q0 27 15.5 46t42.5 19q3 0 10.5 -3t7.5 -6q0 -5 -9 -7.5t-18.5 -11t-9.5 -28.5q0 -41 43 -41q22 0 35.5 21t13.5 43q0 14 -5 21t-16 14t-16 12q4 6 14 6q26 0 42.5 -21.5t16.5 -48.5q0 -38 -26.5 -65t-65.5 -27z" />
    <glyph glyph-name="AE" unicode="&#xc6;" 
d="M655 475q-18 -12 -365 -65q3 -14 19.5 -86t27.5 -110q14 1 54 5t61 4q24 0 68.5 -9t54.5 -20q-2 -7 -50 -12.5t-110 -9.5t-69 -5q3 -39 15.5 -90t34 -105t57.5 -91t77 -37q30 0 43 40.5t13 79.5q0 55 -15 99q-15 -1 -33.5 7.5t-24.5 20.5q-1 17 10 29t28 12q31 0 51 -44
q4 0 26 0.5t35 0t32.5 -1.5t33.5 -4.5t23 -9.5q-12 -4 -139 -11q16 -51 16 -108q0 -56 -24 -106t-74 -50q-60 0 -109.5 49t-70.5 112q-156 76 -228 190q-75 -159 -101 -202l-7 -5l-5 8q0 61 61.5 197t110.5 210q54 81 64 101v2l21 1h3h-5q1 -4 6.5 -11.5t6.5 -11.5
q151 55 305 55q50 0 70 -13zM242 404q-12 -31 -51.5 -105t-51.5 -117q24 13 70.5 21t79.5 8q-3 37 -16 103.5t-16 91.5l-8 -3zM338 6q-7 45 -37 160h-14q-23 0 -69 -4t-70 -4q31 -21 106 -79.5t84 -72.5zM252 432l-3 -10l4 3z" />
    <glyph glyph-name="Ccedilla" unicode="&#xc7;" horiz-adv-x="360" 
d="M89 -202q-33 0 -54 22t-21 55q0 27 15.5 46t42.5 19q4 0 11 -3t7 -6q0 -5 -9 -7.5t-18.5 -11.5t-9.5 -28q0 -41 43 -41q20 0 34.5 20.5t14.5 41.5q0 14 -5 21.5t-16 14.5t-16 13l3 5q-49 11 -81.5 58.5t-32.5 100.5q0 106 49.5 200.5t135.5 158.5q61 45 102 45
q32 0 51 -23t19 -56q0 -42 -38 -117.5t-75 -76.5q-1 1 -1 4q0 1 7.5 10l15.5 19t10 12q14 20 29.5 70t15.5 74q0 17 -9 32q-13 11 -23 11q-29 0 -83 -43q-71 -58 -116 -143t-45 -172q0 -53 29 -93t80 -40q32 0 64.5 15t46 25.5t51.5 47.5l41 40q-4 -51 -80 -108t-129 -55
q36 -24 36 -65q0 -38 -26.5 -65t-65.5 -27z" />
    <glyph glyph-name="Egrave" unicode="&#xc8;" horiz-adv-x="411" 
d="M374 610q-15 -12 -200.5 -37t-205.5 -35q-9 3 -9 7q0 31 133.5 57t191.5 26q68 0 88 -13zM321 223l25 1q25 0 36.5 -0.5t32.5 -2t34.5 -5t21.5 -8.5q-2 -2 -9 -2q-20 0 -41.5 -1.5t-47.5 -4t-41 -3.5q16 -51 16 -108q0 -56 -24 -106t-74 -50q-53 0 -94 31.5t-63 80.5
t-33 100t-11 99q0 19 2 57q-32 0 -46 7l1 13q32 12 48 17l1 1q4 43 26 121.5t45 78.5q3 0 3 -4l-3 -14q-4 -14 -9.5 -35.5t-11 -45.5t-9.5 -49t-5 -42l17 3l37.5 4t25.5 2q21 0 68 -9.5t55 -19.5q-1 -5 -9 -8q-15 -7 -94.5 -9t-101.5 -8v-27q0 -187 83 -261q41 -37 77 -37
q30 0 43 40.5t13 79.5q0 55 -15 99q-25 -2 -51 18l-7 10q-1 17 10 29t28 12q31 0 51 -44zM45 828l4 12l8 1q54 0 88 -65.5t34 -125.5q0 -10 -6 -10l-8 5q-12 20 -33 61t-41 70t-46 52z" />
    <glyph glyph-name="Eacute" unicode="&#xc9;" horiz-adv-x="411" 
d="M374 610q-15 -12 -200.5 -37t-205.5 -35q-9 3 -9 7q0 31 133.5 57t191.5 26q68 0 88 -13zM321 223l25 1q25 0 36.5 -0.5t32.5 -2t34.5 -5t21.5 -8.5q-2 -2 -9 -2q-20 0 -41.5 -1.5t-47.5 -4t-41 -3.5q16 -51 16 -108q0 -56 -24 -106t-74 -50q-53 0 -94 31.5t-63 80.5
t-33 100t-11 99q0 19 2 57q-32 0 -46 7l1 13q32 12 48 17l1 1q4 43 26 121.5t45 78.5q3 0 3 -4l-3 -14q-4 -14 -9.5 -35.5t-11 -45.5t-9.5 -49t-5 -42l17 3l37.5 4t25.5 2q21 0 68 -9.5t55 -19.5q-1 -5 -9 -8q-15 -7 -94.5 -9t-101.5 -8v-27q0 -187 83 -261q41 -37 77 -37
q30 0 43 40.5t13 79.5q0 55 -15 99q-25 -2 -51 18l-7 10q-1 17 10 29t28 12q31 0 51 -44zM223 851h4l3 -12q-67 -77 -89 -159q0 -1 -1.5 -8t-3.5 -14t-4.5 -14.5t-5 -12t-4.5 -4.5q-16 8 -16 52q0 51 35 111.5t82 60.5z" />
    <glyph glyph-name="Ecircumflex" unicode="&#xca;" horiz-adv-x="411" 
d="M374 610q-15 -12 -200.5 -37t-205.5 -35q-9 3 -9 7q0 31 133.5 57t191.5 26q68 0 88 -13zM321 223l25 1q25 0 36.5 -0.5t32.5 -2t34.5 -5t21.5 -8.5q-2 -2 -9 -2q-20 0 -41.5 -1.5t-47.5 -4t-41 -3.5q16 -51 16 -108q0 -56 -24 -106t-74 -50q-53 0 -94 31.5t-63 80.5
t-33 100t-11 99q0 19 2 57q-32 0 -46 7l1 13q32 12 48 17l1 1q4 43 26 121.5t45 78.5q3 0 3 -4l-3 -14q-4 -14 -9.5 -35.5t-11 -45.5t-9.5 -49t-5 -42l17 3l37.5 4t25.5 2q21 0 68 -9.5t55 -19.5q-1 -5 -9 -8q-15 -7 -94.5 -9t-101.5 -8v-27q0 -187 83 -261q41 -37 77 -37
q30 0 43 40.5t13 79.5q0 55 -15 99q-25 -2 -51 18l-7 10q-1 17 10 29t28 12q31 0 51 -44zM158 738q0 -1 -13.5 -20t-21 -28.5t-21 -24.5t-24.5 -22t-21 -7q-5 0 -5 5l1 5q8 7 29.5 44l42 69t28.5 32q12 0 71 -73.5t59 -80.5q-1 -2 -6 -2q-28 0 -89 71l-19 20z" />
    <glyph glyph-name="Edieresis" unicode="&#xcb;" horiz-adv-x="411" 
d="M374 610q-15 -12 -200.5 -37t-205.5 -35q-9 3 -9 7q0 31 133.5 57t191.5 26q68 0 88 -13zM321 223l25 1q25 0 36.5 -0.5t32.5 -2t34.5 -5t21.5 -8.5q-2 -2 -9 -2q-20 0 -41.5 -1.5t-47.5 -4t-41 -3.5q16 -51 16 -108q0 -56 -24 -106t-74 -50q-53 0 -94 31.5t-63 80.5
t-33 100t-11 99q0 19 2 57q-32 0 -46 7l1 13q32 12 48 17l1 1q4 43 26 121.5t45 78.5q3 0 3 -4l-3 -14q-4 -14 -9.5 -35.5t-11 -45.5t-9.5 -49t-5 -42l17 3l37.5 4t25.5 2q21 0 68 -9.5t55 -19.5q-1 -5 -9 -8q-15 -7 -94.5 -9t-101.5 -8v-27q0 -187 83 -261q41 -37 77 -37
q30 0 43 40.5t13 79.5q0 55 -15 99q-25 -2 -51 18l-7 10q-1 17 10 29t28 12q31 0 51 -44zM63 674q1 3 1 10l12 2l4 3h4l8 -1q25 -17 25 -39v-7l-11 -10h-4q-16 0 -26.5 12.5t-12.5 29.5zM130 665v19l12 2l4 3h4l8 -1q25 -17 25 -39v-7l-11 -10h-4q-12 0 -25 10.5t-13 22.5z
" />
    <glyph glyph-name="Igrave" unicode="&#xcc;" horiz-adv-x="406" 
d="M280 513q59 0 137 -7t95 -24q0 -6 -18 -6q-17 -2 -47 -2.5t-42 -1.5q-138 -10 -378 -10q-62 0 -62 11q0 3 8 6q17 3 49 10.5t46 10.5q69 13 212 13zM216 -6q43 1 102.5 -5.5t71.5 -24.5q0 -6 -13 -6q-95 -12 -244 -12q-99 0 -118 7q-3 5 -3 9l3 3q27 24 181 28
q-15 71 -15 120q0 97 5 217q0 19 4.5 51.5t12.5 32.5q3 0 5 -5q10 -19 16 -82.5t6 -105.5q0 -145 -14 -227zM100 737l4 12l8 1q54 0 88 -65.5t34 -125.5q0 -10 -6 -10l-8 5q-12 20 -33 61t-41 70t-46 52z" />
    <glyph glyph-name="Iacute" unicode="&#xcd;" horiz-adv-x="406" 
d="M280 513q59 0 137 -7t95 -24q0 -6 -18 -6q-17 -2 -47 -2.5t-42 -1.5q-138 -10 -378 -10q-62 0 -62 11q0 3 8 6q17 3 49 10.5t46 10.5q69 13 212 13zM216 -6q43 1 102.5 -5.5t71.5 -24.5q0 -6 -13 -6q-95 -12 -244 -12q-99 0 -118 7q-3 5 -3 9l3 3q27 24 181 28
q-15 71 -15 120q0 97 5 217q0 19 4.5 51.5t12.5 32.5q3 0 5 -5q10 -19 16 -82.5t6 -105.5q0 -145 -14 -227zM298 774h4l3 -12q-67 -77 -89 -159q0 -1 -1.5 -8t-3.5 -14t-4.5 -14.5t-5 -12t-4.5 -4.5q-16 8 -16 52q0 51 35 111.5t82 60.5z" />
    <glyph glyph-name="Icircumflex" unicode="&#xce;" horiz-adv-x="406" 
d="M280 513q59 0 137 -7t95 -24q0 -6 -18 -6q-17 -2 -47 -2.5t-42 -1.5q-138 -10 -378 -10q-62 0 -62 11q0 3 8 6q17 3 49 10.5t46 10.5q69 13 212 13zM216 -6q43 1 102.5 -5.5t71.5 -24.5q0 -6 -13 -6q-95 -12 -244 -12q-99 0 -118 7q-3 5 -3 9l3 3q27 24 181 28
q-15 71 -15 120q0 97 5 217q0 19 4.5 51.5t12.5 32.5q3 0 5 -5q10 -19 16 -82.5t6 -105.5q0 -145 -14 -227zM199 645q0 -1 -13.5 -20t-21 -28.5t-21 -24.5t-24.5 -22t-21 -7q-5 0 -5 5l1 5q8 7 29.5 44l42 69t28.5 32q12 0 71 -73.5t59 -80.5q-1 -2 -6 -2q-28 0 -89 71
l-19 20q-12 11 -11 12z" />
    <glyph glyph-name="Idieresis" unicode="&#xcf;" horiz-adv-x="406" 
d="M280 513q59 0 137 -7t95 -24q0 -6 -18 -6q-17 -2 -47 -2.5t-42 -1.5q-138 -10 -378 -10q-62 0 -62 11q0 3 8 6q17 3 49 10.5t46 10.5q69 13 212 13zM216 -6q43 1 102.5 -5.5t71.5 -24.5q0 -6 -13 -6q-95 -12 -244 -12q-99 0 -118 7q-3 5 -3 9l3 3q27 24 181 28
q-15 71 -15 120q0 97 5 217q0 19 4.5 51.5t12.5 32.5q3 0 5 -5q10 -19 16 -82.5t6 -105.5q0 -145 -14 -227zM153 609q1 3 1 10l12 2l4 3h4l8 -1q25 -17 25 -39v-7l-11 -10h-4q-16 0 -26.5 12.5t-12.5 29.5zM220 600v19l12 2l4 3h4l8 -1q25 -17 25 -39v-7l-11 -10h-4
q-12 0 -25 10.5t-13 22.5z" />
    <glyph glyph-name="Eth" unicode="&#xd0;" horiz-adv-x="411" 
d="M312 568q4 0 8 -5q32 -48 32 -319q0 -74 -3 -147l-2 -38v-8q0 -1 -1 -1v1v4q-5 -47 -29.5 -84.5t-66.5 -37.5q-53 0 -94 31.5t-63 80.5t-33 100t-11 99q0 19 2 57q-32 0 -46 7l1 13q32 12 48 17l1 1q4 43 26.5 121.5t45.5 78.5q2 0 2 -4l-3 -14q-4 -14 -9.5 -35.5
t-11 -45.5t-9.5 -49t-5 -42q11 -2 40.5 3.5t39.5 5.5q23 0 69.5 -9.5t53.5 -19.5q-1 -5 -9 -8q-21 -10 -96.5 -10.5t-99.5 -6.5v-27q0 -187 83 -261q44 -37 75 -37q59 0 59 148q0 46 -5 137.5t-5 137.5q0 68 8 124q7 42 8 42zM469 649q40 0 94.5 -5t68.5 -16q0 -7 -19 -7
q-19 -3 -41 -5t-49 -4t-42 -3q-60 -6 -280 -35.5t-233 -35.5q-9 3 -9 6q0 36 203 70.5t307 34.5z" />
    <glyph glyph-name="Ntilde" unicode="&#xd1;" horiz-adv-x="393" 
d="M453 190q0 -18 -42 -31t-65 -13q-19 0 -32 4q-5 -26 -14 -61.5t-25.5 -79.5t-29.5 -47l-2 -9q-32 3 -99 133.5t-96 204.5q10 -68 10 -126q0 -55 -8.5 -143t-26.5 -104q-6 1 -6 17q-4 34 -5 71t-0.5 87.5t0.5 71.5q0 24 -2.5 72.5t-2.5 73.5q0 5 1.5 41t-0.5 41q2 8 8 8
t11 -16q9 -6 15.5 -14t16.5 -24t11 -17q-2 -2 4 -7q22 -36 72 -139q1 -2 94 -209q11 22 25 92.5t14 97.5v4q-44 34 -63.5 115.5t-19.5 157.5q0 106 53 106q25 0 43 -26t26 -65t11.5 -70t3.5 -55q0 -65 -14 -154q29 -9 46 -9q35 0 88 21zM240 409q0 -46 12 -106t32 -90
q5 58 5 104q0 131 -39 181v1q-10 -29 -10 -90zM80 627q-29 0 -57 -16l-2 6l7 12q30 24 68 24q36 0 88.5 -26.5t79.5 -26.5q19 0 34 11.5t24 23.5t13 12v-3q-18 -72 -78 -72q-32 0 -88 27.5t-89 27.5z" />
    <glyph glyph-name="Ograve" unicode="&#xd2;" horiz-adv-x="522" 
d="M428 239q30 -1 56.5 0t57.5 -0.5t55 -6.5q-37 -13 -163 -16q22 -106 -44 -184.5t-175 -78.5q-89 0 -148.5 62.5t-59.5 151.5q0 39 10 84.5t29 90.5t53 74.5t76 29.5q17 0 25 -6l-5 -4q-43 -4 -74 -30.5t-47 -66t-23 -79t-7 -81.5q0 -76 46.5 -129t121.5 -53q76 0 128 48
t52 124q0 20 -5 47q-32 0 -71 5.5t-83 18t-73 38t-29 59.5q0 37 38 63t77 26q59 0 112.5 -61.5t69.5 -125.5zM169 336q0 -21 25.5 -39t63.5 -29t68.5 -17t52.5 -8q-16 43 -54 91.5t-74 48.5q-24 0 -53 -13t-29 -34zM97 666l4 12l8 1q54 0 88 -65.5t34 -125.5q0 -10 -6 -10
l-8 5q-12 20 -33 61t-41 70t-46 52z" />
    <glyph glyph-name="Oacute" unicode="&#xd3;" horiz-adv-x="522" 
d="M428 239q30 -1 56.5 0t57.5 -0.5t55 -6.5q-37 -13 -163 -16q22 -106 -44 -184.5t-175 -78.5q-89 0 -148.5 62.5t-59.5 151.5q0 39 10 84.5t29 90.5t53 74.5t76 29.5q17 0 25 -6l-5 -4q-43 -4 -74 -30.5t-47 -66t-23 -79t-7 -81.5q0 -76 46.5 -129t121.5 -53q76 0 128 48
t52 124q0 20 -5 47q-32 0 -71 5.5t-83 18t-73 38t-29 59.5q0 37 38 63t77 26q59 0 112.5 -61.5t69.5 -125.5zM169 336q0 -21 25.5 -39t63.5 -29t68.5 -17t52.5 -8q-16 43 -54 91.5t-74 48.5q-24 0 -53 -13t-29 -34zM275 688h4l3 -12q-67 -77 -89 -159q0 -1 -1.5 -8t-3.5 -14
t-4.5 -14.5t-5 -12t-4.5 -4.5q-16 8 -16 52q0 51 35 111.5t82 60.5z" />
    <glyph glyph-name="Ocircumflex" unicode="&#xd4;" horiz-adv-x="522" 
d="M428 239q30 -1 56.5 0t57.5 -0.5t55 -6.5q-37 -13 -163 -16q22 -106 -44 -184.5t-175 -78.5q-89 0 -148.5 62.5t-59.5 151.5q0 39 10 84.5t29 90.5t53 74.5t76 29.5q17 0 25 -6l-5 -4q-43 -4 -74 -30.5t-47 -66t-23 -79t-7 -81.5q0 -76 46.5 -129t121.5 -53q76 0 128 48
t52 124q0 20 -5 47q-32 0 -71 5.5t-83 18t-73 38t-29 59.5q0 37 38 63t77 26q59 0 112.5 -61.5t69.5 -125.5zM169 336q0 -21 25.5 -39t63.5 -29t68.5 -17t52.5 -8q-16 43 -54 91.5t-74 48.5q-24 0 -53 -13t-29 -34zM193 564q0 -1 -13.5 -20t-21 -28.5t-21 -24.5t-24.5 -22
t-21 -7q-5 0 -5 5l1 5q8 7 29.5 44l42 69t28.5 32q12 0 71 -73.5t59 -80.5q-1 -2 -6 -2q-28 0 -89 71l-19 20q-12 12 -11 12z" />
    <glyph glyph-name="Otilde" unicode="&#xd5;" horiz-adv-x="522" 
d="M428 239q30 -1 56.5 0t57.5 -0.5t55 -6.5q-37 -13 -163 -16q22 -106 -44 -184.5t-175 -78.5q-89 0 -148.5 62.5t-59.5 151.5q0 39 10 84.5t29 90.5t53 74.5t76 29.5q17 0 25 -6l-5 -4q-43 -4 -74 -30.5t-47 -66t-23 -79t-7 -81.5q0 -76 46.5 -129t121.5 -53q76 0 128 48
t52 124q0 20 -5 47q-32 0 -71 5.5t-83 18t-73 38t-29 59.5q0 37 38 63t77 26q59 0 112.5 -61.5t69.5 -125.5zM169 336q0 -21 25.5 -39t63.5 -29t68.5 -17t52.5 -8q-16 43 -54 91.5t-74 48.5q-24 0 -53 -13t-29 -34zM169 524q-29 0 -57 -16l-2 6l7 12q30 24 68 24
q36 0 88.5 -26.5t79.5 -26.5q19 0 34 11.5t24 23.5t13 12v-3q-18 -72 -78 -72q-32 0 -88 27.5t-89 27.5z" />
    <glyph glyph-name="Odieresis" unicode="&#xd6;" horiz-adv-x="522" 
d="M428 239q30 -1 56.5 0t57.5 -0.5t55 -6.5q-37 -13 -163 -16q22 -106 -44 -184.5t-175 -78.5q-89 0 -148.5 62.5t-59.5 151.5q0 39 10 84.5t29 90.5t53 74.5t76 29.5q17 0 25 -6l-5 -4q-43 -4 -74 -30.5t-47 -66t-23 -79t-7 -81.5q0 -76 46.5 -129t121.5 -53q76 0 128 48
t52 124q0 20 -5 47q-32 0 -71 5.5t-83 18t-73 38t-29 59.5q0 37 38 63t77 26q59 0 112.5 -61.5t69.5 -125.5zM169 336q0 -21 25.5 -39t63.5 -29t68.5 -17t52.5 -8q-16 43 -54 91.5t-74 48.5q-24 0 -53 -13t-29 -34zM146 528q1 3 1 10l12 2l4 3h4l8 -1q25 -17 25 -39v-7
l-11 -10h-4q-16 0 -26.5 12.5t-12.5 29.5zM213 519v19l12 2l4 3h4l8 -1q25 -17 25 -39v-7l-11 -10h-4q-12 0 -25 10.5t-13 22.5z" />
    <glyph glyph-name="Oslash" unicode="&#xd8;" horiz-adv-x="522" 
d="M428 239q30 -1 56.5 0t57.5 -0.5t55 -6.5q-37 -13 -163 -16q22 -106 -44 -184.5t-175 -78.5q-89 0 -148.5 62.5t-59.5 151.5q0 39 10 84.5t29 90.5t53 74.5t76 29.5q17 0 25 -6l-5 -4q-43 -4 -74 -30.5t-47 -66t-23 -79t-7 -81.5q0 -76 46.5 -129t121.5 -53q76 0 128 48
t52 124q0 20 -5 47q-32 0 -71 5.5t-83 18t-73 38t-29 59.5q0 37 38 63t77 26q59 0 112.5 -61.5t69.5 -125.5zM169 336q0 -21 25.5 -39t63.5 -29t68.5 -17t52.5 -8q-16 43 -54 91.5t-74 48.5q-24 0 -53 -13t-29 -34zM312 489l3 -10q0 -33 -84.5 -279.5t-109.5 -291.5
q-9 -17 -14 -19q-1 3 -1 10q0 61 55.5 233.5t92.5 252.5q48 104 58 104z" />
    <glyph glyph-name="Ugrave" unicode="&#xd9;" horiz-adv-x="475" 
d="M551 4q3 -12 -21.5 -21.5t-37.5 -9.5q-42 0 -72 24.5t-44.5 58t-23 83t-10 85t-2.5 77.5v16q-4 -14 -14 -54t-18 -68t-21.5 -69t-29 -69t-36 -55t-47 -41t-57.5 -14q-111 0 -111 221q0 44 9.5 133.5t22.5 103.5q3 0 3 -13q0 -11 -1.5 -45.5t-2 -67.5t0 -76t5.5 -78.5
t13.5 -66.5t25.5 -49t40 -18q40 0 72 46.5t51.5 113.5t36.5 134t36.5 114t42.5 48q8 -2 12 -6t5 -7l2 -3q3 -15 3 -17q0 -14 -2 -54.5t-2.5 -74.5t1 -80t9 -81.5t20 -68t36.5 -50t56 -17.5q18 0 50 16zM97 666l4 12l8 1q54 0 88 -65.5t34 -125.5q0 -10 -6 -10l-8 5
q-12 20 -33 61t-41 70t-46 52z" />
    <glyph glyph-name="Uacute" unicode="&#xda;" horiz-adv-x="475" 
d="M551 4q3 -12 -21.5 -21.5t-37.5 -9.5q-42 0 -72 24.5t-44.5 58t-23 83t-10 85t-2.5 77.5v16q-4 -14 -14 -54t-18 -68t-21.5 -69t-29 -69t-36 -55t-47 -41t-57.5 -14q-111 0 -111 221q0 44 9.5 133.5t22.5 103.5q3 0 3 -13q0 -11 -1.5 -45.5t-2 -67.5t0 -76t5.5 -78.5
t13.5 -66.5t25.5 -49t40 -18q40 0 72 46.5t51.5 113.5t36.5 134t36.5 114t42.5 48q8 -2 12 -6t5 -7l2 -3q3 -15 3 -17q0 -14 -2 -54.5t-2.5 -74.5t1 -80t9 -81.5t20 -68t36.5 -50t56 -17.5q18 0 50 16zM275 688h4l3 -12q-67 -77 -89 -159q0 -1 -1.5 -8t-3.5 -14t-4.5 -14.5
t-5 -12t-4.5 -4.5q-16 8 -16 52q0 51 35 111.5t82 60.5z" />
    <glyph glyph-name="Ucircumflex" unicode="&#xdb;" horiz-adv-x="475" 
d="M551 4q3 -12 -21.5 -21.5t-37.5 -9.5q-42 0 -72 24.5t-44.5 58t-23 83t-10 85t-2.5 77.5v16q-4 -14 -14 -54t-18 -68t-21.5 -69t-29 -69t-36 -55t-47 -41t-57.5 -14q-111 0 -111 221q0 44 9.5 133.5t22.5 103.5q3 0 3 -13q0 -11 -1.5 -45.5t-2 -67.5t0 -76t5.5 -78.5
t13.5 -66.5t25.5 -49t40 -18q40 0 72 46.5t51.5 113.5t36.5 134t36.5 114t42.5 48q8 -2 12 -6t5 -7l2 -3q3 -15 3 -17q0 -14 -2 -54.5t-2.5 -74.5t1 -80t9 -81.5t20 -68t36.5 -50t56 -17.5q18 0 50 16zM193 564q0 -1 -13.5 -20t-21 -28.5t-21 -24.5t-24.5 -22t-21 -7
q-5 0 -5 5l1 5q8 7 29.5 44l42 69t28.5 32q12 0 71 -73.5t59 -80.5q-1 -2 -6 -2q-28 0 -89 71l-19 20q-12 12 -11 12z" />
    <glyph glyph-name="Udieresis" unicode="&#xdc;" horiz-adv-x="475" 
d="M551 4q3 -12 -21.5 -21.5t-37.5 -9.5q-42 0 -72 24.5t-44.5 58t-23 83t-10 85t-2.5 77.5v16q-4 -14 -14 -54t-18 -68t-21.5 -69t-29 -69t-36 -55t-47 -41t-57.5 -14q-111 0 -111 221q0 44 9.5 133.5t22.5 103.5q3 0 3 -13q0 -11 -1.5 -45.5t-2 -67.5t0 -76t5.5 -78.5
t13.5 -66.5t25.5 -49t40 -18q40 0 72 46.5t51.5 113.5t36.5 134t36.5 114t42.5 48q8 -2 12 -6t5 -7l2 -3q3 -15 3 -17q0 -14 -2 -54.5t-2.5 -74.5t1 -80t9 -81.5t20 -68t36.5 -50t56 -17.5q18 0 50 16zM146 528q1 3 1 10l12 2l4 3h4l8 -1q25 -17 25 -39v-7l-11 -10h-4
q-16 0 -26.5 12.5t-12.5 29.5zM213 519v19l12 2l4 3h4l8 -1q25 -17 25 -39v-7l-11 -10h-4q-12 0 -25 10.5t-13 22.5z" />
    <glyph glyph-name="Yacute" unicode="&#xdd;" horiz-adv-x="472" 
d="M371 590q39 0 65.5 -35.5t26.5 -75.5q0 -82 -64.5 -132t-151.5 -61q-17 -104 -17 -183q0 -27 4 -55.5t8.5 -47t13 -50.5t12.5 -51q-6 2 -28 46q-40 88 -40 212q0 60 8 129q-126 12 -213.5 92t-87.5 204q0 13 4 21q5 -4 13 -27t16.5 -52.5t30 -63.5t50 -62.5t79 -48
t115.5 -20.5q6 36 16 74t28.5 83.5t47.5 74.5t64 29zM256 331q56 8 108.5 47.5t52.5 92.5q0 22 -10 43.5t-29 28.5h-12q-19 0 -39 -26t-34.5 -65.5t-23 -69t-13.5 -51.5zM354 797h4l3 -12q-67 -77 -89 -159q0 -1 -1.5 -8t-3.5 -14t-4.5 -14.5t-5 -12t-4.5 -4.5q-16 8 -16 52
q0 51 35 111.5t82 60.5z" />
    <glyph glyph-name="germandbls" unicode="&#xdf;" horiz-adv-x="833" 
d="M51 388q1 0 3 -4q16 -23 14 -124q0 -35 -8 -123q-8 -83 -19 -116q-13 -37 -31.5 -69.5t-46 -63.5t-66.5 -50t-85 -22q-12 -1 -20.5 28.5t-0.5 32.5q31 14 55.5 26.5t45.5 29.5l36 30t28.5 36.5l22.5 40t17.5 49.5t13.5 55.5t11 68l10 77.5t10 92q3 6 10 6zM240 229h-12
q-38 7 -15 37q16 23 28 55.5t12 55.5q0 53 -31 85t-84 32q-40 0 -69 -11.5t-42 -26l-31.5 -35t-33.5 -30.5q-4 0 -4 6q0 56 65 98.5t122 42.5q67 0 110 -43.5t43 -111.5q0 -56 -44 -121q46 7 91.5 -36.5t45.5 -89.5l-1 -18q132 -7 160 -45q-21 0 -64.5 8t-65.5 8
q-13 0 -39 -2q-25 -58 -79 -97.5t-116 -39.5q-19 0 -37.5 12t-18.5 30q0 34 41 64t90 45t83 15q4 14 4 22q0 35 -35.5 63t-72.5 28zM186 -5q48 7 80.5 26t58.5 57q-41 -10 -88.5 -31.5t-62.5 -46.5l2 -2z" />
    <glyph glyph-name="agrave" unicode="&#xe0;" horiz-adv-x="359" 
d="M252 156q1 -5 1.5 -35t7.5 -43q11 -21 83 -28t78 -15q0 -14 -41 -21.5t-65 -7.5q-85 0 -99 55q-21 -36 -68 -73t-84 -37q-35 0 -53 25.5t-18 61.5q0 68 54.5 132t121.5 64q32 0 61.5 -13t29.5 -40q0 -6 -6 -10q-3 0 -10 9t-9 11q-10 7 -41 7q-58 0 -105 -52.5t-47 -110.5
q0 -18 8 -31q14 -7 19 -7q22 0 74 36t68 57q0 46 28 71zM126 416l4 12l8 1q54 0 88 -65.5t34 -125.5q0 -10 -6 -10l-8 5q-12 20 -33 61t-41 70t-46 52z" />
    <glyph glyph-name="aacute" unicode="&#xe1;" horiz-adv-x="359" 
d="M252 156q1 -5 1.5 -35t7.5 -43q11 -21 83 -28t78 -15q0 -14 -41 -21.5t-65 -7.5q-85 0 -99 55q-21 -36 -68 -73t-84 -37q-35 0 -53 25.5t-18 61.5q0 68 54.5 132t121.5 64q32 0 61.5 -13t29.5 -40q0 -6 -6 -10q-3 0 -10 9t-9 11q-10 7 -41 7q-58 0 -105 -52.5t-47 -110.5
q0 -18 8 -31q14 -7 19 -7q22 0 74 36t68 57q0 46 28 71zM337 482h4l3 -12q-67 -77 -89 -159q0 -1 -1.5 -8t-3.5 -14t-4.5 -14.5t-5 -12t-4.5 -4.5q-16 8 -16 52q0 51 35 111.5t82 60.5z" />
    <glyph glyph-name="acircumflex" unicode="&#xe2;" horiz-adv-x="359" 
d="M252 156q1 -5 1.5 -35t7.5 -43q11 -21 83 -28t78 -15q0 -14 -41 -21.5t-65 -7.5q-85 0 -99 55q-21 -36 -68 -73t-84 -37q-35 0 -53 25.5t-18 61.5q0 68 54.5 132t121.5 64q32 0 61.5 -13t29.5 -40q0 -6 -6 -10q-3 0 -10 9t-9 11q-10 7 -41 7q-58 0 -105 -52.5t-47 -110.5
q0 -18 8 -31q14 -7 19 -7q22 0 74 36t68 57q0 46 28 71zM161 353q-1 0 -2 -2l-1 -2l-12.5 -18l-17 -24t-18.5 -23.5t-21.5 -23t-20.5 -15t-20 -6.5q-7 0 -7 5t50.5 80.5t60.5 85.5q3 3 4 3q13 0 79 -82t67 -92q-4 -2 -7 -2q-17 0 -38.5 17.5t-51.5 51t-31 34.5l-11 11l-2 1
v1z" />
    <glyph glyph-name="atilde" unicode="&#xe3;" horiz-adv-x="359" 
d="M252 156q1 -5 1.5 -35t7.5 -43q11 -21 83 -28t78 -15q0 -14 -41 -21.5t-65 -7.5q-85 0 -99 55q-21 -36 -68 -73t-84 -37q-35 0 -53 25.5t-18 61.5q0 68 54.5 132t121.5 64q32 0 61.5 -13t29.5 -40q0 -6 -6 -10q-3 0 -10 9t-9 11q-10 7 -41 7q-58 0 -105 -52.5t-47 -110.5
q0 -18 8 -31q14 -7 19 -7q22 0 74 36t68 57q0 46 28 71zM46 314q-29 0 -57 -16l-2 6l7 12q30 24 68 24q36 0 88.5 -26.5t79.5 -26.5q19 0 34 11.5t24 23.5t13 12v-3q-18 -72 -78 -72q-32 0 -88 27.5t-89 27.5z" />
    <glyph glyph-name="adieresis" unicode="&#xe4;" horiz-adv-x="359" 
d="M252 156q1 -5 1.5 -35t7.5 -43q11 -21 83 -28t78 -15q0 -14 -41 -21.5t-65 -7.5q-85 0 -99 55q-21 -36 -68 -73t-84 -37q-35 0 -53 25.5t-18 61.5q0 68 54.5 132t121.5 64q32 0 61.5 -13t29.5 -40q0 -6 -6 -10q-3 0 -10 9t-9 11q-10 7 -41 7q-58 0 -105 -52.5t-47 -110.5
q0 -18 8 -31q14 -7 19 -7q22 0 74 36t68 57q0 46 28 71zM101 296q1 3 1 10l12 2l4 3h4l8 -1q25 -17 25 -39v-7l-11 -10h-4q-16 0 -26.5 12.5t-12.5 29.5zM168 287v19l12 2l4 3h4l8 -1q25 -17 25 -39v-7l-11 -10h-4q-12 0 -25 10.5t-13 22.5z" />
    <glyph glyph-name="aring" unicode="&#xe5;" horiz-adv-x="359" 
d="M252 156q1 -5 1.5 -35t7.5 -43q11 -21 83 -28t78 -15q0 -14 -41 -21.5t-65 -7.5q-85 0 -99 55q-21 -36 -68 -73t-84 -37q-35 0 -53 25.5t-18 61.5q0 68 54.5 132t121.5 64q32 0 61.5 -13t29.5 -40q0 -6 -6 -10q-3 0 -10 9t-9 11q-10 7 -41 7q-58 0 -105 -52.5t-47 -110.5
q0 -18 8 -31q14 -7 19 -7q22 0 74 36t68 57q0 46 28 71zM159 255q-33 0 -54 22t-21 55q0 27 15.5 46t42.5 19q3 0 10.5 -3t7.5 -6q0 -5 -9 -7.5t-18.5 -11t-9.5 -28.5q0 -41 43 -41q22 0 35.5 21t13.5 43q0 14 -5 21t-16 14t-16 12q4 6 14 6q26 0 42.5 -21.5t16.5 -48.5
q0 -38 -26.5 -65t-65.5 -27z" />
    <glyph glyph-name="ae" unicode="&#xe6;" horiz-adv-x="359" 
d="M406 49q19 0 38.5 3t43 8t37.5 7q-10 -24 -82.5 -42.5t-111.5 -18.5q-78 0 -114 55q-21 -35 -67.5 -72.5t-83.5 -37.5q-35 0 -53.5 24.5t-18.5 61.5q0 91 86 162l29 19q3 0 25 8t36 8q22 0 48 -8q36 77 125 77q24 0 41.5 -16.5t17.5 -40.5q0 -43 -38.5 -69t-83.5 -26
q-10 0 -28 2q9 -104 154 -104zM212 90l1 14q-10 24 -10 53v6q-21 6 -61 22q-42 -21 -70.5 -63t-28.5 -87q0 -18 8 -31q14 -7 18 -7q23 0 75 36t68 57zM334 253q-53 0 -75 -60v-2h15q26 0 53 15t27 39l-1 4q-6 4 -19 4z" />
    <glyph glyph-name="ccedilla" unicode="&#xe7;" horiz-adv-x="230" 
d="M1 78q0 26 8.5 59.5t23 66t39 54.5t53.5 22q18 0 29 -9.5t11 -26.5q0 -12 -11 -38t-21 -27q-4 2 -4 6q0 9 4 26.5t4 26.5l-3 8h-3q-34 0 -58 -61.5t-24 -101.5q0 -21 2 -34t13 -23.5t31 -10.5q27 0 70 35t76.5 71t35.5 36v-5q0 -48 -71.5 -115.5t-122.5 -67.5
q-41 0 -61.5 33t-20.5 76zM89 -202q-33 0 -54 22t-21 55q0 27 15.5 46t42.5 19q3 0 10.5 -3t7.5 -6q0 -5 -9 -7.5t-18.5 -11t-9.5 -28.5q0 -41 43 -41q22 0 35.5 21t13.5 43q0 14 -5 21t-16 14t-16 12q4 6 14 6q26 0 42.5 -21.5t16.5 -48.5q0 -38 -26.5 -65t-65.5 -27z" />
    <glyph glyph-name="egrave" unicode="&#xe8;" horiz-adv-x="283" 
d="M235 32q19 0 38.5 3t43 8t37.5 7q-9 -23 -64.5 -37.5t-91.5 -14.5q-70 0 -118 37t-48 105v6q-75 22 -97 45l3 10l2 -2v1q18 -6 52.5 -13t43.5 -9q18 54 50 81t86 27q24 0 41.5 -16.5t17.5 -39.5q0 -45 -38 -70.5t-84 -25.5q-10 0 -28 2q0 -30 14 -51.5t38 -32.5t49 -15.5
t53 -4.5zM163 236q-52 0 -76 -62h16q26 0 53 15t27 39l-1 4q-6 4 -19 4zM73 483l4 12l8 1q54 0 88 -65.5t34 -125.5q0 -10 -6 -10l-8 5q-12 20 -33 61t-41 70t-46 52z" />
    <glyph glyph-name="eacute" unicode="&#xe9;" horiz-adv-x="283" 
d="M235 32q19 0 38.5 3t43 8t37.5 7q-9 -23 -64.5 -37.5t-91.5 -14.5q-70 0 -118 37t-48 105v6q-75 22 -97 45l3 10l2 -2v1q18 -6 52.5 -13t43.5 -9q18 54 50 81t86 27q24 0 41.5 -16.5t17.5 -39.5q0 -45 -38 -70.5t-84 -25.5q-10 0 -28 2q0 -30 14 -51.5t38 -32.5t49 -15.5
t53 -4.5zM163 236q-52 0 -76 -62h16q26 0 53 15t27 39l-1 4q-6 4 -19 4zM276 516h4l3 -12q-67 -77 -89 -159q0 -1 -1.5 -8t-3.5 -14t-4.5 -14.5t-5 -12t-4.5 -4.5q-16 8 -16 52q0 51 35 111.5t82 60.5z" />
    <glyph glyph-name="ecircumflex" unicode="&#xea;" horiz-adv-x="283" 
d="M235 32q19 0 38.5 3t43 8t37.5 7q-9 -23 -64.5 -37.5t-91.5 -14.5q-70 0 -118 37t-48 105v6q-75 22 -97 45l3 10l2 -2v1q18 -6 52.5 -13t43.5 -9q18 54 50 81t86 27q24 0 41.5 -16.5t17.5 -39.5q0 -45 -38 -70.5t-84 -25.5q-10 0 -28 2q0 -30 14 -51.5t38 -32.5t49 -15.5
t53 -4.5zM163 236q-52 0 -76 -62h16q26 0 53 15t27 39l-1 4q-6 4 -19 4zM148 372q-1 0 -2 -2l-1 -2l-12.5 -18l-17 -24t-18.5 -23.5t-21.5 -23t-20.5 -15t-20 -6.5q-7 0 -7 5t50.5 80.5t60.5 85.5q3 3 4 3q13 0 79 -82t67 -92q-4 -2 -7 -2q-17 0 -38.5 17.5t-51.5 51
t-31 34.5l-11 11l-2 1v1z" />
    <glyph glyph-name="edieresis" unicode="&#xeb;" horiz-adv-x="283" 
d="M235 32q19 0 38.5 3t43 8t37.5 7q-9 -23 -64.5 -37.5t-91.5 -14.5q-70 0 -118 37t-48 105v6q-75 22 -97 45l3 10l2 -2v1q18 -6 52.5 -13t43.5 -9q18 54 50 81t86 27q24 0 41.5 -16.5t17.5 -39.5q0 -45 -38 -70.5t-84 -25.5q-10 0 -28 2q0 -30 14 -51.5t38 -32.5t49 -15.5
t53 -4.5zM163 236q-52 0 -76 -62h16q26 0 53 15t27 39l-1 4q-6 4 -19 4zM104 345q1 3 1 10l12 2l4 3h4l8 -1q25 -17 25 -39v-7l-11 -10h-4q-16 0 -26.5 12.5t-12.5 29.5zM171 336v19l12 2l4 3h4l8 -1q25 -17 25 -39v-7l-11 -10h-4q-12 0 -25 10.5t-13 22.5z" />
    <glyph glyph-name="igrave" unicode="&#xec;" horiz-adv-x="101" 
d="M93 2l-10 -1q-68 0 -68 104q0 22 9.5 58.5t11.5 46.5q4 6 10 6q13 0 13 -63q0 -45 16 -87.5t18 -63.5zM-51 414l4 12l8 1q54 0 88 -65.5t34 -125.5q0 -10 -6 -10l-8 5q-12 20 -33 61t-41 70t-46 52z" />
    <glyph glyph-name="iacute" unicode="&#xed;" horiz-adv-x="105" 
d="M89 2l-10 -1q-68 0 -68 104q0 22 9.5 58.5t11.5 46.5q5 6 10 6q13 0 13 -63q0 -45 16 -87.5t18 -63.5zM137 463h4l3 -12q-67 -77 -89 -159q0 -1 -1.5 -8t-3.5 -14t-4.5 -14.5t-5 -12t-4.5 -4.5q-16 8 -16 52q0 51 35 111.5t82 60.5z" />
    <glyph glyph-name="icircumflex" unicode="&#xee;" horiz-adv-x="118" 
d="M94 2l-10 -1q-68 0 -68 104q0 22 9.5 58.5t11.5 46.5q5 6 10 6q13 0 13 -63q0 -45 16 -87.5t18 -63.5zM45 303q-1 0 -2 -2l-1 -2l-12.5 -18l-17 -24t-18.5 -23.5t-21.5 -23t-20.5 -15t-20 -6.5q-7 0 -7 5t50.5 80.5t60.5 85.5q3 3 4 3q13 0 79 -82t67 -92q-4 -2 -7 -2
q-17 0 -38.5 17.5t-51.5 51t-31 34.5l-11 11l-2 1v1z" />
    <glyph glyph-name="idieresis" unicode="&#xef;" horiz-adv-x="124" 
d="M110 2l-10 -1q-68 0 -68 104q0 22 9.5 58.5t11.5 46.5q5 6 10 6q13 0 13 -63q0 -45 16 -87.5t18 -63.5zM-1 268q1 3 1 10l12 2l4 3h4l8 -1q25 -17 25 -39v-7l-11 -10h-4q-16 0 -26.5 12.5t-12.5 29.5zM66 259v19l12 2l4 3h4l8 -1q25 -17 25 -39v-7l-11 -10h-4
q-12 0 -25 10.5t-13 22.5z" />
    <glyph glyph-name="eth" unicode="&#xf0;" horiz-adv-x="283" 
d="M452 215q45 0 51 -7q-2 -17 -89.5 -34t-134.5 -22q21 -105 21 -189q0 -13 -6 -18l-7 8l-11 -4q-19 10 -46 51q-80 -9 -139 27t-59 115v4q-23 6 -54.5 19.5t-42.5 25.5l3 10l2 -2v1q18 -8 53 -14t43 -8q33 108 136 108q26 0 42 -18q-1 19 -5.5 62t-6.5 75t-2 61q0 9 6 9
t12 -8t11 -23t10 -33t9 -40l7.5 -42t6.5 -43t4.5 -37.5t3.5 -30t2 -17.5q73 14 180 14zM81 136q0 -49 37 -74.5t90 -29.5q-10 21 -35 58.5t-30 46.5q-26 -6 -62 -1zM163 236q-52 0 -76 -62h16l13 1l4 3q63 16 63 49l-1 5q-6 4 -19 4zM180 150q48 -39 84 -118q-5 21 -17 60.5
t-17 57.5q-33 0 -49 1z" />
    <glyph glyph-name="ntilde" unicode="&#xf1;" horiz-adv-x="301" 
d="M349 67q0 -18 -31 -43t-51 -25q-13 0 -29 32.5t-33 73t-30 52.5l-7 2q-22 -5 -50.5 -44.5t-49.5 -78.5t-25 -41q-4 0 -7 9q-6 17 -10 76t-16 77q-13 5 -24 5q-25 0 -37 -8h-4q-9 0 -9 5q0 20 23.5 33t44.5 13q59 0 67 -79q47 83 96 83q32 0 53 -27t28.5 -59.5t15 -59.5
t15.5 -27q12 0 36.5 17t31.5 17q2 0 2 -3zM46 314q-29 0 -57 -16l-2 6l7 12q30 24 68 24q36 0 88.5 -26.5t79.5 -26.5q19 0 34 11.5t24 23.5t13 12v-3q-18 -72 -78 -72q-32 0 -88 27.5t-89 27.5z" />
    <glyph glyph-name="ograve" unicode="&#xf2;" horiz-adv-x="275" 
d="M139 301q27 0 80.5 1t80.5 1q18 0 26 -3q0 -1 -6 -3t-14 -4l-8 -2q-88 -20 -124 -18l18 -25t17.5 -26t12 -23t10 -29.5t2.5 -31.5q0 -51 -33.5 -95t-83.5 -44q-44 0 -79.5 32.5t-35.5 76.5q0 38 43 106t78 74q2 5 5 10l7 3h4zM113 48q38 0 58.5 25t20.5 64q0 74 -55 129
q-14 14 -13 17q-9 -20 -33.5 -50.5t-40 -59t-15.5 -59.5q0 -28 24.5 -47t53.5 -19zM12 506l4 12l8 1q54 0 88 -65.5t34 -125.5q0 -10 -6 -10l-8 5q-12 20 -33 61t-41 70t-46 52z" />
    <glyph glyph-name="oacute" unicode="&#xf3;" horiz-adv-x="275" 
d="M139 301q27 0 80.5 1t80.5 1q18 0 26 -3q0 -1 -6 -3t-14 -4l-8 -2q-88 -20 -124 -18l18 -25t17.5 -26t12 -23t10 -29.5t2.5 -31.5q0 -51 -33.5 -95t-83.5 -44q-44 0 -79.5 32.5t-35.5 76.5q0 38 43 106t78 74q2 5 5 10l7 3h4zM113 48q38 0 58.5 25t20.5 64q0 74 -55 129
q-14 14 -13 17q-9 -20 -33.5 -50.5t-40 -59t-15.5 -59.5q0 -28 24.5 -47t53.5 -19zM233 542h4l3 -12q-67 -77 -89 -159q0 -1 -1.5 -8t-3.5 -14t-4.5 -14.5t-5 -12t-4.5 -4.5q-16 8 -16 52q0 51 35 111.5t82 60.5z" />
    <glyph glyph-name="ocircumflex" unicode="&#xf4;" horiz-adv-x="275" 
d="M139 301q27 0 80.5 1t80.5 1q18 0 26 -3q0 -1 -6 -3t-14 -4l-8 -2q-88 -20 -124 -18l18 -25t17.5 -26t12 -23t10 -29.5t2.5 -31.5q0 -51 -33.5 -95t-83.5 -44q-44 0 -79.5 32.5t-35.5 76.5q0 38 43 106t78 74q2 5 5 10l7 3h4zM113 48q38 0 58.5 25t20.5 64q0 74 -55 129
q-14 14 -13 17q-9 -20 -33.5 -50.5t-40 -59t-15.5 -59.5q0 -28 24.5 -47t53.5 -19zM133 432q-1 0 -2 -2l-1 -2l-12.5 -18l-17 -24t-18.5 -23.5t-21.5 -23t-20.5 -15t-20 -6.5q-7 0 -7 5t50.5 80.5t60.5 85.5q3 3 4 3q13 0 79 -82t67 -92q-4 -2 -7 -2q-17 0 -38.5 17.5
t-51.5 51t-31 34.5l-11 11l-2 1v1z" />
    <glyph glyph-name="otilde" unicode="&#xf5;" horiz-adv-x="275" 
d="M139 301q27 0 80.5 1t80.5 1q18 0 26 -3q0 -1 -6 -3t-14 -4l-8 -2q-88 -20 -124 -18l18 -25t17.5 -26t12 -23t10 -29.5t2.5 -31.5q0 -51 -33.5 -95t-83.5 -44q-44 0 -79.5 32.5t-35.5 76.5q0 38 43 106t78 74q2 5 5 10l7 3h4zM113 48q38 0 58.5 25t20.5 64q0 74 -55 129
q-14 14 -13 17q-9 -20 -33.5 -50.5t-40 -59t-15.5 -59.5q0 -28 24.5 -47t53.5 -19zM55 373q-29 0 -57 -16l-2 6l7 12q30 24 68 24q36 0 88.5 -26.5t79.5 -26.5q19 0 34 11.5t24 23.5t13 12v-3q-18 -72 -78 -72q-32 0 -88 27.5t-89 27.5z" />
    <glyph glyph-name="odieresis" unicode="&#xf6;" horiz-adv-x="275" 
d="M139 301q27 0 80.5 1t80.5 1q18 0 26 -3q0 -1 -6 -3t-14 -4l-8 -2q-88 -20 -124 -18l18 -25t17.5 -26t12 -23t10 -29.5t2.5 -31.5q0 -51 -33.5 -95t-83.5 -44q-44 0 -79.5 32.5t-35.5 76.5q0 38 43 106t78 74q2 5 5 10l7 3h4zM113 48q38 0 58.5 25t20.5 64q0 74 -55 129
q-14 14 -13 17q-9 -20 -33.5 -50.5t-40 -59t-15.5 -59.5q0 -28 24.5 -47t53.5 -19zM83 364q1 3 1 10l12 2l4 3h4l8 -1q25 -17 25 -39v-7l-11 -10h-4q-16 0 -26.5 12.5t-12.5 29.5zM150 355v19l12 2l4 3h4l8 -1q25 -17 25 -39v-7l-11 -10h-4q-12 0 -25 10.5t-13 22.5z" />
    <glyph glyph-name="oslash" unicode="&#xf8;" horiz-adv-x="275" 
d="M139 301q27 0 80.5 1t80.5 1q18 0 26 -3q0 -1 -6 -3t-14 -4l-8 -2q-88 -20 -124 -18l18 -25t17.5 -26t12 -23t10 -29.5t2.5 -31.5q0 -51 -33.5 -95t-83.5 -44q-44 0 -79.5 32.5t-35.5 76.5q0 38 43 106t78 74q2 5 5 10l7 3h4zM113 48q38 0 58.5 25t20.5 64q0 74 -55 129
q-14 14 -13 17q-9 -20 -33.5 -50.5t-40 -59t-15.5 -59.5q0 -28 24.5 -47t53.5 -19zM189 394l5 -1h-1l-2 1l2 1l2 -7q-4 -36 -64 -212t-80 -213q-9 -14 -11 -14v5l-1 3q0 55 57.5 224.5t92.5 212.5z" />
    <glyph glyph-name="ugrave" unicode="&#xf9;" horiz-adv-x="371" 
d="M240 53q32 0 103 46t77 46q2 0 6 -2q-1 -36 -74 -88t-114 -52q-32 0 -59 30q-21 -25 -50 -43t-58 -18q-70 0 -70 99q0 28 13.5 83t32.5 55q7 0 7 -9q0 -20 -3 -60.5t-3 -61.5q0 -44 22 -57q11 0 21 2.5t21.5 8t18.5 9.5l20 12l18 11q-6 27 2.5 77t26.5 68l9 1
q6 -20 3 -55t3 -68.5t27 -33.5zM68 436l4 12l8 1q54 0 88 -65.5t34 -125.5q0 -10 -6 -10l-8 5q-12 20 -33 61t-41 70t-46 52z" />
    <glyph glyph-name="uacute" unicode="&#xfa;" horiz-adv-x="371" 
d="M240 53q32 0 103 46t77 46q2 0 6 -2q-1 -36 -74 -88t-114 -52q-32 0 -59 30q-21 -25 -50 -43t-58 -18q-70 0 -70 99q0 28 13.5 83t32.5 55q7 0 7 -9q0 -20 -3 -60.5t-3 -61.5q0 -44 22 -57q11 0 21 2.5t21.5 8t18.5 9.5l20 12l18 11q-6 27 2.5 77t26.5 68l9 1
q6 -20 3 -55t3 -68.5t27 -33.5zM289 460h4l3 -12q-67 -77 -89 -159q0 -1 -1.5 -8t-3.5 -14t-4.5 -14.5t-5 -12t-4.5 -4.5q-16 8 -16 52q0 51 35 111.5t82 60.5z" />
    <glyph glyph-name="ucircumflex" unicode="&#xfb;" horiz-adv-x="371" 
d="M240 53q32 0 103 46t77 46q2 0 6 -2q-1 -36 -74 -88t-114 -52q-32 0 -59 30q-21 -25 -50 -43t-58 -18q-70 0 -70 99q0 28 13.5 83t32.5 55q7 0 7 -9q0 -20 -3 -60.5t-3 -61.5q0 -44 22 -57q11 0 21 2.5t21.5 8t18.5 9.5l20 12l18 11q-6 27 2.5 77t26.5 68l9 1
q6 -20 3 -55t3 -68.5t27 -33.5zM109 334q-1 0 -2 -2l-1 -2l-12.5 -18l-17 -24t-18.5 -23.5t-21.5 -23t-20.5 -15t-20 -6.5q-7 0 -7 5t50.5 80.5t60.5 85.5q3 3 4 3q13 0 79 -82t67 -92q-4 -2 -7 -2q-17 0 -38.5 17.5t-51.5 51t-31 34.5l-11 11l-2 1v1z" />
    <glyph glyph-name="udieresis" unicode="&#xfc;" horiz-adv-x="371" 
d="M240 53q32 0 103 46t77 46q2 0 6 -2q-1 -36 -74 -88t-114 -52q-32 0 -59 30q-21 -25 -50 -43t-58 -18q-70 0 -70 99q0 28 13.5 83t32.5 55q7 0 7 -9q0 -20 -3 -60.5t-3 -61.5q0 -44 22 -57q11 0 21 2.5t21.5 8t18.5 9.5l20 12l18 11q-6 27 2.5 77t26.5 68l9 1
q6 -20 3 -55t3 -68.5t27 -33.5zM56 291q1 3 1 10l12 2l4 3h4l8 -1q25 -17 25 -39v-7l-11 -10h-4q-16 0 -26.5 12.5t-12.5 29.5zM123 282v19l12 2l4 3h4l8 -1q25 -17 25 -39v-7l-11 -10h-4q-12 0 -25 10.5t-13 22.5z" />
    <glyph glyph-name="yacute" unicode="&#xfd;" horiz-adv-x="288" 
d="M266 37q0 -51 -9 -152.5t-9 -151.5q0 -3 1 -18t1 -26.5t-2 -15.5q-19 1 -29 63.5t-10 100.5q0 133 21 315q-29 -33 -84 -66.5t-91 -33.5q-39 0 -60 27.5t-21 67.5q0 25 13.5 53.5t35.5 28.5q4 0 4 -11q-13 -19 -13 -52q0 -21 8.5 -42t27.5 -21q49 0 190 89q9 30 16 30
q4 0 6 -7q4 -12 5 -27.5t0 -41.5t-1 -29v-80zM289 460h4l3 -12q-67 -77 -89 -159q0 -1 -1.5 -8t-3.5 -14t-4.5 -14.5t-5 -12t-4.5 -4.5q-16 8 -16 52q0 51 35 111.5t82 60.5z" />
    <glyph glyph-name="thorn" unicode="&#xfe;" horiz-adv-x="279" 
d="M338 141q-14 -2 -51.5 -5.5t-62.5 -9.5t-48 -20q-81 -103 -121 -103q2 -20 10 -71t13 -93t5 -70q0 -7 -3 -10q-4 0 -11 13q-63 147 -63 429q0 48 9.5 174.5t18.5 153.5l13 7q16 -31 16 -86q0 -27 -3 -57t-8.5 -70t-7.5 -57q8 16 37 31.5t48 15.5q44 0 68.5 -34t24.5 -80
q0 -20 -19 -52q35 6 69 6q44 0 66 -12zM132 265q-82 0 -82 -167l1 -41q39 34 70 51q53 72 53 99q0 21 -11.5 39.5t-30.5 18.5zM53 44h2h-2z" />
    <glyph glyph-name="ydieresis" unicode="&#xff;" horiz-adv-x="288" 
d="M266 37q0 -51 -9 -152.5t-9 -151.5q0 -3 1 -18t1 -26.5t-2 -15.5q-19 1 -29 63.5t-10 100.5q0 133 21 315q-29 -33 -84 -66.5t-91 -33.5q-39 0 -60 27.5t-21 67.5q0 25 13.5 53.5t35.5 28.5q4 0 4 -11q-13 -19 -13 -52q0 -21 8.5 -42t27.5 -21q49 0 190 89q9 30 16 30
q4 0 6 -7q4 -12 5 -27.5t0 -41.5t-1 -29v-80zM56 291q1 3 1 10l12 2l4 3h4l8 -1q25 -17 25 -39v-7l-11 -10h-4q-16 0 -26.5 12.5t-12.5 29.5zM123 282v19l12 2l4 3h4l8 -1q25 -17 25 -39v-7l-11 -10h-4q-12 0 -25 10.5t-13 22.5z" />
    <glyph glyph-name="OE" unicode="&#x152;" horiz-adv-x="933" 
d="M434 239l7 -23h-7q22 -106 -44 -184.5t-175 -78.5q-89 0 -148.5 62.5t-59.5 151.5q0 39 10 84.5t29 90.5t53 74.5t76 29.5q17 0 25 -6l-5 -4q-43 -4 -74 -30.5t-47 -66t-23 -79t-7 -81.5q0 -76 46.5 -129t121.5 -53q76 0 128 48t52 124q0 20 -5 47q-32 0 -71 5.5t-83 18
t-73 38t-29 59.5q0 37 38 63t77 26q59 0 112.5 -61.5t69.5 -125.5h6zM169 336q0 -21 25.5 -39t63.5 -29t68.5 -17t52.5 -8q-16 43 -54 91.5t-74 48.5q-24 0 -53 -13t-29 -34zM722 610q-15 -12 -200.5 -37t-205.5 -35q-9 3 -9 7q0 31 133.5 57t191.5 26q68 0 88 -13zM669 223
l25 1q25 0 36.5 -0.5t32.5 -2t34.5 -5t21.5 -8.5q-2 -2 -9 -2q-20 0 -41.5 -1.5t-47.5 -4t-41 -3.5q16 -51 16 -108q0 -56 -24 -106t-74 -50q-53 0 -94 31.5t-63 80.5t-33 100t-11 99q0 19 2 57q-32 0 -46 7l1 13q32 12 48 17l1 1q4 43 26 121.5t45 78.5q3 0 3 -4l-3 -14
q-4 -14 -9.5 -35.5t-11 -45.5t-9.5 -49t-5 -42l17 3l37.5 4t25.5 2q21 0 68 -9.5t55 -19.5q-1 -5 -9 -8q-15 -7 -94.5 -9t-101.5 -8v-27q0 -187 83 -261q41 -37 77 -37q30 0 43 40.5t13 79.5q0 55 -15 99q-25 -2 -51 18l-7 10q-1 17 10 29t28 12q31 0 51 -44z" />
    <glyph glyph-name="oe" unicode="&#x153;" horiz-adv-x="693" 
d="M356 178q23 0 63 11.5t56 13.5q-8 -24 -59.5 -43.5t-82.5 -19.5l-20 1q-7 -61 -50 -100.5t-104 -39.5q-49 0 -81.5 32.5t-32.5 81.5q0 47 32 89q-93 -6 -121 22l1 7q22 6 77 9t84 11l6 6l6.5 6.5t6 5.5t7 6t7 5t8 4t8 2t9.5 1q13 0 22.5 -9.5t9.5 -22.5q0 -16 -14 -29
t-30 -13l-1 4v-1l1 -2v-1q0 -1 -2 -1h-3q-38 -23 -48 -39q-17 -30 -17 -56q0 -25 19.5 -52t43.5 -27q30 0 49.5 7t32 25.5t18.5 33t16 46.5q-21 7 -44 27t-25 39q4 14 8 22h1q9 16 29 16q27 0 49 -19.5t22 -46.5v-6q17 -6 43 -6zM241 220l-2 1q1 0 1 -0.5t1 -0.5zM645 32
q19 0 38.5 3t43 8t37.5 7q-9 -23 -64.5 -37.5t-91.5 -14.5q-70 0 -118 37t-48 105v6q-75 22 -97 45l3 10l2 -2v1q18 -6 52.5 -13t43.5 -9q18 54 50 81t86 27q24 0 41.5 -16.5t17.5 -39.5q0 -45 -38 -70.5t-84 -25.5q-10 0 -28 2q0 -30 14 -51.5t38 -32.5t49 -15.5t53 -4.5z
M573 236q-52 0 -76 -62h16q26 0 53 15t27 39l-1 4q-6 4 -19 4z" />
    <glyph glyph-name="Scaron" unicode="&#x160;" horiz-adv-x="373" 
d="M425 174q-2 -4 -42.5 -24l-87.5 -43l-55 -27q6 -48 -22 -90t-76 -42q-24 0 -40 11.5t-16 34.5q0 10 3.5 19t12.5 17.5l15 14.5t20.5 14.5t19.5 11l21 10.5l16 8q-6 22 -28.5 48t-49.5 52.5t-54 57t-45 71t-18 84.5q0 88 53 146t139 58q76 0 120.5 -37t44.5 -112
q0 -49 -43 -110t-88 -61l-3 3l2 4q42 24 70.5 68.5t28.5 90.5q0 112 -129 112q-68 0 -108.5 -45.5t-40.5 -114.5q0 -46 25 -88.5t56 -70t63.5 -65t44.5 -72.5q154 65 191 66zM144 -13q22 0 37 22.5t17 46.5l-9 -4.5t-10 -5.5t-10 -6t-11 -6.5t-9.5 -7t-9 -8t-7.5 -8t-6 -9
t-3 -9.5l6 -4zM222 293h1h-1zM196 624q-14 0 -24 9q-8 7 -53.5 77t-47.5 81l4 7q9 -4 30.5 -21.5t28.5 -26.5l-1 1q40 -40 52 -59l9 -15l4 -6q1 -1 1 0l-1 -1l3 3q1 1 35.5 42l61 70t32.5 29q2 -2 2 -7q0 -30 -55 -106.5t-81 -76.5z" />
    <glyph glyph-name="scaron" unicode="&#x161;" horiz-adv-x="292" 
d="M136 100q40 19 112 45t99 26h5q0 -5 -27 -19q-121 -65 -163 -83q16 -19 16 -48q0 -30 -22 -51t-53 -21q-27 0 -46 14.5t-19 41.5q0 35 52 68q-10 10 -30.5 27t-31 27.5t-19.5 30.5t-9 45q0 46 31.5 78.5t77.5 32.5q29 0 44.5 -8.5t38.5 -31.5q1 -3 7 -15.5t10 -22.5
t4 -15q0 -7 -3 -11q-5 0 -14.5 17.5t-27.5 34t-46 16.5q-32 0 -54 -19.5t-22 -51.5q0 -25 14 -42.5t40 -36t36 -28.5zM104 -2q10 0 17 7t7 17q0 8 -7 19q-30 -22 -36 -38l2 -2q9 -3 17 -3zM128 343h-12q-2 0 -6 2q-8 6 -39.5 53t-32.5 56l2 5q5 -2 12.5 -8t16 -14t11.5 -10
h-1q27 -27 31 -33l10 -16l2 -4q1 -1 1 0l-1 -1l2 2q2 2 24 28l40 46t22 20q2 -2 2 -4q0 -16 -31 -61t-46 -58z" />
    <glyph glyph-name="Ydieresis" unicode="&#x178;" horiz-adv-x="472" 
d="M371 590q39 0 65.5 -35.5t26.5 -75.5q0 -82 -64.5 -132t-151.5 -61q-17 -104 -17 -183q0 -27 4 -55.5t8.5 -47t13 -50.5t12.5 -51q-6 2 -28 46q-40 88 -40 212q0 60 8 129q-126 12 -213.5 92t-87.5 204q0 13 4 21q5 -4 13 -27t16.5 -52.5t30 -63.5t50 -62.5t79 -48
t115.5 -20.5q6 36 16 74t28.5 83.5t47.5 74.5t64 29zM256 331q56 8 108.5 47.5t52.5 92.5q0 22 -10 43.5t-29 28.5h-12q-19 0 -39 -26t-34.5 -65.5t-23 -69t-13.5 -51.5zM66 616q1 3 1 10l12 2l4 3h4l8 -1q25 -17 25 -39v-7l-11 -10h-4q-16 0 -26.5 12.5t-12.5 29.5z
M133 607v19l12 2l4 3h4l8 -1q25 -17 25 -39v-7l-11 -10h-4q-12 0 -25 10.5t-13 22.5z" />
    <glyph glyph-name="Zcaron" unicode="&#x17d;" horiz-adv-x="501" 
d="M571 549q53 0 53 -35q0 -23 -27 -43t-54 -30t-54 -16q-17 -28 -73.5 -136t-106 -186t-92.5 -111l-2 -1q0 -14 83.5 -47.5t113.5 -33.5q115 0 115 81q0 19 -9 38.5t-24 27.5l3 1q20 0 33 -27t13 -48q0 -51 -42 -75.5t-96 -24.5q-93 0 -219 83q-55 -43 -117 -43
q-44 0 -81.5 23.5t-37.5 64.5q0 30 22.5 49.5t52.5 19.5q35 0 61.5 -8.5t40.5 -17.5t50 -36v1q48 43 91.5 108t94 160.5t69.5 127.5q-72 -1 -172.5 14.5t-134.5 45.5l8 1q28 0 110.5 -16t126.5 -16q59 0 86 9q63 96 115 96zM66 -32q38 0 80 26q-60 44 -97 44h-27
q-9 0 -19 -7.5t-10 -16.5q0 -23 23.5 -34.5t49.5 -11.5zM578 505q0 3 -3 3q-21 0 -49 -33q52 20 52 30zM340 494q-14 0 -24 9q-8 7 -53.5 77t-47.5 81l4 7q9 -4 30.5 -21.5t28.5 -26.5l-1 1q40 -40 52 -59l9 -15l4 -6q1 -1 1 0l-1 -1l3 3q1 1 35.5 42l61 70t32.5 29
q2 -2 2 -7q0 -30 -55 -106.5t-81 -76.5z" />
    <glyph glyph-name="zcaron" unicode="&#x17e;" horiz-adv-x="350" 
d="M400 58q0 -31 -14 -53t-33 -33t-49.5 -17.5t-52.5 -7.5t-52 -1q-25 0 -52 3.5t-61.5 10l-51.5 9.5q-35 -25 -58 -25q-9 0 -13 2q-6 -5 -13 3.5t-7 15.5q0 15 9 25t28.5 14.5t28 5.5t28.5 2q22 20 56.5 70.5t48.5 66.5q-37 0 -90.5 11.5t-66.5 31.5q0 5 8 5q14 0 42.5 -3
t43.5 -3q52 0 106 3q44 48 83 48q22 0 35 -15l6 -17q-1 -46 -96 -58q-20 -20 -63.5 -69.5t-68.5 -73.5q95 -15 171 -15q81 0 111 27q2 2 10 13l15 20.5t8 9.5q4 0 4 -6zM-35 -50q21 11 34 22h-8q-7 0 -17 -2l-5 -3l-1 -1h-1v1q-3 -3 -5 -10l2 -3q1 -3 1 -4zM166 258
q-14 0 -24 9q-8 7 -53.5 77t-47.5 81l4 7q9 -4 30.5 -21.5t28.5 -26.5l-1 1q40 -40 52 -59l9 -15l4 -6q1 -1 1 0l-1 -1l3 3q1 1 35.5 42l61 70t32.5 29q2 -2 2 -7q0 -30 -55 -106.5t-81 -76.5z" />
    <glyph glyph-name="circumflex" unicode="&#x2c6;" horiz-adv-x="260" 
d="M161 573q-1 0 -2 -2l-1 -2l-12.5 -18l-17 -24t-18.5 -23.5t-21.5 -23t-20.5 -15t-20 -6.5q-7 0 -7 5t50.5 80.5t60.5 85.5q3 3 4 3q13 0 79 -82t67 -92q-4 -2 -7 -2q-17 0 -38.5 17.5t-51.5 51t-31 34.5l-11 11l-2 1v1z" />
    <glyph glyph-name="caron" unicode="&#x2c7;" horiz-adv-x="240" 
d="M110 471q-14 0 -24 9q-8 7 -53.5 77t-47.5 81l4 7q9 -4 30.5 -21.5t28.5 -26.5l-1 1q40 -40 52 -59l9 -15l4 -6q1 -1 1 0l-1 -1l3 3q1 1 35.5 42l61 70t32.5 29q2 -2 2 -7q0 -30 -55 -106.5t-81 -76.5z" />
    <glyph glyph-name="breve" unicode="&#x2d8;" horiz-adv-x="323" 
d="M11 671q5 15 15 28t26 20t33 -8q6 -5 6.5 -13t-3 -18.5t-7.5 -20t-10.5 -22.5l-9.5 -19q-7 -16 10 -35t52.5 -27t89.5 8q37 12 48.5 29.5t5.5 31t-17 28t-11 17.5q-2 11 21 9q32 -2 46 -27q4 -7 5 -18t-2.5 -23.5t-11 -25.5t-21.5 -24.5t-33.5 -20t-48 -12t-63.5 -1.5
q-47 3 -76.5 20t-39 34.5t-10.5 41.5t1.5 32.5z" />
    <glyph glyph-name="dotaccent" unicode="&#x2d9;" horiz-adv-x="154" 
d="M24 523v127h113v-127h-113z" />
    <glyph glyph-name="ring" unicode="&#x2da;" horiz-adv-x="182" 
d="M12 615q4 34 30 57.5t59 23.5q34 0 55.5 -23.5t17.5 -57.5t-30 -57.5t-60 -23.5q-33 0 -54 23.5t-18 57.5zM55 623q-2 -21 11.5 -36t34.5 -15q22 0 38.5 15t19.5 36q2 22 -12 37t-35 15t-38 -15t-19 -37z" />
    <glyph glyph-name="tilde" unicode="&#x2dc;" horiz-adv-x="278" 
d="M55 530q-29 0 -57 -16l-2 6l7 12q30 24 68 24q36 0 88.5 -26.5t79.5 -26.5q19 0 34 11.5t24 23.5t13 12v-3q-18 -72 -78 -72q-32 0 -88 27.5t-89 27.5z" />
    <glyph glyph-name="quoteleft" unicode="&#x2018;" horiz-adv-x="72" 
d="M45 537l4 -5q-8 -33 -5 -46.5t11.5 -29.5t8.5 -26q0 -6 -6 -6q-18 0 -32.5 21.5t-14.5 40.5q0 36 28 51h6z" />
    <glyph glyph-name="quoteright" unicode="&#x2019;" horiz-adv-x="71" 
d="M26 532l4 5h6q28 -15 28 -51q0 -19 -14.5 -40.5t-32.5 -21.5q-6 0 -6 6q0 10 8.5 26t11.5 29.5t-5 46.5z" />
    <glyph glyph-name="quotesinglbase" unicode="&#x201a;" horiz-adv-x="87" 
d="M24 -9l5 15q3 8 8 48l7 4l9 -3q29 -30 13 -77q-9 -24 -36.5 -45.5t-51.5 -13.5q-7 2 -5 10q1 2 24 26t27 36z" />
    <glyph glyph-name="quotedblleft" unicode="&#x201c;" horiz-adv-x="141" 
d="M45 537l4 -5q-8 -33 -5 -46.5t11.5 -29.5t8.5 -26q0 -6 -6 -6q-18 0 -32.5 21.5t-14.5 40.5q0 36 28 51h6zM108 537l4 -5q-8 -33 -5 -46.5t11.5 -29.5t8.5 -26q0 -6 -6 -6q-18 0 -32.5 21.5t-14.5 40.5q0 36 28 51h6z" />
    <glyph glyph-name="quotedblright" unicode="&#x201d;" horiz-adv-x="141" 
d="M26 532l4 5h6q28 -15 28 -51q0 -19 -14.5 -40.5t-32.5 -21.5q-6 0 -6 6q0 10 8.5 26t11.5 29.5t-5 46.5zM89 532l4 5h6q28 -15 28 -51q0 -19 -14.5 -40.5t-32.5 -21.5q-6 0 -6 6q0 10 8.5 26t11.5 29.5t-5 46.5z" />
    <glyph glyph-name="quotedblbase" unicode="&#x201e;" horiz-adv-x="175" 
d="M24 -9l5 15q3 8 8 48l7 4l9 -3q29 -30 13 -77q-9 -24 -36.5 -45.5t-51.5 -13.5q-7 2 -5 10q1 2 24 26t27 36zM114 -9l5 15q3 8 8 48l7 4l9 -3q29 -30 13 -77q-9 -24 -36.5 -45.5t-51.5 -13.5q-7 2 -5 10q1 2 24 26t27 36z" />
    <glyph glyph-name="dagger" unicode="&#x2020;" horiz-adv-x="198" 
d="M121 705l4 6q12 -28 12 -153q0 -227 -23 -549q-11 -141 -20 -185q-1 -7 -6 -18t-6 -16q-3 -12 -5 -12q-3 0 -3 4q0 1 -0.5 3t-0.5 3q1 3 1 11q-1 -1 -2.5 0.5t-1.5 2.5q-10 38 -10 141q0 163 13 372.5t35 349.5q4 36 13 40zM86 -188l5 13q1 38 8 109t9 100q22 427 22 584
q0 25 -1 38l-1 14q-1 15 -2 22l-1 2l-1 2v1l1 2q-1 1 -1 0v-3h1q0 -365 -39 -884zM267 426l4 12q-32 17 -107 17q-108 0 -172 -13q-1 -1 -5.5 -2t-7.5 -2t-3 -3q0 -13 46 -19t79 -6q119 0 166 16z" />
    <glyph glyph-name="ellipsis" unicode="&#x2026;" horiz-adv-x="267" 
d="M9 36q0 2 0.5 7t0.5 7l16 3l5 4h6q18 0 32 -17.5t14 -36.5l-1 -11q-8 -14 -18 -14q-23 0 -39 17.5t-16 40.5zM98 36q0 2 0.5 7t0.5 7l16 3l5 4h6q18 0 32 -17.5t14 -36.5l-1 -11q-8 -14 -18 -14q-23 0 -39 17.5t-16 40.5zM187 36q0 2 0.5 7t0.5 7l16 3l5 4h6
q18 0 32 -17.5t14 -36.5l-1 -11q-8 -14 -18 -14q-23 0 -39 17.5t-16 40.5z" />
    <glyph glyph-name="guilsinglleft" unicode="&#x2039;" horiz-adv-x="265" 
d="M264 526q-7 -21 -12 -21q-6 0 -6 6l9 -3q-56 -109 -127 -195q-3 -4 -33 -37t-43 -53h-1l17 -12q42 -29 112 -94.5t103 -90.5q18 -14 18 -19h-2q-13 0 -43 16.5t-72 45.5l-74 52l-73 54l-45 34q17 37 127.5 166t144.5 151z" />
    <glyph glyph-name="guilsinglright" unicode="&#x203a;" horiz-adv-x="265" 
d="M29 526q34 -22 144.5 -151t127.5 -166l-45 -34l-73 -54l-74 -52t-72 -45.5t-43 -16.5h-2q0 6 18 19q33 25 103 90.5t112 94.5l17 12h-1q-13 20 -43 53t-33 37q-71 86 -127 195l9 3q0 -6 -6 -6q-5 0 -12 21z" />
    <glyph glyph-name="fraction" unicode="&#x2044;" horiz-adv-x="184" 
d="M208 540q0 -76 -65 -230.5t-129 -273.5l-6 -12l-10 -20.5t-11 -21t-11.5 -17.5t-8.5 -7q-1 0 -1 4q0 35 109 302.5t127 278.5q0 2 1 2q4 0 4 -2l-1 -1h-2l-1 1l-1 1l1 -1l1 -1h1q3 0 3 -2z" />
    <glyph glyph-name="Euro" unicode="&#x20ac;" horiz-adv-x="276" 
d="M-86 216h-13l-4 11q28 27 125 35q46 130 160 215q61 45 102 45q32 0 51 -23.5t19 -55.5q0 -42 -38 -117.5t-75 -76.5q-1 1 -1 4q0 1 7.5 10l15.5 19t10 12q14 20 29.5 70t15.5 74q0 17 -9 32q-13 11 -23 11q-29 0 -83 -43q-87 -71 -131 -174h21q24 0 61.5 -6.5
t44.5 -17.5q0 -3 -5.5 -5t-14 -3.5t-16.5 -2.5l-15.5 -2t-8.5 -1q-38 -5 -83 -7q-9 -31 -11 -53q39 0 90.5 -7.5t62.5 -24.5q-1 -10 -61 -10q-39 -3 -78 -3h-17q0 -53 29 -92t80 -39q32 0 64.5 15t46 25.5t51.5 47.5l41 40q-4 -50 -78.5 -106.5t-127.5 -56.5
q-64 0 -107.5 48.5t-43.5 114.5v6q-62 6 -95 0l-6 10q10 16 40 24t56 8h8q1 23 8 51q-31 -1 -94 -1z" />
    <glyph glyph-name="a_ss1" unicode="&#xe013;" horiz-adv-x="381" 
d="M381 93q84 21 473 44q26 2 187.5 15.5t248.5 13.5q40 0 59 -1q19 0 19 -3q0 -2 -5 -2q-55 -13 -133.5 -22.5t-177 -18.5t-139.5 -14q-7 -1 -71 -8.5t-78.5 -9.5t-71 -8t-79.5 -8l-72 -6.5t-79.5 -6t-70 -3t-74.5 -1.5q-84 0 -99 55q-28 -38 -69 -74t-74 -36q-80 0 -80 84
q0 70 53.5 134.5t122.5 64.5q31 0 61 -13t30 -40q0 -6 -6 -10l-8 8l-11 12q-14 7 -51 7q-52 0 -97 -55t-45 -108q0 -18 8 -31q15 -6 18 -6q24 0 71 33t72 59q0 46 28 71l12 -5q2 -28 3.5 -43.5t6.5 -28.5t8.5 -17.5t15 -9t21 -4.5t32 -2.5t41.5 -5.5z" />
    <glyph glyph-name="a_ss2" unicode="&#xe014;" horiz-adv-x="323" 
d="M238 49q19 1 51 32t56.5 62t26.5 31v-1q0 -45 -45 -107t-88 -62q-33 0 -48 35q-2 -3 -14 -18t-16 -19.5t-15 -15.5t-19 -15t-19.5 -8t-24.5 -4q-35 0 -58.5 28t-23.5 64q0 64 50 132.5t111 68.5q16 0 34.5 -12t18.5 -27q0 -6 -5 -6q-1 0 -13.5 8.5t-24.5 8.5
q-44 0 -85 -63t-41 -110q0 -20 11.5 -36t31.5 -16t51 23.5t44 43.5q-1 22 6 63.5t22 41.5q5 0 7 -7q-2 -65 14 -111z" />
    <glyph glyph-name="b_ss2" unicode="&#xe015;" horiz-adv-x="226" 
d="M275 98q-5 -7 -32.5 -13.5t-61 -12.5t-41.5 -8q-29 -62 -71 -62q-19 0 -34 13q0 -30 4 -90t4 -90q0 -19 -2 -55q-21 10 -39 151t-18 197q0 152 23.5 475t57.5 359q4 -12 4 -14q0 -27 -6.5 -194.5l-12.5 -323.5t-7 -158q51 10 86.5 -31t35.5 -94q0 -26 -12 -43
q95 4 122 -6zM35 52q24 40 81 47q9 24 9 50q0 62 -84 74q-6 -114 -6 -171z" />
    <glyph glyph-name="Q_swsh" unicode="&#xe016;" horiz-adv-x="1052" 
d="M1101 46q-19 -33 -81.5 -49.5t-113.5 -16.5q-77 0 -159 24l-4 -8q-26 -57 -61 -113t-83 -114.5t-107.5 -94.5t-119.5 -36q-81 0 -146.5 58.5t-105 144.5t-66.5 192t-37 194t-10 157q0 229 85 395q28 56 65 108.5t85.5 104t108.5 83t120 31.5q90 0 164 -53t125 -138
q17 -29 17 -44q0 -13 -3 -19q-22 77 -115.5 146t-174.5 69q-63 0 -127 -41.5t-113 -105t-85 -130.5t-54 -127q-36 -117 -36 -256q0 -54 8.5 -133t31 -180t55 -185.5t87 -143t120.5 -58.5q37 0 78 23.5t75 59t66.5 80t54.5 84t37 73.5q-162 61 -245.5 180.5t-83.5 291.5
q0 41 6.5 82t22.5 82.5t39.5 73t61 51t83.5 19.5q66 0 117.5 -49t79 -123.5t41 -146t13.5 -131.5q0 -163 -59 -323q90 -30 178 -30q81 0 165 42zM406 483q0 -154 72.5 -257t216.5 -167q55 150 55 305q0 46 -10 105.5t-30 124t-59.5 108.5t-89.5 44q-44 0 -76.5 -27
t-48.5 -70t-23 -84.5t-7 -81.5z" />
    <glyph glyph-name="A_swsh" unicode="&#xe017;" horiz-adv-x="1052" 
d="M827 50q36 -2 96 0t127.5 -3.5t85.5 -19.5q-1 -4 -28 -9.5t-68.5 -10.5l-80.5 -9.5t-77 -8t-46 -4.5q13 -82 39 -176.5t44.5 -149t63 -174.5l57.5 -155q-1 0 -51 33l-106.5 69.5l-123 81l-114 77t-124.5 87l-105 80t-101 84.5q-6 -3 -11 0.5t-1 10.5q-3 1 -3 5q0 2 1 2
q4 0 6 -1q36 50 125 91.5t171 62t158 30.5q-21 150 -21 301q0 108 25 242.5t74 199.5q-197 -84 -374 -277.5t-283.5 -429t-115.5 -447.5q-6 -162 -6 -163q0 -124 30 -163l1 -8l-7 -1q-73 25 -73 362q0 256 149.5 533t362.5 447q76 61 183 117.5t178 56.5l-6 -7v-1
q-31 -26 -50.5 -117t-24.5 -166t-5 -137q0 -169 29 -335zM905 -502q-12 38 -41 111t-41 111q-25 78 -54 256q-104 -20 -156 -31t-137 -37t-147 -59l472 -288q104 -66 105 -66l1 1z" />
    <glyph glyph-name="B_swsh" unicode="&#xe018;" horiz-adv-x="1188" 
d="M1061 36q134 12 161 -14q-1 -6 -25 -11q-104 -23 -150 -36q-21 -67 -54.5 -111.5t-82 -67t-100.5 -31t-124 -8.5q-28 0 -52.5 12.5t-24.5 38.5q0 35 47 72.5t114.5 66.5t125.5 49t95 28q8 37 8 72q0 128 -82 182q-28 18 -75.5 31t-89 19.5t-111 9.5t-102 3.5t-102.5 0
t-75 -0.5q-3 0 -25 -1.5t-39 -1.5t-21 4q1 14 39.5 23.5t89 15.5t54.5 7q8 2 41 17q68 31 124.5 62.5t114 77t96.5 95.5t63.5 116.5t24.5 140.5q0 91 -49 128.5t-143 37.5q-173 0 -322 -79t-240 -222t-91 -317q0 -148 50.5 -301t136.5 -284.5t202 -242t247 -180.5
q61 -33 135 -60q10 -4 78.5 -22t82.5 -27q-2 -4 -20 -4q-65 0 -149 24t-154 57q-188 90 -343 254.5t-245.5 373.5t-90.5 417q0 190 98.5 346.5t261.5 243.5t352 87q120 0 190 -52.5t70 -168.5q0 -335 -441 -511q38 6 120 6q409 0 409 -291q0 -36 -8 -74zM706 -214
q89 4 161 45.5t103 117.5q-44 -15 -100 -36.5t-124.5 -54t-79.5 -51.5q5 -9 40 -21z" />
    <glyph glyph-name="C_swsh" unicode="&#xe019;" horiz-adv-x="943" 
d="M963 82v-3q0 -44 -46 -126q-72 -128 -201.5 -210t-271.5 -82q-198 0 -308.5 129.5t-110.5 330.5q0 102 29 217.5t77 205.5q-60 27 -154.5 93t-190.5 148.5t-164.5 175t-68.5 159.5q0 11 2 16q4 -3 8.5 -11t8.5 -21l5 -14q43 -103 190 -233q198 -174 392 -264
q71 117 184.5 204t233.5 87q90 0 161.5 -51t71.5 -137q0 -62 -36 -110t-93 -74t-117 -39t-117 -13q-119 0 -254 55q-46 -76 -75 -194.5t-29 -214.5q0 -176 98.5 -287t272.5 -111q124 0 241 70.5t192 178.5q13 18 23.5 37l26.5 49.5zM579 815q-100 0 -195.5 -74.5
t-160.5 -174.5q120 -43 217 -43q43 0 91 9t98 27.5t82 54.5t32 83q0 55 -52.5 86.5t-111.5 31.5z" />
    <glyph glyph-name="D_swsh" unicode="&#xe020;" horiz-adv-x="725" 
d="M597 81q48 -8 100 -27.5t82 -46.5h-1q-3 0 -41 10.5l-84.5 22.5t-67.5 14q-32 -60 -75 -121.5t-101 -127t-119 -116t-132.5 -82.5t-138.5 -32q-52 0 -84 25.5t-32 75.5q0 49 40.5 119t83.5 113q0 41 -9 133.5t-9 141.5q0 346 75 580q24 83 38 90q7 0 7 -16
q0 -31 -3.5 -65.5t-10 -82t-8.5 -65.5q-21 -180 -28 -333q-4 -89 -4 -269l1 -70q188 137 419 137l30 -1q94 182 94 382q0 95 -25 179t-72.5 151.5t-125.5 107t-177 39.5q-72 0 -139.5 -20t-115.5 -49t-85.5 -57.5l-64.5 -50t-38 -22.5q1 16 65 75q179 174 400 174
q107 0 193.5 -45t140 -120.5t82 -170t28.5 -197.5q0 -196 -88 -383zM19 -361q61 0 138.5 44.5t146 109t124 136t80.5 127.5q-115 -6 -236.5 -52t-193.5 -122q0 -7 2 -52t1.5 -79t-5.5 -45q-13 1 -37 130q-74 -101 -74 -161q0 -36 54 -36z" />
    <glyph glyph-name="E_swsh" unicode="&#xe021;" horiz-adv-x="774" 
d="M631 838q-1 -6 -29 -12q-21 -5 -145 -20q-270 -32 -355 -45q-24 -4 -129 -28t-163 -24q-32 0 -141 19q98 8 224 46t165 47q170 37 382 37q163 0 191 -20zM653 165q9 2 33 -22q50 -48 79.5 -120t29.5 -143q0 -142 -106 -255t-246 -113q-77 0 -151 33q-83 38 -141 97
t-88 133.5t-42.5 152t-12.5 171.5q0 62 4 110q-98 -4 -151 7l-8 10q0 14 61.5 28.5t101.5 19.5q3 41 9.5 97.5t21 141.5t40.5 141t58 56l-1 -9q-3 -7 -18.5 -33.5t-20.5 -45.5q-10 -38 -21 -152.5t-11 -165.5v-22q70 6 105 6q52 0 125 -11.5t88 -34.5q-1 -4 -19 -9
q-39 -7 -91 -10.5t-116.5 -5.5t-93.5 -4v-13q0 -61 1.5 -104t7.5 -102t16.5 -101.5t31 -92t49 -85t71.5 -67.5t98 -52q51 -19 102 -19q121 0 212.5 102.5t91.5 224.5q0 51 -15.5 99.5t-31 76t-52.5 85.5z" />
    <glyph glyph-name="F_swsh" unicode="&#xe022;" horiz-adv-x="677" 
d="M788 663q103 0 286 -11t224 -29q-1 -9 -54 -9q-59 -3 -267 -8q-317 -7 -510 -29q-49 -6 -138 -22t-208 -43t-203 -66t-84 -78l1 -10l10 -12q6 -2 20.5 -2t20.5 -3q-2 -7 -12.5 -12.5t-18.5 -5.5q-54 0 -54 52q0 53 88 108q102 65 274.5 108t326 57.5t298.5 14.5zM522 79
q47 0 109.5 -10t85.5 -30l-8 -1q-21 0 -62 5.5t-61 5.5q-72 0 -179.5 -24.5t-150.5 -58.5q6 -67 6 -137q0 -41 -5 -96.5t-19.5 -127t-36.5 -129.5t-60 -98.5t-85 -40.5q-44 0 -82 41.5t-57 94.5t-19 96q0 128 87.5 246t210.5 179q-1 22 -3.5 70.5t-4.5 77t-6.5 69
t-10.5 73.5q-4 22 -26.5 96.5t-23.5 93.5l4 10q44 -44 67.5 -121.5t39 -200.5t19.5 -141q133 58 271 58zM48 -595q43 2 75 61.5t47.5 142.5t22.5 150t7 108l-1 66q-5 -2 -29.5 -20.5t-33.5 -26.5q-170 -143 -170 -321q0 -56 47 -124q10 -14 16 -20q1 -1 6 -4.5t9 -7t4 -4.5z
" />
    <glyph glyph-name="G_swsh" unicode="&#xe023;" horiz-adv-x="1184" 
d="M282 -225zM1043 75q43 0 102.5 -11t80.5 -32q-1 -5 -17 -5q-73 0 -121 -2.5t-95.5 -13t-72.5 -18t-89.5 -30t-109.5 -36.5q82 -68 82 -160q0 -71 -40 -146.5t-101 -133t-138 -95t-147 -37.5q-75 0 -138 39t-104 100t-70 137.5t-42 150.5t-13 141q0 115 26 218
q-244 -16 -395 96q-33 27 -35 38h1q8 0 42 -21q123 -73 292 -73q57 0 107 7q27 94 76.5 179t117 153.5t158.5 109t190 40.5q53 0 98 -25.5t45 -75.5q0 -80 -70.5 -156.5t-174 -129.5t-204 -87.5t-176.5 -46.5q-31 -119 -31 -235q0 -58 10.5 -122.5t34.5 -133.5t59 -124
t89.5 -90t119.5 -35q80 0 170.5 56.5t152 144t61.5 168.5q0 14 -11 60q-32 55 -59 82q-264 -89 -411 -161q-6 0 -6 -1l-7 2q-2 1 -2 5q0 6 7.5 13.5t20 17t13.5 10.5q100 86 348.5 177.5t375.5 91.5zM596 603q-112 0 -210 -59t-161.5 -147t-100.5 -196q139 30 279 101.5
t222 166.5q43 49 43 85q0 49 -72 49z" />
    <glyph glyph-name="H_swsh" unicode="&#xe024;" horiz-adv-x="1167" 
d="M1164 79q4 -15 4 -61q0 -43 -1 -84t-6 -109.5t-14 -125.5t-26.5 -120t-40.5 -107t-60 -72.5t-82 -28.5q-43 0 -78.5 22t-59 56.5t-41 83t-27.5 96t-16 101t-8 92t-2 75.5q0 225 33 402q-80 31 -230 44.5t-283 13.5q-85 0 -143 -6v-120q0 -747 186 -793q-2 -6 -19 -6
q-54 0 -107 79q-78 118 -104 288.5t-26 372.5q0 58 4 172q-44 -4 -139 -33.5t-140 -29.5q-27 0 -33 11q3 3 113 49t124 49h-2q26 7 80 17q9 194 40 377l33 -3q-5 -11 -11 -22q4 -51 4.5 -106.5t-1 -128.5t-1.5 -107q82 9 165 9q322 0 497 -80l7 34.5t9.5 48.5t11 54t14 60.5
l15 59t17 58.5t18 49.5t20 42t20.5 26.5l21 19v-15.5t-1 -20.5t-2.5 -18.5t-5 -18t-8.5 -12.5l-4 8l-1 10q-7 -20 -12.5 -41t-11 -47t-10 -45t-9.5 -50l-7.5 -47t-7 -51l-6 -46t-6 -48.5t-5.5 -42.5q78 -58 78 -100v-2l-18 14l-39.5 29.5t-25.5 18.5q-22 -215 -22 -355
q0 -30 1 -61.5t5 -81.5t11 -93.5t20 -90.5t30.5 -80t44.5 -54.5t60 -21.5q44 0 78 55t54 140.5t34 172l27 167.5t24 109z" />
    <glyph glyph-name="I_swsh" unicode="&#xe025;" horiz-adv-x="157" 
d="M-246 892q0 -5 24 -49q-24 3 -44.5 15.5t-20.5 34.5q0 29 35 64q41 41 243.5 69.5t377.5 37t287 8.5h5.5h5h4.5t4.5 -1t4 -2t3.5 -3t1.5 -4.5t0.5 -6.5q0 -16 -9 -38q-176 0 -394 -10q-89 -3 -275.5 -30.5t-228.5 -55.5q-24 -17 -24 -29zM714 -246h6h6h5t4.5 -1t3.5 -3
t2.5 -5t0.5 -7q0 -16 -9 -38q-176 0 -394 -10q-89 -3 -275.5 -30.5t-228.5 -55.5q-24 -17 -24 -29q0 -5 24 -49q-24 3 -44.5 15.5t-20.5 34.5q0 20 12 38t34.5 31.5t48.5 24.5t62 19.5t65 14.5t67.5 10.5t61 6.5t53.5 4.5t36 3.5q-47 32 -83 84.5t-57 122t-34.5 133.5
t-18.5 148.5t-6.5 134.5t-1.5 122q0 349 102 497q-1 2 2 8l9 8q16 2 22 4q-69 -166 -69 -453v-21q0 -66 0.5 -106t4 -120.5t9.5 -136t19.5 -129t32.5 -124t48.5 -97t67.5 -71.5q264 21 457 21z" />
    <glyph glyph-name="J_swsh" unicode="&#xe026;" horiz-adv-x="597" 
d="M641 88q-37 -29 -126 -75t-128 -79q56 -229 56 -437q0 -290 -96 -405q-114 -137 -275 -137q-108 0 -171.5 56t-63.5 162q0 99 46.5 213t120 215.5t156.5 187.5t163 144q-72 391 -356 661l-20.5 20t-25.5 24t-23.5 19t-29 18t-26.5 9q3 7 22 7q8 0 17 -3t19.5 -8.5t19 -11
t20.5 -14.5t18 -14l17.5 -14.5t13.5 -11.5q156 -131 245 -283.5t144 -362.5q159 92 263 120zM67 -978q92 0 168 57q39 29 66 69.5t41.5 80t22.5 94t9.5 93.5t1.5 95q0 170 -44 383q-67 -51 -141.5 -136t-139.5 -183.5t-107 -207t-42 -194.5q0 -76 43.5 -113.5t121.5 -37.5z
" />
    <glyph glyph-name="K_swsh" unicode="&#xe027;" horiz-adv-x="808" 
d="M261 413q61 56 179 152l153 126q13 11 84.5 76l132.5 119t125.5 101.5t87.5 47.5h8q0 -4 -22.5 -25l-51.5 -46t-32 -27q-39 -37 -141 -142.5t-162 -158.5l-359 -314q2 -30 7.5 -91t8.5 -110t2 -91q95 -12 214 -12q223 0 369 39q-30 -45 -199.5 -68t-277.5 -23
q-16 0 -51 2.5t-53 1.5q2 -110 2 -166q0 -150 12 -222q4 -24 4 -37q0 -10 -1 -15q-10 1 -20 22.5t-17.5 59.5t-13.5 77t-11.5 90t-8.5 83.5t-6 72.5t-3 42q-219 33 -219 139q0 18 6.5 37t22 40l27 36t36 37l35 31.5t37 31.5t29.5 24q-2 40 -2 86t1 102.5t1 86.5
q0 52 -6.5 156.5t-6.5 156.5q0 48 22 49l1 -10q0 -39 19 -127t20 -95q7 -39 10.5 -87.5t4.5 -82.5t1.5 -91.5t1.5 -83.5zM68 118q7 -51 147 -78l-9 112l-9 113l-52 -43.5t-44.5 -47t-32.5 -56.5z" />
    <glyph glyph-name="L_swsh" unicode="&#xe028;" horiz-adv-x="595" 
d="M637 69v-4q-84 -54 -156 -146q-13 -17 -44.5 -63.5l-61.5 -88t-65.5 -85.5t-70 -70t-61.5 -26q-37 0 -66 30.5t-46 74.5t-28 98t-14.5 96t-3.5 74q0 235 97 499q66 179 134.5 313.5t164.5 240.5q50 56 78 56q4 0 10 -2q-9 -13 -32.5 -36.5t-33.5 -37.5
q-137 -191 -243 -504.5t-106 -536.5q0 -41 7 -102t28.5 -127t52.5 -75q24 2 66 46t90.5 105.5l100 123t106.5 104.5t97 43z" />
    <glyph glyph-name="M_swsh" unicode="&#xe029;" horiz-adv-x="1637" 
d="M1693 46q-2 -3 -22 -12l-43.5 -19t-26.5 -12q-88 -41 -166 -107q-6 -32 -12.5 -62t-21.5 -77.5t-32 -81t-43 -59t-55 -25.5q-27 0 -40 21.5t-13 50.5q0 53 48.5 117.5t103.5 111.5q18 98 18 234q0 49 -4 102t-13.5 122.5t-29.5 130t-48.5 113t-74.5 83.5t-103 31
q-230 0 -351 -467q-5 -19 -21.5 -72t-22.5 -82q-5 -25 -11 -91.5t-15 -101.5q-27 -90 -27 -98q0 -28 -3 -33q-21 17 -21 100q0 63 21 172q1 4 10 38t9 48q0 53 -8.5 126t-30.5 163.5t-54 166t-84.5 126.5t-115.5 51q-75 0 -147 -80q-170 -186 -170 -581q0 -283 64.5 -475
t237.5 -408q53 -66 89 -94t112 -64q-3 -6 -22 -6q-84 0 -215 145q-186 206 -259.5 413t-73.5 496q0 189 39 337q12 47 32.5 96.5t52.5 102t69.5 92.5t86.5 66t101 26q69 0 125.5 -40.5t91 -100t60 -138.5t37 -144.5t16.5 -128.5q13 65 33 128t54 133.5t75.5 123t102.5 87
t130 34.5q70 0 126 -30.5t92 -83.5t62 -115.5t39 -136.5t18.5 -135.5t5.5 -122.5q0 -78 -13 -204q59 39 129 69.5t122 30.5zM1278 -351q26 18 47.5 71.5t30.5 99.5q-86 -100 -86 -156l1 -11q2 -4 7 -4z" />
    <glyph glyph-name="N_swsh" unicode="&#xe030;" horiz-adv-x="1034" 
d="M1090 29q-12 -7 -69 -7q-63 0 -124 15q-11 -53 -26 -102t-42 -103.5t-60 -94t-81.5 -65.5t-105.5 -26q-82 0 -157 77.5t-126 193t-90 249t-57 247.5t-18 186q0 42 5 92q-69 -160 -69 -351q0 -28 1.5 -58.5t3 -53.5t6.5 -60t6.5 -53.5t8.5 -60t9 -53.5t10.5 -59.5
t9.5 -54.5q3 -17 13.5 -66t15.5 -84.5t5 -66.5q0 -16 -2 -22q-18 2 -80 209q-52 179 -70 355q-5 57 -5 103q0 140 34.5 240.5t120.5 207.5q-3 -37 -6 -46q9 -28 10.5 -91t4.5 -82q9 -63 31 -157.5t61.5 -215t86.5 -222t110 -171t127 -69.5q46 0 85.5 26t65.5 62.5t47.5 88.5
t32.5 92.5t20 84.5h-1q-88 48 -181 205.5t-121 273.5q-26 110 -26 220q0 2 -0.5 32t0 43t1.5 45t4.5 50l8.5 46t14 44t20.5 33t28 24.5t37.5 7.5q55 0 100.5 -33.5t76 -87t54 -127t36.5 -145t21 -149.5t10.5 -133t2.5 -103q0 -140 -17 -247q34 -11 97.5 -18.5t90.5 -14.5z
M561 740q0 -41 8 -123q12 -113 98 -288.5t170 -234.5q14 98 14 211q0 76 -7 166t-24 202t-54.5 203t-89.5 130q-25 17 -45 17q-13 0 -23.5 -7.5t-17.5 -22t-12.5 -30.5t-8.5 -39.5t-5 -41.5t-2.5 -44t-0.5 -39v-35v-24z" />
    <glyph glyph-name="O_swsh" unicode="&#xe031;" horiz-adv-x="667" 
d="M0 65q0 218 126 448.5t307 371.5q97 76 134 76q10 0 19 -5t8 -14q-10 4 -15 4q-35 0 -129 -86q-153 -140 -269 -359.5t-116 -407.5q0 -100 31.5 -182.5t87 -139.5t131 -96t161.5 -57t182 -18q175 0 310.5 62t216 188.5t80.5 302.5q0 180 -126 381t-288 286q-25 14 -57 25
q-4 2 -37.5 11l-64.5 18l-31 8q8 3 29 3q81 0 163 -34.5t151 -92t129 -133.5t102 -159t66 -169t24 -162q0 -143 -52 -259t-142.5 -191.5t-211 -116t-259.5 -40.5q-100 0 -194.5 20t-179 63.5t-148 105.5t-101 151.5t-37.5 196.5z" />
    <glyph glyph-name="P_swsh" unicode="&#xe032;" horiz-adv-x="807" 
d="M64 311q0 -502 219 -1041q10 -23 53 -113.5l80 -170.5t40 -97q-10 1 -76 97q-177 265 -277.5 601.5t-100.5 656.5q0 268 68 464q1 3 6.5 18.5l9 26t9.5 22t11 15.5q4 -1 4 -13q0 -29 -10.5 -86t-12.5 -72q-23 -215 -23 -308zM865 24q-2 -1 -56 -5.5t-114.5 -9t-74.5 -6.5
q-18 -48 -49.5 -100.5t-73.5 -104t-95 -84.5t-104 -33q-42 0 -73.5 30.5t-31.5 72.5q0 47 41 91t102 74.5t118.5 50.5t102.5 28q28 57 43.5 155.5t15.5 178.5q0 70 -13 137t-41.5 130.5t-70.5 111t-105 76.5t-139 29q-103 0 -204 -51t-169 -142.5t-68 -196.5q0 -39 28 -79
q-1 -1 -5 -1q-23 0 -35.5 35.5t-12.5 63.5q0 117 70.5 218t179 157.5t223.5 56.5q107 0 192 -48t136 -127.5t77 -174.5t26 -197q0 -65 -15.5 -176.5t-37.5 -146.5q143 13 233 -13zM300 -260q43 0 95.5 47.5t89 101t55.5 96.5q-45 -12 -108.5 -40t-123 -73.5t-59.5 -86.5
q0 -19 16 -32t35 -13z" />
    <glyph glyph-name="R_swsh" unicode="&#xe033;" horiz-adv-x="965" 
d="M64 587q0 -250 46 -519.5t127 -508.5q8 -25 44.5 -106.5l68.5 -153t33 -78.5q-9 1 -70 84q-145 202 -226 534t-81 626q0 121 31 320q-6 4 -6 23q0 18 38 80q4 -68 4 -103q0 -33 -4.5 -98.5t-4.5 -99.5zM942 65q29 -13 46.5 -66t17.5 -94q0 -61 -28 -104t-86 -43
q-44 0 -86.5 22.5t-80.5 60.5t-69.5 76.5l-67 84t-59.5 69.5q-87 -109 -170 -109q-42 0 -71.5 28t-29.5 69q0 57 49.5 87t110.5 30q41 0 85 -19q70 128 70 313q0 93 -14 172t-46.5 149.5t-82 120t-125.5 78t-173 28.5q-131 0 -200 -70t-107 -206q-20 -70 -20 -128
q0 -41 12 -69.5t40 -61.5q-1 -1 -5 -1q-20 0 -36 19.5t-24.5 48t-12.5 53.5t-4 43q0 88 23.5 165.5t69 137t117.5 94t162 34.5q105 0 189.5 -32.5t141 -88t94 -133.5t54 -166.5t16.5 -189.5q0 -205 -82 -348q52 -54 76 -85l38 -54t49 -66.5t49.5 -55t62 -47t63.5 -15.5
q44 0 63.5 38.5t19.5 87.5q0 21 -4 42t-7 30t-14 36t-14 35zM358 27q26 0 59 26t54 54q-26 8 -48 8q-33 0 -67 -13.5t-34 -40.5q0 -15 10.5 -24.5t25.5 -9.5z" />
    <glyph glyph-name="S_swsh" unicode="&#xe034;" horiz-adv-x="637" 
d="M99 -384q1 0 1 2v-2h-1zM455 950q60 0 119 -18.5t108.5 -52t80 -87t30.5 -116.5q0 -60 -30.5 -106.5t-80 -73t-104.5 -39.5t-110 -13q-142 0 -394 71q6 -61 34.5 -125t66.5 -120.5l76.5 -115t71 -129.5t43.5 -142l102 74.5t102 66t111 55.5q-48 -44 -154.5 -118
t-154.5 -116q-1 -7 0.5 -21t1.5 -19q0 -61 -24 -123t-74 -107t-114 -45q-28 0 -47.5 16t-19.5 43q0 26 15 54.5t44 58.5t52.5 51t60 50t46.5 38q-12 78 -47 153.5t-76.5 137l-82 123t-70 134.5t-34.5 149q-120 37 -258 121t-247 177q-40 33 -40 42q0 2 2 2q11 0 47 -27
q307 -213 497 -264q0 83 41.5 153.5t107.5 114.5t145 68.5t157 24.5zM161 -421q67 0 109.5 70.5t44.5 143.5q-9 -9 -46.5 -41.5t-60 -54.5t-44 -53.5t-21.5 -56.5q2 -8 18 -8zM453 504q43 0 87 8.5t87.5 26.5t71.5 53t28 82q0 65 -44 114t-104 71t-122 22
q-101 0 -184.5 -33.5t-139.5 -105.5t-62 -173q201 -50 288 -59q49 -6 94 -6z" />
    <glyph glyph-name="T_swsh" unicode="&#xe035;" horiz-adv-x="634" 
d="M662 869q350 0 423 -141q10 -18 10 -36q0 -20 -15 -34t-35 -14l-8 2q1 5 17 15.5t16 24.5q0 24 -40 55q-76 63 -286 63q-180 0 -354.5 -31t-400.5 -90q-28 -7 -80.5 -19l-70.5 -16q-5 -1 -34.5 -9l-56 -15.5t-27.5 -7.5h-3l-1 7q21 35 178.5 89t313 93t221.5 48
q112 16 233 16zM586 25q19 0 53 3t49 3q-18 -16 -59.5 -24.5t-74.5 -8.5q-17 0 -35 3q-7 -45 -15 -84.5t-27 -105.5t-40.5 -111.5t-56.5 -80.5t-75 -35q-42 0 -75 42.5t-51 102t-29 133.5t-14.5 125.5t-3.5 90.5q0 177 40 374q8 36 30 107t30 107h-1l-2 8q4 14 26 63
q0 -6 1 -17.5t1.5 -21t0.5 -17.5q0 -48 -18.5 -134t-21.5 -114q-21 -167 -21 -329q0 -60 7.5 -148.5t34.5 -189.5t68 -114q14 3 27 14t25 30.5t22.5 41t20 51l17 53t15.5 54.5t12 49.5t10 43.5t7 31q-53 33 -53 91q0 25 12 53t32 36l14 1q32 0 45.5 -41.5t13.5 -81.5
q0 -16 -4 -44h2q47 -9 61 -9zM465 142q-11 -29 -11 -40q0 -21 16 -39q2 22 2 34q0 27 -7 45z" />
    <glyph glyph-name="V_swsh" unicode="&#xe036;" horiz-adv-x="1080" 
d="M1151 26q-16 -15 -91 -15q-44 0 -93.5 28t-74.5 66l-105 -253t-141.5 -301.5t-131.5 -217.5q-10 -10 -30.5 -27l-29.5 -25q-3 1 -35 36t-41 46q-66 79 -118 162.5t-88.5 156.5t-65 165.5t-45.5 162.5t-32 176t-22.5 177l-19.5 193q-1 15 -2 22q-2 21 -9.5 91t-10.5 116
t-3 91q0 65 15 159t47 109l1 -6q0 -2 -12 -46q-18 -64 -18 -155q0 -92 10.5 -188t33.5 -242l29 -186q19 -137 40 -237.5t56 -209t88.5 -208.5t129.5 -199q5 -7 40.5 -49.5t36.5 -42.5q57 51 202 364.5t187 438.5q-43 106 -43 215v15q0 72 2.5 111.5t20.5 96t55 96.5
q26 30 55 30q37 0 54.5 -38.5t17.5 -80.5q0 -154 -106 -483q22 -53 80 -83t119 -30q32 0 48 -1zM848 372q0 -77 18 -141q3 11 17.5 59t20.5 70l17.5 66.5t17.5 73t10.5 63.5t4.5 63q0 25 -4 37l-4 12q0 1 -2 4t-2 4l-7 3q-10 0 -28 -27q-27 -39 -41 -93t-16 -91t-2 -103z
" />
    <glyph glyph-name="U_swsh" unicode="&#xe037;" horiz-adv-x="928" 
d="M948 79v-4q0 -86 -66.5 -170t-150.5 -84q-30 0 -43 8q-8 -45 -15 -79.5t-20.5 -81.5t-29 -81.5t-39.5 -71.5t-52.5 -60.5t-68 -38.5t-85.5 -15q-86 0 -154 55t-106.5 135.5t-64 184t-34.5 188.5t-9 160q0 273 97 587q9 32 22 49q2 -1 2 -10q0 -42 -26.5 -175.5
t-30.5 -163.5q-13 -107 -13 -222q0 -65 7 -146t28.5 -186t54 -189t90.5 -142.5t131 -58.5q200 0 252 396q-56 41 -96.5 110.5t-61 151t-29.5 157t-9 150.5q0 32 4.5 64.5t15.5 69t35 59t58 22.5q42 0 74.5 -48t50 -114.5t29 -149t15 -140.5t3.5 -99q0 -119 -19 -230
q22 -11 44 -11q50 0 92.5 34.5t63.5 75.5t36.5 77t17.5 37zM487 411q0 -92 10 -176t44 -178.5t90 -147.5q14 103 14 200q0 47 -10 152t-35.5 214t-57.5 109q-18 0 -30.5 -21t-17 -54t-6 -55t-1.5 -43z" />
    <glyph glyph-name="W_swsh" unicode="&#xe038;" horiz-adv-x="1408" 
d="M1461 65q-38 -68 -159.5 -141t-198.5 -73q-69 0 -127 43q0 -42 -8 -114t-26.5 -165t-44 -173t-65.5 -135.5t-86 -55.5q-168 0 -252 587q-1 11 -2 15q-5 33 -18 111t-18 120q-3 -22 -28.5 -242t-50.5 -374.5t-50 -213.5q-25 -56 -75 -98q-16 34 -30.5 75.5t-21.5 66
t-21 80t-18 72.5q-28 101 -58 233q-30 128 -72.5 376.5t-68.5 364.5q-6 25 -25.5 100.5t-30 130t-10.5 101.5q0 5 6 8l7 -1l2 -4l-3 -9q83 -290 158 -657q67 -326 88 -406q8 -31 30 -108t32 -119q5 -19 14.5 -60.5t18 -73t17.5 -58.5q35 46 95 570t63 637l68 -1
q4 -101 20.5 -260.5t45 -360.5t77 -354t105.5 -179h12q38 19 70 101.5t51 195.5t29 191.5t16 146.5q-59 81 -89 221.5t-30 264.5q0 27 0.5 50t3 70.5t9 84t16.5 74t28 58.5t41 21q27 0 48 -69t31.5 -164.5t15.5 -170.5t5 -112q0 -130 -17 -349q54 -54 129 -54q38 0 75 10.5
t79.5 35.5t65.5 40t72 53t60 46zM845 435q0 -107 19 -223.5t59 -196.5q14 176 14 265q0 145 -16 283q-3 27 -15 78.5t-15 75.5l-4 5l-9 -9q-11 -33 -22 -132t-11 -146z" />
    <glyph glyph-name="X_swsh" unicode="&#xe039;" horiz-adv-x="691" 
d="M731 839l-21 -27l-42.5 -56t-25.5 -34q-46 -66 -122.5 -194l-97.5 -161l-230 -352q49 -186 93 -272q72 -138 165 -138q30 0 56 14t45 41t33.5 53t26 65t17.5 61.5t13 55.5l10 38t16 58t20.5 58.5t17.5 23.5q6 0 6 -24q0 -26 -2 -52.5t-7.5 -60.5l-8.5 -51.5t-11.5 -59.5
t-10.5 -51q-18 -92 -78 -164t-146 -72q-200 0 -305 401q-160 -244 -238 -409l-55 -115q-27 -54 -31 -54q-1 0 -1 5q0 68 62.5 212t125.5 257t114 193q-53 194 -98 437t-45 394q0 25 5 32q4 -1 9.5 -19t12 -46.5l12 -54.5l10.5 -51.5t6 -28.5q42 -208 137 -588q2 4 46 72
l79.5 121.5l93 139l104 149.5l95 126.5t84.5 96t54 33.5q5 0 7 -2z" />
    <glyph glyph-name="Y_swsh" unicode="&#xe040;" horiz-adv-x="1404" 
d="M698 -275q143 135 348 229t386 94q19 0 35 -3q-1 -9 -63 -18q-193 -35 -371 -123q-176 -87 -334 -250q-2 -109 -16 -207q-8 -50 -27 -116t-49.5 -139.5t-77 -123.5t-96.5 -50q-59 0 -93 45.5t-34 106.5q0 40 26 97t58.5 105t85.5 112.5t81.5 95.5l72.5 79v17q0 55 -3 110
t-10.5 123t-12 105t-17 122.5t-15.5 108.5q-134 -280 -351 -280q-9 0 -35 13q-181 94 -181 434q0 69 6 103q3 -7 7 -43.5t7 -79.5t4 -50q26 -227 130 -303q43 -31 63 -34q54 3 101.5 25.5t81 54t64 79t49.5 88.5t40 95q-25 195 -25 330v12q0 26 0.5 42t2 47.5t7.5 52
t15 42.5t24.5 33.5t36.5 11.5q57 0 85 -42t28 -102q0 -132 -109 -407q7 -53 22.5 -156.5l24.5 -167.5t17.5 -153t10.5 -165zM597 729q0 -101 12 -235q62 193 62 274q0 86 -48 86q-13 0 -19.5 -48t-6.5 -77zM428 -917q36 0 71 49.5t59.5 119t40.5 129.5t20 95q6 49 9 100
q-14 -19 -68.5 -84.5l-90 -111.5t-68 -107t-32.5 -102q0 -31 15.5 -59.5t43.5 -28.5z" />
    <glyph glyph-name="Z_swsh" unicode="&#xe041;" horiz-adv-x="582" 
d="M742 999q0 -6 -7 -20l-1 -1q-3 -38 -52 -81.5t-102 -71t-95 -41.5q-43 -95 -82 -194.5t-94.5 -254.5l-71.5 -198q-73 -197 -101 -256l-1 -2l3 -2q24 -18 65 -57.5l54 -51.5q90 -77 152 -87q18 -2 27 -2q76 0 117.5 65.5t41.5 145.5q0 21 -3 45.5t-6.5 40.5t-10.5 45
l-10 42l-3 4q0 1 2 1t2.5 0.5t0.5 2.5q56 -98 56 -213q0 -90 -55.5 -157.5t-143.5 -67.5q-44 0 -91.5 22t-77 45t-79 66.5l-67.5 58.5q-25 -47 -55.5 -90.5t-71.5 -87.5t-90.5 -70.5t-98.5 -26.5q-59 0 -94.5 39.5t-35.5 99.5q0 108 91 177t202 69q62 0 120 -23
q50 112 160.5 406t186.5 447q-87 -20 -147 -20q-62 0 -120 17.5t-103.5 62t-45.5 108.5q0 27 7 51v-2q7 36 32 71.5t55 35.5q5 0 8 -5q-3 -9 -16 -24.5t-23 -40.5t-10 -65q0 -51 37 -84t82.5 -44.5t95.5 -11.5q87 0 189 29q18 33 39 62.5t50 62.5t63 53t67 20q59 0 59 -42z
M-208 -381q38 0 78.5 24.5t74.5 64.5t58.5 76t45.5 74q-42 14 -85 14q-84 0 -159 -49t-75 -129q0 -33 15 -54t47 -21zM525 862q37 11 73.5 30t60.5 35.5t64 46.5q0 4 1 10t1 9q0 7 -3 13l-15 10q-8 2 -13 2q-80 0 -169 -156z" />
    <glyph glyph-name="b_ss1" unicode="&#xe042;" horiz-adv-x="354" 
d="M327 105q154 41 590 68q157 10 330 10q240 0 271 -14q4 0 4 -3q0 -2 -6 -3.5l-12.5 -3t-7.5 -1.5q-36 -5 -108 -9q-90 -6 -258 -13.5t-208 -9.5q-593 -35 -610 -51q-2 -2 -25.5 -28t-41.5 -39.5t-33 -13.5q-10 0 -19 7q9 15 38 42t50.5 52.5t21.5 45.5q0 9 -29 9
q-34 0 -70 -24t-59 -52l-44 -52t-30 -24q-25 0 -42.5 45.5t-23 89.5t-5.5 73q0 54 17.5 152t44.5 110l4 -5q-1 -29 -11.5 -108t-10.5 -124q0 -70 28 -163q93 125 210 125q21 0 40.5 -13t19.5 -33q0 -22 -15 -42z" />
    <glyph glyph-name="c_ss1" unicode="&#xe043;" horiz-adv-x="230" 
d="M1 78q0 26 8.5 59.5t23 66t39 54.5t53.5 22q17 0 28.5 -9.5t11.5 -26.5q0 -13 -10.5 -38t-21.5 -27l-4 6q0 9 4 26.5t4 26.5l-3 8h-3q-34 0 -58 -61t-24 -102q0 -21 2 -33.5t13 -23.5t31 -11q27 0 69 33t74.5 66t34.5 33q278 -2 416 -2q63 0 187.5 12.5t185.5 12.5
q11 0 38 -5.5t30 -10.5q-16 -17 -225 -26t-320 -9q-196 0 -313 9q-22 -51 -81 -105t-108 -54q-41 0 -61.5 32.5t-20.5 76.5z" />
    <glyph glyph-name="d_ss1" unicode="&#xe044;" horiz-adv-x="354" 
d="M238 444zM1382 217q-112 -13 -238.5 -37.5t-307.5 -66.5t-237 -54l-84 -20.5t-117.5 -26.5t-83.5 -10q-40 0 -70 26t-43 66q-5 -6 -25 -34t-29.5 -39t-31 -23.5t-44.5 -12.5q-33 0 -50 27.5t-17 61.5q0 74 46 124.5t119 50.5l18 -1q1 9 0 23.5t0 33l2 37.5t4.5 37.5
t8.5 32.5t14.5 23t21.5 9q10 0 24 -10q10 -17 10 -34q0 -34 -6.5 -95t-15.5 -81q19 -13 36 -35.5t17 -42.5q0 -4 -2 -10q-7 8 -17 21.5t-19 23.5t-21 18l-15 -46q9 -124 95 -124q30 0 77 10t107 27t77 21q9 2 163.5 39.5t222 52t181 33t182.5 18.5q42 0 48 -13zM235 410h1
h-1zM67 32q31 4 75.5 62t44.5 91v32q-60 0 -99 -36.5t-39 -96.5q0 -40 18 -52z" />
    <glyph glyph-name="e_ss1" unicode="&#xe045;" horiz-adv-x="283" 
d="M235 32q173 0 393.5 29.5t475 72.5t398.5 59q-4 -9 -29.5 -20t-69 -22t-93.5 -21.5t-114.5 -21.5l-118.5 -20t-119 -18.5t-103 -14.5t-83 -11.5t-48 -6.5q-283 -39 -505 -39q-187 0 -187 148q-76 21 -115 66l23 -13v1q18 -6 52.5 -13t43.5 -9q35 108 136 108
q23 0 41 -16.5t18 -39.5q0 -44 -38 -70t-84 -26q-10 0 -28 2q0 -56 46 -80t108 -24zM163 236q-52 0 -76 -62h16q26 0 53 15t27 39l-1 4q-8 4 -19 4z" />
    <glyph glyph-name="f_ss1" unicode="&#xe046;" horiz-adv-x="287" 
d="M94 117q45 6 96 10t115 7t96 5q30 2 104 7.5t128.5 8.5t104.5 3q61 0 184.5 6.5t185.5 6.5q60 0 68 -5q-163 -21 -211 -25l-570 -49q-30 -2 -92.5 -8.5t-111.5 -10.5t-93 -4q3 -28 18.5 -111t15.5 -129l-1 -12q-19 5 -46 102t-36 150q-81 7 -81 18q0 9 28.5 15.5
t47.5 8.5q-18 277 125 277q30 0 66 -18l6 -8l-10 -5q-40 0 -66.5 -8t-41 -20t-22 -37.5t-9 -48t-1.5 -64.5q0 -9 0.5 -19.5t1.5 -23t1 -19.5z" />
    <glyph glyph-name="g_ss1" unicode="&#xe047;" horiz-adv-x="479" 
d="M1564 361q-23 -33 -79 -54t-108 -28t-125 -13.5t-98 -10.5t-145.5 -22l-238.5 -37l-248.5 -40.5t-220 -41t-106.5 -31.5q286 -48 286 -201q0 -50 -46 -89t-102 -56.5t-104 -17.5q-40 0 -75 5t-73 18.5t-60.5 42.5t-22.5 71q0 101 118 195q-57 16 -83 52q-63 -3 -81 23
q39 -7 70 -4q-13 29 -13 57q0 51 39 82.5t91 31.5q35 0 62 -22.5t27 -57.5q0 -41 -41.5 -66.5t-92.5 -36.5q24 -14 65 -20q47 20 101.5 38.5t121.5 35.5l120.5 30t136.5 28l128.5 23.5t138.5 22.5l124.5 18.5l128 18l110.5 15.5q30 4 92.5 11t111 14t91.5 16zM70 131
q38 8 80 29.5t42 49.5q0 20 -14 31.5t-35 11.5q-36 0 -62.5 -20.5t-26.5 -55.5q0 -25 16 -46zM431 -117q0 37 -31 67.5t-80.5 48.5t-90 28t-78.5 15l-18.5 -18l-20.5 -20t-18 -19.5t-18 -22.5l-14 -21.5t-13 -24.5t-7 -25t-3 -28q0 -96 176 -96q35 0 83 12t90.5 40t42.5 64z
" />
    <glyph glyph-name="h_ss1" unicode="&#xe048;" horiz-adv-x="362" 
d="M288 67q280 0 587.5 75.5t577.5 201.5q-1 -45 -106 -94t-258.5 -87.5t-319.5 -70.5t-297.5 -49.5t-183.5 -17.5q-48 0 -80.5 33.5t-32.5 81.5q0 29 10 55q-18 -19 -75.5 -109.5t-69.5 -118.5l-8 4l-1 5q-14 22 -21 52.5t-8 49.5t-1 57q0 42 5 106.5t23.5 137.5t46.5 74
l4 -5q-1 -29 -10 -81.5t-11 -71.5t-5 -103t-12 -129q22 50 71 110t89 60q13 0 15.5 -26t1 -57t15 -57t54.5 -26z" />
    <glyph glyph-name="i_ss1" unicode="&#xe049;" horiz-adv-x="241" 
d="M63 216q12 -11 14.5 -41t1 -58t8.5 -50t36 -22q127 0 534.5 151t514.5 234q3 -9 3 -11q0 -32 -146.5 -103.5t-332.5 -140t-363 -121.5t-233 -53q-68 0 -68 104q0 16 3.5 33.5t9.5 38.5t8 33zM112 357q-19 0 -19 24q0 22 19 43.5t41 21.5q7 0 19 -5l2 -14q-20 -45 -62 -70
z" />
    <glyph glyph-name="j_ss1" unicode="&#xe050;" horiz-adv-x="233" 
d="M95 284q-13 0 -16 5t-3 19q0 22 18.5 43.5t40.5 21.5q10 0 20 -5l2 -14q-17 -41 -62 -70zM143 58q143 28 417 28q103 0 213.5 -7t254 -25t259.5 -59t168 -101q-12 1 -39 12.5l-60 26.5t-42 18q-111 41 -234 64q-223 42 -519 42q-248 0 -426 -33q-9 -36 -21.5 -72.5
t-33 -80.5t-50.5 -71.5t-64 -27.5q-40 0 -65.5 18t-25.5 57q0 41 20 74.5t56.5 57.5t69 38.5t74.5 28.5q29 87 29 109q0 13 -20 20t-53 10l-33 3q-1 0 -4 7q22 10 77 10q68 0 68 -57q0 -14 -2.5 -28.5t-7 -34t-6.5 -27.5zM-49 -178q26 0 48 18.5t39 53t25.5 55.5t18.5 54
q-62 -25 -110 -64.5t-48 -90.5q0 -2 3 -14l7 -7q15 -5 17 -5z" />
    <glyph glyph-name="k_ss1" unicode="&#xe051;" horiz-adv-x="331" 
d="M129 89q124 -28 373 -28q292 0 660 37q21 2 157 20.5t194 18.5h3q-1 -6 -22 -15t-33 -12q-275 -92 -942 -92h-47.5h-51.5t-48 0.5t-52.5 1t-48 2.5t-51.5 4t-47 5.5t-49 8.5q-5 -55 -18 -72q-9 7 -18 82q-86 21 -87 58l3 4q6 41 78 83q0 135 16 192h1h13l1 -1
q17 -46 19 -166q64 27 103 27q61 0 64 -27l-9 -5q-45 6 -158 -50q0 -39 -3 -76zM21 106q42 -8 64 -10q-2 32 -2 48q-5 -2 -16 -7.5l-17.5 -9t-14.5 -9.5t-14 -12z" />
    <glyph glyph-name="l_ss1" unicode="&#xe052;" horiz-adv-x="314" 
d="M1369 359q10 -7 10 -14q0 -37 -189 -125q-165 -76 -476.5 -165.5t-458.5 -89.5q-142 0 -202 65q-66 -22 -123 -22q-26 0 -33 13q21 7 67.5 17.5t69.5 18.5q-30 46 -30 110q0 45 22 106t65 110.5t90 49.5q41 0 66 -25.5t25 -65.5q0 -87 -51 -173t-128 -123q46 -47 128 -47
q75 0 351 72t531.5 161t265.5 127zM50 159q0 -47 22 -84q67 39 109 113.5t42 151.5q0 20 -11 31.5t-31 11.5q-31 0 -63 -44.5t-50 -96.5t-18 -83z" />
    <glyph glyph-name="m_ss1" unicode="&#xe053;" horiz-adv-x="614" 
d="M430 82q54 0 202.5 40.5t253.5 75.5q252 82 442 82q28 0 31 -6q-5 -4 -45.5 -11.5t-88 -15t-48.5 -7.5q-131 -22 -316 -79l-123.5 -41.5t-195.5 -62t-115 -24.5q-46 0 -77 26t-40 71q-50 -83 -101 -85l-3 -2q-19 0 -29.5 16t-12.5 37q-1 -1 -7.5 -13t-10 -17.5
l-11.5 -18.5t-13.5 -21l-13.5 -19.5t-15.5 -18.5l-15 -13.5t-15.5 -10t-15 -3.5h-1l-10 4q-31 46 -31 105q0 96 36 144l14 -3q5 -17 5 -44q0 -33 -4.5 -95.5t-5.5 -73.5q18 26 34 60l11 -4l-8 9q35 68 89 122l17 23l13 -4q8 -15 8 -43q0 -14 -3 -41.5t-3 -40.5v-3
q46 66 102 126q6 33 19 37l5 -8q2 -11 5 -32.5t5 -34.5t8.5 -30.5t15 -27.5t24.5 -17t38 -7z" />
    <glyph glyph-name="n_ss1" unicode="&#xe054;" horiz-adv-x="276" 
d="M167 209q34 0 56.5 -36.5t40 -93.5t25.5 -71q9 -16 53 -25.5t71 -9.5q23 0 69 6l310 47t344 51l77.5 13t86 14t78 9.5t82.5 4.5q14 0 14 -3q0 -1 -3 -4q-11 -10 -231.5 -47t-332.5 -53q-35 -5 -153.5 -26t-197.5 -30t-155 -9q-112 0 -134 38q-7 3 -42.5 80.5t-49.5 92.5
l-7 2q-24 -7 -50 -44t-46.5 -75.5t-28.5 -44.5q-12 10 -16 76.5t-17 85.5q-13 5 -24 5q-22 0 -37 -8h-3l-10 5q1 21 23.5 33.5t44.5 12.5q31 0 47.5 -22.5t19.5 -56.5q47 83 96 83z" />
    <glyph glyph-name="o_ss1" unicode="&#xe055;" horiz-adv-x="410" 
d="M356 178q104 0 311 3.5t311 3.5q561 0 597 -31q-118 -5 -237.5 -8.5t-269.5 -4.5l-228 -1.5t-269 0t-238 0.5l-20 1q-7 -60 -50.5 -100t-103.5 -40q-49 0 -81.5 32.5t-32.5 81.5q0 47 32 89q-93 -5 -121 22l1 7q26 6 80 9.5t81 10.5q34 36 58 36q13 0 22.5 -9.5
t9.5 -22.5q0 -16 -13.5 -29t-30.5 -13l-1 4l1 -3v-1q-24 1 -47 -34.5t-23 -61.5q0 -25 19 -52t44 -27q55 0 76.5 26t39.5 86q-23 8 -44.5 26.5t-24.5 39.5l8 22h1q11 16 29 16q30 0 50.5 -21t20.5 -51q17 -6 43 -6zM241 220l-2 1q1 0 1 -0.5t1 -0.5z" />
    <glyph glyph-name="p_ss1" unicode="&#xe056;" horiz-adv-x="334" 
d="M51 112q0 -128 14 -207q2 -13 8 -40.5t9 -48.5t3 -41q0 -2 -2 -9t-2 -8q-39 29 -57 117t-18 162q0 38 11 90.5t34 52.5h5l2 -6q-1 0 -1 -4q-6 -40 -6 -58zM284 202q72 15 235 15q242 0 492.5 -34.5t445.5 -107.5q-571 105 -967 105q-161 0 -206 -12q-5 -62 -46.5 -104.5
t-102.5 -42.5q-27 0 -45.5 13.5t-18.5 39.5q0 31 31 58t66.5 41t67.5 19q0 40 -28 62t-69 22q-37 0 -59.5 -9.5t-46 -26.5t-46.5 -26l-5 1q1 37 64.5 69t106.5 32q52 0 88.5 -31t42.5 -83zM135 71q34 0 61 23t35 57q-101 -37 -113 -73l1 -5l3 -2h13z" />
    <glyph glyph-name="q_ss1" unicode="&#xe057;" horiz-adv-x="361" 
d="M173 48q4 -25 17 -41t34.5 -23t41 -9.5t45.5 -2.5q60 0 138.5 9t140 19t163 32t146.5 32.5l155.5 38l129.5 32.5l70 19t88 23t71 14q-12 -30 -333 -111t-453 -106q-203 -37 -316 -37q-153 0 -177 82q-28 -16 -53 -16q-34 0 -54.5 21.5t-20.5 55.5q0 64 49.5 125.5
t112.5 61.5q45 0 76.5 -28t31.5 -73q0 -39 -29 -71l-13 -6l-6 4q23 40 23 61q0 32 -20.5 52.5t-52.5 20.5q-48 0 -85.5 -49t-37.5 -98q0 -27 27 -27q21 0 45 22v5q0 21 1 34t4.5 33.5t14 31t27.5 10.5q20 0 30.5 -17t10.5 -38q0 -48 -42 -86z" />
    <glyph glyph-name="r_ss1" unicode="&#xe058;" horiz-adv-x="389" 
d="M292 -7q57 0 121.5 3t143.5 8t121 7q43 2 229 12t264 13.5t217 7.5t252 4q91 0 101 -6q-39 -5 -80.5 -8.5t-102.5 -6t-81 -3.5l-442 -25l-505 -27q-12 -1 -104.5 -7t-140.5 -6q-26 0 -46 11.5t-20 36.5q0 14 13.5 49t23.5 44q-56 5 -96 31q-37 -48 -99.5 -89t-114.5 -41
q-30 0 -40 14l6 4q57 0 122.5 47.5t96.5 102.5q-6 13 -6 28q0 53 37 62q36 -5 36 -44q0 -17 -11 -41q27 -25 88 -25h16q22 30 47 30q14 0 27 -15v-1l6 -15q1 -23 -15.5 -33.5t-42.5 -13.5q-55 -71 -55 -95q0 -13 34 -13z" />
    <glyph glyph-name="s_ss1" unicode="&#xe059;" horiz-adv-x="292" 
d="M143 91q152 72 362 114t391 42h13.5h15.5t15.5 -0.5t17.5 -1t16.5 -2t16.5 -3.5l14.5 -5t14 -7t10.5 -9.5t8 -11.5q-60 6 -150 6q-385 0 -726 -144q16 -19 16 -48q0 -30 -22.5 -51t-52.5 -21q-27 0 -46 15t-19 41q0 5 1 9.5t4 9t5 8t7.5 7.5t8 6.5t9 6.5t8 5l8.5 5.5
t8 4.5q-10 10 -32 28.5t-33.5 30t-21.5 32t-10 45.5q0 45 32 78t77 33q28 0 45 -9t38 -31q1 -3 7.5 -15.5t10 -22t3.5 -15.5q0 -2 -3 -11q-6 1 -15.5 18t-27.5 33.5t-45 16.5q-32 0 -54 -19.5t-22 -51.5q0 -25 15.5 -44.5t44 -40.5t37.5 -31zM104 -2q10 0 17 7t7 17
q0 8 -7 19q-30 -22 -36 -38l2 -2q7 -3 17 -3z" />
    <glyph glyph-name="t_ss1" unicode="&#xe060;" horiz-adv-x="332" 
d="M159 176q139 25 589 31q130 2 196 2q359 0 386 -35q-571 -4 -810 -18q-189 -10 -354 -29q24 -78 24 -154q0 -37 -10 -53l-6 8l-11 -4q-20 13 -48.5 54t-58.5 91.5t-44 68.5l-10 5q9 20 107 28q-22 151 -22 270l5 8q7 -1 13 -9t11.5 -23t10 -31.5t8.5 -38.5l7.5 -41t6 -42
t4.5 -37t4 -31t2 -20zM65 127q51 -40 88 -124q-1 5 -15.5 51.5t-20.5 70.5q-18 0 -52 2z" />
    <glyph glyph-name="u_ss1" unicode="&#xe061;" horiz-adv-x="371" 
d="M210 182q0 -60 3 -88t20 -43.5t39.5 -17t73.5 -0.5q35 1 55 1q603 0 1163 94q-11 -40 -297.5 -71.5t-558.5 -44t-398 -12.5h-15h-16.5t-15 0.5t-16 1.5t-15 2t-15.5 4t-13.5 6t-13.5 8t-11 11q-50 -61 -108 -61q-38 0 -54 29t-16 70q0 30 13.5 83.5t32.5 54.5l7 -9
q0 -20 -3 -61t-3 -61q0 -44 22 -57q9 0 18.5 2t16 4.5t18 8.5l15.5 8t16.5 10.5t14.5 9.5q-6 29 2.5 77.5t26.5 67.5l9 1q3 -9 3 -28z" />
    <glyph glyph-name="v_ss1" unicode="&#xe062;" horiz-adv-x="433" 
d="M255 234q9 -4 33.5 -7t61.5 -3.5t64 -1t65 0t41 0.5q19 1 20 1l68 1l227 7q592 17 660 42l5 -9q-5 -35 -281 -52q-427 -32 -927 -32q-27 0 -49 7q-19 -56 -72 -123t-101 -81l-13 1q-23 15 -39.5 76.5t-16.5 99.5q0 13 4.5 34.5t12.5 21.5q16 0 32.5 -81t16.5 -113l-1 -22
q31 19 76.5 95.5t57.5 120.5l-2 1q-16 25 -16 57q0 16 9 30.5t25 14.5q20 0 32 -12t12 -32q0 -24 -5 -42z" />
    <glyph glyph-name="w_ss1" unicode="&#xe063;" horiz-adv-x="501" 
d="M346 199q133 0 399.5 2.5t400.5 2.5q510 0 520 -13q-92 -3 -324 -10l-356 -10.5t-312.5 -7t-345.5 -3.5q39 -70 39 -124q0 -36 -29 -56t-66 -20q-55 0 -86 27q-20 -31 -51.5 -59t-58.5 -28q-36 0 -52.5 33.5t-16.5 73.5t10.5 95t28.5 77l6 -2l1 -3q-8 -61 -8 -115
q0 -113 30 -113q22 0 80 85q-11 27 -11 47q0 23 13.5 45.5t34.5 22.5q17 0 26 -15t9 -33q0 -36 -17 -70q9 -12 29.5 -19.5t38.5 -7.5q29 0 43.5 12.5t14.5 41.5q0 45 -20 105l-6 7q3 32 36 32z" />
    <glyph glyph-name="x_ss1" unicode="&#xe064;" horiz-adv-x="407" 
d="M293 278q224 0 647 9.5t498 10.5q-17 -18 -501.5 -37t-678.5 -19h-2q-10 -34 -31 -65.5t-38.5 -49.5t-52.5 -50q19 -24 93 -88l-13 -6q-62 0 -117 64q-21 -18 -55.5 -38.5t-53.5 -20.5h-3l28 26.5l33.5 32l29.5 26.5q-54 66 -54 157q0 38 12 43q9 -5 37.5 -77t39.5 -87
q2 3 12 13.5t13 14l11.5 13.5t11.5 14.5t10.5 14t10.5 15l8.5 15t8.5 17l6.5 16.5t5.5 18q-31 18 -31 53q0 24 18 36q1 0 4 1.5t5.5 2.5t3.5 1q27 0 39.5 -22t12.5 -52q22 -2 32 -2z" />
    <glyph glyph-name="y_ss1" unicode="&#xe065;" horiz-adv-x="288" 
d="M267 167q0 -75 -7.5 -224.5t-7.5 -223.5q2 39 15 71t31.5 55t49 40.5t58.5 29t68.5 19t72 11t76 5t72 1t69.5 -1t60 -0.5q271 0 527 -19q76 -6 114 -10l32 -4q6 0 6 -1l-7 -1q-7 -1 -14.5 -2.5t-8.5 -1.5q-37 -3 -111 -3q-116 0 -348 7.5t-347 7.5q-106 0 -147 -6
q-148 -22 -214 -120q-24 -36 -42 -97q-8 -30 -12 -30t-4 4q-19 3 -29 64t-10 100q0 131 21 315q-30 -34 -84 -67t-91 -33q-39 0 -60 27.5t-21 67.5q0 26 13 53.5t36 28.5l4 -11q-13 -21 -13 -52q0 -21 8.5 -42t27.5 -21q48 0 190 89q5 25 16 30l6 -7q5 -20 5 -48z" />
    <glyph glyph-name="z_ss1" unicode="&#xe066;" horiz-adv-x="350" 
d="M1585 53q-1 -17 -38 -31t-94 -23t-90 -13.5t-61 -6.5q-363 -38 -893 -38q-186 0 -375 28q-34 -25 -58 -25q-5 0 -13 2q-7 -5 -13.5 3t-6.5 16q0 15 9 25t28.5 14.5t28 5.5t28.5 2q24 22 57 71t48 66q-39 0 -90.5 11t-66.5 32l8 5q15 0 43 -3t43 -3q53 0 106 3
q44 48 83 48q22 0 35 -15l6 -17q-1 -47 -96 -58q-20 -20 -63.5 -69.5t-68.5 -73.5q24 -4 73.5 -14t86 -14.5t79.5 -4.5q15 0 154.5 -0.5t191.5 0t184.5 2.5t209 7.5l183.5 13.5t190 22t152 32zM-35 -50q21 11 34 22h-8q-7 0 -17 -2l-6 -4l-1 1l-5 -10z" />
    <glyph glyph-name="c_ss2" unicode="&#xe067;" horiz-adv-x="230" 
d="M1 78q0 -43 20.5 -76t61.5 -33q51 0 122.5 67.5t71.5 116.5v4q-2 0 -35.5 -36t-77 -71t-70.5 -35q-20 0 -30.5 11t-12.5 23.5t-2 33.5q0 48 12 77l19.5 6.5t24 8.5t21.5 10t21 13.5t13 17t6 21.5q0 43 -41 43q-51 0 -98 -86q-41 6 -72.5 36t-43.5 72l-7 -15v-8
q0 -38 35 -70.5t75 -43.5q-13 -40 -13 -87zM134 246l2 -5q-1 -15 -22.5 -31t-37.5 -18q34 54 55 54h3zM-89 304l1 -1l-1 -1v2z" />
    <glyph glyph-name="d_ss2" unicode="&#xe068;" horiz-adv-x="316" 
d="M237 -41q25 0 47.5 32t39.5 64t27 32q5 0 5 -10q0 -39 -40 -88.5t-79 -49.5q-16 0 -25.5 11.5t-12.5 32t-4 37t0.5 40t1.5 27.5q-17 -37 -53 -69.5t-72 -32.5q-33 0 -50 27t-17 62q0 74 46 124.5t119 50.5l18 -1v21t0.5 30t1.5 33t3 35t5.5 30t8.5 25.5t12 15.5
q18 6 20 6q10 0 24 -10q10 -16 10 -35q0 -30 -7 -94t-15 -81q19 -13 36 -36t17 -42q0 -6 -2 -10q-4 0 -12 15q-16 29 -42 46q-18 -151 -18 -201q0 -31 5 -37h2zM188 185v32h-7q-57 0 -94 -38t-37 -95q0 -41 18 -52q32 3 76 62t44 91z" />
    <glyph glyph-name="e_ss2" unicode="&#xe069;" horiz-adv-x="283" 
d="M163 39q41 0 70 21t41 46.5t28.5 65t28.5 59.5q8 -17 8 -42q0 -59 -50.5 -124.5t-106.5 -65.5q-63 0 -106.5 40t-43.5 102v5q-23 6 -54.5 19.5t-42.5 25.5l3 10l2 -2v1q18 -6 52 -12.5t44 -9.5q35 108 136 108q24 0 41.5 -17t17.5 -41q0 -44 -39.5 -69t-85.5 -25
q-9 0 -25 2q0 -34 24.5 -65.5t57.5 -31.5zM163 236q-52 0 -76 -62h16q26 0 53 15t27 39l-1 4q-6 4 -19 4z" />
    <glyph glyph-name="f_ss2" unicode="&#xe070;" horiz-adv-x="287" 
d="M411 125q22 0 22 -3q0 -4 -57 -25q-26 -8 -131.5 -18t-146.5 -10q3 -26 18.5 -111.5t15.5 -128.5q0 -8 -1 -12q-19 3 -47 103t-35 149q-81 8 -81 18q0 9 28.5 15.5t47.5 8.5q-18 277 125 277q36 0 66 -37.5t30 -74.5q0 -5 -4 -5q-5 0 -21 19.5t-37.5 39t-41.5 19.5
q-23 0 -38 -19t-21.5 -50t-8.5 -54t-2 -47q0 -9 0.5 -19.5t1.5 -23t1 -19.5q7 1 21.5 -0.5t18.5 -1.5q46 0 138 5t139 5z" />
    <glyph glyph-name="g_ss2" unicode="&#xe071;" horiz-adv-x="479" 
d="M576 338l1 -7q0 -17 -20 -32q-32 -23 -102.5 -55.5t-95.5 -47.5q-77 -46 -162 -113q36 -5 71 -13.5t75 -25.5t69.5 -38t49.5 -53.5t20 -70.5q0 -48 -44.5 -87.5t-100 -57.5t-102.5 -18q-235 0 -235 140q0 39 19.5 77t40 60t57.5 55l-1 1q-56 8 -83 47t-27 98t37 95.5
t96 36.5q43 0 89.5 -32t46.5 -73q0 -29 -16 -63l58.5 38.5t68 39.5l58 31.5l70 36zM138 297q-42 0 -63.5 -30.5t-21.5 -73.5q0 -49 27.5 -70.5t79.5 -32.5q6 6 7 5q28 20 50.5 61t22.5 73q0 30 -34.5 49t-67.5 19zM432 -117q0 98 -215 146q-17 3 -45 9q-13 3 -19 4
q-112 -97 -112 -182q0 -26 14.5 -45t33.5 -28t50 -14t50 -6t47 -1q31 0 75.5 14t82.5 42.5t38 60.5z" />
    <glyph glyph-name="h_ss2" unicode="&#xe072;" horiz-adv-x="362" 
d="M405 108q9 0 9 -7q0 -20 -51.5 -48.5t-75.5 -28.5q-48 0 -80.5 33.5t-32.5 81.5q0 29 10 55q-26 -26 -78 -118t-63 -103q0 -8 -3 -8q-1 0 -2.5 1t-3.5 2.5t-3 1.5l-1 5q-30 45 -30 159q0 82 3 108q-64 -35 -93 -35q-16 0 -29 3q68 23 126 59q8 47 18.5 92t30.5 107
t52 100t71 38q41 0 41 -60q0 -74 -49 -154t-115 -121q-1 -19 -2.5 -65t-4 -80t-8.5 -64q25 55 69.5 109t90.5 61q6 11 13 14q4 -1 4 -15q0 -5 -0.5 -29.5t-0.5 -36.5t3.5 -33t11 -31.5t21.5 -19.5t35 -9q23 0 64.5 18t52.5 18zM187 582q-25 0 -49.5 -35t-40 -84.5
t-25.5 -91.5t-13 -66q61 47 101.5 115t40.5 138q0 24 -14 24z" />
    <glyph glyph-name="i_ss2" unicode="&#xe073;" horiz-adv-x="104" 
d="M89 3l-10 -1q-68 0 -68 104q0 22 9.5 58.5t11.5 46.5q5 6 10 6q13 0 13 -63q0 -45 16 -87.5t18 -63.5zM91 358h-4q-15 0 -15 24q0 22 19.5 43.5t40.5 21.5q9 0 19 -5l2 -14q-8 -19 -26.5 -39t-35.5 -31z" />
    <glyph glyph-name="j_ss2" unicode="&#xe074;" horiz-adv-x="195" 
d="M62 312h-4q-15 0 -15 23q0 22 18.5 43.5t40.5 21.5q10 0 20 -5l2 -13q-6 -17 -25.5 -37.5t-36.5 -32.5zM227 15q-11 -11 -86 -38q-20 -201 -93 -201q-25 0 -37 22t-12 48q0 52 25 85.5t74 56.5q5 83 5 98q0 28 -1.5 44.5t-7.5 42t-22 38.5t-41 13q-37 0 -39 1
q1 10 20.5 14.5t34.5 4.5q27 0 46 -14.5t28.5 -33.5t15 -49t6.5 -49.5t1 -46.5q0 -40 -1 -48q43 13 69 13q10 0 15 -1zM49 -179q23 0 44 129q-52 -34 -52 -96q0 -20 5 -31l2 -2h1z" />
    <glyph glyph-name="k_ss2" unicode="&#xe075;" horiz-adv-x="331" 
d="M129 89q1 0 11.5 -2t22 -5t14.5 -3q3 -1 24.5 -4t46.5 -7l50.5 -8.5t43.5 -8t19 -5.5q-1 -12 -42.5 -19t-64.5 -7q-32 0 -130 20q-8 -63 -18 -72q-9 1 -18 82q-87 23 -87 58l3 4q6 42 78 83q0 143 15 323q2 26 7.5 77.5t7.5 76.5q0 3 2 3q15 0 22.5 -30.5t7.5 -51.5
q2 -64 -5 -184.5t-7 -173.5v-15q63 27 103 27q64 0 64 -27q0 -5 -9 -5q-20 4 -72 -14.5t-86 -35.5q0 -39 -3 -76zM21 106q42 -8 64 -10q-2 32 -2 48q-5 -2 -16 -7.5l-17.5 -9t-14.5 -9.5t-14 -12z" />
    <glyph glyph-name="l_ss2" unicode="&#xe076;" horiz-adv-x="253" 
d="M295 111q-8 -38 -73.5 -91.5t-104.5 -53.5q-31 0 -52.5 23.5t-28.5 56.5q-72 -38 -94 -38q-5 0 -9 2q0 3 44 34.5t53 36.5q-8 74 28 234t88 160q28 0 46 -35.5t23 -71t5 -65.5q0 -132 -145 -232q5 -21 8 -31t13.5 -21t27.5 -14q19 -3 52 18t70 51t49 37zM148 407
q-22 -34 -47 -136.5t-27 -153.5q95 90 95 181q0 22 -8.5 58.5t-9.5 51.5l-2 3q-1 0 -1 -4z" />
    <glyph glyph-name="m_ss2" unicode="&#xe077;" horiz-adv-x="614" 
d="M329 239q1 0 5 -8q42 -147 42 -213q0 -46 -23 -46h-3q-6 8 -14 40t-16 70.5t-10 47.5q-52 -83 -101 -85l-3 -2q-19 0 -29.5 16t-12.5 37q-48 -85 -77 -112q-21 -19 -40 -23h-1l-10 4q-31 45 -31 105q0 97 36 144l14 -3q5 -17 5 -44q0 -29 -10 -169q13 18 34 60l11 -4
l-8 9q70 121 106 145l13 -4q8 -14 8 -43q0 -14 -3 -41.5t-3 -40.5v-3q10 15 51.5 69.5t61.5 87.5q3 6 8 6z" />
    <glyph glyph-name="n_ss2" unicode="&#xe078;" horiz-adv-x="276" 
d="M272 2q0 -12 -5 -18q-5 0 -22 37.5l-38 81t-32 54.5l-7 2q-22 -5 -50 -44.5t-49 -78.5t-26 -41q-4 0 -7 9q-6 17 -10 76.5t-16 76.5q-13 5 -24 5q-25 0 -37 -8h-3q-10 0 -10 5q0 20 23.5 33t44.5 13q59 0 67 -79q47 83 96 83q35 0 60.5 -41t35 -86t9.5 -80z" />
    <glyph glyph-name="o_ss2" unicode="&#xe079;" horiz-adv-x="275" 
d="M139 301q27 0 80.5 1t80.5 1q18 0 26 -3q0 -1 -6 -3t-14 -4l-8 -2q-88 -20 -124 -18l18 -25t17.5 -26t12 -23t10 -29.5t2.5 -31.5q0 -51 -33.5 -95t-83.5 -44q-44 0 -79.5 32.5t-35.5 76.5q0 38 43 106t78 74q2 5 5 10l7 3h4zM113 48q38 0 58.5 25t20.5 64q0 74 -55 129
q-14 14 -13 17q-9 -20 -33.5 -50.5t-40 -59t-15.5 -59.5q0 -28 24.5 -47t53.5 -19z" />
    <glyph glyph-name="p_ss2" unicode="&#xe080;" horiz-adv-x="279" 
d="M338 141q-16 -3 -51.5 -6t-61 -9t-49.5 -20q-81 -103 -121 -103q2 -17 10 -70.5t13 -94.5t5 -68q0 -6 -3 -11q-4 0 -11 13q-23 53 -43 162.5t-20 174.5q0 121 38 157q7 16 37 31.5t48 15.5q44 0 68.5 -34t24.5 -80q0 -7 -7 -25.5t-12 -26.5q35 6 69 6q44 0 66 -12z
M132 265q-82 0 -82 -167l1 -41q39 34 70 51q53 72 53 99q0 21 -11.5 39.5t-30.5 18.5zM53 44h2h-2z" />
    <glyph glyph-name="q_ss2" unicode="&#xe081;" horiz-adv-x="361" 
d="M236 -19q42 0 110 34t86 36q-1 -23 -87.5 -64.5t-117.5 -41.5q-71 0 -93 74q-27 -16 -53 -16q-34 0 -54.5 21t-20.5 56q0 63 50 125t112 62q46 0 77 -28t31 -73q0 -39 -29 -71l-13 -6l-6 4q2 3 6.5 11.5t6.5 12t5 10.5t4 13.5t1 13.5q0 32 -20.5 52.5t-52.5 20.5
q-48 0 -85.5 -49t-37.5 -98q0 -17 12 -24q2 0 5 -1t5.5 -1.5t4.5 -0.5q21 0 45 22v5q0 20 1 33t4.5 33.5t14 31.5t27.5 11q20 0 30.5 -17t10.5 -38q0 -48 -42 -86q6 -36 17.5 -51.5t45.5 -15.5z" />
    <glyph glyph-name="s_ss2" unicode="&#xe082;" horiz-adv-x="435" 
d="M207 67q64 0 174 -20t156 -45l-5 -1q-51 0 -150.5 18.5t-149.5 18.5l-19 -1q10 -63 10 -116q0 -90 -48 -90q-38 0 -77 56t-39 96q0 35 29.5 57t67.5 26q-16 73 -43 121q-30 -30 -94.5 -83.5t-80.5 -53.5h-1l53 52l66 65.5t50 54.5q-4 62 29 78l16 -2q16 -12 20 -27
q0 -27 -16 -47q5 -29 25.5 -81t26.5 -76zM142 275v1v-1zM174 -77q0 48 -12 110q-56 -4 -56 -47q0 -18 20 -59.5t35 -41.5q13 0 13 38z" />
    <glyph glyph-name="t_ss2" unicode="&#xe083;" horiz-adv-x="272" 
d="M301 190q7 -9 7 -14q0 -4 -1 -7q-1 -1 -5 -2l-4 -1q-19 -2 -61.5 -2.5t-64.5 -3.5q-7 -1 -19.5 -3.5t-18.5 -3.5l1 -1q1 -8 13 -79.5t12 -110.5q0 -15 -5 -30l-7 -8q-4 -2 -7 -2q-11 0 -16 4q-8 10 -14.5 31.5t-10 51l-6 51.5t-4.5 54t-2 38q-44 0 -109 -9q-5 2 -5 7
q0 14 111 30l1 1q0 6 -1 28t-1.5 41.5t-0.5 47t1 49.5t3.5 43.5t7.5 35.5t12 19h8q14 -12 21.5 -69t7.5 -94q0 -51 -25 -89l1 -9q37 6 77 6h104zM116 243q4 16 4 36q0 40 -5 46z" />
    <glyph glyph-name="u_ss2" unicode="&#xe084;" horiz-adv-x="247" 
d="M244 -18l-7 -17l-8 -1q-8 0 -14.5 4t-11 8.5t-9 13.5t-6 14.5t-5 16t-4.5 12.5q-21 -25 -50 -43t-58 -18q-70 0 -70 100q0 29 14 83t33 54q6 0 6 -9q0 -20 -3 -60.5t-3 -61.5q0 -44 22 -57q9 0 18.5 2t16.5 4.5t17.5 8.5t15.5 8.5t16.5 10l14.5 9.5q-6 27 2.5 77t26.5 68
l9 1q6 -17 8.5 -102.5t28.5 -125.5z" />
    <glyph glyph-name="v_ss2" unicode="&#xe085;" horiz-adv-x="433" 
d="M305 225q32 0 96.5 9t95.5 9q10 0 14 -1q-1 -16 -94 -38.5t-125 -22.5q-27 0 -49 7q-18 -54 -72 -122.5t-101 -81.5l-13 1q-5 5 -7 6q-22 28 -35.5 78.5t-13.5 91.5q0 13 4.5 34.5t12.5 21.5q16 0 32.5 -80t16.5 -114l-1 -22q31 18 77.5 97t56.5 119l-2 1q-16 23 -16 57
q0 18 9 30.5t25 14.5q44 -2 44 -44q0 -26 -5 -42q17 -9 50 -9z" />
    <glyph glyph-name="w_ss2" unicode="&#xe086;" horiz-adv-x="501" 
d="M485 197q74 0 82 -16q0 -6 -18 -10.5t-44 -6.5t-43 -2.5t-26 -0.5l-108 -1q39 -69 39 -124q0 -36 -29 -56t-66 -20q-55 0 -86 27q-19 -30 -51 -58.5t-59 -28.5q-36 0 -52.5 33.5t-16.5 73.5q0 38 11 94.5t28 77.5l6 -2l1 -3q-8 -61 -8 -115q0 -113 30 -113q23 0 80 85
q-11 27 -11 47q0 23 13.5 45.5t35.5 22.5q5 0 19 -7q15 -15 15 -41q0 -36 -17 -70q8 -12 29.5 -19.5t38.5 -7.5q29 0 43.5 12.5t14.5 41.5q0 47 -20 105l-6 7q1 8 9.5 14t22.5 9.5t29 5t34 2t32.5 0.5t28.5 -0.5t19 -0.5z" />
    <glyph glyph-name="x_ss2" unicode="&#xe087;" horiz-adv-x="320" 
d="M216 72q8 -10 30.5 -31l42 -38t20.5 -19q0 -6 -13 -6q-62 0 -117 64q-22 -19 -57 -39t-53 -20h-2q0 2 41.5 40l49.5 45q-43 54 -52 127q-17 -27 -26 -40t-27.5 -33t-38.5 -29t-45 -9t-36 11q54 5 89.5 31.5t47.5 56l22 55t19 27.5q0 3 4 3t8 -6q12 -21 31 -76t39 -82
q2 2 36 44t59.5 70t33.5 28t14 -17q-15 -47 -43 -81t-77 -76z" />
    <glyph glyph-name="y_ss2" unicode="&#xe088;" horiz-adv-x="288" 
d="M266 39q0 -46 -8.5 -135.5t-8.5 -133.5v-15v-1l3 4q3 5 24 56l32.5 80.5l39.5 95.5l10 23q1 0 1 -3q0 -54 -43.5 -188t-80.5 -134q-26 0 -26 149q0 133 21 315q-29 -33 -83.5 -66.5t-91.5 -33.5q-39 0 -60 27.5t-21 67.5q0 22 13 52t32 30q8 0 8 -11q-13 -19 -13 -52
q0 -21 8.5 -42t26.5 -21q52 0 191 89q9 30 16 30q2 0 6 -7q4 -10 4 -98v-78z" />
    <glyph glyph-name="z_ss2" unicode="&#xe089;" horiz-adv-x="350" 
d="M389 106q0 -90 -50.5 -124t-145.5 -34q-25 0 -51 5t-60.5 15t-49.5 13q-33 -36 -56 -36q-1 0 -13 3q-7 -6 -13.5 7t-6.5 21q0 21 11.5 32t24 13t35.5 2h10q31 41 71.5 126.5t55.5 110.5q-149 -4 -167 35l8 7q15 0 44.5 -4.5t44.5 -4.5q66 0 98 5q41 67 81 67
q17 0 28.5 -13.5t11.5 -31.5q0 -17 -4.5 -27.5t-14.5 -15.5t-19 -7t-24.5 -4.5t-24.5 -5.5q-27 -35 -73.5 -119t-79.5 -122q106 -27 185 -27q59 0 88 30t52 92zM-35 -46q15 9 33 31h-8q-12 0 -21 -7h-1v-2q-3 0 -1 2l-5 -14q3 -4 3 -10z" />
    <glyph glyph-name="r_ss2" unicode="&#xe090;" horiz-adv-x="240" 
d="M259 279q26 0 41.5 -17.5t15.5 -43.5q0 -53 -20 -65q-3 5 -4.5 36.5t-17.5 47.5q-8 2 -11 2q-20 0 -47 -29t-45.5 -61l-42 -76t-28.5 -52l-22 -33.5t-26 -43.5l-7 -5q-3 -6 -6 -6q-10 0 -17 57q-2 16 -4 45.5t-4 44t-6.5 36.5t-13 41.5t-21.5 41.5q2 9 8 9
q38 0 60.5 -57.5t22.5 -103.5v-11l22.5 55.5t30.5 61.5t40.5 63.5t46.5 43.5t55 19z" />
    </font>
</defs>
</svg>
