<?xml version="1.0" standalone="no"?>
<!DOCTYPE svg PUBLIC "-//W3C//DTD SVG 1.1//EN" "http://www.w3.org/Graphics/SVG/1.1/DTD/svg11.dtd" >
<svg xmlns="http://www.w3.org/2000/svg">
<metadata></metadata>
<defs>
<font id="hello_bethyregular" horiz-adv-x="817" >
<font-face units-per-em="2048" ascent="1536" descent="-512" />
<missing-glyph horiz-adv-x="512" />
<glyph horiz-adv-x="0" />
<glyph horiz-adv-x="682" />
<glyph unicode=" "  horiz-adv-x="512" />
<glyph unicode="&#x09;" horiz-adv-x="512" />
<glyph unicode="&#xa0;" horiz-adv-x="512" />
<glyph unicode="!" horiz-adv-x="352" d="M14 391q9 79 15 105q6 24 10 71q7 99 43 234q8 26 25.5 75.5t25.5 75.5q11 25 21 43q4 9 11 27t11 27q10 20 12 22q14 25 39 19q44 -11 74 -21q46 -19 43 -65q-1 -5 -2 -15t-2 -14q0 -5 -1 -15t-1 -14q1 -23 -2.5 -45.5t-12 -54.5t-10.5 -43q-1 -8 -4 -21.5t-5 -25 t-3 -21.5q-1 -34 -29 -147q-12 -59 -14 -86q-5 -36 -10 -49q-16 -38 -19 -70q-1 -5 -9.5 -42t-8.5 -58v-52q3 -32 -4 -73q-6 -32 4 -72q8 -20 2.5 -31t-27.5 -18q-6 -2 -19.5 -6t-19.5 -6q-20 -10 -43 6q-63 51 -75 135q-6 45 -9 86q-1 23 -3 69.5t-3 69.5zM156 -76 q57 0 98 -24q15 -10 17.5 -18t-3.5 -23q-21 -49 -39 -99q-5 -12 -8 -28q-5 -19 -28 -25q-28 -9 -63 8t-50 47l-2 2q-15 95 14 146q10 16 29 16q5 0 17 -1t18 -1z" />
<glyph unicode="&#x22;" horiz-adv-x="499" d="M55 1106q-31 7 -39 31q-11 25 -2 49q15 34 33 69q52 92 107 158q4 6 12 14q17 17 35 7q8 -4 22 -12.5t17 -10.5q14 -7 18 -28.5t-4 -34.5q-85 -133 -123 -181q-9 -12 -39 -47q-8 -10 -37 -14zM164 1067q2 4 9 23.5t13 29.5q46 88 142 207q10 12 29.5 36.5t29.5 37.5 q12 17 33 6q22 -11 37 -21q8 -8 20 -24q12 -18 -2 -35q-12 -12 -64.5 -69.5t-84.5 -83.5q-9 -9 -21 -15q-2 -2 -7 -5t-7 -5q-50 -50 -60 -59q-5 -5 -20 -25q-12 -15 -31 -21q-6 -2 -11 4.5t-5 18.5z" />
<glyph unicode="#" horiz-adv-x="815" d="M573 631q6 -4 13 -5.5t11.5 -1.5t13.5 0.5t12 0.5q16 1 46 2t46 2q37 3 59 -25q2 -2 8.5 -7.5t8.5 -8.5q10 -12 7 -20.5t-18 -10.5q-30 -6 -65 -6h-146q-6 0 -16 -3t-12 -3q-15 0 -19 -15q-27 -62 -51 -120v-25q4 0 12.5 -1t12.5 -1q68 4 100 8q48 6 72 -35q7 -9 3.5 -18 t-14.5 -12q-8 -2 -22 -2q-32 -1 -184 -21q-24 -3 -33 -24q-18 -52 -49 -134q-6 -17 -19 -45.5t-16 -36.5q-4 -8 -12 -28q-38 -94 -66 -174q-7 -24 -25 -29q-33 -11 -53 2q-38 26 -26 70q17 56 34 80q16 19 29 61q15 43 40 120.5t34 104.5q1 3 2 8.5t2 8.5l-12 6h-121 q-22 0 -31 -19q-4 -9 -18.5 -36.5t-20.5 -44.5q-18 -51 -72 -170q-14 -37 -38 -111q-2 -8 -11 -27q-11 -18 -26 -16q-25 0 -31 20q-10 23 -4 43q9 49 26 86q40 72 60 142q6 21 20 60t17 50q1 3 2 10t2 11q-12 3 -21 6q-26 4 -39 8q-13 3 -22 12q-9 10 -6 20t16 13 q5 1 16.5 2t16.5 2q41 0 61 6q12 22 31.5 75.5t22.5 74.5q-3 0 -11 1t-12 1q-50 -4 -70 -4q-19 0 -34 6q-14 3 -21 21q-3 6 -0.5 12.5t8.5 7.5q3 0 9.5 1t9.5 1q86 12 131 18q26 3 31 25q18 46 36 96q5 14 34 93.5t46 121.5q9 27 31 70q8 21 31 18q16 -2 43 -10 q44 -18 22 -61q-10 -20 -10 -39q0 -39 -33 -115q-11 -27 -33 -81.5t-34 -80.5l-4 -12q29 0 83 9t80 9q12 8 27 37q15 33 45 98.5t45 98.5q11 22 34 63t28 50q10 19 19.5 22.5t31.5 -2.5q20 -4 33 -12q15 -9 16.5 -24.5t-10.5 -28.5q-20 -23 -43 -66q-20 -35 -25 -41 q-22 -36 -31 -63q-1 -2 -34 -88q-11 -22 -7 -31zM395 520l-8 4q-76 7 -131 -6q-24 -5 -37 -31q-7 -19 -20 -52t-17 -42q-2 -3 -2.5 -11t-1.5 -11q20 -4 23 -4q12 1 34.5 2.5t41 2.5t34.5 1q27 0 37 26q7 17 21.5 52t21.5 53q1 2 2 7.5t2 8.5z" />
<glyph unicode="$" horiz-adv-x="645" d="M293 -205l-12 -6q-22 -13 -43.5 -3.5t-24.5 34.5q-5 24 -2 55q2 6 2 21q-8 5 -29 10q-44 8 -82 41q-54 48 -82 108q-20 47 -20 105q0 40 8 71q15 69 74 99q48 25 86 10q7 -2 21.5 -7t21.5 -7q7 -4 10 -9q11 -7 0 -18q-1 -1 -31 -43q-14 -17 -32 -45q-19 -36 -19 -74 q3 -55 31 -106q15 -32 59 -60q28 21 43 41q56 74 80 166q11 41 6 70v28q-1 6 -2 18.5t-2 18.5v29q-2 0 -7 3t-9 3q-1 0 -23 6q-30 4 -120 41q-16 8 -19 11q-84 58 -106 139q-3 12 -13 47q-12 60 -2 145q11 85 68 172q7 10 20.5 30t20.5 30q8 13 29 20q36 12 55 10h14v15 q-2 10 -2 30q3 49 23 105q8 17 24 22q9 0 15 3q6 1 25 1.5t28 2.5q10 4 35 0q12 -3 16 -15t-4 -22q-2 -2 -6 -5.5t-6 -5.5q-13 -17 -9 -28q2 -6 -4 -35q-12 -32 -14 -51v-4q-6 -28 20 -43q9 -4 18.5 -9.5t15 -10t16 -13.5t14.5 -12q4 -4 11 -12.5t11 -12.5q20 -20 23 -51 q0 -16 10 -29q3 -1 8 -12q16 -21 9 -55q-3 -16 -7.5 -48t-7.5 -47q-12 -53 -59 -88q-46 -35 -109 -12q-17 6 -24 29q5 5 8 11t5 16.5t3 13.5q17 42 43 159q4 22 0 86q-3 13 -12 19q-33 17 -66 37q-8 4 -26 4q-3 1 -23 6q-16 -16 -18 -27q-5 -20 -27 -71q-6 -14 -14.5 -40.5 t-9.5 -29.5q-10 -31 -11 -35q-7 -18 -4 -33q1 -9 -1 -26t-1 -25v-26q9 -52 29 -95q4 -4 8 -12q3 -18 33 -47q26 -22 51 -27q8 0 20 -4q47 -8 140 -41q29 -11 45 -41q2 -6 6 -17t6 -17q1 -7 4.5 -23t5 -28.5t0.5 -24.5v-55q2 -19 -6 -56q-3 -12 -9 -33t-9 -32q-6 -23 -25 -35 q-10 -8 -26.5 -26.5t-20.5 -22.5t-4 -8q-2 -17 -29 -31q-17 -7 -57 -29q-18 -9 -12 -26q9 -46 18 -58q0 -2 2 -2q12 -20 -2 -37q-13 -17 -35 -8q-2 1 -5 3t-5 3h-8z" />
<glyph unicode="%" horiz-adv-x="583" d="M117 -104q-11 -7 -19 -7q-57 0 -84 50q-16 23 2 38q19 19 19 54q2 42 28 110q13 25 13 27q7 31 30.5 85t30.5 75q7 22 64 143q8 19 10 31q9 23 25.5 70t25.5 71q8 21 26 59t23 50q3 7 13 26.5t14 30.5q8 17 36 82.5t44 99.5q3 9 24 51q7 18 27 15q49 -12 74 -29 q24 -15 12 -41q-13 -27 -33.5 -78.5t-25.5 -64.5q-10 -22 -37 -92q-6 -15 -18.5 -42.5t-18.5 -41.5q-18 -49 -19 -52q-24 -73 -59 -145q-4 -7 -10 -23.5t-10 -23.5q-8 -17 -32 -74.5t-38 -89.5q-9 -22 -41 -94q-17 -34 -35 -64q-1 -3 -4 -10t-4 -10q-1 -11 -4.5 -22.5 t-7 -19.5t-10 -20.5t-9.5 -19.5q-18 -38 -18 -76q0 -12 -4 -28zM8 911q5 81 78 150q22 18 47 10q73 -20 105 -39q29 -19 34 -45q9 -36 9 -51q0 -21 -9 -39q-11 -22 -24 -35q-64 -57 -137 -63q-31 -5 -72 20q-20 13 -23 35q-4 19 -8 57zM74 860l8 -4h8q49 5 96 59 q12 12 -2 23q-3 3 -63 57q-28 -22 -40.5 -58.5t-6.5 -76.5zM299 33q5 79 78 149q22 19 47 11q77 -21 104 -41q30 -16 35 -43q8 -32 8 -52q3 -17 -8 -39q-10 -20 -24 -34q-65 -58 -138 -66q-30 -2 -71 23q-20 13 -23 34q-3 18 -8 58zM365 -18q2 -1 3.5 -2t2.5 -2t2 -1h8 q52 5 96 60q12 12 -2 22q-40 40 -63 58q-26 -22 -39 -58.5t-8 -76.5z" />
<glyph unicode="&#x26;" horiz-adv-x="638" d="M88 287h-4h4zM694 -109q1 -1 8 -4.5t11 -7.5l-8 -8q-25 -8 -35 -10q-17 -3 -50 -8.5t-49 -8.5q-33 -5 -65 17q-12 7 -24 17t-19.5 17.5t-21 21.5t-19.5 20q-2 2 -5.5 6t-5.5 6.5t-6 4.5t-8 3q-1 -1 -4 -3t-4 -3q-35 -47 -80 -60l-12 -6q-19 -11 -35 -14q-43 -6 -88 -6 q-14 -2 -39 6q-10 0 -16 6l-28 28t-34 42t-22 30q-8 13 -15 31q-15 66 -12 158q0 11 6 20q0 1 1.5 6t0.5 9q-6 -3 -12 -15.5t-12 -17.5q-2 12 8 41q32 83 35 92q13 30 24 41q8 5 15 16q3 5 19.5 29.5t25.5 36.5q14 16 10 45l-4 8q-13 42 -21 115q0 5 -6 35q-6 31 6 59 q3 5 8.5 15.5t8.5 15.5q25 53 98 94q48 27 131 16q26 -4 39 -8q34 -8 55 -43q22 -40 2 -94q-8 -16 -8 -29q0 -30 -20 -63q-29 -50 -58 -76q-6 -6 -10 -14q-13 -20 -37 -41q-1 -1 -5.5 -7t-8.5 -8q-11 -11 -14 -24q-2 -1 -6.5 -3t-6.5 -3q-2 -8 -2 -11t2.5 -11t3.5 -11 q1 -4 9 -25q2 -6 3 -18.5t3 -18.5q3 -9 10 -16q2 -12 10 -31q1 -3 2 -7.5t2 -6.5q1 -3 4.5 -12.5t6.5 -17.5t2.5 -15.5t-6.5 -9.5q1 -1 2 -2.5t2 -2.5t2 -1q-1 -1 -6.5 -5t-6.5 -6q-1 -1 -1.5 -4.5t-2.5 -5.5q8 -2 4 -6q-2 -2 -6 -2q8 -2 25 -2q2 7 -4 16q14 2 16.5 2t7 -10 t8.5 -14t15 -8l2 -2q12 -21 24 -39q8 -2 13 8q22 46 22 92v100q0 25 6 49q3 14 13 31q14 17 32 12q16 -6 52 -2q3 3 8 -2q4 -6 0 -28q-17 -48 -14 -92q0 -74 -23 -136q-6 -19 -18.5 -55.5t-18.5 -54.5q6 -14 31 -39q6 -5 16.5 -14t17.5 -14.5t17.5 -12t20.5 -10.5 q20 -8 58 -26t58 -26zM98 319l-4 -2q0 -3 4 -8.5t8 -5.5q3 6 1.5 12.5t-9.5 3.5zM117 270q18 8 -5 15q-14 3 -24 2q-6 1 -7.5 -0.5t0.5 -3.5t5 -4q3 -3 15 -6.5t16 -2.5zM340 139q-2 0 -6 -2t-6 -2q9 -6 18 -6v8zM289 211q-5 5 -10 -4q5 -12 13 -10.5t11 12.5q-4 2 -14 2z M225 678q-4 -70 4 -119q1 -1 2 -4.5t2 -5.5q-2 -10 2 -15.5t15 -1.5q10 3 14.5 15.5t7.5 15.5q4 4 19 13t20 16q63 68 66 174q0 3 1.5 7t1.5 6.5v5.5t-2 5.5t-5 4.5q-16 8 -33 8q-21 0 -33 -12v-5l-12 -6q-1 -1 -13.5 -9.5t-17.5 -14.5q-36 -36 -39 -78zM348 2q1 1 6 10 q-1 2 -2 6t-2 5q-10 13 -29.5 40.5t-29.5 40.5q2 2 1 9t1 10q1 2 6.5 4.5t7.5 3.5q0 7 -6 10v-2q-13 -3 -25 0v4q-3 1 -9 3.5t-9 3.5q-34 53 -43 79q-2 7 -12 23q-3 -21 -6 -33q-1 -5 -3.5 -15.5t-3.5 -15.5q-16 -74 -10 -112q2 -4 2 -13q0 -43 25 -106q1 -3 3 -6t5 -6.5 t4 -5.5q14 -18 31 -9q4 2 29 17q15 8 36.5 28t32.5 27z" />
<glyph unicode="'" horiz-adv-x="274" d="M45 1106q-31 7 -39 31q-12 29 -2 49q15 34 33 69q54 96 106 158q2 3 13 14q16 16 34 7q7 -3 20.5 -11.5t18.5 -11.5q14 -7 18.5 -28.5t-3.5 -34.5q-85 -133 -123 -181q-9 -12 -39 -47q-8 -9 -37 -14z" />
<glyph unicode="(" horiz-adv-x="585" d="M182 680q-2 -14 -4 -41t-5 -48.5t-9 -39.5q-9 -24 2 -49q10 -19 6 -47q-3 -52 18 -119q6 -21 15 -42.5t23.5 -53t19.5 -41.5q13 -27 51 -84q11 -15 33.5 -43.5t34.5 -42.5q17 -17 45 -41q26 -22 41 -33q3 -2 8 -7t8 -7q34 -37 -12 -52q-24 -10 -43 -2q-31 9 -43 17 q-74 39 -121 98q-19 22 -53.5 64t-40.5 49q-12 15 -21 30q-46 86 -65 150q-3 11 -17 57.5t-20 71.5q-32 153 -6 291q6 31 14 100q7 61 29 107q13 27 39.5 81t40.5 82q34 61 94 121q10 10 31.5 32t31.5 32q3 3 8.5 8t8.5 8q27 30 65 10q2 -1 47 -18q1 0 6 -2.5t6.5 -3.5 t5.5 -3.5t5.5 -4.5t3.5 -5.5t2 -7.5q1 -6 -1.5 -10.5t-5 -7t-8.5 -7t-8 -5.5q-47 -29 -94 -86q-56 -68 -96 -187q-23 -70 -39 -94q-4 -4 -4 -8q-2 -13 -14.5 -59.5t-10.5 -73.5q0 -5 -1 -16.5t-1 -16.5z" />
<glyph unicode=")" horiz-adv-x="585" d="M408 510q2 14 4 41t5 48.5t9 39.5q9 24 -2 49q-10 19 -6 47q2 49 -19 119q-8 27 -57 137q-13 27 -51 84q-12 14 -34 42.5t-34 43.5q-17 17 -45 41q-26 22 -41 33q-3 2 -8 7t-8 7q-33 36 12 51q25 11 43 3q31 -9 43 -17q74 -39 121 -98q19 -22 53.5 -64t40.5 -49 q10 -12 21 -31q46 -87 65 -149q3 -11 17 -57.5t20 -71.5q32 -153 6 -291q-6 -31 -14 -100q-7 -61 -29 -107q-14 -27 -40.5 -81.5t-39.5 -82.5q-32 -58 -94 -120q-10 -10 -31.5 -32t-31.5 -32q-3 -3 -8.5 -8t-8.5 -8q-27 -30 -65 -10q-2 1 -47 18q-1 0 -6 2.5t-6.5 3.5 t-5.5 3.5t-5.5 4.5t-3.5 5.5t-2 7.5q-1 6 1.5 11t4.5 7t8.5 6.5t7.5 5.5q49 30 95 86q56 68 96 187q23 70 39 94q4 4 4 8q2 13 14.5 59.5t10.5 73.5q0 5 1 16.5t1 16.5z" />
<glyph unicode="*" horiz-adv-x="391" d="M258 1231q21 -21 49 -33q3 -2 10.5 -5t10.5 -5q10 -8 9.5 -19.5t-11.5 -19.5q-10 -6 -19 0q-9 3 -14 8q-19 22 -49 35q-5 3 -14.5 8t-14.5 8q-4 -16 -4 -18q0 -14 -1 -44t-1 -44q-1 -18 -13.5 -25.5t-27.5 0.5q-38 20 -41 56q0 2 -1 7t-1 7h-6q-14 -11 -27 -4 q-18 12 -18 31q-3 9 6 14q5 5 11 12t13 15.5t11 13.5q-4 2 -9.5 2t-11.5 -1t-8 -1q-45 0 -63 -12q-11 -6 -23 2q-33 22 -37 26l-6 17q37 19 68 22q13 1 37.5 2t37.5 2q2 0 8 1t11 1q-2 2 -4 8t-4 7q-12 14 -78 79q-5 5 -17 21v12q4 4 11 4q12 -4 16 -4q35 -12 55 -35 q19 -19 25 -22q8 2 8 10q0 9 -1 27.5t-1 27.5v25q39 15 78 -4q13 -8 10 -31l-6 -18v-35q5 -1 6.5 -1t4 2.5t3.5 2.5q27 30 58 61q10 10 12 11q15 14 36 11.5t31 -19.5q5 -9 3 -19.5t-11 -11.5q-19 -5 -51 -37q-4 -5 -10 -11t-13.5 -13t-11.5 -11q-4 -5 -13 -15.5t-13 -15.5 q2 -8 12 -8h61q19 -2 66 -14q14 -5 10 -23q-3 -10 -14 -14h-8q-17 0 -52 -1t-53 -1q-2 0 -6 -4z" />
<glyph unicode="+" horiz-adv-x="808" d="M311 698q4 14 5 28.5t0.5 32t0.5 27.5q2 33 2 103q1 15 1.5 43t1.5 43q0 31 2 45q3 24 30 24q37 0 58 -16q23 -14 26 -43q14 -126 17 -162q3 -13 0 -26q-10 -38 4 -95q6 -2 20 -2q30 -1 93.5 -3t93.5 -3q58 -3 104 -28q7 -4 25 -17q20 -20 -4 -35q-4 -2 -11.5 -6 t-11.5 -6q-15 1 -73 5t-83 5t-69 -1.5t-80 -10.5q-9 -80 -4 -108v-37v-86q-1 -5 -1 -15t-1 -14q-7 -30 -4 -51v-8q-14 -29 -2 -64q2 -2 0 -6.5t-5 -5.5q-9 -4 -16 -2q-7 0 -14 10q-18 21 -29 41q-12 16 -27 47q-25 41 -32 105q-15 99 -15 159q1 28 -6 34.5t-39 8.5 q-74 3 -157 -20q-6 -2 -17 -8t-12 -7q-23 -15 -50 -3.5t-30 38.5q-2 12 -2 33q0 30 27 33q62 12 96 14q23 2 48.5 3t56.5 1.5t48 1.5q5 1 17 2t18 2z" />
<glyph unicode="," horiz-adv-x="292" d="M96 -16l-28 28q-23 23 -23 45q0 11 -8 27q-15 31 -10 49q11 42 39 57q12 8 18 11q9 -5 80 -58q17 -11 37 -28q6 -3 12 -9q28 -20 32.5 -36t-5.5 -39q-30 -92 -82 -152q-20 -26 -47 -37q-10 -5 -31 -16t-31 -16q-13 -9 -22 -11q-12 -2 -20 7t-1 22t22.5 40.5t22.5 41.5 q8 14 23.5 38.5t21.5 35.5z" />
<glyph unicode="-" horiz-adv-x="512" d="M274 530q86 -4 115 -4q47 -3 80 -32q9 -9 10 -11q11 -13 7 -27.5t-21 -17.5q-17 -6 -39 -2q-57 13 -162 13q-26 0 -158 -5q-15 0 -26 -8q-17 -14 -31 0q-36 28 -39 68q0 19 19 22q10 0 14 2q41 0 118.5 1t112.5 1z" />
<glyph unicode="." horiz-adv-x="344" d="M109 35q56 0 96 -25q17 -10 19.5 -18t-5.5 -23q-6 -16 -18.5 -49t-18.5 -49q-8 -21 -10 -29q-2 -17 -27 -24q-28 -9 -62.5 7.5t-51.5 45.5v4q-18 89 14 145q10 17 27 17q12 -2 37 -2z" />
<glyph unicode="/" horiz-adv-x="460" d="M63 -49q-3 -1 -9 -3.5t-9 -2.5q-57 3 -84 49q-15 27 2 41q19 19 19 53q2 45 28 109q2 4 7 13t6 13q5 25 15.5 52t24.5 58.5t21 49.5q9 29 32.5 81t28.5 64q10 13 13 29q26 75 49 141q16 39 51 111q4 9 12.5 27.5t12.5 27.5q2 3 82 185q7 20 22 49q10 20 27 14 q40 -6 75 -27q24 -15 13 -41q-5 -10 -60 -145q-6 -12 -36 -90q-6 -15 -18.5 -42.5t-18.5 -41.5q-2 -6 -10 -23.5t-11 -27.5q-20 -71 -57 -146q-10 -17 -21 -47q-11 -27 -34 -81.5t-35 -82.5q-7 -16 -20.5 -47.5t-20.5 -46.5q-7 -17 -35 -63q-1 -5 -4 -12t-4 -9 q-1 -11 -5 -22.5t-7.5 -19.5t-9.5 -21t-9 -19q-17 -36 -20 -77q0 -4 -1.5 -14t-1.5 -15z" />
<glyph unicode="0" horiz-adv-x="796" d="M694 350q-14 -153 -16 -172q-9 -73 -47 -194q-4 -12 -29 -47q-11 -11 -27 -35q-15 -33 -57 -66q-14 -10 -40 -30.5t-40 -30.5q-16 -13 -43 -17q-43 -3 -84 6q-88 22 -149 80q-14 12 -31 37q-2 4 -13 20.5t-15 24t-10.5 21.5t-10.5 26q-4 18 -33 66q-11 19 -18 47 q-2 5 -5.5 15.5t-5.5 15.5q-23 89 -10 188q15 140 78 273q34 84 62 133q21 34 53 63q37 28 80 64q31 29 82 18q5 -1 11.5 -4t8.5 -4q22 -7 59 -14q18 -3 62 -25q9 -6 10 -20t-8 -23q-7 -7 -12 -4q-24 0 -37 -10q-4 -2 -10 -2q-14 1 -27.5 -3.5t-29 -11.5t-23.5 -10 q-19 -7 -37 -29q-62 -86 -84 -157q-2 -3 -5 -11.5t-5 -11.5q-30 -70 -33 -100q-2 -20 -15 -54q-9 -20 -22 -83q-30 -139 0 -250q25 -95 92 -162q23 -23 63.5 -24.5t69.5 20.5q56 43 82 100q49 104 70 189q30 110 41 178q8 37 16 123q5 52 -16 120q-18 66 -86 72q-5 0 -14 1 t-13 1q-12 0 -18 2q-2 1 -5 2t-5.5 2t-5 3t-4.5 4.5t-3 5.5q-2 5 3.5 10t15.5 8q8 4 24 8q46 8 96 -14q63 -34 91 -103q13 -31 28 -90q13 -48 4 -135z" />
<glyph unicode="1" horiz-adv-x="382" d="M219 -176q-21 7 -22 8q-65 66 -78 80q-40 45 -47 125q-2 29 -5.5 88.5t-5.5 89.5v23q2 35 6.5 105.5t6.5 105.5q1 16 4 48.5t4 49.5q4 96 14 131v24q-9 -3 -10 -4q-9 -19 -37 -45t-33 -32l-10 -5q-2 -2 -10 2v7q3 4 8 12t8 12q38 48 103 156q13 20 20 57q2 11 23 92 q4 17 11.5 22t25.5 5q21 0 43 -12q-1 -4 -7.5 -17t-7.5 -20q-12 -65 -14 -101q-2 -35 -2 -102q0 -43 -6 -90q-1 -23 -1 -31.5t2 -31.5t3 -31v-23q-1 -50 -0.5 -75t3 -74.5t3.5 -75.5q0 -57 -6 -113q0 -49 2 -59q8 -74 6 -113q0 -32 4 -94q0 -14 -2 -18q-12 -14 -4 -47 q2 -4 3 -7.5t2 -10t3 -11.5z" />
<glyph unicode="2" horiz-adv-x="655" d="M238 -104q8 -6 30 -2q74 8 111 8q22 0 43 6q50 13 119 6q13 0 27.5 -13.5t17.5 -27.5q1 -7 -4 -15.5t-13 -11.5q-8 -2 -24 -2q-31 5 -78 -6q-15 -4 -119 -14q-31 0 -47 -4q-20 -4 -59 -12.5t-58 -12.5q-24 -6 -52 5t-34 32q-1 5 -7.5 25t-8.5 28.5t-3.5 24t-0.5 29.5 q14 164 100 317q76 136 162 256q28 34 63 106q24 52 21 111q0 31 -6 66q-8 45 -51 77q-20 17 -43 11q-105 -28 -170 -107q-22 -38 -23 -43q-15 -52 -22 -84q-2 -12 -5.5 -33.5t-5.5 -33.5q-5 -36 15 -78q16 -38 63 -41q40 -6 41 -6q10 -3 13 -12.5t-3 -18.5q-13 -23 -37 -23 q-60 0 -98 41q-24 28 -37 35q-11 6 -16 35q-4 20 -4 33v71q4 80 16 136q6 29 29 59q13 17 20 29q65 84 185 110q7 2 14 2.5t12.5 1t14 -0.5t13 -1.5t14 -3t12 -3t13.5 -3.5t13 -4q41 -14 74 -47l10 -10q36 -36 47 -56t23 -79q13 -68 10 -127v-15q7 -31 -6 -104 q-2 -10 -2 -31q2 -28 -10 -82q-7 -27 -21 -47q-5 -7 -14 -29q-12 -17 -27 -43q-12 -16 -16 -24q-13 -30 -43 -60q-31 -31 -37 -55q0 -8 -6 -14q-24 -44 -35 -56q-16 -17 -38 -51.5t-34 -48.5q-9 -12 -28 -55v-10z" />
<glyph unicode="3" horiz-adv-x="708" d="M152 473q-23 17 -46 37q-16 16 -4 35q11 14 27 20q7 2 22.5 7.5t22.5 7.5q15 7 19 16q26 56 98 139q79 95 92 109q6 6 12 18q-16 1 -21 1t-18 -2t-18 -3q-41 -4 -123 -16q-7 -1 -21.5 -4t-21.5 -4q-29 8 -51 55q6 12 6 16q6 11 20 15q23 3 110 17.5t136 16.5q39 0 72 13 q13 7 27 -4q9 -6 26.5 -19.5t26.5 -19.5q26 -23 0 -43q-11 -10 -29 -33.5t-24 -30.5q-7 -6 -20.5 -18.5t-20.5 -18.5q-3 -5 -17 -14q-16 -18 -47.5 -52.5t-48.5 -51.5q-18 -21 -39 -39q-1 -1 -5 -7t-9 -10q44 0 51 2q47 7 110 -22q171 -82 199 -279v-10q-15 -95 -20 -115 q-9 -39 -60 -90q-16 -14 -46.5 -42.5t-45.5 -43.5q-6 -6 -18 -14q-14 -7 -123 -68q-37 -19 -70 -22q-10 -1 -49 -11q-21 -5 -102 -14q-37 -3 -60 27q-1 1 -5.5 6.5t-6 7l-5.5 5.5t-7 5.5t-7.5 3.5t-9 2h-10.5q1 5 1.5 10.5t1 8.5t1.5 6q21 60 94 84q12 4 34 11.5t34 11.5 q24 8 73 24.5t74 24.5q23 7 68 43q35 27 53 43q44 38 70 75q23 34 16 95q-5 35 -31 78q-26 40 -77 43q-43 3 -88 0q-13 0 -58 -5q-23 0 -33 -4q-30 -13 -81 -10z" />
<glyph unicode="4" horiz-adv-x="585" d="M377 199q-5 -1 -13.5 -1t-11.5 -1q-15 -4 -29.5 -5t-38.5 0t-30 1q-10 -1 -33 -0.5t-39.5 -1.5t-31.5 -7q-22 -4 -37 4q-42 21 -60 33q-48 31 -51 86q-7 68 12 113q46 99 64 125q2 3 5 11t5 11q46 111 100 187q21 28 33 55q23 48 55 88q4 6 12.5 19.5t12.5 19.5 q9 14 15.5 16t21.5 -4q40 -17 45 -20q43 -21 31 -68q-10 -35 -35 -84q-45 -81 -57 -145q-7 -36 -37 -82q-10 -16 -49 -107q-10 -16 -15 -32q-9 -20 -27.5 -58t-27.5 -57q-1 -4 -2 -13t-2 -14l12 -6q137 -7 203 12q0 3 2 11t2 12q1 25 2 74.5t2 74.5q2 23 10 70q2 12 23 115 q3 14 8 17.5t18 2.5q11 0 31 -4q42 -9 33 -49q-6 -30 -12 -57q-8 -55 -2 -117q0 -27 2 -41q0 -33 2 -51v-25q-7 -73 0 -182q2 -13 -2 -39q-2 -28 -10 -90t-9 -96q0 -68 2 -101q1 -25 -7 -29.5t-30 7.5q-47 21 -57 61q-6 30 -6 31q-11 115 0 303q0 4 -1 12t-1 15z" />
<glyph unicode="5" horiz-adv-x="641" d="M602 885q-14 -29 -25.5 -36t-39.5 -1q-29 6 -58 -4q-40 -13 -94 -6q-42 5 -102 -2q-14 -1 -40 -4.5t-38 -4.5q-9 -3 -21 -6q-2 -11 -6 -32.5t-6 -32.5q-6 -31 -18 -97v-2q-7 -14 -11.5 -32.5t-6 -29.5t-3 -36t-2.5 -31q0 -1 -6 -43q-7 -43 -2 -75q8 2 20 6q95 40 205 12 q63 -16 110.5 -69t53.5 -123q3 -18 0 -33q-9 -41 -12 -84q-6 -39 -31 -70q-10 -10 -12 -16q-2 -7 -4.5 -14t-7 -14.5t-7 -12t-9 -13t-8.5 -11.5t-10 -13t-10 -12q-28 -36 -51 -52q-40 -30 -84 -57q-26 -19 -47 -24q-18 -6 -51.5 -13.5t-40.5 -9.5q-19 -4 -25 12 q-10 26 -55 45q-4 2 -13.5 6.5t-13.5 6.5q-28 14 -18 45q11 38 37 53q43 24 78 29q28 4 43 16q93 56 133 78q48 27 69 67q2 4 7 9q16 16 23.5 37.5t9 38t1.5 44.5q0 17 -10 37q-11 19 -24 21q-54 20 -105 14q-76 -13 -125 -45q-28 -17 -39.5 -15.5t-36.5 31.5q-6 7 -10 33 q-4 44 -3.5 61.5t7.5 60t9 60.5q8 46 8 68q-3 79 26 184q4 12 4 21q0 6 -2 8q-6 8 -22 4q-18 -3 -39 -10q-14 -3 -24 4.5t-11 22.5q-3 18 6 32t29 17q89 18 152 20q153 9 204 6q5 0 16.5 1t16.5 1q91 5 109 7q40 0 63 -33z" />
<glyph unicode="6" horiz-adv-x="665" d="M569 819q15 -6 9 -22q-16 -36 -50 -27q-10 2 -30 10q-38 13 -64 0q-7 -4 -21.5 -7.5t-17.5 -4.5q-34 -8 -69 -39q-8 -8 -23.5 -23t-27.5 -28t-21 -27q0 -2 -2 -2q-21 -15 -35.5 -33.5t-32.5 -54.5t-22 -43q-7 -11 -10 -22q-9 -25 -19.5 -78t-11.5 -84q8 4 8 8 q61 79 184 125q46 15 95 2q68 -17 118 -80q40 -57 37 -108q-4 -70 -14 -95q-2 -5 -4 -16.5t-4 -17.5q-1 -7 -11 -31q-11 -19 -14 -41q-14 -49 -45 -70q-21 -18 -39 -39q-6 -10 -26 -22q-43 -19 -64 -35q-6 -5 -27 -10q-49 -12 -71 -10q-3 0 -11 -4l-10 -5t-7 -4.5t-9 -5.5 q-1 3 -4.5 7.5t-3.5 6.5q0 20 -25 31q-11 7 -32.5 20.5t-32.5 20.5q-30 21 -50 62q-35 78 -51 167q-12 52 -4 156q5 70 37 168q4 12 11 34.5t11 33.5q34 110 138 194q10 7 31.5 24.5t35.5 26.5q10 7 56 33q53 24 106 4q10 -3 32 -8t32 -8q12 -4 75 -29zM123 211q-9 0 -17 2 q-8 -48 0 -70q13 -45 37 -102q20 -41 62 -49q54 -19 102.5 20t77 103t44 126.5t11.5 92.5q-7 51 -41 72q-5 5 -20 8h-2h-29q-111 -25 -172 -109q-26 -34 -16 -59v-10q-6 -31 -37 -25z" />
<glyph unicode="7" horiz-adv-x="495" d="M123 -209q-20 0 -39 19q-10 9 -30.5 27.5t-30.5 27.5q-6 6 -15 33q-18 67 8 174q55 229 142 424q52 115 82 161q12 20 32 66q16 28 45.5 86t44.5 86q1 3 6 13.5t7 17.5q-12 8 -19 8h-26q-38 -12 -99 -8q-58 0 -106 -11q-17 -4 -51 13q-12 6 -8 20q4 15 16 17q3 1 9 1t9 1 q19 0 31 6q14 8 45 12q22 2 68 6l69 6q38 0 56 -2q42 -4 57 4q17 10 41 -2q2 -1 19.5 -11.5t25.5 -16.5q19 -12 20 -32.5t-16 -37.5l-6 -6q-53 -37 -80 -117q-6 -16 -41 -94q-4 -9 -27 -66.5t-34 -87.5q-18 -46 -35 -104q-12 -32 -34.5 -96t-33.5 -95q-6 -21 -16.5 -60 t-15.5 -58q-1 -3 -2.5 -9.5t-2.5 -9.5q-21 -56 -47 -202q-2 -11 -2.5 -32t-1.5 -28q0 -29 -14 -43z" />
<glyph unicode="8" horiz-adv-x="724" d="M559 371q-31 -8 -39 -11q-34 -13 -84 5q-57 27 -112 -3q-1 -1 -11 -6q-2 2 -5.5 5t-4.5 4q-2 4 -2 14q9 23 14 31q46 75 73 101q7 7 15 13q39 26 46 80q12 83 26 125q2 4 2 10q18 43 -22 78q-26 26 -74 37q-20 6 -43 -4q-37 -15 -59 -27q-21 -13 -43 -35q-29 -36 -41 -83 q-5 -16 -2 -37q4 -68 20 -99q6 -15 6 -32q3 -35 21 -70q9 -12 12 -27q8 -32 41 -88q8 -16 37 -41q93 -76 133 -174q5 -14 53 -117q8 -13 8 -34q0 -36 -22 -117q-5 -14 -17 -29q-4 -7 -24 -37q-22 -43 -72 -69q-8 -4 -23.5 -12.5t-23.5 -12.5q-39 -17 -80 -2q-81 31 -129 74 q-85 73 -94 196q-3 38 4 89q0 22 10 49q7 17 47 94q1 3 2.5 5.5t4.5 5.5t4 5q26 37 61 25q7 -2 22.5 -4t22.5 -4q23 -7 29.5 -28t-8.5 -40q-40 -40 -50 -53q-13 -16 -24 -45q-7 -20 -25 -90q-6 -25 2 -74q6 -46 29 -84q25 -40 74 -57q11 -7 35 -2q42 12 71 45q45 50 66 139 q3 20 -2 33q-47 110 -62 141q-14 32 -33 51q-48 60 -83 84q-58 43 -80 98q0 3 -6 15q-44 61 -66 172q-10 41 4 98q15 67 18 82q13 77 66 127q12 10 35 33q36 34 104 51q24 5 58 -2q49 -9 94 -27q97 -44 145 -123q3 -4 9.5 -13t9.5 -13q7 -14 10 -23q2 -5 5 -14t5 -14 q17 -33 17 -74q2 -18 2 -57q-7 -43 -21 -70q-3 -5 -6 -14.5t-4 -12.5q-3 -9 -10 -16q-13 -10 -11 -25q0 -32 -28 -41q-21 -9 -27 -28z" />
<glyph unicode="9" horiz-adv-x="718" d="M221 197q-6 1 -21 4.5t-22 5.5q-33 9 -43 18q-102 75 -123 178q-23 102 -2 209q1 4 3 11.5t3 11.5q25 78 76 166q28 45 70 71q6 4 28 21t35 25q27 18 62 12q45 -5 92 -31q20 -10 102 -55q6 -4 18.5 -12.5t18.5 -12.5q29 -12 31 -12q9 -2 25 -10l18 -9q37 -24 31 -65 q-1 -8 -4 -29.5t-5 -32t-6 -28t-8.5 -32t-11.5 -28.5q-22 -50 -39 -98q-23 -67 -51 -119q-26 -51 -49 -118q-9 -24 -21 -48q-5 -12 -35 -75q-5 -14 -16.5 -44t-16.5 -44q-1 -2 -3 -7.5t-3 -7.5q-12 -18 -22 -40t-21 -49.5t-18 -41.5q-3 -5 -10 -15t-11.5 -18.5t-5.5 -17.5 q-3 -14 -22 -57q-3 -9 -10.5 -28t-10.5 -28q-5 -15 -6 -16q-9 -9 -14 -6q-13 0 -23 10q-54 46 -76 70q-28 31 -22 78q2 7 5 21.5t5 21.5q4 11 15.5 40.5t17 44.5t15.5 38.5t19.5 43.5t20.5 39q22 40 41 95zM506 754q-42 24 -70 26q-12 1 -33 2.5t-37.5 2.5t-31.5 1 q-22 4 -35 -6q-56 -33 -76 -53q-34 -34 -69 -92q-12 -17 -21.5 -39t-19 -50t-15.5 -42q-2 -4 -2 -17q-11 -79 4 -131q9 -31 31 -53q35 -35 80 -12q8 5 24.5 15.5t24.5 15.5q38 26 47.5 37.5t28.5 52.5q49 100 74 139q26 43 43 88q3 7 41 86q7 14 12 29z" />
<glyph unicode=":" horiz-adv-x="344" d="M109 455q56 0 96 -25q17 -10 19.5 -18t-5.5 -23q-6 -17 -18.5 -49.5t-18.5 -48.5q-8 -21 -10 -29q-2 -17 -27 -24q-28 -9 -62.5 7.5t-51.5 45.5v4q-18 89 14 145q10 17 27 17q12 -2 37 -2zM109 850q56 0 96 -25q17 -10 19.5 -18t-5.5 -23q-6 -16 -18.5 -49t-18.5 -49 q-8 -21 -10 -29q-2 -17 -27 -24q-28 -9 -62.5 7.5t-51.5 45.5v4q-18 90 14 146q10 16 27 16q12 -2 37 -2z" />
<glyph unicode=";" horiz-adv-x="344" d="M109 850q56 0 96 -25q17 -10 19.5 -18t-5.5 -23q-6 -16 -18.5 -49t-18.5 -49q-8 -21 -10 -29q-2 -17 -27 -24q-28 -9 -62.5 7.5t-51.5 45.5v4q-18 90 14 146q10 16 27 16q12 -2 37 -2zM96 291l-28 28q-23 23 -23 46q0 10 -8 26q-15 31 -10 49q11 44 39 58q6 4 18 10 q15 -9 80 -57q11 -7 37 -29q8 -4 12 -8q28 -20 32.5 -36.5t-5.5 -39.5q-30 -92 -82 -152q-18 -25 -47 -36q-10 -5 -31 -16.5t-31 -16.5q-13 -9 -22 -11q-12 -2 -20 7t-1 22t22.5 40.5t22.5 41.5q8 14 23.5 38.5t21.5 35.5z" />
<glyph unicode="&#x3c;" horiz-adv-x="577" d="M35 545q-6 2 -16 2t-17.5 3t-13.5 13q3 20 11.5 60t10.5 51q19 13 27 16q17 4 36 17t29.5 23t30.5 32q32 34 86 107.5t70 93.5q9 14 26.5 41t26.5 40q6 15 6 33q1 9 2 28t2 28q1 5 4 16t4 16q3 9 12 9.5t13 -7.5q11 -38 16 -61q7 -27 7 -68q0 -7 -3.5 -20.5t-3.5 -16.5 q-24 -82 -84 -167q-56 -73 -92 -125q-5 -5 -71 -93q8 -12 14 -14q5 -4 37.5 -27.5t48.5 -39.5q15 -15 29 -32t33 -42t26 -35q38 -50 72 -102l30 -48q31 -56 48 -71q22 -22 18 -66q0 -46 -37 -57q-4 -1 -7.5 0t-5.5 2.5t-5.5 5t-5.5 4.5q-7 8 -37.5 41t-46.5 53 q-28 39 -62.5 77t-79 82t-67.5 69q-11 10 -15 12q-70 50 -106 117z" />
<glyph unicode="=" horiz-adv-x="829" d="M586 549q9 0 26.5 -1t26.5 -1q35 -3 59 -27q17 -17 19 -18q22 -15 12 -49q-7 -21 -27 -21q-24 0 -34 6q-28 10 -68 13q-32 0 -95 -4.5t-93 -4.5q-35 0 -113.5 -5.5t-120.5 -4.5q-13 1 -27.5 0t-32.5 -3t-28 -3q-8 0 -20 -4q-26 -8 -38.5 -1.5t-19.5 32.5q-4 14 -4 47 q0 14 17 14q39 0 82.5 3t96.5 8t83 7q67 5 80 5q143 8 219 10v2zM592 655q-22 -2 -73.5 -2.5t-78.5 -3.5q-22 -4 -149 -14h-23q-39 -6 -110.5 -16.5t-87.5 -12.5q-24 -4 -41 -20q-15 -12 -31 -7.5t-23 23.5q-10 26 2 49q10 20 29 23q23 2 62 14q51 14 182 31q52 4 80 8 q80 12 159 12h89q31 3 63 -22q16 -13 16 -33q3 -24 -18 -27q-14 -2 -47 -2z" />
<glyph unicode="&#x3e;" horiz-adv-x="577" d="M465 545q-35 -66 -107 -117q-3 -1 -14 -12q-23 -25 -67.5 -69t-79 -82t-62.5 -77q-16 -20 -46.5 -53t-37.5 -41q-2 -1 -5.5 -4.5t-5.5 -5t-5.5 -2.5t-7.5 0q-37 11 -37 57q-4 44 18 66q15 13 47 71q23 37 31 48q34 52 72 102q7 10 26 35t33 42t29 32q16 16 48.5 39.5 t37.5 27.5q6 2 14 14q-59 78 -72 93q-36 51 -92 125q-60 85 -84 167q-6 36 -6 37q0 45 6 68q3 13 17 61q4 8 12.5 7.5t11.5 -9.5q1 -5 4 -16t4 -16q1 -9 2.5 -28t2.5 -28q0 -18 6 -33q9 -13 26.5 -40t26.5 -41q16 -20 70 -93.5t86 -107.5q20 -22 30.5 -32t29.5 -23t36 -17 q5 -2 26 -16q3 -17 11.5 -54.5t11.5 -56.5q-6 -10 -13.5 -13t-17.5 -3t-16 -2z" />
<glyph unicode="?" horiz-adv-x="847" d="M647 725l-6 20q-2 8 -16 50q-5 10 -11 8l-10 8q-7 11 -29 37l-15 18q-14 17 -25 23l-25 22q-7 1 -20.5 8t-14.5 7q-1 1 -2.5 1t-1.5 1q-2 6 -12.5 9t-12.5 5q-2 3 -5 4.5t-7.5 3l-7.5 2.5q6 6 6 13l4 6h-4q-2 0 -14 -2t-19 -4l-4 2q1 8 -2 9t-12 -3q-12 -5 -25 4 q-6 3 -22.5 5t-22.5 5q-5 3 -13.5 4t-19.5 1t-16 1q-5 0 -13.5 2t-12.5 2l-13 4q-14 -6 -45 -2q-23 4 -84 -20q0 3 -7 -6q-1 -1 -1 -2q-9 -11 -16 -33q-10 -15 -7 -35l19 -29q36 -41 51 -57t47 -43t64 -43q-10 -20 -23 -20h-14q-5 3 -19.5 10t-21.5 12q-31 18 -47 33 q-39 39 -51 59q-18 21 -31 47q-4 4 -10 16.5t-11 16.5q-4 7 0 22t15 29q17 23 35 39q19 20 84 72q2 2 7 4t7 4q30 18 61 25q37 6 70 6q4 0 13.5 2t16.5 2t11 -4q0 -2 2 -2t4 2q43 14 70 14q38 6 96 -6q0 -7 -8 -12l-4 -2q-3 -2 -4 -4q-2 -2 -2.5 -5.5t2.5 -3.5l12 -4v-2 q24 0 37 -8q19 -11 53 -8q6 2 15 1.5t16 0.5l-11 -14q-11 -13 -8 -19q9 -9 19 -4q26 -3 32 -26q4 -9 9 -11q4 -2 13 -4t13 -4q21 -8 19 -22l26 -5q27 -67 33 -75q3 -4 14 -35t15 -37q3 -5 6 -13.5t4.5 -14.5t3.5 -7t-4.5 -40.5t-13.5 -83t-7 -50.5q0 -8 -2.5 -19t-5.5 -22 t-4 -14t-14.5 -35.5t-18.5 -50.5q-2 -6 -13 -20.5t-27.5 -32t-35.5 -37.5t-39 -39t-35.5 -34t-26.5 -26l-11 -10q-2 -2 -25 -13t-48 -23l-25 -11q-5 -2 -29.5 -23.5t-24.5 -25.5l-49 -103v-24q0 -2 -12 -4t-24 -3l-13 -1q-31 31 -31 37q0 2 1 11t1.5 14t-0.5 7q-1 0 0 54.5 t3 72.5q2 23 6 31q15 30 22 51q1 4 7.5 9t12.5 8t15.5 7t11.5 5q52 26 72 41q2 2 13.5 8.5t13.5 9.5q3 5 13.5 15.5t14.5 13.5q8 5 34.5 24.5t27.5 22.5l22 19l19 18q9 9 28 53q3 6 10 19t9 20t5.5 25t4.5 20q8 23 4 35q-1 4 -1 21t1 18h2v4zM393 244q89 33 101 51q3 9 4 11 t-7.5 2.5t-9.5 0.5q-5 1 -27.5 -12t-25.5 -16q-2 -2 -2 -7zM487 344h17q11 0 16 10q1 3 6 10t8.5 12.5t2.5 8.5t-16 -4.5t-31.5 -16t-18.5 -8.5zM555 983l-12 12q-6 -4 -8 -6q-5 -4 -5 -10q14 -9 21 -8q1 1 2.5 2t2.5 2t1 2q4 3 8 3.5t8.5 -0.5t6.5 -1q10 3 20 18 q-1 1 -4.5 1t-5.5 2t-2 6q1 4 -2 4q-6 -1 -17 -13q-6 -12 -14 -14zM381 289l2 -12v-1q13 1 25 7q4 2 5 3t0.5 2.5t-1.5 3t-2 4.5t-2 7q-1 5 -1 6.5t-0.5 3t-1 1.5t-2.5 1.5t-4 3.5q-4 4 -5.5 4.5t-3.5 -0.5l-1 -1q-4 0 -8 -30v-3zM477 963q-1 1 -5.5 9.5t-10.5 8.5 q-2 2 -6 -2q-8 -4 -4 -8v-2q3 -1 8 -5.5t8 -5.5h8q2 -4 10 -8q4 -4 21 15q-2 0 -7.5 1.5t-10.5 1t-11 -4.5zM483 999q-2 -6 6 -6q6 0 13 4l6 11q-2 6 -16 6l-11 -6q2 -2 2 -9zM567 1036l-4 -4q-5 -3 -4 -8q0 -2 2 -2q4 -7 10 2q10 10 4 10q-2 1 -4.5 1t-3.5 1zM670 776 q0 1 2 4t2 4q0 5 -8 0q0 -1 -1 -1.5t-2.5 -2t-3.5 -4.5h11zM420 1038q2 0 0 2v2l-4 -6q2 0 4 2zM426 274h2q-2 -4 -2 0zM307 -25q57 0 96 -24q17 -10 20 -18t-5 -23q-6 -16 -18.5 -48.5t-18.5 -49.5q-8 -21 -10 -29q-3 -18 -27 -25q-28 -9 -63 7.5t-52 46.5v4q-18 88 15 145 q10 16 26 16q12 -2 37 -2z" />
<glyph unicode="@" horiz-adv-x="1400" d="M840 272q-24 -22 -37 -47q-2 -2 -4 -8t-4 -8q-11 -13 -20 -29t-18.5 -37t-15.5 -32q-5 -11 -32 -48q-23 -31 -39 -49q-47 -55 -70 -80q-6 -6 -41 -36q-15 -15 -31 -15q-79 -9 -145 39q-33 23 -43 74q-12 90 -2 135q4 16 10 51t10 51q27 115 105 199q8 10 23.5 31t23.5 31 q23 27 43 38q13 9 39.5 28t40.5 28q40 32 90 16q87 -30 119 -47q16 -8 44 -25.5t34 -21.5q18 -13 16 -27q-7 -20 -33 -20q-5 1 -13 4t-9 4q-7 3 -9 8q-22 21 -35 20.5t-38 -18.5q-27 -16 -76 -61q-25 -19 -47 -51q-6 -10 -24 -32.5t-25 -35.5q-50 -77 -66 -104 q-6 -12 -20 -54q-9 -29 -25 -96q-2 -7 -4 -22.5t-2 -16.5q7 -5 16 4q13 12 26.5 25.5t30 30.5t25.5 26q86 90 131 139q61 71 78 89q28 32 66 32q25 0 35.5 -10.5t9.5 -36.5q-2 -18 -10 -53q-5 -18 -19 -60t-20 -65q-14 -49 -11 -88q23 7 23 27q2 12 16 26q9 7 21 27 q8 14 24.5 40.5t24.5 39.5q3 4 5.5 9t5 10.5t3.5 8.5q0 4 2 4q2 3 10.5 19t11.5 22.5t7.5 19t5.5 23.5q0 2 1.5 4t4.5 5.5t4 5.5q1 4 4.5 11t4.5 11q8 45 32 195q15 85 4 164q-2 4 -2 14q2 48 -47 113q-2 2 -8 6t-8 6q-8 8 -8 12q-3 13 -11 21.5t-22 16t-19 11.5q-9 3 -22 0 q-29 -4 -41 -10q-83 -35 -133 -69q-89 -57 -133 -95q-20 -10 -23 -12q-8 -4 -20 -16l-43 -43q-66 -66 -97 -99q-23 -23 -42.5 -50.5t-42.5 -65t-35 -54.5q-13 -18 -23 -39t-22 -50.5t-17 -41.5q-40 -83 -51 -215q0 -16 -2 -26q-3 -39 8 -76q2 -8 7 -26t8 -29t8.5 -25.5 t11.5 -26.5q3 -4 8 -12t8 -12q32 -52 99 -62q55 -4 80 -2q27 3 116 21q29 5 68 22q13 6 34.5 15.5t39.5 17.5t34 14q17 7 31 4q6 0 90 -12q8 -4 10 -4q23 -13 5 -31q-19 -19 -46 -28q-12 -5 -35 -17t-26 -14q-47 -23 -76 -27q-12 -1 -25.5 -3t-29.5 -5t-25 -4 q-20 -2 -62.5 -8t-64.5 -8q-154 -15 -286 73q-76 48 -115 152q-37 86 -43 168q-2 6 -2 18q1 11 2.5 33t2.5 35.5t4 32.5t7 35q1 7 4.5 21.5t4.5 21.5q24 108 88 229q44 86 98 158q86 110 143 151q10 7 31 22.5t31 22.5q29 23 69 39q18 7 51 24t37 19q11 8 21 10 q16 5 67.5 23.5t79.5 26.5q44 12 88 -3q4 -4 11 -4q26 -11 87.5 -34.5t94.5 -38.5q59 -24 92 -62l8 -8q7 -3 14 -8t11.5 -8.5t10.5 -11t9 -10.5t8.5 -12.5t7 -12t7 -13.5t6.5 -12q6 -10 10 -35q10 -54 13 -94v-28.5t-2 -27.5t-3 -28q-2 -21 -10 -68q-3 -19 -12 -34 q-13 -21 -25 -68q-7 -22 -28 -80q-18 -45 -27 -63q-28 -65 -45 -101q-10 -23 -31 -35q-20 -12 -26 -22q-8 -17 -37 -29q-58 -19 -96 -57q-26 -23 -50 -25q-44 -6 -63 31q-19 27 -10 66q21 80 45 188v16z" />
<glyph unicode="A" d="M795 -209q4 -6 4 -24q2 -3 -3.5 -9t-9.5 -6q-21 0 -57 -12q-10 -4 -24 2.5t-17 15.5q-4 8 -4 15l-6 24q-15 29 -21 66q-18 71 -45 141q0 8 4 12h2h5q12 -4 16 4q9 17 10 23q0 6 -8 6q-9 2 -16 -2.5t-7 -11.5q-3 -10 0 -19h-2q-8 0 -8 2q-17 61 -35 154q-2 5 -6 16.5 t-6 16.5q0 4 -8 4h-10q-17 -7 -51 -15t-46 -12q-16 -5 -47.5 -14t-46.5 -14q-44 -11 -49 -11t-14.5 -2.5t-12.5 -3.5q-14 -2 -22 -18q-1 -3 -4 -13.5t-6 -15.5l-21 -14q-3 -3 -8 -13q-9 -22 -10 -28v-49q-2 -2 -5 -5.5t-5 -5.5q0 -3 1.5 -9t2.5 -9.5t0.5 -9t-2.5 -10.5 q-16 -30 -23 -84q0 -21 -10 -27q-4 -4 -4 -8q1 -4 2 -12.5t2 -12.5q3 -11 -1.5 -19.5t-9.5 -12.5t-16 -11q-8 -4 -10 -2q-9 5 -24.5 3.5t-24.5 0.5q-16 6 -49 6q-4 -1 -33 4q-8 4 -8 11q0 13 11 24.5t26 14.5h10q6 0 10 4l12 30q2 6 2 21q-3 0 -6.5 1t-5.5 1h-16q-1 1 -3 4 t-3 4q0 2 1 7t1 7q-7 30 4 78q0 1 6 47q3 18 20 21q0 4 4 8q14 5 16.5 9.5t-3.5 13.5q-10 5 -13 8q0 1 -1 2t-1 2q-6 14 -18 14q-2 -1 -7.5 -2t-8.5 -2q-28 -11 -80 -22q-43 -12 -90 -21q-22 -6 -41 10q-14 14 2 21q15 5 46 16.5t46 16.5q54 19 160 43l4 2q5 4 7 9.5t3 12.5 t2 10q8 16 8 29q0 4 1 14t1 15q6 6 8 6l9 -2q6 -20 45 -33q4 9 4 43q-8 2 -20 7t-17 7q-2 4 1 15.5t-3 15.5q-2 2 -2 10q14 24 18 66q0 7 10 22q17 26 11 58v14q7 10 26 43q12 22 15 43q1 8 10 33q2 7 29 74q-2 2 -8.5 7.5t-8.5 8.5q-5 11 -4 12q5 9 7.5 27t6.5 25 q6 8 15 25.5t10 19.5q3 2 0.5 6.5t-2.5 5.5v10q67 196 104 264q0 4 4 8q9 9 15 9q39 5 86 -11q12 -5 20 -20t4 -25q-2 -7 -1 -20t-1 -19q-2 -8 -2.5 -23t-1.5 -20q0 -32 2 -38q12 -86 27 -132q0 -2 8 -6q6 -3 6 -10q-4 -17 4 -22q17 -12 21 -33q0 -4 1.5 -14.5t2 -16t0 -14 t-3.5 -15.5t4 -18q7 -17 18 -31q7 -10 4 -22q-1 -3 -2 -9.5t-2 -9.5q-17 -10 -10 -24q7 -18 14 -47q0 -7 13 -7h20q5 -6 7 -20t6 -20q4 -7 6 -15.5t3.5 -19t2.5 -15.5q1 -9 12 -41q2 -7 -1 -18.5t-3 -15.5q-3 -13 16 -17q1 -7 3.5 -18.5t3.5 -14.5t1 -9t1 -10.5t4 -8.5 q4 -6 4 -19q0 -4 -1.5 -16t-0.5 -18q1 -5 6 -14t6 -13q14 -63 14 -78q0 -6 4 -18q25 -52 27 -78q2 -11 7 -33.5t7 -34.5q7 -33 15 -61q0 -7 6 -19q5 -9 15.5 -26.5t15.5 -26.5zM166 0l-4 -8l4 -8q0 1 2 4t2 4zM123 82q-2 0 -5 -2.5t-3 -3.5q0 -16 22 -21l4 -4q10 -5 13 0 q6 6 -4 12q-1 0 -4.5 1.5t-4.5 1.5q-8 16 -18 16zM94 -16q1 1 3 4t3 4v4q2 4 2 10q2 11 -1 15t-17 8q-17 -5 -25 -25q-4 -8 4 -12q3 -2 8.5 -6t8.5 -6q8 -2 14 4zM125 -66q6 3 12 3q5 30 4 38q-1 2 -3 6.5t-3 6.5q-5 -3 -29 -15q4 -25 7 -32q3 -10 12 -7zM170 -78v15h-8v-15 q0 -2 4 -6q4 4 4 6zM213 188l2 5q-2 4 -6 8q-3 1 -8.5 0.5t-5.5 -2.5q3 -3 6 -9q2 -2 4 -2q5 -3 8 0zM416 770q-22 -16 -8 -33q2 -2 4 -2l4 2q2 4 6 13.5t6 13.5q14 4 10 22q-4 7 -8 5h-4q-10 -8 -10 -21zM369 899l-4 -2q-2 -3 4 -7t10 -3q2 2 2 4q1 5 -2.5 7t-9.5 1z M328 764l-6 -6q2 -2 4 -2q9 -6 20 -2l4 4l-4 4q-4 7 -18 2zM561 348q1 3 2 9.5t2 9.5q0 7 -5 10t-11 0l-6 -3t-7.5 -3t-7.5 0q0 57 -10 78q-2 4 -2 14q2 17 -10 53q-13 54 -47 180q-4 12 -15 15q-5 -4 -8.5 -17.5t-7.5 -17.5q-6 -7 -10.5 -22.5t-5.5 -18.5q-2 -6 -8.5 -17.5 t-8.5 -17.5v-6q0 -10 -2 -12q-5 -5 -11 -18t-9 -17q-4 -4 -11 -4q-14 -3 -14 -19q5 -25 2 -32q-8 -3 -15 -8.5t-10.5 -9.5t-9.5 -13l-8 -12q-4 -4 -4 -8.5t2 -11t2 -9.5t-1 -9.5t-1 -9.5h-2l-10 -10q-8 -8 -2 -18q1 -1 2 -2.5t2 -2.5t2 -1q8 0 8 6q3 15 -2 28h2q6 2 10 13 q3 15 19 12q-6 -18 -6 -23q2 -27 -19 -63q-16 -28 -12 -43q-4 -5 -13.5 -26t-19.5 -29q-11 -8 -16 -35q4 -4 8 -4q19 0 27 4q29 10 63 19t75 18.5t64 15.5q19 5 43 2q14 -1 18.5 3.5t4.5 17.5q-3 38 -21 79q17 -4 19 -14q3 -6 8 -4zM639 184q8 -4 8 4q-2 2 -4 2q-4 2 -8 -2 q0 -4 4 -4z" />
<glyph unicode="B" horiz-adv-x="720" d="M657 324q4 -86 -10 -138q-5 -19 -16.5 -54t-14.5 -44q-10 -29 -38 -57q-9 -9 -9 -23q-2 -21 -26 -49q-24 -24 -37 -29q-7 -2 -4 -12q2 -14 -4 -16q-19 -10 -19 -27q0 -9 -10 -16q-78 -82 -127 -115q-2 -2 -6.5 -5t-5.5 -5q-40 -42 -121 -53q-18 6 -48 21t-40 19 q-34 12 -53 43q-11 14 4 25q33 22 37 23q28 6 61 22q32 14 45 35q5 12 27 25q18 6 26 22q9 14 31.5 39.5t28.5 32.5q27 27 51 57q13 14 25 30t26.5 36.5t22.5 31.5q19 24 59 101q4 8 14 28.5t16.5 36t10.5 31.5q8 47 2 72q-3 16 -23 16t-73.5 -11.5t-71.5 -19.5 q-8 -4 -10 -6q-22 -17 -55 4q-9 5 -31 23q-12 9 -47 39q-3 3 -9.5 10t-9.5 10q-7 11 -4 23q1 4 2 12t2 12q11 -7 21 0q9 3 6 13q0 8 14 36q9 9 0 13h-12q0 6 -4 10q1 2 5 9t5.5 9.5t5.5 9t6 9t6 8.5t6.5 9t6.5 7.5t8 7.5t8.5 6.5t9.5 6.5q25 29 35 51q13 38 39 64 q13 11 21 34q22 54 20 76q0 13 8 33q6 15 17.5 44.5t17.5 43.5q10 20 10 53q3 11 -10 15q-34 17 -63 12q-9 -2 -49 -7t-62 -10q-42 -14 -55 -22q-74 -40 -123 -76q-29 -19 -66 -61q-3 -4 -28 -32.5t-41 -43.5q-24 -18 -37 -47q-4 -10 -17.5 -14.5t-25.5 0.5q-3 2 -9.5 6 t-9.5 6q-4 1 -6 7t0 9q32 58 41 72q79 118 197 196q53 37 108 48q9 2 28 6t28 6q100 27 209 -21q9 -3 25 -10.5t20 -9.5q35 -14 61 -43q7 -7 10 -16q2 -9 15 -13q10 -2 10 -16q-3 -9 -14 -12q-9 0 -11 -2q-4 0 -4 -5q4 -4 6 -4q3 0 8.5 1t8.5 1q12 0 12 -8q-2 -13 2 -37 q2 -8 -6 -24q-9 -19 -6 -27q2 -2 2 -8q-18 -53 -25 -66q-17 -26 -22 -51q-10 -30 -31 -51q-12 -12 -10 -27q0 -9 -6 -12q-9 -5 -19 -29q-6 -20 -20 -45q-2 -3 -13.5 -17.5t-13.5 -25.5q-11 -6 -18 -23.5t-11 -21.5q-5 -5 -20 -35q-2 -2 -2 -8q0 -3 3 -7.5t5 -4.5q20 4 29 4 q52 7 123 -22q38 -20 59 -70q13 -30 16 -57zM547 963q-2 -1 -0.5 -6t4.5 -5q4 -2 16 2q-6 9 -10 11q-4 4 -10 -2zM457 793q-11 -4 -11 -9q0 -6 4 -10t9 -4l8 8q0 8 -3 12t-7 3zM465 659q-28 -23 -33 -32q1 0 3 -1t3 -1q21 0 39 18q5 5 0 14q-2 2 -6 2.5t-6 -0.5zM360 535 q2 0 6 3t5 3q-2 1 -5.5 4t-5.5 4q-4 -2 -6 -4q-2 -3 0 -6.5t6 -3.5zM309 -152q4 0 4 7q-1 0 -4 1t-4 1q-4 0 -4 -7q0 -3 2.5 -4t5.5 2zM397 -154q4 8 -10 11q-1 -1 -5 -3.5t-5 -3.5q0 -8 6 -14q1 -1 6.5 3t7.5 7zM115 -47q-7 1 -22.5 2t-22.5 2q-1 0 -31 6q-21 7 -21 23 q0 8 -2.5 46t0.5 46q2 10 2 31q-3 30 9 57q9 18 6 39v39q-3 49 10 88q3 6 0.5 8.5t-14.5 7.5q-1 1 -2.5 2t-2.5 2t-1 2q1 15 0 27t1 26t7 25q2 4 2 29q-3 19 2 82q1 10 4 29.5t4 29.5q8 46 4 68q-1 11 0 23t3 26.5t3 23.5q2 14 7.5 41.5t7.5 40.5q1 5 12 33q51 11 104 -8 q15 -8 23 -27v-20q0 -92 -6 -123q-4 -16 0 -53q0 -61 -15 -86q0 -1 -6 -35q0 -10 4 -12q16 -16 11 -31q-9 -37 -9 -98q0 -32 -14 -48q-8 -10 2 -20q9 -12 6 -25q-6 -23 -2 -88q2 -6 2 -18q-4 -106 -4 -162q0 -6 1 -17.5t1 -17.5q0 -4 -4 -12q-36 -11 -59 -4zM127 170 q-4 -4 -4 -6q2 -2 4 -2q0 1 1 3t1 3z" />
<glyph unicode="C" horiz-adv-x="847" d="M246 870q64 72 110 103q34 26 82 47q8 4 8 6q3 9 10.5 16t19.5 14t16 11q73 54 81 59q39 23 76 29q3 0 9 1t8 1q11 -1 35 -2.5t41.5 -4t33.5 -7.5q21 -5 45 -19q15 -8 23 -24t2 -31q-4 -11 -7.5 -34t-7.5 -34q-6 -16 -15 -47t-13 -43q-16 -59 -49 -129q-13 -35 -47 -94 q-6 -12 -21.5 -34t-21.5 -33q-2 -4 -5 -7t-7.5 -6.5t-6.5 -5.5q-13 -10 -31 8q74 114 162 351q9 20 17 61q3 24 -13 41q-8 13 -22 27q-3 3 -8.5 4.5t-6.5 -0.5q-70 -28 -96 -58q-35 -35 -53 -41q-3 -2 -7.5 -8t-6.5 -8q-5 -5 -15 -17t-16 -18q-38 -34 -53 -55 q-1 -1 -22.5 -23.5t-29.5 -34.5q-13 -22 -28 -28q-20 -7 -15 -21q0 -4 -4 -8q-7 -4 -20.5 -12t-20.5 -12l-2 -5l4 -4q0 -6 11 -10q-2 -4 -11.5 -16.5t-11.5 -20.5q-3 -6 -12.5 -18.5t-11.5 -20.5q0 -3 -5 -8q-6 -9 -18 -27.5t-18 -27.5q-5 -9 -27 -53q-12 -25 -39 -99 q-15 -38 -27 -78q-2 -3 -5 -9t-5 -9q-8 -8 -8 -22q-2 -15 -12 -82q-1 -6 -2 -18t-2 -17q-10 -35 -4 -78v-10q-1 -15 1 -30t7 -37.5t6 -29.5q10 -43 49 -124q10 -17 51 -70q32 -37 80 -37q39 -3 76 12q61 30 94 68q41 48 55 84q21 43 72 49q3 1 6.5 -1t3.5 -5q0 -18 2 -21 q5 -11 0 -22q-6 -15 -6 -29q0 -6 -4 -14q-3 -5 -23.5 -38.5t-35.5 -49.5q-71 -81 -168 -84q-114 -6 -207 29q-45 13 -66 43l-6 6t-6.5 7t-6.5 6.5t-7 6.5q-16 12 -29 28.5t-27.5 37.5t-23.5 32q-12 14 -12 43q3 69 -19 140q0 3 -2 9.5t-2 10.5q-3 38 -1.5 86t11.5 84 q4 13 9.5 40.5t9.5 41.5q9 23 12 53q4 12 2 19q-13 25 12 53q5 6 14.5 18.5t14.5 18.5q4 6 8 22q6 39 33 66q12 7 20 27q2 7 -12 16q-4 2 -12 10q6 4 16.5 13.5t16.5 13.5q36 21 59 63q12 22 41 47q2 0 2.5 1.5t-0.5 3.5q2 3 6 8t6 8q3 3 2 6.5t-4 3.5h-10q-9 0 -12 10z M309 694q-8 -1 -13.5 -4.5t-13 -12t-8.5 -9.5q24 -8 29 2q9 18 10 22q9 4 9 6q3 5 8 15.5t8 15.5v4q0 6 -6 6q-3 3 -8 -2t-7.5 -12t-4.5 -17.5t-3 -13.5zM213 643q-4 -1 -7 0t-6 3t-5 3q-9 6 -15.5 4.5t-5.5 -10.5q1 -4 -0.5 -8t-3.5 -6t-5 -5.5t-5 -5.5q19 -8 28 -2 q2 2 5.5 6t5.5 6t6 5t8 4q4 -4 8 -4q12 7 25 33q2 2 -1 6t-7 4q-9 0 -9 -2q-11 -18 -16 -31zM297 741q-1 1 -2 4.5t-2 4.5h-10q-17 -10 -17 -25q0 -1 3 -3.5t5 -2.5q9 0 16.5 7.5t6.5 14.5zM199 707h-6q-1 -2 -4.5 -5.5t-4.5 -5.5q-3 -3 -1 -6.5t7 -5.5q8 -4 13 6 q2 4 0.5 10.5t-4.5 6.5zM121 254l10 10l-8 4q-5 0 -7 -2.5t-1 -5.5zM362 852q1 1 3 2t2 2q-3 2 -5 2l-2 -2q0 -1 1 -2t1 -2z" />
<glyph unicode="D" horiz-adv-x="768" d="M657 440h17q-4 -12 -4 -16q-13 -13 -17 -14q-2 0 -7.5 1t-8.5 1q-25 -25 -35 -37q-3 -3 2 -13q2 -4 8 -10v-2q-6 0 -10 -2q-16 -8 -37 -33q-2 -2 1.5 -7t6.5 -5q12 -1 27 7.5t21 19.5q0 4 -3 10q-1 2 -3 5t-3 5v2q6 3 12 14.5t9 14.5h20q0 -3 -1 -9.5t-1 -9.5 q-10 -3 -4 -12q1 -15 -11.5 -37.5t-14.5 -29.5q-8 -5 -27 -19q-7 -5 -6 -11t10 -11l8 -4q5 -10 2 -15q-6 -12 -14 -20q-11 -11 -8 -23q3 -3 -2 -8q-21 -17 -25 -53q-2 -51 -43 -109q-15 -20 -16 -26q0 -7 -2 -9q-13 -13 -28 -41t-26 -40q-12 -12 -14 -13q-6 -4 -14 -16 q-9 -18 -23 -39q-14 -24 -33 -31q-4 -2 -7 -4t-6 -4.5t-5 -3.5q-7 -3 -20 -15.5t-23 -15.5q-7 -2 -23.5 -5t-23.5 -5q-4 -8 -6 -10q-10 -22 -35 -19q-37 11 -45 17q-3 2 -9.5 5t-9.5 5q-4 -1 -11 -3t-11 -3q-12 -4 -19 6q-14 16 -14 51q5 30 8 39q24 14 33 16q36 10 57 45 q12 25 13 27q7 21 39 35q6 1 8 0t4 -4t4 -4q12 4 25 26q15 30 30 43q7 5 11 25q0 21 12 53q1 6 7 17t7 14q2 5 6 14.5t6 14.5q7 22 17 34q10 10 10 27q0 25 23 39q8 4 12 8q6 12 6 14q1 3 0 11.5t0 11.5t7.5 7.5t8.5 6.5q5 5 5 8q4 29 -2 43q0 2 -3 4.5t-6 2.5q-8 0 -10 -2 q-1 -2 -3.5 -6.5t-5 -8t-5.5 -6.5q-8 -4 -15 -4q-4 -1 -8 2t-2 6q19 56 43 162l2 4q15 35 15 43q0 29 2 43q5 55 10 68q2 4 2 24q-3 36 4 78q6 24 6 49q0 107 -2 158q-3 70 -43 131q-2 2 -5 6t-5 6q-14 18 -39 15q-10 -2 -35 -6.5t-42.5 -9t-33.5 -11.5q-12 -6 -37 -10 q-55 -16 -96 -41q-4 -3 -21 -13t-22.5 -14t-19 -13t-20.5 -15t-17 -15t-17 -18q-8 -8 -12 -10q-14 -7 -22 -7q-8 1 -37 11q-14 7 -16.5 12t8.5 20q96 93 213 133q12 3 24 9q39 21 121 37q72 11 121 -7q74 -26 119 -71q11 -11 16 -21q5 -13 35 -43q21 -21 36.5 -52t18.5 -58 q1 -5 -4 -29q-4 -4 -2 -7t4 -4t10 -3q7 0 9 -4q0 -2 1 -5.5t1 -5.5q1 -15 2 -44t2 -44q0 -16 -13 -26q-14 -7 -4 -21q10 -20 -12 -26q-3 -3 0 -6q0 -1 2 -1q15 -3 18 -20q1 -8 5.5 -23.5t5.5 -23.5q8 -35 -15 -76q-5 -2 -8 -5t-5.5 -7.5t-3.5 -7t-3 -8.5t-2 -7 q-5 -8 -14.5 -24.5t-14.5 -24.5q-12 -4 -20 -4q-30 3 -41 -27q0 -6 2 -8q6 -6 10 -2q46 11 51 12q1 0 12 11q2 0 6.5 -1t6.5 -1v-7q1 -1 2 -4t2 -4q8 -4 12 -8q2 2 5 6t5 6zM594 604q-20 -40 -21 -49q0 -2 1 -4.5t1 -3.5q2 -3 7.5 -1t7.5 5q10 27 26 43v10l-12 6 q-4 0 -10 -6zM481 420q7 8 4 18q0 4 -4.5 8.5t-9.5 4.5l-4 -2q0 -11 2 -15q1 -2 5.5 -6.5t6.5 -7.5zM510 336l6 -12q2 -2 5 -4t3 -1q2 1 5 5l3 4q0 16 -14 16q-4 0 -8 -4v-4zM530 217q3 6 5 12q-1 2 -2.5 8.5t-2.5 8.5q-1 0 -4 1t-4 1q-4 0 -4 -4q1 -4 2 -13.5t2 -13.5 q4 -2 6 -2zM139 -82q-24 -14 -57 4q-51 28 -51 72q-1 13 -7.5 49t-5.5 57v103q0 19 -1 54t-1 54t1 58t1 59q0 80 -2 119v10q-8 31 -4 111q1 37 3 110.5t3 110.5v24q0 25 7.5 32.5t37.5 8.5q42 0 56 -8t14 -22q-4 -16 -4 -19q0 -67 4 -100q4 -45 -2 -68q-7 -19 0 -39 q6 -14 6 -43q0 -7 -2 -20t-2 -23.5t4 -19.5q3 -5 -2 -14q-4 -10 0 -29q6 -21 6 -43q2 -25 2 -74q0 -6 4 -18q14 -31 -2 -52q-5 -5 -2 -8q11 -7 11 -26q10 -85 10 -156q0 -24 6 -45q2 -5 2.5 -15.5t1.5 -13.5q2 -8 -1.5 -26t-0.5 -27q4 -9 4 -47q1 -10 4 -28t4 -25 q3 -19 -16 -23q-3 -1 -13.5 -1.5t-15.5 -2.5z" />
<glyph unicode="E" horiz-adv-x="704" d="M743 446q0 -12 -2 -18q-6 -18 -14 -57t-14 -58q-5 -29 -4 -34q0 -23 -7 -48q-3 -12 0 -24q3 -16 0 -31q-4 -12 -2 -18q4 0 2 -37l-2 -37q-6 -69 -6 -72q-2 -14 -5 -41.5t-5 -42.5q-3 -35 -25 -63q-18 -27 -22 -35q-1 -2 -8 -9t-9.5 -10.5t-4.5 -10.5t-1 -13 q-33 -50 -36 -53q-25 -32 -68 -51q-9 -3 -24.5 -10t-28 -11.5t-25.5 -7.5q-13 -4 -43 -8q-4 0 -12 0.5t-15 0.5t-12 -1q-42 -11 -108 12q-90 33 -140 94q-3 4 -22 28t-25 38q-31 59 -39 92q-1 3 -1 7.5t-1 6.5q-14 31 -4 68q5 11 -6 22q-8 8 -8 23v49q3 14 0 29q-5 15 2 35 q12 77 2 116q-4 11 0 25q10 24 6 67q-3 53 12 93q3 8 7 38q3 7 -7 17q-8 10 -4 24q3 12 11.5 49t13.5 58l6 12q24 58 27 121q1 6 2 19.5t2 19.5q16 70 20 82q22 49 33 94q0 1 10 21h15q8 3 8 8q16 -8 41 -8q28 0 37 -25q1 -2 1.5 -6t1.5 -7t3 -5q19 -25 12 -70 q-13 -65 -15.5 -95.5t-4.5 -99.5q-5 -60 -9 -73q-3 -11 0 -21q3 -26 -6 -96q-1 -6 3 -10t10 -2q19 4 82 13.5t96 18.5q43 11 88 2q21 -6 26 -24q-6 0 -10 -4q-16 0 -98 -15q-37 -7 -131 -20q-7 -1 -66 -16q-11 -4 -14 -15q-5 -37 -4 -47q1 -9 1 -19.5t-0.5 -23.5t-0.5 -20 q0 -15 -2 -21q-10 -31 -10 -110q0 -61 -5 -84q-2 -4 -2 -15q9 -62 -2 -88q0 -10 2 -14q7 -25 4 -64q0 -37 19 -96q3 -7 18 -47q7 -23 32.5 -51t47.5 -39q9 -6 31 -10q74 0 121 41l30 30q6 8 19.5 23.5t19.5 23.5q9 12 21 35q28 48 59 148q4 13 31 153q14 82 51 197l8 28 t9 35t4 29q3 14 20 21q4 4 8 0q4 0 4 -5zM33 147q6 17 5.5 26t-7.5 22q-8 -22 -7.5 -28.5t9.5 -19.5zM104 215q3 -3 7 0t4 6q-1 1 -2 2.5t-2 2.5t-2 1q-3 2 -6.5 -1t-2.5 -7q0 -4 4 -4zM147 -4q2 1 9 8q-4 11 -13 8q-5 0 -7 -2.5t-1 -5.5q5 -10 12 -8zM162 1014q-2 0 -2 2h2 v-2zM137 1006h2h-2zM143 1016q-6 -2 -6 -10q-21 10 -33 2q-7 -3 -26 -17q-16 -12 -25 -12q-9 -1 -33 -16q-8 -6 -38 -41q-16 -11 -19 -11q-4 11 -2 15q21 47 27 55q57 76 100 111q14 12 44 32.5t44 32.5q29 20 86 43q28 12 43 12q13 0 21 5q18 6 39.5 11t48.5 10.5t41 8.5 q23 4 65 4q20 0 59 -6t58 -6q5 0 25 -10q10 -4 11.5 -15t-7.5 -18q-2 -2 -17 -12q-10 -10 -24 -10q-33 -3 -76 -13q-15 -6 -33 -6q-47 -5 -117 -31q-2 -1 -8.5 -4t-11.5 -4q-40 -8 -110.5 -40t-82.5 -36q-14 -7 -26 -16v-8q-9 3 -17 0z" />
<glyph unicode="F" horiz-adv-x="557" d="M16 250q0 6 2 8q7 22 -4 33q-4 4 -8 16q-15 91 -8 156q1 10 4.5 39t3.5 45q0 26 4 76q1 8 2 24.5t2 24.5q3 21 9 78t12 88q2 8 2 28q0 59 16 125q1 5 2 15.5t2 15.5q0 2 2 4q0 8 -6 8l-6 -6q-31 0 -49 -18q-14 -14 -43 -21q-3 -3 -8 2q-4 4 -4 8q0 7 2 11q12 20 51 63 q14 12 14 35v2q4 -11 13 -6q12 8 16 12q75 69 78 72q95 76 217 76q102 0 217 -41q14 -5 29 -17q5 -2 8 -12q0 -8 -4 -8q-10 -2 -33 -2q-75 0 -195 -19q-33 -7 -57 -20q-37 -19 -74 -33l-18 -12q0 -38 -17 -66q-2 -4 -2 -14q0 -4 5 -14q16 -35 6 -78q-4 -13 -2 -19 q3 -45 0 -90q3 -7 3.5 -15.5t0 -14.5t-2 -16.5t-1.5 -14.5q0 -16 -1 -47t-1 -47q-4 -2 -13 -8.5t-14 -8.5q4 -4 10 -4q19 -6 19 -20v-54q0 -18 20 -18q25 1 75.5 3t74.5 3q50 0 82 -12q9 -2 16 -13q2 -3 0.5 -7.5t-4.5 -4.5q-8 -4 -15 -4q-16 -2 -51 -2q-17 1 -137 -10 q-14 0 -29 -6q-11 -2 -34 -11q-10 -80 -11 -90q0 -13 -1 -41t-1 -41q0 -59 -2 -88q-5 -5 -14 -8q1 -3 6.5 -14.5t5.5 -18.5q-9 -34 4 -51q-10 -16 2 -43q4 -7 0 -14q-2 -6 -10 -23q-4 -13 4 -18q15 -15 6 -41q-5 -12 -7 -36t-7 -36q-2 -2 2 -6q13 -10 2 -31q0 -8 4 -8 q21 -8 17 -33q-3 -8 4 -18q12 -26 16 -76q0 -14 -12 -14q-10 1 -40.5 1.5t-47.5 2.5q-45 3 -64 43q-9 17 -12 37q-1 13 -16 57q-9 15 0 27q8 13 4 28q-2 8 -6.5 25t-6.5 25q-8 15 -4 36q4 10 0 21q-6 2 -5 21.5t1 21.5q0 24 8 37q4 50 4 74q1 8 -0.5 24.5t-1.5 20.5v10z M41 502v8v4q-1 1 -4 3t-4 3q-3 0 -8 -3t-5 -5l7 -14q2 -3 5.5 -5t4.5 -1q1 2 2 5t2 5zM158 375q1 4 -2.5 7t-8.5 1l-4 -4q-2 -3 1.5 -6t7.5 -2q2 0 6 4zM141 352q0 2 -4 6q-8 4 -8 -4q0 -6 4 -6q8 -4 8 4z" />
<glyph unicode="G" horiz-adv-x="847" d="M-33 432q1 4 2 12.5t2 12.5q7 27 12 35t29 32q2 3 15 11t14 16q2 5 7 15.5t7 15.5q7 10 -6 20q-10 10 -2 21q9 14 25.5 45.5t27.5 46.5q24 30 39 67q11 22 39 62q8 12 25.5 33t25.5 32q29 40 72 76q16 14 45 43q49 49 125 98q62 40 147 27q34 -5 99 -35q12 -6 20 -14 q5 -5 15.5 -16.5t15.5 -16.5q0 -48 -4 -61q-4 -8 -4 -24.5v-20.5q0 -17 -2 -23q-1 -2 -13 -31t-22 -43q-17 -29 -27 -61q-9 -34 -34 -62q-2 -2 -7 -7.5t-6 -8.5q-3 -22 -26 -31q-12 -4 -21 -26q0 -10 -18 -6q-32 6 -41 32q9 12 24.5 41.5t28.5 44.5q10 14 28.5 42.5 t28.5 43.5q39 55 52 131q9 42 -19 80l-3 4q-3 4 -5 5q-2 0 -4 2q-10 -5 -17 -5q-35 -7 -82 -38q-37 -25 -98 -86q-4 -3 -14.5 -15.5t-18.5 -15.5q-6 -3 -6 -8q-2 -8 -7 -16.5t-12.5 -18.5t-10.5 -15q-6 -10 -29 -51q-13 -25 -49 -75q-28 -39 -29 -41q-5 -7 -8 -17 q-1 -2 -1.5 -9t-2.5 -9q-3 -7 -13.5 -21.5t-13.5 -23.5q-2 -4 -5.5 -14t-7 -17t-7.5 -12q-4 -4 -25 -41q-2 -3 -6 -8.5t-6 -8.5q-6 -3 -6 -10q-11 -57 -47 -115q-2 -3 -2 -18q0 -3 -5 -23q-3 -10 -9 -30.5t-9 -30.5q-3 -7 -2 -10q0 -35 -6 -49t-6 -50q2 -20 -11 -59 q-7 -24 -2 -41v-55q0 -20 2 -23q6 -11 12 -32t11 -29q3 -6 10 -18t11 -21t6 -18q8 -23 36 -39q31 -18 80 -31q51 -15 92 16q16 13 29 29q49 54 76 123q6 17 18.5 49t18.5 49q11 29 8 53q-3 66 8 121v27q0 3 -4.5 5.5t-7.5 2.5q-6 -3 -90 -35q-14 -4 -39.5 -14t-36.5 -14 q-48 6 -82 28q-3 2 -3 6t3 6q1 0 3 1.5t3 1.5q16 5 46 17t34 13q47 17 119 39q41 14 69 21q16 3 23 18q1 3 6 23q12 28 25 43q3 0 10 1t10 1q22 0 62 -4q11 -2 28 -15q5 -2 7.5 -7t1.5 -9q-1 -3 -4.5 -10.5t-4.5 -10.5q-7 -21 2 -32q6 -9 0 -17q-16 -16 -16 -35q0 -8 -4 -16 q-6 -14 -10.5 -29t-8 -33.5t-6.5 -27.5q-1 -5 0.5 -15t1.5 -14q-4 -19 0 -78q2 -19 5.5 -88.5t9.5 -105.5q4 -17 8 -55q5 -18 -2 -23q-2 -2 -10.5 -2.5t-10.5 -1.5t-9.5 -6.5t-12.5 -5.5q-6 -1 -12 1t-13 6t-10 5q-4 2 -12.5 6t-12.5 6q-30 16 -36 45q-3 10 -9 23q-2 2 -4 2 h-4q-1 -1 -3 -4t-3 -4q-6 -8 -18 -26t-22.5 -31.5t-22.5 -24.5q-3 -5 -6.5 -9t-8 -7.5t-8 -6.5t-10 -5.5t-10 -4t-11 -4l-10.5 -3.5t-11 -3.5t-11 -3.5q-2 -2 -11 -2q-68 4 -100 8q-56 8 -119 39q-76 39 -108 71q-16 16 -25 31q-13 18 -39 62q-24 43 -29 79q0 7 -4 23 q-10 34 -10 82q0 6 4 18q2 4 6.5 13.5t6.5 13.5q4 12 4 18q-5 32 10 82q2 6 3 23t7 26q5 5 -4 9q-12 6 -8 20q1 4 4 13.5t4 13.5h16q14 0 17 10v18q16 5 12 23q-2 2 -4 2q-4 2 -8 -2q-3 -13 0 -23q-4 2 -13 -2q-1 -2 -4.5 -4t-5.5 -4zM166 541q-38 -6 -78 -15q-4 0 -4 -6 q0 -2 6 -8q27 -7 53 -4q5 0 17 4q11 4 14 12q0 13 -8 17zM-33 158q0 4 -4 8t-8 4q-1 -1 -3 -2t-3.5 -2t-1.5 -2q0 -2 1 -6t1 -6q2 -3 6.5 -4t7.5 2q4 4 4 8zM66 240h-7q-1 -1 -4 -3.5t-4 -3.5q0 -4 4 -8q8 -4 15 -4q10 -3 10 6q4 9 -4 9q-2 1 -5 2t-5 2zM23 289q-8 4 -13 4 q-4 0 -6 -3.5t0 -6.5q8 -8 14 -2q1 1 2.5 4t2.5 4zM162 625q-4 -8 -4 -13q-1 -3 3.5 -4.5t8.5 -1.5q6 4 6 10q-7 6 -14 9z" />
<glyph unicode="H" horiz-adv-x="864" d="M748 936q3 -27 -15 -49q-6 -6 6 -10q11 -5 11 -13q3 -9 0 -18q-8 -6 -23 -21q1 -3 6.5 -9t8 -11t-0.5 -10q2 -9 0.5 -30t-0.5 -30q0 -30 -8 -51q-3 -2 -0.5 -9t2.5 -9q5 -31 2 -64q-10 -57 -8 -96q2 -18 2 -55q-12 -16 0 -52v-10q-5 -10 -1 -45.5t3 -46.5q-4 -45 4 -64 q0 -6 -2 -8q-7 -53 0 -88v-10q-3 -7 -8 -33q0 -6 3 -16t3 -12q0 -11 -2 -15q-4 -18 -4 -78q0 -54 -4 -67q-3 -17 6 -29q5 -11 4 -14q-8 -10 0 -33q13 -26 6 -61q0 -1 -3 -4t-5 -3q-39 6 -43 7q-15 4 -30.5 7t-34.5 6t-29 5q-19 2 -35 25q-17 30 -14 57q3 31 -4 72 q-4 49 -4 147v176q5 70 4 82q0 4 -4 7t-9 1h-10q-4 9 -8 23q8 0 20 4q15 3 15 16q0 6 -1.5 27t-0.5 31q2 21 2.5 57.5t1.5 48.5q3 21 6 60.5t4 52.5q0 29 10 41q9 11 2 33q-7 10 -4 18q1 20 6.5 56t6.5 46q3 42 12 90q15 98 33 152q3 14 24 14q48 3 84 -28q8 -26 17 -105 v-55zM602 594l4 2q0 2 -4 6l-2 -2q0 -1 1 -3t1 -3zM453 377q7 0 12.5 -6.5t7.5 -14.5q0 -4 -4 -8t-10 -4q-70 -13 -97 -16q-57 -9 -110 -15q-10 0 -16 -2q-9 -2 -19 -0.5t-21 0t-16 -7.5q-8 -7 -7.5 -22t-2.5 -25q-4 -8 0 -27q-14 -8 -14 -24q-6 -9 8 -15q2 0 5 -1t5 -1 q2 -4 2 -14q6 -23 -8 -43l-2 -2q-14 0 -16 -6q-1 -3 0 -4.5t4 -4t4 -3.5q2 -5 7 -15.5t7 -15.5q1 -10 2 -31.5t2 -32.5q0 -36 -2 -43l-4 -2q4 -4 4 -6q1 -4 2 -11t2 -11q-6 -4 -6 -17v-2q-8 0 -10 -2q-8 -4 -6 -10q2 -5 6 -15.5t6 -15.5q1 -1 4 -3t4 -3q17 -24 17 -70 q-17 0 -17 -8q-1 -5 -5 -14.5t-6 -17.5t-1 -15q-4 -13 -14 -20q-14 -9 -24 -10t-28 8q-48 23 -65 65q-11 27 -2 43h6q3 1 9 2t9 2q4 1 12.5 3t12.5 3l10 -10q1 -3 2.5 -6.5t3 -5.5t4.5 -5l4.5 -4.5t5.5 -4t5.5 -3.5t6 -3t5.5 -3q6 2 8 4q7 19 -16 27q-8 4 -27 4v10 q-7 17 -14.5 22t-26.5 7h-22q-2 15 -11 47q-3 18 9 33q22 0 32 2l4 2q0 8 -4 10q-2 1 -6.5 3.5t-8 4.5t-5.5 5q-3 5 -8 24q-16 32 -17 35q-2 10 -2 33q6 6 8 10q5 5 -6 18q-3 7 -3.5 15.5t0 14t2 16t1.5 14.5q4 4 4 18q-1 7 -2 20t-2 19q11 7 11 21v0q2 1 7 2t7 2q4 4 4 8 q0 6 -8 6t-8 -4q-2 -4 -2 -14v0h-23q-6 3 -6 10q-1 9 -1 12t2.5 12.5t2.5 12.5q11 23 2 41q-3 5 -3 9.5t0.5 6.5t4 7.5t4.5 6.5q6 9 6 21q-4 16 -4 24q-8 18 0 46q0 2 6 8q0 16 4 22q9 25 -6 47q-9 9 -2 19q0 8 8 28q0 11 -8 19q-10 10 -10 20q-3 96 8 213q3 18 19 150 q6 28 6 29q4 21 14.5 66t13.5 69q18 10 54 6q17 -3 29.5 -15.5t15.5 -27.5l1 -18q1 -17 5 -25q18 -45 8 -101v-10q5 -78 6 -94q-9 -16 -11 -47t-3 -37q0 -3 1 -7.5t1 -6.5q4 -41 -29 -51q-2 0 -2 -5q0 -6 6 -6q4 -2 11 -2q15 -6 12 -14q0 -45 -2 -68q0 -6 2 -10 q-1 -5 4.5 -28.5t-2.5 -28.5q0 -28 -10 -58q0 -10 4 -16q13 -16 10 -33q4 -7 0 -14q-2 -3 -6.5 -7.5t-5.5 -6.5q-2 -2 -2 -5.5t2 -3.5q7 -7 12.5 -21t9.5 -20q24 -4 66 0q52 6 108 15q31 4 95 4zM51 627q0 -6 6 -6q10 -5 15 -5q3 0 10 7q0 7 -6 10q-14 5 -21 0q-4 0 -4 -6z M63 520q-6 -6 -6 -8t2.5 -4t3.5 -2q5 -3 10 -1t5 5q0 2 -4 6q-2 1 -6 2t-5 2zM61 76q7 4 5 8q-1 1 -4.5 2t-4.5 2l-4 -8q0 -8 8 -4zM129 -61q2 0 6 4q-2 1 -3.5 4t-2.5 4q-4 0 -8 -4q-4 -2 2 -6q3 -2 6 -2zM92 391l8 12q-10 4 -28 13h-11q-6 -2 -10.5 -12.5t-1.5 -16.5 q8 -8 14 -8q13 3 29 12zM86 455q14 0 18 2q0 15 -18 18q-8 8 -12 8q-3 1 -7 -1t-4 -5q-2 -2 -2.5 -7.5t-1.5 -6.5q0 -4 2 -8h2q0 -3 5 -13q2 -3 6 -3t6 3q1 2 3 6.5t3 6.5z" />
<glyph unicode="I" horiz-adv-x="321" d="M190 272q-3 -7 -8.5 -21t-7.5 -20q2 -3 5 -4t7.5 -1t6.5 -1q11 0 8 -10q-2 -4 -6.5 -11t-6.5 -11q6 -5 8 -12t0.5 -18t-1.5 -13q-3 -15 -9 -27q-5 -7 -22 -41q3 -2 8 -6t8 -6q-6 -12 -6 -13q-5 -10 -2 -14q16 -13 8 -33q-12 -40 -6 -80q1 -7 -4 -18t-6 -14q18 -28 12 -60 q-6 -19 2 -39q2 -4 2 -28l-6 -9q-9 2 -23.5 4.5t-26.5 5.5t-22 7q-36 12 -59 10q-19 0 -32.5 17.5t-10.5 33.5q14 54 4 94q0 4 1 12.5t1 12.5q1 10 5.5 34t4.5 38q-1 4 0.5 8t3.5 8.5t3 7.5q2 2 2 8q-6 6 -8.5 14.5t-3 14t0 17t0.5 14.5q0 19 4 55q0 19 4 54t5 47 q12 186 12 188q1 24 7 69t7 62q0 2 1 7t1 7q-1 18 -1 24t2 23t3 23q1 22 4.5 64t4.5 63q5 80 30 207q2 8 9 37.5t10 46.5q2 8 10.5 13.5t17.5 4.5q37 -3 72 -12q11 -4 35 -23q6 -3 6 -14q-4 -40 -4 -59q-1 -9 0 -28.5t0 -27.5q-4 -23 -8 -63.5t-6 -56.5q-7 -72 -7 -123 q0 -3 -1 -9.5t-1 -9.5q-1 -4 -5.5 -10.5t-5.5 -10.5t3 -12q3 -4 -1 -13.5t-1 -14.5q0 -6 -2 -8q-10 -14 2 -21q4 -3 4 -20q-6 -39 -10 -121q-1 -3 -2 -9.5t-2 -9.5q-3 -4 -3.5 -9t0.5 -11.5t1 -9.5v-50q0 -17 -12 -45q-9 -22 -9.5 -26t2.5 -19zM147 145v9q0 4 -2 6t-4 0 q-4 0 -4 -2q-2 -5 -13 -20.5t-15 -18.5l-3 -4q0 -1 -1 -3t-1 -3q2 0 5.5 -2t5.5 -1q4 0 14 5q18 6 18 24v10zM37 -68q-8 -4 -10 -8q0 -4 4 -8q3 -2 7 3t3 9z" />
<glyph unicode="J" horiz-adv-x="655" d="M705 1073q3 -18 -13 -20q-10 -2 -29.5 -6.5t-29.5 -6.5q-39 -4 -117 -16q-8 0 -20 -8q-9 -4 -9 -10q0 -7 2.5 -33.5t-0.5 -30.5q14 -21 7 -63q0 -3 0.5 -29t-4.5 -29q-3 -10 0 -20q3 -16 8 -156q0 -12 -6 -18q-9 -15 -2 -39q6 -9 6 -23q0 -59 -2 -88q0 -8 -2 -10 q-13 -18 0 -41q2 -3 2 -18q0 -5 -1.5 -23t-0.5 -27q4 -29 -17 -39q-5 -5 2 -8q1 0 3.5 -2.5t2.5 -3.5q-2 -9 0.5 -25.5t1.5 -23.5q0 -20 -8 -33q-7 -12 -4 -28q5 -8 -2 -19q-7 -8 -6 -12q12 -37 8 -76q-6 -30 -12 -57q-3 -10 -8 -15q-13 -10 -6 -30q0 -5 -5 -15 q-13 -20 -16 -55q-4 -47 -27 -68q-5 -5 -2 -12q0 -14 -10 -22q-23 -15 -37 -27q-2 0 -2 -4q-2 -7 -6 -21.5t-6 -21.5q-30 -4 -43 -8q-6 -2 -18.5 -7.5t-18.5 -7.5q-27 -9 -57 -18q-16 4 -35 8.5t-42 11t-36 9.5q-18 26 -33 36q-28 16 -28 46q-3 20 -11 30q-22 36 -16 72 q4 56 31 149q0 7 8 19q54 114 135 207q10 10 16 14q5 4 18 3.5t19 -5.5v-10q-1 -2 -4 -6.5t-4 -6.5q-7 -8 -23.5 -28t-28 -34.5t-20.5 -29.5q-57 -83 -69 -143q-4 -22 -8 -29q-19 -45 -19 -131q0 -30 27 -57q18 -20 49 -41q25 -12 41 4q71 63 88 111q8 22 31 104 q5 20 8.5 42.5t6.5 52t5 42.5q1 5 3 26.5t7 31.5q2 6 2 20q0 6 1.5 19t1.5 20q2 21 5 60.5t5 60.5q8 78 8 231q0 91 4 271q1 19 7 51.5t7 44.5q1 9 -4 13.5t-16 2.5h-4q-6 0 -10 -4q-8 -6 -56 -22q-21 -5 -47 -15q-3 -1 -10 -4t-10 -4q-11 0 -31 -4q3 17 8 52.5t8 53.5 q3 1 8.5 3.5t8.5 3.5q76 26 229 57q34 7 88 14q46 9 86 15q12 2 29 -2q59 -13 70 -62z" />
<glyph unicode="K" horiz-adv-x="768" d="M25 -133q1 16 -1 45t-1 43q3 1 1.5 42t-1.5 42q0 17 4 49q6 44 2 131l-6 6q-4 -2 -12 -5t-13 -6t-8 -7q1 -2 4 -6t4 -6v-5q-2 -1 -4.5 -3.5t-3.5 -2.5q-9 1 -28.5 9t-31.5 8q-4 0 -12 8q-36 45 -4 88q18 27 23 37q45 76 73 110q13 16 13 33q-3 46 6 92q1 5 1 17t1 18 q0 56 8 103q4 12 4 38q0 66 10 97q2 6 2 14q-1 16 3 42t5 32q1 30 7 83.5t8 73.5q3 26 10 58q3 14 23 18q18 3 32 -4q23 -9 43 -22q30 -17 27 -45q-2 -41 -2 -123q0 -38 -2 -54q-2 -23 -2 -69q4 -61 -2 -92q-2 -9 6 -29q4 -8 12 -4q7 7 13 10q52 67 116 125q8 8 24 27t25 28 q54 58 82 86q24 24 62 47q48 30 56 30t63 -21q12 -5 24 -21q7 -14 -4 -22q-64 -40 -141 -117q-43 -36 -43 -37q-25 -25 -35 -37l-31 -31q-27 -27 -35 -43q-1 -4 -3.5 -7.5t-6 -7t-4.5 -5.5q-105 -119 -135 -156q-11 -11 -41 -51q-8 -6 -4 -12h8q1 0 2 1t2 1q6 3 17.5 8 t17.5 8q8 3 24.5 11.5t24.5 11.5q12 4 34 11t34 11q25 0 65 -4q20 0 37 -10q56 -31 72 -74q13 -34 16 -47q23 -99 23 -131q0 -10 4 -22q4 -16 4 -25q0 -19 5.5 -53t6.5 -49q0 -13 6 -19q10 -23 4 -43q-6 -12 4 -18q13 -11 9 -41q-1 -3 -5.5 -8.5t-6 -9t2.5 -9.5 q5 -3 6.5 -10.5t2.5 -9.5q16 -27 20 -86q0 -19 2 -29q3 -8 8.5 -27.5t11 -33.5t13.5 -27v-4q0 -3 -4 -6.5t-8 -3.5q-29 4 -47 14q-35 17 -68 20q-17 3 -35 17q-13 10 -16 22q-2 10 -8 35.5t-9 43t-4 34.5q-8 113 -10 172q-4 50 -4 74q0 1 -1 23.5t-5 33.5v14q1 24 -1.5 68 t-2.5 61q0 42 -15 111q0 8 -6 14q-4 9 -12 9t-33 -5q-22 -8 -61.5 -23.5t-50.5 -19.5q-8 -2 -62 -24q-21 -7 -18 -27q0 -17 4 -49q0 -21 -8 -29q-5 -3 0 -8q6 -6 8.5 -14.5t2 -14.5t-2.5 -17t-2 -15q0 -6 -8 -10q-3 -3 -10.5 -8.5t-10.5 -8.5q-3 -1 2 -8q4 -4 8 -4 q8 -2 23 -2q4 -8 4 -15q0 -22 -6 -43q-5 -11 -2 -24q11 -16 0 -37q-6 -15 6 -27q4 -5 0 -20q-8 -17 -6 -29q3 -25 -4 -63q-4 -21 0 -33q5 -11 2 -25q-1 -15 -1 -20.5t2 -20.5t3 -20q0 -4 1 -11t1 -10q1 -6 -0.5 -17.5t-1.5 -14.5q1 -5 5 -14.5t5 -14.5q3 -15 -6 -27 q-29 -2 -74 5q-28 4 -43 2q-12 0 -37 10q-18 7 -18 22q-4 28 -4 45q5 6 19 8t16 3q10 5 8 12q-1 8 -1.5 9.5t4 9t5.5 8.5q2 2 0.5 4t-4.5 2h-10q-15 -12 -29 -37q-2 0 -7 1t-7 1zM78 166q0 6 -4 10q0 2 -8 2q-5 -3 -3.5 -11t7.5 -11q3 -2 5.5 1t2.5 9zM74 90q-6 -9 -6 -12 q-2 -3 2 -5t8 -1q4 0 7 2.5t1 5.5q-2 2 -6 5t-6 5z" />
<glyph unicode="L" horiz-adv-x="446" d="M440 -213q-12 -8 -14 -14q-19 -31 -84 -43q-72 -12 -139 24q-44 24 -66 53q-1 1 -2 2.5t-2 2.5q-77 83 -96 174q-4 20 -8 28q-19 38 -23 97q-3 91 -6 186q-1 19 0.5 53t1.5 45q1 15 2 44t2 44q0 18 4 54q4 40 4 59q0 22 1 66t1 65q-2 50 7 178q1 14 2 41t2 41 q3 39 16 133q3 23 12.5 30t38.5 3q30 -3 56 -12q22 -4 22 -25q-3 -13 2 -24q10 -33 6 -117q-3 -17 0 -33q5 -33 2 -70q-4 -7 0 -14q7 -17 0 -43q-4 -11 -8 -29q-3 -12 0 -24q6 -12 6 -29q1 -19 2 -56t2 -56q1 -11 0.5 -31.5t0.5 -38t5 -33.5q2 -9 -6 -29q-6 -12 0 -28 q11 -29 0 -51q-2 -4 -2 -15q3 -22 1.5 -61.5t0.5 -61.5q1 -5 -3 -21.5t1 -21.5q-2 -7 -6 -21.5t-6 -21.5q19 -23 12 -39q-8 -20 2 -43q11 -26 19 -86q0 -1 4 -18t8 -25q5 -13 15.5 -39t15.5 -40q18 -45 57 -101q5 -6 23 -20q8 -10 24 -6q7 2 21.5 6t21.5 6q18 9 33 18 q2 -2 7 -6t7 -6zM45 29q4 4 4 8t-6 4q-8 0 -4 -8q1 -1 3 -2t3 -2z" />
<glyph unicode="M" horiz-adv-x="1423" d="M1286 -137q10 -8 15 -27t8 -24q6 -10 22 -48q-13 -23 -43 -16q-14 1 -63 16q-62 17 -88 17q-11 0 -41 10q-8 3 -13 8q-19 19 -26 49q-3 22 14 27q5 3 10 12q0 25 -8 33q-12 9 2 19q4 8 4 14q0 19 -4 59q-5 37 0 148q4 58 2 88q-3 129 2 235q0 3 2 52t4 75q3 38 13 88 q33 146 47 187q0 2 1 7t1 7q0 23 12 59q-52 -26 -112 -137q-18 -36 -23 -51h-2q0 -4 -2 -4v-2q-70 -154 -84 -178v4q-4 -8 -8 -12q-10 -13 -10 -29q-1 -9 -4.5 -19t-10 -22.5t-8.5 -18.5q-3 -7 -14.5 -32t-16.5 -41q-10 -33 -10 -64q0 -12 -2 -18q-5 -12 -31 -115 q-6 -21 -19.5 -58t-17.5 -50q0 -2 -1 -7t-1 -8q0 -20 -18 -65q-7 -15 -2 -25q6 -14 -2 -33q-2 -4 -7.5 -13t-7.5 -13q-5 -13 -24 -17q-45 -7 -121 9q-21 3 -29 22q-3 7 -16 21t-16 24t-8.5 28.5t-9 33t-5.5 28.5q-16 126 -16 191v4.5v5v5t0.5 5t1 4.5t1 4.5t2 4t3 4.5t3.5 4 t5 4q9 15 19 35q3 3 -1 7.5t-10 4.5q-1 0 -4 -0.5t-6 -0.5t-6 1q-9 0 -12 6q-5 24 -2 31q4 10 4 33q0 22 1 64t1 62q0 17 -1 52t-1 53q-2 23 -2 68q0 77 -4 118q-1 7 -2.5 23.5t-2.5 23.5q-8 0 -10 -2q-6 -3 -6 -8q-5 -16 -27 -84t-30 -106q-11 -56 -13 -62q-2 -9 -7 -26.5 t-7 -26.5q-14 -55 -29 -143q-3 -25 -14 -70t-14 -61q-20 -92 -21 -111q0 -15 -4 -39q0 -2 -1 -5t-1 -5q-2 -46 -18 -131q-4 -17 -2 -29q8 -23 -4 -37q-7 -7 2 -24q3 -13 -7 -21q-6 -6 -6 -18q0 -14 -6 -29q-6 -11 -14 -14q-29 -8 -49 -37q-4 -6 -21 -6q-2 1 -7 2t-7 2 q-64 27 -96 86l-11 22q-27 33 -39 107q0 23 -2 35q-11 68 0 180q14 127 11 168q0 4 1 14t1 15v24q-7 24 -4 43q1 4 -5 43q0 5 3.5 14t3.5 11q3 7 0 14q-16 23 2 55q5 9 -2 19q-5 15 -4 18q4 18 -3 47h-18q-2 6 -2 13.5t1 16t1 13.5q3 28 8 83t8 83q3 23 9.5 70t9.5 71 q0 11 4 35q2 12 12 19t23 6q8 0 10 -2q64 -12 88 -19q12 -2 31 -10q31 -17 28 -45v-39q-4 -74 -2 -112q3 -34 -4 -78q-4 -28 -4 -45t-1 -53.5t-1 -53.5q0 -21 2 -31v-47q-2 -17 0.5 -46t1.5 -42q0 -4 11 -43q2 -5 8 -39q0 -32 14 -151q-4 -8 -4 -18t2 -22.5t2 -19.5 q14 19 16 25t2 25q15 59 27 114q27 122 33 166q17 105 39 193q12 64 16 102q7 65 43 156q2 8 23 39q11 11 14 26q4 19 27 19q35 3 69 -9q20 -7 23 -20q26 -76 33 -129q2 -10 5 -34.5t6.5 -42t8.5 -34.5q0 -16 7.5 -50t6.5 -52q0 -5 4 -23t1 -28q-1 -8 4 -49q0 -4 1 -9 t2.5 -11t2.5 -9q-5 -8 6 -12v-27q-3 -7 -10 -10q-12 -2 -17 -21q0 -4 4 -8q3 0 11 4q2 1 5.5 8.5t10.5 8.5q3 -12 6 -21q0 -1 -1 -2t-1 -2t1 -4t1 -4q-8 -15 -2 -29q-10 -24 4 -41q-1 -23 4 -135q4 -40 -2 -53q-3 -9 4 -19l6 -18q-3 -12 5 -49q3 6 8 18.5t8 18.5v8v4 q16 41 29 70q76 174 88 196q14 28 32 78q44 103 95 184q4 7 9 16t11.5 20.5t9.5 17.5q7 24 15 43q5 10 19.5 30.5t19.5 32.5q10 22 22.5 40.5t31.5 42t28 36.5q4 6 17 31t21 32q9 6 15 9q5 4 16 14t17 14q14 11 30 8q27 -2 62 -22q10 -5 14 -21q7 -17 -2 -32q-6 -11 -4 -15 q9 -14 -2 -37q-6 -16 2 -49q3 -24 0 -49q-1 -4 -5 -11t-5 -11q0 -3 3 -9.5t3 -9.5l-6 -12q-9 -12 0 -23q6 -9 6 -18q-2 -8 -2 -25q-5 -30 -2 -67q2 -45 -15 -127q0 -4 -1 -12.5t-1 -12.5v-14q0 -29 -8 -37q8 -25 10 -35q0 -23 -2 -33q-1 -5 -1 -28t-7 -35v-64q0 -17 4 -49 q4 -20 -6 -32q-4 -8 -4 -15q3 -15 3 -43.5t3 -44.5q5 -21 -6 -51q-3 -18 -27 -25q-6 0 -14 -4q-8 0 -4 -12q5 -11 12 -4q10 7 27 4q3 0 5 -3.5t1 -6.5q-3 -6 -10 -13q-7 -9 2 -14q16 -6 10 -18q-6 -16 4 -29q1 -1 2 -5.5t2 -6.5q3 -13 -6 -19t-6 -16q8 -24 6 -35 q-3 -7 2 -12zM195 268q-7 -9 -7.5 -12t5.5 -12q7 9 7.5 12t-5.5 12zM164 625l-10 10q-3 3 -8 2t-7 -4q-2 -5 1.5 -10t9.5 -5q4 0 14 7zM143 276q-1 -7 -4 -21.5t-4 -21.5l4 -6q7 0 11 4q10 7 10 33v2l-2 6q0 3 -1.5 6t-3.5 4.5t-3 0.5zM115 567q6 -1 18.5 -3t18.5 -3 q5 0 8 6q2 5 -2.5 11.5t-10.5 7.5q-23 0 -30 -13q-2 -2 -2 -6zM152 522q6 0 8.5 5t-0.5 8q-1 1 -4.5 2t-5.5 2q-5 -10 -5 -13q5 -4 7 -4zM147 696q-2 -1 -7 -2t-7 -2q-8 -2 -4 -6q1 0 2 -1t2 -1h14q7 0 7 6q0 1 -1.5 2l-3 2t-2.5 2zM125 809q-13 7 -25 -2q3 -12 19 -12 q10 -3 10 6q2 5 -4 8zM82 180q0 -1 -2 -3t-2 -3t2 -3.5t2 -4.5q2 4 6 8zM197 137q21 18 18 45q-2 8 -2 25q0 8 -8 8q-2 -1 -10.5 -5t-12.5 -8t-6 -9q-2 -6 -8 -21t-8.5 -23.5t-4.5 -21.5t-1 -25q0 -9 -3.5 -11t-21.5 -7q-8 -4 -10 -4q-7 -5 -10.5 -4t-10.5 8q5 9 0 37 q3 13 -2 24q-5 9 -12 2q-10 -10 0 -24q1 -6 3 -19.5t3 -19.5q-2 -60 23 -145q8 4 10 6q11 23 4 37q-6 9 0 20q7 22 8 23q9 9 18 31t17 30q6 6 6 18q4 21 21 33zM526 412q19 15 19 28q0 6 -4 6q-2 0 -6 -1t-5 -1q-5 -4 -6.5 -8t-2.5 -10t-1 -8l2 -4zM555 193q2 5 -8 10 q-5 1 -8.5 -1t-3.5 -7q0 -6 10 -11q10 -3 10 9zM1262 242q17 10 4 24q-4 4 -9 4q-4 -2 -8 -6q-2 -2 -2 -8t2 -10q0 -3 5 -4.5t8 0.5zM1239 512q-3 -5 4 -12q3 -3 9 0.5t8 7.5q2 3 -2 6t-11 4q-1 -1 -3 -2t-3.5 -2t-1.5 -2zM1217 440q0 -2 2 -4q4 -8 10 -8q4 0 8 4v4l-10 10 q-8 -4 -10 -6zM1159 504l-8 -2q0 -2 2 -6.5t2 -6.5q10 3 10 7q6 3 -2 7q-2 1 -4 1zM1137 70q4 0 8 4q8 44 -4 63q-10 21 0 41q2 3 3.5 8.5t2.5 6.5q1 2 2 5t2 5q8 25 2 37q-2 4 -2 24q0 30 6 64q4 41 -2 61q-18 0 -18 -18q-2 -20 -1.5 -68.5t-2.5 -69.5q4 -5 2.5 -21.5 t-0.5 -21.5q-5 0 -5 -4q-9 -64 -2 -110q0 -6 9 -6zM1159 8q3 -2 6.5 1t3.5 7q-1 1 -2 4.5t-2 4.5q-15 7 -24 -2l-2 -7q4 -3 20 -8zM1169 184q11 -3 11 9l-4 4q-3 0 -7 -3.5t-4 -7.5q2 -2 4 -2zM1188 731q6 6 6 8v29v6q-4 4 -8 4q-6 2 -13 -4t-4 -10q2 -3 6.5 -8t6.5 -8v-8 q1 -7 6 -9zM1210 143v7q-1 0 -4 2t-4 2q-3 0 -5.5 -2.5t-2.5 -4.5q0 -4 4 -12q4 4 8 4zM1221 299q12 0 12 4q1 2 2 5t2 5v9q-2 6 -5.5 10.5t-6.5 3.5q-1 -1 -4.5 -2t-5.5 -2t-3 -2q-9 -9 -6 -17.5t15 -13.5zM1235 135q-2 -6 -2 -20l6 -6q8 -4 8 4q4 8 4 12q0 2 -1 6t-1 6 q-2 4 -8 4q-1 -1 -2.5 -2t-2.5 -2t-1 -2zM1253 -121q4 0 4 8q0 10 -10 7q-1 -1 -2 -4.5t-2 -4.5q2 -1 5 -3t5 -3z" />
<glyph unicode="N" horiz-adv-x="929" d="M758 -16q-2 -15 6 -39q15 -51 -16 -99q-10 -13 -21 -16q-6 -2 -18.5 -6t-18.5 -6q2 -6 2 -17q3 -10 -6 -10q-10 3 -29.5 6t-34.5 7.5t-28 11.5q-33 54 -45 92q-2 5 -6 16.5t-6 16.5q-43 90 -70 190q-15 47 -25 72l-4 8t-4 10q-7 38 -37 96q0 5 -4 9q-10 37 -36 103 t-35 97q-19 54 -57 161.5t-56 162.5q-1 15 -4 19.5t-15 13.5q-6 -18 0 -33q-1 -16 -2 -47t-2 -47q-1 -7 -4.5 -34.5t-3.5 -43.5q-2 -29 -10 -92q-4 -18 -8 -29q-6 -9 4 -16v-4q-4 -14 -0.5 -48.5t2.5 -46.5q0 -5 2 -16t2 -16v-35q0 -29 -2 -43q0 -3 -0.5 -7.5t-0.5 -7.5 t1 -6q7 -11 1 -46t-5 -46q0 -3 -2 -6.5t-5.5 -8t-4.5 -7.5q6 -4 9.5 -10t6 -15.5t4.5 -13.5q7 -20 -2 -37q-4 -7 -8 -29l6 -12l6 -12q-15 -33 0 -78q2 -9 3 -32t7 -36q-3 -15 -3.5 -19.5t2.5 -19t3 -18.5q3 -7 0 -10q-2 -5 -2.5 -9.5t-1 -8.5t0.5 -9l1.5 -7.5t3 -8.5 t3.5 -7.5t4.5 -8t3.5 -7.5v-8q0 -5 -6 -8q-3 -2 -5 -2q-90 11 -143 16q-28 3 -35 27q-4 6 -8 18q0 1 -1.5 6.5t-0.5 7.5q3 4 3.5 9.5t0 9t-2 10.5t-1.5 10q-3 21 4 47q11 39 2 78q-3 26 2 45q2 12 2 39q-1 7 -1.5 24.5t-1.5 29.5t-5 24q0 10 2 14q8 8 10 26.5t6 25.5 q2 2 3 4t-0.5 4t-3 3t-5 3.5t-4.5 3.5l-4 4q0 5 1 16.5t1 16.5v24q-4 13 -4.5 27.5t1 34t1.5 27.5v59q-3 13 4 29q16 32 2 59q-6 9 -2 20q4 48 8 78q1 12 2.5 35.5t2.5 34.5q6 42 6 47q1 39 7.5 109t8.5 98q4 90 -2 137q0 6 2 10q1 0 4 2t4 2q48 10 103 -16q20 -8 20 -27 q0 -8 4 -28q3 -22 23 -33q13 -5 20 -23q3 -14 10 -32q6 -17 7 -19q15 -34 34 -92q7 -23 22.5 -67t22.5 -66q7 -19 27 -70q2 -7 7 -20.5t7 -20.5q8 -27 28 -78t28 -77q3 -11 33 -78q20 -50 20 -66q0 -8 4 -12q23 -18 39 -59q-4 -19 0 -29q3 -5 12 0v-2q-4 -4 -4 -6 q-3 -21 10 -37q3 -3 9.5 -3t9.5 3q8 6 20 22q5 6 0 13.5t-14 7.5q-4 0 -11.5 -2t-11.5 -2q-1 0 -3.5 2t-4.5 2v2q0 5 -1 14.5t-1 14.5q4 7 13.5 21.5t13.5 21.5q9 12 -2 26q-9 9 -9 13.5t9 15.5q11 11 4 20q-2 5 -7 14.5t-7 14.5q-4 8 0 19q6 8 2 32q-2 11 -2.5 34t-1.5 30 q-1 9 8 24t10 21q0 6 -8 6h-10q-1 -1 -4.5 -3t-4.5 -3q-12 -4 -12 6v25q0 16 14 24q11 9 2 21q-6 5 -10 28q-3 15 17 23l4 4l-3 4q-4 5 -6 6q-9 9 -6 19q17 142 47 245q12 40 15 82q2 13 8.5 42t7.5 46q0 5 4 9q3 9 13.5 15.5t19.5 4.5q15 -3 82 -18q11 -2 22 -13t13 -22 q4 -60 8 -92q0 -17 -2 -19q-4 -6 -5.5 -14t-1.5 -12t1.5 -14.5t1.5 -12.5q2 -8 2.5 -27.5t3.5 -29.5q2 -7 0.5 -29t-0.5 -31q1 -8 -3.5 -25t-2.5 -28q1 -4 -1 -14t-1 -15q0 -3 0.5 -18t0 -20.5t-3 -16.5t-7.5 -20q-4 -8 0 -15q2 -7 2 -45q-5 -52 -2 -117q0 -20 -13 -36v-19 q0 -10 6 -12q-8 -4 -12 -8q-10 0 -14 -2q-9 -6 -2 -17q-1 -3 -3 -8t-3 -8q-12 -12 -13 -15q-1 -1 -0.5 -2t1.5 -2.5t1 -3.5l4 2q3 2 8.5 6.5t8.5 6.5q10 -3 18 -11q25 -22 19 -53q-3 -22 4 -49q8 -49 -13 -100q-3 -7 -8 -20.5t-8 -20.5q-2 -6 0 -8t10 -1q10 5 15 0 q6 -6 6 -14v-8q-2 -3 -5 -9.5t-5 -9.5q-8 -13 -2 -28q13 -21 10 -51zM80 410q0 -3 3.5 -6.5t6.5 -2.5q1 0 3.5 2.5t2.5 4.5q1 4 -2 7t-8 1q-1 -1 -2.5 -2t-2.5 -2t-1 -2zM55 264q0 -2 1 -5t1 -5q8 4 11 4q4 7 -2 10q-3 2 -7 1t-4 -5zM68 76q-4 -13 4 -13q2 0 7 2t9 3l-10 10 q-7 4 -10 -2zM82 -94q13 -3 16 10l-8 8q-4 3 -11 1t-7 -5q-2 -3 2 -8.5t8 -5.5zM569 782q-9 -5 -4 -10l6 -6q3 -2 6.5 2t2.5 8q0 3 -3.5 5t-7.5 1zM569 379q2 -2 11 -2q16 0 26 14q3 3 1.5 9.5t-5.5 7.5q-4 2 -8 3.5t-9 2.5t-7 2q-10 -5 -11 -6q-8 -14 2 -31zM590 147 q-1 -1 2 -3.5t8 -4.5q4 -1 8 1t2 5q-4 8 -6 9q-9 0 -14 -7zM612 45q2 1 0.5 3.5t-4.5 2.5l-6 -2q0 -4 4 -8q1 1 3 2t3 2zM608 864q6 0 15 13q-1 0 -3.5 1t-3.5 1q-6 3 -11 -1t-3 -10q0 -4 6 -4zM692 635q2 2 2 10q0 1 -2 3.5t-4 2.5q-6 2 -16 2h-17q-4 0 -8 -4q0 -6 2 -10 q20 -20 43 -4z" />
<glyph unicode="O" horiz-adv-x="878" d="M768 530q6 -26 6 -102q-1 -15 -2 -44t-2 -44q0 -16 -10 -109q-2 -20 -10 -55q0 -18 -15 -33q-6 -6 -6 -10q1 -13 -5 -34.5t-7 -30.5q-7 -34 -23 -58q-21 -35 -32 -71q-8 -34 -54 -80l-35 -35q-42 -39 -100 -55q-20 -5 -24 -5q-50 3 -84 -6q-2 -3 -19.5 -0.5t-21.5 2.5 q-94 0 -185 56q-74 44 -102 84q-7 10 -23.5 26t-21.5 21q7 10 10 10q15 10 10 16q-7 9 -13.5 33.5t-14.5 34.5q-4 2 -4 16q0 11 4 31q3 10 12 4t18 0q6 6 9 14q3 10 0 19q-5 23 10 59q1 3 2.5 10.5t4 13t7.5 9.5q25 16 19 47q13 61 38 109q2 5 11 14q13 15 14 20.5t-10 24.5 q0 7 4 19q4 52 29 77q4 4 8 17q13 51 41 86q3 3 3.5 9t-1.5 9q-7 11 2 33q2 9 -8 16q-10 5 -17 -2q-4 -4 -4 -10q0 -2 1.5 -10.5t0.5 -11.5q-10 -49 -33 -78q-7 -9 -17 -27.5t-13 -23.5q-11 -22 -9 -35q3 -17 -12 -66q-15 -9 -18 -24q-3 -17 -14.5 -61.5t-14.5 -69.5 q-7 -33 -29 -43q-14 -8 -20 -21q-13 -21 -23 -51q-2 -2 -10 -6l-2 4v29t7.5 27t9.5 28q1 1 3 4t3 4q2 3 11.5 8t10.5 12q2 10 2 31q0 42 2 62q0 12 8 28q13 19 17 51q10 100 45 177q8 19 24 32q30 10 33 37q2 4 -4 10q-1 2 -5 2t-5 -2q-21 -17 -33 -32q-6 -2 -17.5 -6.5 t-17.5 -6.5h-18q-3 -5 -9.5 -15t-9.5 -15q-8 -11 -16 -17q-3 -3 -8.5 -1.5t-5.5 5.5q-1 1 -1 3.5t-1 3.5q-1 12 -4.5 14t-18.5 2q0 2 -1 4t-1.5 3.5t0.5 2.5q1 4 4 26t5 30.5t6 24.5t10 28q7 15 10 28q7 36 31 86q9 17 49 99q43 78 115 116q78 41 151 58q28 4 43 4 q65 -8 96 -14q22 -3 45 -13q11 -3 15 -18q0 -6 -4 -10q-10 -5 -13 -5q-74 6 -135 -55q-28 -14 -55 -63q-10 -20 -21 -31q-10 -10 -17.5 -23t-15.5 -31.5t-12 -25.5q-5 -8 -2 -22q0 -18 -8 -50q-12 -38 -18 -77q-1 -8 -9 -44.5t-6 -58.5q0 -5 -2 -12t-5.5 -15.5t-4.5 -13.5 q-2 -6 -10 -17.5t-8 -19.5q9 -6 1 -24.5t-8 -22.5q0 -8 -10 -43q0 -12 2 -16q15 -35 11 -55q-3 -8 -6 -24t-7.5 -28t-11.5 -22q-2 -3 -5 -9.5t-5 -9.5q13 -24 10 -57q0 -19 12 -24q8 -3 8 -17q2 -8 2 -24q-2 -22 7 -72q6 -30 6 -31q-4 -25 16 -65q3 -7 49 -90 q29 -45 107 -64q26 -6 53 8q52 22 76 68q34 63 47 100q59 180 72 230q20 72 20 133q0 38 3 113.5t3 113.5q-3 148 -33 256q-10 36 -53 125q-14 26 -49 43q-2 1 -6.5 2t-7.5 2t-6.5 3.5t-4.5 6.5q23 33 58 23q8 -3 25.5 -8.5t25.5 -8.5q70 -32 100 -116q26 -73 33 -119 q6 -60 21 -115q12 -38 12 -80q-3 -35 4 -80zM43 2q13 10 10 25q-2 6 -8 12q-9 3 -15.5 -2.5t-6.5 -13.5q0 -6 5 -14.5t9 -8.5t6 2zM100 150h6q20 10 35 22q2 2 2 16q0 3 -4.5 6.5t-7.5 2.5q-5 -2 -14.5 -5.5t-14.5 -5.5q-9 -5 -11 -15t5 -19q1 0 2 -1t2 -1zM135 61 q10 0 10 13q-1 4 -2 6t-3 3.5t-5 0.5q-6 0 -10.5 -5t-1.5 -9q2 -4 12 -9zM170 6q4 1 7 5.5t1 6.5q-1 3 -10 7q-5 -2 -8 -6t0 -7q3 -6 10 -6zM-37 274q1 -2 5.5 -6t8 -7t1.5 -6t-13 -5l-6 -10q-21 17 -24 56t4.5 92t7.5 65q0 14 0.5 24t2 24.5t4.5 24.5t9 20t14 14.5t21 4.5 t29 -6q14 -5 18 -13.5t2 -15t-10 -21t-10 -20.5q-6 -13 -11 -36t-8 -33q-2 -7 -8 -20.5t-8 -20.5q-2 -8 -1.5 -18.5t-0.5 -18.5q-1 -11 -15 -32t-12 -36z" />
<glyph unicode="P" horiz-adv-x="768" d="M575 1188q123 -45 162 -164q18 -62 21 -123q0 -8 -2 -14q-2 -11 -17 -86q-7 -48 -34 -82q-14 -21 -23 -39q-8 -20 -16 -25q-7 -7 -7 -8q-3 -15 -20 -37.5t-21 -31.5q-7 -13 -23 -37t-20 -31q-8 -12 -14 -16q-27 -24 -57 -48q-7 -6 -17.5 -11t-24 -10.5t-20.5 -8.5 q-4 -4 -16 -4q-46 -3 -104 4q-43 4 -62 20q-4 4 -10 4h-33q-6 0 -11 -6.5t-3 -11.5v-4q22 -37 22 -86v-8q12 -36 4 -103q-3 -15 9 -20q4 -4 4 -11q1 -15 2 -44t2 -44q0 -18 -4 -28q-3 -14 0 -29q3 -9 -3 -25t-6 -22q0 -1 -1.5 -2t-3.5 -2t-3 -2q-1 0 -3 -1t-3 -1 q-1 -1 -5 -2.5t-6 -3t-4 -4.5t-1 -7q4 -7 12 -10q2 0 6.5 1t8 1t6.5 -2q3 0 2 -6q-1 -5 0 -8q1 -4 1.5 -6.5t0.5 -4.5t-1 -4.5t-1.5 -4t-3 -6t-3.5 -7.5q27 -31 27 -57q8 -12 18 -62q8 -31 3 -53q-3 -24 8 -41q-17 -17 -35 -14q-21 0 -29 -4q-20 -9 -82 -9q-41 -3 -82 0 q-19 0 -34 23q-1 2 0.5 7.5t1.5 6.5q10 7 6 23q1 3 2 10t2 10q6 9 6 19q0 6 2 8q11 11 11 15.5t-11 13.5q0 15 -10 20q-5 3 -2 6q0 7 1 20t1 19v2l2 2q6 2 14 6q9 3 12 -4l2 -4t1.5 -3.5t1.5 -3.5t2 -3q-7 -17 4 -31q2 -4 6 -16q-17 -7 -10 -29q1 -4 7.5 -5.5t10.5 1.5 l10 10q8 53 -4 80q-2 2 -2 4q-4 20 -4 31q7 32 37 37q8 2 12 14q1 4 0 10t-0.5 10.5t4.5 8.5q2 2 8 5.5t9 6.5q3 1 -2 8q-4 4 -9 0q-14 -4 -14 -14h-35q-12 0 -22 -10q-1 1 -4 2t-4 2q-15 6 -23 -4h-12q-6 10 -29 10q8 20 8 35q-1 5 -1 11.5t0.5 14t0.5 11.5q8 8 2 16 q-12 16 -10 27q11 42 4 92q-1 15 -3 42t-3 42q0 12 -4 18q-11 15 -8 29q0 16 2 46t2 46q0 14 3 44t3 44v103q0 119 2 143q4 98 16 166q2 12 3 35t2 28q4 48 8 78q0 10 10.5 19.5t21.5 9.5q26 0 84 -4q17 0 23 -13q5 -12 8 -28q4 -32 4 -49q-1 -31 1.5 -87.5t2.5 -78.5 q-1 -26 0 -79t0 -79q0 -20 3 -56t4 -46q0 -9 2 -11q4 -6 7 -20t7 -21q4 0 6 -2q50 30 66 35q12 4 18 10q69 60 92 93q7 12 26.5 42.5t28.5 47.5q11 21 33 57.5t29 48.5q20 39 35 82q10 32 6 84q0 5 -1 16.5t-1.5 18t-3 16t-6.5 17.5q-6 15 -15 30q-18 26 -47 41 q-12 4 -39 16t-43 17q-65 20 -119 12h-22q-37 2 -125 -24q-8 0 -14 -6q-77 -45 -113 -88q-58 -69 -78 -117q0 -2 -2.5 -5.5t-3.5 -4.5q-13 -16 -33 -13q-18 3 -26 17q3 21 20 45q68 102 176 176q22 14 58 29q69 21 118 26q70 9 140 0q76 -9 149 -37q20 -9 57 -20zM82 -254 q1 1 2 4.5t2 5.5q-2 0 -6 2t-6 2q-11 -4 -11 -10q4 -12 19 -4zM207 12q-3 -2 -1 -5t5 -5q8 -4 12 4q3 10 -8 10q-4 0 -8 -4zM76 510q-2 0 -8 -6q1 -1 3.5 -4.5t4.5 -5.5q6 -3 10 4q2 5 -1 9t-9 3zM59 358q-10 -5 -10 -14q0 -7 10 -10h4q6 3 7 13t-4 11h-7zM74 305l-6 6h-5 q-3 -1 -3.5 -8t1.5 -8h5q6 6 8 10zM70 39q4 4 6 8q-6 6 -10 8q-7 -2 -7 -4q-2 -5 2.5 -9t8.5 -3zM86 260q2 2 -4 8q-2 2 -4 0q-35 -6 -35 -37q0 -6 10 -36q8 -33 0 -48v-10q1 -3 2 -9t2 -9q0 -7 4 -15q1 -3 6.5 -2.5t6.5 4.5q1 2 2 7t2 8q0 17 4 53q0 19 -8 27t-4 22 q11 22 16 37zM121 201q8 -8 12 4q-1 1 -2 4t-2 4q-3 2 -7.5 0.5t-4.5 -4.5q0 -4 4 -8zM137 436q2 0 8 6q0 7 -2 9q-3 6 -8 6l-24 6q-4 0 -10 -1t-9 -1q-6 0 -10 -2q-2 -1 -6 -4t-6 -4q-6 -4 -2 -15q4 -8 12 -4q16 13 41 6q3 0 8.5 -1t7.5 -1zM184 285q5 11 4 12 q-4 11 -14 14q-4 1 -12.5 2t-11.5 2h-9q0 -1 -2 -2t-2 -2l2 -6q17 -2 31 -20q2 -1 6.5 -1t7.5 1zM203 360q0 15 -23 19q-4 0 -8 -4t0 -8q6 -14 27 -25q4 12 4 18z" />
<glyph unicode="Q" horiz-adv-x="958" d="M936 -238q2 -5 13 -33t16 -44q3 -10 0 -23q0 -3 -3 -7.5t-6 -4.5q-9 -2 -17 -6.5t-19.5 -14.5t-14.5 -12q-7 -7 -14 0l-4 4q-40 55 -51 80q-6 13 -19.5 37t-17.5 31q-9 15 -28 45t-28 45q-1 2 -16 22q-6 -7 -15 -19l-12 -16q-4 -4 -9 -7.5t-12.5 -7t-10.5 -5.5t-19 -29 q-18 -9 -39 -18q-2 -2 -14 -8q-16 -3 -46.5 -9.5t-45.5 -9.5h-17q-72 8 -100 15q-100 24 -190 108q-17 14 -31 39q-24 40 -45 57q-10 10 -6 19q5 16 -9 37q-4 8 -45 77q3 1 8.5 2.5t9.5 4t7 6.5q3 3 0 10q0 5 -6 8q-6 4 -12 -8q-6 -8 -19 0q-5 21 -4 27q8 37 -6 86 q-8 51 0 71q-7 20 12 43q4 4 4 6q4 8 4 15q0 5 -2 7t-14 9q-9 -18 -18 -33q-5 -11 -19 -4q-2 14 -2 43q0 14 10 31q12 12 -4 21q-4 2 -4 16q0 4 0.5 13.5t0.5 14.5t-1.5 12t-5.5 13q-2 3 4 14q1 4 4.5 9t3.5 6q1 6 8 31t9 38q10 5 10 17q2 6 2 18q7 6 8.5 21t3.5 20 q10 18 21 43q1 3 3 10.5t3 10.5q2 7 -12 14q-2 2 -7 2q2 3 9 15.5t13 21t13 14.5q6 12 6 15q-1 8 1.5 15t9.5 18t8 12q6 9 18.5 27.5t18.5 27.5q20 26 61 76.5t62 75.5q21 24 53 43q16 -3 46.5 -8.5t45.5 -8.5q11 -3 31.5 -6t27.5 -4q45 -7 78 -14q27 -6 55 -27 q18 -13 33 -43q3 -10 -2 -21q-3 -4 -7 -8t-9 -8.5t-8 -7.5q-9 0 -11 2q-12 8 -16 14q-25 25 -63 45q-9 6 -20 3t-17 -13q-2 -2 -2 -6q-28 -28 -33 -37q-4 -6 -9.5 -19.5t-9.5 -19.5q-13 -24 -28 -41q-26 -30 -31 -53q-2 -5 -6 -9.5t-9.5 -8t-7.5 -5.5q-6 -1 -16.5 -2 t-15.5 -2q-28 0 -47 -26q2 -1 5.5 -4.5t4.5 -3.5q6 1 18.5 5t18.5 5q5 2 8 -4q0 6 4 6l8 4q0 -11 -1 -12t-7 0q-1 -5 -4 -10t-7.5 -10t-6.5 -7q-3 -6 -23 -16q-25 -17 -31 -50q-3 -49 -24 -84q-12 -20 -15 -47q-3 -26 -24 -41q-7 -7 -6.5 -10.5t8.5 -19.5q-3 -7 -8 -25 q-3 -7 -7.5 -18t-6 -14.5t-4 -10t-2.5 -9.5t-1 -9t-0.5 -11.5t0.5 -13.5q2 -15 -8 -53q-10 -29 -27 -35q-1 0 -3.5 -4.5t-2.5 -7.5q-3 -13 -12 -19q-3 -1 -6 -3t-6.5 -5t-5.5 -4v-10q6 -6 8 -6q4 0 11 2t11 2q21 3 25 18q3 10 14 17q4 2 17 2q4 -7 4 -9q0 -3 -1.5 -11 t-0.5 -11q11 -43 -13 -84q-3 -6 2 -16h11q12 4 16 6q18 14 23 16q2 1 5 0.5t3 -2.5q4 -16 4 -27q5 -19 6 -20q7 -6 10.5 -15t5.5 -20t4 -16q41 -98 64 -129q0 -17 22 -35l21 -21q7 -10 18 -18t17.5 -11.5t24 -12t20.5 -9.5q2 -2 10 -2q66 4 90 43q22 34 31 53q2 2 4 8t4 9 q2 5 14.5 25t14.5 32q-4 12 -12.5 21.5t-21 19.5t-17.5 16q-3 2 -8.5 7.5t-8.5 7.5q-20 14 -38.5 29.5t-48.5 43t-36 33.5q-2 2 -12 17q-4 9 6 14q11 7 19 10q22 0 34 -2q5 -1 15.5 -4t15.5 -4q67 -11 121 -65q19 -19 29 -27q4 -2 16 -2q28 78 35 135q1 13 2 41t2 41 q0 157 -4 201q-7 117 -41 194q-33 83 -74 117q-1 1 -3 4t-3 4q-2 3 -0.5 9t4.5 7q28 21 57 7q9 -6 28 -18.5t28 -18.5q21 -18 32 -39q5 -12 18.5 -38t20.5 -42q11 -22 11 -41q1 -8 5 -24t4.5 -24t-3.5 -24q-2 -4 2 -16q8 -16 12 -36.5t6.5 -45t5.5 -37.5v-6q-3 -18 -3 -39 t1.5 -47.5t1.5 -40.5q0 -12 -2 -16q-8 -17 -14 -51t-10 -46q-6 -26 -23 -45q-25 -29 -28 -63q-1 -10 -7 -28t-8 -25q4 -14 25 -35q3 -3 11.5 -11t14 -14t9.5 -12q68 -95 98 -148q7 -10 10 -20q1 -4 4 -17.5t6 -19.5q2 -4 11 -14t12 -17zM68 301q2 8 -7 21h-6q-4 0 -4 -3 q-7 -7 -4 -20q5 -10 14 -6q7 7 7 8zM59 469q13 11 13 39v10q0 1 -1 3t-1 3q0 8 -9 4q0 -1 -2 -1t-2 -1q-15 -27 -6 -57l2 -2q4 0 6 2zM135 399q-2 3 -7 2t-7 -4q-8 -15 6 -22q3 -3 8 2q2 2 6 10zM104 506q0 -9 5 -14q3 -3 4 -3q14 3 14 21l-6 6q-14 0 -17 -10zM156 133l4 8 q-19 16 -39 19l-8 -8q-9 -12 0 -25q6 -6 8 -6q6 2 17.5 6t17.5 6zM248 -66q4 0 7 5t1 8q-6 12 -20 12q-9 0 -9 -6q-1 -7 6 -14t15 -5z" />
<glyph unicode="R" horiz-adv-x="780" d="M895 -219q3 -4 12.5 -11t12.5 -10q-2 -1 -3.5 -2.5t-3 -2.5t-2.5 -1q-6 -2 -19.5 -5t-19.5 -5q-2 -1 -10 -4.5t-14 -3.5q-13 2 -33 18q-2 2 -12 17q-43 68 -137 200q-21 29 -168 215q-51 64 -119 136q-9 9 -25.5 28.5t-25.5 28.5q-26 29 -72 35q-5 1 -15.5 4t-15.5 4 q-4 1 -8 -1t-2 -5l2 -4q10 -27 -6 -41q-8 -8 0 -19q3 -7 3.5 -9t-2 -4t-11.5 -5q-1 -1 -15 -8q-3 -2 -1.5 -9.5t5.5 -7.5q2 -1 8 -2t9 -2q12 -2 17 -6t5 -14q1 -8 1.5 -31.5t2.5 -36.5q2 -7 -2 -20q-9 -27 -6 -68q2 -8 2 -53q0 -7 -8 -19q-5 -11 0 -22q3 -5 -2 -15 q-10 -18 -10 -47q0 -7 -1 -21.5t-1 -21.5q1 -10 0.5 -35t1.5 -34t0 -18.5t-7.5 -24.5t-6.5 -19q0 -3 -9 -12q-34 -23 -41 -45l-4 -4q-22 -11 -22 -47q0 -3 -6 -10.5t-7 -10.5q-2 1 -5 1.5t-4.5 1t-2.5 1.5q-2 1 -12 11q-9 14 -31.5 46t-32.5 50q-9 15 7 18q2 0 6 8 q0 11 4 39q0 15 -4 23q-5 15 -9 39q-3 9 0 18q9 32 9 43q0 7 3.5 21.5t4.5 17.5q1 4 -1 5t-11 1q-1 0 -3.5 1t-3.5 1q-5 30 -4 37q1 9 -0.5 26.5t-1.5 22.5q1 12 2 35t2 35q4 25 -2 37v10q0 4 1.5 20.5t0.5 24.5t-7 22t-7 19q-4 12 -4 19q4 15 -14 41q16 6 16 18q4 19 8 57 q5 32 6 33q6 13 2 39q0 7 -10 10q-8 3 -8 15q0 4 0.5 11.5t0.5 12t-1 10.5t-4 11q1 15 6 88v14q-4 21 -2 29q5 25 6.5 50t2.5 66t1 50q0 17 4 53q4 10 4 35q3 33 6 45t17 43h2q1 0 36 -0.5t36 0.5q28 0 55 -6q18 -5 29.5 -22t7.5 -34q-8 -20 2 -30q17 -17 10 -41 q-4 -9 -1.5 -33t1.5 -31q12 -46 6 -92v-29q0 -56 4 -73v-5q-6 -7 -6.5 -16t1.5 -20t1 -17q-1 -5 0 -14.5t0 -13.5q0 -6 -1 -17.5t-1 -17.5q0 -11 4 -27q-6 -6 -10 -8q-8 -6 -8 -23q4 -15 14 -8q82 38 111 80q2 4 10 12q5 6 19 21t23.5 26.5t16.5 22.5q38 56 62 137 q19 57 31 164q3 26 -11 57q-22 43 -51 76q-22 22 -49 33q-35 14 -64 14q-73 6 -143 -12q-48 -12 -70 -16q-39 -10 -63 -29q-2 -2 -2 -8h-2h-14q-7 -3 -20.5 -8.5t-20.5 -8.5q-15 -10 -17 -12q-12 -13 -33 -39.5t-32 -40.5q-14 -14 -23 -26q1 -8 -4.5 -26.5t-3.5 -27.5 q3 -5 0 -10q-5 -11 -8 -12q-18 -17 -33.5 -17.5t-38.5 13.5q-6 6 -6 14q15 66 59 115q37 40 90 80q36 28 72 36q43 24 162 54q39 10 121 14q72 3 151 -23q72 -24 115 -81q14 -20 53 -70q22 -25 25 -53q0 -11 4.5 -32.5t5.5 -31.5q2 -36 -16 -135q0 -3 -2 -9t-2 -9 q-4 -51 -39 -134q-1 -5 -6.5 -12t-6.5 -10q-36 -48 -39 -51q-15 -16 -61 -58q-4 -3 -13.5 -9t-13.5 -9q-12 -12 -20 -16q-3 -3 -3 -9.5t3 -9.5q40 -46 41 -47q13 -15 37 -43t37 -43q4 -12 12 -24t18.5 -25.5t16.5 -22.5q3 -4 32 -39q63 -88 72 -104q8 -16 20 -33t27 -36.5 t23 -30.5q6 -12 8 -13q16 -13 30.5 -28.5t31 -35.5t26.5 -30q5 -5 23 -29q3 -4 8 -13t8 -13zM123 -141l6 18l-10 10q-6 4 -15 0q-7 -7 -4 -12q10 -15 11 -16q2 -2 10 -2zM152 356q6 9 -5 17q-36 -10 -41 -11q-10 -3 -10 -16q4 -30 19 -37q3 2 8 6.5t8 6.5t3 8.5t1 7.5 q1 5 8.5 10.5t8.5 7.5zM188 35q-5 -3 4 -8q2 -2 5 -2q8 4 10 8q0 5 -4 6q-7 0 -15 -4zM188 516q1 1 3.5 4t3.5 4q0 11 -11 11q-12 -4 -8 -11q4 -8 12 -8z" />
<glyph unicode="S" horiz-adv-x="761" d="M141 -236l-92 56q-18 32 -12 51.5t33 24.5l30 -25l19 -21q11 -11 22 -14q22 -11 41 2q19 15 35 15q27 3 51 18q10 7 23 10q29 14 51 43q78 93 119 195l6 20q9 37 18 146q-1 8 -5 33t-6.5 36.5t-8 30.5t-14.5 33.5t-21 27.5l-20 35q-10 20 -33 29q-6 3 -24.5 13t-27 14 t-23.5 10t-28 10q-55 13 -129 61q-80 58 -88 142q-4 69 4 104q5 34 21 76q28 59 61 96q42 53 103 105q23 19 49 37q21 17 43 30q42 20 82 11q17 -4 52.5 -14t55.5 -13q22 -9 25 -23q9 -19 12 -32q4 -8 4 -17q-5 -42 -8 -57q-4 -23 -22 -102l-7 -15q-3 -7 -16.5 -29.5 t-15.5 -35.5q-4 -17 -35 -68q-13 -22 -37 -49q-20 -33 -76 -27q-5 0 -7.5 6t1.5 9q1 2 15.5 20t21.5 29q43 54 72 127q12 41 12 43l18 102q4 13 -8 37q-3 8 -17.5 10t-23.5 -6l-41 -41q-8 -10 -34.5 -41.5t-38.5 -50.5q-24 -31 -37 -57q-43 -97 -49 -123q0 -13 -9 -31 q-4 -10 -6 -30t-6 -31q0 -1 1 -4.5t1 -4.5q26 -68 78 -90q9 -4 53 -24.5t70 -28.5q50 -13 98 -55q21 -12 37 -31q42 -60 49 -68q47 -49 57 -135q6 -32 9 -35q6 -6 2 -22q-2 -7 -2.5 -20t-1.5 -17q0 -68 -21 -135q-8 -28 -53 -102q-8 -13 -17 -17q-3 -4 -12 -22 q-2 -8 -24 -17l-47 -8q-5 -2 -15.5 -13t-13.5 -18q0 -4 2 -4q4 -4 8 -4q11 7 19 10q3 2 8 5t8 4.5l7 3.5t8 2.5t9 -0.5q-9 -30 -53 -47q-10 -5 -12 -9q-9 -19 -47 -32q-4 -1 -8 -2.5t-9.5 -4.5t-9.5 -4q-35 -12 -71 -12q-27 0 -75.5 3.5t-62.5 4.5z" />
<glyph unicode="T" horiz-adv-x="450" d="M494 1135q25 -23 57 -58q4 -4 0 -8q-2 -2 -10 -2q-4 4 -11 4q-78 30 -151 27q-24 -1 -72 -1t-71 -1h-35v-17q13 -24 10 -57q0 -33 2 -49q0 -46 -4 -58q-2 -6 -2 -20q2 -16 2 -34t-1 -39.5t-1 -33.5q0 -6 -1 -17.5t-1 -16.5q0 -3 -1 -10t-1 -11q-1 -8 1.5 -27.5t0.5 -29.5 q-4 -40 -4 -60q0 -29 2 -43q4 -17 5.5 -38t0.5 -37t0 -37q-5 -5 -6 -11t0.5 -15t1.5 -13q0 -34 -4 -43q-5 -7 0 -25q3 -16 -11 -37q-5 -3 4 -8q1 -1 3 -2q8 0 8 -6l-6 -18q-7 -14 -4 -29q1 -4 0 -14t0 -15q0 -13 -9 -22q-4 -4 -3.5 -14.5t-2.5 -14.5q-5 -6 0 -20 q2 -12 4 -34t2 -24q19 -11 19 -22t-1 -16t-6.5 -10t-17.5 -5q-4 0 -4 -8q0 -6 6 -6q2 -2 6 -2q15 0 15 -11q4 -16 4 -24q1 -16 3 -48.5t3 -49.5q0 -11 -8 -19q-13 -8 -27 -22q-5 -5 4 -9q1 -3 12.5 -0.5t14.5 2.5q17 -6 12 -14q-8 -19 8 -41q7 -7 7 -18q0 -9 -7 -13 q-8 -6 -28 -14q-32 -14 -43 -20q-6 -3 -11 -13q-9 -23 -16 -30q-10 -10 -18 -2q-5 5 -27.5 24t-32.5 29q-4 4 -12 16q-2 3 -14 22t-21 27q-1 2 -0.5 4t1.5 5.5t1 5.5q3 6 10 2q8 -8 15 0q-4 19 -17 75q-7 22 0 39q1 2 0.5 6.5t-2.5 6.5q-4 8 -4 34q3 84 -8 156q0 4 1 12.5 t1 12.5q4 40 4 59q1 3 -4 23l2 -2l4 2q3 0 15 4q13 -1 15.5 1.5t0.5 14.5v21q0 2 1 7.5t1.5 8t3.5 6.5t8 6t2 8q-5 9 -10 9q-9 2 -18 -7q-4 1 -11 5l-6 4q0 5 -1 14t-1 14q6 8 6 29q3 54 15 107q8 36 -2 77l-4 2q-3 2 -6 0.5t-3 -4.5v-24q-2 -2 -4 -2l-6 6q-1 4 3 15t1 18 q-4 11 4 32q0 9 -2 11q-9 6 -6 16q10 189 14 231q17 132 19 142q1 2 6 39q0 5 -4 8t-10 2q-15 -4 -43.5 -10.5t-42.5 -10.5q-82 -19 -125 -41q-22 -12 -49 -2q-15 3 -19 21q0 8 4 10q3 3 13 8q6 2 17.5 6t21 7t18.5 6q49 17 125 39q85 24 190 41q105 16 283 8q16 -3 27 2 q24 6 43 -10zM29 629v16l-2 4q-2 -1 -5 -2t-4 -2v-10q0 -3 5 -8zM41 -6q7 -4 12 6q0 10 -8 10q-6 0 -10 -4q-4 -9 6 -12zM72 176q4 8 4 12q0 9 -4 21q0 2 -3 2.5t-6 -0.5q-18 -15 -8 -35q0 -4 8 -4q6 -3 9 4zM86 385q0 -6 2 -8q4 -4 8 -4q5 0 8 6q-2 2 -6 10l-4 2 q-4 -2 -8 -6zM90 35q0 -2 4 -2q6 1 17.5 5t17.5 5q4 0 8 5.5t2 8.5q0 15 -4 39q0 6 -14 6h-2q11 27 14 31q4 5 8 23q2 4 -6 12q-12 6 -20 2l-2 -2q-13 -38 -4 -57q3 -5 10 -9h2q-4 -24 -4 -32q0 -15 -15 -15q-7 -2 -12 -16v-4zM143 -92q2 5 -4 8h-4l-8 -8q-16 -12 -18 -23 q0 -10 10 -10q8 0 8 4q2 3 5 10.5t5 10.5q2 4 6 8zM147 193q7 0 7 6q0 8 -4 28q0 3 -6 4.5t-9 -0.5t-8 -7t-8 -7q16 -16 22 -24h6zM158 453q4 8 6 10q0 4 -2 6l-2 2l-4 -2l-2 -4q4 -8 4 -12z" />
<glyph unicode="U" d="M700 1055q2 -4 2 -8v-5q-15 -47 -4 -112q0 -25 -2 -29q-7 -27 0 -63q8 -36 -2 -78q-4 -14 -7 -48.5t-11 -52.5q2 -7 -2 -34q-1 -3 4 -19q1 -3 6 -8.5t6 -7.5q-18 -33 -16 -58q1 -7 -5.5 -20.5t-6.5 -19.5v-39v-39q1 -5 -1 -9.5t-4.5 -7t-7 -6.5t-6.5 -6q2 -2 6.5 -6 t6 -5.5t4 -6.5t-0.5 -9q-5 -16 -8.5 -51.5t-9.5 -54.5q-7 -18 -4 -33q0 -9 -10 -59q-3 -9 -15 -13q-5 -2 -10 -12q-6 -6 -2 -12q5 -16 4 -19q-3 -10 -8 -30t-10 -35.5t-13 -28.5q-5 -16 -16 -43.5t-14 -34.5q-15 -46 -70 -116q-2 -2 -6 -5.5t-6 -5.5q-14 -8 -39 -24.5 t-39 -24.5q-8 -4 -14 -6q-72 -20 -148 -8q-10 2 -26 10q-22 15 -39 17q-4 0 -19 10q-21 13 -55 55q-50 70 -76 152q-2 8 -2 24q0 7 1 24.5t0.5 30t-3.5 23.5q-3 15 4 29q9 26 2 53q-9 24 0 49v14q-5 18 -5.5 35.5t2.5 46.5t3 35q0 12 2 33t2 38t-4 32q3 7 4 15.5t1 18.5 t1 15q13 54 13 102q0 4 -1 9t-3 10t-3 8l-5 25t-3.5 24.5t0.5 24.5q1 7 3 21.5t3 21.5t4 32.5t3 40.5q2 39 10 117q2 34 31 111q3 7 14.5 13.5t19.5 4.5q54 -4 82 -12q36 -6 45 -41q9 -52 6 -72q-2 -6 -2 -39q0 -27 -4 -39q-1 -4 -1 -18t-5 -21q-4 -4 0 -12q15 -31 15 -78 v-53q0 -20 -7 -29q-5 -11 -4 -14q5 -10 2.5 -34t-0.5 -34q3 -27 -18 -55l12 -12q4 -9 0 -12q-21 -15 -12 -37q6 -18 12 -33q0 -2 -2.5 -4t-3.5 -2q-3 0 -19 2.5t-20 -0.5l-4 -4v-2q10 -9 17 -11.5t28 -5.5q-16 -23 -8 -47q12 -19 -6 -31q-4 -4 -4 -14q0 -7 -11 -14 q-9 -9 5 -15q1 -1 4 -3t4 -3l-6 -12q0 -10 4 -14q12 -9 24 -21q-6 -18 -6 -22q-4 -17 0 -25q8 -14 0 -41q-2 -9 -6 -27.5t-6 -27.5q19 -19 22 -43q2 -11 8.5 -33t8.5 -35q10 -65 65 -149q3 -6 14.5 -8t20.5 2q23 12 33 24q4 7 13 21.5t13 21.5q68 119 97 240q30 117 39 194 q4 23 13.5 68.5t10.5 52.5q3 14 10.5 42.5t10.5 43.5q8 33 10 47q6 88 27 170q1 3 2.5 9.5t2.5 11t1 8.5q4 39 8 113q1 12 4 33t4 30q1 7 2.5 19t2.5 21.5t1 18.5q3 22 19 41q7 7 16 13q6 3 16 0zM74 375q6 11 6 33q-2 5 -5.5 7t-6.5 -1q-2 0 -4 -2.5t-1 -3.5q3 -14 11 -33z M178 502q-2 4 -12 4q-6 0 -10 -4t-4 -8q0 -7 6 -7q3 -1 7 -4t5 -4v-28q0 -7 6 -13q4 -4 10 -4q7 7 7 8q0 24 -9 35q0 17 -6 25zM145 553q-3 -14 11 -33q4 30 2 35l-4 2q-5 0 -9 -4zM106 700q-3 -1 -2 -6t5 -6q2 -2 6 -2q6 3 4 8q-1 1 -4 3t-4 3h-5zM125 195q3 10 -8 16 q-5 5 -8 2q-5 0 -9 -8q1 -2 2 -6t2 -6q0 -3 5.5 -6t7.5 -1q5 2 8 9zM137 268q0 -2 8 -6q3 -2 7 1t4 7v15q0 11 10 14q16 5 16 31q-3 6 -9 28t-13 33q0 4 -8 4q-3 0 -5 -2l-6 -12q1 -4 2.5 -16.5t4.5 -21t8 -15.5q3 -6 1 -9.5t-12 -7.5q-12 -6 -12 -14q1 -5 2 -14.5t2 -14.5z M174 115v4l-4 4q-18 0 -20 -10q-3 -6 -3 -15l3 -4q8 0 8 2q10 10 16 19zM172 168q4 0 4 4q-1 6 -6 41v0q12 5 16 16q3 3 0.5 7.5t-6.5 3.5q-4 0 -8 -4q-2 -3 -2 -23v0l-4 -2q-14 -24 -2 -41q0 -2 8 -2zM195 16q6 6 6 7t-11 28q-2 0 -4 2h-4q0 -1 -1 -2t-1 -2q-3 -20 10 -31z " />
<glyph unicode="V" horiz-adv-x="718" d="M-51 946q-4 101 -23 168q-2 6 -2 16q0 16 8 21q19 11 33 16q31 9 64 15h24q18 -4 23 -17q3 -8 14 -29t14 -32q3 -10 11.5 -32t11.5 -32q8 -21 16 -59q3 -13 5 -41t6 -43q3 -7 0 -10q-6 -19 8 -29q-1 -9 8 -37q3 -7 8 -33q0 -8 8 -20q16 -19 0 -41q-7 -11 7 -25 q8 -4 8 -14q9 -23 2 -65q-16 -3 -35 -9q-5 0 -8 -6q-6 -6 -6 -14l7 -2h1q31 0 45 8q3 1 12 10q8 -16 0 -26q-11 -17 8 -27q1 0 1 -2t-1 -4t-2 -2q-2 -2 -10 -2q-1 1 -4 3t-4 3q-1 -3 -4 -10.5t-4 -10.5q-8 -12 0 -18q5 -7 20 0q15 6 12 -10q0 -4 -2 -4q-8 -23 21 -37 q-4 -30 8 -39q6 -48 6 -49q0 -3 6 -45q2 -4 2 -19.5t4 -23.5q-4 0 -11.5 1t-10.5 1q-4 20 -4 30q7 29 -17 50q-6 -12 -6 -15q0 -10 15 -35q-4 -30 -4.5 -38t6.5 -37t8 -37q2 -2 10 -6q4 -1 12.5 -2t12.5 -2q-14 -32 -39 -47q-6 -4 -11.5 -9t-12 -12t-9.5 -10q-4 -6 0 -17 q4 -7 14 -4q9 9 15 11q35 14 47 38q4 4 4 5h12q6 0 6 -9q2 -14 2 -45q0 -4 3.5 -12.5t3.5 -13.5q-1 -1 -4.5 -3t-4.5 -3q-3 -12 6 -15q12 0 15 6v17q8 34 35 137q7 30 28 104q2 8 9.5 41.5t9.5 51.5q2 21 10 56.5t10 49.5q3 18 9.5 52t9.5 52q11 78 41 170q8 26 29 90t30 99 q4 16 9.5 32.5t13.5 37t12 32.5q3 0 10 -1t10 -1q-1 -3 -3 -10t-3 -10q-3 0 -4 -4.5t2 -8.5q-3 -33 -31 -149q-2 -10 -4 -30.5t-4 -30.5q-9 -43 -8 -56q1 -7 -1.5 -20.5t-2.5 -18.5q-3 -14 0 -28q7 -65 -4 -117q-2 -14 -6 -43t-6 -43q-5 -3 -23 -16q-12 -7 -2 -23l10 -10 q-12 0 -18 -2t-8 -7t2 -10q8 -8 12 -10q-6 -21 -12 -39q-4 -14 4 -22q5 -10 -2 -13q0 3 -4 11q-3 8 -15 8q-8 0 -10 -2q-5 -5 -2 -11q5 -12 25 -53q-1 -2 -4.5 -10.5t-4.5 -13.5q-8 -37 -6 -56q6 -32 -8 -61q-8 -16 -12 -55q-1 -5 -4 -16t-3.5 -16.5t1.5 -17.5 q-22 -127 -56 -200q-12 -28 -10 -43q3 -12 -12 -19q-7 -3 -32.5 -14t-39.5 -16q-22 -7 -59 0q-6 0 -21 10q-23 20 -39 49q-5 12 -17.5 36t-17.5 36q-10 19 -8 26t-0.5 25t0.5 27q2 5 -1.5 21t1.5 22q2 4 -2 16q-10 16 -14 18q-10 10 -14 35q-3 21 -9 39q-12 10 -8 35 q0 4 -4 16q-12 36 -10 56q-4 7 -5.5 15.5t-1.5 21t-1 18.5q0 19 -15 29q-4 2 -8 14q-1 4 -3 13t-3 13q-3 22 -14.5 79t-14.5 89q-4 21 0 33q6 13 -6 19q-14 11 -18 41q-34 179 -39 323zM150 842q-6 3 -13.5 -2t-5.5 -11q0 -7 6 -10q5 -5 15 4q1 2 2 5.5t2 5.5q-1 1 -2 3 t-2 3.5t-2 1.5zM80 467q-4 -8 6 -8q23 -3 33 16q0 4 -2 6q-1 1 -3 4t-3 4q-25 0 -31 -22z" />
<glyph unicode="W" horiz-adv-x="1200" d="M1100 1139q2 0 3.5 -4t0.5 -5q0 -23 -6 -47q-9 -44 -2 -63q1 -2 -0.5 -7.5t-1.5 -6.5q-7 -53 -2 -91q3 -16 0 -32q-2 -13 -6.5 -38.5t-6.5 -39.5q0 -15 2 -23t-8 -8q-2 -1 -5.5 -1t-4.5 -1q-5 0 -8 -6q0 -6 2 -8q3 -6 8 -6q12 -2 12 -15v-65q-7 -16 -8 -46.5t-2 -35.5 q0 -3 -2.5 -17.5t-2 -17.5t2.5 -18v-7q-4 -16 -5.5 -32.5t-1.5 -39t-1 -32.5q0 -23 -4 -33q-7 -11 -2 -18q5 -19 2 -43q-11 -86 -11 -144q0 -8 -4 -20q-2 -9 -8.5 -31.5t-7.5 -36.5q0 -10 -2 -21t-5.5 -24.5t-4.5 -21.5q-5 -18 -9 -25q-14 -23 -10 -35q0 -2 -6 -14 q-9 -16 -27 -43.5t-24 -38.5q-2 -6 -10 -14q-60 -50 -123 -58q-36 -6 -68 17q-35 27 -51 61q-34 69 -39 129q-2 22 -14 78q-23 118 -23 217v17q-6 50 -8 139.5t-4 122.5q-1 9 0.5 26t1.5 21q0 7 -2 21.5t-2 21.5l-4 4q-2 0 -5.5 -1t-4.5 -1q-1 -1 -2.5 -2t-2.5 -2 q-8 -20 -30 -63.5t-31 -67.5q-14 -38 -25 -47q-7 -7 -4 -15q2 -12 2 -37q-5 -9 -7 -19t-4 -25t-3 -21q-7 -41 -14 -64q-22 -78 -17 -131l-6 -24q0 -3 3 -10.5t3 -10.5v-20q-1 -5 -9.5 -33.5t-4.5 -44.5q-3 -9 -8 -25t-10 -28.5t-11 -22.5q-1 -3 -2 -10t-2 -10q0 -15 -2 -21 q-7 -29 -22 -65q-1 -4 -19 -27q-12 -25 -57 -37q-15 3 -21.5 2t-20 -6t-18.5 -6q-28 -6 -55 0q-54 9 -78 53q-29 43 -30 56q-8 10 -23 61q-22 79 -29 129q-2 17 -6 50.5t-6 51.5q0 40 -6 52q-2 4 -2 26q0 5 2.5 30.5t-0.5 29.5q-2 9 -2 28.5t-2 28.5q0 27 4 37q1 6 6 17.5 t6 15.5q0 29 -4 45q-10 32 2 92q6 6 10 6q9 2 9 12q0 8 -11 8h-6q-22 41 -12 105q6 37 6 74q0 40 1 119.5t1 119.5q0 14 2 39t2 37v20q0 2 -1.5 8t-1 10t4.5 7q13 13 29 16q75 18 127 11q6 0 10.5 -4.5t3.5 -8.5q-1 -7 2.5 -12t9 -9.5t7.5 -6.5q10 -40 12 -47q3 -17 -8 -31 q-4 -7 -3 -9t9 -12q8 -4 8 -12q-1 -9 -0.5 -25.5t-0.5 -29.5t-5 -25q-3 -9 2 -47q0 -14 -12 -20q-8 -4 -22 -14.5t-15 -10.5q-5 -2 -2 -8q2 -6 10 -10q6 0 10 4q3 1 5.5 2.5t5.5 3t4 2.5q12 0 14 -4q6 -3 0 -15q-2 -4 -10 -12q-30 -19 -49 -33q-13 -8 -25 -20q-2 -3 -1.5 -8 t3.5 -6q8 -4 10 -2q5 4 27 26q15 12 37 8q2 0 12 -10q0 -6 -1 -19.5t-1 -19.5q-11 -15 -37 -30q-18 4 -18 -15q-2 0 -10 -4q-4 -4 0 -8t8 0q4 0 8 4q15 4 20 14q12 -4 17 -4q2 -10 7 -27.5t7 -23.5q3 -11 -6 -20q-8 -8 -4 -15q5 -14 -6 -31q-10 -17 8 -32q9 -6 0 -19 l-12 -18q-17 -20 4 -29l5 -3q6 -3 7.5 -5t1.5 -6q0 -16 -6 -19q-9 -9 -4 -20q6 -19 -8 -33q-5 -4 -3.5 -12t7.5 -12q2 -2 9 -6t9 -5q2 0 2.5 -3t-0.5 -5q-10 -5 -12 -11t1 -17t3 -15q-1 -1 -3.5 -5.5t-4.5 -6.5q-8 -10 -7 -14t11 -11q2 0 10 -4q7 -6 4 -14q-8 -16 -2 -35 q6 -23 -14 -39q-22 -2 -62 -22l-4 -4q-7 -8 0 -15q2 0 6 -1t5 -1q33 21 55 25q7 0 10 -15q-19 -14 -20 -16q-2 -3 -19 -37q14 -3 27 4q12 4 20 6q10 0 13 -8q3 -5 -4 -12q-10 -5 -11 -6q-10 -5 -14 -21q-4 -4 -6 -8q-2 0 -2 -4q1 0 3 -1t3 -1q9 -3 12 4q4 0 4 -2 q11 -3 11 -5t-7 -11q-10 0 -14 -2q-27 -19 -43 -21q-4 0 -4 -4v-4q0 -8 4 -8q30 -3 59 20q2 0 5.5 -1t5.5 -1l10 -10q7 -15 20 -55q1 -2 4.5 -4.5t4.5 -4.5q24 55 41 111q7 26 24.5 86.5t26.5 93.5q7 27 20.5 80t20.5 80q7 32 39 129q10 25 12 29q6 11 27.5 49.5t31.5 58.5 q13 25 66 92q16 18 43 25q4 1 18 1.5t21 2.5q26 7 49 -16q9 -9 16 -23q8 -12 8 -18q1 -9 3.5 -27t3.5 -27l3 -39t3 -40q4 -36 2 -54q-3 -13 0 -26q4 -13 -4 -37q-4 -17 6 -23q1 -1 2 -6.5t2 -7.5q0 -51 2 -76q2 -22 -0.5 -28t-19.5 -21q-1 -4 1.5 -6t7 -3.5t5.5 -2.5 q12 -8 12 -15q4 -90 6 -133q4 -41 8 -63q3 -30 9 -60q0 -2 1 -7.5t1 -8.5q-1 -13 2 -28.5t5.5 -24t10 -29t8.5 -24.5q0 -1 4 -5q11 3 15 15q1 12 4 33t4 30q2 49 2 146q4 72 8 106q5 36 2 80q0 67 17 154q13 73 20 104q5 25 10.5 70t8.5 63q4 17 8 47q9 47 2 101 q-4 27 -2 39q2 62 18 184q3 33 29 63l39 39q9 9 24 0q5 -4 35 -14q12 -2 27 -10zM84 109v6q-4 4 -8 4q-22 -15 -35 -25q-2 -2 -2 -10l4 -4h4q26 10 37 29zM80 694q6 6 6 17q0 6 -2 8q-1 1 -2 2.5t-2 2.5t-2 1q-6 0 -10 -4q-9 -38 -43 -59q-3 0 -7 -9q-2 -7 5 -14q8 -8 16 0 q32 36 41 55zM137 14q0 5 -4 9q-11 3 -14 -7q-4 -8 8 -12zM969 516q1 1 2.5 2t2.5 2t1 2q0 10 -8 0l-2 -2t-2 -4t-2 -4q1 1 4 2t4 2z" />
<glyph unicode="X" horiz-adv-x="733" d="M903 1053q4 0 4 -4q3 -1 3 -4t-3 -5q-6 -3 -18 -8.5t-15 -7.5q-18 -6 -20 -8q-5 -7 -12.5 -10t-19 -4.5t-15.5 -2.5v-34q-5 -3 -16 -12t-20 -14t-19 -7q-14 -7 -15 -12q0 -10 -3.5 -21t-6.5 -16.5t-11.5 -18t-10.5 -16.5q-4 -6 -21 -10q-6 -3 -20 6q-2 2 -6.5 2t-4.5 -2 q-6 -6 -6 -15q0 -2 4 -10t4 -10q6 -10 0 -16q-24 -28 -39 -43q-8 -7 -12 -8.5t-7.5 2t-6.5 14.5q-5 10 -10 12q-2 0 -6.5 1t-6.5 1q-6 -6 -4 -8q0 -25 2 -29q11 -29 -6 -55q-1 -1 -4 -6t-4 -8q-8 -11 -25 -2q-3 1 -8 3t-8 3h-12q-1 -1 -4.5 -3t-4.5 -3v-7q1 -4 8 -16.5 t7 -19.5q0 -13 -25 -43q-3 -3 -10 -14t-14 -16.5t-17 -6.5q-4 -4 -4 -6q-2 0 -2 -5q3 -15 -14 -41q-21 -27 -8 -65q6 -16 18.5 -48.5t20.5 -52t21.5 -45.5t27.5 -47q5 -8 14.5 -24t17.5 -28.5t17 -22.5q6 -12 18 -35t21.5 -42t15.5 -36q8 -23 39 -84q1 -2 5.5 -8.5 t4.5 -11.5q8 -28 31 -77t29 -65q2 -5 -2.5 -11.5t-8.5 -6.5q-37 0 -84 -21q-7 -2 -16 2q-38 13 -51 43q-12 23 -14 37q-16 72 -33 133q-38 150 -68 213q-5 12 -14 43q-8 25 -29.5 69.5t-28.5 61.5q-4 10 -8 15q-2 1 -6 1t-4 -1q-7 -5 -14 -19q-18 -29 -47 -77q-5 -7 -21 -11 q-18 -3 -18 -16q4 -32 -23 -80q-28 -47 -33 -59q-7 -18 -26.5 -46.5t-24.5 -37.5q-11 -11 -20 -11q-13 -3 -13 -16q0 -16 -2 -22q-4 -5 -11.5 -17t-12.5 -19t-13 -16.5t-16 -15.5q-3 -3 -12 -11.5t-13 -13t-9.5 -12.5t-8.5 -16t-16 -17q-39 -24 -53.5 -28t-61.5 -2 q-2 0 -5 1t-5 1q-3 2 -6 6.5t-2 7.5q1 2 3 7t3 7q5 10 15 26.5t11 18.5q68 147 88 187l11 22q10 19 38.5 73t50 91t44.5 70q43 58 65 80q55 64 90 133q-13 34 -43 88q-26 48 -79 164q-21 45 -62.5 128t-58.5 119q-4 8 -14.5 25t-14.5 25q-18 36 -45 43q-9 3 -4 14 q19 22 45 25q16 3 27 -5q4 -3 12 -10t13 -11.5t11.5 -11t10.5 -12.5q2 -3 18 -24.5t21 -29.5t14.5 -25t15.5 -31q64 -137 68 -146q27 -72 35 -120q0 -11 8 -27q9 -16 28.5 -46.5t28.5 -45.5q1 -2 5 -4t6 -4q10 10 14 16q6 7 15 19t17 22t15 18q12 18 33 33q34 21 67 78 q19 31 49 61q97 101 130 133q40 35 47 41q9 10 20 13q12 1 30 11t21 11q2 -2 6.5 -5t7 -4.5t6.5 -3.5t8 -3t9 0q24 0 70 -4q8 0 16 -4z" />
<glyph unicode="Y" horiz-adv-x="878" d="M715 506q-3 -5 -3 -19.5t-7 -19.5v-10q17 -25 6 -68q-17 0 -25 -2q-8 0 -8 -4q-4 -34 4 -45q4 -4 10 -4q4 0 4 4q1 5 3 14.5t3 14.5q1 2 5.5 6t5.5 6h2q-5 -10 6 -17q0 -8 -2 -10q-7 -21 0 -33v-12q-10 -3 -6 -14q-11 -11 -23 -27q11 -39 10 -51.5t-18 -42.5q0 -8 2 -12 q19 -36 0 -90q-13 -38 -10 -82q1 -3 1 -10t1 -9q5 -7 7 -15.5t2 -14.5t-0.5 -17t-0.5 -16q0 -6 -1 -20t-1 -21q-2 -1 -14 -11.5t-19 -15.5q4 -4 12.5 -12t12.5 -12v-52q-5 -19 12 -36q0 -9 -2 -9q-38 -13 -55 -6q-8 4 -17 4q-20 -3 -54.5 3.5t-43.5 7.5q-52 3 -74 38 q-2 13 -5 38t-5 38q0 13 4 17q12 20 8 45q0 29 -4 41q-6 23 2 63q13 48 13 113q0 24 10 39q5 7 12 21.5t10 19.5q0 2 1 6t1 6q4 14 -8 20q-2 1 -8 -0.5t-8 -1.5q6 26 16 60l4 4q2 2 2 10q-9 2 -12 -8q-1 2 -4.5 7.5t-3.5 8.5q0 9 4 29q7 42 0 70q-1 4 3.5 22.5t-5.5 22.5 q4 30 8 47l3.5 7t3 7.5t0 7t-4.5 8.5q-6 6 -2 23q1 15 3 44.5t3 43.5q1 12 2 33.5t2 32.5q3 48 9 94q2 18 6 55t6 55q-4 7 -0.5 27t2.5 27q0 4 -12 10q4 -3 5 -7t0.5 -6.5t-3.5 -5.5l-2 -4q-6 -23 -11 -25q-3 -1 -4 13v2q-13 -8 -8 -24t0 -19q3 -10 -0.5 -18.5t0.5 -18.5 q-35 -102 -47 -145q-10 -33 -16 -43q-7 -9 -11 -29q-1 -5 -5 -20.5t-6.5 -22.5t-7.5 -18.5t-11 -20.5q0 -1 -1 -3t-1 -3q-2 -7 -5.5 -22.5t-5.5 -22.5q-1 -5 -9.5 -19.5t-8.5 -23.5q0 -10 -14 -33q-13 -22 -41 -22q-7 0 -24 -0.5t-26.5 -0.5t-23 2t-25.5 7q-31 0 -43 35 q-11 31 -26 80q-22 90 -41 202q-17 84 -43 185q-9 30 -49 182q-3 9 3 17t15 8h12q6 -2 37 -10t47 -13q19 -6 29 -23q21 -48 27 -67q17 -64 32 -94q13 -26 13 -39t9 -34t9 -34q0 -10 7 -30.5t5 -32.5q19 -51 27 -97l4 -2h2q2 -12 4 -20.5t5.5 -19t8.5 -12t13 0.5q19 10 47 80 q33 74 57 160q3 14 9 25.5t15.5 25.5t14.5 23q10 18 21 52.5t16 45.5q30 67 35 100q6 12 6 27q3 17 23 24q14 7 24 7q18 -1 53 -3.5t52 -3.5q9 0 18 -6q25 -41 35 -104q0 -17 -2 -25q0 -9 -1.5 -28.5t-2 -30.5t0 -27t3.5 -30q3 -39 -2 -72q-3 -29 0 -58q3 -54 -13 -88v-22 q7 -4 10 -11.5t3.5 -17.5t1.5 -14q17 -47 0 -80q-2 -7 4 -16q7 -20 -4 -33zM561 313q2 1 6.5 6.5t5.5 6.5q-5 11 -8 12q-5 4 -11.5 2.5t-6.5 -6.5q0 -13 2 -17q0 -4 4.5 -5.5t7.5 1.5z" />
<glyph unicode="Z" horiz-adv-x="768" d="M723 1120q17 -14 14 -37q-12 -65 -30 -94q-2 -4 -19 -43q-21 -41 -26 -59q-9 -24 -33 -27q-7 -2 -6.5 -9t6.5 -13q4 0 4 -2q5 -10 4 -11q-10 -21 -21 -34q-31 -39 -36 -70q-1 -4 -6 -11t-5 -10q-8 -33 -39 -45q-6 -3 -6.5 -9.5t4.5 -10.5l4 -4q1 -2 3.5 -5t3.5 -5 q-2 -4 -7 -15t-8 -17t-9 -13.5t-13 -12.5q-2 -2 -6 -10q-5 -25 -35 -21q-2 0 -10 -4q-2 -2 -2 -10l8 -8q23 -25 8 -45q-19 -29 -25 -57q-2 -7 -11 -28t-11 -34q-3 -5 -12 -10q-3 -1 -9 -2t-8 -2q-12 -6 -6 -15q12 -18 0 -38q-3 -4 -5 -9t-4 -12t-3 -10q-7 -17 -17 -25 q-26 -22 -18 -51q0 -8 -2 -12q-2 -3 -9.5 -13t-9.5 -16q-2 -4 -1 -14t-1 -15q-5 -10 -15 -31.5t-15 -31.5q-2 -3 -7.5 -9.5t-7.5 -9.5h-16q-15 3 -21 -12q-1 -2 -5 -6t-5 -6q-3 -4 -1.5 -11t7.5 -8q4 -1 14 -2t15 -2q-2 12 0 15.5t12 9.5q0 -8 2 -12q-10 -12 -12 -13 q0 -10 -6 -22q-36 -76 -43 -90q-2 -6 -2 -23q0 -2 2.5 -5t3.5 -3q15 0 23 2q14 4 30 9t35 10.5t31 9.5q40 16 176 53q42 8 59 14q22 6 66 2q35 -8 47 -26q5 -7 19.5 -17.5t19.5 -15.5l2 -4q-1 -1 -2 -3t-2 -3.5t-2 -1.5q-64 3 -140 -4q-19 -4 -26 -9q-7 -6 -35 -16 q-13 -3 -195 -49q-12 -4 -34 -13.5t-33 -13.5q-10 -3 -32 -9t-32 -9q-18 -9 -20 -12q-12 -17 -41 -13q-35 8 -82 -6q-22 -7 -55 0q-27 3 -51 33q-3 3 -1.5 10.5t5.5 7.5q5 1 16 3t16 3q6 2 8.5 7.5t-1.5 11.5q-27 34 -11 82q5 13 54 137q14 42 43 53q12 4 20 33q0 5 -6 8 q-7 4 -9.5 6.5t-1.5 4.5t5 6q1 1 4 3t5 4t3 5q23 33 53 41q11 3 25 31q5 11 -4 14q-6 6 -15 6l-18 -12q-4 -2 -16 -2q4 19 28 61q7 7 9 8q18 6 26 41q2 6 6 19.5t6 19.5q3 15 17 21q6 6 6 10q1 1 2 4.5t2 5.5q4 31 27 82q11 26 36.5 74.5t36.5 73.5q3 7 9.5 21.5t9.5 21.5 q31 77 67 141q66 112 101 192q4 8 17.5 30.5t19.5 35.5q1 1 6 16q-26 6 -74 -2q-18 -3 -51 -6t-43 -4q-12 -1 -52 -2.5t-58.5 -3t-49 -5t-55.5 -9.5q-7 -2 -56 -7q-11 -2 -26 9q-1 2 -2 6t-2 6q-4 8 8 12q100 23 131 29q39 8 121 20q94 17 127 19q20 2 61 2q29 0 45 2 q24 0 33 14q14 14 16 17q18 -6 19 -7q13 -12 43 -25t43 -24zM279 254q4 0 10 6l-6 12q-2 4 -11 4q-3 0 -4 -7t2 -11q4 -9 9 -4z" />
<glyph unicode="[" horiz-adv-x="417" d="M102 88q16 -4 21 -4q16 1 45.5 2t44.5 2q44 4 66 0q9 -2 28.5 -5t28.5 -5q7 -1 35 -15q-7 -34 0 -55q3 -9 -4.5 -15.5t-18.5 -4.5q-15 5 -16 6q-30 12 -76 12q-49 -2 -150 -2q-29 0 -43 -8q-12 -6 -23 -1t-17 17q-15 26 -23 45q-7 15 -4 25q6 18 2 55q-4 65 2 90v9v159 q0 40 2 58q3 33 23 221q2 21 5 64t5 65q12 146 26 217q8 48 17 174q1 31 6.5 38t34.5 17q20 8 35 8q24 -2 67 9q31 7 49 -6q7 -4 21.5 -11.5t21.5 -11.5q15 -10 19 -16q9 -13 3.5 -30t-22.5 -20q-19 -5 -43 -2q-9 0 -28.5 1t-28.5 1q-13 0 -18 -4t-7 -16q-14 -142 -20 -193 q-9 -90 -21 -188q-6 -53 -10 -164q0 -31 -6 -61q-12 -73 -16 -183q0 -3 1 -10t1 -10q0 -10 1.5 -30.5t1 -36.5t-4.5 -31q-7 -27 0 -54q1 -22 0.5 -29.5t-4.5 -27t-5 -27.5q-1 -1 -4 -18z" />
<glyph unicode="\" horiz-adv-x="460" d="M395 -49q0 5 -1 15t-1 14q-3 41 -20 77q-3 6 -9 19t-9.5 21t-7.5 19.5t-5 22.5q-1 2 -4 9t-4 12q-28 46 -35 63q-7 15 -20.5 46.5t-20.5 47.5q-12 27 -35.5 82t-34.5 82q-13 35 -20 47q-37 75 -57 146q-3 10 -11 27.5t-10 23.5q-6 14 -18.5 41.5t-18.5 42.5 q-26 67 -37 90q-7 17 -18 46.5t-21 53.5t-20 45q-12 26 12 41q34 21 76 27q17 6 27 -14q14 -29 22 -49q80 -181 82 -185q4 -9 12.5 -27.5t12.5 -27.5q35 -72 51 -111q24 -66 49 -141q4 -18 12 -29q6 -15 29.5 -66t32.5 -79q7 -18 21 -49.5t24.5 -58.5t15.5 -52q1 -4 6 -13 t7 -13q26 -64 28 -109q0 -34 19 -53q17 -14 2 -41q-27 -46 -84 -49q-3 0 -9.5 2.5t-9.5 3.5z" />
<glyph unicode="]" horiz-adv-x="417" d="M264 88q-3 17 -4 18q-1 7 -5 28t-4 27t1 29q7 27 0 54q-4 15 -4.5 31t1 36.5t1.5 30.5q0 3 1 10t1 10q-4 110 -16 183q-7 35 -7 61q-4 111 -10 164q-8 66 -20 188q-10 82 -21 193q-2 12 -6.5 16t-17.5 4q-9 0 -29 -1t-29 -1q-24 -3 -43 2q-17 3 -22.5 20t4.5 30 q5 7 18 16q7 4 21.5 11.5t21.5 11.5q18 13 49 6q43 -11 68 -9q15 0 35 -8q29 -10 34.5 -17t6.5 -38q9 -135 16 -174q16 -80 27 -217q2 -21 5 -64t5 -65q20 -188 23 -221q2 -18 2 -58v-159v-9q6 -25 2 -90q-4 -37 2 -55q3 -10 -4 -25q-8 -19 -23 -45q-15 -29 -41 -16 q-14 8 -43 8q-100 0 -149 2q-46 0 -76 -12q-1 0 -17 -6q-11 -2 -18 4.5t-4 15.5q7 21 0 55q28 14 35 15q9 2 28.5 5t28.5 5q22 4 66 0q16 -1 45.5 -2t44.5 -2q4 0 20 4z" />
<glyph unicode="^" horiz-adv-x="606" d="M594 971q-22 -7 -43 2q-27 7 -88 28q-7 2 -17 9q-67 50 -110 98q-2 3 -19 20l-14 -14q-42 -67 -96 -121q-40 -40 -94 -71q-16 -12 -31 -7q-14 4 -43 -4q-18 -7 -30.5 4t-6.5 29q10 47 41 68q70 52 158 162q6 9 53 61q15 21 41 14q25 -6 45 8q15 12 31.5 7.5t25.5 -23.5 q4 -8 4 -16q-3 -2 -0.5 -13t1 -12t2.5 -11.5t4 -11t5 -11t5 -11.5q23 -54 28 -63q10 -26 31 -41q2 0 2 -2q38 -41 94 -62q3 -1 21 -16z" />
<glyph unicode="_" horiz-adv-x="1038" d="M274 -18q108 -5 652 -5q47 -3 80 -32q9 -9 10 -11q11 -13 6.5 -27.5t-21.5 -17.5q-17 -6 -38 -2q-57 13 -699 13q-52 0 -158 -4q-14 0 -26 -9q-17 -14 -31 0q-36 28 -39 68q0 19 19 22q8 0 14 3q41 0 118.5 1t112.5 1z" />
<glyph unicode="`" horiz-adv-x="339" d="M319 870q0 -12 -5 -18t-11 -4q-20 7 -31 20q-15 20 -20 25l-59 59q-2 2 -7.5 5.5t-7.5 5.5q-18 12 -20 14q-32 26 -86 84.5t-64 68.5q-14 17 -2 35q12 16 21 25q14 9 39 20q10 6 16.5 5t13.5 -11q10 -13 30 -37.5t30 -36.5q94 -118 141 -206q6 -10 13 -30t9 -24z" />
<glyph unicode="a" d="M725 -150q5 -6 9.5 -14.5t8.5 -19t7 -15.5q-10 -10 -27 -10q-15 1 -44 3t-44 3q-5 0 -60 17q-35 17 -43 45q-28 78 -26 123q0 55 4 161q1 29 25 136q3 14 8 39.5t8 39.5v15q0 2 -4 6h-4q-37 -59 -45 -72q-9 -18 -11 -28q-6 -26 -22 -52q-33 -59 -51 -84 q-4 -7 -12.5 -18.5t-14.5 -22t-10 -20.5q-53 -67 -55 -70q-15 -20 -17 -24q-12 -30 -63 -58q-13 -9 -47 0q-2 0 -6 2t-5 2q-6 2 -39.5 17t-52.5 20q-29 8 -51 37q-16 24 -14 39q0 17 -11 39q-1 3 -6.5 14.5t-7.5 18.5q-2 12 -2 39q0 65 2 96q3 42 23 88q7 18 16 27 q15 18 18 37q3 25 23 45q2 2 5 6t5 6q38 62 131 151q47 44 111 82q37 22 76 17q88 -9 159 -54q9 -7 28.5 -18t27.5 -16q0 -1 1 -4.5t1 -4.5q-4 -12 -15 -8q-5 1 -15 4t-15 4q-35 13 -99 5q-8 -1 -34 -17q-10 -7 -35 -26t-42 -33t-32 -29q-1 -1 -4.5 -5.5t-3.5 -6.5 q-3 -11 -8 -20.5t-16.5 -24.5t-12.5 -17q-5 -6 -12 -17.5t-14 -20.5t-15 -15q-2 -5 -13 -22t-10 -29q-39 -85 -43 -94q-11 -21 -18 -64q-1 -8 0 -23.5t-0.5 -27.5t-7.5 -23q0 -4 2 -4q4 -10 5 -21t1.5 -24.5t1.5 -19.5q1 -1 4 -3t4 -3q4 0 4 2q4 0 6 2q14 17 53.5 59.5 t57.5 67.5q35 46 72 90q29 29 59 74q12 17 36 48.5t30 39.5q31 38 59 51q20 10 27 37q9 31 14 43q0 10 10 10q65 7 109 -16q25 -14 22 -37q-1 -3 -1.5 -14t-2.5 -17q-6 -18 0 -39q5 -10 0 -29q-12 -118 -20 -172q0 -6 -1 -17t-1 -17q0 -2 1.5 -10t0.5 -11q-6 -35 -6 -106 q0 -5 -6 -22.5t-1 -27.5q-8 -29 9 -40q9 -63 8 -80v-25q-3 -13 6 -25zM244 580l-2 -2q-13 2 -19.5 -7t4.5 -16q8 -4 11 0t4 13t2 12zM170 506q4 -22 2 -35q-3 -17 -3 -19q2 -4 11 -3q4 7 10 26t13 27q1 1 11.5 6t10.5 12q0 5 -7.5 13t-8.5 10l-6 2q-18 -1 -27 -12.5 t-6 -26.5zM82 111q3 1 4 4q-4 8 -10 12q-4 -11 -2 -14q0 -6 8 -2zM92 328q-4 -44 41 -49q0 2 -6.5 9t-17 18.5t-17.5 21.5q0 17 8 49q-2 2 -6 -2h-2q-30 -5 0 -47zM608 131q2 2 2 6q0 2 -8 6l-6 -6q0 -3 4.5 -5t7.5 -1z" />
<glyph unicode="b" horiz-adv-x="870" d="M762 545q12 -44 14 -65.5t-4 -65.5q-5 -46 -4 -56q0 -22 -6.5 -63t-7.5 -59q-5 -8 -15 -58q-3 -9 -8 -27t-8 -26q-2 -7 -10 -26.5t-11 -30.5q-2 -3 -5 -10t-5 -9q-10 -11 -33 -53q-12 -5 -37.5 -23t-43.5 -22q-6 -5 -19.5 -15.5t-19.5 -15.5q-11 -11 -27 -8q-17 3 -51 10 t-51 10q-8 0 -31 -14q-11 -7 -19 -10q-6 0 -10 4t-4 8q8 35 19 53q19 30 41 35q19 5 34 27q4 8 10.5 16.5t14.5 18t12 14.5q50 59 74 129q7 20 21.5 61t21.5 62q36 -32 63 -29q2 11 -19 22.5t-24 16.5q-3 4 -2.5 16.5t-1.5 18.5q8 22 15 49q4 11 8 37q1 8 3 24.5t3 24.5 q4 32 4 45q3 25 -10 29q-12 4 -31 -10q-17 -17 -41 -45q-3 -3 -18 -23q-3 -4 -24 -29t-25 -43q-5 -10 -20.5 -36.5t-22.5 -41.5q-6 -18 -20.5 -48t-20.5 -44q-14 -29 -31 -39q-6 -3 -6 -14q0 -23 2 -33q4 -17 2 -26q-10 -36 -15 -43q-4 -7 -8.5 -24.5t-11.5 -24.5 q-10 -10 -14 -37q-18 -67 -27 -135q-6 -40 -22 -70q-1 -1 -6.5 -10.5t-6.5 -14.5q0 -3 2 -10t2 -10q0 -2 -2.5 -5t-3.5 -3q-22 -4 -33 -2q-46 10 -110 10q-18 -2 -47 14q-23 10 -23 35q1 27 -2.5 87t-1.5 91q-6 16 -7 46t-3 42q-6 34 -6 68v205v6q13 140 16 194q4 36 4 56 q6 65 6 67v66q-4 182 4 250q2 22 13 168q1 1 1 2.5t1 1.5q4 45 16.5 54.5t57.5 4.5q8 0 22 -4.5t18 -5.5q2 -3 9 -10q15 -45 16 -54q6 -49 6 -100v-211q0 -6 -3.5 -39t1.5 -39q-2 -10 2 -29.5t2 -29.5q10 -61 -2 -111q-4 -10 0 -31q11 -54 8 -116q0 -25 1 -78t1 -78 q4 -33 -6 -55q-1 -3 -1 -8.5t1 -6.5q11 -9 11 -41q0 -4 6 -133q-4 -14 0 -39q3 -6 6 -6q4 0 4 4q16 24 12 41q24 108 41 168q48 164 158 305q31 39 69 64q57 38 121 27q4 -1 45 -7q18 -3 29 -14q26 -20 35 -55zM115 711h-2q0 -16 14 -23q3 -2 19.5 -1.5t17.5 3.5 q5 11 -18 18t-31 3zM111 668q0 -11 2 -15l-9 -2q4 0 12.5 -4t13.5 -4t7 8q3 11 -5 14t-21 3zM63 442q26 -10 66.5 6t52.5 17q0 18 -20 14l-2 -4q-77 -17 -97 -33zM698 381q6 13 -14 15.5t-27 -1.5h13h-6q0 -11 14 -18t20 4zM651 217q13 -6 29.5 1.5t7.5 23.5q-2 5 -15 8.5 t-21 8.5t-3 15l2 2q-16 14 -24 6t2 -24q2 -4 4.5 -7t4 -6l3.5 -7q1 -4 -0.5 -8t0 -6.5t10.5 -6.5zM705 289q16 5 16 16.5t-9 21.5t-18 15l-2 2q-20 1 -19 -22q2 -25 20 -32q6 -3 12 -1z" />
<glyph unicode="c" horiz-adv-x="587" d="M485 217q9 1 21 -6.5t10 -13.5q0 -7 -2 -9q-25 -25 -43 -73q-14 -35 -33 -62q-20 -31 -24 -39q-3 -5 -8 -10t-12.5 -11t-10.5 -9q-11 -2 -18.5 -8t-9.5 -9.5t-7 -13.5q-2 -3 -6 -8t-6 -8q-17 -13 -29 -15q-6 -1 -18.5 -3t-18.5 -3q-31 0 -45 -2q-62 0 -106 33 q-70 46 -90 100q-1 6 -11 25q-21 47 -16 82q0 5 -1 13.5t-1 12.5q-3 112 27 195q7 27 28 67q41 62 70 103q10 14 39 43q10 10 29 28t34.5 32.5t30.5 27.5q4 4 16 12q10 5 15 2q51 -12 127 -16q12 0 57 -10q30 -28 47 -76q7 -24 4 -43q0 -15 -4 -19q-6 -7 -26 -47 q-6 4 -18.5 11.5t-18.5 11.5q19 27 20.5 53t-18.5 47q-15 15 -40 19t-44 -11q-9 -3 -15 -6q-8 -12 -25 -32.5t-24 -30.5q-10 -13 -35 -58q-25 -42 -32 -69q-29 -89 -31 -109l-8 -16q-4 -13 -2 -19q3 -14 4.5 -38.5t3.5 -34.5q0 -1 -6 -19l-4 -6q5 -5 7 -12.5t1 -13.5t0 -13 q0 -13 4 -41q1 -7 4 -25t4 -28q9 -41 35 -74q1 -4 7.5 -5.5t10.5 1.5q52 23 76 57q32 35 45 66q4 10 14.5 29.5t14.5 29.5q7 11 14 33q9 29 47 41zM127 80q7 3 4 6q-4 4 -8 4q-6 0 -6 -4q0 -9 10 -6z" />
<glyph unicode="d" horiz-adv-x="735" d="M215 -57q-33 -13 -102 -13q-45 -3 -86 35q-48 51 -54 113q-10 63 4 151q19 89 52 164q13 34 61 99q36 48 115 59q50 3 84 -4q50 -8 78 -4q8 5 8 18q-2 51 -2 152q0 96 2 145v195q-4 111 2 166q3 24 10 70t10 69q0 4 4 16q3 11 15 20t22 9q69 -4 94 -14q13 -7 19 -21 q12 -33 10 -53v-68q1 -14 1 -44.5t1.5 -54t5.5 -44.5q2 -4 2 -10q0 -57 4 -84q6 -44 9 -78q1 -12 0.5 -47t1.5 -47q2 -5 -4 -21q-12 -20 6 -35q4 -4 4 -10q2 -18 2 -55q0 -3 -5.5 -15.5t-0.5 -21.5q3 -4 4 -9t1 -12.5t1 -11.5q-2 -2 -2 -4q-3 -3 -9 -9.5t-10 -10.5 q24 -24 21 -50q0 -3 -2.5 -18.5t0.5 -19.5q1 -6 2 -19t2 -20q4 -20 -4 -31q-7 -12 4 -27q4 -4 5 -10.5t0.5 -14.5t0.5 -12q7 -29 0 -77q0 -2 -12 -37q-1 -5 5 -16t3 -19q-4 -10 2 -16q10 -23 6 -66v-55q-12 -35 -2 -60q4 -10 4 -37q-1 -16 2.5 -57t-0.5 -55q-1 -2 4 -17 q2 -9 -3.5 -18t-14.5 -10q-29 0 -43 -2l-20 -5t-25 -4q-4 0 -13.5 -1t-13.5 -1q-36 -3 -51.5 12t-23.5 56q-3 7 -3 33q-20 156 -20 233q0 3 -2 6.5t-4.5 5.5t-3.5 1q-7 -7 -8 -9q-3 -2 -3 -4q-69 -114 -98 -147q-12 -15 -16 -41q-7 -33 -33 -51zM371 317q-1 22 -6.5 42 t-16.5 48t-14 37q-6 23 -25 35q-10 7 -20 0q-7 -5 -13 -12.5t-13 -18.5t-11 -16q-39 -47 -59 -119q-23 -79 -21 -108q0 -15 -2 -23q-15 -60 0 -166q0 -6 4 -14l8 -4q25 25 35 37q90 125 154 282zM442 100q2 1 4 1.5t3.5 1t1.5 1.5q5 34 34 56q4 4 4 10q-4 8 -6 8 q-8 0 -16 -4q-9 -12 -39 -47q-3 -6 2 -16.5t12 -10.5zM424 614l-2 -2q-6 -6 -2 -20q0 -3 4.5 -5.5t7.5 -0.5q5 0 8 6q4 15 -10 22h-6zM516 193q2 3 -0.5 7.5t-5.5 4.5q-6 0 -10 -3.5t-2 -8.5q0 -7 4 -11q1 0 4 1t4 1q2 1 3.5 4.5t2.5 4.5zM426 727q6 -6 8 -6q3 -1 5.5 3 t0.5 7q-4 4 -8 4q-1 -1 -3 -4t-3 -4z" />
<glyph unicode="e" horiz-adv-x="512" d="M618 391q5 0 21 4q4 -16 4 -26q-3 -3 -6 -9q-20 -34 -21 -45q-2 -18 -18.5 -45t-19.5 -39q-12 -16 -33.5 -47t-40 -55.5t-37.5 -44.5q-41 -41 -76 -88q-8 -11 -19 -21t-25.5 -20.5t-22.5 -17.5q-1 -1 -5.5 -2.5t-5.5 -2.5q-93 -33 -172 5q-34 14 -49 43q-12 21 -33 53 q-39 54 -55 125q-4 14 -4 39q5 37 4 45q-4 28 8 82q6 48 6 49q3 44 23 80q12 21 25 45t28 53t23 45q6 12 26 47q5 8 11 16.5t10.5 14.5t13 15.5t12 13.5t14 14.5t12.5 12t14.5 13.5t13.5 13q13 16 41 16q20 0 32 -2q15 0 45 -1t44 -1q21 0 36 -12q5 -2 8.5 -8.5t2.5 -10.5 q-4 -19 -9 -32q-16 -58 -22 -87q-9 -33 -29 -59q-6 -7 -18.5 -21.5t-18.5 -21.5q-8 -12 -10 -18q-7 -31 -45 -54q-11 -5 -34.5 -13.5t-37.5 -14.5q-5 -4 -9 -10.5t-8.5 -16.5t-8.5 -16q-2 -2 -2 -11q9 -13 2 -43q-3 -24 2 -43q14 -59 0 -98v-10q7 -17 2 -29q-2 -3 -8 -9.5 t-9 -10.5q3 -2 10 -6t11.5 -8.5t7.5 -10.5q3 -8 10 -34t15 -37q1 -8 5 -16t10.5 -17t8.5 -13q4 -8 15 -4q30 15 39 21q84 57 127 123q69 104 104 184q1 3 11 23.5t14 31.5q13 32 40 35zM270 573q-7 -18 -18 -54t-12 -40q0 -2 6 -8q2 1 5.5 2t4.5 2q42 40 76 109q22 39 30 78 q3 7 -4 14q0 4 -8 4q-60 -53 -80 -107zM127 221q3 3 1 6.5t-7 3.5q-3 1 -5.5 -0.5t-2.5 -3.5q-3 -3 0 -6.5t6 -3.5q4 0 8 4z" />
<glyph unicode="f" horiz-adv-x="448" d="M414 416v-10l-2 -3h-37q-11 -2 -41 -8t-41 -8t-41 -5t-41 1q3 -5 14 -11.5t11 -9.5v-24q-6 -7 -9 -14q-9 -36 -4 -50q-4 -24 4 -65q0 -3 1.5 -11.5t2 -13.5t0 -11.5t-3.5 -12.5t0 -13q11 -115 9 -180v-22q2 -16 1 -50.5t1 -50.5q8 -66 8 -98q0 -31 -8 -43q-6 -10 2 -14 q16 -16 16 -41q0 -46 -2 -66q0 -13 -5.5 -17.5t-19.5 -6.5q-16 -1 -54.5 -6t-59.5 -5q-23 0 -43 13q-15 15 -17 28v23q-15 37 -6 76q3 9 -6 37q0 4 -1 12t-1 12q0 3 1 10.5t1 10.5q1 8 11 20t12 16q3 6 0 15t-9 14q-6 6 -22 14q0 12 -1.5 33t-1.5 38.5t3 33.5q-3 19 -3 53.5 t-1 42.5q0 17 -6 25q-10 17 -5 32q7 17 -4 31q-4 7 -4 33q-2 39 -2 117v35q-17 3 -26 8q-4 2 -11.5 8t-11.5 8q-1 2 -5 2t-5 -2l-8 -8q-1 5 -3 14.5t-3 14.5q12 3 26 10q7 5 21 0q10 -3 16 0q8 0 12 8q2 10 2 29q-2 47 -6 145q0 5 -1 16t-1 17q-11 88 -4 201q4 26 16 41 q18 30 19 32q50 89 149 107q82 16 138 -43q22 -22 22 -49q1 -16 4 -49.5t4 -51.5q5 -42 -12 -98q0 -10 -18 -10q-15 5 -17 12q0 4 -1 13.5t-1 13.5q6 93 -26 186q-2 6 -7 8t-10 -2q-15 -10 -16 -12q-4 -8 -9 -22t-10 -25.5t-10 -20.5l-2 -4q0 -15 -7.5 -38.5t-8.5 -32.5 q-9 -62 0 -89q2 -4 2 -16q0 -27 5.5 -75t6.5 -68q0 -7 4 -23q1 -6 4 -18.5t4 -18.5q6 1 24 5l27 6q10 3 33 10t37 10q19 4 29 -12q3 -5 9 -16.5t9 -16.5q5 -10 21 -10zM49 231q1 1 6 11l-6 12q-4 4 -10 4q-2 -2 -2 -4q-4 -8 0 -21q2 -3 6 -4t6 2zM82 -338q0 2 2 5t2 5 q0 5 -4 9q-8 4 -10 2q-4 0 -4 -9q0 -6 4 -9.5t10 -2.5z" />
<glyph unicode="g" horiz-adv-x="704" d="M604 279q4 -74 0 -111v-8q-1 -1 -2 -3t-2 -3q-7 -18 -3 -102t3 -105q-8 -47 -10 -68q0 -8 -4 -20q-24 -61 -63 -193t-62 -194q-25 -73 -116 -132.5t-173 -27.5h-2q-1 1 -3.5 4.5t-4.5 5.5q0 2 1 9t1 10q0 37 35 77q49 52 75 111q4 10 20 36t21 42q34 58 68 170 q5 15 16.5 42t14.5 36q22 64 22 90q0 2 6 26q17 80 17 144q0 1 6 49q2 14 6.5 51t7 63.5t2.5 51.5v22h-6q-7 -7 -16 -23t-10 -18l-3 -4q2 -14 -2 -25.5t-12.5 -25t-11.5 -20.5q-3 -6 -10 -27t-13 -31q-1 -2 -2 -6t-2 -6q-3 -12 -7.5 -23t-13.5 -26.5t-12 -20.5q-1 -1 -10 -6 l-2 -4q-13 -16 -20 -37q1 -5 1.5 -9t-1 -8t-2.5 -7t-4 -7l-4.5 -6t-5 -6t-5.5 -6t-24 -35q-2 -2 -6.5 -5t-6.5 -5q-3 1 -8 2t-8 2q-11 2 -13 0t-5 -14q0 -8 -3 -17q-4 -16 -18 -16q-10 0 -39 0.5t-49 2.5t-39 7q-63 17 -76 70q0 4 -4 8q-8 12 -8 20q-12 8 -20 35 q0 2 -5.5 24t-7.5 34v10q3 63 27 125q6 6 4 16q12 70 55 131q48 69 99 103q12 6 32 22q20 17 49 8q26 -8 73 -20t61 -16q3 -1 8 -4.5t6 -4.5q8 -16 10 -24q-8 -8 -14 -10q-10 -3 -20 -8.5t-17 -10t-18 -13.5t-14.5 -12.5t-16.5 -15.5t-15 -14q-6 -16 -26.5 -40t-26.5 -38 q-6 -12 -14.5 -35t-9.5 -26q0 -1 -3 -7t-3 -10q0 -39 -23 -106q-4 -8 -4 -23q0 -17 4 -49v-4t-0.5 -5t0 -5t1 -4.5t2.5 -3.5t5 -3q4 -1 7 1t6 6.5t4 5.5q52 52 116 149q53 88 60 101q5 8 14 23.5t14 23.5q18 35 64 77q11 11 24 11q30 5 66 -2q24 -3 41 -27q10 -20 10 -37 q1 -2 2 -5.5t2 -4.5q6 -16 -2 -27q-6 -14 -2 -32zM328 -553q8 4 2 10l-8 4l-5 -10q4 -4 11 -4z" />
<glyph unicode="h" horiz-adv-x="776" d="M256 244q8 8 10 12q8 19 10 33q5 19 10.5 37.5t14.5 40.5t14 33.5t17.5 39.5t15.5 35q11 28 29 60q17 35 49 61q49 49 78 72q26 23 59 26q17 0 23 2q31 4 43 -6q27 -21 30 -51q5 -40 5 -49q0 -55 -2 -84q-1 -24 -4.5 -74.5t-4.5 -75.5q-2 -20 2 -61q4 -64 -4 -88v-10 q6 -14 11 -56q5 -37 -3 -49q0 -7 3 -10q10 -14 6 -53q0 -38 12 -60q4 -7 0.5 -12t-12.5 -4q-16 0 -48 1t-47 1q-28 3 -57 22q-15 9 -18 27q-2 13 -7.5 40t-7.5 42q-10 143 2 272q2 23 7.5 69.5t7.5 70.5q5 52 22 118q2 4 -2 13q0 1 -2 1t-5 -1.5t-5 -3.5q-41 -36 -49 -45 q-33 -33 -56 -84q-27 -68 -45 -107q-1 -6 -4 -15l-4 -12q-56 -195 -65 -241q-5 -23 -10.5 -65t-6.5 -52q-4 -49 4 -63q13 -25 13 -70q2 -37 16 -86q3 -11 8.5 -34t7.5 -32q0 -1 -2.5 -3.5t-3.5 -4.5v2q-2 0 -6 1t-6 1q-3 -1 -9 -4t-9 -4h-29q-19 -1 -34.5 0t-34 -1t-33.5 -7 q-49 -3 -74 31q-5 5 -10 24q-2 7 -7 39q19 46 19 90q0 24 12 70q6 7 10 16t6.5 21.5t4.5 17.5q9 25 0 53q0 3 -2.5 5t-4.5 0q-3 -1 -8 -3.5t-8 -3.5q2 8 2 27q10 0 10 10q0 4 -4 8q-4 0 -4 -2q-12 -8 -12 -16q-11 3 -14 5.5t-3 8.5q0 3 1.5 10t1.5 11q0 1 1 4.5t1 5.5 q4 12 12 34t12 34q2 6 -2 10.5t-10 3.5q-3 -1 -10.5 -4t-10.5 -4h-12q2 5 5 15.5t5 15.5q12 26 6 55v26q3 55 3 111l-5 10q-3 3 -8 3.5t-6 -1.5q-2 -2 -10 -14q0 8 -1 22t-1 21q0 11 -8 31q-10 32 -15 59q-3 13 0 29l4.5 13.5t3.5 16.5q0 4 -4.5 13t-5.5 12q-2 16 -2 51 q0 56 -2 66q-6 71 -6 139q0 134 4 172q0 5 -1 14.5t-1 14.5q0 59 2 88q4 27 4 78q1 9 8 15.5t15 8.5q19 2 66 -1t61 -7q14 -3 20 -16q22 -40 25 -90q0 -70 -4 -105q-1 -4 1.5 -18.5t-1.5 -20.5q-4 -8 4 -20q3 -5 8 -49q2 -9 2.5 -34t7.5 -38q3 -3 0 -10q-2 -15 -1 -47.5 t-1 -47.5q-3 -11 0 -22q4 -19 5 -37t0 -47.5t-1 -36.5q0 -27 8 -37q2 -3 2 -22t-2 -27q-6 -3 -9 -8.5t-5 -13.5t-4 -11q-12 -24 -27 -24q-5 -3 -8 -8q-8 -23 -10 -37q0 -1 2 -4.5t2 -4.5q34 11 43 33q1 1 4 3t4 3q5 1 6.5 1t4.5 -2.5t4 -2.5q3 -6 3.5 -8t-2 -8.5t-3.5 -9.5 q-4 -16 8 -23q12 -9 12 -24q0 -38 4 -54q3 -26 -4 -43q-2 -4 -1.5 -13t-0.5 -13t-5 -12.5t-5 -12.5q-1 -2 0.5 -8t1.5 -8q0 -6 1 -18.5t1 -18.5q2 -2 2 -4l4 4q4 4 2.5 18.5t-0.5 18.5zM156 106v-16q0 -8 6 -8q4 -4 8 4q15 17 4 45q-4 4 -10 4q-2 0 -6 -8q0 -3 -1 -10.5 t-1 -10.5zM195 193q-6 6 -11 6q-13 3 -22 -11q-6 -8 2 -12q2 -2 7 -4t7 -4q6 -3 8 0q12 12 9 25zM180 250q0 4 -3.5 7t-6.5 1q-14 -8 -18 -33l6 -6q3 -3 6 0q11 11 16 21v10zM104 -199l2 -3q3 -4 5 -5q4 -4 8 -4q1 1 3 4t3 4q0 2 -1 5.5t-1 4.5q-3 9 -14 5q-1 -1 -2.5 -5.5 t-2.5 -5.5zM172 -82l-4 -8q0 -8 2 -10q3 -3 10 0q8 4 0 12q-1 3 -8 6z" />
<glyph unicode="i" horiz-adv-x="337" d="M233 -18q0 -17 7 -46t8 -42q2 -11 -8.5 -20.5t-20.5 -6.5q-55 16 -102 -6h-17q-5 2 -15 5t-15 5q-37 15 -43 55q-6 36 -7 39q-18 51 -18 176q0 21 -1 65.5t-1 67.5q0 65 4 201q1 34 4 102.5t4 102.5q0 6 1 17.5t1 17.5q2 8 10 15.5t17 8.5q2 2 6 2q65 0 109 -10 q5 -1 12.5 -6t9.5 -6q7 -33 10 -60q3 -50 9 -104q1 -13 2 -39t2 -39q2 -25 2 -71q-2 -10 2 -23q9 -68 4 -94q-3 -13 0 -27q5 -21 -14 -47l10 -20q10 -13 10 -25q-1 -10 1 -48t-3 -46q-4 -11 4 -23q9 -18 6 -37q-3 -14 6 -26q4 -4 4 -8zM45 354q-12 -3 -10 -10q3 -10 10 -8 q10 3 10 10q0 8 -10 8zM41 47l4 8l-4 8l-4 -8zM57 125q1 3 -2 7.5t-6 4.5q-2 0 -8 -6q-3 -3 -1 -6.5t7 -3.5q2 1 5.5 2t4.5 2zM295 1114q17 -10 10 -29q-14 -41 -37 -61q-11 -11 -22 -37q-9 -23 -37 -78q-5 -2 -21.5 -10.5t-25.5 -11.5q-6 -3 -21 -3t-22 -5q-1 0 -15 -10.5 t-22 -14.5q-5 -3 -11 -1t-8 7q-4 12 -12.5 42.5t-15.5 47.5q-22 53 8 111q33 65 53 86q13 13 25 10h39h16q7 -2 29.5 -8t33 -9.5t27 -10.5t29.5 -15z" />
<glyph unicode="j" horiz-adv-x="335" d="M264 -123q-8 -25 0 -37q-3 -12 -3 -25.5t1.5 -30.5t1.5 -26q-1 -14 -2 -41.5t-2 -42.5q-5 -82 -6 -100q0 -19 -2 -27q-25 -87 -39 -120q-36 -80 -78 -148q-16 -24 -29 -35q-5 -4 -10 -9t-11 -11.5t-9 -9.5q-21 -24 -47 2q-2 4 -6 8q-10 -1 -31 -3t-31 -3l-2 -2 q-4 -8 2 -11q1 0 11 -4t14 -8q6 -3 6 -14q0 -4 -10 -4q-32 -3 -58 14q-34 23 -69 63q-1 1 -6.5 7t-8 8t-7.5 5.5t-9.5 5t-9.5 1.5q-3 0 -6 4.5t-3 7.5q-2 4 -3 12t-3 11q-27 61 -4 135q6 16 17.5 47.5t17.5 46.5q46 124 123 236q28 39 29 41q28 44 30 47q10 12 37 35 q-1 29 0 88.5t0 89.5q0 8 1 24.5t1 24.5v23q-12 106 -18 161q-3 30 -9.5 96.5t-9.5 102.5v16q4 18 15 23q37 15 88 2q18 -5 51 -21q28 -14 31 -43q18 -100 28 -170q0 -8 -4 -20q0 -1 -0.5 -8t0.5 -8q12 -22 21 -90q0 -32 4 -46q4 -10 4 -32q1 -4 -1.5 -18.5t1.5 -18.5 q2 -6 3 -19.5t3 -19.5q4 -18 4 -55q-4 -60 2 -88v-19zM63 -328q10 20 0 43q-12 23 -8 68q0 3 -1 14t-1 17t-6 6q-4 0 -6 -2q-30 -30 -43 -56q-9 -23 -33 -51q-30 -37 -47 -76q-45 -88 -65 -135q-21 -51 -33 -88q-4 -11 2 -20q6 -20 23 -30.5t36 -4.5q30 9 41 16 q12 6 24 14.5t27.5 20.5t22.5 17q15 10 22 34q18 71 21 92q12 82 24 121zM-18 719q-13 0 -31 22q-14 18 -6 37q3 16 12 31q61 100 100 152q1 1 5 3.5t6 4.5q72 -9 100 -19q4 -2 12.5 -6t12.5 -6q16 -10 8 -31q-1 -1 -5 -6t-6 -6q-29 -26 -47 -61q-21 -41 -53 -56 q0 -38 -22 -63q-13 -1 -86 4z" />
<glyph unicode="k" horiz-adv-x="671" d="M233 373h15q16 12 20 20q8 16 19 31t26.5 34.5t22.5 28.5q29 41 106 144q35 44 84 80q12 9 27 2q25 -5 70 -37q5 -3 4.5 -11t-6.5 -12q-29 -25 -43 -32q-9 -4 -18 -11t-14.5 -12.5t-14.5 -15t-13 -13.5q-23 -30 -45 -49q-23 -21 -49 -67q-19 -41 -53 -91q-25 -33 -29 -53 q4 -8 6 -10q52 -56 78 -86q80 -94 125 -166q16 -24 27 -35q5 -6 16 -18.5t18.5 -22.5t12.5 -20q9 -12 18 -21q22 -22 23 -24q16 -38 57 -68v-4q4 -8 -4 -8q-35 -10 -57 12q-4 5 -17.5 19t-19.5 22q-30 42 -88 103q-3 4 -10.5 12t-10.5 12q-29 37 -110 127q-8 9 -25 30 t-25 30q-8 10 -25.5 29.5t-25.5 29.5q-3 -1 -8.5 -2t-7.5 -2q-3 -2 -14.5 -11.5t-18.5 -11.5q-7 -3 -15 -14t-12 -14q-12 -12 -14 -15q-2 -2 2 -10q2 0 4 -2q15 -11 18.5 -20t-3.5 -27q-9 -15 -3 -29q11 -32 11 -67q0 -3 -0.5 -9t-1 -10t1 -9t4.5 -9q0 -41 -21 -60 q-13 -13 11 -16q2 -2 10 -2q19 -27 16 -68q-3 -26 8 -43q4 -8 0 -16q-2 -7 -6 -21.5t-6 -21.5q-4 -12 -16 -12q-19 0 -29 2q-18 4 -31 -4q-8 -4 -26 -4h-52q-21 0 -40 16q-11 32 -31 70q-13 23 -10 49q0 44 -5 59q-3 13 0 23q0 83 -4 106q-2 9 2 27q0 6 1 19.5t1 19.5 q11 8 21 10q1 0 13 2t18 4q7 0 12 10q3 9 -12 17q-21 7 -37 -4q-8 -5 -27 -19q-3 5 -4 11t-1 13t-1 11q9 12 2 25v10q-7 114 -2 266q0 17 -2 23q-2 33 -2 100v211v194q0 5 -1 18t-0.5 22t3.5 16q2 4 2 12q-8 33 4 98q2 23 2 68q2 6 2 22q2 5 8.5 11t12.5 6q27 0 39 -2 q34 -4 53 6q16 5 33 -8q21 -12 30 -37q15 -39 21 -76q4 -30 -8 -47q-5 -7 0 -16q13 -10 10 -25q-1 -7 -1 -39t-7 -49v-10q8 -16 7 -44t1 -44q0 -14 -10 -27q-11 -17 8 -33q6 -3 6 -14q-4 -59 -2 -88q0 -9 -4 -17l-12 -30q-6 -15 4 -25q14 -13 16 -17.5t4 -19.5 q0 -10 2 -30.5t2 -30.5q3 -31 -22 -53q-1 -1 -7 -6.5t-11 -7.5t-11 -1q-24 -8 -30 -16t-3 -31q0 -10 2 -16l6 -6q1 1 2.5 2l3 2t1.5 2q2 10 6 26q4 3 11.5 12t15.5 14t18 5q1 0 2 2.5t2 6.5t2 5q2 0 5.5 1t4.5 1q8 0 8 -4q6 -19 -2 -67q-8 -33 -28 -35q-9 0 -9 -6 q-4 -12 -4 -17q0 -1 3.5 -3.5t5.5 -2.5q6 1 17.5 10t20.5 9zM76 317q0 9 -2 13l-6 6q-11 7 -15 -2q-1 -1 -8 -15q0 -2 4 -10q9 -19 8 -24t-14 -17q-1 -1 -3 -2t-3 -2q0 -1 -1 -2t-1 -2q-3 -3 -3 -10t3 -10q3 -4 11 -4t13 4q18 18 13 30q-4 18 4 47zM86 20q-1 2 -6 17 q-4 4 -10 4q-7 -7 -7 -8q-5 -11 9 -25q2 -3 7 -1t5 5q2 2 2 8zM76 432v4l-6 8q-9 0 -15 -6v-10q-2 -5 1 -8t7 -2q5 0 9 4q1 1 2 4.5t2 5.5zM53 512q9 3 12.5 12.5t-2.5 18.5q-2 5 -8 2q-12 -9 -12 -23q0 -10 10 -10zM139 866q0 4 -2 4q-8 12 -18 9q-1 0 -3.5 -2.5t-2.5 -4.5 q0 -8 4 -8q8 -8 18 -2zM143 338q0 -6 5 -10t10 -2q4 4 4 8q1 4 -4.5 9t-10.5 3q-1 0 -1.5 -1.5t-1 -3.5t-1.5 -3zM182 293q0 5 -3.5 8t-6.5 2q-1 -1 -2.5 -2t-2.5 -2t-1 -2q-2 -6 3 -10.5t9 -1.5q1 1 2 4t2 4zM172 51q-4 4 -8 4q-3 1 -5.5 -1t-2.5 -7q0 -6 2 -8q3 -2 8.5 3 t5.5 9zM150 150q4 4 8 12q-4 4 -6 4q-4 1 -7.5 -2t-1.5 -8q0 -1 1.5 -2l3 -2t2.5 -2z" />
<glyph unicode="l" horiz-adv-x="399" d="M236 201q20 3 20 -8q1 -6 5.5 -25t4 -25t-3.5 -26q0 -9 2 -11q5 -7 6.5 -15.5t0.5 -13.5t-3.5 -15.5t-3.5 -14.5q16 -37 17 -41q-1 -22 15 -58t17 -40q5 -22 35 -41q15 -10 23 -14q2 0 2 -7q-2 -2 -10.5 -9.5t-14.5 -10.5q-14 -14 -35 -14h-55q-68 3 -123 49 q-43 39 -55 80q-3 6 -8.5 18t-8.5 18q-18 45 -18 64q0 2 -4 11.5t-4 15.5q-1 3 -3.5 12.5t-3.5 13.5t-2 13.5t1 13.5v12q-6 20 -9 42.5t-4 55t-2 45.5q-6 94 -6 195q-1 7 0.5 14.5t5 18t4.5 16.5q-20 12 -18 29v6q0 75 23 205q6 32 12.5 91t9.5 79q3 21 8 62t8 61q5 30 5 39 q2 30 6.5 62.5t11.5 76.5t10 63q0 4 5 8.5t10 4.5q32 5 77 -13q14 -5 21 -22q4 -6 4 -17q0 -5 1 -16t1 -16q0 -13 -1 -44t-0.5 -53.5t3.5 -42.5q-1 -16 -2.5 -45.5t-3.5 -53.5t-6 -46q-4 -15 4 -25q2 -4 4 -11.5t2 -8.5q0 -65 4 -84q7 -19 -8 -49q-6 -16 2 -47 q10 -9 10.5 -25.5t-2.5 -28.5q0 -12 -16 -20q-13 -5 -13 -23q0 -3 -1 -10t-1 -10q-1 -6 3.5 -9t9.5 -1q2 1 5 3t5 3q9 -37 12 -76q0 -14 2 -22q14 -47 11 -99q-3 -19 4 -33q3 -6 5.5 -34.5t0.5 -34.5q-6 -22 -8 -27t-7 -15.5t-8 -19t-4 -16.5q-10 -9 -6 -39q0 -2 2.5 -4 t3.5 -2q7 0 10 6q1 4 3.5 12.5t3.5 12.5zM143 461q20 -9 41 16q4 4 -2 10q-6 5 -16 2q-11 -5 -23 -30q-1 -1 -3 -4t-3 -4q-2 -2 -2 -7q1 0 2 -1t2 -1q4 4 4 7v12zM129 311l2 8q-5 5 -8 5q-3 3 -6 0q-26 -13 -35 -39q-1 -1 4 -11q4 0 6 2q6 6 19 18t18 17zM55 457 q-6 -6 -6 -8q7 -18 19 -25q3 -2 8.5 0.5t5.5 5.5q0 11 -7.5 19t-19.5 8zM70 653q-23 13 -31 -6q-1 -2 -2 -5t-2 -5q0 -12 6 -12q8 0 10 2q3 4 9.5 13t9.5 13zM131 559q10 0 10 10q0 9 -4 9q-8 4 -12 -7q-4 -9 6 -12zM70 193q5 5 -2 8q-8 5 -15 -2q-4 -11 2 -17q3 -3 8.5 0.5 t6.5 10.5z" />
<glyph unicode="m" horiz-adv-x="1263" d="M250 209q22 118 37 164q16 86 78 250q10 35 12 41q10 21 30.5 78t36.5 87q20 39 56 91q25 41 80 41q11 -1 31.5 -4t23.5 -3q16 -3 20 -18q19 -37 11 -66q-6 -20 0 -43q3 -25 -4 -55q-5 -36 -3 -49v-72q0 -11 5 -73q4 -82 4 -121q0 -27 -2 -39q-6 -26 -7 -74t-2 -59 q10 -2 15 8q8 18 30 64.5t33 72.5q47 91 82 145q39 53 66 97q21 32 49 43q26 13 41 28q13 9 20 11q52 4 88 -4q18 -3 25 -23q28 -94 18 -209q-2 -10 -6 -26q-3 -8 0 -17q8 -12 8 -39q-2 -16 -1 -58.5t1.5 -58t3 -58t3.5 -58.5v-72q3 -23 3.5 -68.5t2.5 -64.5q2 -10 -2 -27 q-4 -13 4 -30q2 -3 -1 -8t-7 -5q-48 -6 -50 -6q-3 -2 -8 -1.5t-8 3.5q-12 10 -41 6q-15 -6 -33 -6q-27 0 -39 4q-31 6 -34 39q-1 11 -4 56.5t-3 70.5q0 68 -2 101v34q2 30 2.5 86t1.5 74q2 32 15 129q3 23 10 70t10 71l-2 7q-8 0 -10 -2q-5 -9 -20.5 -31t-22.5 -35 q-21 -34 -49 -88q-6 -11 -21.5 -38.5t-23.5 -43.5q-21 -42 -25 -68q-3 -11 0 -22q4 -7 0 -14q-6 -13 -16 -46t-19 -49q-28 -44 -30 -47q-6 -8 -16.5 -26t-12.5 -21q-8 -18 -31 -18q-7 0 -22.5 1t-22.5 1q-31 3 -45 37q-12 27 -12 59v33q0 158 -2 188q-2 53 -2 158v139 q0 41 8 127v23q-1 4 -3 5t-5 0.5t-4 0.5q-33 -61 -49 -113q-4 -16 -21 -51q-9 -22 -31 -90q-7 -22 0 -37q4 -8 2 -10q-14 -41 -22 -51q-32 -34 -29 -68q0 -37 -8 -68q-5 -18 -13 -52.5t-10 -43.5q-4 -13 -14 -88q-2 -8 -6 -24.5t-6 -24.5q-8 -59 -10 -88q-3 -26 -19 -45 q-15 -20 -22 -51q-3 -21 -37 -105q-2 -5 -23 -37q-21 -11 -61 -14q-15 0 -43 -4q-27 0 -43 8q-27 13 -35 35q-7 12 -16 59q-1 4 -4.5 19.5t-6.5 23.5q0 9 -2 11q-2 8 1.5 27.5t-1.5 27.5q-5 11 -6 32.5t-2 28.5q-2 9 -2 56q0 7 -1 24t-0.5 29t3.5 24q2 4 2 11q-7 11 -5 50 t1 50q-2 12 -2 39q-1 11 2 32t2 33q-2 21 2 62q1 13 4 34.5t4 30.5q0 45 6 91q1 9 11 43q6 18 13.5 22t29.5 4q9 -2 43.5 -8.5t52.5 -13.5q34 -13 39 -45q17 -92 14 -166v-33q7 -31 -2 -111q0 -20 -14 -28q-7 -14 -8 -15q3 -1 9 -2t9 -2q12 -8 12 -16q4 -17 2 -27 q-1 -5 5 -55q-11 -43 -13 -47q-2 -3 1 -6.5t7 -3.5q9 -5 13 6q8 33 6 51zM31 150q0 -5 -2 -11q0 -8 6 -14q6 0 8 10q4 29 12 41q9 19 11 25v4l-5 4q-30 -5 -30 -33v-26zM41 27q5 10 8 22q3 9 6 21q0 8 -2 10q0 6 -4 10q-8 0 -8 -4q-9 -13 -16 -29q-3 -9 4 -20q4 -2 12 -10z M643 252q7 36 2 70q0 3 -5 5.5t-7 0.5q-6 -6 -6 -9q2 -10 6 -31.5t6 -31.5q0 -4 4 -4zM141 96q11 0 11 10l-7 7q-3 2 -7 -2t-3 -7q0 -1 2.5 -3.5t3.5 -4.5zM141 289q0 2 -2 2q-3 2 -6.5 -1t-3.5 -7t6 -4q9 -3 6 10zM74 217q3 0 5 2t2.5 4.5t-1.5 3.5h-10l-2 -4z" />
<glyph unicode="n" horiz-adv-x="833" d="M240 31l10 20q19 105 96 291q53 125 141 283q8 17 43 67q20 29 60 35q19 1 28 0.5t27.5 -3t28.5 -3.5q2 0 12 -10q8 -11 10 -21l7 -28t7 -34.5t1 -29.5q-6 -77 -6 -152q-1 -22 -3.5 -69.5t-2.5 -69.5t1 -71q0 -36 -6 -66q-1 -13 2.5 -35.5t3.5 -32.5q-4 -119 0 -178 q0 -8 -2 -10q-4 -8 -8 -8q-16 1 -47 2t-47 2q-15 0 -27 12t-14 27q-8 46 -6 71q1 15 2 45.5t2 45.5q4 50 0 155v23q0 19 4 55q0 8 -1 24.5t-1 24.5q-1 11 8 49q8 36 2 56q-4 15 0 49q4 68 8 104q0 4 -4 4h-4q-2 -2 -5.5 -5t-6 -5.5t-4.5 -5.5q-47 -91 -70 -139q-4 -8 -4 -17 q0 -1 -2 -11t-4 -15q-10 -20 -10 -43q0 -31 -15 -52q-13 -19 -20 -45q-6 -23 -16 -47q-27 -63 -68 -207q-13 -45 -25 -55q-4 -23 -14 -33q-3 -4 -14 -36q-3 -11 -12 -39.5t-14 -49t-7 -40.5q0 -7 -2 -15t-5.5 -18t-4.5 -15q-1 -4 3 -7t7 -1q4 0 6 2l4 2q4 3 4.5 2.5 t5.5 -2.5q6 -10 9 -20q0 -4 -2 -4q-32 -16 -54 -6q-36 9 -71 6q-68 -4 -101 6q-24 8 -41 35q-1 1 -6 16v27q16 4 21 -4q2 -1 5 -5l3 -4q9 -15 20 -26q1 -2 13 -8q4 -2 9 -0.5t5 4.5q0 8 -2 10q-33 26 -35 53q-5 14 -8 17q-12 18 -12 41v49q-3 3 -10.5 10t-10.5 10 q-1 8 -1.5 28.5t-1.5 35t-5 28.5q-1 5 -1 16.5t-1 16.5q-3 47 22 72q10 10 17 28q8 28 22 62q4 5 1.5 21.5t-1.5 21.5q0 1 -2.5 3.5t-3.5 4.5l-4 -2q-13 -13 -14 -16q-2 -2 -2.5 -9t-1.5 -8q-1 -3 -4.5 -8t-4.5 -6h-22q1 8 2 23t2 22q17 114 25 199q0 4 1 13.5t1 14.5 q-4 35 8 105v26q0 34 2 50q0 12 12 18q3 1 9.5 3t12.5 3t11 0q20 -6 65 -6q26 -5 33 -8q16 -4 19 -19q1 -2 6 -26.5t12 -36.5v-17q-2 -12 -10 -36q0 -11 4 -17q8 -8 8 -24q-2 -41 -2 -123q0 -4 -1 -7.5t-2.5 -8l-2.5 -7.5v-20q8 -18 8 -66q-2 -20 -2 -61q0 -1 -2 -12t-4 -15 q-6 -6 -9 -14.5t-3.5 -14.5t-1 -17.5t-0.5 -16.5q0 -4 0.5 -6t2 -2.5t4 0t7.5 2.5q2 1 5 2t5 2q1 0 2 -1t2 -1q0 -9 -6.5 -23t-7.5 -18q1 -8 9.5 -36.5t6.5 -45.5q-4 -4 -5 -9t-0.5 -12t-0.5 -10q0 -2 -1 -6.5t-1.5 -7t-2 -6.5t-2.5 -6.5t-2.5 -6t-3.5 -5.5t-5 -4.5t-6 -4.5 q-6 -2 -11 -12q-12 -40 -18 -58l2 -4q10 0 10 2q1 2 7.5 12t11.5 15q38 45 41 123zM78 -20q5 3 15.5 9t15.5 9q13 6 8 25q-1 4 -8.5 6.5t-10.5 -0.5q-4 -5 -12 -15.5t-12 -15.5q-7 -7 4 -18zM100 -195q15 3 23.5 15.5t5.5 29.5q-7 7 -8 7q-2 2 -10 -2q-19 -19 -19 -43 q0 -1 1.5 -2t3.5 -2.5t3 -2.5zM139 47q0 6 -2 10q-1 0 -2 2q-8 0 -8 -4v-14q0 -2 6 -8q2 4 6 8v6zM47 319q0 -1 -2 -3.5t-2 -4.5t2 -4t4.5 -3t3.5 1q5 5 2 8q0 6 -8 6z" />
<glyph unicode="o" horiz-adv-x="798" d="M926 606q3 -7 -11 -14q-1 0 -1 -6t-1 -6q-19 -2 -46.5 -7t-50.5 -8t-46 -2h-27q-4 -1 -9 0t-8 0.5t-5 -4.5q-23 -51 -29 -82q-12 -75 -55 -139q-10 -16 -8 -25q1 -10 -0.5 -21.5t-4 -18t-8.5 -19.5t-8 -18t-6 -15.5t-6 -15.5q8 -19 -14 -49q-20 -27 -31 -54 q-33 -84 -117 -161q-39 -36 -86 -47q-14 -4 -18 -3q-127 10 -201 72l-33 33q-10 10 -16 22q-6 14 -19.5 42.5t-19.5 43.5q-18 48 -18 125q-2 34 20 103q7 20 19.5 59t19.5 58q56 154 154 260q36 41 69 61q11 7 26 18q20 14 28.5 14t48.5 -17q5 -2 8 -3l12 -6q1 0 33.5 -6.5 t48.5 -17.5q20 -12 76 -37q4 -4 4 -10q0 -5 -6 -11q-54 -12 -74 -26q-5 -4 -15.5 -10.5t-18.5 -12.5t-13 -12q-49 -57 -66 -94q-6 -11 -30 -56t-39 -69q-35 -62 -64 -164q-9 -27 -14 -37q-2 -2 -2 -18q-4 -21 -10 -25q-21 -14 -7 -33q5 -7 0 -26q-4 -60 0 -88q0 -1 13 -33 q6 -13 20 -13q22 3 43 17q37 25 80 72q13 17 51 64t58 73q23 29 43 67q7 11 20.5 34.5t20.5 35.5q40 62 59 143q14 62 0 101l-10 17q-10 17 -18.5 33t-8.5 19q0 1 17.5 7t19.5 6q8 4 18 -5t22.5 -23t22.5 -17q37 -15 91 -5q66 10 84 11q18 0 36 -6q7 -2 13 -15zM166 410 l2 -2q-4 -6 -3 -15t8 -15.5t15 -0.5q7 4 8 8t-3 8t-8 6.5t-11 6t-8 4.5zM139 106q1 3 -0.5 10t-1.5 9h-8q-17 -3 -20 -23q0 -10 6 -10q17 -3 24 14zM190 299q19 24 23 47q-4 0 -12 1t-15 1t-12 -2q-5 -1 -7.5 -2.5t-3.5 -3t-3.5 -4t-5.5 -4.5l-2 -4q0 -5 -5.5 -18.5 t-10.5 -25t-4.5 -22.5t11.5 -14q1 1 7.5 11t11.5 15q4 5 14 12.5t14 12.5z" />
<glyph unicode="p" horiz-adv-x="559" d="M238 352q42 83 63 170q1 2 2 5.5t2 4.5q9 24 15.5 50t13.5 63t10 51q1 7 4 25.5t4 28.5q12 70 -8 133q-5 15 -17.5 24t-27.5 8q-21 0 -39 -6q-10 -3 -30.5 -11t-30.5 -11q-13 -4 -41 -19t-45 -18q-3 -1 -5.5 -2.5t-5.5 -3t-4 -2.5q-70 -43 -102 -90q-29 -7 -45 4 q-11 8 -6 18q8 12 10 14q107 130 274 168q76 16 154 -32q6 -4 18.5 -13.5t18.5 -13.5q56 -37 69 -115q2 -8 7 -28.5t7 -35t1 -28.5q-4 -52 -8 -78q0 -8 -2 -23t-2 -22q0 -29 -11.5 -79.5t-13.5 -67.5q-5 -10 -11 -29.5t-13 -34t-17 -26.5q-5 -8 -14 -31q-13 -30 -36.5 -54.5 t-58.5 -51.5q-24 -21 -53 -15q-3 0 -10 1t-10 1q-20 0 -23 -20v-10q0 -5 1 -13t1 -14.5t-2 -11.5q-1 -6 -1 -13t0.5 -14.5t0.5 -11.5v-39v-39q0 -51 -2 -78q0 -2 -6 -20q-2 -6 -0.5 -8t10.5 -5q8 0 8 -4q0 -12 6 -33.5t7 -25.5q4 -44 8 -60q0 -1 3.5 -22.5t8.5 -32.5 q2 -5 2 -37q0 -29 -28 -26q-11 0 -27 4q-70 8 -107 8q-14 0 -26 6q-30 10 -33 39q-4 42 -8 61v11q3 30 2 43t-6 42.5t-6 41.5q-1 16 -11 94v12q4 26 5 52t0 68.5t-1 51.5q0 44 3 126t4 101q4 86 4 129q0 69 10 115q0 9 4 17q3 16 21 16q17 4 26 2q11 -1 32.5 -4t33.5 -4 q15 0 32 -10q17 -12 19 -27q15 -96 6 -154q-1 -8 1.5 -21.5t2.5 -17.5q0 -14 1 -44t1 -44q-1 -8 -4 -22t-4 -19q0 -2 4 -14q21 24 21 51z" />
<glyph unicode="q" horiz-adv-x="831" d="M692 506v-27q1 -6 1 -19.5t1 -19.5q4 -31 4 -90q-4 -13 -2 -20q6 -20 7 -42.5t-0.5 -49.5t-0.5 -41q0 -3 -6 -150q-4 -32 -4 -49q0 -6 2 -6q16 -12 31.5 -27.5t34 -36t28.5 -30.5q17 -17 27 -43q4 -13 13.5 -37t13.5 -37q8 -32 8 -53v-52q0 -32 -8 -43v-8q7 -17 -2 -26 q-16 -21 -19 -52q0 -27 -14 -47q-7 -9 -10 -26q-1 -4 -3 -8t-5.5 -9t-4.5 -8q-12 -21 -34 -24h-23q-11 1 -31.5 -4.5t-27.5 -6.5q-3 0 -9 -6q-3 -10 -10 -10q-16 0 -22 4q-17 18 -51 52t-50 52q-8 8 -12 25q-1 2 -6 45q-4 66 -4 100q0 6 2 18t2 22t-4 18q-1 3 0.5 11.5 t1.5 10.5v45q-9 39 0 54q4 4 -2 10q-7 13 -2 20q12 19 8 49q-3 16 -4 33.5t-1 38.5t-1 33l-2 4q-5 5 -10 2q-8 -7 -29 -24t-31 -27q-32 -34 -90 -51q-100 -24 -211 26q-63 26 -92 92q-29 65 -31 97q0 2 -6 26q-4 18 -2 27q5 23 2 51q-3 12 6 49q38 105 96 211q3 7 12.5 22 t12.5 23q21 39 64 78q37 37 75 72q4 4 19 14q23 23 55 14q104 -24 197 -77q13 -5 24 -23q2 -2 2 -10q-6 -6 -8 -6h-16q-42 5 -82 -29q-49 -46 -72 -70q-22 -22 -35 -43q-5 -8 -19.5 -23.5t-19.5 -23.5q-4 -8 -10 -25.5t-10 -25.5q-10 -17 -27.5 -51t-27.5 -51 q-9 -19 -11 -27q-2 -5 -4 -14t-3.5 -14.5t-6 -12.5t-10.5 -12q-1 -2 -2 -8t-2 -9q0 -14 -2 -22q-25 -53 0 -129q3 -12 6 -21q6 -14 16 -14q61 -6 105 29q8 7 25.5 21.5t25.5 21.5q14 14 28 35q72 126 107 221q10 30 10 59q1 13 2 39t2 39q0 24 -8 43q-3 9 4.5 18t16.5 11 q20 4 32 4q71 -11 107 -29q2 -1 16 -10zM668 -109q1 -1 2 -3t2 -3q16 -5 20 -8q4 -4 4 -27q0 -46 2 -55q3 -15 2.5 -41t1.5 -41q2 -25 -24 -55q-1 -2 -6 -5t-6 -5q0 -6 2 -10q2 -3 4 -3t7.5 1.5t8.5 1.5q12 0 12 -9q-2 -18 3 -51t6 -41q0 -8 4 -16q0 -4 6 -10l4 -3q6 0 6 5 q22 74 25 147q0 14 -1 44t-1 44q0 84 -45 160q-1 2 -5.5 5.5t-5.5 4.5q-5 -5 -14.5 -14t-13.5 -13zM571 -147q16 0 25 12q8 8 -2 18q-12 9 -21 0q-2 -3 -5 -9t-5 -9q0 -3 3 -7.5t5 -4.5zM600 -39q-8 4 -10 4q-8 0 -8 -10q0 -3 3.5 -5t6.5 -1q4 4 8 12zM647 -35q6 0 8 4 q0 4 -2 4q-3 3 -6.5 1t-3.5 -5z" />
<glyph unicode="r" horiz-adv-x="495" d="M16 432q75 72 183 47q-5 -32 -11 -43q-14 -16 5 -35l6 -10l4 -59q0 -9 -3.5 -24t-4.5 -19t3.5 -10t12.5 -9q6 58 39 181q2 8 18 57q47 118 92 184q12 23 13 25q10 24 28 39q14 38 66 63q4 2 16 2q3 0 6.5 -4.5t2.5 -7.5l-11 -18l-47 -54q-8 -16 -10 -24q0 -16 -18 -27 l-11 -29q5 -14 4 -16q-18 -51 -26 -70q0 -2 -4 -2q-2 -3 -6.5 -7t-7 -7t-4.5 -7.5t-1 -10.5q3 -7 0 -17q-8 -30 -23 -103.5t-28 -111.5q-4 -12 -9 -37.5t-9 -38.5q-2 -6 -13 -75l-6 -33q-7 -41 -14 -72q-15 -58 -15 -92q1 -7 -0.5 -19t-1.5 -16q-43 -24 -77 -24 q-40 -4 -56 -15q-27 20 -41 43q-10 12 -10 33q-1 22 -7 87t-5 101q0 10 -1 21t-2.5 24t-2.5 21q-7 43 -11 162q0 6 -3.5 20t-4 21t5.5 16z" />
<glyph unicode="s" horiz-adv-x="638" d="M643 256q3 -3 -2 -8q-3 -7 -10 -10q-42 -30 -78 -45q-40 -20 -55 -39q48 -51 71 -99q18 -36 13 -65v-15q5 -11 5.5 -22.5t-0.5 -28t-1 -22.5q-1 -16 -15 -68q-4 -12 -4 -22q-4 -25 -10 -37q-4 -19 -11.5 -41t-14.5 -36.5t-19.5 -40.5t-17.5 -36q-8 -18 -17 -32t-24 -27 t-23 -19t-31 -21t-30 -20q-89 -60 -248 -65q-91 -3 -107 12q-8 9 32 17q9 2 20 4q-3 0 -23 1t-33.5 2t-35.5 3t-36.5 5t-28.5 8.5t-20 12.5q-9 9 -15 21.5t-11.5 30t-9.5 26.5q-9 3 -15 6q-10 6 -6 17q44 90 64 123q16 24 26 34q63 71 113 113q18 14 59 55q28 22 29 23 q15 9 39.5 29.5t38.5 29.5q17 9 46 27.5t38 23.5q2 -3 5 -9t5 -9q-47 -35 -49 -37q-7 -6 -35 -26t-44.5 -34.5t-29.5 -31.5q-10 -13 -26 -23q-30 -18 -52 -43q-6 -8 -28.5 -35t-32.5 -44q-19 -25 -16 -54q5 -16 -9 -34q-3 -3 -8 -13q-4 -6 0 -18q11 -20 32.5 -29.5 t47.5 -5.5q4 0 6 2q5 1 14.5 3t14.5 3q2 2 10 6q2 1 7.5 0t8.5 0t8 6.5t7 6.5q4 1 12 0t12 0q3 1 7 4.5t6 5.5q6 2 18 1.5t19 0.5l36 18q4 4 7 17t8 18q4 4 15 7t13 7q12 3 23 3q0 10 -2 16q9 9 27 16l4 4q4 2 24 17q0 4 2 8q3 9 12 25t13 24q12 28 20 33v2q31 41 47 135 q2 19 -2 55q-2 15 -18 43q-6 6 -10 2q-25 -10 -29 -12q-10 -4 -29.5 -13t-29.5 -13q-9 -4 -17 8q18 18 66 41q16 12 26 16q0 1 2 2q1 1 1.5 1t1.5 1l-19 19q-4 3 -34.5 23.5t-47.5 31.5q-35 21 -72 33q-75 27 -110 45q-22 9 -29 14q-96 52 -108 154q-5 33 -2 77q5 25 10 31 q4 4 4 8q0 10 -1 14.5t2.5 13.5t5.5 13t6.5 12.5t6.5 12.5q8 15 25.5 42t22.5 36q31 50 69 76q18 18 21 22q4 4 6 8q6 0 10 4q11 11 47.5 24t44.5 17q41 19 78 25q20 3 38.5 -3t27.5 -20q1 -2 2.5 -13.5t3.5 -14.5q2 -4 6.5 -10.5t4 -8.5t-2.5 -12q-2 -6 -15 -13t-16 -10 q-11 -8 -41 -53q-15 -26 -26 -39.5t-31 -27.5q-15 -9 -27.5 -35.5t-15.5 -30.5q-5 -7 -21.5 -25.5t-23.5 -31.5q-16 -28 -26 -59.5t-8 -68t24 -57.5q13 -10 33.5 -33.5t33.5 -33.5q5 -4 14 -12t13 -11q6 -2 20 -7.5t21 -8.5q38 -14 88 -47q12 -10 31 -21q15 -9 21.5 -8.5 t21.5 10.5q12 7 33 21.5t32 21.5q20 15 55 29q8 2 23 2q8 0 8 -4zM139 678q-47 -15 -33 -34q12 -17 45 -16q33 0 37 23q2 11 0 15.5t-9.5 9.5t-10.5 8q30 4 35 12q11 15 -7 26q-18 10 -26 -2l-2 -7l-4 -23q1 -1 2 -3t2 -3q-28 -6 -29 -6zM78 -442q1 -1 4 3q1 2 2 3 q-12 4 -14 4q-2 -4 -4 -6q8 -4 12 -4zM178 -455q4 0 4 6q0 9 -10 9q-22 0 -31 -15v-4q13 -4 37 4zM354 -326q6 4 17 15q-12 2 -72 2q-6 0 -10 -4l-2 -2q-3 -6 4 -9q53 0 63 -2zM467 -313q2 5 -4 8q-16 5 -37 2q-8 0 -12 -8v-6q20 -5 24 -5q13 0 25 3q4 0 4 6zM514 -287 q-14 -7 -18 -26q30 26 43 57q-10 -15 -11 -16q-7 -10 -14 -15z" />
<glyph unicode="t" horiz-adv-x="448" d="M203 217q5 -32 4 -39q-5 -34 6 -82q8 -44 8 -94q3 -51 27 -84q2 -3 3.5 -6l3.5 -7t3 -7q-12 -12 -14 -15q-29 -49 -103 -30q-40 8 -73 38q-64 57 -64 134q0 34 -3.5 95t-4.5 81q-2 33 -2 98t-2 96v6q-1 9 2.5 29.5t1.5 32.5q-2 8 -2 55v94q2 28 1.5 76t0.5 76q0 5 -4 9.5 t-8 4.5q-6 -1 -17 -1t-16 -1q-38 -6 -88 27q-4 0 -4 8q-3 8 8 12q12 4 16 4h29q14 2 43 2q28 2 34 8t5 35q-4 65 4 111q2 8 2.5 21.5t1.5 17.5q0 13 9.5 23t21.5 10q21 0 61 8q32 6 66 -8q13 -6 16 -23q6 -24 6 -49v-65q0 -19 2 -31q4 1 12 1t11 1q25 9 76.5 21t58.5 14 q2 2 4 2q122 0 178 -25q-1 -3 -0.5 -10t1 -11.5t-0.5 -5.5q-11 -5 -18.5 -12t-13.5 -9.5t-21 -0.5q-20 3 -62.5 0.5t-60.5 -8.5q-16 -5 -63.5 -6.5t-63.5 -6.5q-20 -8 -28 -14v-63q0 -42 2 -62v-55q0 -85 8 -115v-35q0 -121 2 -182q0 -38 -23 -67q-2 -1 -5 -5l-3 -4 q-1 -1 -4 -2t-4 -2q-2 -4 2 -6q6 -3 18.5 -0.5t16.5 -1.5z" />
<glyph unicode="u" horiz-adv-x="790" d="M686 -90q2 -2 5.5 -9t6.5 -12q-21 -11 -54 -29.5t-46 -25.5q-45 25 -57 33q-46 29 -52 98q-2 19 -4 56.5t-4 56.5q-10 94 -6 282q0 6 -1 20t-1 21q-6 0 -6 -2q-1 -3 -14 -35.5t-17 -52.5q-8 -37 -10 -55q0 -2 0.5 -6t0.5 -7.5t-1 -6.5q-12 -107 -43 -150q-8 -12 -15 -26 t-16 -35.5t-12 -28.5q-24 -56 -90 -88q-21 -11 -55 0q-27 8 -41 22q-16 11 -21 11q-26 -3 -43 24l-8 8q-46 38 -53 119q-24 210 -13 375q4 51 0 156q0 28 -8 47q-4 8 -4 12q-3 9 0.5 18t9.5 11q57 8 78 10q40 3 72 -8q23 -7 29 -18t4 -36q0 -6 1 -17.5t1 -16.5 q11 -213 10 -240q0 -1 6 -184q0 -63 12 -125q7 -41 25 -62q12 5 20 25q4 13 9 20q70 113 111 251.5t50 275.5q11 30 21 47q18 49 18 80q1 4 2 10.5t2 9.5q0 6 6 12.5t11 6.5q2 2 10 2h88q20 0 31 -25q10 -35 10 -41q0 -17 2 -51.5t2.5 -55.5t-0.5 -50.5t-4 -53.5v-20 q14 -28 4 -62q-3 -10 0 -20q2 -7 2 -15.5t-1 -18.5t-1 -15q-1 -6 -1 -33.5t-3 -42.5q-3 -10 2 -29q4 -24 8 -76q0 -61 6 -92q8 -20 2 -35q-11 -49 27 -108z" />
<glyph unicode="v" horiz-adv-x="577" d="M313 66q1 5 4.5 14t4.5 12q14 49 57 168q2 4 24 74q2 6 8 25t9 28q21 62 26 86l7 21q8 19 15 41t14 49.5t12 42.5q15 53 24 108q3 33 37 51l4 2q2 -2 5 -4t5 -3.5t2 -2.5q-1 -7 -4 -21.5t-4 -21.5q-7 -41 -18 -63q-13 -26 -13 -37q-1 -14 -4.5 -30.5t-6.5 -27t-9.5 -29 t-9.5 -26.5q-9 -32 -6 -43q3 -8 -7 -33q-4 -10 -12 -30.5t-12 -30.5q-14 -37 -14 -53q0 -8 -2 -10q-9 -19 -16.5 -56.5t-10.5 -46.5q-14 -43 -14 -92q1 -24 -5.5 -65.5t-7.5 -57.5q-5 -10 -11 -33t-11 -34q-8 -16 -15 -37q-6 -12 -10 -13q-49 -30 -69 -34q-24 -5 -47 3.5 t-35 28.5q-17 21 -23 43q-24 69 -51 154q-34 108 -43 156q-6 32 -25.5 101.5t-25.5 106.5q-3 15 -14.5 49.5t-14.5 53.5q-9 49 -30.5 137.5t-28.5 122.5q-2 11 5 21.5t17 11.5h90h6q55 -6 70 -62q17 -71 41 -127q4 -13 2 -20q-4 -5 -1.5 -16.5t3 -15t5 -14t5.5 -12.5 q5 -12 19 -53q3 -13 9 -38.5t9 -37.5q3 -14 8 -53q10 -43 7 -55q0 -8 2 -10q12 -10 13.5 -33t2.5 -25q3 -5 -6 -14q-6 -11 -4 -14q0 -1 3.5 -2.5t4.5 -3.5q8 -8 8 -13q3 -12 15 -42.5t14 -47.5q8 -12 8 -43q2 -8 16 -24z" />
<glyph unicode="w" horiz-adv-x="1198" d="M1098 774q16 -52 -8 -90q-7 -14 -7 -16q0 -3 3.5 -16.5t3.5 -20.5q0 -6 -4.5 -18.5t-2.5 -20.5q3 -19 0 -39q-8 -36 -8 -53q-4 -23 -10 -33q-23 -38 -23 -74q0 -7 -8.5 -11t-9.5 -5l5.5 -5.5t6.5 -6t3.5 -6t0.5 -9.5q0 -3 0.5 -10.5t0.5 -11.5t-1.5 -10t-5.5 -11 q-7 -13 -4 -24v-84q0 -4 -1 -7.5t-2.5 -8l-2.5 -7.5q-3 -9 6 -18q4 -12 4 -17q-2 -10 -7.5 -28.5t-6.5 -24.5q-1 -1 -10 -6q-9 -6 -9.5 -10t5.5 -11q0 -1 3.5 -6t4.5 -8q6 -12 6 -14q-3 -12 -2.5 -38t-3.5 -38q3 -12 -1 -22t-11.5 -21.5t-10.5 -17.5q-2 -6 -16 -15l-66 -33 q-27 -14 -75 -14q-3 0 -11 2.5t-10 3.5q-76 34 -131 131q-27 49 -37 88q-5 19 -15 52t-17 61t-11 53q-4 24 -24.5 122.5t-26.5 152.5q-5 17 -8.5 50.5t-7.5 47.5q0 1 -7 8q-6 3 -10 -4q-1 -2 -4 -8.5t-4 -11.5q-1 -7 -4 -19t-5 -22t-3 -19q-2 -15 -9 -39q-5 -13 -18 -69 q-11 -51 -14 -60q-13 -39 -8 -59q3 -6 -5 -14q-5 -10 -2 -23q0 -13 4 -37q3 -21 -4 -33q-4 -8 0 -16q9 -20 -2 -53q-3 -6 -9.5 -18t-10.5 -22.5t-4 -21.5q-24 -52 -64 -73q-4 -4 -14 -9q-77 -50 -182 -28q-13 2 -26.5 10t-18.5 12t-21 19q-2 2 -2 4q0 9 -3.5 17.5t-7 13 t-12 13.5t-10.5 11q-13 16 -16 35q-3 13 -11.5 40t-13 48.5t-2.5 42.5q-10 38 -9.5 98.5t-0.5 100.5q0 21 6 39q4 13 8 43q8 0 4 4l-2 4l-6 -6q-1 1 -4 3t-4.5 4t-1.5 5v39q0 19 -1 54t-1 64.5t2 55.5q0 6 2 10q0 5 6 8q3 1 11 2t12 2q35 5 43 5q2 0 21.5 6.5t33.5 1.5 q8 -4 26.5 -4h22.5q2 0 5 -1t5 -1q23 -8 23 -29q0 -14 1.5 -57t0.5 -66q-1 -17 3.5 -49t4.5 -39q2 -16 2 -45q1 -5 -3.5 -12.5t-2.5 -12.5q6 -24 6 -26q1 -12 7.5 -46t7.5 -53q1 -11 -4 -61q-10 -10 2 -25q1 -1 2 -5t2 -5q25 -31 16 -67q-1 -9 4.5 -23t5.5 -20 q19 -23 15 -70q0 -1 1 -4t1 -4q8 0 10 2q31 46 43 84q20 55 22 80q2 4 2 10q13 33 28 98.5t26 95.5q11 28 33.5 100t39.5 109q2 4 4.5 13.5t4.5 13.5q11 29 20 45q21 34 62 37h26q20 0 27 -17q31 -60 31 -96q1 -32 12.5 -92t13.5 -72q0 -3 1 -10.5t1 -11.5q2 -7 4.5 -28 t5.5 -32q7 -15 11 -59q4 -16 4 -22q0 -15 2.5 -30.5t7 -37.5t6.5 -31q13 -46 31 -84q3 -7 8 -30q19 -69 57 -121q13 -13 21 -19h12q6 27 13.5 81.5t9.5 66.5q6 43 18 133q0 7 1 21.5t1 21.5q0 23 4.5 73t3.5 76q0 25 2.5 73t2.5 73q5 64 2 84q-1 15 0.5 44t1.5 38 q-4 60 6 100q2 7 2 43q-3 24 14 47q5 7 14.5 20.5t14.5 20.5q11 15 24 2q14 -10 25 -8q30 4 43 8q4 0 8 -3.5t4 -6.5q1 -14 5.5 -45t4.5 -49q-2 -23 11 -66zM135 594q-4 0 -4 -6q1 0 4 -1t4 -1l6 6q-2 0 -5.5 1t-4.5 1zM119 543q-3 -2 -4 -6t2 -7q2 -2 8 -2q2 0 6 4 q-3 3 -8 13q-2 0 -4 -2zM119 397l4 2v-14.5t1.5 -10.5t4.5 -9t9 -1t16 3q-3 25 -31 32v0q-2 1 -2.5 -0.5t-1.5 -1.5zM158 436q26 9 8 27q-7 6 -18.5 7.5t-29 0t-20.5 -1.5h4q-17 -4 -13 -15t17 -16q8 -3 26 -4t26 2z" />
<glyph unicode="x" horiz-adv-x="591" d="M834 1008q5 -5 5.5 -11t-3 -12t-7 -10.5t-9.5 -10.5t-7 -8q-7 -9 -25.5 -36t-31.5 -41q-10 -13 -37.5 -31t-36.5 -29q-9 -10 -10.5 -24t-5.5 -21q-6 -9 -11 -14q-22 -36 -32 -47q-54 -76 -70 -105q-27 -55 -61 -104q-19 -26 -89 -135q-5 -9 -18.5 -18t-17.5 -13 q-4 -24 -21 -74q-6 -15 4 -28q61 -70 82 -91q20 -20 29 -36q50 -91 108 -144l2 -4q-5 -7 -16.5 -10.5t-13.5 -5.5q-5 -3 -15.5 -10.5t-15.5 -10.5q-17 -14 -33 2q-34 40 -35 41q-53 66 -104 154q-16 24 -27 33q-8 6 -16 -2q-1 -1 -9 -13t-10 -18t-22 -62.5t-27 -85.5 q-2 -10 -8 -29.5t-8 -29.5q-15 -66 -2 -107q3 -6 -3 -12.5t-13 -5.5q-11 1 -22 -1t-27.5 -7t-22.5 -6q-6 3 -18.5 9t-18.5 9q-40 21 -47 74q0 37 2 53q5 29 17 83t14 65q3 19 12 34q54 95 74 158q4 8 13 23t11 18q2 6 10 23q-79 126 -116 168q-46 51 -131 174q-5 6 -9 16 q0 7 3 10q30 30 59 4q9 -7 27.5 -22.5t27.5 -22.5q18 -18 21 -22q6 -8 23 -29.5t28 -36.5t20 -31q7 -11 23 -32t20 -27q7 -8 20.5 -25.5t20.5 -25.5q2 -2 8.5 -5t8.5 -5q9 12 39 47q22 31 66 93.5t65 94.5q62 84 104 131q2 2 7 6.5t7 6.5q2 3 11 8q14 9 16 10q1 15 11 27.5 t20 18t28 13.5q3 1 15 2.5t18 6.5q4 5 6 15.5t5 14.5q9 8 53 31q12 5 25 13.5t29 19.5t24 16q3 2 9 8.5t10 10t10.5 6t11.5 -3.5z" />
<glyph unicode="y" horiz-adv-x="792" d="M696 59q4 -77 2 -116q0 -66 -10 -99v-6q1 -21 -7 -59.5t-9 -54.5q-1 -12 -6.5 -33t-6.5 -33q0 -18 -10 -31q-6 -8 -14.5 -24.5t-9.5 -18.5q-11 -25 -29 -33q-16 -8 -18 -20q-2 -16 -21 -35.5t-20 -21.5q0 -1 -19 -13q-37 -15 -59 -32q-35 -23 -62 -21q-51 -10 -184 -10 q-7 0 -27 4q-3 1 -4.5 9t0.5 11q15 18 31 21q9 3 39 8q5 1 18 2t19 2q30 20 35 23q46 30 73 82q20 46 41 78q9 11 13 36q18 96 26 131q17 75 31 193q8 60 8 139q0 12 2 38t2 40q4 54 8 162q0 5 -2.5 8t-5.5 2q-8 0 -8 -4q-5 -9 -20 -34t-23.5 -43.5t-13.5 -37.5 q-17 -32 -40.5 -94t-31.5 -80q-15 -36 -49 -94q-3 -5 -12 -20.5t-13.5 -26.5t-7.5 -23l-12 -24q-5 -5 -24.5 -3t-24.5 1q-16 -4 -50 -4q-36 0 -61 10q-44 15 -68 53q-7 14 -20.5 40t-20.5 40q-4 8 -4 16q-13 89 -10 121q6 53 6 158q1 32 7.5 91.5t7.5 80.5q5 19 8 27 q4 18 24 18q8 0 25 -1t25 -1q12 -2 32 -2q22 -6 23 -6q29 -11 29 -37q2 -20 2 -62t-2 -65q0 -42 6 -62q2 -10 2 -32q2 -12 2 -39q-32 -5 -35 -21q0 -13 39 -24q4 -50 4 -76q0 -9 4 -29q2 -10 5 -29.5t5 -29.5q1 -5 0 -11t1.5 -10.5t9.5 -5.5q6 -1 10 2t7.5 11.5t4.5 9.5 q6 10 21.5 35.5t23.5 40.5q38 71 137 235q9 16 27 46t27 46q1 1 4.5 10.5t7.5 14.5q33 38 33 98q3 18 22 21q27 6 55 0q6 -2 18.5 -6.5t18.5 -6.5q16 -4 19 -20q1 -7 5 -42.5t5 -49t3 -41t1 -49t-4 -43.5q-2 -4 -2 -13q4 -12 4 -40t8 -42q0 -18 -4 -26q-4 -12 -4 -37 q12 -103 12 -107zM82 125q4 8 -4 8l-6 -4q0 -2 4 -10zM115 225q4 0 0 4q-1 0 -2 2t-2 2h-2q-37 5 -52 3q32 -29 58 -11zM125 205q6 -5 22.5 -4.5t16.5 8.5q1 8 -9.5 12t-15.5 0l-2 -6q-8 -3 -12 -10zM586 -182l-2 -2q-9 -8 -6.5 -15.5t12.5 -12.5t18 -3q0 10 -6 21t-16 12z M625 -119q8 3 10.5 7t-1 7.5t-7.5 6.5t-9.5 6t-7.5 4l2 -2h-24q-4 -12 10.5 -23t26.5 -6zM637 -57q40 5 -23 28q-9 3 -27.5 9.5t-34 11t-28.5 6.5l6 -2h-8q-1 -12 24 -25.5t52.5 -21t38.5 -6.5z" />
<glyph unicode="z" horiz-adv-x="591" d="M199 -160q40 10 114 33q45 12 144 16q7 0 65 -10q4 0 10 -12q1 -4 2.5 -11.5t4 -13.5t6.5 -10q-4 -8 -6 -8q-14 -2 -45 -2q-32 3 -72 -8q-18 -6 -56 -15.5t-57 -15.5q-53 -2 -129 -45q-40 -20 -98 -51q-12 -7 -35.5 -21.5t-28.5 -17.5h-43q-32 0 -57 28q-4 4 -4 13t4 12 q55 45 102 68q10 6 56 26q3 2 8.5 8t9.5 9q-15 5 -41 19.5t-41 18.5q-10 3 -16.5 14.5t-3.5 20.5q10 56 37 92q14 20 20 46q7 29 29 71q4 8 14.5 27.5t16 34t6.5 30.5q0 3 4 11q11 20 55 102q4 7 15.5 20.5t15.5 20.5q3 7 8.5 21t7.5 20q7 19 19 33q33 43 98 155 q14 23 41.5 69.5t42.5 68.5q0 6 4 10q2 3 0.5 8.5t-4.5 5.5q-63 0 -94 -8q-25 -5 -33 -2q-6 2 -30 7t-34 13q-17 14 -20 33q-1 3 1 7.5t5 4.5q18 2 60.5 9t66.5 8l34 1q34 0 34 -1q7 0 21.5 1t21.5 1q31 -3 55 10t45 -8q55 -55 72 -105q-16 -32 -29 -47q-31 -45 -51 -92 q-15 -39 -64 -123q-46 -86 -65 -110q-2 -2 -5 -9t-5 -10q-2 -4 -15.5 -31.5t-25.5 -39.5q-2 -2 -7 -17q-8 -20 -14 -28q-8 -12 -15.5 -26.5t-15 -31.5t-12.5 -26q-7 -15 -21.5 -45t-21.5 -46q-28 -67 -39 -86q-7 -12 -26 -77q0 -5 4 -17zM176 225q-2 7 -8 4q-4 -2 -8 -6 q0 -3 5 -5.5t7 -0.5q4 4 4 8z" />
<glyph unicode="{" horiz-adv-x="497" d="M0 49q6 27 16 77.5t13 66.5q14 88 22 112q1 5 2 15t2 14q6 47 -16 82q-4 5 -19 30q-14 25 -14 58q-2 22 10 35.5t35 13.5q20 0 37 20q2 2 12 17q32 86 29 153q-2 32 -7 96t-7 95q-3 38 0 76q2 37 28 90q25 43 76 98q24 24 88 49q20 6 39 -4q27 -11 45 -16q27 -7 68 -35 q8 -8 12 -14q4 -8 2 -16t-10 -11q-20 -4 -29 -4q-28 3 -55 -6q-18 -6 -25 -4q-7 1 -13 0t-13 -5t-9.5 -5.5t-11.5 -8.5t-10 -8q-41 -36 -59 -90q-24 -79 -11 -180q8 -55 11 -127q2 -43 -13 -113q-5 -20 -18 -43q-5 -8 -15.5 -24.5t-15.5 -24.5q-10 -16 -22 -16q-13 0 -24 -6 t-24 -18t-18 -15q-11 -5 -2 -23q11 -16 22 -50t13 -38q5 -16 2 -41q-7 -32 -14 -82q-7 -25 -7 -47q0 -147 4 -188q3 -34 21 -58q12 -16 29 -10q31 10 37 14q15 7 41 20l34 17q18 7 35 10q12 0 17 -8.5t-1 -19.5q-21 -42 -61 -88q-29 -36 -78 -33q-44 1 -86.5 29.5 t-62.5 68.5q-5 14 -8 19q-26 48 -23 104z" />
<glyph unicode="|" horiz-adv-x="352" d="M201 1161q-11 -199 12 -319q6 -21 6 -47q0 -107 -2 -160q0 -25 2 -37q6 -43 2 -160q0 -134 2 -162q2 -34 -2 -100q-5 -129 -2 -166q2 -12 2 -26t-1 -31.5t-1 -26.5q0 -5 -1 -13.5t-1 -12.5q10 -62 10 -74q0 -42 9 -68q9 -24 -13 -39q-16 -8 -24 -6q-48 7 -76 56 q-10 20 -10 45q-2 16 -2 53q0 44 -2 67q-4 83 4 140q7 33 4 80q-3 27 -6 57q-6 66 2 123q9 65 0 133q-12 76 -2 164q17 160 12 282q-2 29 -2 91v165q-4 147 4 250q0 5 1 14t1 13q3 28 16 33q25 6 35 -23q3 -8 9.5 -25.5t9.5 -25.5q4 -12 4 -21q4 -62 4 -90q0 -47 -4 -133z " />
<glyph unicode="}" horiz-adv-x="497" d="M473 1028q-6 -27 -16.5 -79t-12.5 -64q-15 -90 -22 -113q-1 -5 -2 -15t-2 -14q-6 -47 16 -81q2 -2 19 -31q14 -25 14 -58q2 -22 -10 -35.5t-35 -13.5q-20 0 -37 -20q-2 -2 -12 -17q-32 -86 -29 -153q2 -32 7 -95.5t7 -95.5q3 -37 0 -75q-2 -38 -28 -91q-25 -43 -76 -98 q-24 -24 -88 -49q-20 -6 -39 4q-27 11 -45 16q-27 7 -68 35q-6 6 -12 15q-4 8 -2 15.5t10 10.5q20 4 29 4q25 -3 55 7q18 6 25 4q6 0 12 1t9.5 1.5t10 4.5t8 5t9.5 7l8 7q43 37 60 90q24 77 10 181q-6 44 -10 127q-2 46 12 112q5 20 18 43q5 8 15.5 24.5t15.5 24.5 q10 17 22 17q13 0 24 6t24 18t18 15q10 5 2 22q-11 16 -22 50t-13 38q-6 17 -2 41q10 44 15 82q6 21 6 47q0 148 -4 189q-3 33 -21 57q-12 16 -29 10q-29 -9 -36 -14q-16 -7 -43 -20.5l-33 -16.5q-18 -7 -35 -10q-12 0 -17 9t1 19q23 44 61 89q28 35 78 32q44 -1 86.5 -29.5 t62.5 -68.5q3 -9 9 -18q25 -46 22 -105z" />
<glyph unicode="~" horiz-adv-x="681" d="M492 946q45 0 86 -26q51 -34 75 -58q18 -15 11 -43q-3 -14 -21 -18q-14 -3 -25 12q-2 4 -6 16q-2 3 -5 10.5t-5 10.5q-22 36 -61 31q-54 -13 -74 -21q-123 -56 -176 -92q-51 -33 -98 -49q-51 -22 -105 -6q-67 19 -82 88q-4 8 4 16q2 1 7 1t8 -1q27 -7 36 -33 q9 -22 23 -24q22 -6 43 6q52 31 76 57q44 47 121 86q65 37 168 37z" />
<glyph unicode="&#xa8;" horiz-adv-x="585" d="M139 1194q57 0 97 -25q17 -10 19.5 -18t-5.5 -23q-6 -17 -18.5 -49.5t-18.5 -48.5q-8 -21 -10 -29q-2 -17 -27 -24q-28 -9 -63 7.5t-52 45.5v4q-18 88 15 146q10 16 26 16q12 -2 37 -2zM449 1194q56 0 96 -25q17 -10 19.5 -18t-5.5 -23q-6 -17 -18.5 -49.5t-18.5 -48.5 q-8 -21 -10 -29q-2 -17 -27 -24q-28 -9 -62.5 7.5t-51.5 45.5v4q-18 90 14 146q10 16 27 16q12 -2 37 -2z" />
<glyph unicode="&#xad;" horiz-adv-x="512" d="M274 530q86 -4 115 -4q47 -3 80 -32q9 -9 10 -11q11 -13 7 -27.5t-21 -17.5q-17 -6 -39 -2q-57 13 -162 13q-26 0 -158 -5q-15 0 -26 -8q-17 -14 -31 0q-36 28 -39 68q0 19 19 22q10 0 14 2q41 0 118.5 1t112.5 1z" />
<glyph unicode="&#xb4;" horiz-adv-x="339" d="M0 870q2 4 9.5 24t13.5 30q47 88 141 206q10 12 29.5 36.5t29.5 37.5q12 17 31 6q25 -11 39 -20q5 -5 20 -25q12 -18 -2 -35q-12 -12 -64.5 -69.5t-84.5 -83.5l-21 -14q-2 -2 -7 -5.5t-7 -5.5l-59 -59q-9 -9 -21 -25q-11 -13 -31 -20q-6 -2 -11 4t-5 18z" />
<glyph unicode="&#xb8;" horiz-adv-x="413" d="M272 -55v-62l35 -43l19 -33q10 10 8 -14l-2 -16q-4 -22 -8 -37t-6.5 -20.5t-2.5 -6.5q0 -3 -3 -4t-5 -2l-49 -12q-27 6 -33 6q-7 0 -43 12q-4 1 -23.5 15t-21.5 16l-12 18q-8 21 -8 25t2.5 14.5t5.5 10.5q2 0 13 8t12 8l8 -41q12 -6 12 -10l-1 -4q-1 -4 0 -6.5t5 -4.5 q6 -3 27 -10.5t24 -7.5l33 -6h10q3 0 11 7t8 9v13q-9 28 -13 32q-16 17 -18 21q-1 3 -10 11.5t-18 16.5l-9 7q-8 8 -10 8q-1 0 0.5 24t3.5 48l2 24q57 -12 57 -14z" />
<glyph unicode="&#xc0;" d="M795 -209q4 -6 4 -24q2 -3 -3.5 -9t-9.5 -6q-21 0 -57 -12q-10 -4 -24 2.5t-17 15.5q-4 8 -4 15l-6 24q-15 29 -21 66q-18 71 -45 141q0 8 4 12h2h5q12 -4 16 4q9 17 10 23q0 6 -8 6q-9 2 -16 -2.5t-7 -11.5q-3 -10 0 -19h-2q-8 0 -8 2q-17 61 -35 154q-2 5 -6 16.5 t-6 16.5q0 4 -8 4h-10q-17 -7 -51 -15t-46 -12q-16 -5 -47.5 -14t-46.5 -14q-44 -11 -49 -11t-14.5 -2.5t-12.5 -3.5q-14 -2 -22 -18q-1 -3 -4 -13.5t-6 -15.5l-21 -14q-3 -3 -8 -13q-9 -22 -10 -28v-49q-2 -2 -5 -5.5t-5 -5.5q0 -3 1.5 -9t2.5 -9.5t0.5 -9t-2.5 -10.5 q-16 -30 -23 -84q0 -21 -10 -27q-4 -4 -4 -8q1 -4 2 -12.5t2 -12.5q3 -11 -1.5 -19.5t-9.5 -12.5t-16 -11q-8 -4 -10 -2q-9 5 -24.5 3.5t-24.5 0.5q-16 6 -49 6q-4 -1 -33 4q-8 4 -8 11q0 13 11 24.5t26 14.5h10q6 0 10 4l12 30q2 6 2 21q-3 0 -6.5 1t-5.5 1h-16q-1 1 -3 4 t-3 4q0 2 1 7t1 7q-7 30 4 78q0 1 6 47q3 18 20 21q0 4 4 8q14 5 16.5 9.5t-3.5 13.5q-10 5 -13 8q0 1 -1 2t-1 2q-6 14 -18 14q-2 -1 -7.5 -2t-8.5 -2q-28 -11 -80 -22q-43 -12 -90 -21q-22 -6 -41 10q-14 14 2 21q15 5 46 16.5t46 16.5q54 19 160 43l4 2q5 4 7 9.5t3 12.5 t2 10q8 16 8 29q0 4 1 14t1 15q6 6 8 6l9 -2q6 -20 45 -33q4 9 4 43q-8 2 -20 7t-17 7q-2 4 1 15.5t-3 15.5q-2 2 -2 10q14 24 18 66q0 7 10 22q17 26 11 58v14q7 10 26 43q12 22 15 43q1 8 10 33q2 7 29 74q-2 2 -8.5 7.5t-8.5 8.5q-5 11 -4 12q5 9 7.5 27t6.5 25 q6 8 15 25.5t10 19.5q3 2 0.5 6.5t-2.5 5.5v10q67 196 104 264q0 4 4 8q9 9 15 9q39 5 86 -11q12 -5 20 -20t4 -25q-2 -7 -1 -20t-1 -19q-2 -8 -2.5 -23t-1.5 -20q0 -32 2 -38q12 -86 27 -132q0 -2 8 -6q6 -3 6 -10q-4 -17 4 -22q17 -12 21 -33q0 -4 1.5 -14.5t2 -16t0 -14 t-3.5 -15.5t4 -18q7 -17 18 -31q7 -10 4 -22q-1 -3 -2 -9.5t-2 -9.5q-17 -10 -10 -24q7 -18 14 -47q0 -7 13 -7h20q5 -6 7 -20t6 -20q4 -7 6 -15.5t3.5 -19t2.5 -15.5q1 -9 12 -41q2 -7 -1 -18.5t-3 -15.5q-3 -13 16 -17q1 -7 3.5 -18.5t3.5 -14.5t1 -9t1 -10.5t4 -8.5 q4 -6 4 -19q0 -4 -1.5 -16t-0.5 -18q1 -5 6 -14t6 -13q14 -63 14 -78q0 -6 4 -18q25 -52 27 -78q2 -11 7 -33.5t7 -34.5q7 -33 15 -61q0 -7 6 -19q5 -9 15.5 -26.5t15.5 -26.5zM166 0l-4 -8l4 -8q0 1 2 4t2 4zM123 82q-2 0 -5 -2.5t-3 -3.5q0 -16 22 -21l4 -4q10 -5 13 0 q6 6 -4 12q-1 0 -4.5 1.5t-4.5 1.5q-8 16 -18 16zM94 -16q1 1 3 4t3 4v4q2 4 2 10q2 11 -1 15t-17 8q-17 -5 -25 -25q-4 -8 4 -12q3 -2 8.5 -6t8.5 -6q8 -2 14 4zM125 -66q6 3 12 3q5 30 4 38q-1 2 -3 6.5t-3 6.5q-5 -3 -29 -15q4 -25 7 -32q3 -10 12 -7zM170 -78v15h-8v-15 q0 -2 4 -6q4 4 4 6zM213 188l2 5q-2 4 -6 8q-3 1 -8.5 0.5t-5.5 -2.5q3 -3 6 -9q2 -2 4 -2q5 -3 8 0zM416 770q-22 -16 -8 -33q2 -2 4 -2l4 2q2 4 6 13.5t6 13.5q14 4 10 22q-4 7 -8 5h-4q-10 -8 -10 -21zM369 899l-4 -2q-2 -3 4 -7t10 -3q2 2 2 4q1 5 -2.5 7t-9.5 1z M328 764l-6 -6q2 -2 4 -2q9 -6 20 -2l4 4l-4 4q-4 7 -18 2zM561 348q1 3 2 9.5t2 9.5q0 7 -5 10t-11 0l-6 -3t-7.5 -3t-7.5 0q0 57 -10 78q-2 4 -2 14q2 17 -10 53q-13 54 -47 180q-4 12 -15 15q-5 -4 -8.5 -17.5t-7.5 -17.5q-6 -7 -10.5 -22.5t-5.5 -18.5q-2 -6 -8.5 -17.5 t-8.5 -17.5v-6q0 -10 -2 -12q-5 -5 -11 -18t-9 -17q-4 -4 -11 -4q-14 -3 -14 -19q5 -25 2 -32q-8 -3 -15 -8.5t-10.5 -9.5t-9.5 -13l-8 -12q-4 -4 -4 -8.5t2 -11t2 -9.5t-1 -9.5t-1 -9.5h-2l-10 -10q-8 -8 -2 -18q1 -1 2 -2.5t2 -2.5t2 -1q8 0 8 6q3 15 -2 28h2q6 2 10 13 q3 15 19 12q-6 -18 -6 -23q2 -27 -19 -63q-16 -28 -12 -43q-4 -5 -13.5 -26t-19.5 -29q-11 -8 -16 -35q4 -4 8 -4q19 0 27 4q29 10 63 19t75 18.5t64 15.5q19 5 43 2q14 -1 18.5 3.5t4.5 17.5q-3 38 -21 79q17 -4 19 -14q3 -6 8 -4zM639 184q8 -4 8 4q-2 2 -4 2q-4 2 -8 -2 q0 -4 4 -4zM569 1280q0 -12 -5 -18.5t-11 -4.5q-19 6 -31 21q-15 20 -20 25q-9 9 -29.5 29t-30.5 30q-2 2 -7 5t-7 5q-18 12 -20 14q-32 26 -85 84t-65 70q-14 17 -2 35q12 16 20 24q18 12 39 21q19 11 31 -6q10 -13 30 -37.5t30 -36.5q93 -116 141 -207q6 -10 13 -29.5 t9 -23.5z" />
<glyph unicode="&#xc1;" d="M795 -209q4 -6 4 -24q2 -3 -3.5 -9t-9.5 -6q-21 0 -57 -12q-10 -4 -24 2.5t-17 15.5q-4 8 -4 15l-6 24q-15 29 -21 66q-18 71 -45 141q0 8 4 12h2h5q12 -4 16 4q9 17 10 23q0 6 -8 6q-9 2 -16 -2.5t-7 -11.5q-3 -10 0 -19h-2q-8 0 -8 2q-17 61 -35 154q-2 5 -6 16.5 t-6 16.5q0 4 -8 4h-10q-17 -7 -51 -15t-46 -12q-16 -5 -47.5 -14t-46.5 -14q-44 -11 -49 -11t-14.5 -2.5t-12.5 -3.5q-14 -2 -22 -18q-1 -3 -4 -13.5t-6 -15.5l-21 -14q-3 -3 -8 -13q-9 -22 -10 -28v-49q-2 -2 -5 -5.5t-5 -5.5q0 -3 1.5 -9t2.5 -9.5t0.5 -9t-2.5 -10.5 q-16 -30 -23 -84q0 -21 -10 -27q-4 -4 -4 -8q1 -4 2 -12.5t2 -12.5q3 -11 -1.5 -19.5t-9.5 -12.5t-16 -11q-8 -4 -10 -2q-9 5 -24.5 3.5t-24.5 0.5q-16 6 -49 6q-4 -1 -33 4q-8 4 -8 11q0 13 11 24.5t26 14.5h10q6 0 10 4l12 30q2 6 2 21q-3 0 -6.5 1t-5.5 1h-16q-1 1 -3 4 t-3 4q0 2 1 7t1 7q-7 30 4 78q0 1 6 47q3 18 20 21q0 4 4 8q14 5 16.5 9.5t-3.5 13.5q-10 5 -13 8q0 1 -1 2t-1 2q-6 14 -18 14q-2 -1 -7.5 -2t-8.5 -2q-28 -11 -80 -22q-43 -12 -90 -21q-22 -6 -41 10q-14 14 2 21q15 5 46 16.5t46 16.5q54 19 160 43l4 2q5 4 7 9.5t3 12.5 t2 10q8 16 8 29q0 4 1 14t1 15q6 6 8 6l9 -2q6 -20 45 -33q4 9 4 43q-8 2 -20 7t-17 7q-2 4 1 15.5t-3 15.5q-2 2 -2 10q14 24 18 66q0 7 10 22q17 26 11 58v14q7 10 26 43q12 22 15 43q1 8 10 33q2 7 29 74q-2 2 -8.5 7.5t-8.5 8.5q-5 11 -4 12q5 9 7.5 27t6.5 25 q6 8 15 25.5t10 19.5q3 2 0.5 6.5t-2.5 5.5v10q67 196 104 264q0 4 4 8q9 9 15 9q39 5 86 -11q12 -5 20 -20t4 -25q-2 -7 -1 -20t-1 -19q-2 -8 -2.5 -23t-1.5 -20q0 -32 2 -38q12 -86 27 -132q0 -2 8 -6q6 -3 6 -10q-4 -17 4 -22q17 -12 21 -33q0 -4 1.5 -14.5t2 -16t0 -14 t-3.5 -15.5t4 -18q7 -17 18 -31q7 -10 4 -22q-1 -3 -2 -9.5t-2 -9.5q-17 -10 -10 -24q7 -18 14 -47q0 -7 13 -7h20q5 -6 7 -20t6 -20q4 -7 6 -15.5t3.5 -19t2.5 -15.5q1 -9 12 -41q2 -7 -1 -18.5t-3 -15.5q-3 -13 16 -17q1 -7 3.5 -18.5t3.5 -14.5t1 -9t1 -10.5t4 -8.5 q4 -6 4 -19q0 -4 -1.5 -16t-0.5 -18q1 -5 6 -14t6 -13q14 -63 14 -78q0 -6 4 -18q25 -52 27 -78q2 -11 7 -33.5t7 -34.5q7 -33 15 -61q0 -7 6 -19q5 -9 15.5 -26.5t15.5 -26.5zM166 0l-4 -8l4 -8q0 1 2 4t2 4zM123 82q-2 0 -5 -2.5t-3 -3.5q0 -16 22 -21l4 -4q10 -5 13 0 q6 6 -4 12q-1 0 -4.5 1.5t-4.5 1.5q-8 16 -18 16zM94 -16q1 1 3 4t3 4v4q2 4 2 10q2 11 -1 15t-17 8q-17 -5 -25 -25q-4 -8 4 -12q3 -2 8.5 -6t8.5 -6q8 -2 14 4zM125 -66q6 3 12 3q5 30 4 38q-1 2 -3 6.5t-3 6.5q-5 -3 -29 -15q4 -25 7 -32q3 -10 12 -7zM170 -78v15h-8v-15 q0 -2 4 -6q4 4 4 6zM213 188l2 5q-2 4 -6 8q-3 1 -8.5 0.5t-5.5 -2.5q3 -3 6 -9q2 -2 4 -2q5 -3 8 0zM416 770q-22 -16 -8 -33q2 -2 4 -2l4 2q2 4 6 13.5t6 13.5q14 4 10 22q-4 7 -8 5h-4q-10 -8 -10 -21zM369 899l-4 -2q-2 -3 4 -7t10 -3q2 2 2 4q1 5 -2.5 7t-9.5 1z M328 764l-6 -6q2 -2 4 -2q9 -6 20 -2l4 4l-4 4q-4 7 -18 2zM561 348q1 3 2 9.5t2 9.5q0 7 -5 10t-11 0l-6 -3t-7.5 -3t-7.5 0q0 57 -10 78q-2 4 -2 14q2 17 -10 53q-13 54 -47 180q-4 12 -15 15q-5 -4 -8.5 -17.5t-7.5 -17.5q-6 -7 -10.5 -22.5t-5.5 -18.5q-2 -6 -8.5 -17.5 t-8.5 -17.5v-6q0 -10 -2 -12q-5 -5 -11 -18t-9 -17q-4 -4 -11 -4q-14 -3 -14 -19q5 -25 2 -32q-8 -3 -15 -8.5t-10.5 -9.5t-9.5 -13l-8 -12q-4 -4 -4 -8.5t2 -11t2 -9.5t-1 -9.5t-1 -9.5h-2l-10 -10q-8 -8 -2 -18q1 -1 2 -2.5t2 -2.5t2 -1q8 0 8 6q3 15 -2 28h2q6 2 10 13 q3 15 19 12q-6 -18 -6 -23q2 -27 -19 -63q-16 -28 -12 -43q-4 -5 -13.5 -26t-19.5 -29q-11 -8 -16 -35q4 -4 8 -4q19 0 27 4q29 10 63 19t75 18.5t64 15.5q19 5 43 2q14 -1 18.5 3.5t4.5 17.5q-3 38 -21 79q17 -4 19 -14q3 -6 8 -4zM639 184q8 -4 8 4q-2 2 -4 2q-4 2 -8 -2 q0 -4 4 -4zM248 1280q2 4 9 23.5t13 29.5q46 88 142 207q10 12 29.5 37t29.5 37q12 17 31 6q21 -9 39 -21q8 -8 20 -24q12 -18 -2 -35q-13 -13 -65 -70.5t-84 -83.5q-3 -3 -6.5 -5.5t-8 -5t-6.5 -3.5q-2 -2 -7 -5t-7 -5q-10 -10 -30.5 -30t-29.5 -29q-5 -5 -20 -25 q-12 -15 -31 -21q-6 -2 -11 4.5t-5 18.5z" />
<glyph unicode="&#xc2;" d="M795 -209q4 -6 4 -24q2 -3 -3.5 -9t-9.5 -6q-21 0 -57 -12q-10 -4 -24 2.5t-17 15.5q-4 8 -4 15l-6 24q-15 29 -21 66q-18 71 -45 141q0 8 4 12h2h5q12 -4 16 4q9 17 10 23q0 6 -8 6q-9 2 -16 -2.5t-7 -11.5q-3 -10 0 -19h-2q-8 0 -8 2q-17 61 -35 154q-2 5 -6 16.5 t-6 16.5q0 4 -8 4h-10q-17 -7 -51 -15t-46 -12q-16 -5 -47.5 -14t-46.5 -14q-44 -11 -49 -11t-14.5 -2.5t-12.5 -3.5q-14 -2 -22 -18q-1 -3 -4 -13.5t-6 -15.5l-21 -14q-3 -3 -8 -13q-9 -22 -10 -28v-49q-2 -2 -5 -5.5t-5 -5.5q0 -3 1.5 -9t2.5 -9.5t0.5 -9t-2.5 -10.5 q-16 -30 -23 -84q0 -21 -10 -27q-4 -4 -4 -8q1 -4 2 -12.5t2 -12.5q3 -11 -1.5 -19.5t-9.5 -12.5t-16 -11q-8 -4 -10 -2q-9 5 -24.5 3.5t-24.5 0.5q-16 6 -49 6q-4 -1 -33 4q-8 4 -8 11q0 13 11 24.5t26 14.5h10q6 0 10 4l12 30q2 6 2 21q-3 0 -6.5 1t-5.5 1h-16q-1 1 -3 4 t-3 4q0 2 1 7t1 7q-7 30 4 78q0 1 6 47q3 18 20 21q0 4 4 8q14 5 16.5 9.5t-3.5 13.5q-10 5 -13 8q0 1 -1 2t-1 2q-6 14 -18 14q-2 -1 -7.5 -2t-8.5 -2q-28 -11 -80 -22q-43 -12 -90 -21q-22 -6 -41 10q-14 14 2 21q15 5 46 16.5t46 16.5q54 19 160 43l4 2q5 4 7 9.5t3 12.5 t2 10q8 16 8 29q0 4 1 14t1 15q6 6 8 6l9 -2q6 -20 45 -33q4 9 4 43q-8 2 -20 7t-17 7q-2 4 1 15.5t-3 15.5q-2 2 -2 10q14 24 18 66q0 7 10 22q17 26 11 58v14q7 10 26 43q12 22 15 43q1 8 10 33q2 7 29 74q-2 2 -8.5 7.5t-8.5 8.5q-5 11 -4 12q5 9 7.5 27t6.5 25 q6 8 15 25.5t10 19.5q3 2 0.5 6.5t-2.5 5.5v10q67 196 104 264q0 4 4 8q9 9 15 9q39 5 86 -11q12 -5 20 -20t4 -25q-2 -7 -1 -20t-1 -19q-2 -8 -2.5 -23t-1.5 -20q0 -32 2 -38q12 -86 27 -132q0 -2 8 -6q6 -3 6 -10q-4 -17 4 -22q17 -12 21 -33q0 -4 1.5 -14.5t2 -16t0 -14 t-3.5 -15.5t4 -18q7 -17 18 -31q7 -10 4 -22q-1 -3 -2 -9.5t-2 -9.5q-17 -10 -10 -24q7 -18 14 -47q0 -7 13 -7h20q5 -6 7 -20t6 -20q4 -7 6 -15.5t3.5 -19t2.5 -15.5q1 -9 12 -41q2 -7 -1 -18.5t-3 -15.5q-3 -13 16 -17q1 -7 3.5 -18.5t3.5 -14.5t1 -9t1 -10.5t4 -8.5 q4 -6 4 -19q0 -4 -1.5 -16t-0.5 -18q1 -5 6 -14t6 -13q14 -63 14 -78q0 -6 4 -18q25 -52 27 -78q2 -11 7 -33.5t7 -34.5q7 -33 15 -61q0 -7 6 -19q5 -9 15.5 -26.5t15.5 -26.5zM166 0l-4 -8l4 -8q0 1 2 4t2 4zM123 82q-2 0 -5 -2.5t-3 -3.5q0 -16 22 -21l4 -4q10 -5 13 0 q6 6 -4 12q-1 0 -4.5 1.5t-4.5 1.5q-8 16 -18 16zM94 -16q1 1 3 4t3 4v4q2 4 2 10q2 11 -1 15t-17 8q-17 -5 -25 -25q-4 -8 4 -12q3 -2 8.5 -6t8.5 -6q8 -2 14 4zM125 -66q6 3 12 3q5 30 4 38q-1 2 -3 6.5t-3 6.5q-5 -3 -29 -15q4 -25 7 -32q3 -10 12 -7zM170 -78v15h-8v-15 q0 -2 4 -6q4 4 4 6zM213 188l2 5q-2 4 -6 8q-3 1 -8.5 0.5t-5.5 -2.5q3 -3 6 -9q2 -2 4 -2q5 -3 8 0zM416 770q-22 -16 -8 -33q2 -2 4 -2l4 2q2 4 6 13.5t6 13.5q14 4 10 22q-4 7 -8 5h-4q-10 -8 -10 -21zM369 899l-4 -2q-2 -3 4 -7t10 -3q2 2 2 4q1 5 -2.5 7t-9.5 1z M328 764l-6 -6q2 -2 4 -2q9 -6 20 -2l4 4l-4 4q-4 7 -18 2zM561 348q1 3 2 9.5t2 9.5q0 7 -5 10t-11 0l-6 -3t-7.5 -3t-7.5 0q0 57 -10 78q-2 4 -2 14q2 17 -10 53q-13 54 -47 180q-4 12 -15 15q-5 -4 -8.5 -17.5t-7.5 -17.5q-6 -7 -10.5 -22.5t-5.5 -18.5q-2 -6 -8.5 -17.5 t-8.5 -17.5v-6q0 -10 -2 -12q-5 -5 -11 -18t-9 -17q-4 -4 -11 -4q-14 -3 -14 -19q5 -25 2 -32q-8 -3 -15 -8.5t-10.5 -9.5t-9.5 -13l-8 -12q-4 -4 -4 -8.5t2 -11t2 -9.5t-1 -9.5t-1 -9.5h-2l-10 -10q-8 -8 -2 -18q1 -1 2 -2.5t2 -2.5t2 -1q8 0 8 6q3 15 -2 28h2q6 2 10 13 q3 15 19 12q-6 -18 -6 -23q2 -27 -19 -63q-16 -28 -12 -43q-4 -5 -13.5 -26t-19.5 -29q-11 -8 -16 -35q4 -4 8 -4q19 0 27 4q29 10 63 19t75 18.5t64 15.5q19 5 43 2q14 -1 18.5 3.5t4.5 17.5q-3 38 -21 79q17 -4 19 -14q3 -6 8 -4zM639 184q8 -4 8 4q-2 2 -4 2q-4 2 -8 -2 q0 -4 4 -4zM709 1380q-22 -7 -43 2q-16 4 -88 29q-10 3 -17 8q-64 48 -110 99q-2 3 -19 20q-1 -1 -6.5 -5.5t-7.5 -8.5q-42 -67 -96 -121q-41 -41 -95 -72q-15 -11 -30 -6q-15 4 -43 -4q-18 -7 -30.5 4t-6.5 29q10 46 41 67q68 50 157 162q6 9 54 62q15 21 41 14q25 -6 45 8 q15 12 31.5 7.5t25.5 -23.5q4 -8 4 -17q-4 -24 16 -69q20 -46 29 -64q10 -26 31 -41q2 0 2 -2q37 -39 94 -61q2 -1 5 -3.5t7.5 -6.5t8.5 -7z" />
<glyph unicode="&#xc3;" d="M795 -209q4 -6 4 -24q2 -3 -3.5 -9t-9.5 -6q-21 0 -57 -12q-10 -4 -24 2.5t-17 15.5q-4 8 -4 15l-6 24q-15 29 -21 66q-18 71 -45 141q0 8 4 12h2h5q12 -4 16 4q9 17 10 23q0 6 -8 6q-9 2 -16 -2.5t-7 -11.5q-3 -10 0 -19h-2q-8 0 -8 2q-17 61 -35 154q-2 5 -6 16.5 t-6 16.5q0 4 -8 4h-10q-17 -7 -51 -15t-46 -12q-16 -5 -47.5 -14t-46.5 -14q-44 -11 -49 -11t-14.5 -2.5t-12.5 -3.5q-14 -2 -22 -18q-1 -3 -4 -13.5t-6 -15.5l-21 -14q-3 -3 -8 -13q-9 -22 -10 -28v-49q-2 -2 -5 -5.5t-5 -5.5q0 -3 1.5 -9t2.5 -9.5t0.5 -9t-2.5 -10.5 q-16 -30 -23 -84q0 -21 -10 -27q-4 -4 -4 -8q1 -4 2 -12.5t2 -12.5q3 -11 -1.5 -19.5t-9.5 -12.5t-16 -11q-8 -4 -10 -2q-9 5 -24.5 3.5t-24.5 0.5q-16 6 -49 6q-4 -1 -33 4q-8 4 -8 11q0 13 11 24.5t26 14.5h10q6 0 10 4l12 30q2 6 2 21q-3 0 -6.5 1t-5.5 1h-16q-1 1 -3 4 t-3 4q0 2 1 7t1 7q-7 30 4 78q0 1 6 47q3 18 20 21q0 4 4 8q14 5 16.5 9.5t-3.5 13.5q-10 5 -13 8q0 1 -1 2t-1 2q-6 14 -18 14q-2 -1 -7.5 -2t-8.5 -2q-28 -11 -80 -22q-43 -12 -90 -21q-22 -6 -41 10q-14 14 2 21q15 5 46 16.5t46 16.5q54 19 160 43l4 2q5 4 7 9.5t3 12.5 t2 10q8 16 8 29q0 4 1 14t1 15q6 6 8 6l9 -2q6 -20 45 -33q4 9 4 43q-8 2 -20 7t-17 7q-2 4 1 15.5t-3 15.5q-2 2 -2 10q14 24 18 66q0 7 10 22q17 26 11 58v14q7 10 26 43q12 22 15 43q1 8 10 33q2 7 29 74q-2 2 -8.5 7.5t-8.5 8.5q-5 11 -4 12q5 9 7.5 27t6.5 25 q6 8 15 25.5t10 19.5q3 2 0.5 6.5t-2.5 5.5v10q67 196 104 264q0 4 4 8q9 9 15 9q39 5 86 -11q12 -5 20 -20t4 -25q-2 -7 -1 -20t-1 -19q-2 -8 -2.5 -23t-1.5 -20q0 -32 2 -38q12 -86 27 -132q0 -2 8 -6q6 -3 6 -10q-4 -17 4 -22q17 -12 21 -33q0 -4 1.5 -14.5t2 -16t0 -14 t-3.5 -15.5t4 -18q7 -17 18 -31q7 -10 4 -22q-1 -3 -2 -9.5t-2 -9.5q-17 -10 -10 -24q7 -18 14 -47q0 -7 13 -7h20q5 -6 7 -20t6 -20q4 -7 6 -15.5t3.5 -19t2.5 -15.5q1 -9 12 -41q2 -7 -1 -18.5t-3 -15.5q-3 -13 16 -17q1 -7 3.5 -18.5t3.5 -14.5t1 -9t1 -10.5t4 -8.5 q4 -6 4 -19q0 -4 -1.5 -16t-0.5 -18q1 -5 6 -14t6 -13q14 -63 14 -78q0 -6 4 -18q25 -52 27 -78q2 -11 7 -33.5t7 -34.5q7 -33 15 -61q0 -7 6 -19q5 -9 15.5 -26.5t15.5 -26.5zM166 0l-4 -8l4 -8q0 1 2 4t2 4zM123 82q-2 0 -5 -2.5t-3 -3.5q0 -16 22 -21l4 -4q10 -5 13 0 q6 6 -4 12q-1 0 -4.5 1.5t-4.5 1.5q-8 16 -18 16zM94 -16q1 1 3 4t3 4v4q2 4 2 10q2 11 -1 15t-17 8q-17 -5 -25 -25q-4 -8 4 -12q3 -2 8.5 -6t8.5 -6q8 -2 14 4zM125 -66q6 3 12 3q5 30 4 38q-1 2 -3 6.5t-3 6.5q-5 -3 -29 -15q4 -25 7 -32q3 -10 12 -7zM170 -78v15h-8v-15 q0 -2 4 -6q4 4 4 6zM213 188l2 5q-2 4 -6 8q-3 1 -8.5 0.5t-5.5 -2.5q3 -3 6 -9q2 -2 4 -2q5 -3 8 0zM416 770q-22 -16 -8 -33q2 -2 4 -2l4 2q2 4 6 13.5t6 13.5q14 4 10 22q-4 7 -8 5h-4q-10 -8 -10 -21zM369 899l-4 -2q-2 -3 4 -7t10 -3q2 2 2 4q1 5 -2.5 7t-9.5 1z M328 764l-6 -6q2 -2 4 -2q9 -6 20 -2l4 4l-4 4q-4 7 -18 2zM561 348q1 3 2 9.5t2 9.5q0 7 -5 10t-11 0l-6 -3t-7.5 -3t-7.5 0q0 57 -10 78q-2 4 -2 14q2 17 -10 53q-13 54 -47 180q-4 12 -15 15q-5 -4 -8.5 -17.5t-7.5 -17.5q-6 -7 -10.5 -22.5t-5.5 -18.5q-2 -6 -8.5 -17.5 t-8.5 -17.5v-6q0 -10 -2 -12q-5 -5 -11 -18t-9 -17q-4 -4 -11 -4q-14 -3 -14 -19q5 -25 2 -32q-8 -3 -15 -8.5t-10.5 -9.5t-9.5 -13l-8 -12q-4 -4 -4 -8.5t2 -11t2 -9.5t-1 -9.5t-1 -9.5h-2l-10 -10q-8 -8 -2 -18q1 -1 2 -2.5t2 -2.5t2 -1q8 0 8 6q3 15 -2 28h2q6 2 10 13 q3 15 19 12q-6 -18 -6 -23q2 -27 -19 -63q-16 -28 -12 -43q-4 -5 -13.5 -26t-19.5 -29q-11 -8 -16 -35q4 -4 8 -4q19 0 27 4q29 10 63 19t75 18.5t64 15.5q19 5 43 2q14 -1 18.5 3.5t4.5 17.5q-3 38 -21 79q17 -4 19 -14q3 -6 8 -4zM639 184q8 -4 8 4q-2 2 -4 2q-4 2 -8 -2 q0 -4 4 -4zM532 1509q36 0 66 -18q6 -5 25.5 -19t29.5 -24q14 -11 6 -31q-3 -12 -16 -12q-7 -5 -16 8q0 2 -4 10q-1 1 -9 17q-19 27 -45 22q-5 -2 -24.5 -6.5t-28.5 -9.5q-71 -29 -131 -66q-17 -14 -70 -39q-40 -13 -77 -4q-51 17 -60 68q-4 4 2 10q3 3 13 0q18 -4 24 -24 q10 -16 19 -19q17 -4 30 6q45 27 56 41q41 41 88 64q48 26 122 26z" />
<glyph unicode="&#xc4;" d="M795 -209q4 -6 4 -24q2 -3 -3.5 -9t-9.5 -6q-21 0 -57 -12q-10 -4 -24 2.5t-17 15.5q-4 8 -4 15l-6 24q-15 29 -21 66q-18 71 -45 141q0 8 4 12h2h5q12 -4 16 4q9 17 10 23q0 6 -8 6q-9 2 -16 -2.5t-7 -11.5q-3 -10 0 -19h-2q-8 0 -8 2q-17 61 -35 154q-2 5 -6 16.5 t-6 16.5q0 4 -8 4h-10q-17 -7 -51 -15t-46 -12q-16 -5 -47.5 -14t-46.5 -14q-44 -11 -49 -11t-14.5 -2.5t-12.5 -3.5q-14 -2 -22 -18q-1 -3 -4 -13.5t-6 -15.5l-21 -14q-3 -3 -8 -13q-9 -22 -10 -28v-49q-2 -2 -5 -5.5t-5 -5.5q0 -3 1.5 -9t2.5 -9.5t0.5 -9t-2.5 -10.5 q-16 -30 -23 -84q0 -21 -10 -27q-4 -4 -4 -8q1 -4 2 -12.5t2 -12.5q3 -11 -1.5 -19.5t-9.5 -12.5t-16 -11q-8 -4 -10 -2q-9 5 -24.5 3.5t-24.5 0.5q-16 6 -49 6q-4 -1 -33 4q-8 4 -8 11q0 13 11 24.5t26 14.5h10q6 0 10 4l12 30q2 6 2 21q-3 0 -6.5 1t-5.5 1h-16q-1 1 -3 4 t-3 4q0 2 1 7t1 7q-7 30 4 78q0 1 6 47q3 18 20 21q0 4 4 8q14 5 16.5 9.5t-3.5 13.5q-10 5 -13 8q0 1 -1 2t-1 2q-6 14 -18 14q-2 -1 -7.5 -2t-8.5 -2q-28 -11 -80 -22q-43 -12 -90 -21q-22 -6 -41 10q-14 14 2 21q15 5 46 16.5t46 16.5q54 19 160 43l4 2q5 4 7 9.5t3 12.5 t2 10q8 16 8 29q0 4 1 14t1 15q6 6 8 6l9 -2q6 -20 45 -33q4 9 4 43q-8 2 -20 7t-17 7q-2 4 1 15.5t-3 15.5q-2 2 -2 10q14 24 18 66q0 7 10 22q17 26 11 58v14q7 10 26 43q12 22 15 43q1 8 10 33q2 7 29 74q-2 2 -8.5 7.5t-8.5 8.5q-5 11 -4 12q5 9 7.5 27t6.5 25 q6 8 15 25.5t10 19.5q3 2 0.5 6.5t-2.5 5.5v10q67 196 104 264q0 4 4 8q9 9 15 9q39 5 86 -11q12 -5 20 -20t4 -25q-2 -7 -1 -20t-1 -19q-2 -8 -2.5 -23t-1.5 -20q0 -32 2 -38q12 -86 27 -132q0 -2 8 -6q6 -3 6 -10q-4 -17 4 -22q17 -12 21 -33q0 -4 1.5 -14.5t2 -16t0 -14 t-3.5 -15.5t4 -18q7 -17 18 -31q7 -10 4 -22q-1 -3 -2 -9.5t-2 -9.5q-17 -10 -10 -24q7 -18 14 -47q0 -7 13 -7h20q5 -6 7 -20t6 -20q4 -7 6 -15.5t3.5 -19t2.5 -15.5q1 -9 12 -41q2 -7 -1 -18.5t-3 -15.5q-3 -13 16 -17q1 -7 3.5 -18.5t3.5 -14.5t1 -9t1 -10.5t4 -8.5 q4 -6 4 -19q0 -4 -1.5 -16t-0.5 -18q1 -5 6 -14t6 -13q14 -63 14 -78q0 -6 4 -18q25 -52 27 -78q2 -11 7 -33.5t7 -34.5q7 -33 15 -61q0 -7 6 -19q5 -9 15.5 -26.5t15.5 -26.5zM166 0l-4 -8l4 -8q0 1 2 4t2 4zM123 82q-2 0 -5 -2.5t-3 -3.5q0 -16 22 -21l4 -4q10 -5 13 0 q6 6 -4 12q-1 0 -4.5 1.5t-4.5 1.5q-8 16 -18 16zM94 -16q1 1 3 4t3 4v4q2 4 2 10q2 11 -1 15t-17 8q-17 -5 -25 -25q-4 -8 4 -12q3 -2 8.5 -6t8.5 -6q8 -2 14 4zM125 -66q6 3 12 3q5 30 4 38q-1 2 -3 6.5t-3 6.5q-5 -3 -29 -15q4 -25 7 -32q3 -10 12 -7zM170 -78v15h-8v-15 q0 -2 4 -6q4 4 4 6zM213 188l2 5q-2 4 -6 8q-3 1 -8.5 0.5t-5.5 -2.5q3 -3 6 -9q2 -2 4 -2q5 -3 8 0zM416 770q-22 -16 -8 -33q2 -2 4 -2l4 2q2 4 6 13.5t6 13.5q14 4 10 22q-4 7 -8 5h-4q-10 -8 -10 -21zM369 899l-4 -2q-2 -3 4 -7t10 -3q2 2 2 4q1 5 -2.5 7t-9.5 1z M328 764l-6 -6q2 -2 4 -2q9 -6 20 -2l4 4l-4 4q-4 7 -18 2zM561 348q1 3 2 9.5t2 9.5q0 7 -5 10t-11 0l-6 -3t-7.5 -3t-7.5 0q0 57 -10 78q-2 4 -2 14q2 17 -10 53q-13 54 -47 180q-4 12 -15 15q-5 -4 -8.5 -17.5t-7.5 -17.5q-6 -7 -10.5 -22.5t-5.5 -18.5q-2 -6 -8.5 -17.5 t-8.5 -17.5v-6q0 -10 -2 -12q-5 -5 -11 -18t-9 -17q-4 -4 -11 -4q-14 -3 -14 -19q5 -25 2 -32q-8 -3 -15 -8.5t-10.5 -9.5t-9.5 -13l-8 -12q-4 -4 -4 -8.5t2 -11t2 -9.5t-1 -9.5t-1 -9.5h-2l-10 -10q-8 -8 -2 -18q1 -1 2 -2.5t2 -2.5t2 -1q8 0 8 6q3 15 -2 28h2q6 2 10 13 q3 15 19 12q-6 -18 -6 -23q2 -27 -19 -63q-16 -28 -12 -43q-4 -5 -13.5 -26t-19.5 -29q-11 -8 -16 -35q4 -4 8 -4q19 0 27 4q29 10 63 19t75 18.5t64 15.5q19 5 43 2q14 -1 18.5 3.5t4.5 17.5q-3 38 -21 79q17 -4 19 -14q3 -6 8 -4zM639 184q8 -4 8 4q-2 2 -4 2q-4 2 -8 -2 q0 -4 4 -4zM238 1604q56 0 96 -25q17 -10 19.5 -18t-5.5 -23q-6 -16 -18.5 -48.5t-18.5 -49.5q-8 -21 -10 -29q-3 -18 -27 -25q-27 -9 -62 7.5t-52 46.5v4q-18 89 14 145q10 17 27 17q12 -2 37 -2zM547 1604q56 0 96 -25q17 -10 19.5 -18t-5.5 -23q-6 -16 -18 -48.5 t-18 -49.5q-10 -26 -11 -29q-3 -18 -26 -25q-28 -9 -63 7.5t-52 46.5v4q-18 89 14 145q10 17 27 17q12 -2 37 -2z" />
<glyph unicode="&#xc5;" d="M795 -209q4 -6 4 -24q2 -3 -3.5 -9t-9.5 -6q-21 0 -57 -12q-10 -4 -24 2.5t-17 15.5q-4 8 -4 15l-6 24q-15 29 -21 66q-18 71 -45 141q0 8 4 12h2h5q12 -4 16 4q9 17 10 23q0 6 -8 6q-9 2 -16 -2.5t-7 -11.5q-3 -10 0 -19h-2q-8 0 -8 2q-17 61 -35 154q-2 5 -6 16.5 t-6 16.5q0 4 -8 4h-10q-17 -7 -51 -15t-46 -12q-16 -5 -47.5 -14t-46.5 -14q-44 -11 -49 -11t-14.5 -2.5t-12.5 -3.5q-14 -2 -22 -18q-1 -3 -4 -13.5t-6 -15.5l-21 -14q-3 -3 -8 -13q-9 -22 -10 -28v-49q-2 -2 -5 -5.5t-5 -5.5q0 -3 1.5 -9t2.5 -9.5t0.5 -9t-2.5 -10.5 q-16 -30 -23 -84q0 -21 -10 -27q-4 -4 -4 -8q1 -4 2 -12.5t2 -12.5q3 -11 -1.5 -19.5t-9.5 -12.5t-16 -11q-8 -4 -10 -2q-9 5 -24.5 3.5t-24.5 0.5q-16 6 -49 6q-4 -1 -33 4q-8 4 -8 11q0 13 11 24.5t26 14.5h10q6 0 10 4l12 30q2 6 2 21q-3 0 -6.5 1t-5.5 1h-16q-1 1 -3 4 t-3 4q0 2 1 7t1 7q-7 30 4 78q0 1 6 47q3 18 20 21q0 4 4 8q14 5 16.5 9.5t-3.5 13.5q-10 5 -13 8q0 1 -1 2t-1 2q-6 14 -18 14q-2 -1 -7.5 -2t-8.5 -2q-28 -11 -80 -22q-43 -12 -90 -21q-22 -6 -41 10q-14 14 2 21q15 5 46 16.5t46 16.5q54 19 160 43l4 2q5 4 7 9.5t3 12.5 t2 10q8 16 8 29q0 4 1 14t1 15q6 6 8 6l9 -2q6 -20 45 -33q4 9 4 43q-8 2 -20 7t-17 7q-2 4 1 15.5t-3 15.5q-2 2 -2 10q14 24 18 66q0 7 10 22q17 26 11 58v14q7 10 26 43q12 22 15 43q1 8 10 33q2 7 29 74q-2 2 -8.5 7.5t-8.5 8.5q-5 11 -4 12q5 9 7.5 27t6.5 25 q6 8 15 25.5t10 19.5q3 2 0.5 6.5t-2.5 5.5v10q67 196 104 264q0 4 4 8q9 9 15 9q39 5 86 -11q12 -5 20 -20t4 -25q-2 -7 -1 -20t-1 -19q-2 -8 -2.5 -23t-1.5 -20q0 -32 2 -38q12 -86 27 -132q0 -2 8 -6q6 -3 6 -10q-4 -17 4 -22q17 -12 21 -33q0 -4 1.5 -14.5t2 -16t0 -14 t-3.5 -15.5t4 -18q7 -17 18 -31q7 -10 4 -22q-1 -3 -2 -9.5t-2 -9.5q-17 -10 -10 -24q7 -18 14 -47q0 -7 13 -7h20q5 -6 7 -20t6 -20q4 -7 6 -15.5t3.5 -19t2.5 -15.5q1 -9 12 -41q2 -7 -1 -18.5t-3 -15.5q-3 -13 16 -17q1 -7 3.5 -18.5t3.5 -14.5t1 -9t1 -10.5t4 -8.5 q4 -6 4 -19q0 -4 -1.5 -16t-0.5 -18q1 -5 6 -14t6 -13q14 -63 14 -78q0 -6 4 -18q25 -52 27 -78q2 -11 7 -33.5t7 -34.5q7 -33 15 -61q0 -7 6 -19q5 -9 15.5 -26.5t15.5 -26.5zM166 0l-4 -8l4 -8q0 1 2 4t2 4zM123 82q-2 0 -5 -2.5t-3 -3.5q0 -16 22 -21l4 -4q10 -5 13 0 q6 6 -4 12q-1 0 -4.5 1.5t-4.5 1.5q-8 16 -18 16zM94 -16q1 1 3 4t3 4v4q2 4 2 10q2 11 -1 15t-17 8q-17 -5 -25 -25q-4 -8 4 -12q3 -2 8.5 -6t8.5 -6q8 -2 14 4zM125 -66q6 3 12 3q5 30 4 38q-1 2 -3 6.5t-3 6.5q-5 -3 -29 -15q4 -25 7 -32q3 -10 12 -7zM170 -78v15h-8v-15 q0 -2 4 -6q4 4 4 6zM213 188l2 5q-2 4 -6 8q-3 1 -8.5 0.5t-5.5 -2.5q3 -3 6 -9q2 -2 4 -2q5 -3 8 0zM416 770q-22 -16 -8 -33q2 -2 4 -2l4 2q2 4 6 13.5t6 13.5q14 4 10 22q-4 7 -8 5h-4q-10 -8 -10 -21zM369 899l-4 -2q-2 -3 4 -7t10 -3q2 2 2 4q1 5 -2.5 7t-9.5 1z M328 764l-6 -6q2 -2 4 -2q9 -6 20 -2l4 4l-4 4q-4 7 -18 2zM561 348q1 3 2 9.5t2 9.5q0 7 -5 10t-11 0l-6 -3t-7.5 -3t-7.5 0q0 57 -10 78q-2 4 -2 14q2 17 -10 53q-13 54 -47 180q-4 12 -15 15q-5 -4 -8.5 -17.5t-7.5 -17.5q-6 -7 -10.5 -22.5t-5.5 -18.5q-2 -6 -8.5 -17.5 t-8.5 -17.5v-6q0 -10 -2 -12q-5 -5 -11 -18t-9 -17q-4 -4 -11 -4q-14 -3 -14 -19q5 -25 2 -32q-8 -3 -15 -8.5t-10.5 -9.5t-9.5 -13l-8 -12q-4 -4 -4 -8.5t2 -11t2 -9.5t-1 -9.5t-1 -9.5h-2l-10 -10q-8 -8 -2 -18q1 -1 2 -2.5t2 -2.5t2 -1q8 0 8 6q3 15 -2 28h2q6 2 10 13 q3 15 19 12q-6 -18 -6 -23q2 -27 -19 -63q-16 -28 -12 -43q-4 -5 -13.5 -26t-19.5 -29q-11 -8 -16 -35q4 -4 8 -4q19 0 27 4q29 10 63 19t75 18.5t64 15.5q19 5 43 2q14 -1 18.5 3.5t4.5 17.5q-3 38 -21 79q17 -4 19 -14q3 -6 8 -4zM639 184q8 -4 8 4q-2 2 -4 2q-4 2 -8 -2 q0 -4 4 -4zM272 1544q5 81 78 150q22 18 47 10q73 -20 105 -39q30 -20 35 -45q8 -32 8 -51q0 -23 -8 -39q-10 -20 -25 -35q-64 -57 -137 -63q-31 -5 -72 20q-19 13 -22 35q-6 30 -9 57zM338 1493l8 -4h8q50 5 97 59q12 12 -2 23q-12 12 -36.5 33t-27.5 24 q-28 -22 -40.5 -58.5t-6.5 -76.5z" />
<glyph unicode="&#xc6;" horiz-adv-x="1521" d="M795 -209q4 -6 4 -24q2 -3 -3.5 -9t-9.5 -6q-21 0 -57 -12q-10 -4 -24 2.5t-17 15.5q-4 8 -4 15l-6 24q-15 29 -21 66q-18 71 -45 141q0 8 4 12h2h5q12 -4 16 4q9 17 10 23q0 6 -8 6q-9 2 -16 -2.5t-7 -11.5q-3 -10 0 -19h-2q-8 0 -8 2q-17 61 -35 154q-2 5 -6 16.5 t-6 16.5q0 4 -8 4h-10q-17 -7 -51 -15t-46 -12q-16 -5 -47.5 -14t-46.5 -14q-44 -11 -49 -11t-14.5 -2.5t-12.5 -3.5q-14 -2 -22 -18q-1 -3 -4 -13.5t-6 -15.5l-21 -14q-3 -3 -8 -13q-9 -22 -10 -28v-49q-2 -2 -5 -5.5t-5 -5.5q0 -3 1.5 -9t2.5 -9.5t0.5 -9t-2.5 -10.5 q-16 -30 -23 -84q0 -21 -10 -27q-4 -4 -4 -8q1 -4 2 -12.5t2 -12.5q3 -11 -1.5 -19.5t-9.5 -12.5t-16 -11q-8 -4 -10 -2q-9 5 -24.5 3.5t-24.5 0.5q-16 6 -49 6q-4 -1 -33 4q-8 4 -8 11q0 13 11 24.5t26 14.5h10q6 0 10 4l12 30q2 6 2 21q-3 0 -6.5 1t-5.5 1h-16q-1 1 -3 4 t-3 4q0 2 1 7t1 7q-7 30 4 78q0 1 6 47q3 18 20 21q0 4 4 8q14 5 16.5 9.5t-3.5 13.5q-10 5 -13 8q0 1 -1 2t-1 2q-6 14 -18 14q-2 -1 -7.5 -2t-8.5 -2q-28 -11 -80 -22q-43 -12 -90 -21q-22 -6 -41 10q-14 14 2 21q15 5 46 16.5t46 16.5q54 19 160 43l4 2q5 4 7 9.5t3 12.5 t2 10q8 16 8 29q0 4 1 14t1 15q6 6 8 6l9 -2q6 -20 45 -33q4 9 4 43q-8 2 -20 7t-17 7q-2 4 1 15.5t-3 15.5q-2 2 -2 10q14 24 18 66q0 7 10 22q17 26 11 58v14q7 10 26 43q12 22 15 43q1 8 10 33q2 7 29 74q-2 2 -8.5 7.5t-8.5 8.5q-5 11 -4 12q5 9 7.5 27t6.5 25 q6 8 15 25.5t10 19.5q3 2 0.5 6.5t-2.5 5.5v10q67 196 104 264q0 4 4 8q9 9 15 9q39 5 86 -11q12 -5 20 -20t4 -25q-2 -7 -1 -20t-1 -19q-2 -8 -2.5 -23t-1.5 -20q0 -32 2 -38q12 -86 27 -132q0 -2 8 -6q6 -3 6 -10q-4 -17 4 -22q17 -12 21 -33q0 -4 1.5 -14.5t2 -16t0 -14 t-3.5 -15.5t4 -18q7 -17 18 -31q7 -10 4 -22q-1 -3 -2 -9.5t-2 -9.5q-17 -10 -10 -24q7 -18 14 -47q0 -7 13 -7h20q5 -6 7 -20t6 -20q4 -7 6 -15.5t3.5 -19t2.5 -15.5q1 -9 12 -41q2 -7 -1 -18.5t-3 -15.5q-3 -13 16 -17q1 -7 3.5 -18.5t3.5 -14.5t1 -9t1 -10.5t4 -8.5 q4 -6 4 -19q0 -4 -1.5 -16t-0.5 -18q1 -5 6 -14t6 -13q14 -63 14 -78q0 -6 4 -18q25 -52 27 -78q2 -11 7 -33.5t7 -34.5q7 -33 15 -61q0 -7 6 -19q5 -9 15.5 -26.5t15.5 -26.5zM166 0l-4 -8l4 -8q0 1 2 4t2 4zM123 82q-2 0 -5 -2.5t-3 -3.5q0 -16 22 -21l4 -4q10 -5 13 0 q6 6 -4 12q-1 0 -4.5 1.5t-4.5 1.5q-8 16 -18 16zM94 -16q1 1 3 4t3 4v4q2 4 2 10q2 11 -1 15t-17 8q-17 -5 -25 -25q-4 -8 4 -12q3 -2 8.5 -6t8.5 -6q8 -2 14 4zM125 -66q6 3 12 3q5 30 4 38q-1 2 -3 6.5t-3 6.5q-5 -3 -29 -15q4 -25 7 -32q3 -10 12 -7zM170 -78v15h-8v-15 q0 -2 4 -6q4 4 4 6zM213 188l2 5q-2 4 -6 8q-3 1 -8.5 0.5t-5.5 -2.5q3 -3 6 -9q2 -2 4 -2q5 -3 8 0zM416 770q-22 -16 -8 -33q2 -2 4 -2l4 2q2 4 6 13.5t6 13.5q14 4 10 22q-4 7 -8 5h-4q-10 -8 -10 -21zM369 899l-4 -2q-2 -3 4 -7t10 -3q2 2 2 4q1 5 -2.5 7t-9.5 1z M328 764l-6 -6q2 -2 4 -2q9 -6 20 -2l4 4l-4 4q-4 7 -18 2zM561 348q1 3 2 9.5t2 9.5q0 7 -5 10t-11 0l-6 -3t-7.5 -3t-7.5 0q0 57 -10 78q-2 4 -2 14q2 17 -10 53q-13 54 -47 180q-4 12 -15 15q-5 -4 -8.5 -17.5t-7.5 -17.5q-6 -7 -10.5 -22.5t-5.5 -18.5q-2 -6 -8.5 -17.5 t-8.5 -17.5v-6q0 -10 -2 -12q-5 -5 -11 -18t-9 -17q-4 -4 -11 -4q-14 -3 -14 -19q5 -25 2 -32q-8 -3 -15 -8.5t-10.5 -9.5t-9.5 -13l-8 -12q-4 -4 -4 -8.5t2 -11t2 -9.5t-1 -9.5t-1 -9.5h-2l-10 -10q-8 -8 -2 -18q1 -1 2 -2.5t2 -2.5t2 -1q8 0 8 6q3 15 -2 28h2q6 2 10 13 q3 15 19 12q-6 -18 -6 -23q2 -27 -19 -63q-16 -28 -12 -43q-4 -5 -13.5 -26t-19.5 -29q-11 -8 -16 -35q4 -4 8 -4q19 0 27 4q29 10 63 19t75 18.5t64 15.5q19 5 43 2q14 -1 18.5 3.5t4.5 17.5q-3 38 -21 79q17 -4 19 -14q3 -6 8 -4zM639 184q8 -4 8 4q-2 2 -4 2q-4 2 -8 -2 q0 -4 4 -4zM1327 446q0 -12 -2 -18q-6 -18 -14.5 -57t-14.5 -58q-5 -29 -4 -34q0 -27 -6 -48q-3 -12 0 -24q3 -15 0 -31q-4 -12 -2 -18q4 0 2 -37l-2 -37q-6 -69 -6 -72q-2 -15 -5 -42t-5 -42q-3 -35 -25 -63q-18 -27 -22 -35q-1 -2 -8 -9t-9.5 -10.5t-4.5 -10.5t-1 -13 q-30 -45 -37 -53q-25 -33 -67 -51q-9 -3 -24.5 -10t-28 -11.5t-25.5 -7.5q-13 -4 -43 -8q-4 0 -12 0.5t-15 0.5t-12 -1q-42 -11 -109 12q-89 32 -139 94q-3 4 -22 28t-25 38q-31 59 -39 92q-1 3 -1 7.5t-1 6.5q-14 31 -4 68q5 11 -6 22q-8 8 -8 23v49q3 15 0 29q-5 15 2 35 q12 77 2 116q-4 11 0 25q10 24 6 67q-3 53 12 93q1 3 6 38q3 8 -6 17q-8 10 -4 24q3 12 11.5 49t13.5 58l6 12q23 56 26 121q1 6 2 19.5t2 19.5q14 63 21 82q22 49 33 94q0 1 10 21h14q8 3 8 8q16 -8 41 -8q28 0 37 -25q1 -2 1.5 -6t1.5 -7t3 -5q20 -26 13 -70 q-19 -95 -21 -195q-1 -7 -1.5 -23t-1.5 -27.5t-5 -22.5q-3 -11 0 -21q3 -26 -6 -96q-1 -6 2.5 -10t9.5 -2q19 4 82 13.5t96 18.5q43 11 88 2q22 -6 27 -24q-6 0 -10 -4q-16 0 -98 -15q-34 -6 -132 -20q-6 0 -65 -16q-11 -4 -14 -15q-6 -41 -5 -47q1 -9 1 -19.5t-0.5 -23.5 t-0.5 -20q0 -15 -2 -21q-10 -31 -10 -110q0 -66 -4 -84q-2 -4 -2 -15q9 -62 -2 -88q0 -10 2 -14q7 -25 4 -64q0 -37 19 -96q3 -7 18 -47q7 -23 32.5 -51t47.5 -39q10 -6 31 -10q73 0 120 41q6 5 31 30q6 8 19.5 23.5t19.5 23.5q9 12 21 35q28 48 59 148q4 13 31 153 q14 82 51 197q19 73 20 92q3 14 21 21q4 4 8 0q4 0 4 -5zM616 147q6 17 5.5 26t-7.5 22q-8 -22 -7.5 -28.5t9.5 -19.5zM688 215q3 -3 6.5 0t3.5 6q-1 1 -2 2.5t-2 2.5t-2 1q-3 2 -6 -1t-2 -7q0 -4 4 -4zM731 -4l8 8q-4 11 -12 8q-5 0 -7 -2.5t-1 -5.5q5 -10 12 -8zM745 1014 q-2 0 -2 2h2v-2zM721 1006h2h-2zM727 1016q-6 -2 -6 -10q-21 10 -33 2q-7 -3 -26 -17q-16 -12 -25 -12q-9 -1 -33 -16q-11 -8 -39 -41q-2 -1 -5.5 -4.5t-6 -5t-6.5 -1.5q-4 11 -2 15q22 50 26 55q55 74 101 111q14 12 44 32.5t44 32.5q29 20 86 43q28 12 43 12q13 0 20 5 q18 6 39.5 11t48.5 10.5t41 8.5q23 4 66 4q20 0 59 -6t58 -6q4 0 24 -10q10 -4 11.5 -15t-7.5 -18q-4 -4 -16 -12q-10 -10 -25 -10q-31 -2 -75 -13q-15 -6 -33 -6q-47 -5 -117 -31q-2 -1 -8.5 -4t-11.5 -4q-40 -8 -110.5 -40t-82.5 -36q-17 -8 -27 -16v-8q-8 3 -16 0z" />
<glyph unicode="&#xc7;" horiz-adv-x="847" d="M246 870q64 72 110 103q34 26 82 47q8 4 8 6q3 9 10.5 16t19.5 14t16 11q73 54 81 59q39 23 76 29q3 0 9 1t8 1q11 -1 35 -2.5t41.5 -4t33.5 -7.5q21 -5 45 -19q15 -8 23 -24t2 -31q-4 -11 -7.5 -34t-7.5 -34q-6 -16 -15 -47t-13 -43q-16 -59 -49 -129q-13 -35 -47 -94 q-6 -12 -21.5 -34t-21.5 -33q-2 -4 -5 -7t-7.5 -6.5t-6.5 -5.5q-13 -10 -31 8q74 114 162 351q9 20 17 61q3 24 -13 41q-8 13 -22 27q-3 3 -8.5 4.5t-6.5 -0.5q-70 -28 -96 -58q-35 -35 -53 -41q-3 -2 -7.5 -8t-6.5 -8q-5 -5 -15 -17t-16 -18q-38 -34 -53 -55 q-1 -1 -22.5 -23.5t-29.5 -34.5q-13 -22 -28 -28q-20 -7 -15 -21q0 -4 -4 -8q-7 -4 -20.5 -12t-20.5 -12l-2 -5l4 -4q0 -6 11 -10q-2 -4 -11.5 -16.5t-11.5 -20.5q-3 -6 -12.5 -18.5t-11.5 -20.5q0 -3 -5 -8q-6 -9 -18 -27.5t-18 -27.5q-5 -9 -27 -53q-12 -25 -39 -99 q-15 -38 -27 -78q-2 -3 -5 -9t-5 -9q-8 -8 -8 -22q-2 -15 -12 -82q-1 -6 -2 -18t-2 -17q-10 -35 -4 -78v-10q-1 -15 1 -30t7 -37.5t6 -29.5q10 -43 49 -124q10 -17 51 -70q32 -37 80 -37q39 -3 76 12q61 30 94 68q41 48 55 84q21 43 72 49q3 1 6.5 -1t3.5 -5q0 -18 2 -21 q5 -11 0 -22q-6 -15 -6 -29q0 -6 -4 -14q-3 -5 -23.5 -38.5t-35.5 -49.5q-71 -81 -168 -84q-114 -6 -207 29q-45 13 -66 43l-6 6t-6.5 7t-6.5 6.5t-7 6.5q-16 12 -29 28.5t-27.5 37.5t-23.5 32q-12 14 -12 43q3 69 -19 140q0 3 -2 9.5t-2 10.5q-3 38 -1.5 86t11.5 84 q4 13 9.5 40.5t9.5 41.5q9 23 12 53q4 12 2 19q-13 25 12 53q5 6 14.5 18.5t14.5 18.5q4 6 8 22q6 39 33 66q12 7 20 27q2 7 -12 16q-4 2 -12 10q6 4 16.5 13.5t16.5 13.5q36 21 59 63q12 22 41 47q2 0 2.5 1.5t-0.5 3.5q2 3 6 8t6 8q3 3 2 6.5t-4 3.5h-10q-9 0 -12 10z M309 694q-8 -1 -13.5 -4.5t-13 -12t-8.5 -9.5q24 -8 29 2q9 18 10 22q9 4 9 6q3 5 8 15.5t8 15.5v4q0 6 -6 6q-3 3 -8 -2t-7.5 -12t-4.5 -17.5t-3 -13.5zM213 643q-4 -1 -7 0t-6 3t-5 3q-9 6 -15.5 4.5t-5.5 -10.5q1 -4 -0.5 -8t-3.5 -6t-5 -5.5t-5 -5.5q19 -8 28 -2 q2 2 5.5 6t5.5 6t6 5t8 4q4 -4 8 -4q12 7 25 33q2 2 -1 6t-7 4q-9 0 -9 -2q-11 -18 -16 -31zM297 741q-1 1 -2 4.5t-2 4.5h-10q-17 -10 -17 -25q0 -1 3 -3.5t5 -2.5q9 0 16.5 7.5t6.5 14.5zM199 707h-6q-1 -2 -4.5 -5.5t-4.5 -5.5q-3 -3 -1 -6.5t7 -5.5q8 -4 13 6 q2 4 0.5 10.5t-4.5 6.5zM121 254l10 10l-8 4q-5 0 -7 -2.5t-1 -5.5zM362 852q1 1 3 2t2 2q-3 2 -5 2l-2 -2q0 -1 1 -2t1 -2zM244 -197v-61l35 -43l18 -33q8 8 8 -7q0 -9 -2 -24q-4 -21 -8 -36t-6 -20.5t-2 -6.5q0 -3 -3 -4t-5 -2l-50 -12q-26 6 -32 6q-7 0 -43 12 q-4 1 -23.5 15t-21.5 16l-13 18q-8 21 -8 25t2.5 14t5.5 10q2 0 13 8.5t12 8.5l8 -41q12 -7 12 -11l-1 -4q-1 -4 0 -6t5 -4q6 -3 27.5 -10.5t24.5 -7.5l32 -6h11q3 0 10.5 7t7.5 9v12q-8 29 -12 33q-18 18 -19 20q-1 3 -10 11.5t-18 16.5l-9 7q-8 8 -10 8q-1 0 0.5 24.5 t3.5 48.5l2 24q58 -13 58 -15z" />
<glyph unicode="&#xc8;" horiz-adv-x="704" d="M743 446q0 -12 -2 -18q-6 -18 -14 -57t-14 -58q-5 -29 -4 -34q0 -23 -7 -48q-3 -12 0 -24q3 -16 0 -31q-4 -12 -2 -18q4 0 2 -37l-2 -37q-6 -69 -6 -72q-2 -14 -5 -41.5t-5 -42.5q-3 -35 -25 -63q-18 -27 -22 -35q-1 -2 -8 -9t-9.5 -10.5t-4.5 -10.5t-1 -13 q-33 -50 -36 -53q-25 -32 -68 -51q-9 -3 -24.5 -10t-28 -11.5t-25.5 -7.5q-13 -4 -43 -8q-4 0 -12 0.5t-15 0.5t-12 -1q-42 -11 -108 12q-90 33 -140 94q-3 4 -22 28t-25 38q-31 59 -39 92q-1 3 -1 7.5t-1 6.5q-14 31 -4 68q5 11 -6 22q-8 8 -8 23v49q3 14 0 29q-5 15 2 35 q12 77 2 116q-4 11 0 25q10 24 6 67q-3 53 12 93q3 8 7 38q3 7 -7 17q-8 10 -4 24q3 12 11.5 49t13.5 58l6 12q24 58 27 121q1 6 2 19.5t2 19.5q16 70 20 82q22 49 33 94q0 1 10 21h15q8 3 8 8q16 -8 41 -8q28 0 37 -25q1 -2 1.5 -6t1.5 -7t3 -5q19 -25 12 -70 q-13 -65 -15.5 -95.5t-4.5 -99.5q-5 -60 -9 -73q-3 -11 0 -21q3 -26 -6 -96q-1 -6 3 -10t10 -2q19 4 82 13.5t96 18.5q43 11 88 2q21 -6 26 -24q-6 0 -10 -4q-16 0 -98 -15q-37 -7 -131 -20q-7 -1 -66 -16q-11 -4 -14 -15q-5 -37 -4 -47q1 -9 1 -19.5t-0.5 -23.5t-0.5 -20 q0 -15 -2 -21q-10 -31 -10 -110q0 -61 -5 -84q-2 -4 -2 -15q9 -62 -2 -88q0 -10 2 -14q7 -25 4 -64q0 -37 19 -96q3 -7 18 -47q7 -23 32.5 -51t47.5 -39q9 -6 31 -10q74 0 121 41l30 30q6 8 19.5 23.5t19.5 23.5q9 12 21 35q28 48 59 148q4 13 31 153q14 82 51 197l8 28 t9 35t4 29q3 14 20 21q4 4 8 0q4 0 4 -5zM33 147q6 17 5.5 26t-7.5 22q-8 -22 -7.5 -28.5t9.5 -19.5zM104 215q3 -3 7 0t4 6q-1 1 -2 2.5t-2 2.5t-2 1q-3 2 -6.5 -1t-2.5 -7q0 -4 4 -4zM147 -4q2 1 9 8q-4 11 -13 8q-5 0 -7 -2.5t-1 -5.5q5 -10 12 -8zM162 1014q-2 0 -2 2h2 v-2zM137 1006h2h-2zM143 1016q-6 -2 -6 -10q-21 10 -33 2q-7 -3 -26 -17q-16 -12 -25 -12q-9 -1 -33 -16q-8 -6 -38 -41q-16 -11 -19 -11q-4 11 -2 15q21 47 27 55q57 76 100 111q14 12 44 32.5t44 32.5q29 20 86 43q28 12 43 12q13 0 21 5q18 6 39.5 11t48.5 10.5t41 8.5 q23 4 65 4q20 0 59 -6t58 -6q5 0 25 -10q10 -4 11.5 -15t-7.5 -18q-2 -2 -17 -12q-10 -10 -24 -10q-33 -3 -76 -13q-15 -6 -33 -6q-47 -5 -117 -31q-2 -1 -8.5 -4t-11.5 -4q-40 -8 -110.5 -40t-82.5 -36q-14 -7 -26 -16v-8q-9 3 -17 0zM512 1280q0 -12 -5 -18.5t-11 -4.5 q-19 6 -31 21q-12 16 -21 25l-59 59q-2 2 -7 5t-7 5q-2 1 -6.5 3.5t-8 5t-6.5 5.5q-32 26 -84 83.5t-65 70.5q-14 17 -2 35q12 16 20 24q18 12 39 21q19 11 31 -6q10 -12 29.5 -37t29.5 -37q93 -116 141 -207q6 -10 13.5 -29.5t9.5 -23.5z" />
<glyph unicode="&#xc9;" horiz-adv-x="704" d="M743 446q0 -12 -2 -18q-6 -18 -14 -57t-14 -58q-5 -29 -4 -34q0 -23 -7 -48q-3 -12 0 -24q3 -16 0 -31q-4 -12 -2 -18q4 0 2 -37l-2 -37q-6 -69 -6 -72q-2 -14 -5 -41.5t-5 -42.5q-3 -35 -25 -63q-18 -27 -22 -35q-1 -2 -8 -9t-9.5 -10.5t-4.5 -10.5t-1 -13 q-33 -50 -36 -53q-25 -32 -68 -51q-9 -3 -24.5 -10t-28 -11.5t-25.5 -7.5q-13 -4 -43 -8q-4 0 -12 0.5t-15 0.5t-12 -1q-42 -11 -108 12q-90 33 -140 94q-3 4 -22 28t-25 38q-31 59 -39 92q-1 3 -1 7.5t-1 6.5q-14 31 -4 68q5 11 -6 22q-8 8 -8 23v49q3 14 0 29q-5 15 2 35 q12 77 2 116q-4 11 0 25q10 24 6 67q-3 53 12 93q3 8 7 38q3 7 -7 17q-8 10 -4 24q3 12 11.5 49t13.5 58l6 12q24 58 27 121q1 6 2 19.5t2 19.5q16 70 20 82q22 49 33 94q0 1 10 21h15q8 3 8 8q16 -8 41 -8q28 0 37 -25q1 -2 1.5 -6t1.5 -7t3 -5q19 -25 12 -70 q-13 -65 -15.5 -95.5t-4.5 -99.5q-5 -60 -9 -73q-3 -11 0 -21q3 -26 -6 -96q-1 -6 3 -10t10 -2q19 4 82 13.5t96 18.5q43 11 88 2q21 -6 26 -24q-6 0 -10 -4q-16 0 -98 -15q-37 -7 -131 -20q-7 -1 -66 -16q-11 -4 -14 -15q-5 -37 -4 -47q1 -9 1 -19.5t-0.5 -23.5t-0.5 -20 q0 -15 -2 -21q-10 -31 -10 -110q0 -61 -5 -84q-2 -4 -2 -15q9 -62 -2 -88q0 -10 2 -14q7 -25 4 -64q0 -37 19 -96q3 -7 18 -47q7 -23 32.5 -51t47.5 -39q9 -6 31 -10q74 0 121 41l30 30q6 8 19.5 23.5t19.5 23.5q9 12 21 35q28 48 59 148q4 13 31 153q14 82 51 197l8 28 t9 35t4 29q3 14 20 21q4 4 8 0q4 0 4 -5zM33 147q6 17 5.5 26t-7.5 22q-8 -22 -7.5 -28.5t9.5 -19.5zM104 215q3 -3 7 0t4 6q-1 1 -2 2.5t-2 2.5t-2 1q-3 2 -6.5 -1t-2.5 -7q0 -4 4 -4zM147 -4q2 1 9 8q-4 11 -13 8q-5 0 -7 -2.5t-1 -5.5q5 -10 12 -8zM162 1014q-2 0 -2 2h2 v-2zM137 1006h2h-2zM143 1016q-6 -2 -6 -10q-21 10 -33 2q-7 -3 -26 -17q-16 -12 -25 -12q-9 -1 -33 -16q-8 -6 -38 -41q-16 -11 -19 -11q-4 11 -2 15q21 47 27 55q57 76 100 111q14 12 44 32.5t44 32.5q29 20 86 43q28 12 43 12q13 0 21 5q18 6 39.5 11t48.5 10.5t41 8.5 q23 4 65 4q20 0 59 -6t58 -6q5 0 25 -10q10 -4 11.5 -15t-7.5 -18q-2 -2 -17 -12q-10 -10 -24 -10q-33 -3 -76 -13q-15 -6 -33 -6q-47 -5 -117 -31q-2 -1 -8.5 -4t-11.5 -4q-40 -8 -110.5 -40t-82.5 -36q-14 -7 -26 -16v-8q-9 3 -17 0zM190 1280q2 4 9.5 23.5t13.5 29.5 q48 91 141 207q10 12 30 36.5t30 37.5q7 10 13.5 11t16.5 -5q21 -9 39 -21q12 -12 21 -24q12 -18 -2 -35q-12 -12 -65 -70t-85 -84q-2 -2 -20 -14q-2 -2 -7.5 -5t-7.5 -5l-59 -59q-5 -5 -20 -25q-12 -15 -31 -21q-6 -2 -11.5 5t-5.5 18z" />
<glyph unicode="&#xca;" horiz-adv-x="704" d="M743 446q0 -12 -2 -18q-6 -18 -14 -57t-14 -58q-5 -29 -4 -34q0 -23 -7 -48q-3 -12 0 -24q3 -16 0 -31q-4 -12 -2 -18q4 0 2 -37l-2 -37q-6 -69 -6 -72q-2 -14 -5 -41.5t-5 -42.5q-3 -35 -25 -63q-18 -27 -22 -35q-1 -2 -8 -9t-9.5 -10.5t-4.5 -10.5t-1 -13 q-33 -50 -36 -53q-25 -32 -68 -51q-9 -3 -24.5 -10t-28 -11.5t-25.5 -7.5q-13 -4 -43 -8q-4 0 -12 0.5t-15 0.5t-12 -1q-42 -11 -108 12q-90 33 -140 94q-3 4 -22 28t-25 38q-31 59 -39 92q-1 3 -1 7.5t-1 6.5q-14 31 -4 68q5 11 -6 22q-8 8 -8 23v49q3 14 0 29q-5 15 2 35 q12 77 2 116q-4 11 0 25q10 24 6 67q-3 53 12 93q3 8 7 38q3 7 -7 17q-8 10 -4 24q3 12 11.5 49t13.5 58l6 12q24 58 27 121q1 6 2 19.5t2 19.5q16 70 20 82q22 49 33 94q0 1 10 21h15q8 3 8 8q16 -8 41 -8q28 0 37 -25q1 -2 1.5 -6t1.5 -7t3 -5q19 -25 12 -70 q-13 -65 -15.5 -95.5t-4.5 -99.5q-5 -60 -9 -73q-3 -11 0 -21q3 -26 -6 -96q-1 -6 3 -10t10 -2q19 4 82 13.5t96 18.5q43 11 88 2q21 -6 26 -24q-6 0 -10 -4q-16 0 -98 -15q-37 -7 -131 -20q-7 -1 -66 -16q-11 -4 -14 -15q-5 -37 -4 -47q1 -9 1 -19.5t-0.5 -23.5t-0.5 -20 q0 -15 -2 -21q-10 -31 -10 -110q0 -61 -5 -84q-2 -4 -2 -15q9 -62 -2 -88q0 -10 2 -14q7 -25 4 -64q0 -37 19 -96q3 -7 18 -47q7 -23 32.5 -51t47.5 -39q9 -6 31 -10q74 0 121 41l30 30q6 8 19.5 23.5t19.5 23.5q9 12 21 35q28 48 59 148q4 13 31 153q14 82 51 197l8 28 t9 35t4 29q3 14 20 21q4 4 8 0q4 0 4 -5zM33 147q6 17 5.5 26t-7.5 22q-8 -22 -7.5 -28.5t9.5 -19.5zM104 215q3 -3 7 0t4 6q-1 1 -2 2.5t-2 2.5t-2 1q-3 2 -6.5 -1t-2.5 -7q0 -4 4 -4zM147 -4q2 1 9 8q-4 11 -13 8q-5 0 -7 -2.5t-1 -5.5q5 -10 12 -8zM162 1014q-2 0 -2 2h2 v-2zM137 1006h2h-2zM143 1016q-6 -2 -6 -10q-21 10 -33 2q-7 -3 -26 -17q-16 -12 -25 -12q-9 -1 -33 -16q-8 -6 -38 -41q-16 -11 -19 -11q-4 11 -2 15q21 47 27 55q57 76 100 111q14 12 44 32.5t44 32.5q29 20 86 43q28 12 43 12q13 0 21 5q18 6 39.5 11t48.5 10.5t41 8.5 q23 4 65 4q20 0 59 -6t58 -6q5 0 25 -10q10 -4 11.5 -15t-7.5 -18q-2 -2 -17 -12q-10 -10 -24 -10q-33 -3 -76 -13q-15 -6 -33 -6q-47 -5 -117 -31q-2 -1 -8.5 -4t-11.5 -4q-40 -8 -110.5 -40t-82.5 -36q-14 -7 -26 -16v-8q-9 3 -17 0zM651 1380q-22 -7 -43 2q-16 4 -88 29 q-8 3 -16 8q-67 50 -111 99q-4 6 -18 20q-2 -2 -7.5 -6.5t-7.5 -7.5q-42 -67 -96 -121q-43 -43 -94 -72q-15 -11 -31 -6q-14 4 -43 -4q-18 -7 -30.5 4t-6.5 29q10 46 41 67q70 52 158 162q10 14 53 62q15 21 41 14q25 -6 45 8q15 12 32 7.5t26 -23.5q4 -8 4 -17 q-4 -24 16 -69q20 -46 29 -64q10 -26 31 -41q2 0 2 -2q37 -39 94 -61q2 -1 4.5 -3.5t7 -6.5t8.5 -7z" />
<glyph unicode="&#xcb;" horiz-adv-x="704" d="M743 446q0 -12 -2 -18q-6 -18 -14 -57t-14 -58q-5 -29 -4 -34q0 -23 -7 -48q-3 -12 0 -24q3 -16 0 -31q-4 -12 -2 -18q4 0 2 -37l-2 -37q-6 -69 -6 -72q-2 -14 -5 -41.5t-5 -42.5q-3 -35 -25 -63q-18 -27 -22 -35q-1 -2 -8 -9t-9.5 -10.5t-4.5 -10.5t-1 -13 q-33 -50 -36 -53q-25 -32 -68 -51q-9 -3 -24.5 -10t-28 -11.5t-25.5 -7.5q-13 -4 -43 -8q-4 0 -12 0.5t-15 0.5t-12 -1q-42 -11 -108 12q-90 33 -140 94q-3 4 -22 28t-25 38q-31 59 -39 92q-1 3 -1 7.5t-1 6.5q-14 31 -4 68q5 11 -6 22q-8 8 -8 23v49q3 14 0 29q-5 15 2 35 q12 77 2 116q-4 11 0 25q10 24 6 67q-3 53 12 93q3 8 7 38q3 7 -7 17q-8 10 -4 24q3 12 11.5 49t13.5 58l6 12q24 58 27 121q1 6 2 19.5t2 19.5q16 70 20 82q22 49 33 94q0 1 10 21h15q8 3 8 8q16 -8 41 -8q28 0 37 -25q1 -2 1.5 -6t1.5 -7t3 -5q19 -25 12 -70 q-13 -65 -15.5 -95.5t-4.5 -99.5q-5 -60 -9 -73q-3 -11 0 -21q3 -26 -6 -96q-1 -6 3 -10t10 -2q19 4 82 13.5t96 18.5q43 11 88 2q21 -6 26 -24q-6 0 -10 -4q-16 0 -98 -15q-37 -7 -131 -20q-7 -1 -66 -16q-11 -4 -14 -15q-5 -37 -4 -47q1 -9 1 -19.5t-0.5 -23.5t-0.5 -20 q0 -15 -2 -21q-10 -31 -10 -110q0 -61 -5 -84q-2 -4 -2 -15q9 -62 -2 -88q0 -10 2 -14q7 -25 4 -64q0 -37 19 -96q3 -7 18 -47q7 -23 32.5 -51t47.5 -39q9 -6 31 -10q74 0 121 41l30 30q6 8 19.5 23.5t19.5 23.5q9 12 21 35q28 48 59 148q4 13 31 153q14 82 51 197l8 28 t9 35t4 29q3 14 20 21q4 4 8 0q4 0 4 -5zM33 147q6 17 5.5 26t-7.5 22q-8 -22 -7.5 -28.5t9.5 -19.5zM104 215q3 -3 7 0t4 6q-1 1 -2 2.5t-2 2.5t-2 1q-3 2 -6.5 -1t-2.5 -7q0 -4 4 -4zM147 -4q2 1 9 8q-4 11 -13 8q-5 0 -7 -2.5t-1 -5.5q5 -10 12 -8zM162 1014q-2 0 -2 2h2 v-2zM137 1006h2h-2zM143 1016q-6 -2 -6 -10q-21 10 -33 2q-7 -3 -26 -17q-16 -12 -25 -12q-9 -1 -33 -16q-8 -6 -38 -41q-16 -11 -19 -11q-4 11 -2 15q21 47 27 55q57 76 100 111q14 12 44 32.5t44 32.5q29 20 86 43q28 12 43 12q13 0 21 5q18 6 39.5 11t48.5 10.5t41 8.5 q23 4 65 4q20 0 59 -6t58 -6q5 0 25 -10q10 -4 11.5 -15t-7.5 -18q-2 -2 -17 -12q-10 -10 -24 -10q-33 -3 -76 -13q-15 -6 -33 -6q-47 -5 -117 -31q-2 -1 -8.5 -4t-11.5 -4q-40 -8 -110.5 -40t-82.5 -36q-14 -7 -26 -16v-8q-9 3 -17 0zM182 1604q57 0 97 -25 q17 -10 19.5 -18t-5.5 -23q-6 -16 -18.5 -48.5t-18.5 -49.5q-8 -21 -10 -29q-3 -18 -27 -25q-28 -9 -63 7.5t-52 46.5v4q-18 88 15 145q10 17 26 17q12 -2 37 -2zM492 1604q56 0 96 -25q17 -10 19.5 -18t-5.5 -23q-6 -16 -18.5 -48.5t-18.5 -49.5q-8 -21 -10 -29 q-3 -18 -27 -25q-27 -9 -62 7.5t-52 46.5v4q-18 89 14 145q10 17 27 17q12 -2 37 -2z" />
<glyph unicode="&#xcc;" horiz-adv-x="321" d="M190 272q-3 -7 -8.5 -21t-7.5 -20q2 -3 5 -4t7.5 -1t6.5 -1q11 0 8 -10q-2 -4 -6.5 -11t-6.5 -11q6 -5 8 -12t0.5 -18t-1.5 -13q-3 -15 -9 -27q-5 -7 -22 -41q3 -2 8 -6t8 -6q-6 -12 -6 -13q-5 -10 -2 -14q16 -13 8 -33q-12 -40 -6 -80q1 -7 -4 -18t-6 -14q18 -28 12 -60 q-6 -19 2 -39q2 -4 2 -28l-6 -9q-9 2 -23.5 4.5t-26.5 5.5t-22 7q-36 12 -59 10q-19 0 -32.5 17.5t-10.5 33.5q14 54 4 94q0 4 1 12.5t1 12.5q1 10 5.5 34t4.5 38q-1 4 0.5 8t3.5 8.5t3 7.5q2 2 2 8q-6 6 -8.5 14.5t-3 14t0 17t0.5 14.5q0 19 4 55q0 19 4 54t5 47 q12 186 12 188q1 24 7 69t7 62q0 2 1 7t1 7q-1 18 -1 24t2 23t3 23q1 22 4.5 64t4.5 63q5 80 30 207q2 8 9 37.5t10 46.5q2 8 10.5 13.5t17.5 4.5q37 -3 72 -12q11 -4 35 -23q6 -3 6 -14q-4 -40 -4 -59q-1 -9 0 -28.5t0 -27.5q-4 -23 -8 -63.5t-6 -56.5q-7 -72 -7 -123 q0 -3 -1 -9.5t-1 -9.5q-1 -4 -5.5 -10.5t-5.5 -10.5t3 -12q3 -4 -1 -13.5t-1 -14.5q0 -6 -2 -8q-10 -14 2 -21q4 -3 4 -20q-6 -39 -10 -121q-1 -3 -2 -9.5t-2 -9.5q-3 -4 -3.5 -9t0.5 -11.5t1 -9.5v-50q0 -17 -12 -45q-9 -22 -9.5 -26t2.5 -19zM147 145v9q0 4 -2 6t-4 0 q-4 0 -4 -2q-2 -5 -13 -20.5t-15 -18.5l-3 -4q0 -1 -1 -3t-1 -3q2 0 5.5 -2t5.5 -1q4 0 14 5q18 6 18 24v10zM37 -68q-8 -4 -10 -8q0 -4 4 -8q3 -2 7 3t3 9zM322 1280q0 -11 -5.5 -18t-11.5 -5q-19 6 -31 21q-15 20 -20 25l-59 59q-2 2 -7.5 5t-7.5 5q-18 12 -20 14 q-32 26 -85 84t-65 70q-14 17 -2 35q9 12 21 24q18 12 39 21q10 6 16.5 5t13.5 -11q10 -13 30 -37.5t30 -36.5q93 -116 141 -207q6 -10 13.5 -29.5t9.5 -23.5z" />
<glyph unicode="&#xcd;" horiz-adv-x="321" d="M190 272q-3 -7 -8.5 -21t-7.5 -20q2 -3 5 -4t7.5 -1t6.5 -1q11 0 8 -10q-2 -4 -6.5 -11t-6.5 -11q6 -5 8 -12t0.5 -18t-1.5 -13q-3 -15 -9 -27q-5 -7 -22 -41q3 -2 8 -6t8 -6q-6 -12 -6 -13q-5 -10 -2 -14q16 -13 8 -33q-12 -40 -6 -80q1 -7 -4 -18t-6 -14q18 -28 12 -60 q-6 -19 2 -39q2 -4 2 -28l-6 -9q-9 2 -23.5 4.5t-26.5 5.5t-22 7q-36 12 -59 10q-19 0 -32.5 17.5t-10.5 33.5q14 54 4 94q0 4 1 12.5t1 12.5q1 10 5.5 34t4.5 38q-1 4 0.5 8t3.5 8.5t3 7.5q2 2 2 8q-6 6 -8.5 14.5t-3 14t0 17t0.5 14.5q0 19 4 55q0 19 4 54t5 47 q12 186 12 188q1 24 7 69t7 62q0 2 1 7t1 7q-1 18 -1 24t2 23t3 23q1 22 4.5 64t4.5 63q5 80 30 207q2 8 9 37.5t10 46.5q2 8 10.5 13.5t17.5 4.5q37 -3 72 -12q11 -4 35 -23q6 -3 6 -14q-4 -40 -4 -59q-1 -9 0 -28.5t0 -27.5q-4 -23 -8 -63.5t-6 -56.5q-7 -72 -7 -123 q0 -3 -1 -9.5t-1 -9.5q-1 -4 -5.5 -10.5t-5.5 -10.5t3 -12q3 -4 -1 -13.5t-1 -14.5q0 -6 -2 -8q-10 -14 2 -21q4 -3 4 -20q-6 -39 -10 -121q-1 -3 -2 -9.5t-2 -9.5q-3 -4 -3.5 -9t0.5 -11.5t1 -9.5v-50q0 -17 -12 -45q-9 -22 -9.5 -26t2.5 -19zM147 145v9q0 4 -2 6t-4 0 q-4 0 -4 -2q-2 -5 -13 -20.5t-15 -18.5l-3 -4q0 -1 -1 -3t-1 -3q2 0 5.5 -2t5.5 -1q4 0 14 5q18 6 18 24v10zM37 -68q-8 -4 -10 -8q0 -4 4 -8q3 -2 7 3t3 9zM0 1280q2 4 9.5 23.5t13.5 29.5q48 91 141 207q10 12 29.5 37t29.5 37q12 17 31 6q21 -9 39 -21q8 -8 20 -24 q12 -18 -2 -35q-13 -13 -65 -70.5t-84 -83.5l-21 -14q-2 -2 -7 -5t-7 -5l-59 -59q-9 -9 -21 -25q-12 -15 -31 -21q-6 -2 -11 4.5t-5 18.5z" />
<glyph unicode="&#xce;" horiz-adv-x="321" d="M190 272q-3 -7 -8.5 -21t-7.5 -20q2 -3 5 -4t7.5 -1t6.5 -1q11 0 8 -10q-2 -4 -6.5 -11t-6.5 -11q6 -5 8 -12t0.5 -18t-1.5 -13q-3 -15 -9 -27q-5 -7 -22 -41q3 -2 8 -6t8 -6q-6 -12 -6 -13q-5 -10 -2 -14q16 -13 8 -33q-12 -40 -6 -80q1 -7 -4 -18t-6 -14q18 -28 12 -60 q-6 -19 2 -39q2 -4 2 -28l-6 -9q-9 2 -23.5 4.5t-26.5 5.5t-22 7q-36 12 -59 10q-19 0 -32.5 17.5t-10.5 33.5q14 54 4 94q0 4 1 12.5t1 12.5q1 10 5.5 34t4.5 38q-1 4 0.5 8t3.5 8.5t3 7.5q2 2 2 8q-6 6 -8.5 14.5t-3 14t0 17t0.5 14.5q0 19 4 55q0 19 4 54t5 47 q12 186 12 188q1 24 7 69t7 62q0 2 1 7t1 7q-1 18 -1 24t2 23t3 23q1 22 4.5 64t4.5 63q5 80 30 207q2 8 9 37.5t10 46.5q2 8 10.5 13.5t17.5 4.5q37 -3 72 -12q11 -4 35 -23q6 -3 6 -14q-4 -40 -4 -59q-1 -9 0 -28.5t0 -27.5q-4 -23 -8 -63.5t-6 -56.5q-7 -72 -7 -123 q0 -3 -1 -9.5t-1 -9.5q-1 -4 -5.5 -10.5t-5.5 -10.5t3 -12q3 -4 -1 -13.5t-1 -14.5q0 -6 -2 -8q-10 -14 2 -21q4 -3 4 -20q-6 -39 -10 -121q-1 -3 -2 -9.5t-2 -9.5q-3 -4 -3.5 -9t0.5 -11.5t1 -9.5v-50q0 -17 -12 -45q-9 -22 -9.5 -26t2.5 -19zM147 145v9q0 4 -2 6t-4 0 q-4 0 -4 -2q-2 -5 -13 -20.5t-15 -18.5l-3 -4q0 -1 -1 -3t-1 -3q2 0 5.5 -2t5.5 -1q4 0 14 5q18 6 18 24v10zM37 -68q-8 -4 -10 -8q0 -4 4 -8q3 -2 7 3t3 9zM461 1380q-22 -7 -43 2q-16 4 -88 29q-10 3 -17 8q-64 48 -110 99q-2 3 -19 20q-1 -1 -6.5 -5.5t-7.5 -8.5 q-42 -67 -96 -121q-43 -43 -94 -72q-15 -11 -31 -6q-15 4 -43 -4q-18 -7 -30.5 4t-6.5 29q10 46 41 67q70 52 158 162q10 14 53 62q15 21 41 14q25 -6 45 8q15 12 31.5 7.5t25.5 -23.5q4 -8 4 -17q-2 -3 -0.5 -12.5t1 -12t3 -11.5t4 -11t4.5 -11t5 -11q27 -61 28 -64 q10 -26 31 -41q2 0 2 -2q37 -39 94 -61q2 -1 5 -3.5t7.5 -6.5t8.5 -7z" />
<glyph unicode="&#xcf;" horiz-adv-x="321" d="M190 272q-3 -7 -8.5 -21t-7.5 -20q2 -3 5 -4t7.5 -1t6.5 -1q11 0 8 -10q-2 -4 -6.5 -11t-6.5 -11q6 -5 8 -12t0.5 -18t-1.5 -13q-3 -15 -9 -27q-5 -7 -22 -41q3 -2 8 -6t8 -6q-6 -12 -6 -13q-5 -10 -2 -14q16 -13 8 -33q-12 -40 -6 -80q1 -7 -4 -18t-6 -14q18 -28 12 -60 q-6 -19 2 -39q2 -4 2 -28l-6 -9q-9 2 -23.5 4.5t-26.5 5.5t-22 7q-36 12 -59 10q-19 0 -32.5 17.5t-10.5 33.5q14 54 4 94q0 4 1 12.5t1 12.5q1 10 5.5 34t4.5 38q-1 4 0.5 8t3.5 8.5t3 7.5q2 2 2 8q-6 6 -8.5 14.5t-3 14t0 17t0.5 14.5q0 19 4 55q0 19 4 54t5 47 q12 186 12 188q1 24 7 69t7 62q0 2 1 7t1 7q-1 18 -1 24t2 23t3 23q1 22 4.5 64t4.5 63q5 80 30 207q2 8 9 37.5t10 46.5q2 8 10.5 13.5t17.5 4.5q37 -3 72 -12q11 -4 35 -23q6 -3 6 -14q-4 -40 -4 -59q-1 -9 0 -28.5t0 -27.5q-4 -23 -8 -63.5t-6 -56.5q-7 -72 -7 -123 q0 -3 -1 -9.5t-1 -9.5q-1 -4 -5.5 -10.5t-5.5 -10.5t3 -12q3 -4 -1 -13.5t-1 -14.5q0 -6 -2 -8q-10 -14 2 -21q4 -3 4 -20q-6 -39 -10 -121q-1 -3 -2 -9.5t-2 -9.5q-3 -4 -3.5 -9t0.5 -11.5t1 -9.5v-50q0 -17 -12 -45q-9 -22 -9.5 -26t2.5 -19zM147 145v9q0 4 -2 6t-4 0 q-4 0 -4 -2q-2 -5 -13 -20.5t-15 -18.5l-3 -4q0 -1 -1 -3t-1 -3q2 0 5.5 -2t5.5 -1q4 0 14 5q18 6 18 24v10zM37 -68q-8 -4 -10 -8q0 -4 4 -8q3 -2 7 3t3 9zM-8 1604q56 0 96 -25q17 -10 19.5 -18t-5.5 -23q-6 -16 -18 -48.5t-18 -49.5q-10 -26 -11 -29q-3 -18 -26 -25 q-28 -9 -63 7.5t-52 46.5v4q-18 89 14 145q10 17 27 17q12 -2 37 -2zM301 1604q56 0 96 -25q17 -10 20 -18t-5 -23q-6 -16 -18.5 -48.5t-18.5 -49.5q-8 -21 -10 -29q-3 -18 -27 -25q-28 -9 -63 7.5t-52 46.5v4q-18 88 15 145q10 17 26 17q12 -2 37 -2z" />
<glyph unicode="&#xd0;" horiz-adv-x="768" d="M657 440h17q-4 -12 -4 -16q-13 -13 -17 -14q-2 0 -7.5 1t-8.5 1q-25 -25 -35 -37q-3 -3 2 -13q2 -4 8 -10v-2q-6 0 -10 -2q-16 -8 -37 -33q-2 -2 1.5 -7t6.5 -5q12 -1 27 7.5t21 19.5q0 4 -3 10q-1 2 -3 5t-3 5v2q6 3 12 14.5t9 14.5h20q0 -3 -1 -9.5t-1 -9.5 q-10 -3 -4 -12q1 -15 -11.5 -37.5t-14.5 -29.5q-8 -5 -27 -19q-7 -5 -6 -11t10 -11l8 -4q5 -10 2 -15q-6 -12 -14 -20q-11 -11 -8 -23q3 -3 -2 -8q-21 -17 -25 -53q-2 -51 -43 -109q-15 -20 -16 -26q0 -7 -2 -9q-13 -13 -28 -41t-26 -40q-12 -12 -14 -13q-6 -4 -14 -16 q-9 -18 -23 -39q-14 -24 -33 -31q-4 -2 -7 -4t-6 -4.5t-5 -3.5q-7 -3 -20 -15.5t-23 -15.5q-7 -2 -23.5 -5t-23.5 -5q-4 -8 -6 -10q-10 -22 -35 -19q-37 11 -45 17q-3 2 -9.5 5t-9.5 5q-4 -1 -11 -3t-11 -3q-12 -4 -19 6q-14 16 -14 51q5 30 8 39q24 14 33 16q36 10 57 45 q12 25 13 27q7 21 39 35q6 1 8 0t4 -4t4 -4q12 4 25 26q15 30 30 43q7 5 11 25q0 21 12 53q1 6 7 17t7 14q2 5 6 14.5t6 14.5q7 22 17 34q10 10 10 27q0 25 23 39q8 4 12 8q6 12 6 14q1 3 0 11.5t0 11.5t7.5 7.5t8.5 6.5q5 5 5 8q4 29 -2 43q0 2 -3 4.5t-6 2.5q-8 0 -10 -2 q-1 -2 -3.5 -6.5t-5 -8t-5.5 -6.5q-8 -4 -15 -4q-4 -1 -8 2t-2 6q19 56 43 162l2 4q15 35 15 43q0 29 2 43q5 55 10 68q2 4 2 24q-3 36 4 78q6 24 6 49q0 107 -2 158q-3 70 -43 131q-2 2 -5 6t-5 6q-14 18 -39 15q-10 -2 -35 -6.5t-42.5 -9t-33.5 -11.5q-12 -6 -37 -10 q-55 -16 -96 -41q-4 -3 -21 -13t-22.5 -14t-19 -13t-20.5 -15t-17 -15t-17 -18q-8 -8 -12 -10q-14 -7 -22 -7q-8 1 -37 11q-14 7 -16.5 12t8.5 20q96 93 213 133q12 3 24 9q39 21 121 37q72 11 121 -7q74 -26 119 -71q11 -11 16 -21q5 -13 35 -43q21 -21 36.5 -52t18.5 -58 q1 -5 -4 -29q-4 -4 -2 -7t4 -4t10 -3q7 0 9 -4q0 -2 1 -5.5t1 -5.5q1 -15 2 -44t2 -44q0 -16 -13 -26q-14 -7 -4 -21q10 -20 -12 -26q-3 -3 0 -6q0 -1 2 -1q15 -3 18 -20q1 -8 5.5 -23.5t5.5 -23.5q8 -35 -15 -76q-5 -2 -8 -5t-5.5 -7.5t-3.5 -7t-3 -8.5t-2 -7 q-5 -8 -14.5 -24.5t-14.5 -24.5q-12 -4 -20 -4q-30 3 -41 -27q0 -6 2 -8q6 -6 10 -2q46 11 51 12q1 0 12 11q2 0 6.5 -1t6.5 -1v-7q1 -1 2 -4t2 -4q8 -4 12 -8q2 2 5 6t5 6zM594 604q-20 -40 -21 -49q0 -2 1 -4.5t1 -3.5q2 -3 7.5 -1t7.5 5q10 27 26 43v10l-12 6 q-4 0 -10 -6zM481 420q7 8 4 18q0 4 -4.5 8.5t-9.5 4.5l-4 -2q0 -11 2 -15q1 -2 5.5 -6.5t6.5 -7.5zM510 336l6 -12q2 -2 5 -4t3 -1q2 1 5 5l3 4q0 16 -14 16q-4 0 -8 -4v-4zM530 217q3 6 5 12q-1 2 -2.5 8.5t-2.5 8.5q-1 0 -4 1t-4 1q-4 0 -4 -4q1 -4 2 -13.5t2 -13.5 q4 -2 6 -2zM139 -82q-24 -14 -57 4q-51 28 -51 72q-1 13 -7.5 49t-5.5 57v103q0 19 -1 54t-1 54t1 58t1 59q0 80 -2 119v10q-8 31 -4 111q1 37 3 110.5t3 110.5v24q0 25 7.5 32.5t37.5 8.5q42 0 56 -8t14 -22q-4 -16 -4 -19q0 -67 4 -100q4 -45 -2 -68q-7 -19 0 -39 q6 -14 6 -43q0 -7 -2 -20t-2 -23.5t4 -19.5q3 -5 -2 -14q-4 -10 0 -29q6 -21 6 -43q2 -25 2 -74q0 -6 4 -18q14 -31 -2 -52q-5 -5 -2 -8q11 -7 11 -26q10 -85 10 -156q0 -24 6 -45q2 -5 2.5 -15.5t1.5 -13.5q2 -8 -1.5 -26t-0.5 -27q4 -9 4 -47q1 -10 4 -28t4 -25 q3 -19 -16 -23q-3 -1 -13.5 -1.5t-15.5 -2.5zM121 530q86 -4 115 -4q46 -3 79 -32q1 -1 4 -3.5t4.5 -4t2.5 -3.5q11 -13 6.5 -27.5t-21.5 -17.5q-17 -6 -39 -2q-57 13 -161 13q-25 0 -158 -5q-16 0 -27 -8q-17 -13 -30 0q-36 28 -39 68q0 19 18 22q10 0 14 2q41 0 119 1 t113 1z" />
<glyph unicode="&#xd1;" horiz-adv-x="929" d="M758 -16q-2 -15 6 -39q15 -51 -16 -99q-10 -13 -21 -16q-6 -2 -18.5 -6t-18.5 -6q2 -6 2 -17q3 -10 -6 -10q-10 3 -29.5 6t-34.5 7.5t-28 11.5q-33 54 -45 92q-2 5 -6 16.5t-6 16.5q-43 90 -70 190q-15 47 -25 72l-4 8t-4 10q-7 38 -37 96q0 5 -4 9q-10 37 -36 103 t-35 97q-19 54 -57 161.5t-56 162.5q-1 15 -4 19.5t-15 13.5q-6 -18 0 -33q-1 -16 -2 -47t-2 -47q-1 -7 -4.5 -34.5t-3.5 -43.5q-2 -29 -10 -92q-4 -18 -8 -29q-6 -9 4 -16v-4q-4 -14 -0.5 -48.5t2.5 -46.5q0 -5 2 -16t2 -16v-35q0 -29 -2 -43q0 -3 -0.5 -7.5t-0.5 -7.5 t1 -6q7 -11 1 -46t-5 -46q0 -3 -2 -6.5t-5.5 -8t-4.5 -7.5q6 -4 9.5 -10t6 -15.5t4.5 -13.5q7 -20 -2 -37q-4 -7 -8 -29l6 -12l6 -12q-15 -33 0 -78q2 -9 3 -32t7 -36q-3 -15 -3.5 -19.5t2.5 -19t3 -18.5q3 -7 0 -10q-2 -5 -2.5 -9.5t-1 -8.5t0.5 -9l1.5 -7.5t3 -8.5 t3.5 -7.5t4.5 -8t3.5 -7.5v-8q0 -5 -6 -8q-3 -2 -5 -2q-90 11 -143 16q-28 3 -35 27q-4 6 -8 18q0 1 -1.5 6.5t-0.5 7.5q3 4 3.5 9.5t0 9t-2 10.5t-1.5 10q-3 21 4 47q11 39 2 78q-3 26 2 45q2 12 2 39q-1 7 -1.5 24.5t-1.5 29.5t-5 24q0 10 2 14q8 8 10 26.5t6 25.5 q2 2 3 4t-0.5 4t-3 3t-5 3.5t-4.5 3.5l-4 4q0 5 1 16.5t1 16.5v24q-4 13 -4.5 27.5t1 34t1.5 27.5v59q-3 13 4 29q16 32 2 59q-6 9 -2 20q4 48 8 78q1 12 2.5 35.5t2.5 34.5q6 42 6 47q1 39 7.5 109t8.5 98q4 90 -2 137q0 6 2 10q1 0 4 2t4 2q48 10 103 -16q20 -8 20 -27 q0 -8 4 -28q3 -22 23 -33q13 -5 20 -23q3 -14 10 -32q6 -17 7 -19q15 -34 34 -92q7 -23 22.5 -67t22.5 -66q7 -19 27 -70q2 -7 7 -20.5t7 -20.5q8 -27 28 -78t28 -77q3 -11 33 -78q20 -50 20 -66q0 -8 4 -12q23 -18 39 -59q-4 -19 0 -29q3 -5 12 0v-2q-4 -4 -4 -6 q-3 -21 10 -37q3 -3 9.5 -3t9.5 3q8 6 20 22q5 6 0 13.5t-14 7.5q-4 0 -11.5 -2t-11.5 -2q-1 0 -3.5 2t-4.5 2v2q0 5 -1 14.5t-1 14.5q4 7 13.5 21.5t13.5 21.5q9 12 -2 26q-9 9 -9 13.5t9 15.5q11 11 4 20q-2 5 -7 14.5t-7 14.5q-4 8 0 19q6 8 2 32q-2 11 -2.5 34t-1.5 30 q-1 9 8 24t10 21q0 6 -8 6h-10q-1 -1 -4.5 -3t-4.5 -3q-12 -4 -12 6v25q0 16 14 24q11 9 2 21q-6 5 -10 28q-3 15 17 23l4 4l-3 4q-4 5 -6 6q-9 9 -6 19q17 142 47 245q12 40 15 82q2 13 8.5 42t7.5 46q0 5 4 9q3 9 13.5 15.5t19.5 4.5q15 -3 82 -18q11 -2 22 -13t13 -22 q4 -60 8 -92q0 -17 -2 -19q-4 -6 -5.5 -14t-1.5 -12t1.5 -14.5t1.5 -12.5q2 -8 2.5 -27.5t3.5 -29.5q2 -7 0.5 -29t-0.5 -31q1 -8 -3.5 -25t-2.5 -28q1 -4 -1 -14t-1 -15q0 -3 0.5 -18t0 -20.5t-3 -16.5t-7.5 -20q-4 -8 0 -15q2 -7 2 -45q-5 -52 -2 -117q0 -20 -13 -36v-19 q0 -10 6 -12q-8 -4 -12 -8q-10 0 -14 -2q-9 -6 -2 -17q-1 -3 -3 -8t-3 -8q-12 -12 -13 -15q-1 -1 -0.5 -2t1.5 -2.5t1 -3.5l4 2q3 2 8.5 6.5t8.5 6.5q10 -3 18 -11q25 -22 19 -53q-3 -22 4 -49q8 -49 -13 -100q-3 -7 -8 -20.5t-8 -20.5q-2 -6 0 -8t10 -1q10 5 15 0 q6 -6 6 -14v-8q-2 -3 -5 -9.5t-5 -9.5q-8 -13 -2 -28q13 -21 10 -51zM80 410q0 -3 3.5 -6.5t6.5 -2.5q1 0 3.5 2.5t2.5 4.5q1 4 -2 7t-8 1q-1 -1 -2.5 -2t-2.5 -2t-1 -2zM55 264q0 -2 1 -5t1 -5q8 4 11 4q4 7 -2 10q-3 2 -7 1t-4 -5zM68 76q-4 -13 4 -13q2 0 7 2t9 3l-10 10 q-7 4 -10 -2zM82 -94q13 -3 16 10l-8 8q-4 3 -11 1t-7 -5q-2 -3 2 -8.5t8 -5.5zM569 782q-9 -5 -4 -10l6 -6q3 -2 6.5 2t2.5 8q0 3 -3.5 5t-7.5 1zM569 379q2 -2 11 -2q16 0 26 14q3 3 1.5 9.5t-5.5 7.5q-4 2 -8 3.5t-9 2.5t-7 2q-10 -5 -11 -6q-8 -14 2 -31zM590 147 q-1 -1 2 -3.5t8 -4.5q4 -1 8 1t2 5q-4 8 -6 9q-9 0 -14 -7zM612 45q2 1 0.5 3.5t-4.5 2.5l-6 -2q0 -4 4 -8q1 1 3 2t3 2zM608 864q6 0 15 13q-1 0 -3.5 1t-3.5 1q-6 3 -11 -1t-3 -10q0 -4 6 -4zM692 635q2 2 2 10q0 1 -2 3.5t-4 2.5q-6 2 -16 2h-17q-4 0 -8 -4q0 -6 2 -10 q20 -20 43 -4zM578 1509q35 0 65 -18q6 -5 25.5 -19t29.5 -24q15 -12 7 -31q-3 -12 -17 -12q-7 -5 -16 8q0 2 -4 10q-1 1 -9 17q-19 27 -45 22q-5 -2 -24.5 -6.5t-28.5 -9.5q-71 -29 -131 -66q-17 -14 -70 -39q-40 -13 -77 -4q-51 17 -60 68q-4 4 2 10q3 3 13 0 q18 -4 24 -24q10 -16 19 -19q17 -4 30 6q45 27 56 41q41 41 88 64q48 26 123 26z" />
<glyph unicode="&#xd2;" horiz-adv-x="878" d="M768 530q6 -26 6 -102q-1 -15 -2 -44t-2 -44q0 -16 -10 -109q-2 -20 -10 -55q0 -18 -15 -33q-6 -6 -6 -10q1 -13 -5 -34.5t-7 -30.5q-7 -34 -23 -58q-21 -35 -32 -71q-8 -34 -54 -80l-35 -35q-42 -39 -100 -55q-20 -5 -24 -5q-50 3 -84 -6q-2 -3 -19.5 -0.5t-21.5 2.5 q-94 0 -185 56q-74 44 -102 84q-7 10 -23.5 26t-21.5 21q7 10 10 10q15 10 10 16q-7 9 -13.5 33.5t-14.5 34.5q-4 2 -4 16q0 11 4 31q3 10 12 4t18 0q6 6 9 14q3 10 0 19q-5 23 10 59q1 3 2.5 10.5t4 13t7.5 9.5q25 16 19 47q13 61 38 109q2 5 11 14q13 15 14 20.5t-10 24.5 q0 7 4 19q4 52 29 77q4 4 8 17q13 51 41 86q3 3 3.5 9t-1.5 9q-7 11 2 33q2 9 -8 16q-10 5 -17 -2q-4 -4 -4 -10q0 -2 1.5 -10.5t0.5 -11.5q-10 -49 -33 -78q-7 -9 -17 -27.5t-13 -23.5q-11 -22 -9 -35q3 -17 -12 -66q-15 -9 -18 -24q-3 -17 -14.5 -61.5t-14.5 -69.5 q-7 -33 -29 -43q-14 -8 -20 -21q-13 -21 -23 -51q-2 -2 -10 -6l-2 4v29t7.5 27t9.5 28q1 1 3 4t3 4q2 3 11.5 8t10.5 12q2 10 2 31q0 42 2 62q0 12 8 28q13 19 17 51q10 100 45 177q8 19 24 32q30 10 33 37q2 4 -4 10q-1 2 -5 2t-5 -2q-21 -17 -33 -32q-6 -2 -17.5 -6.5 t-17.5 -6.5h-18q-3 -5 -9.5 -15t-9.5 -15q-8 -11 -16 -17q-3 -3 -8.5 -1.5t-5.5 5.5q-1 1 -1 3.5t-1 3.5q-1 12 -4.5 14t-18.5 2q0 2 -1 4t-1.5 3.5t0.5 2.5q1 4 4 26t5 30.5t6 24.5t10 28q7 15 10 28q7 36 31 86q9 17 49 99q43 78 115 116q78 41 151 58q28 4 43 4 q65 -8 96 -14q22 -3 45 -13q11 -3 15 -18q0 -6 -4 -10q-10 -5 -13 -5q-74 6 -135 -55q-28 -14 -55 -63q-10 -20 -21 -31q-10 -10 -17.5 -23t-15.5 -31.5t-12 -25.5q-5 -8 -2 -22q0 -18 -8 -50q-12 -38 -18 -77q-1 -8 -9 -44.5t-6 -58.5q0 -5 -2 -12t-5.5 -15.5t-4.5 -13.5 q-2 -6 -10 -17.5t-8 -19.5q9 -6 1 -24.5t-8 -22.5q0 -8 -10 -43q0 -12 2 -16q15 -35 11 -55q-3 -8 -6 -24t-7.5 -28t-11.5 -22q-2 -3 -5 -9.5t-5 -9.5q13 -24 10 -57q0 -19 12 -24q8 -3 8 -17q2 -8 2 -24q-2 -22 7 -72q6 -30 6 -31q-4 -25 16 -65q3 -7 49 -90 q29 -45 107 -64q26 -6 53 8q52 22 76 68q34 63 47 100q59 180 72 230q20 72 20 133q0 38 3 113.5t3 113.5q-3 148 -33 256q-10 36 -53 125q-14 26 -49 43q-2 1 -6.5 2t-7.5 2t-6.5 3.5t-4.5 6.5q23 33 58 23q8 -3 25.5 -8.5t25.5 -8.5q70 -32 100 -116q26 -73 33 -119 q6 -60 21 -115q12 -38 12 -80q-3 -35 4 -80zM43 2q13 10 10 25q-2 6 -8 12q-9 3 -15.5 -2.5t-6.5 -13.5q0 -6 5 -14.5t9 -8.5t6 2zM100 150h6q20 10 35 22q2 2 2 16q0 3 -4.5 6.5t-7.5 2.5q-5 -2 -14.5 -5.5t-14.5 -5.5q-9 -5 -11 -15t5 -19q1 0 2 -1t2 -1zM135 61 q10 0 10 13q-1 4 -2 6t-3 3.5t-5 0.5q-6 0 -10.5 -5t-1.5 -9q2 -4 12 -9zM170 6q4 1 7 5.5t1 6.5q-1 3 -10 7q-5 -2 -8 -6t0 -7q3 -6 10 -6zM-37 274q1 -2 5.5 -6t8 -7t1.5 -6t-13 -5l-6 -10q-21 17 -24 56t4.5 92t7.5 65q0 14 0.5 24t2 24.5t4.5 24.5t9 20t14 14.5t21 4.5 t29 -6q14 -5 18 -13.5t2 -15t-10 -21t-10 -20.5q-6 -13 -11 -36t-8 -33q-2 -7 -8 -20.5t-8 -20.5q-2 -8 -1.5 -18.5t-0.5 -18.5q-1 -11 -15 -32t-12 -36zM600 1280q0 -12 -5 -18.5t-11 -4.5q-19 6 -31 21q-12 16 -21 25l-59 59q-2 2 -7 5t-7 5q-2 1 -6.5 3.5t-8 5t-6.5 5.5 q-32 26 -84 83.5t-65 70.5q-14 17 -2 35q12 16 20 24q18 12 39 21q19 11 31 -6q10 -12 29.5 -37t29.5 -37q96 -119 142 -207q6 -10 13 -29.5t9 -23.5z" />
<glyph unicode="&#xd3;" horiz-adv-x="878" d="M768 530q6 -26 6 -102q-1 -15 -2 -44t-2 -44q0 -16 -10 -109q-2 -20 -10 -55q0 -18 -15 -33q-6 -6 -6 -10q1 -13 -5 -34.5t-7 -30.5q-7 -34 -23 -58q-21 -35 -32 -71q-8 -34 -54 -80l-35 -35q-42 -39 -100 -55q-20 -5 -24 -5q-50 3 -84 -6q-2 -3 -19.5 -0.5t-21.5 2.5 q-94 0 -185 56q-74 44 -102 84q-7 10 -23.5 26t-21.5 21q7 10 10 10q15 10 10 16q-7 9 -13.5 33.5t-14.5 34.5q-4 2 -4 16q0 11 4 31q3 10 12 4t18 0q6 6 9 14q3 10 0 19q-5 23 10 59q1 3 2.5 10.5t4 13t7.5 9.5q25 16 19 47q13 61 38 109q2 5 11 14q13 15 14 20.5t-10 24.5 q0 7 4 19q4 52 29 77q4 4 8 17q13 51 41 86q3 3 3.5 9t-1.5 9q-7 11 2 33q2 9 -8 16q-10 5 -17 -2q-4 -4 -4 -10q0 -2 1.5 -10.5t0.5 -11.5q-10 -49 -33 -78q-7 -9 -17 -27.5t-13 -23.5q-11 -22 -9 -35q3 -17 -12 -66q-15 -9 -18 -24q-3 -17 -14.5 -61.5t-14.5 -69.5 q-7 -33 -29 -43q-14 -8 -20 -21q-13 -21 -23 -51q-2 -2 -10 -6l-2 4v29t7.5 27t9.5 28q1 1 3 4t3 4q2 3 11.5 8t10.5 12q2 10 2 31q0 42 2 62q0 12 8 28q13 19 17 51q10 100 45 177q8 19 24 32q30 10 33 37q2 4 -4 10q-1 2 -5 2t-5 -2q-21 -17 -33 -32q-6 -2 -17.5 -6.5 t-17.5 -6.5h-18q-3 -5 -9.5 -15t-9.5 -15q-8 -11 -16 -17q-3 -3 -8.5 -1.5t-5.5 5.5q-1 1 -1 3.5t-1 3.5q-1 12 -4.5 14t-18.5 2q0 2 -1 4t-1.5 3.5t0.5 2.5q1 4 4 26t5 30.5t6 24.5t10 28q7 15 10 28q7 36 31 86q9 17 49 99q43 78 115 116q78 41 151 58q28 4 43 4 q65 -8 96 -14q22 -3 45 -13q11 -3 15 -18q0 -6 -4 -10q-10 -5 -13 -5q-74 6 -135 -55q-28 -14 -55 -63q-10 -20 -21 -31q-10 -10 -17.5 -23t-15.5 -31.5t-12 -25.5q-5 -8 -2 -22q0 -18 -8 -50q-12 -38 -18 -77q-1 -8 -9 -44.5t-6 -58.5q0 -5 -2 -12t-5.5 -15.5t-4.5 -13.5 q-2 -6 -10 -17.5t-8 -19.5q9 -6 1 -24.5t-8 -22.5q0 -8 -10 -43q0 -12 2 -16q15 -35 11 -55q-3 -8 -6 -24t-7.5 -28t-11.5 -22q-2 -3 -5 -9.5t-5 -9.5q13 -24 10 -57q0 -19 12 -24q8 -3 8 -17q2 -8 2 -24q-2 -22 7 -72q6 -30 6 -31q-4 -25 16 -65q3 -7 49 -90 q29 -45 107 -64q26 -6 53 8q52 22 76 68q34 63 47 100q59 180 72 230q20 72 20 133q0 38 3 113.5t3 113.5q-3 148 -33 256q-10 36 -53 125q-14 26 -49 43q-2 1 -6.5 2t-7.5 2t-6.5 3.5t-4.5 6.5q23 33 58 23q8 -3 25.5 -8.5t25.5 -8.5q70 -32 100 -116q26 -73 33 -119 q6 -60 21 -115q12 -38 12 -80q-3 -35 4 -80zM43 2q13 10 10 25q-2 6 -8 12q-9 3 -15.5 -2.5t-6.5 -13.5q0 -6 5 -14.5t9 -8.5t6 2zM100 150h6q20 10 35 22q2 2 2 16q0 3 -4.5 6.5t-7.5 2.5q-5 -2 -14.5 -5.5t-14.5 -5.5q-9 -5 -11 -15t5 -19q1 0 2 -1t2 -1zM135 61 q10 0 10 13q-1 4 -2 6t-3 3.5t-5 0.5q-6 0 -10.5 -5t-1.5 -9q2 -4 12 -9zM170 6q4 1 7 5.5t1 6.5q-1 3 -10 7q-5 -2 -8 -6t0 -7q3 -6 10 -6zM-37 274q1 -2 5.5 -6t8 -7t1.5 -6t-13 -5l-6 -10q-21 17 -24 56t4.5 92t7.5 65q0 14 0.5 24t2 24.5t4.5 24.5t9 20t14 14.5t21 4.5 t29 -6q14 -5 18 -13.5t2 -15t-10 -21t-10 -20.5q-6 -13 -11 -36t-8 -33q-2 -7 -8 -20.5t-8 -20.5q-2 -8 -1.5 -18.5t-0.5 -18.5q-1 -11 -15 -32t-12 -36zM279 1280q2 4 9 23.5t13 29.5q48 91 141 207q10 12 30 36.5t30 37.5q7 10 13.5 11t16.5 -5q21 -9 39 -21 q12 -12 21 -24q12 -18 -2 -35q-12 -12 -65 -70t-85 -84q-2 -2 -20 -14q-2 -2 -7 -5t-7 -5q-10 -10 -30.5 -30t-29.5 -29q-5 -5 -20 -25q-12 -15 -31 -21q-6 -2 -11 4.5t-5 18.5z" />
<glyph unicode="&#xd4;" horiz-adv-x="878" d="M768 530q6 -26 6 -102q-1 -15 -2 -44t-2 -44q0 -16 -10 -109q-2 -20 -10 -55q0 -18 -15 -33q-6 -6 -6 -10q1 -13 -5 -34.5t-7 -30.5q-7 -34 -23 -58q-21 -35 -32 -71q-8 -34 -54 -80l-35 -35q-42 -39 -100 -55q-20 -5 -24 -5q-50 3 -84 -6q-2 -3 -19.5 -0.5t-21.5 2.5 q-94 0 -185 56q-74 44 -102 84q-7 10 -23.5 26t-21.5 21q7 10 10 10q15 10 10 16q-7 9 -13.5 33.5t-14.5 34.5q-4 2 -4 16q0 11 4 31q3 10 12 4t18 0q6 6 9 14q3 10 0 19q-5 23 10 59q1 3 2.5 10.5t4 13t7.5 9.5q25 16 19 47q13 61 38 109q2 5 11 14q13 15 14 20.5t-10 24.5 q0 7 4 19q4 52 29 77q4 4 8 17q13 51 41 86q3 3 3.5 9t-1.5 9q-7 11 2 33q2 9 -8 16q-10 5 -17 -2q-4 -4 -4 -10q0 -2 1.5 -10.5t0.5 -11.5q-10 -49 -33 -78q-7 -9 -17 -27.5t-13 -23.5q-11 -22 -9 -35q3 -17 -12 -66q-15 -9 -18 -24q-3 -17 -14.5 -61.5t-14.5 -69.5 q-7 -33 -29 -43q-14 -8 -20 -21q-13 -21 -23 -51q-2 -2 -10 -6l-2 4v29t7.5 27t9.5 28q1 1 3 4t3 4q2 3 11.5 8t10.5 12q2 10 2 31q0 42 2 62q0 12 8 28q13 19 17 51q10 100 45 177q8 19 24 32q30 10 33 37q2 4 -4 10q-1 2 -5 2t-5 -2q-21 -17 -33 -32q-6 -2 -17.5 -6.5 t-17.5 -6.5h-18q-3 -5 -9.5 -15t-9.5 -15q-8 -11 -16 -17q-3 -3 -8.5 -1.5t-5.5 5.5q-1 1 -1 3.5t-1 3.5q-1 12 -4.5 14t-18.5 2q0 2 -1 4t-1.5 3.5t0.5 2.5q1 4 4 26t5 30.5t6 24.5t10 28q7 15 10 28q7 36 31 86q9 17 49 99q43 78 115 116q78 41 151 58q28 4 43 4 q65 -8 96 -14q22 -3 45 -13q11 -3 15 -18q0 -6 -4 -10q-10 -5 -13 -5q-74 6 -135 -55q-28 -14 -55 -63q-10 -20 -21 -31q-10 -10 -17.5 -23t-15.5 -31.5t-12 -25.5q-5 -8 -2 -22q0 -18 -8 -50q-12 -38 -18 -77q-1 -8 -9 -44.5t-6 -58.5q0 -5 -2 -12t-5.5 -15.5t-4.5 -13.5 q-2 -6 -10 -17.5t-8 -19.5q9 -6 1 -24.5t-8 -22.5q0 -8 -10 -43q0 -12 2 -16q15 -35 11 -55q-3 -8 -6 -24t-7.5 -28t-11.5 -22q-2 -3 -5 -9.5t-5 -9.5q13 -24 10 -57q0 -19 12 -24q8 -3 8 -17q2 -8 2 -24q-2 -22 7 -72q6 -30 6 -31q-4 -25 16 -65q3 -7 49 -90 q29 -45 107 -64q26 -6 53 8q52 22 76 68q34 63 47 100q59 180 72 230q20 72 20 133q0 38 3 113.5t3 113.5q-3 148 -33 256q-10 36 -53 125q-14 26 -49 43q-2 1 -6.5 2t-7.5 2t-6.5 3.5t-4.5 6.5q23 33 58 23q8 -3 25.5 -8.5t25.5 -8.5q70 -32 100 -116q26 -73 33 -119 q6 -60 21 -115q12 -38 12 -80q-3 -35 4 -80zM43 2q13 10 10 25q-2 6 -8 12q-9 3 -15.5 -2.5t-6.5 -13.5q0 -6 5 -14.5t9 -8.5t6 2zM100 150h6q20 10 35 22q2 2 2 16q0 3 -4.5 6.5t-7.5 2.5q-5 -2 -14.5 -5.5t-14.5 -5.5q-9 -5 -11 -15t5 -19q1 0 2 -1t2 -1zM135 61 q10 0 10 13q-1 4 -2 6t-3 3.5t-5 0.5q-6 0 -10.5 -5t-1.5 -9q2 -4 12 -9zM170 6q4 1 7 5.5t1 6.5q-1 3 -10 7q-5 -2 -8 -6t0 -7q3 -6 10 -6zM-37 274q1 -2 5.5 -6t8 -7t1.5 -6t-13 -5l-6 -10q-21 17 -24 56t4.5 92t7.5 65q0 14 0.5 24t2 24.5t4.5 24.5t9 20t14 14.5t21 4.5 t29 -6q14 -5 18 -13.5t2 -15t-10 -21t-10 -20.5q-6 -13 -11 -36t-8 -33q-2 -7 -8 -20.5t-8 -20.5q-2 -8 -1.5 -18.5t-0.5 -18.5q-1 -11 -15 -32t-12 -36zM739 1380q-22 -7 -43 2q-15 4 -88 29q-8 3 -16 8q-67 50 -111 99q-4 6 -18 20q-1 -1 -6.5 -5.5t-7.5 -8.5 q-41 -64 -97 -121q-43 -43 -94 -72q-15 -11 -31 -6q-14 4 -43 -4q-18 -7 -30.5 4t-6.5 29q10 46 41 67q70 52 158 162q10 14 53 62q15 21 41 14q25 -6 45 8q15 12 32 7.5t26 -23.5q4 -8 4 -17q-4 -24 16 -69q20 -46 29 -64q10 -26 31 -41q2 0 2 -2q37 -39 94 -61 q2 -1 4.5 -3.5t7 -6.5t8.5 -7z" />
</font>
</defs>
</svg>
