<?xml version="1.0" standalone="no"?>
<!DOCTYPE svg PUBLIC "-//W3C//DTD SVG 1.1//EN" "http://www.w3.org/Graphics/SVG/1.1/DTD/svg11.dtd" >
<svg>
<metadata>
Created by FontForge 20090622 at Thu Aug 27 09:51:35 2015
 By deploy user
Copyright (c) 2015 by Olexstudio. All rights reserved.
</metadata>
<defs>
<font id="Kingfont" horiz-adv-x="529" >
  <font-face 
    font-family="Kingfont"
    font-weight="400"
    font-stretch="normal"
    units-per-em="1500"
    panose-1="0 0 0 0 0 0 0 0 0 0"
    ascent="1125"
    descent="-375"
    x-height="467"
    cap-height="919"
    bbox="-1223 -439.276 2135.76 1411"
    underline-thickness="50"
    underline-position="-50"
    unicode-range="U+000D-U+FB02"
  />
<missing-glyph horiz-adv-x="225" 
 />
    <glyph glyph-name="l_l" unicode="ll" horiz-adv-x="607" 
d="M225 616q14 5 42.5 27.5t57.5 78.5q8 14 13 41t3.5 53.5t-10.5 47t-30 22.5q-9 0 -15.5 -2.5t-13.5 -11t-14 -24.5t-16 -43q-6 -18 -11.5 -38.5t-10 -39.5l-8 -34t-4.5 -24l-103 -564q-6 -36 10 -46.5t43 -3.5t58 28t54 50l1 1l2 2q3 4 9 13l14 21.5t16 28t15 32.5l1 2
q0 2 2 2q2 3 6.5 5.5t12.5 0.5q11 -3 11.5 -9.5t-0.5 -9.5q0 -2 -1 -2q-3 -8 -14 -30t-28 -49t-40 -53.5t-50 -42.5q-36 -23 -75.5 -34.5t-75.5 -9.5q-59 2 -80.5 43t-5.5 129l113 635q3 14 10 28q6 12 15.5 26t25.5 27q21 18 56.5 27t72.5 6t68.5 -19t42.5 -47
q10 -26 7.5 -59.5t-17 -68.5t-41 -68t-63.5 -58q-15 -8 -31 -14t-33 -11zM40 609q-30 16 -62.5 30.5t-63 25t-56.5 16.5t-44 5q-17 -2 -28.5 -4.5t-18.5 -5.5q-8 -4 -13 -7q-1 26 9 47q8 18 27 33.5t56 17.5q28 1 53.5 -13.5t49.5 -35l48.5 -42.5t50.5 -35zM550 616
q14 5 42.5 27.5t57.5 78.5q8 14 13 41t3.5 53.5t-10.5 47t-30 22.5q-9 0 -15.5 -2.5t-13.5 -11t-14 -24.5t-16 -43q-6 -18 -11.5 -38.5t-10 -39.5l-8 -34t-4.5 -24l-19.5 -106l-21 -115l-20.5 -113.5l-18.5 -101.5l-15 -80t-8.5 -48q-6 -36 6 -46.5t33 -3t44.5 28.5t40.5 48
l1 1l2 2q5 8 18 35.5t24 60.5l1 2q0 2 2 2q2 3 5.5 5.5t9.5 0.5q8 -3 8.5 -9.5t0.5 -9.5q0 -2 -1 -2q-2 -8 -10.5 -30t-22.5 -49t-32 -54t-39 -44q-29 -23 -60 -34t-60 -9q-23 1 -42 12t-31.5 32t-16.5 53t4 76l113 635q3 14 10 28q6 12 15.5 26t25.5 27q21 18 56.5 27
t72.5 6t68.5 -19t42.5 -47q10 -26 7.5 -59.5t-17 -68.5t-41 -68t-63.5 -58q-15 -8 -31 -14t-33 -11z" />
    <glyph glyph-name="t_t" unicode="tt" horiz-adv-x="774" 
d="M623 564q16 -13 18 -24q1 -5 -1.5 -10t-10.5 -9.5t-21.5 -8.5t-35.5 -7q-11 -1 -39 -0.5t-65 2.5l-79.5 4.5t-83 4.5t-74 3.5t-52.5 1.5l-74 -415q-6 -36 6.5 -46.5t33.5 -3.5t44.5 28t40.5 49h1q0 1 0.5 1.5t0.5 1.5q5 8 18.5 35t23.5 61v-1l1 2q2 2 2 3q2 3 5.5 5
t9.5 0q8 -2 9 -9t0 -10v-2q-2 -7 -11 -29.5t-22.5 -49.5t-32 -54t-39.5 -43q-29 -23 -60 -34.5t-60 -9.5q-23 1 -42 12t-31.5 32t-16.5 53.5t4 76.5l63 352q-11 2 -21 3.5t-20 3.5l-64 9l-52 7q-12 2 -20 7t-13 10q-6 6 -9 14l208 -5l41 233q3 14 10 28q6 12 16 26.5
t25 27.5t30 19.5t26 8.5q13 3 25 2h8q4 1 15.5 1.5t28.5 1.5q7 0 22 -2.5t31.5 -9t31.5 -20t23 -35.5q9 -26 6.5 -59.5t-17 -68t-41 -67.5t-63.5 -58q-13 -7 -25.5 -12.5t-26.5 -10.5q20 0 50 -2t75.5 -4t111.5 -4.5t158 -5.5zM217 580l8 36q15 6 43 28.5t57 78.5
q8 14 13 40.5t3.5 53.5t-10.5 47t-30 22q-8 1 -15 -1.5t-13.5 -11.5t-13.5 -25t-16 -42l-12 -39t-10.5 -39l-8 -34t-4.5 -24q-5 -23 -12.5 -43.5t-12.5 -46.5h34zM809 620q14 -21 15 -40q1 -17 -13 -35.5t-55 -31.5q-44 -15 -92.5 -15t-98.5 7l-24 -129l-21.5 -119l-17 -95
l-10.5 -56q-6 -36 6.5 -46.5t33.5 -3.5t44.5 28t40.5 49h1q0 1 0.5 1.5t0.5 1.5q5 8 18.5 35t23.5 61v-1l1 2q2 2 2 3q2 3 5.5 5t9.5 0q8 -2 9 -9t0 -10v-2q-2 -7 -11 -29.5t-22.5 -49.5t-32 -54t-39.5 -43q-29 -23 -60 -34.5t-60 -9.5q-23 1 -42 12t-31.5 32t-16.5 53.5
t4 76.5l63 352q-11 2 -21 3.5t-20 3.5l-64 9l-52 7q-12 2 -20 7t-13 10q-6 6 -9 14l208 -5l41 233q3 14 10 28q6 12 16 26.5t25 27.5t30 19.5t26 8.5q13 3 25 2h8q4 1 15.5 1.5t28.5 1.5q7 0 22 -2.5t31.5 -9t31.5 -20t23 -35.5q9 -26 6.5 -59.5t-17 -68t-41 -67.5
t-63.5 -58q-15 -8 -30.5 -14.5t-32.5 -11.5l8 39q15 6 43 28.5t57 78.5q8 14 13 40.5t3.5 53.5t-10.5 47t-30 22q-8 1 -15 -1.5t-13.5 -11.5t-13.5 -25t-16 -42l-12 -39t-10.5 -39l-8 -34t-4.5 -24l-18 -99q10 0 31 -1t46 0t49.5 3.5t41.5 8.5q20 7 31.5 14l19.5 12
q8 6 13 12z" />
    <glyph glyph-name="r_r" unicode="rr" horiz-adv-x="930" 
d="M480 238q8 -2 9 -9t-1 -9v-3q-2 -7 -11.5 -29t-23.5 -48.5t-33 -53.5t-41 -43q-55 -42 -111 -44h-9q-24 2 -44 13t-31 34v1q-7 13 -11 30q-3 14 -4 35t5 49l1 1q1 7 2 11t1 5l15 72l21 101l4.5 9t14 20t24 20.5t34.5 11.5q4 0 5 1q-23 2 -55 10t-57 26q-22 13 -40 26
l-32 24q-3 -7 -10 -25t-17 -56q-5 -22 -13.5 -51l-17.5 -58.5t-18 -55.5l-15 -42q-8 -18 -24 -9q-5 2 -5 6.5t1 9.5t4 11l87 285q-23 15 -23 42q0 20 14.5 35t35.5 15q20 0 34.5 -15t14.5 -35q0 -17 -9 -29q18 -7 43.5 -14.5t57.5 -13.5q31 -6 62 -10.5t57 -7.5q30 -4 57 -7
q-3 -14 -13 -25q-8 -10 -23 -19.5t-38 -14.5l-17 -83l-48 -229q-6 -35 6.5 -45t33.5 -3t45 27.5t41 47.5l1 2q0 1 1 1q3 4 8 13t11.5 22t13.5 28.5t12 32.5l1 1q0 1 2 3q2 3 5.5 5t9.5 0zM946 238q8 -2 9 -9t-1 -9v-3q-2 -7 -11.5 -29t-23.5 -48.5t-33 -53.5t-41 -43
q-55 -42 -111 -44h-9q-24 2 -44 13t-31 34v1q-7 13 -11 30q-3 14 -4 35t5 49l1 1q1 7 2 11t1 5l15 72l21 101l4.5 9t14 20t24 20.5t34.5 11.5q4 0 5 1q-23 2 -55 10t-57 26q-22 13 -40 26l-32 24q-3 -7 -10 -25t-17 -56q-5 -22 -13.5 -51l-17.5 -58.5t-18 -55.5l-15 -42
q-8 -18 -24 -9q-5 2 -5 6.5t1 9.5t4 11l87 285q-23 15 -23 42q0 20 14.5 35t35.5 15q20 0 34.5 -15t14.5 -35q0 -17 -9 -29q18 -7 43.5 -14.5t57.5 -13.5q31 -6 62 -10.5t57 -7.5q30 -4 57 -7q-3 -14 -13 -25q-8 -10 -23 -19.5t-38 -14.5l-17 -83l-48 -229q-6 -35 6.5 -45
t33.5 -3t45 27.5t41 47.5l1 2q0 1 1 1q3 4 8 13t11.5 22t13.5 28.5t12 32.5l1 1q0 1 2 3q2 3 5.5 5t9.5 0z" />
    <glyph glyph-name="t_h" unicode="th" horiz-adv-x="916" 
d="M-310 649q43 14 91 18t97.5 1.5t98.5 -10t96 -16.5l30 166q3 14 10 28q6 12 16 26.5t25 27.5t30 19.5t26 8.5q13 3 25 2h8q4 1 15.5 1.5t28.5 1.5q7 0 22 -2.5t31.5 -9t31.5 -20t23 -35.5q9 -26 6.5 -58.5t-16.5 -66.5t-38.5 -66.5t-60.5 -57.5l64 -9t49 -6q24 -3 42 -5
l-9 -35l-244 5l-16.5 -95.5t-19 -104.5l-22 -117l-25.5 -134q-6 -36 6.5 -46.5t33.5 -3.5t44.5 28t40.5 49h1q0 1 0.5 1.5t0.5 1.5q5 8 18.5 35t23.5 61v-1l1 2q2 2 2 3q2 3 5.5 5t9.5 0q8 -2 9 -9t0 -10v-2q-2 -7 -11 -29.5t-22.5 -49.5t-32 -54t-39.5 -43
q-29 -23 -60 -34.5t-60 -9.5q-23 1 -42 12t-31.5 32t-16.5 53.5t4 76.5l69 386l-98 3q-50 3 -97 3q-40 0 -83 -3t-71 -13q-28 -11 -45.5 -20.5t-27.5 -17.5q-11 -9 -17 -17q-22 29 -24 57q-1 12 2.5 25t14 25.5t29 24.5t48.5 22zM199 619h5l21 -3q15 6 43 28.5t57 78.5
q8 14 13 40.5t3.5 53.5t-10.5 47t-30 22q-8 1 -15 -1.5t-13.5 -11.5t-13.5 -25t-16 -42l-12 -39t-10.5 -39l-8 -34t-4.5 -24zM937 241q8 -2 8.5 -9t-0.5 -10q0 -1 -0.5 -1t-0.5 -1q-2 -8 -11 -30t-23.5 -49t-33.5 -54t-41 -43q-55 -42 -111 -44h-9q-26 2 -47 15.5t-32 41.5
q-5 12 -9.5 38.5t4.5 67.5v3q0 2 0.5 3.5t0.5 3.5l1 1v1q0 2 1 3l46 227l9 19.5t15 20.5h-41q-16 0 -33 -4q-14 -4 -31.5 -13.5t-33.5 -29.5l-11 -13q-2 -3 -5.5 -10t-8.5 -18l-5 -22q-2 -13 -4.5 -25.5l-5.5 -26.5l-37 -179q-4 -19 -4 -36q-1 -14 2 -29t13 -23l11 -9
q-11 -3 -22 -5t-22 -2h-9q-44 2 -69 37l-6 12q-6 13 -10 30q-3 14 -4 35t5 49v1q3 13 3 16l23 112h-2l24 113v4l81 399q3 14 10 28q6 12 15.5 26t25.5 27q21 18 56 27t71 6.5t66.5 -18.5t42.5 -48q9 -26 6.5 -59.5t-16.5 -68t-40.5 -67.5t-63.5 -58q-15 -8 -31.5 -14.5
t-33.5 -11.5l9 39q16 6 43.5 28.5t56.5 78.5q9 14 14 40.5t3.5 53.5t-11 47t-30.5 22q-8 0 -15 -2.5t-13.5 -11t-13.5 -24.5t-16 -42q-8 -24 -15 -50.5t-12 -48.5l-47 -229h2q-2 -8 -3.5 -15.5t-3.5 -15.5q5 4 10 7t12 6q20 8 41.5 12t38.5 6q20 2 40 0h122q-2 -6 -2 -12
l-27 -131l-47 -231q-7 -35 5.5 -45t33.5 -2.5t45 28.5t41 48h1q1 1 1 2q5 8 20 35.5t26 60.5v2l2 2q2 3 5.5 5.5t10.5 0.5z" />
    <glyph glyph-name="e_e" unicode="ee" horiz-adv-x="846" 
d="M442 241q8 -2 8.5 -9t0.5 -9t-1 -2v-1q-2 -7 -10.5 -29.5t-22.5 -49.5t-32 -54t-39 -43q-29 -23 -59.5 -34.5t-59.5 -9.5l1 1q-5 -1 -10.5 -1h-12.5l-15 2q-23 3 -43 7t-39.5 12.5t-38 23.5t-38.5 40q-19 24 -25.5 53t-6.5 54.5t3 43.5t4 21q12 43 31.5 82t49 68.5
t68.5 47.5t89 20q6 0 16.5 -1t24 -4.5t28 -10.5t27.5 -19q24 -23 31 -58t-4.5 -70.5t-41.5 -66t-80 -44.5q-31 -10 -59.5 -5.5t-40.5 29t9 52.5q0 -15 7 -22q6 -7 18.5 -7.5t37.5 13.5q44 32 63 61t24 52q6 26 0 49q-21 13 -45 5.5t-46.5 -30.5t-37.5 -53t-16 -41
q-20 -7 -31 -20.5t-14.5 -29t0.5 -31.5t15 -27q-3 -25 -1 -50.5t10.5 -47t23 -38t37.5 -23.5q38 -11 76 3q45 18 76.5 56t51.5 82q12 24 21 54l1 2l2 2q2 3 5.5 5t9.5 0zM865 241q8 -2 8.5 -9t0.5 -9t-1 -2v-1q-2 -7 -10.5 -29.5t-22.5 -49.5t-32 -54t-39 -43
q-29 -23 -59.5 -34.5t-59.5 -9.5l1 1q-5 -1 -10.5 -1h-12.5l-15 2q-23 3 -43 7t-39.5 12.5t-38 23.5t-38.5 40q-19 24 -25.5 53t-6.5 54.5t3 43.5t4 21q12 43 31.5 82t49 68.5t68.5 47.5t89 20q6 0 16.5 -1t24 -4.5t28 -10.5t27.5 -19q24 -23 31 -58t-4.5 -70.5t-41.5 -66
t-80 -44.5q-31 -10 -59.5 -5.5t-40.5 29t9 52.5q0 -15 7 -22q6 -7 18.5 -7.5t37.5 13.5q44 32 63 61t24 52q6 26 0 49q-21 13 -45 5.5t-46.5 -30.5t-37.5 -53t-16 -41q-20 -7 -31 -20.5t-14.5 -29t0.5 -31.5t15 -27q-3 -25 -1 -50.5t10.5 -47t23 -38t37.5 -23.5q38 -11 76 3
q45 18 76.5 56t51.5 82q12 24 21 54l1 2l2 2q2 3 5.5 5t9.5 0z" />
    <glyph glyph-name="s_s" unicode="ss" horiz-adv-x="747" 
d="M726 375q0 -2 0.5 -2.5t0.5 -2.5q0 -3 -1 -6.5t-2 -6.5q-5 -11 -14 -17.5t-21 -6.5q-16 0 -26.5 10.5t-10.5 26.5q0 28 25 36q-15 17 -31 24t-31.5 4.5t-30 -13t-27.5 -27.5q-8 -13 -10 -28q-2 -13 1.5 -30t19.5 -37t33 -39t31 -39.5t22 -43.5t5 -51q-2 -11 -8 -31
t-22.5 -39.5t-47 -35.5t-81.5 -19h-9.5t-15.5 2h-2q-1 0 -1.5 0.5t-2.5 0.5q-11 2 -18.5 4.5t-14.5 7.5q-10 4 -19 12q-8 7 -14.5 18.5t-8.5 29.5q-2 16 2.5 25.5t10.5 14.5q7 6 17 8q-5 -18 -2 -34q2 -14 11.5 -26.5t32.5 -16.5q22 -4 36 3.5t20.5 19.5t8 25t0.5 20
q-1 14 -10 30t-34 36q-29 23 -47 53.5t-23 62.5q-3 -10 -15.5 -38.5t-34 -65t-51.5 -76t-67 -70.5q-8 -6 -17.5 4t-16.5 23t-7.5 22.5t11.5 2.5q16 -10 34.5 1.5t38 35t38 55t34 62t27 55.5t16.5 37q10 25 25 49t36.5 43t49.5 30.5t66 11.5q7 0 24.5 -2t38 -10t41 -25
t33.5 -48q5 -8 5 -19zM352 375q0 -2 0.5 -2.5t0.5 -2.5q0 -7 -3 -13q-4 -11 -13.5 -17.5t-20.5 -6.5q-16 0 -27 10.5t-11 26.5q0 13 7.5 22.5t18.5 13.5q-31 35 -63 29t-57 -41q-7 -13 -10 -28q-2 -13 1 -30t19 -37t33.5 -39t31.5 -39.5t22 -43.5t5 -51q-2 -11 -8 -31
t-22.5 -39.5t-47 -35.5t-81.5 -19h-10.5t-14.5 2h-2q-1 0 -2 0.5t-2 0.5h-1q-10 2 -18 4.5t-15 7.5q-10 4 -18 12q-8 7 -14.5 18.5t-8.5 29.5q-2 16 2.5 25.5t10.5 14.5q7 6 16 8q-4 -18 -1 -34q2 -14 11.5 -26.5t32.5 -16.5q22 -4 36 3.5t20.5 19.5t8 25t-0.5 20
q0 14 -9 30t-35 36q-29 23 -47 53.5t-23 62.5l-10.5 -42.5t-9.5 -33.5q-3 -9 -9 -14t-12 -5t-9 6t2 19q6 16 12.5 41t16.5 53t25 56.5t37 51t52.5 36.5t72.5 14q7 0 24.5 -2t38 -10t41 -25t33.5 -48q4 -10 4 -19z" />
    <glyph glyph-name="o_o" unicode="oo" horiz-adv-x="1152" 
d="M596 232q8 -3 8 -9.5v-10.5l-1 -1l-7 -20t-13 -33q-21 -50 -64 -88t-99.5 -60t-121 -25.5t-127.5 16.5q-10 4 -23 12q0 1 -1 1q-11 8 -21 19t-17 27q-5 13 -7 21.5t-2 13.5v5q0 11 6.5 21t17.5 14q8 2 13 2q16 0 27 -10.5t11 -26.5q0 -14 -7.5 -23.5t-19.5 -12.5
q7 -10 13 -15q22 -18 48.5 -10.5t51.5 33t45.5 66.5t31.5 91q2 8 3 16l2 16q1 2 1 8q0 7 1 16q0 8 0.5 18t-1.5 22q-2 17 -7.5 36t-16.5 35q-3 4 -6 7.5t-7 7.5q-23 17 -49 9.5t-51 -33t-45.5 -66.5t-31.5 -90l-6 -33v-8q-1 -5 -1 -10t-0.5 -11.5t0.5 -14.5q-4 -1 -11 -3
t-14 -7t-12.5 -14t-6.5 -22q-1 -26 10 -53t37 -48q-26 7 -49.5 22.5t-48.5 47.5q-19 24 -25.5 53t-7 54.5t3 44t3.5 21.5q11 40 29 76.5t44.5 65t61 48t78.5 25.5q6 1 11.5 1h11.5q1 1 3 1h4.5t4.5 -1q5 1 8.5 1h8.5l15 -2q23 -4 43 -8t39.5 -12t38 -23t38.5 -40
q19 -24 25.5 -53t6.5 -54.5t-3 -44t-4 -21.5q-13 -47 -35.5 -88t-55.5 -71l-10 -8.5t-5 -3.5t-4.5 -2t-9.5 -4q11 -1 35 3t53.5 17.5t60.5 38t57 63.5q8 12 14.5 30t12.5 37l1 2q0 1 0.5 1.5t0.5 1.5q6 8 15 6zM1172 232q8 -3 8 -9.5v-10.5l-1 -1l-7 -20t-13 -33
q-21 -50 -64 -88t-99.5 -60t-121 -25.5t-127.5 16.5q-10 4 -23 12q0 1 -1 1q-11 8 -21 19t-17 27q-5 13 -7 21.5t-2 13.5v5q0 11 6.5 21t17.5 14q8 2 13 2q16 0 27 -10.5t11 -26.5q0 -14 -7.5 -23.5t-19.5 -12.5q7 -10 13 -15q22 -18 48.5 -10.5t51.5 33t45.5 66.5t31.5 91
q2 8 3 16l2 16q1 2 1 8q0 7 1 16q0 8 0.5 18t-1.5 22q-2 17 -7.5 36t-16.5 35q-3 4 -6 7.5t-7 7.5q-23 17 -49 9.5t-51 -33t-45.5 -66.5t-31.5 -90l-6 -33v-8q-1 -5 -1 -10t-0.5 -11.5t0.5 -14.5q-4 -1 -11 -3t-14 -7t-12.5 -14t-6.5 -22q-1 -26 10 -53t37 -48
q-26 7 -49.5 22.5t-48.5 47.5q-19 24 -25.5 53t-7 54.5t3 44t3.5 21.5q11 40 29 76.5t44.5 65t61 48t78.5 25.5q6 1 11.5 1h11.5q1 1 3 1h4.5t4.5 -1q5 1 8.5 1h8.5l15 -2q23 -4 43 -8t39.5 -12t38 -23t38.5 -40q19 -24 25.5 -53t6.5 -54.5t-3 -44t-4 -21.5
q-13 -47 -35.5 -88t-55.5 -71l-10 -8.5t-5 -3.5t-4.5 -2t-9.5 -4q11 -1 35 3t53.5 17.5t60.5 38t57 63.5q8 12 14.5 30t12.5 37l1 2q0 1 0.5 1.5t0.5 1.5q6 8 15 6z" />
    <glyph glyph-name="b_y" unicode="by" horiz-adv-x="1044" 
d="M556 248q8 -2 8.5 -9t0.5 -10v-1h-1q-2 -8 -11 -30t-23.5 -49t-33.5 -54t-41 -43q-14 -11 -28.5 -20t-29.5 -14h-1q-3 -2 -6 -2.5t-5 -1.5q-32 -9 -67 -12t-64.5 -2.5t-49 2.5t-20.5 2q-51 3 -78 35q-11 12 -14.5 27t-0.5 26q3 13 9.5 20t13.5 12q4 2 7.5 3t5.5 2
q6 3 14 3q14 0 24 -10.5t10 -25.5q0 -18 -12 -28q3 -2 7 -2l-1 1q18 -5 36 6.5t34 35.5t29.5 59t21.5 77q11 55 5 99.5t-24.5 68.5t-47.5 24t-65 -34l-25.5 -140.5t-19.5 -106.5q-21 -12 -35.5 -33.5t-10.5 -49.5q2 -25 14 -40.5t24 -23.5q-8 -2 -14.5 -2h-14.5
q-23 1 -42 12t-31.5 32t-16.5 53.5t4 76.5l113 633q3 14 10 28q6 12 16 26.5t25 28.5q15 13 30 19.5t26 8.5q13 3 25 2h5q1 0 13.5 1.5t32.5 1.5q8 0 23 -2.5t31 -9.5t31 -20t23 -35q9 -26 6.5 -59.5t-17 -68.5t-40.5 -67.5t-63 -57.5q-16 -8 -32 -14.5t-33 -11.5l9 39
q7 3 18.5 9.5t25 19t28 31.5t28.5 47q8 14 13 40.5t4 53.5t-10.5 47t-29.5 22q-9 1 -16 -1.5t-13.5 -11.5t-14 -25t-16.5 -42q-8 -26 -15 -53.5t-12 -50.5l-48 -263q18 13 35 20t32 10.5t26.5 4t16.5 0.5q62 -2 96.5 -29.5t48 -70.5t8 -97.5t-23.5 -111.5
q-16 -48 -42.5 -81.5t-58.5 -54.5l20 2t21 3q44 8 74.5 27.5t49.5 40.5q22 25 36 54q8 14 17 33.5t16 41.5v1l1 2l2 2q2 3 5.5 5t9.5 0zM879 -56h1l-54 -267q-4 -14 -11 -28q-6 -12 -16 -26.5t-25 -27.5q-16 -14 -31 -20t-26 -8q-13 -3 -25 -1q-6 -1 -13 -2q-6 -1 -14 -1.5
t-18 -0.5q-8 0 -23 2.5t-31 9t-31 19.5t-23 36q-10 26 -7.5 59.5t17 68t40.5 67.5t64 58q15 8 31 14.5t33 11.5l-9 -39q-15 -6 -43 -28.5t-57 -78.5q-8 -14 -15.5 -40t-8.5 -52.5t8 -48t34 -25.5q16 -4 31.5 13t33.5 70l10.5 36t9.5 37l71 345q-11 -16 -22.5 -29.5
t-25.5 -23.5q-26 -21 -55 -32t-56 -12h-9q-26 2 -47 15.5t-32 41.5q-5 12 -9.5 38.5t4.5 67.5v3l2 7v2q1 1 1 3l46 227l9 19.5t16 20.5q5 5 10 9t13 8q17 9 34 12.5t28 3.5h33l-3 -12l-27 -131l-47 -231q-6 -35 6 -45t33 -2.5t45.5 28.5t41.5 48h1q0 2 1 2q3 5 11 19.5
t16 34.5l17.5 84.5l14.5 68.5l13 63q5 13 14.5 28.5t33.5 28.5q14 7 27 10t24 5q12 2 25 1h18l-29 -143l-6 -29.5l-9 -45l-11 -54.5l-12 -58l-30 -148z" />
    <glyph glyph-name="i_n" unicode="in" horiz-adv-x="800" 
d="M296 249q8 -3 8.5 -9.5t-0.5 -10.5v-1q-2 -8 -11.5 -30t-23.5 -49t-33 -54t-41 -43q-26 -21 -55.5 -32.5t-55.5 -12.5h-9q-26 2 -47.5 16t-32.5 42v-1q-5 12 -9 38.5t4 67.5q0 1 0.5 1.5t0.5 2.5q1 2 1 7v1q1 2 1 3l47 227q3 9 8 19.5t16 21.5q8 8 24 16q17 9 33.5 12.5
t27.5 4.5h33l-2 -12q-8 -34 -14.5 -66.5l-12.5 -64.5l-47 -231q-7 -35 5.5 -45t33.5 -3t45.5 28t41.5 48v1q0 1 1 1l19.5 36t25.5 60v1l1 2q1 0 1 3q2 2 6 4.5t10 0.5zM183 495q-10 1 -28.5 6t-36 17t-30 32.5t-10.5 53.5l1 9h129l-12 -58.5t-13 -59.5zM821 241q8 -2 8.5 -9
t-0.5 -10q-1 -1 -1 -2q-2 -8 -11.5 -30t-23.5 -49t-33 -54t-41 -43q-55 -42 -111 -44h-9q-26 2 -47 15.5t-32 41.5q-5 12 -9.5 38.5t4.5 67.5v3q0 2 0.5 3.5t0.5 3.5v1l1 1v3l40 192q6 23 18 37t25.5 22.5t25.5 11.5t18 4h-97q-16 0 -33 -4q-14 -4 -31.5 -13.5t-33.5 -29.5
l-11 -13q-2 -3 -5.5 -10t-8.5 -18l-5 -22q-2 -13 -4.5 -25.5l-5.5 -26.5l-37 -179q-3 -19 -4 -36q-1 -14 1.5 -29t12.5 -23l12 -9q-11 -3 -22 -5t-22 -2h-9q-44 2 -69 37l-6 12q-6 13 -10 30q-3 14 -4 35t5 49v1q3 13 3 16l46 225q5 12 14.5 28t33.5 29q14 7 27 10t24 5
q12 2 25 1h19q-2 -8 -3.5 -15.5t-3.5 -15.5q5 4 10 7t11 6q20 8 41.5 12t39.5 6q20 2 40 0h122q-2 -6 -2 -12l-27 -131l-48 -231q-6 -35 6.5 -45t33.5 -2.5t45 28.5t41 48h1q1 1 1 2q5 8 20 35.5t26 60.5v2q0 2 2 2q2 3 5.5 5.5t10.5 0.5z" />
    <glyph glyph-name="i_s" unicode="is" horiz-adv-x="653" 
d="M296 249q8 -3 8.5 -9.5t-0.5 -10.5v-1q-2 -8 -11.5 -30t-23.5 -49t-33 -54t-41 -43q-26 -21 -55.5 -32.5t-55.5 -12.5h-9q-26 2 -47.5 16t-32.5 42v-1q-5 12 -9 38.5t4 67.5q0 1 0.5 1.5t0.5 2.5q1 2 1 7v1q1 2 1 3l47 227q3 9 8 19.5t16 21.5q8 8 24 16q17 9 33.5 12.5
t27.5 4.5h33l-2 -12q-8 -34 -14.5 -66.5l-12.5 -64.5l-47 -231q-7 -35 5.5 -45t33.5 -3t45.5 28t41.5 48v1q0 1 1 1l19.5 36t25.5 60v1l1 2q1 0 1 3q2 2 6 4.5t10 0.5zM183 495q-10 1 -28.5 6t-36 17t-30 32.5t-10.5 53.5l1 9h129l-12 -58.5t-13 -59.5zM630 375
q0 -2 0.5 -2.5t0.5 -2.5q0 -7 -3 -13q-4 -11 -13.5 -17.5t-20.5 -6.5q-16 0 -27 10.5t-11 26.5q0 13 7.5 22.5t18.5 13.5q-31 35 -63 29t-57 -41q-7 -13 -10 -28q-2 -13 1 -30t19 -37t33.5 -39t31.5 -39.5t22 -43.5t5 -51q-2 -11 -8 -31t-22.5 -39.5t-47 -35.5t-81.5 -19
h-10.5t-14.5 2h-2q-1 0 -2 0.5t-2 0.5h-1q-10 2 -18 4.5t-15 7.5q-10 4 -18 12q-8 7 -14.5 18.5t-8.5 29.5q-2 16 2.5 25.5t10.5 14.5q7 6 16 8q-4 -18 -1 -34q2 -14 11.5 -26.5t32.5 -16.5q22 -4 36 3.5t20.5 19.5t8 25t-0.5 20q0 14 -9 30t-35 36q-29 23 -47 53.5
t-23 62.5l-10.5 -42.5t-9.5 -33.5q-3 -9 -9 -14t-12 -5t-9 6t2 19q6 16 12.5 41t16.5 53t25 56.5t37 51t52.5 36.5t72.5 14q7 0 24.5 -2t38 -10t41 -25t33.5 -48q4 -10 4 -19z" />
    <glyph glyph-name="i_t" unicode="it" horiz-adv-x="658" 
d="M694 620q15 -21 15 -40q0 -17 -14 -35.5t-55 -31.5q-43 -15 -92 -15t-99 7l-23.5 -129l-21.5 -119l-17.5 -95l-10.5 -56q-6 -36 7 -46.5t33.5 -3.5t44.5 28t41 49q0 1 0.5 1.5t0.5 1.5q5 8 18.5 35t24.5 61v-1l1 2q0 1 0.5 1.5t0.5 1.5q2 3 6 5t10 0q8 -2 9 -9t-1 -10v-2
q-2 -7 -10.5 -29.5t-22.5 -49.5t-32.5 -54t-39.5 -43q-29 -23 -60 -34.5t-59 -9.5q-40 2 -66.5 32.5t-24.5 94.5q-14 -22 -29.5 -42t-32.5 -33q-26 -21 -55.5 -32.5t-55.5 -12.5h-9q-26 2 -47.5 16t-32.5 42v-1q-5 12 -9 38.5t4 67.5q0 1 0.5 1.5t0.5 2.5q1 2 1 7v1q1 2 1 3
l47 227q3 9 8 19.5t16 21.5q8 8 24 16q17 9 33.5 12.5t27.5 4.5h33l-2 -12q-8 -34 -14.5 -66.5l-12.5 -64.5l-47 -231q-7 -35 5.5 -45t33.5 -3t45.5 28t41.5 48v1q0 1 1 1l14.5 28t21.5 46l56 310q-28 -1 -60 -1t-62 1t-56 3t-43 4q-12 2 -20.5 9.5t-14.5 15.5q-7 10 -11 22
l276 -5l41 233q3 14 10 28q5 12 15 26.5t25 27.5t30 19.5t26 8.5q13 3 26 2h7q5 1 16.5 1.5t28.5 1.5q7 0 22 -2.5t31.5 -9t31.5 -20t23 -35.5q9 -26 6 -59.5t-17 -68t-40.5 -67.5t-63.5 -58q-15 -8 -31 -14.5t-33 -11.5l8 39q16 6 43.5 28.5t56.5 78.5q9 14 14 40.5
t3.5 53.5t-10.5 47t-30 22q-9 1 -15.5 -1.5t-13.5 -11.5t-14 -25t-16 -42l-12 -39t-10.5 -39t-7.5 -34t-5 -24q-8 -47 -18 -99q10 0 31.5 -1t46 0t49 3.5t41.5 8.5q20 7 32 14l20 12q9 6 13 12zM203 601q-10 1 -28.5 6.5t-36 17.5t-30 32.5t-10.5 52.5l2 10h128z" />
    <glyph glyph-name="n_o" unicode="no" horiz-adv-x="1105" 
d="M550 241q8 -2 8.5 -9t-0.5 -10q-1 -1 -1 -2q-2 -8 -11.5 -30t-23.5 -49t-33 -54t-41 -43q-55 -42 -111 -44h-9q-26 2 -47 15.5t-32 41.5q-5 12 -9.5 38.5t4.5 67.5v3q0 2 0.5 3.5t0.5 3.5v1l1 1v3l40 192q6 23 18 37t25.5 22.5t25.5 11.5t18 4h-97q-16 0 -33 -4
q-14 -4 -31.5 -13.5t-33.5 -29.5l-11 -13q-2 -3 -5.5 -10t-8.5 -18l-5 -22q-2 -13 -4.5 -25.5l-5.5 -26.5l-37 -179q-3 -19 -4 -36q-1 -14 1.5 -29t12.5 -23l12 -9q-11 -3 -22 -5t-22 -2h-9q-44 2 -69 37l-6 12q-6 13 -10 30q-3 14 -4 35t5 49v1q3 13 3 16l46 225
q5 12 14.5 28t33.5 29q14 7 27 10t24 5q12 2 25 1h19q-2 -8 -3.5 -15.5t-3.5 -15.5q5 4 10 7t11 6q20 8 41.5 12t39.5 6q20 2 40 0h122q-2 -6 -2 -12l-27 -131l-48 -231q-6 -35 6.5 -45t33.5 -2.5t45 28.5t41 48h1q1 1 1 2q5 8 20 35.5t26 60.5v2q0 2 2 2q2 3 5.5 5.5
t10.5 0.5zM1125 232q8 -3 8 -9.5v-10.5l-1 -1l-7 -20t-13 -33q-21 -50 -64 -88t-99.5 -60t-121 -25.5t-127.5 16.5q-10 4 -23 12q0 1 -1 1q-11 8 -21 19t-17 27q-5 13 -7 21.5t-2 13.5v5q0 11 6.5 21t17.5 14q8 2 13 2q16 0 27 -10.5t11 -26.5q0 -14 -7.5 -23.5t-19.5 -12.5
q7 -10 13 -15q22 -18 48.5 -10.5t51.5 33t45.5 66.5t31.5 91q2 8 3 16l2 16q1 2 1 8q0 7 1 16q0 8 0.5 18t-1.5 22q-2 17 -7.5 36t-16.5 35q-3 4 -6 7.5t-7 7.5q-23 17 -49 9.5t-51 -33t-45.5 -66.5t-31.5 -90l-6 -33v-8q-1 -5 -1 -10t-0.5 -11.5t0.5 -14.5q-4 -1 -11 -3
t-14 -7t-12.5 -14t-6.5 -22q-1 -26 10 -53t37 -48q-26 7 -49.5 22.5t-48.5 47.5q-19 24 -25.5 53t-7 54.5t3 44t3.5 21.5q11 40 29 76.5t44.5 65t61 48t78.5 25.5q6 1 11.5 1h11.5q1 1 3 1h4.5t4.5 -1q5 1 8.5 1h8.5l15 -2q23 -4 43 -8t39.5 -12t38 -23t38.5 -40
q19 -24 25.5 -53t6.5 -54.5t-3 -44t-4 -21.5q-13 -47 -35.5 -88t-55.5 -71l-10 -8.5t-5 -3.5t-4.5 -2t-9.5 -4q11 -1 35 3t53.5 17.5t60.5 38t57 63.5q8 12 14.5 30t12.5 37l1 2q0 1 0.5 1.5t0.5 1.5q6 8 15 6z" />
    <glyph glyph-name="o_f" unicode="of" horiz-adv-x="978" 
d="M596 232q8 -3 8 -9.5v-10.5l-1 -1l-7 -20t-13 -33q-21 -50 -64 -88t-99.5 -60t-121 -25.5t-127.5 16.5q-10 4 -23 12q0 1 -1 1q-11 8 -21 19t-17 27q-5 13 -7 21.5t-2 13.5v5q0 11 6.5 21t17.5 14q8 2 13 2q16 0 27 -10.5t11 -26.5q0 -14 -7.5 -23.5t-19.5 -12.5
q7 -10 13 -15q22 -18 48.5 -10.5t51.5 33t45.5 66.5t31.5 91q2 8 3 16l2 16q1 2 1 8q0 7 1 16q0 8 0.5 18t-1.5 22q-2 17 -7.5 36t-16.5 35q-3 4 -6 7.5t-7 7.5q-23 17 -49 9.5t-51 -33t-45.5 -66.5t-31.5 -90l-6 -33v-8q-1 -5 -1 -10t-0.5 -11.5t0.5 -14.5q-4 -1 -11 -3
t-14 -7t-12.5 -14t-6.5 -22q-1 -26 10 -53t37 -48q-26 7 -49.5 22.5t-48.5 47.5q-19 24 -25.5 53t-7 54.5t3 44t3.5 21.5q11 40 29 76.5t44.5 65t61 48t78.5 25.5q6 1 11.5 1h11.5q1 1 3 1h4.5t4.5 -1q5 1 8.5 1h8.5l15 -2q23 -4 43 -8t39.5 -12t38 -23t38.5 -40
q19 -24 25.5 -53t6.5 -54.5t-3 -44t-4 -21.5q-13 -47 -35.5 -88t-55.5 -71l-10 -8.5t-5 -3.5t-4.5 -2t-9.5 -4q11 -1 35 3t53.5 17.5t60.5 38t57 63.5q8 12 14.5 30t12.5 37l1 2q0 1 0.5 1.5t0.5 1.5q6 8 15 6zM990 438q6 -24 4 -46q-2 -19 -11.5 -40t-35.5 -35
q-21 -12 -44.5 -11t-50.5 7.5t-59 16t-70 14.5l-22 -125t-22 -123v-2q0 -1 -0.5 -1.5t-0.5 -1.5l-71 -399q-4 -14 -10 -28q-5 -12 -15 -26t-25 -27q-16 -14 -30.5 -20.5t-25.5 -8.5q-13 -3 -25 -1h-19q5 22 8.5 43t7.5 42l95 522h1l32 177l-48 8l6 24l47 -1l33 185
q3 14 10 28q5 12 15 26t25 28q21 18 56 27t71 6t66.5 -19t42.5 -47q10 -25 9 -56.5t-13 -64t-34 -64.5t-54 -57h26t30 1t29 3t24 7q15 7 24.5 14.5t14.5 12.5q6 6 9 12zM733 392l30 -1q16 7 42.5 29t53.5 76q8 14 11.5 31t5 34t0.5 32t-2 26q0 9 -3 18q-3 13 -11.5 22.5
t-24.5 14.5q-29 7 -60 -94q-8 -25 -14 -51l-11 -48z" />
    <glyph glyph-name="u_s" unicode="us" horiz-adv-x="927" 
d="M565 241q8 -2 8.5 -9t-0.5 -10q0 -1 -0.5 -1t-0.5 -1q-2 -8 -11 -30t-23.5 -49t-33.5 -54t-41 -43q-55 -42 -111 -44h-9q-26 2 -47 15.5t-32 41.5q-4 8 -7.5 24.5t-3.5 40.5q-13 -23 -29 -43.5t-34 -34.5q-26 -21 -55 -32t-56 -12h-9q-26 2 -47 15.5t-32 41.5
q-5 12 -9.5 38.5t4.5 67.5v3l2 7v2q1 1 1 3l46 227l9 19.5t16 20.5q5 5 10 9t13 8q17 9 34 12.5t28 3.5h33l-3 -12l-27 -131l-47 -231q-6 -35 6 -45t33 -2.5t45.5 28.5t41.5 48h1q0 2 1 2q5 8 18 32t24 56l37 182l9 19.5t16 20.5q5 5 10 9t12 8q18 9 34.5 12.5t27.5 3.5h33
q-2 -6 -2 -12l-27 -131l-47 -231q-6 -35 6 -45t33 -2.5t45 28.5t41 48h1l2 2q5 8 19.5 35.5t25.5 60.5v2l2 2q2 3 5.5 5.5t10.5 0.5zM905 375q0 -2 0.5 -2.5t0.5 -2.5q0 -7 -3 -13q-4 -11 -13.5 -17.5t-20.5 -6.5q-16 0 -27 10.5t-11 26.5q0 13 7.5 22.5t18.5 13.5
q-31 35 -63 29t-57 -41q-7 -13 -10 -28q-2 -13 1 -30t19 -37t33.5 -39t31.5 -39.5t22 -43.5t5 -51q-2 -11 -8 -31t-22.5 -39.5t-47 -35.5t-81.5 -19h-10.5t-14.5 2h-2q-1 0 -2 0.5t-2 0.5h-1q-10 2 -18 4.5t-15 7.5q-10 4 -18 12q-8 7 -14.5 18.5t-8.5 29.5q-2 16 2.5 25.5
t10.5 14.5q7 6 16 8q-4 -18 -1 -34q2 -14 11.5 -26.5t32.5 -16.5q22 -4 36 3.5t20.5 19.5t8 25t-0.5 20q0 14 -9 30t-35 36q-29 23 -47 53.5t-23 62.5l-10.5 -42.5t-9.5 -33.5q-3 -9 -9 -14t-12 -5t-9 6t2 19q6 16 12.5 41t16.5 53t25 56.5t37 51t52.5 36.5t72.5 14
q7 0 24.5 -2t38 -10t41 -25t33.5 -48q4 -10 4 -19z" />
    <glyph glyph-name="t_o" unicode="to" horiz-adv-x="857" 
d="M662 598q47 -15 63.5 -40.5t18.5 -51.5q2 -30 -12 -62q-6 8 -17 17q-10 8 -27.5 17.5t-44.5 20.5q-29 10 -72 13t-83 3q-48 0 -97 -3l-213 -5v-2l-73 -399q-6 -36 6.5 -46.5t33.5 -3.5t44.5 28t40.5 49h1q0 1 0.5 1.5t0.5 1.5q5 8 18.5 35t23.5 61v-1l1 2q2 2 2 3
q2 3 5.5 5t9.5 0q8 -2 9 -9t0 -10v-2q-2 -7 -11 -29.5t-22.5 -49.5t-32 -54t-39.5 -43q-29 -23 -60 -34.5t-60 -9.5q-23 1 -42 12t-31.5 32t-16.5 53.5t4 76.5l59 330l-153 -3l15 35q19 1 42 3q20 2 46.5 4t57.5 5l5 27l41 233q3 14 10 28q6 12 16 26.5t25 27.5t30 19.5
t26 8.5q13 3 25 2h8q4 1 15.5 1.5t28.5 1.5q7 0 22 -2.5t31.5 -9t31.5 -20t23 -35.5q9 -26 6.5 -59.5t-17 -68t-41 -67.5t-63.5 -58q-15 -8 -30.5 -14.5t-32.5 -11.5l8 39q15 6 43 28.5t57 78.5q8 14 13 40.5t3.5 53.5t-10.5 47t-30 22q-8 1 -15 -1.5t-13.5 -11.5t-13.5 -25
t-16 -42q-22 -64 -34 -126t-22 -119q9 1 17.5 1.5t17.5 2.5q41 4 100 15t121 19.5t120 10t99 -11.5zM871 232q8 -3 8 -9.5v-10.5l-1 -1l-7 -20t-13 -33q-21 -50 -64 -88t-99.5 -60t-121 -25.5t-127.5 16.5q-10 4 -23 12q0 1 -1 1q-11 8 -21 19t-17 27q-5 13 -7 21.5t-2 13.5
v5q0 11 6.5 21t17.5 14q8 2 13 2q16 0 27 -10.5t11 -26.5q0 -14 -7.5 -23.5t-19.5 -12.5q7 -10 13 -15q22 -18 48.5 -10.5t51.5 33t45.5 66.5t31.5 91q2 8 3 16l2 16q1 2 1 8q0 7 1 16q0 8 0.5 18t-1.5 22q-2 17 -7.5 36t-16.5 35q-3 4 -6 7.5t-7 7.5q-23 17 -49 9.5
t-51 -33t-45.5 -66.5t-31.5 -90l-6 -33v-8q-1 -5 -1 -10t-0.5 -11.5t0.5 -14.5q-4 -1 -11 -3t-14 -7t-12.5 -14t-6.5 -22q-1 -26 10 -53t37 -48q-26 7 -49.5 22.5t-48.5 47.5q-19 24 -25.5 53t-7 54.5t3 44t3.5 21.5q11 40 29 76.5t44.5 65t61 48t78.5 25.5q6 1 11.5 1h11.5
q1 1 3 1h4.5t4.5 -1q5 1 8.5 1h8.5l15 -2q23 -4 43 -8t39.5 -12t38 -23t38.5 -40q19 -24 25.5 -53t6.5 -54.5t-3 -44t-4 -21.5q-13 -47 -35.5 -88t-55.5 -71l-10 -8.5t-5 -3.5t-4.5 -2t-9.5 -4q11 -1 35 3t53.5 17.5t60.5 38t57 63.5q8 12 14.5 30t12.5 37l1 2q0 1 0.5 1.5
t0.5 1.5q6 8 15 6z" />
    <glyph glyph-name="y_p" unicode="yp" horiz-adv-x="1042" 
d="M534 413q5 13 14.5 28.5t33.5 28.5q14 8 27 10.5l24 4.5q12 1 25 1h18l-9 -44q19 14 37.5 22t34.5 12t28 5t18 1q61 -3 96 -30t48 -70.5t7.5 -97.5t-23.5 -111q-15 -48 -41.5 -82t-58.5 -54q17 0 40 5q45 7 75 27t50 41q22 25 36 53q8 14 16.5 34t16.5 42l1 2
q0 1 0.5 1.5t0.5 1.5q2 2 6 4.5t10 0.5q8 -3 8.5 -9.5t-0.5 -10.5v-1q-2 -8 -11.5 -30t-24 -49t-33.5 -54t-40 -43q-28 -22 -59 -33l-12 -5v1q-32 -9 -67 -12t-64 -2.5t-49 2t-21 1.5q-24 2 -44.5 11.5t-32.5 24.5q-11 12 -15 27t0 26q3 12 9 19.5t13 11.5q9 4 15 6q4 1 6 1
q-3 -4 -5 -9t-2 -12t4 -16q6 -17 20 -21.5t19 -5.5h-2q18 -4 36.5 7.5t34.5 35.5t29 58.5t22 76.5q11 57 4.5 102.5t-26 69t-50.5 20.5t-69 -42l-9 -46l-2 -6l-39 -192q-12 -7 -24.5 -20.5t-15.5 -33.5q-2 -23 3 -39t12 -27q-1 -10 -3 -17q-1 -4 -1 -6l-11 -56v1l-53 -268
q-3 -14 -10 -28q-6 -12 -16 -26.5t-26 -27.5q-16 -14 -30.5 -20t-25.5 -8q-13 -3 -25 -2q-1 -1 -3 -1h-9zM335 -56h1l-54 -267q-4 -14 -11 -28q-6 -12 -16 -26.5t-25 -27.5q-16 -14 -31 -20t-26 -8q-13 -3 -25 -1q-6 -1 -13 -2q-6 -1 -14 -1.5t-18 -0.5q-8 0 -23 2.5t-31 9
t-31 19.5t-23 36q-10 26 -7.5 59.5t17 68t40.5 67.5t64 58q15 8 31 14.5t33 11.5l-9 -39q-15 -6 -43 -28.5t-57 -78.5q-8 -14 -15.5 -40t-8.5 -52.5t8 -48t34 -25.5q16 -4 31.5 13t33.5 70l10.5 36t9.5 37l71 345q-11 -16 -22.5 -29.5t-25.5 -23.5q-26 -21 -55 -32t-56 -12
h-9q-26 2 -47 15.5t-32 41.5q-5 12 -9.5 38.5t4.5 67.5v3l2 7v2q1 1 1 3l46 227l9 19.5t16 20.5q5 5 10 9t13 8q17 9 34 12.5t28 3.5h33l-3 -12l-27 -131l-47 -231q-6 -35 6 -45t33 -2.5t45.5 28.5t41.5 48h1q0 2 1 2q3 5 11 19.5t16 34.5l17.5 84.5l14.5 68.5l13 63
q5 13 14.5 28.5t33.5 28.5q14 7 27 10t24 5q12 2 25 1h18l-29 -143l-6 -29.5l-9 -45l-11 -54.5l-12 -58l-30 -148z" />
    <glyph glyph-name="y_j" unicode="yj" horiz-adv-x="790" 
d="M282 -323q-16 -2 -37 3.5t-40 16.5t-30.5 25.5t-7.5 29.5q3 12 10 45.5l17 81l21 104.5l23 114q-11 -16 -22.5 -29.5t-25.5 -23.5q-26 -21 -55 -32t-56 -12h-9q-26 2 -47 15.5t-32 41.5q-5 12 -9.5 38.5t4.5 67.5v3l2 7v2q1 1 1 3l46 227l9 19.5t16 20.5q5 5 10 9t13 8
q17 9 34 12.5t28 3.5h33l-3 -12l-27 -131l-47 -231q-6 -35 6 -45t33 -2.5t45.5 28.5t41.5 48h1q0 2 1 2q3 5 11 19.5t16 34.5l17.5 84.5l14.5 68.5l13 63q5 13 14.5 28.5t33.5 28.5q14 7 27 10t24 5q12 2 25 1h18l-29 -143l-6 -29.5l-9 -45l-11 -54.5l-12 -58l-30 -148
l-11 -56h1zM635 461q14 8 27.5 10.5l24.5 4.5q13 1 25 1h18q-7 -37 -13 -72.5t-13 -70.5q-2 -10 -5.5 -29.5l-8 -45l-9.5 -54.5l-10 -58l-27 -148l-10 -56q0 1 1 1q-19 -108 -48 -195t-105.5 -141.5t-212.5 -45.5q-33 2 -65 12.5t-59 29t-47 45t-29 61.5q-7 27 -7.5 54.5
t8.5 53t28 47t51 36.5q1 -1 -0.5 -8.5t-4 -16.5t-5 -16.5l-2.5 -7.5q-27 -25 -33 -60.5t7 -71.5t44 -56t69.5 -26.5t81.5 2t81 37.5t62.5 74t47.5 137l7 40.5l12 67l15.5 84l16.5 90.5l42 234q5 13 13.5 28.5t31.5 28.5zM754 604q-6 -29 -11.5 -58.5t-10.5 -59.5
q-10 1 -28.5 6.5t-36.5 17.5t-31.5 32.5t-12.5 52.5l3 9h128z" />
    <glyph glyph-name="g_p" unicode="gp" horiz-adv-x="1086" 
d="M344 -432q23 15 44.5 47t35.5 71q6 18 11 37l10 37q2 12 9 46.5l16.5 82.5l21.5 105.5l24 115.5l62 303q5 13 14.5 28.5t33.5 28.5q14 8 27 10.5l24 4.5q12 1 25 1h19l-9 -44q18 14 36.5 22t34.5 12t28 5t18 1q62 -3 96.5 -30t48 -70.5t8 -97.5t-23.5 -111
q-16 -48 -42.5 -82t-58.5 -54q10 0 20 1.5t21 3.5q44 7 74.5 27t49.5 41q22 25 36 53q8 14 16.5 34t16.5 42l1 2q1 1 1 3q2 2 6 4.5t10 0.5q8 -3 8.5 -9.5t-0.5 -10.5v-1q-2 -8 -11.5 -30t-23.5 -49t-33 -54t-40 -43q-31 -23 -60 -33l-12 -5v1q-32 -9 -66.5 -12t-64 -2.5
t-49.5 2t-21 1.5q-24 2 -44 11.5t-33 24.5q-11 12 -14.5 27t-0.5 26q4 12 10 19.5t13 11.5q4 2 8 3.5t7 2.5q4 1 6 1q-3 -4 -5 -9t-2 -12t4 -16q3 -8 8 -13t11 -8t11 -4.5t8 -1.5h-2q18 -4 36.5 7.5t34.5 35.5t29 58.5t22 76.5q11 57 4.5 102.5t-26 69t-50.5 20.5t-68 -42
l-10 -46l-2 -6l-39 -192q-12 -7 -24.5 -20.5t-14.5 -33.5q-2 -23 3 -39t12 -27q-2 -6 -2.5 -10t-1.5 -7q-1 -4 -1 -6l-11 -56l1 1l-54 -268q-4 -13 -11 -27q-6 -12 -16 -26.5t-24 -28.5q-21 -20 -44 -29t-45.5 -11.5t-42 0t-32.5 5.5zM632 -77q29 -5 61.5 -1t64 6.5
t60.5 -0.5t51 -20q29 -23 35.5 -46t2.5 -43q-4 -23 -19 -44q-2 6 -6 13q-8 13 -33 35q-14 12 -38.5 22t-54.5 18.5t-63.5 15t-67.5 11.5zM482 482q-8 -37 -14.5 -72.5t-14.5 -70.5l-6 -29.5l-9 -45l-11 -54.5l-12 -58l-30 -148l-11 -57v1l-53 -267q-4 -14 -11 -28
q-6 -12 -16 -26.5t-25 -27.5q-16 -14 -31 -20.5t-26 -8.5q-13 -3 -25 -1q-6 -1 -13 -2q-6 -1 -14.5 -1h-18.5q-8 0 -22.5 2t-31 9t-31.5 20t-23 35q-9 26 -6.5 59.5t17 68.5t40.5 68t64 58q15 8 31 14t33 11l-9 -39q-8 -3 -19 -9t-24 -18.5t-27.5 -32t-29.5 -47.5
q-8 -14 -15.5 -40t-8.5 -52.5t8 -48t34 -25.5q16 -3 31 13.5t33 69.5q6 17 11 36l10 37q11 49 24 115l28 138q14 10 28 24.5t21 37.5q9 27 1 46.5t-22 31.5l17 80.5l14.5 71l11.5 56.5l8 38q-22 37 -51.5 39t-58.5 -22t-54 -68.5t-37 -101.5q-9 -42 -9.5 -76.5t5.5 -58.5
t19.5 -35.5t33.5 -7.5q-1 -1 -2 -1q5 0 20.5 5.5t29.5 22.5q8 9 10 16t3 12q0 5 -1 9q2 0 6 -1q7 -2 12 -6t9 -11.5t2 -20.5q-2 -11 -12 -25.5t-25 -27.5q-22 -17 -51.5 -27t-58.5 -8q-29 0 -55 10.5t-45 31.5t-28.5 53t-6.5 74q5 56 22 110.5t48 97.5t76.5 70.5t108.5 30.5
q6 0 18.5 -1t27.5 -5.5t30.5 -13.5t28.5 -25q11 19 36 33q14 7 27 10t24 5q12 2 25 1h18z" />
    <glyph glyph-name="g_j" unicode="gj" horiz-adv-x="820" 
d="M321 -319q-17 -7 -36.5 -7.5t-38 2.5t-33.5 9t-23 13q5 14 9 28.5t7 28.5l52 253q14 10 28 24.5t21 37.5q9 27 1 46.5t-22 31.5l51 246q-22 37 -51.5 39t-58.5 -22t-54 -68.5t-37 -101.5q-9 -42 -9.5 -76.5t5.5 -58.5t19.5 -35.5t33.5 -7.5q-1 -1 -3 -1q4 0 20.5 5
t30.5 23q8 9 10 16t3 12q0 5 -1 9q2 0 6 -1q7 -2 12 -6t9 -11.5t2 -20.5q-2 -11 -12 -25.5t-25 -27.5q-22 -17 -51.5 -27t-58.5 -8q-29 0 -55 10.5t-45 31.5t-28.5 53t-6.5 74q5 56 22 110.5t48 97.5t76.5 70.5t108.5 30.5q6 0 18.5 -1t27.5 -5.5t30.5 -13.5t28.5 -25
q11 19 36 33q14 7 27 10t24 5q12 2 25 1h18q-8 -37 -14.5 -72.5t-14.5 -70.5l-6 -29.5l-9 -45l-11 -54.5l-12 -58l-30 -148l-11 -57v1zM660 461q14 8 27.5 10.5l24.5 4.5q12 1 24 1h18l-25 -143q-2 -10 -5.5 -29.5l-8 -45l-10 -54.5l-10.5 -58l-27 -148l-10 -56q0 1 1 1
q-19 -108 -47.5 -195t-105 -141.5t-213.5 -45.5q-33 2 -65 12.5t-58.5 29t-46.5 45t-29 61.5q-7 27 -6.5 55t10.5 53.5t30 47.5t52 37q1 -1 1 -9.5t-1.5 -18t-3 -17l-1.5 -7.5q-27 -9 -40 -52t0 -79t44.5 -56t70 -26.5t81 2t80.5 37.5t63 74t47 137l7 40.5l12 67l15.5 84
l16.5 90.5l42 234q5 13 14 28.5t32 28.5zM778 604l-10.5 -58.5t-10.5 -59.5q-10 1 -28.5 6.5t-36.5 17.5t-31.5 32.5t-12.5 52.5l2 9h128z" />
    <glyph glyph-name="f_o" unicode="fo" horiz-adv-x="885" 
d="M722 642q31 -12 51 -26t31.5 -29t15.5 -30t3 -29q-2 -33 -26 -66q-7 10 -19 21q-11 9 -29.5 20.5t-48.5 22.5q-52 19 -114 27.5t-128.5 10.5t-134.5 -1t-132 -9q-5 -19 -9.5 -38t-7.5 -35l-17 -89q21 1 49.5 -1t57.5 -3t56 0.5t46 10.5q15 7 24.5 14.5t14.5 12.5
q6 6 9 12q6 -24 4 -46q-2 -19 -11.5 -40t-35.5 -35q-21 -12 -44.5 -11t-50.5 7.5t-59 16t-70 14.5l-22 -125t-22 -123v-2q0 -1 -0.5 -1.5t-0.5 -1.5l-71 -399q-4 -14 -10 -28q-5 -12 -15 -26t-25 -27q-16 -14 -30.5 -20.5t-25.5 -8.5q-13 -3 -25 -1h-19l16 85l95 522h1
q7 40 11 67.5t7.5 48t7 37.5l7.5 37.5l9.5 48l13.5 68.5q8 28 22 48l-88 -8q-71 -9 -116.5 -9t-72.5 6t-40 16t-19 21q3 -3 36 -2t83 5t109 10.5t115 15.5q82 13 169.5 30t171.5 28t162 10t141 -24zM910 232q7 -3 7.5 -9.5t-0.5 -10.5l-1 -1l-6.5 -20t-12.5 -33
q-21 -50 -64.5 -88t-99.5 -60t-121 -25.5t-128 16.5q-5 2 -11 5t-11 7q-1 1 -2 1q-11 8 -20.5 19t-17.5 27q-5 13 -7 21.5t-2 13.5v5q0 11 6.5 21t17.5 14q4 1 7 1.5t7 0.5q16 0 27 -10.5t11 -26.5q0 -14 -7.5 -23.5t-19.5 -12.5q3 -5 5.5 -8.5t7.5 -6.5q22 -18 48.5 -10.5
t51 33t45.5 66.5t32 91l5 32q1 2 1 8q1 7 1 16v18t-1 22q-2 17 -7.5 36t-16.5 35l-14 15q-23 17 -49 9.5t-51 -33t-45.5 -66.5t-30.5 -90q-2 -8 -3.5 -16.5t-2.5 -16.5q0 -5 -1 -8q-1 -5 -1 -10v-26q-4 -1 -11 -3t-14 -7t-12 -14t-6 -22q-2 -26 9 -53t37 -48
q-25 7 -48.5 22.5t-49.5 47.5q-19 24 -25.5 53t-6.5 54.5t3 44t4 21.5q3 11 4 16t1.5 7t1 3.5t2.5 5.5q29 -8 56 6.5t51 46.5q13 22 18 47.5t0 56.5q17 10 36.5 16t42.5 10q5 1 11 1h12q1 1 2 1h4.5t5.5 -1q5 1 16 1l15 -2q23 -4 43 -8t39.5 -12t38 -23t38.5 -40
q19 -24 25.5 -53t6.5 -54.5t-3 -44t-4 -21.5q-12 -47 -34.5 -88t-56.5 -71q-7 -6 -9.5 -8.5t-4.5 -3.5t-5 -2t-9 -4q11 -1 34.5 3t53 17.5t60.5 38t57 63.5q9 12 15.5 30t11.5 37l2 2q0 1 0.5 1.5t0.5 1.5q2 3 5.5 5.5t9.5 0.5z" />
    <glyph glyph-name="W_h" unicode="Wh" horiz-adv-x="1531" 
d="M924 1084q30 -3 51 -23t33.5 -52t17 -73t2 -86t-11.5 -91t-23 -87q-14 -42 -40.5 -106.5t-62.5 -137t-80.5 -147t-94 -135t-103.5 -100.5t-108 -44q-25 -2 -40.5 -2.5t-23.5 1.5q-31 3 -54 23t-31 60q0 5 -1 7q0 2 -0.5 3t-0.5 3t-0.5 5t-0.5 5v35l2 16t3 17l1 3
q-20 -29 -46 -60.5t-55.5 -57t-62.5 -42.5t-67 -17q-40 0 -65 17t-39.5 46t-19.5 66t-5 78q0 21 2.5 45.5t5.5 45.5l8 48l83 461q3 13 9 27q5 12 15 26t25 28q-27 1 -61 2t-75 2q-47 1 -105 -0.5t-118 1.5t-118 15.5t-104 41.5q-23 15 -36.5 30t-20 29t-7 27.5t2.5 25.5
q7 27 32 52q3 -9 11 -20q7 -10 19.5 -23t35.5 -27q22 -15 57.5 -25.5t70.5 -17.5q40 -8 84 -13l399 -67q1 -1 2 -1q1 -1 2 -1t3 -1h26l-8 -43t-7 -43q-1 -2 -6 -30.5l-13.5 -74l-19 -104.5l-22 -122l-23 -126l-21.5 -117q-7 -49 -9.5 -86t2 -62t16 -37.5t33.5 -12.5
q18 0 36 10t36 26.5t35.5 37.5t32.5 43q36 51 70 117l92 515q3 14 10 28q5 12 15 26t25 28q16 13 30.5 19.5t25.5 8.5q13 3 25 2h19l-7.5 -44t-8.5 -42q0 -2 -3 -17.5t-7.5 -41.5l-10.5 -59l-13 -69q-2 -11 -6 -28q-6 -27 -15 -83l-1.5 -7.5t-0.5 -5.5l-26 -147l-30 -162v1
l-19 -110q-6 -36 7 -47q2 -1 14.5 -2t35.5 7q21 7 49 26t59 59q6 7 11.5 14.5l11.5 16.5q23 27 42 57t38.5 70.5t41.5 95l51 129.5q21 54 32 101.5t15.5 87t4.5 70.5t-2 51q-1 9 -2 17t-3 16l-1 1q-10 44 -31.5 71t-44.5 42q-26 18 -56 26q18 22 44 38q22 14 55.5 24t79.5 6
zM1555 241q8 -2 8.5 -9t-0.5 -10q0 -1 -0.5 -1t-0.5 -1q-2 -8 -11 -30t-23.5 -49t-33.5 -54t-41 -43q-55 -42 -111 -44h-9q-26 2 -47 15.5t-32 41.5q-5 12 -9.5 38.5t4.5 67.5v3q0 2 0.5 3.5t0.5 3.5l1 1v1q0 2 1 3l46 227l9 19.5t15 20.5h-41q-16 0 -33 -4
q-14 -4 -31.5 -13.5t-33.5 -29.5l-11 -13q-2 -3 -5.5 -10t-8.5 -18l-5 -22q-2 -13 -4.5 -25.5l-5.5 -26.5l-37 -179q-4 -19 -4 -36q-1 -14 2 -29t13 -23l11 -9q-11 -3 -22 -5t-22 -2h-9q-44 2 -69 37l-6 12q-6 13 -10 30q-3 14 -4 35t5 49v1q3 13 3 16l23 112h-2l24 113v4
l81 399q3 14 10 28q6 12 15.5 26t25.5 27q21 18 56 27t71 6.5t66.5 -18.5t42.5 -48q9 -26 6.5 -59.5t-16.5 -68t-40.5 -67.5t-63.5 -58q-15 -8 -31.5 -14.5t-33.5 -11.5l9 39q16 6 43.5 28.5t56.5 78.5q9 14 14 40.5t3.5 53.5t-11 47t-30.5 22q-8 0 -15 -2.5t-13.5 -11
t-13.5 -24.5t-16 -42q-8 -24 -15 -50.5t-12 -48.5l-47 -229h2q-2 -8 -3.5 -15.5t-3.5 -15.5q5 4 10 7t12 6q20 8 41.5 12t38.5 6q20 2 40 0h122q-2 -6 -2 -12l-27 -131l-47 -231q-7 -35 5.5 -45t33.5 -2.5t45 28.5t41 48h1q1 1 1 2q5 8 20 35.5t26 60.5v2l2 2q2 3 5.5 5.5
t10.5 0.5z" />
    <glyph glyph-name="T_h" unicode="Th" horiz-adv-x="835" 
d="M915 241q8 -2 8.5 -9t-0.5 -10q0 -1 -0.5 -1t-0.5 -1q-2 -8 -11 -30t-23.5 -49t-33.5 -54t-40 -43q-27 -21 -56 -32t-55 -12h-9q-27 2 -48 15.5t-32 41.5q-5 12 -9 38.5t4 67.5v1q0 1 1 2v7l1 1v1q0 2 1 3l46 227l9 19.5t15 20.5h-41q-16 0 -33 -4q-14 -4 -31.5 -13.5
t-33.5 -29.5l-11 -13q-2 -3 -5.5 -10t-8.5 -18l-4 -22l-11 -52l-37 -179q-4 -19 -4 -36q-1 -14 2 -29t13 -23l11 -9q-11 -3 -21.5 -5t-21.5 -2h-9q-45 2 -69 37q-5 6 -6 12q-7 13 -11 30q-3 14 -4 35t5 49l1 1q2 15 3 16l22 112h-1l23 113q0 1 0.5 1.5t0.5 2.5l72 357
q42 9 72.5 21t51 30t31.5 43.5t14 61.5q15 2 35.5 -1.5t38.5 -11.5t31.5 -21t20.5 -32q10 -26 7.5 -59.5t-17 -68t-41 -67.5t-63.5 -58q-15 -8 -31 -14.5t-33 -11.5l9 39q15 6 42.5 28.5t56.5 78.5q9 14 14 40.5t3.5 53.5t-11 47t-30.5 22q-8 0 -14.5 -2.5t-13.5 -11
t-14 -24.5t-16 -42q-8 -24 -14.5 -50.5l-11.5 -48.5q-11 -48 -22.5 -107t-25.5 -122h2l-7 -31q9 7 22 13q20 8 41.5 12t38.5 6q20 2 40 0h122l-2 -12l-13.5 -66.5l-12.5 -64.5q-14 -62 -25.5 -119.5l-22.5 -111.5q-7 -35 5.5 -45t33.5 -2.5t45.5 28.5t41.5 48q1 1 1 2
q5 8 20 35.5t26 60.5l1 2q0 2 1 2q2 3 6 5.5t10 0.5zM592 1010q23 -38 25 -74q1 -15 -3 -32t-15 -33.5t-31 -31.5t-51 -28q-63 -25 -135.5 -25.5t-146.5 10.5l-12 -65.5l-15 -82.5q-3 -11 -7 -28q-6 -29 -15 -84q-1 -4 -1 -7.5v-5.5l-27 -147l-69 -376h-8q-23 1 -42.5 12
t-32 32t-16.5 53.5t4 76.5l87 484q19 76 45.5 106.5t54.5 35.5q5 1 8 1.5t7 0.5q-62 11 -119.5 25t-105.5 23q-31 5 -59 9t-53 4t-47.5 -4.5t-42.5 -15.5q0 34 33.5 60.5t87.5 27.5l338 -9q54 -4 104 -4q43 0 88 4t76 17q29 13 48 25t30 23q12 11 18 23z" />
    <glyph glyph-name=".notdef" horiz-adv-x="225" 
 />
    <glyph glyph-name="NULL" horiz-adv-x="0" 
 />
    <glyph glyph-name="NULL" horiz-adv-x="0" 
 />
    <glyph glyph-name="nonmarkingreturn" unicode="&#xd;" horiz-adv-x="225" 
 />
    <glyph glyph-name="space" unicode=" " horiz-adv-x="378" 
 />
    <glyph glyph-name="ring" unicode="&#x2da;" horiz-adv-x="234" 
d="M111 486q-1 -8 3.5 -14t11.5 -6q8 0 12.5 6.5t5.5 14.5q1 9 -3.5 14.5t-11.5 4.5q-7 0 -12 -6t-6 -14zM78 484q2 17 18.5 29t36.5 13t33.5 -10.5t11.5 -28.5t-18 -29t-37 -13q-21 0 -34 11.5t-11 27.5z" />
    <glyph glyph-name="hungarumlaut" unicode="&#x2dd;" horiz-adv-x="200" 
d="M108 420q1 -4 -5 -21t-15 -36.5l-17 -35.5t-10 -17q-5 0 -7 5q-1 1 -0.5 15.5t1.5 31.5t2.5 32.5t1.5 20.5q1 5 8 8.5t15 4.5t15.5 -1t10.5 -7zM196 420q1 -4 -5.5 -21t-15 -36.5t-16.5 -35.5t-10 -17q-7 0 -7 5q-1 1 -1 14t0.5 28.5t1 29.5t1.5 19q1 6 8 11t15.5 8
t17 2.5t11.5 -7.5z" />
    <glyph glyph-name="ogonek" unicode="&#x2db;" horiz-adv-x="250" 
d="M165 -5q-15 -12 -29.5 -26t-26.5 -28t-19.5 -28t-7.5 -27q0 -35 14.5 -38t39.5 22q2 2 5.5 2t1.5 -5q-1 -6 -7 -13t-15.5 -13.5t-22 -11t-26.5 -4.5h-15.5t-16 3t-12 11t-3.5 24q2 17 15.5 39t31.5 42.5t37 37t33 22.5h5t8 -1t7 -3t3 -5z" />
    <glyph glyph-name="dotlessi" unicode="&#x131;" horiz-adv-x="130" 
d="M296 249q8 -3 8.5 -9.5t-0.5 -10.5v-1q-2 -8 -11.5 -30t-23.5 -49t-33 -54t-41 -43q-26 -21 -55.5 -32.5t-55.5 -12.5h-9q-26 2 -47.5 16t-32.5 42v-1q-5 12 -9 38.5t4 67.5q0 1 0.5 1.5t0.5 2.5q1 2 1 7v1q1 2 1 3l47 227q3 9 8 19.5t16 21.5q8 8 24 16q17 9 33.5 12.5
t27.5 4.5h33l-2 -12q-8 -34 -14.5 -66.5l-12.5 -64.5l-47 -231q-7 -35 5.5 -45t33.5 -3t45.5 28t41.5 48v1q0 1 1 1l19.5 36t25.5 60v1l1 2q1 0 1 3q2 2 6 4.5t10 0.5z" />
    <glyph glyph-name="A" unicode="A" horiz-adv-x="703" 
d="M721 243q8 -3 8.5 -9.5t0.5 -10.5v-1q-2 -8 -11 -30t-23 -49t-32 -54t-39 -43q-29 -23 -60 -35t-60 -10q-23 1 -42 12t-31.5 32.5t-16.5 53.5t4 76l24 134q9 5 17.5 13.5t10.5 19.5q3 14 -3.5 23.5t-11.5 14.5l73 407q-20 -8 -41 -19.5t-42 -28.5q-10 -8 -28 -29t-41 -53
q-36 -49 -81 -116.5l-93 -140.5l221 -37l3.5 -1t7.5 -3t7.5 -5.5t2.5 -8.5q-2 -8 -9 -13t-16 -5q-2 0 -3 1v-1q-22 1 -73 3t-123 4q-29 2 -61 0l-100 -154.5l-75 -119.5q-16 -26 -37.5 -37.5t-41.5 -16.5q-24 -5 -49 -3l156 241q16 26 35.5 43t37 27t32 14.5t21.5 5.5h-92
t-96 5t-93 17.5t-82 36.5q-23 15 -37 29.5t-20.5 29t-7 27.5t2.5 25q7 27 32 53q3 -9 11 -20q7 -10 20 -23t36 -27q22 -15 57.5 -25.5t70.5 -17.5q40 -8 84 -13l97 -16l190 294q27 37 56 70q25 29 56.5 57.5t63.5 45.5q37 18 69 26.5t56 11.5q28 4 51 2h18l-15 -87
q-1 -2 -6 -31t-14 -75.5l-19.5 -106l-22.5 -123.5l-23.5 -127l-21 -116.5l-16.5 -93l-10 -55.5q-6 -36 6.5 -46.5t33.5 -3t44.5 28.5t39.5 48l2 1q0 1 1 2q5 8 18.5 35t23.5 61l1 2l2 3q2 2 5.5 4.5t9.5 0.5z" />
    <glyph glyph-name="circumflex" unicode="&#x2c6;" horiz-adv-x="364" 
d="M290 603l-47 -5l-62 84l-70 -87l-71 -5l109 155l80 5z" />
    <glyph glyph-name="exclamdown" unicode="&#xa1;" horiz-adv-x="301" 
d="M-33 -217q2 6 17 34l36.5 68.5l47.5 86.5l49.5 87.5l41.5 73t25 42.5l42 -15l-1 -5l-137 -363q-3 -8 -19 -11t-35 -4t-37 -0.5t-25 0.5l-4 2zM203 229q3 17 16 28t30 11t26 -11t6 -28q-2 -16 -15.5 -27.5t-30.5 -11.5q-16 0 -25.5 11.5t-6.5 27.5z" />
    <glyph glyph-name="macron" unicode="&#xaf;" horiz-adv-x="364" 
d="M298 308h-161l10 23h160z" />
    <glyph glyph-name="periodcentered" unicode="&#xb7;" horiz-adv-x="196" 
d="M155 174q-2 -13 -12.5 -22t-23.5 -9t-20 9t-5 22t12 22t24 9q12 0 19.5 -9t5.5 -22z" />
    <glyph glyph-name="a" unicode="a" horiz-adv-x="574" 
d="M596 244q8 -2 8.5 -9t-0.5 -9v-2q-2 -8 -11.5 -30t-23.5 -49t-33 -54t-41 -43q-27 -21 -56 -32.5t-55 -11.5h-9q-27 2 -48 16t-32 43l6 22q5 20 -1 33t-14 21q2 9 3 18.5t3 20.5l44 214q-22 39 -51.5 41.5t-58.5 -21t-54 -69t-37 -102.5q-9 -42 -10 -76.5t5 -58.5
t19.5 -35.5t33.5 -7.5h1q-1 -1 -2 -1q5 0 20 5.5t29 22.5q7 9 9.5 16t3.5 12t-1 9q2 0 6 -1q7 -2 12 -6t8.5 -11t1.5 -21q-2 -11 -11.5 -25.5t-24.5 -27.5q-23 -17 -52 -27t-58 -8v1q-29 0 -55 10.5t-44.5 31.5t-28.5 52.5t-6 73.5q5 57 21.5 111t47.5 97.5t76.5 70.5
t108.5 30q6 0 19 -1t28 -5.5t30.5 -13.5t28.5 -25q5 8 13.5 16.5t22.5 16.5q14 7 27.5 10t24.5 5q12 2 24 1h18l-14 -72.5l-14 -70.5l-47 -231q-7 -35 5.5 -45t33 -3t45 28t41.5 48l1 1v2q5 8 20 35t26 61l1 2q0 1 0.5 1t0.5 1q2 3 6 5t10 0z" />
    <glyph glyph-name="b" unicode="b" horiz-adv-x="544" 
d="M556 248q8 -2 8.5 -9t0.5 -10v-1h-1q-2 -8 -11 -30t-23.5 -49t-33.5 -54t-41 -43q-14 -11 -28.5 -20t-29.5 -14h-1q-3 -2 -6 -2.5t-5 -1.5q-32 -9 -67 -12t-64.5 -2.5t-49 2.5t-20.5 2q-51 3 -78 35q-11 12 -14.5 27t-0.5 26q3 13 9.5 20t13.5 12q4 2 7.5 3t5.5 2
q6 3 14 3q14 0 24 -10.5t10 -25.5q0 -18 -12 -28q3 -2 7 -2l-1 1q18 -5 36 6.5t34 35.5t29.5 59t21.5 77q11 55 5 99.5t-24.5 68.5t-47.5 24t-65 -34l-25.5 -140.5t-19.5 -106.5q-21 -12 -35.5 -33.5t-10.5 -49.5q2 -25 14 -40.5t24 -23.5q-8 -2 -14.5 -2h-14.5
q-23 1 -42 12t-31.5 32t-16.5 53.5t4 76.5l113 633q3 14 10 28q6 12 16 26.5t25 28.5q15 13 30 19.5t26 8.5q13 3 25 2h5q1 0 13.5 1.5t32.5 1.5q8 0 23 -2.5t31 -9.5t31 -20t23 -35q9 -26 6.5 -59.5t-17 -68.5t-40.5 -67.5t-63 -57.5q-16 -8 -32 -14.5t-33 -11.5l9 39
q7 3 18.5 9.5t25 19t28 31.5t28.5 47q8 14 13 40.5t4 53.5t-10.5 47t-29.5 22q-9 1 -16 -1.5t-13.5 -11.5t-14 -25t-16.5 -42q-8 -26 -15 -53.5t-12 -50.5l-48 -263q18 13 35 20t32 10.5t26.5 4t16.5 0.5q62 -2 96.5 -29.5t48 -70.5t8 -97.5t-23.5 -111.5
q-16 -48 -42.5 -81.5t-58.5 -54.5l20 2t21 3q44 8 74.5 27.5t49.5 40.5q22 25 36 54q8 14 17 33.5t16 41.5v1l1 2l2 2q2 3 5.5 5t9.5 0z" />
    <glyph glyph-name="c" unicode="c" horiz-adv-x="421" 
d="M442 241q8 -2 8.5 -9t0.5 -9t-1 -2v-1q-2 -7 -10.5 -29.5t-22.5 -49.5t-32 -54t-39 -43q-29 -23 -59.5 -34.5t-59.5 -9.5l1 1q-5 -1 -10.5 -1h-12.5l-15 2q-23 3 -43 7t-39.5 12.5t-38 23.5t-38.5 40q-19 24 -25.5 53t-6.5 54.5t3 43.5t4 21q12 43 31.5 82t49 68.5
t68.5 47.5t89 20q7 0 22 -1.5t33 -8t35.5 -20.5t28.5 -38q10 -25 9 -35v-5q0 -16 -11 -27t-27 -11t-27 11t-11 27q0 14 8 24t21 13q-23 29 -51 27t-55.5 -27t-50.5 -68.5t-35 -97.5l-5 -32q0 -2 -0.5 -4t-0.5 -4q-4 -37 2 -70q5 -28 20.5 -54.5t49.5 -36.5q33 -10 62 -1
t51.5 24.5t37 33t19.5 24.5q5 5 10 15l1 1q1 0 1 2q5 8 18.5 35t24.5 61l1 2l2 2q2 3 5.5 5t9.5 0z" />
    <glyph glyph-name="d" unicode="d" horiz-adv-x="572" 
d="M538 619q7 3 18.5 9.5t24.5 19t27.5 31.5t28.5 48q9 13 14 39.5t3.5 53.5t-10.5 47.5t-30 22.5q-8 0 -15 -2.5t-13.5 -11t-13.5 -24.5t-16 -42q-9 -24 -15.5 -50.5l-11.5 -48.5l-124 -603q-6 -35 6 -45t33 -3t45.5 28t41.5 48l1 1v2q5 8 19.5 35t25.5 61l1 2l2 2
q2 3 5.5 5t9.5 0q9 -2 9.5 -9t-0.5 -9v-2q-2 -8 -11.5 -30t-24 -49t-33.5 -54t-40 -43q-27 -21 -56.5 -32.5t-55.5 -11.5h-9q-27 2 -48 16t-32 43l7 22q5 20 -1.5 33t-13.5 21q1 9 2.5 18.5t3.5 20.5l44 214q-22 39 -51.5 41.5t-59 -21t-54 -69t-36.5 -102.5
q-9 -42 -10 -76.5t5 -58.5t19.5 -35.5t33.5 -7.5q-1 -1 -2 -1q5 0 20.5 5.5t28.5 22.5t13.5 25.5t-0.5 10.5q20 -12 23.5 -27.5t-4.5 -31t-24.5 -29.5t-36.5 -24t-40.5 -14t-36.5 0l1 1q-29 0 -55.5 10.5t-45 31.5t-28.5 52.5t-6 73.5q5 57 22 111t47.5 97.5t76.5 70.5
t109 30q6 0 17.5 -1t26 -5t29.5 -12t28 -22l74 373q4 14 11 28q6 12 15.5 26.5t25.5 27.5q21 18 56 27t71 6.5t66.5 -18.5t42.5 -49q9 -26 6.5 -59.5t-17 -68t-40.5 -67.5t-63 -58q-16 -8 -32 -14.5t-33 -11.5l9 39v0z" />
    <glyph glyph-name="e" unicode="e" horiz-adv-x="423" 
d="M442 241q8 -2 8.5 -9t0.5 -9t-1 -2v-1q-2 -7 -10.5 -29.5t-22.5 -49.5t-32 -54t-39 -43q-29 -23 -59.5 -34.5t-59.5 -9.5l1 1q-5 -1 -10.5 -1h-12.5l-15 2q-23 3 -43 7t-39.5 12.5t-38 23.5t-38.5 40q-19 24 -25.5 53t-6.5 54.5t3 43.5t4 21q12 43 31.5 82t49 68.5
t68.5 47.5t89 20q6 0 16.5 -1t24 -4.5t28 -10.5t27.5 -19q24 -23 31 -58t-4.5 -70.5t-41.5 -66t-80 -44.5q-31 -10 -59.5 -5.5t-40.5 29t9 52.5q0 -15 7 -22q6 -7 18.5 -7.5t37.5 13.5q44 32 63 61t24 52q6 26 0 49q-21 13 -45 5.5t-46.5 -30.5t-37.5 -53t-16 -41
q-20 -7 -31 -20.5t-14.5 -29t0.5 -31.5t15 -27q-3 -25 -1 -50.5t10.5 -47t23 -38t37.5 -23.5q38 -11 76 3q45 18 76.5 56t51.5 82q12 24 21 54l1 2l2 2q2 3 5.5 5t9.5 0z" />
    <glyph glyph-name="f" unicode="f" horiz-adv-x="402" 
d="M414 438q6 -24 4 -46q-2 -19 -11.5 -40t-35.5 -35q-21 -12 -44.5 -11t-50.5 7.5t-59 16t-70 14.5l-22 -125t-22 -123v-2q0 -1 -0.5 -1.5t-0.5 -1.5l-71 -399q-4 -14 -10 -28q-5 -12 -15 -26t-25 -27q-16 -14 -30.5 -20.5t-25.5 -8.5q-13 -3 -25 -1h-19q5 22 8.5 43
t7.5 42l95 522h1l32 177l-48 8l6 24l47 -1l33 185q3 14 10 28q5 12 15 26t25 28q21 18 56 27t71 6t66.5 -19t42.5 -47q10 -25 9 -56.5t-13 -64t-34 -64.5t-54 -57h26t30 1t29 3t24 7q15 7 24.5 14.5t14.5 12.5q6 6 9 12zM157 392l30 -1q16 7 42.5 29t53.5 76q8 14 11.5 31
t5 34t0.5 32t-2 26q0 9 -3 18q-3 13 -11.5 22.5t-24.5 14.5q-29 7 -60 -94q-8 -25 -14 -51l-11 -48z" />
    <glyph glyph-name="g" unicode="g" horiz-adv-x="524" 
d="M482 482q-8 -37 -14.5 -72.5t-14.5 -70.5l-6 -29.5l-9 -45l-11 -54.5l-12 -58l-30 -148l-11 -57v1l-53 -267q-4 -14 -11 -28q-6 -12 -16 -26.5t-25 -27.5q-16 -14 -31 -20.5t-26 -8.5q-13 -3 -25 -1q-6 -1 -13 -2q-6 -1 -14.5 -1h-18.5q-8 0 -22.5 2t-31 9t-31.5 20
t-23 35q-9 26 -6.5 59.5t17 68.5t40.5 68t64 58q15 8 31 14t33 11l-9 -39q-8 -3 -19 -9t-24 -18.5t-27.5 -32t-29.5 -47.5q-8 -14 -15.5 -40t-8.5 -52.5t8 -48t34 -25.5q16 -3 31 13.5t33 69.5q6 17 11 36l10 37q11 49 24 115l28 138q14 10 28 24.5t21 37.5q9 27 1 46.5
t-22 31.5l17 80.5l14.5 71l11.5 56.5l8 38q-22 37 -51.5 39t-58.5 -22t-54 -68.5t-37 -101.5q-9 -42 -9.5 -76.5t5.5 -58.5t19.5 -35.5t33.5 -7.5q-1 -1 -2 -1q5 0 20.5 5.5t29.5 22.5q8 9 10 16t3 12q0 5 -1 9q2 0 6 -1q7 -2 12 -6t9 -11.5t2 -20.5q-2 -11 -12 -25.5
t-25 -27.5q-22 -17 -51.5 -27t-58.5 -8q-29 0 -55 10.5t-45 31.5t-28.5 53t-6.5 74q5 56 22 110.5t48 97.5t76.5 70.5t108.5 30.5q6 0 18.5 -1t27.5 -5.5t30.5 -13.5t28.5 -25q11 19 36 33q14 7 27 10t24 5q12 2 25 1h18z" />
    <glyph glyph-name="h" unicode="h" 
d="M550 241q8 -2 8.5 -9t-0.5 -10q0 -1 -0.5 -1t-0.5 -1q-2 -8 -11 -30t-23.5 -49t-33.5 -54t-41 -43q-55 -42 -111 -44h-9q-26 2 -47 15.5t-32 41.5q-5 12 -9.5 38.5t4.5 67.5v3q0 2 0.5 3.5t0.5 3.5l1 1v1q0 2 1 3l46 227l9 19.5t15 20.5h-41q-16 0 -33 -4
q-14 -4 -31.5 -13.5t-33.5 -29.5l-11 -13q-2 -3 -5.5 -10t-8.5 -18l-5 -22q-2 -13 -4.5 -25.5l-5.5 -26.5l-37 -179q-4 -19 -4 -36q-1 -14 2 -29t13 -23l11 -9q-11 -3 -22 -5t-22 -2h-9q-44 2 -69 37l-6 12q-6 13 -10 30q-3 14 -4 35t5 49v1q3 13 3 16l23 112h-2l24 113v4
l81 399q3 14 10 28q6 12 15.5 26t25.5 27q21 18 56 27t71 6.5t66.5 -18.5t42.5 -48q9 -26 6.5 -59.5t-16.5 -68t-40.5 -67.5t-63.5 -58q-15 -8 -31.5 -14.5t-33.5 -11.5l9 39q16 6 43.5 28.5t56.5 78.5q9 14 14 40.5t3.5 53.5t-11 47t-30.5 22q-8 0 -15 -2.5t-13.5 -11
t-13.5 -24.5t-16 -42q-8 -24 -15 -50.5t-12 -48.5l-47 -229h2q-2 -8 -3.5 -15.5t-3.5 -15.5q5 4 10 7t12 6q20 8 41.5 12t38.5 6q20 2 40 0h122q-2 -6 -2 -12l-27 -131l-47 -231q-7 -35 5.5 -45t33.5 -2.5t45 28.5t41 48h1q1 1 1 2q5 8 20 35.5t26 60.5v2l2 2q2 3 5.5 5.5
t10.5 0.5z" />
    <glyph glyph-name="i" unicode="i" horiz-adv-x="271" 
d="M296 249q8 -3 8.5 -9.5t-0.5 -10.5v-1q-2 -8 -11.5 -30t-23.5 -49t-33 -54t-41 -43q-26 -21 -55.5 -32.5t-55.5 -12.5h-9q-26 2 -47.5 16t-32.5 42v-1q-5 12 -9 38.5t4 67.5q0 1 0.5 1.5t0.5 2.5q1 2 1 7v1q1 2 1 3l47 227q3 9 8 19.5t16 21.5q8 8 24 16q17 9 33.5 12.5
t27.5 4.5h33l-2 -12q-8 -34 -14.5 -66.5l-12.5 -64.5l-47 -231q-7 -35 5.5 -45t33.5 -3t45.5 28t41.5 48v1q0 1 1 1l19.5 36t25.5 60v1l1 2q1 0 1 3q2 2 6 4.5t10 0.5zM183 495q-10 1 -28.5 6t-36 17t-30 32.5t-10.5 53.5l1 9h129l-12 -58.5t-13 -59.5z" />
    <glyph glyph-name="j" unicode="j" horiz-adv-x="255" 
d="M74 461q14 8 27.5 10.5l24.5 4.5q13 1 25 1h18l-26 -143q-2 -10 -5.5 -29.5l-8 -45l-10 -54.5l-10.5 -58l-27 -148l-9 -56v1l-48 -268q-4 -14 -10 -28q-5 -12 -14.5 -26.5t-24.5 -27.5q-16 -14 -30.5 -20t-25.5 -8q-13 -3 -25 -2q-6 -1 -13 -2q-6 -1 -14.5 -1h-18.5
q-8 0 -23 2.5t-31.5 9t-31.5 19.5t-23 35q-10 27 -8.5 60.5t15 68t39 67.5t62.5 58q15 8 31 14t33 11l-7 -39q-8 -3 -19 -9t-24 -18.5t-27.5 -31.5t-28.5 -47q-8 -14 -15 -40t-7 -52.5t9.5 -48t34.5 -26.5q17 -3 31 14t31 69q7 18 11.5 37l8.5 36l8 46.5l15 83l19 106
l21 115.5l55 303q5 13 14 28.5t32 28.5zM193 604q-6 -29 -11.5 -58.5t-10.5 -59.5q-10 1 -28.5 6.5t-36.5 17.5t-31.5 32.5t-12.5 52.5l2 9h129z" />
    <glyph glyph-name="k" unicode="k" 
d="M550 241q8 -2 8.5 -9t-0.5 -10q-1 -1 -1 -2q-2 -8 -11.5 -30t-23.5 -49t-33 -54t-41 -43q-55 -42 -111 -44h-9q-26 2 -47 15.5t-32 41.5q-5 12 -9.5 38.5t4.5 67.5v3q0 2 0.5 3.5t0.5 3.5v1l1 1v3l47 227q3 9 8.5 19.5t15.5 20.5h-41q-16 0 -33 -4q-14 -4 -31.5 -13.5
t-33.5 -29.5l-11 -13q-2 -3 -5.5 -10t-8.5 -18l-5 -22q-2 -13 -4.5 -25.5l-5.5 -26.5l-37 -179q-3 -19 -4 -36q-1 -14 1.5 -29t12.5 -23l12 -9q-11 -3 -22 -5t-22 -2h-9q-21 1 -39 10t-30 27l-6 12q-6 13 -10 30q-3 14 -4 35t5 49v1q3 13 3 16l23 112h-2l24 113v4l81 399
q3 14 10 28q6 12 15.5 26t25.5 27q21 18 56 27t71 6.5t66.5 -18.5t42.5 -48q9 -26 6.5 -59.5t-16.5 -68t-40.5 -67.5t-63.5 -58q-15 -8 -31.5 -14.5t-33.5 -11.5l9 39q16 6 43.5 28.5t56.5 78.5q9 14 14 40.5t3.5 53.5t-11 47t-30.5 22q-8 0 -15 -2.5t-13.5 -11t-13.5 -24.5
t-16 -42q-8 -24 -15 -50.5t-12 -48.5l-47 -229h2q-2 -8 -3.5 -15.5t-3.5 -15.5q5 4 10 7t11 6h1l171 119q19 12 36 25q14 11 28 24t20 27t8 23.5t2 17.5t-1 15q21 -11 33 -26q11 -13 15.5 -32.5t-8.5 -46.5t-37 -46t-52 -33t-57 -24.5t-51 -20.5l-8 -4h15h6h122
q-2 -6 -2 -12l-27 -131l-48 -231q-6 -35 6.5 -45t33.5 -2.5t45 28.5t41 48h1q1 1 1 2q5 8 20 35.5t26 60.5v2q0 2 2 2q2 3 5.5 5.5t10.5 0.5z" />
    <glyph glyph-name="l" unicode="l" horiz-adv-x="281" 
d="M225 616q14 5 42.5 27.5t57.5 78.5q8 14 13 41t3.5 53.5t-10.5 47t-30 22.5q-9 0 -15.5 -2.5t-13.5 -11t-14 -24.5t-16 -43q-6 -18 -11.5 -38.5t-10 -39.5l-8 -34t-4.5 -24l-19.5 -106l-21 -115l-20.5 -113.5l-18.5 -101.5l-15 -80t-8.5 -48q-6 -36 6 -46.5t33 -3
t44.5 28.5t40.5 48l1 1l2 2q5 8 18 35.5t24 60.5l1 2q0 2 2 2q2 3 5.5 5.5t9.5 0.5q8 -3 8.5 -9.5t0.5 -9.5q0 -2 -1 -2q-2 -8 -10.5 -30t-22.5 -49t-32 -54t-39 -44q-29 -23 -60 -34t-60 -9q-23 1 -42 12t-31.5 32t-16.5 53t4 76l113 635q3 14 10 28q6 12 15.5 26t25.5 27
q21 18 56.5 27t72.5 6t68.5 -19t42.5 -47q10 -26 7.5 -59.5t-17 -68.5t-41 -68t-63.5 -58q-15 -8 -31 -14t-33 -11l9 39v0z" />
    <glyph glyph-name="m" unicode="m" horiz-adv-x="774" 
d="M796 241q8 -2 8.5 -9t-0.5 -10q0 -1 -1 -2q-2 -8 -11 -30t-23.5 -49t-33.5 -54t-41 -43q-55 -42 -111 -44h-9q-26 2 -47 15.5t-32 41.5q-5 12 -9.5 38.5t4.5 67.5v3l2 7v2q0 1 0.5 1.5t0.5 1.5l38 186q4 22 17 37t27.5 24.5t27 14t16.5 5.5h-105q-12 0 -38.5 -8
t-51.5 -39l-10 -13q-2 -3 -6 -10t-9 -18l-5 -22q-2 -13 -4.5 -25.5l-5.5 -26.5l-37 -179q-4 -19 -4 -36q-1 -14 2 -29t13 -23l11 -9q-11 -3 -21.5 -5t-21.5 -2h-10q-43 2 -69 37l-6 12q-6 13 -10 30q-3 14 -4 35t5 49v1q3 13 3 16l38 185l16 80h-11q-16 0 -33 -4
q-14 -4 -31.5 -13.5t-33.5 -29.5l-11 -13q-2 -3 -5.5 -10t-8.5 -18l-4 -22l-6 -25.5t-5 -26.5l-37 -179q-3 -19 -4 -36q-1 -14 1.5 -29t12.5 -23q4 -2 6.5 -4.5t5.5 -4.5q-11 -3 -21.5 -5t-21.5 -2h-9q-46 2 -69 37q-5 6 -6 12q-7 13 -11 30q-3 14 -4 35t5 49l1 1
q1 7 1.5 11t0.5 5l46 225q5 12 14.5 28t33.5 29q14 7 27 10t24 5q12 2 25 1h19l-7 -31q5 4 10.5 7l10.5 6q20 8 41.5 12t39.5 6q20 2 40 0h109q-4 -15 -6 -31q7 6 21 13q20 8 41.5 12t38.5 6q20 2 40 0h123q-3 -5 -3 -12l-27 -131l-47 -231q-6 -35 6 -45t33 -2.5t45 28.5
t41 48h2q0 2 1 2q5 8 19.5 35.5t25.5 60.5v2l2 2q2 3 5.5 5.5t10.5 0.5z" />
    <glyph glyph-name="n" unicode="n" 
d="M550 241q8 -2 8.5 -9t-0.5 -10q-1 -1 -1 -2q-2 -8 -11.5 -30t-23.5 -49t-33 -54t-41 -43q-55 -42 -111 -44h-9q-26 2 -47 15.5t-32 41.5q-5 12 -9.5 38.5t4.5 67.5v3q0 2 0.5 3.5t0.5 3.5v1l1 1v3l40 192q6 23 18 37t25.5 22.5t25.5 11.5t18 4h-97q-16 0 -33 -4
q-14 -4 -31.5 -13.5t-33.5 -29.5l-11 -13q-2 -3 -5.5 -10t-8.5 -18l-5 -22q-2 -13 -4.5 -25.5l-5.5 -26.5l-37 -179q-3 -19 -4 -36q-1 -14 1.5 -29t12.5 -23l12 -9q-11 -3 -22 -5t-22 -2h-9q-44 2 -69 37l-6 12q-6 13 -10 30q-3 14 -4 35t5 49v1q3 13 3 16l46 225
q5 12 14.5 28t33.5 29q14 7 27 10t24 5q12 2 25 1h19q-2 -8 -3.5 -15.5t-3.5 -15.5q5 4 10 7t11 6q20 8 41.5 12t39.5 6q20 2 40 0h122q-2 -6 -2 -12l-27 -131l-48 -231q-6 -35 6.5 -45t33.5 -2.5t45 28.5t41 48h1q1 1 1 2q5 8 20 35.5t26 60.5v2q0 2 2 2q2 3 5.5 5.5
t10.5 0.5z" />
    <glyph glyph-name="o" unicode="o" horiz-adv-x="576" 
d="M596 232q8 -3 8 -9.5v-10.5l-1 -1l-7 -20t-13 -33q-21 -50 -64 -88t-99.5 -60t-121 -25.5t-127.5 16.5q-10 4 -23 12q0 1 -1 1q-11 8 -21 19t-17 27q-5 13 -7 21.5t-2 13.5v5q0 11 6.5 21t17.5 14q8 2 13 2q16 0 27 -10.5t11 -26.5q0 -14 -7.5 -23.5t-19.5 -12.5
q7 -10 13 -15q22 -18 48.5 -10.5t51.5 33t45.5 66.5t31.5 91q2 8 3 16l2 16q1 2 1 8q0 7 1 16q0 8 0.5 18t-1.5 22q-2 17 -7.5 36t-16.5 35q-3 4 -6 7.5t-7 7.5q-23 17 -49 9.5t-51 -33t-45.5 -66.5t-31.5 -90l-6 -33v-8q-1 -5 -1 -10t-0.5 -11.5t0.5 -14.5q-4 -1 -11 -3
t-14 -7t-12.5 -14t-6.5 -22q-1 -26 10 -53t37 -48q-26 7 -49.5 22.5t-48.5 47.5q-19 24 -25.5 53t-7 54.5t3 44t3.5 21.5q11 40 29 76.5t44.5 65t61 48t78.5 25.5q6 1 11.5 1h11.5q1 1 3 1h4.5t4.5 -1q5 1 8.5 1h8.5l15 -2q23 -4 43 -8t39.5 -12t38 -23t38.5 -40
q19 -24 25.5 -53t6.5 -54.5t-3 -44t-4 -21.5q-13 -47 -35.5 -88t-55.5 -71l-10 -8.5t-5 -3.5t-4.5 -2t-9.5 -4q11 -1 35 3t53.5 17.5t60.5 38t57 63.5q8 12 14.5 30t12.5 37l1 2q0 1 0.5 1.5t0.5 1.5q6 8 15 6z" />
    <glyph glyph-name="p" unicode="p" horiz-adv-x="544" 
d="M569 249q8 -3 8.5 -9.5t-0.5 -10.5v-1q-2 -8 -11.5 -30t-23.5 -49t-33 -54t-40 -43q-31 -23 -60 -33l-12 -5v1q-32 -9 -66.5 -12t-64 -2.5t-49.5 2t-21 1.5q-24 2 -44 11.5t-33 24.5q-11 12 -14.5 27t-0.5 26q4 12 10 19.5t13 11.5q4 2 8 3.5t7 2.5q4 1 6 1q-3 -4 -5 -9
t-2 -12t4 -16q5 -16 18 -21t19 -6h-1q18 -4 36.5 7.5t34.5 35.5t29 58.5t22 76.5q11 57 4.5 102.5t-26 69t-50.5 20.5t-68 -42l-10 -46l-2 -6l-39 -192q-12 -7 -24.5 -20.5t-14.5 -33.5q-2 -23 3 -39t12 -27q-2 -6 -2.5 -10t-1.5 -7q-1 -4 -1 -6l-11 -56l1 1l-54 -268
q-3 -14 -10 -28q-6 -12 -16 -26.5t-25 -27.5q-16 -14 -31 -20t-26 -8q-13 -3 -25 -2q-6 -1 -13 -2q-6 -1 -14.5 -1h-18.5q-8 0 -23 2.5t-31.5 9t-31.5 19.5t-23 35q-9 27 -6 60.5t17 68t40 67.5t64 58q15 8 31 14t33 11l-8 -38q-8 -3 -19 -9.5t-24.5 -19t-28 -31.5
t-28.5 -47q-9 -14 -16.5 -40t-8 -52.5t8.5 -48t33 -26.5q17 -3 32 14t33 69q6 18 11 37l10 37q2 12 9 46.5l16.5 82.5l21.5 105.5l24 115.5l62 303q5 13 14.5 28.5t33.5 28.5q14 8 27 10.5l24 4.5q12 1 25 1h19l-9 -44q18 14 36.5 22t34.5 12t28 5t18 1q62 -3 96.5 -30
t48 -70.5t8 -97.5t-23.5 -111q-16 -48 -42.5 -82t-58.5 -54q10 0 20 1.5t21 3.5q44 7 74.5 27t49.5 41q22 25 36 53q8 14 16.5 34t16.5 42l1 2q1 1 1 3q2 2 6 4.5t10 0.5z" />
    <glyph glyph-name="q" unicode="q" horiz-adv-x="541" 
d="M444 397q19 -24 25.5 -53t6.5 -54.5t-3 -44t-4 -21.5q-13 -47 -35 -88t-56 -71q-26 -23 -51 -33t-42 -13q-25 -5 -48.5 -4t-42.5 4q-22 4 -43 9v1h-1q-11 8 -21 19t-17 26q-5 14 -7 22.5t-2 13.5v5q0 11 6.5 21t17.5 14q8 2 14 2q16 0 26.5 -11t10.5 -26
q0 -14 -7.5 -23.5t-19.5 -13.5q3 -4 6.5 -8t7.5 -7q22 -18 48.5 -10.5t51.5 33.5t45 67t31 91q2 8 3.5 16t2.5 16q0 5 1 8q1 7 1 16v18t-1 22q-2 17 -7.5 35.5t-16.5 35.5q-4 4 -6.5 7.5t-7.5 7.5q-23 17 -49 9.5t-51 -33t-45.5 -66.5t-31.5 -91l-5 -32q0 -2 -0.5 -4
t-0.5 -4q-1 -5 -1 -10t-0.5 -11.5t0.5 -14.5q-4 -1 -11 -3t-14 -7.5t-12 -14t-6 -22.5q-2 -26 9 -52.5t37 -48.5q-25 8 -48.5 23.5t-49.5 47.5q-19 24 -25.5 53t-6.5 54.5t3 44t4 21.5q11 40 29 76.5t44 65t60.5 48t78.5 25.5q6 1 12 1h11q2 0 3 1q6 0 10 -1q4 0 8 0.5
t9 0.5l15 -2l42.5 -8t39.5 -12t37.5 -23t38.5 -40zM397 -38q14 6 24 12.5t16 12.5q7 7 11 14q7 -26 3 -50q-3 -20 -15.5 -41t-44.5 -32q-26 -10 -53 -7.5t-54 12t-52.5 23l-47.5 25.5q-38 20 -70.5 24t-52.5 4q-11 0 -17 -3.5t-10 -7.5t-6 -10q-8 10 -8 20q0 8 7 18t30 20
q23 9 58 7t68 -8q39 -7 81 -19l11 -3q23 -7 46 -11q20 -4 40.5 -5t35.5 5z" />
    <glyph glyph-name="r" unicode="r" horiz-adv-x="460" 
d="M480 238q8 -2 9 -9t-1 -9v-3q-2 -7 -11.5 -29t-23.5 -48.5t-33 -53.5t-41 -43q-55 -42 -111 -44h-9q-24 2 -44 13t-31 34v1q-7 13 -11 30q-3 14 -4 35t5 49l1 1q1 7 2 11t1 5l15 72l21 101l4.5 9t14 20t24 20.5t34.5 11.5q4 0 5 1q-23 2 -55 10t-57 26q-22 13 -40 26
l-32 24q-3 -7 -10 -25t-17 -56q-5 -22 -13.5 -51l-17.5 -58.5t-18 -55.5l-15 -42q-8 -18 -24 -9q-5 2 -5 6.5t1 9.5t4 11l87 285q-23 15 -23 42q0 20 14.5 35t35.5 15q20 0 34.5 -15t14.5 -35q0 -17 -9 -29q18 -7 43.5 -14.5t57.5 -13.5q31 -6 62 -10.5t57 -7.5q30 -4 57 -7
q-3 -14 -13 -25q-8 -10 -23 -19.5t-38 -14.5l-17 -83l-48 -229q-6 -35 6.5 -45t33.5 -3t45 27.5t41 47.5l1 2q0 1 1 1q3 4 8 13t11.5 22t13.5 28.5t12 32.5l1 1q0 1 2 3q2 3 5.5 5t9.5 0z" />
    <glyph glyph-name="s" unicode="s" horiz-adv-x="373" 
d="M352 375q0 -2 0.5 -2.5t0.5 -2.5q0 -7 -3 -13q-4 -11 -13.5 -17.5t-20.5 -6.5q-16 0 -27 10.5t-11 26.5q0 13 7.5 22.5t18.5 13.5q-31 35 -63 29t-57 -41q-7 -13 -10 -28q-2 -13 1 -30t19 -37t33.5 -39t31.5 -39.5t22 -43.5t5 -51q-2 -11 -8 -31t-22.5 -39.5t-47 -35.5
t-81.5 -19h-10.5t-14.5 2h-2q-1 0 -2 0.5t-2 0.5h-1q-10 2 -18 4.5t-15 7.5q-10 4 -18 12q-8 7 -14.5 18.5t-8.5 29.5q-2 16 2.5 25.5t10.5 14.5q7 6 16 8q-4 -18 -1 -34q2 -14 11.5 -26.5t32.5 -16.5q22 -4 36 3.5t20.5 19.5t8 25t-0.5 20q0 14 -9 30t-35 36
q-29 23 -47 53.5t-23 62.5l-10.5 -42.5t-9.5 -33.5q-3 -9 -9 -14t-12 -5t-9 6t2 19q6 16 12.5 41t16.5 53t25 56.5t37 51t52.5 36.5t72.5 14q7 0 24.5 -2t38 -10t41 -25t33.5 -48q4 -10 4 -19z" />
    <glyph glyph-name="t" unicode="t" horiz-adv-x="387" 
d="M422 620q14 -21 15 -40q1 -17 -13 -35.5t-55 -31.5q-44 -15 -92.5 -15t-98.5 7l-24 -129l-21.5 -119l-17 -95l-10.5 -56q-6 -36 6.5 -46.5t33.5 -3.5t44.5 28t40.5 49h1q0 1 0.5 1.5t0.5 1.5q5 8 18.5 35t23.5 61v-1l1 2q2 2 2 3q2 3 5.5 5t9.5 0q8 -2 9 -9t0 -10v-2
q-2 -7 -11 -29.5t-22.5 -49.5t-32 -54t-39.5 -43q-29 -23 -60 -34.5t-60 -9.5q-23 1 -42 12t-31.5 32t-16.5 53.5t4 76.5l63 352q-11 2 -21 3.5t-20 3.5l-64 9l-52 7q-12 2 -20 7t-13 10q-6 6 -9 14l208 -5l41 233q3 14 10 28q6 12 16 26.5t25 27.5t30 19.5t26 8.5
q13 3 25 2h8q4 1 15.5 1.5t28.5 1.5q7 0 22 -2.5t31.5 -9t31.5 -20t23 -35.5q9 -26 6.5 -59.5t-17 -68t-41 -67.5t-63.5 -58q-15 -8 -30.5 -14.5t-32.5 -11.5l8 39q15 6 43 28.5t57 78.5q8 14 13 40.5t3.5 53.5t-10.5 47t-30 22q-8 1 -15 -1.5t-13.5 -11.5t-13.5 -25
t-16 -42l-12 -39t-10.5 -39l-8 -34t-4.5 -24l-18 -99q10 0 31 -1t46 0t49.5 3.5t41.5 8.5q20 7 31.5 14l19.5 12q8 6 13 12z" />
    <glyph glyph-name="u" unicode="u" horiz-adv-x="544" 
d="M565 241q8 -2 8.5 -9t-0.5 -10q0 -1 -0.5 -1t-0.5 -1q-2 -8 -11 -30t-23.5 -49t-33.5 -54t-41 -43q-55 -42 -111 -44h-9q-26 2 -47 15.5t-32 41.5q-4 8 -7.5 24.5t-3.5 40.5q-13 -23 -29 -43.5t-34 -34.5q-26 -21 -55 -32t-56 -12h-9q-26 2 -47 15.5t-32 41.5
q-5 12 -9.5 38.5t4.5 67.5v3l2 7v2q1 1 1 3l46 227l9 19.5t16 20.5q5 5 10 9t13 8q17 9 34 12.5t28 3.5h33l-3 -12l-27 -131l-47 -231q-6 -35 6 -45t33 -2.5t45.5 28.5t41.5 48h1q0 2 1 2q5 8 18 32t24 56l37 182l9 19.5t16 20.5q5 5 10 9t12 8q18 9 34.5 12.5t27.5 3.5h33
q-2 -6 -2 -12l-27 -131l-47 -231q-6 -35 6 -45t33 -2.5t45 28.5t41 48h1l2 2q5 8 19.5 35.5t25.5 60.5v2l2 2q2 3 5.5 5.5t10.5 0.5z" />
    <glyph glyph-name="v" unicode="v" horiz-adv-x="570" 
d="M587 241q8 -3 8.5 -9.5t-0.5 -10.5v-1l-6 -18q-2 -8 -6 -17q-3 -8 -8 -17t-10 -19l-3 -3v-1q-7 -11 -16.5 -20t-21 -14.5t-25.5 -6t-30 7.5q-28 14 -39.5 44t-14.5 61q-4 36 0 78v3q-13 -34 -27.5 -68t-31.5 -63q-45 -73 -89.5 -118t-89.5 -50q-6 0 -9 1q-27 1 -52 15
t-43 42q-8 11 -20 37.5t-15 67.5q0 2 -1 4v11l-5 62l-5.5 -16.5t-4.5 -12.5q-6 -17 -24 -9q-5 2 -5 6.5t1 9.5t4 11l28 92l-6 85q1 8 3.5 18.5t10.5 21.5q7 10 18 16q8 7 20 10q16 5 33 7h37q0 -8 1 -12q2 -34 4.5 -66.5t5.5 -64.5l16 -231q3 -32 16 -43t29 -8l14 11.5
t35 36.5t46.5 65t50.5 99q30 71 46 115t24 68l34 -9q-1 -3 -2 -6.5t-2 -8.5l2 1l-1 -1q-13 -72 -17 -131q-2 -25 -1.5 -49.5t3.5 -45t10.5 -35t19.5 -18.5q15 -6 28 -2t23 12.5t17 20t12 20.5l13 34v1l1 1q0 1 0.5 1t0.5 1v1q6 8 16 6z" />
    <glyph glyph-name="w" unicode="w" horiz-adv-x="775" 
d="M796 246q8 -2 8.5 -8.5t-0.5 -10.5v-1h-1l-6 -18q-2 -8 -6 -17q-3 -8 -7.5 -17t-10.5 -19q-1 -1 -1 -4h-1q-8 -11 -17 -20.5t-20.5 -15t-25.5 -5.5t-30 8q-28 14 -40 43.5t-15 60.5q-4 36 1 78l1 4l-29 -68.5t-31 -63.5q-31 -51 -60 -86l-19.5 -23t-20.5 -19l-5 -4
q-23 -18 -43 -27v2q-33 -13 -63 -15h-9q-26 2 -47.5 15.5t-32.5 41.5q-3 8 -7 24.5t-3 39.5q-13 -23 -29 -43t-33 -34q-27 -21 -56 -32t-55 -12h-10q-26 2 -47 15.5t-32 41.5q-5 12 -9 38.5t4 67.5v3q1 3 1 7v1l1 1v3l47 227q3 9 8 19.5t16 20.5q10 10 24 17q17 9 33.5 12.5
t27.5 3.5h33l-2 -12l-27 -131l-24.5 -119.5l-22.5 -111.5q-7 -35 5.5 -45t33.5 -2.5t45.5 28.5t41.5 48q0 1 1 2q5 8 17.5 31.5t23.5 53.5l39 185q2 9 7.5 19.5t16.5 20.5q5 5 10 9t13 8q17 9 33.5 12.5t27.5 3.5h33q0 -4 -2 -12l-13.5 -66.5l-12.5 -64.5l-47 -231
q-6 -31 -0.5 -43t18.5 -9.5t30.5 17t34.5 35.5t32 46.5t23 50.5q12 40 22.5 82t18.5 79l14 64.5t10 39.5q6 4 20.5 4.5t30 -2.5t28.5 -9t15 -14l-5 -15q2 0 2 1v-1q-13 -72 -17 -131q-2 -25 -2 -49.5t3.5 -45t11 -35t19.5 -18.5q15 -6 27.5 -2.5t22.5 12t17 20t12 21.5
q4 8 7.5 16.5t6.5 17.5v2q2 2 2 3q2 2 5.5 4.5t10.5 0.5z" />
    <glyph glyph-name="x" unicode="x" horiz-adv-x="540" 
d="M388 382q-5 -4 -12.5 -11l-16.5 -15.5l-18 -16.5l-15 -13l-41 -33t-74 -57l3 -10q7 -23 18.5 -53t29.5 -56.5t42 -44.5t56 -16q28 2 51 21.5t52 53.5l44 70t32.5 60t14.5 30q21 7 19.5 -12.5t-18 -53t-44 -74.5t-59.5 -77.5t-65 -61.5t-59 -26q-28 -1 -53.5 10.5
t-47 30.5t-40 42t-33.5 44q-9 19 -5.5 37.5t11.5 32.5q9 17 24 32l-61 -49q-35 -30 -64 -61t-51.5 -59.5t-39.5 -53t-27 -41.5q-8 13 -13 30t-2 41q3 18 19.5 40t41.5 45.5t56 47.5l63 47l-7 19q-4 10 -5 15q-2 3 -2 5t-1 4t-1 3l-1 1v1l-1 2l-24 87l-22 -68t-19 -52
q-7 -18 -23 -8q-5 2 -5 6t1 9t4 11l47 157l-10 36q0 7 0.5 15t5.5 16q4 7 15 13q12 8 25.5 10.5t24.5 2.5h31q0 -5 3 -9q7 -27 14.5 -52.5l14.5 -50.5l31 -107q17 11 31 21t24 18q45 34 74 63t41 42z" />
    <glyph glyph-name="y" unicode="y" horiz-adv-x="499" 
d="M335 -56h1l-54 -267q-4 -14 -11 -28q-6 -12 -16 -26.5t-25 -27.5q-16 -14 -31 -20t-26 -8q-13 -3 -25 -1q-6 -1 -13 -2q-6 -1 -14 -1.5t-18 -0.5q-8 0 -23 2.5t-31 9t-31 19.5t-23 36q-10 26 -7.5 59.5t17 68t40.5 67.5t64 58q15 8 31 14.5t33 11.5l-9 -39
q-15 -6 -43 -28.5t-57 -78.5q-8 -14 -15.5 -40t-8.5 -52.5t8 -48t34 -25.5q16 -4 31.5 13t33.5 70l10.5 36t9.5 37l71 345q-11 -16 -22.5 -29.5t-25.5 -23.5q-26 -21 -55 -32t-56 -12h-9q-26 2 -47 15.5t-32 41.5q-5 12 -9.5 38.5t4.5 67.5v3l2 7v2q1 1 1 3l46 227l9 19.5
t16 20.5q5 5 10 9t13 8q17 9 34 12.5t28 3.5h33l-3 -12l-27 -131l-47 -231q-6 -35 6 -45t33 -2.5t45.5 28.5t41.5 48h1q0 2 1 2q3 5 11 19.5t16 34.5l17.5 84.5l14.5 68.5l13 63q5 13 14.5 28.5t33.5 28.5q14 7 27 10t24 5q12 2 25 1h18l-29 -143l-6 -29.5l-9 -45l-11 -54.5
l-12 -58l-30 -148z" />
    <glyph glyph-name="z" unicode="z" horiz-adv-x="372" 
d="M391 241q9 -2 9 -9v-10q0 -1 -1 -2q-2 -8 -11 -30t-23.5 -49t-33.5 -54t-41 -43q-9 -8 -18 -13.5t-19 -10.5q-14 -32 -32 -60t-43 -50q-26 -23 -51 -33t-42 -14q-18 -2 -36.5 -2.5t-35.5 1.5q-1 0 -2 0.5t-3 0.5h-6q-11 2 -18.5 5t-13.5 7q-7 4 -12 9l-1 1q-8 8 -11 22
t3 35q4 14 23 27.5t42.5 25t47 19.5t35.5 11q-5 -9 -8 -18t-7 -18q-9 -3 -26.5 -11.5t-44.5 -24.5q-22 -13 -28 -23.5t-4.5 -18t7 -11.5l5.5 -4q21 -3 44 10.5t43.5 39.5t37.5 62.5t26 79.5l5 33q1 2 1 8q1 7 1 16v18t-1 21q-2 18 -7.5 36.5t-16.5 35.5l-13 15q-24 17 -50 9
q-18 -20 -31.5 -37l-22.5 -29q-9 10 -14 25t-1 37q3 16 23 36t48 41.5t60 43l59 39.5q-8 -2 -15 -4.5t-16 -6.5q-21 -7 -46 -18.5t-49.5 -18.5t-46.5 -5.5t-35 19.5q-17 21 -20.5 50.5t-1.5 52.5q9 -10 23.5 -19.5t31.5 -7.5h14t28 1t38 2l42 2q49 3 111 6q2 -13 -2 -32.5
t-24 -36.5l-59 -48t-55 -50q20 -3 38.5 -7.5t36 -13t34.5 -23t35 -37.5q18 -22 24.5 -48.5t7.5 -50.5t-1.5 -43t-3.5 -26q31 22 55 60h2v2q5 8 19.5 35.5t25.5 60.5l1 2l2 2q2 3 5.5 5.5t9.5 0.5z" />
    <glyph glyph-name="d.salt" unicode="&#xe001;" horiz-adv-x="572" 
d="M538 619q7 3 18.5 9.5t24.5 19t27.5 31.5t28.5 48q9 13 14 39.5t3.5 53.5t-10.5 47.5t-30 22.5q-8 0 -15 -2.5t-13.5 -11t-13.5 -24.5t-16 -42q-9 -24 -15.5 -50.5l-11.5 -48.5l-124 -603q-6 -35 6 -45t33 -3t45.5 28t41.5 48l1 1v2q5 8 19.5 35t25.5 61l1 2l2 2
q2 3 5.5 5t9.5 0q9 -2 9.5 -9t-0.5 -9v-2q-2 -8 -11.5 -30t-24 -49t-33.5 -54t-40 -43q-27 -21 -56.5 -32.5t-55.5 -11.5h-9q-27 2 -48 16t-32 43l7 22q5 20 -1.5 33t-13.5 21q1 9 2.5 18.5t3.5 20.5l44 214q-22 39 -51.5 41.5t-59 -21t-54 -69t-36.5 -102.5
q-9 -42 -10 -76.5t5 -58.5t19.5 -35.5t33.5 -7.5q-1 -1 -2 -1q6 0 21 5.5t28 22.5t13.5 25.5t-0.5 10.5q20 -12 23.5 -27.5t-4.5 -31t-24.5 -29.5t-36.5 -24t-40.5 -14t-36.5 0l1 1q-29 0 -55.5 10.5t-45 31.5t-28.5 52.5t-6 73.5q5 57 22 111t47.5 97.5t76.5 70.5t109 30
q6 0 17.5 -1t26 -5t29.5 -12t28 -22l74 373q4 14 11 28q6 12 15.5 26.5t25.5 27.5q21 18 56 27t71 6.5t66.5 -18.5t42.5 -49q9 -26 6.5 -59.5t-17 -68t-40.5 -67.5t-63 -58q-16 -8 -32 -14.5t-33 -11.5zM-401 676q59 19 126.5 20t136 -7.5t133 -21.5t117.5 -21l96 -14
t75 -10q37 -4 66 -8l-9 -35l-471 11q-50 3 -97 3q-40 0 -82.5 -3t-71.5 -13q-28 -11 -45 -20.5t-27 -17.5q-11 -9 -17 -17q-22 29 -24 57q-1 12 2.5 25t14 25.5t29 24.5t48.5 22z" />
    <glyph glyph-name="h.salt" unicode="&#xe002;" 
d="M550 241q8 -2 8.5 -9t-0.5 -10q0 -1 -0.5 -1t-0.5 -1q-2 -8 -11 -30t-23.5 -49t-33.5 -54t-41 -43q-55 -42 -111 -44h-9q-26 2 -47 15.5t-32 41.5q-5 12 -9.5 38.5t4.5 67.5v3q0 2 0.5 3.5t0.5 3.5l1 1v1q0 2 1 3l46 227l9 19.5t15 20.5h-41q-16 0 -33 -4
q-14 -4 -31.5 -13.5t-33.5 -29.5l-11 -13q-2 -3 -5.5 -10t-8.5 -18l-5 -22q-2 -13 -4.5 -25.5l-5.5 -26.5l-37 -179q-4 -19 -4 -36q-1 -14 2 -29t13 -23l11 -9q-11 -3 -22 -5t-22 -2h-9q-44 2 -69 37l-6 12q-6 13 -10 30q-3 14 -4 35t5 49v1q3 13 3 16l23 112h-2l24 113v4
l81 399q3 14 10 28q6 12 15.5 26t25.5 27q21 18 56 27t71 6.5t66.5 -18.5t42.5 -48q9 -26 6.5 -59.5t-16.5 -68t-40.5 -67.5t-63.5 -58q-15 -8 -31.5 -14.5t-33.5 -11.5l9 39q16 6 43.5 28.5t56.5 78.5q9 14 14 40.5t3.5 53.5t-11 47t-30.5 22q-8 0 -15 -2.5t-13.5 -11
t-13.5 -24.5t-16 -42q-8 -24 -15 -50.5t-12 -48.5l-47 -229h2q-2 -8 -3.5 -15.5t-3.5 -15.5q5 4 10 7t12 6q20 8 41.5 12t38.5 6q20 2 40 0h122q-2 -6 -2 -12l-27 -131l-47 -231q-7 -35 5.5 -45t33.5 -2.5t45 28.5t41 48h1q1 1 1 2q5 8 20 35.5t26 60.5v2l2 2q2 3 5.5 5.5
t10.5 0.5zM-608 676q51 19 110 20t118.5 -7.5t116 -21.5t102.5 -21q47 -8 84.5 -13.5t65.5 -10.5l58 -9l-8 -35l-410 11q-44 3 -85 3q-35 0 -72.5 -3t-61.5 -13q-25 -11 -40.5 -20.5t-23.5 -17.5q-11 -10 -15 -18q-19 30 -21 58q-1 12 2 25t12 26t25.5 25t42.5 22z" />
    <glyph glyph-name="k.salt" unicode="&#xe003;" 
d="M550 241q8 -2 8.5 -9t-0.5 -10q-1 -1 -1 -2q-2 -8 -11.5 -30t-23.5 -49t-33 -54t-41 -43q-55 -42 -111 -44h-9q-26 2 -47 15.5t-32 41.5q-5 12 -9.5 38.5t4.5 67.5v3q0 2 0.5 3.5t0.5 3.5v1l1 1v3l47 227q3 9 8.5 19.5t15.5 20.5h-41q-16 0 -33 -4q-14 -4 -31.5 -13.5
t-33.5 -29.5l-11 -13q-2 -3 -5.5 -10t-8.5 -18l-5 -22q-2 -13 -4.5 -25.5l-5.5 -26.5l-37 -179q-3 -19 -4 -36q-1 -14 1.5 -29t12.5 -23l12 -9q-11 -3 -22 -5t-22 -2h-9q-21 1 -39 10t-30 27l-6 12q-6 13 -10 30q-3 14 -4 35t5 49v1q3 13 3 16l23 112h-2l24 113v4l81 399
q3 14 10 28q6 12 15.5 26t25.5 27q21 18 56 27t71 6.5t66.5 -18.5t42.5 -48q9 -26 6.5 -59.5t-16.5 -68t-40.5 -67.5t-63.5 -58q-15 -8 -31.5 -14.5t-33.5 -11.5l9 39q16 6 43.5 28.5t56.5 78.5q9 14 14 40.5t3.5 53.5t-11 47t-30.5 22q-8 0 -15 -2.5t-13.5 -11t-13.5 -24.5
t-16 -42q-8 -24 -15 -50.5t-12 -48.5l-47 -229h2q-2 -8 -3.5 -15.5t-3.5 -15.5q5 4 10 7t11 6h1l171 119q19 12 36 25q14 11 28 24t20 27t8 23.5t2 17.5t-1 15q21 -11 33 -26q11 -13 15.5 -32.5t-8.5 -46.5t-37 -46t-52 -33t-57 -24.5t-51 -20.5l-8 -4h15h6h122
q-2 -6 -2 -12l-27 -131l-48 -231q-6 -35 6.5 -45t33.5 -2.5t45 28.5t41 48h1q1 1 1 2q5 8 20 35.5t26 60.5v2q0 2 2 2q2 3 5.5 5.5t10.5 0.5zM-608 676q51 19 110 20t118.5 -7.5t116 -21.5t102.5 -21q47 -8 84.5 -13.5t65.5 -10.5l58 -9l-8 -35l-410 11q-44 3 -85 3
q-35 0 -72.5 -3t-61.5 -13q-25 -11 -40.5 -20.5t-23.5 -17.5q-11 -10 -15 -18q-19 30 -21 58q-1 12 2 25t12 26t25.5 25t42.5 22z" />
    <glyph glyph-name="l.salt" unicode="&#xe004;" horiz-adv-x="281" 
d="M225 616q14 5 42.5 27.5t57.5 78.5q8 14 13 41t3.5 53.5t-10.5 47t-30 22.5q-9 0 -15.5 -2.5t-13.5 -11t-14 -24.5t-16 -43q-6 -18 -11.5 -38.5t-10 -39.5l-8 -34t-4.5 -24l-19.5 -106l-21 -115l-20.5 -113.5l-18.5 -101.5l-15 -80t-8.5 -48q-6 -36 6 -46.5t33 -3
t44.5 28.5t40.5 48l1 1l2 2q5 8 18 35.5t24 60.5l1 2q0 2 2 2q2 3 5.5 5.5t9.5 0.5q8 -3 8.5 -9.5t0.5 -9.5q0 -2 -1 -2q-2 -8 -10.5 -30t-22.5 -49t-32 -54t-39 -44q-29 -23 -60 -34t-60 -9q-23 1 -42 12t-31.5 32t-16.5 53t4 76l113 635q3 14 10 28q6 12 15.5 26t25.5 27
q21 18 56.5 27t72.5 6t68.5 -19t42.5 -47q10 -26 7.5 -59.5t-17 -68.5t-41 -68t-63.5 -58q-15 -8 -31 -14t-33 -11zM-610 676q51 19 110.5 20t119 -7.5t116 -21.5t102.5 -21q47 -8 84.5 -13.5t65.5 -10.5l58 -9l-9 -35l-410 11q-44 3 -85 3q-35 0 -72.5 -3t-61.5 -13
q-25 -11 -40 -20.5t-24 -17.5q-11 -10 -15 -18q-19 30 -21 58q-1 12 2 25t12 26t25.5 25t42.5 22z" />
    <glyph glyph-name="m.salt" unicode="&#xe005;" horiz-adv-x="774" 
d="M180 478l-3 -14l-3 -17q5 4 10 7l10 6q20 8 41.5 12t39.5 6q20 2 40 0h109q-4 -15 -6 -31q7 6 21 13q20 8 41.5 12t38.5 6q20 2 40 0h123q-3 -5 -3 -12l-27 -131l-47 -231q-6 -35 6 -45t33 -2.5t45 28.5t41 48h2q0 2 1 2q5 8 19.5 35.5t25.5 60.5v2l2 2q2 3 5.5 5.5
t10.5 0.5q8 -2 8.5 -9t-0.5 -10q0 -1 -1 -2q-2 -8 -11 -30t-23.5 -49t-33.5 -54t-41 -43q-55 -42 -111 -44h-9q-26 2 -47 15.5t-32 41.5q-5 12 -9.5 38.5t4.5 67.5v3l2 7v2q0 1 0.5 1.5t0.5 1.5l38 186q4 22 17 37t27.5 24.5t27 14t16.5 5.5h-105q-12 0 -38.5 -8t-51.5 -39
l-10 -13q-2 -3 -6 -10t-9 -18l-5 -22q-2 -13 -4.5 -25.5l-5.5 -26.5l-37 -179q-4 -19 -4 -36q-1 -14 2 -29t13 -23l11 -9q-11 -3 -21.5 -5t-21.5 -2h-10q-43 2 -69 37l-6 12q-6 13 -10 30q-3 14 -4 35t5 49v1q3 13 3 16l38 185l16 80h-11q-16 0 -33 -4q-14 -4 -31.5 -13.5
t-33.5 -29.5l-11 -13q-2 -3 -5.5 -10t-8.5 -18l-4 -22l-6 -25.5t-5 -26.5l-37 -179q-3 -19 -4 -36q-1 -14 1.5 -29t12.5 -23q4 -2 6.5 -4.5t5.5 -4.5q-11 -3 -21.5 -5t-21.5 -2h-9q-46 2 -69 37q-5 6 -6 12q-7 13 -11 30q-3 14 -4 35t5 49l1 1q1 7 1.5 11t0.5 5l46 225
q0 2 1 4l1 1q1 7 6 20.5t16.5 27t31 24.5t50.5 13q-58 8 -115 13q-49 5 -104.5 8.5t-102.5 2.5q-18 -1 -41.5 -2t-48.5 -4t-50.5 -8.5t-46.5 -15.5q-22 -11 -35.5 -20.5t-21.5 -17.5q-9 -10 -13 -18q-16 30 -18 58q-2 24 12 51t59 47q45 19 97 20t104 -7.5t101.5 -21.5
t89.5 -21q41 -8 74 -13.5t57 -10.5l50 -9z" />
    <glyph glyph-name="n.salt" unicode="&#xe006;" 
d="M174 449l18 11q20 8 41.5 12t39.5 6q20 2 40 0h122q-2 -6 -2 -12l-27 -131l-48 -231q-6 -35 6.5 -45t33.5 -2.5t45 28.5t41 48h1q1 1 1 2q5 8 20 35.5t26 60.5v2q0 2 2 2q2 3 5.5 5.5t10.5 0.5q8 -2 8.5 -9t-0.5 -10q-1 -1 -1 -2q-2 -8 -11.5 -30t-23.5 -49t-33 -54
t-41 -43q-55 -42 -111 -44h-9q-26 2 -47 15.5t-32 41.5q-5 12 -9.5 38.5t4.5 67.5v3q0 2 0.5 3.5t0.5 3.5v1l1 1v3l40 192q6 22 17.5 36t24 22.5t24.5 12t19 4.5h-95q-16 0 -33 -4q-14 -4 -31.5 -13.5t-33.5 -29.5l-11 -13q-2 -3 -5.5 -10t-8.5 -18l-5 -22
q-2 -13 -4.5 -25.5l-5.5 -26.5l-37 -179q-3 -19 -4 -36q-1 -14 1.5 -29t12.5 -23l12 -9q-11 -3 -22 -5t-22 -2h-9q-44 2 -69 37l-6 12q-6 13 -10 30q-3 14 -4 35t5 49v1q3 13 3 16l46 225q2 4 3.5 8.5t4.5 9.5q3 10 9.5 21.5t18 22t29 18.5t43.5 10q-58 8 -115 13
q-49 5 -104.5 8.5t-102.5 2.5q-18 -1 -41.5 -2t-48.5 -4t-50.5 -8.5t-46.5 -15.5q-22 -11 -35.5 -20.5t-21.5 -17.5q-9 -10 -13 -18q-16 30 -18 58q-2 24 12 51t59 47q45 19 97 20t104 -7.5t101.5 -21.5t89.5 -21q41 -8 74 -13.5t57 -10.5l50 -9z" />
    <glyph glyph-name="r.salt" unicode="&#xe007;" horiz-adv-x="460" 
d="M412 379q0 -27 -19 -46t-46 -19q-28 0 -47 19t-19 46q0 12 -10 23.5t-25.5 17.5t-33.5 2t-34 -24l-11 -13q-2 -3 -5.5 -10t-8.5 -18l-5 -22l-10 -52l-37 -179q-3 -19 -4 -36q-1 -14 1.5 -29t12.5 -23l12 -9q-11 -3 -22 -5t-22 -2h-9q-44 2 -69 37l-6 12q-6 13 -10 30
q-3 14 -4 35t5 49v1q3 13 3 16l46 225q5 12 14.5 28t33.5 29q14 7 27 10t24 5q12 2 25 1h19l-7 -31q5 4 10 7t11 6q31 14 63 16.5t47 1.5h5h14h1q11 -1 25.5 -5.5t28 -14t23.5 -26.5t13 -44v-9z" />
    <glyph glyph-name="t.salt" unicode="&#xe008;" horiz-adv-x="387" 
d="M-473 627q57 22 122 22.5t130 -9t127 -23.5t113 -23l45 -8l39 222q3 14 10 28q6 12 16 26.5t25 27.5t30 19.5t26 8.5q13 3 25 2h8q4 1 15.5 1.5t28.5 1.5q7 0 22 -2.5t31.5 -9t31.5 -20t23 -35.5q9 -26 6.5 -59.5t-17 -68t-41 -67.5t-63.5 -58q-15 -8 -30.5 -14.5
t-32.5 -11.5l8 39q15 6 43 28.5t57 78.5q8 14 13 40.5t3.5 53.5t-10.5 47t-30 22q-8 1 -15 -1.5t-13.5 -11.5t-13.5 -25t-16 -42l-12 -39t-10.5 -39l-8 -34t-4.5 -24l-18 -99q10 0 31 -1t46 0t49.5 3.5t41.5 8.5q20 7 31.5 14l19.5 12q8 6 13 12q14 -21 15 -40
q1 -17 -13 -35.5t-55 -31.5q-44 -15 -92.5 -15t-98.5 7l-24 -129l-21.5 -119l-17 -95l-10.5 -56q-6 -36 6.5 -46.5t33.5 -3.5t44.5 28t40.5 49h1q0 1 0.5 1.5t0.5 1.5q5 8 18.5 35t23.5 61v-1l1 2q2 2 2 3q2 3 5.5 5t9.5 0q8 -2 9 -9t0 -10v-2q-2 -7 -11 -29.5t-22.5 -49.5
t-32 -54t-39.5 -43q-29 -23 -60 -34.5t-60 -9.5q-23 1 -42 12t-31.5 32t-16.5 53.5t4 76.5l63 351l-265 7q-48 3 -93 3q-38 0 -79.5 -3.5t-67.5 -14.5q-27 -11 -44 -22t-27 -19q-11 -10 -16 -19q-21 32 -23 63q-2 26 15.5 55t73.5 52z" />
    <glyph glyph-name="u.salt" unicode="&#xe009;" horiz-adv-x="544" 
d="M438 419l-6 -31l-11 -53l-47 -231q-6 -35 6 -45t33 -2.5t45 28.5t41 48h1l2 2q5 8 19.5 35.5t25.5 60.5v2l2 2q2 3 5.5 5.5t10.5 0.5q8 -2 8.5 -9t-0.5 -10q0 -1 -0.5 -1t-0.5 -1q-2 -8 -11 -30t-23.5 -49t-33.5 -54t-41 -43q-55 -42 -111 -44h-9q-26 2 -47 15.5
t-32 41.5q-4 8 -7.5 24.5t-3.5 40.5q-13 -23 -29 -43.5t-34 -34.5q-26 -21 -55 -32t-56 -12h-9q-26 2 -47 15.5t-32 41.5q-5 12 -9.5 38.5t4.5 67.5v3l2 7v2q1 1 1 3l46 227l9 19.5t16 20.5q5 5 10 9t13 8q17 9 34 12.5t28 3.5h33l-3 -12l-27 -131l-47 -231q-6 -35 6 -45
t33 -2.5t45.5 28.5t41.5 48h1q0 2 1 2q5 8 18 32t24 56l37 182l2 6q4 24 16 43q11 17 32 31.5t57 16.5q-58 8 -115 13q-49 5 -104.5 8.5t-102.5 2.5q-18 0 -41 -1t-48.5 -4t-51 -9t-46.5 -16q-22 -11 -35.5 -20.5t-21.5 -17.5q-9 -9 -13 -17q-17 30 -18 58q-2 24 12.5 50.5
t59.5 46.5t96.5 20.5t103.5 -8t101.5 -21.5t89.5 -21l74 -14t57 -10q28 -4 51 -8z" />
    <glyph glyph-name="a.salt" unicode="&#xe010;" horiz-adv-x="574" 
d="M459 367h-1l-5 -28l-47 -231q-7 -35 5.5 -45t33 -3t45 28t41.5 48l1 1v2q5 8 20 35t26 61l1 2q0 1 0.5 1t0.5 1q2 3 6 5t10 0q8 -2 8.5 -9t-0.5 -9v-2q-2 -8 -11.5 -30t-23.5 -49t-33 -54t-41 -43q-27 -21 -56 -32.5t-55 -11.5h-9q-27 2 -48 16t-32 43l6 22q5 20 -1 33
t-14 21q2 9 3 18.5t3 20.5l44 214q-22 39 -51.5 41.5t-58.5 -21t-54 -69t-37 -102.5q-9 -42 -10 -76.5t5 -58.5t19.5 -35.5t33.5 -7.5h1q-1 -1 -2 -1q5 0 20 5.5t29 22.5q7 9 9.5 16t3.5 12t-1 9q2 0 6 -1q7 -2 12 -6t8.5 -11t1.5 -21q-2 -11 -11.5 -25.5t-24.5 -27.5
q-23 -17 -52 -27t-58 -8v1q-29 0 -55 10.5t-44.5 31.5t-28.5 52.5t-6 73.5q5 57 21.5 111t47.5 97.5t76.5 70.5t108.5 30q6 0 19 -1t28 -5.5t30.5 -13.5t28.5 -25q5 8 12.5 15.5t18.5 14.5q11 8 25.5 12.5t34.5 6.5q-58 8 -115 13q-49 5 -104.5 8.5t-102.5 2.5
q-18 0 -41 -1.5t-48.5 -4.5t-51 -8.5t-46.5 -15.5q-22 -11 -35.5 -20.5t-21.5 -17.5q-9 -9 -13 -17q-17 30 -18 58q-2 24 12.5 50.5t59.5 46.5q45 19 96.5 20t103.5 -7.5t101.5 -21.5t89.5 -21l74 -14t57 -10q28 -4 51 -8z" />
    <glyph glyph-name="b.salt" unicode="&#xe011;" horiz-adv-x="544" 
d="M556 248q8 -2 8.5 -9t0.5 -10v-1h-1q-2 -8 -11 -30t-23.5 -49t-33.5 -54t-41 -43q-14 -11 -28.5 -20t-29.5 -14h-1q-3 -2 -6 -2.5t-5 -1.5q-32 -9 -67 -12t-64.5 -2.5t-49 2.5t-20.5 2q-51 3 -78 35q-11 12 -14.5 27t-0.5 26q3 13 9.5 20t13.5 12q4 2 7.5 3t5.5 2
q6 3 14 3q14 0 24 -10.5t10 -25.5q0 -18 -12 -28q2 -2 6 -2v1q18 -5 36 6.5t34 35.5t29.5 59t21.5 77q11 55 5 99.5t-24.5 68.5t-47.5 24t-65 -34l-25.5 -140.5t-19.5 -106.5q-21 -12 -35.5 -33.5t-10.5 -49.5q2 -25 14 -40.5t24 -23.5q-8 -2 -14.5 -2h-14.5q-23 1 -42 12
t-31.5 32t-16.5 53.5t4 76.5l113 633q3 14 10 28q6 12 16 26.5t25 28.5q15 13 30 19.5t26 8.5q13 3 25 2h5q1 0 13.5 1.5t32.5 1.5q8 0 23 -2.5t31 -9.5t31 -20t23 -35q9 -26 6.5 -59.5t-17 -68.5t-40.5 -67.5t-63 -57.5q-16 -8 -32 -14.5t-33 -11.5l9 39q7 3 18.5 9.5
t25 19t28 31.5t28.5 47q8 14 13 40.5t4 53.5t-10.5 47t-29.5 22q-9 1 -16 -1.5t-13.5 -11.5t-14 -25t-16.5 -42q-8 -26 -15 -53.5t-12 -50.5l-48 -263q18 13 35 20t32 10.5t26.5 4t16.5 0.5q62 -2 96.5 -29.5t48 -70.5t8 -97.5t-23.5 -111.5q-16 -48 -42.5 -81.5
t-58.5 -54.5l20 2t21 3q44 8 74.5 27.5t49.5 40.5q22 25 36 54q8 14 17 33.5t16 41.5v1l1 2l2 2q2 3 5.5 5t9.5 0zM-616 676q51 19 110.5 20t119 -7.5t116 -21.5t102.5 -21q47 -8 84.5 -13.5t65.5 -10.5l58 -9l-9 -35l-410 11q-44 3 -85 3q-35 0 -72.5 -3t-61.5 -13
q-25 -11 -40 -20.5t-24 -17.5q-11 -10 -15 -18q-19 30 -21 58q-1 12 2 25t12 26t25.5 25t42.5 22z" />
    <glyph glyph-name="f.salt" unicode="&#xe012;" horiz-adv-x="402" 
d="M-386 439q48 18 102.5 20t109.5 -5t108 -19t99 -21l30 167q3 14 10 28q5 12 15 26t25 28q21 18 56 27t71 6t66.5 -19t42.5 -47q10 -25 9 -56.5t-13 -64t-34 -64.5t-54 -57h26t30 1t29 3t24 7q15 7 24.5 14.5t14.5 12.5q6 6 9 12q6 -24 4 -46q-2 -19 -11.5 -40t-35.5 -35
q-21 -12 -44.5 -11t-50.5 7.5t-59 16t-70 14.5l-22 -125t-22 -123v-2q0 -1 -0.5 -1.5t-0.5 -1.5l-71 -399q-4 -14 -10 -28q-5 -12 -15 -26t-25 -27q-16 -14 -30.5 -20.5t-25.5 -8.5q-13 -3 -25 -1h-19q5 22 8.5 43t7.5 42l95 522h1l29 160l-171 5q-44 3 -85 3
q-35 0 -72.5 -3t-61.5 -13q-25 -11 -40.5 -20.5t-23.5 -17.5q-11 -10 -15 -18q-19 30 -21 58q-1 12 2 25t12 25.5t25.5 24.5t42.5 22zM157 393l10 -2h20q16 7 42.5 29t53.5 76q8 14 11.5 31t5 34t0.5 32t-2 26q0 9 -3 18q-3 13 -11.5 22.5t-24.5 14.5q-29 7 -60 -94
q-8 -25 -14 -51l-11 -48z" />
    <glyph glyph-name="g.salt" unicode="&#xe013;" horiz-adv-x="524" 
d="M482 482q-8 -37 -14.5 -72.5t-14.5 -70.5l-6 -29.5l-9 -45l-11 -54.5l-12 -58l-30 -148l-11 -57v1l-53 -267q-4 -14 -11 -28q-6 -12 -16 -26.5t-25 -27.5q-16 -14 -31 -20.5t-26 -8.5q-13 -3 -25 -1q-6 -1 -13 -2q-6 -1 -14.5 -1h-18.5q-8 0 -22.5 2t-31 9t-31.5 20
t-23 35q-9 26 -6.5 59.5t17 68.5t40.5 68t64 58q15 8 31 14t33 11l-9 -39q-8 -3 -19 -9t-24 -18.5t-27.5 -32t-29.5 -47.5q-8 -14 -15.5 -40t-8.5 -52.5t8 -48t34 -25.5q16 -3 31 13.5t33 69.5q6 17 11 36l10 37q11 49 24 115l28 138q14 10 28 24.5t21 37.5q9 27 1 46.5
t-22 31.5l17 80.5l14.5 71l11.5 56.5l8 38q-22 37 -51.5 39t-58.5 -22t-54 -68.5t-37 -101.5q-9 -42 -9.5 -76.5t5.5 -58.5t19.5 -35.5t33.5 -7.5q-1 -1 -2 -1q5 0 20.5 5.5t29.5 22.5q8 9 10 16t3 12q0 5 -1 9q2 0 6 -1q7 -2 12 -6t9 -11.5t2 -20.5q-2 -11 -12 -25.5
t-25 -27.5q-22 -17 -51.5 -27t-58.5 -8q-29 0 -55 10.5t-45 31.5t-28.5 53t-6.5 74q5 56 22 110.5t48 97.5t76.5 70.5t108.5 30.5q6 0 18.5 -1t27.5 -5.5t30.5 -13.5t28.5 -25q11 19 36 33q14 7 27 10t24 5q12 2 25 1h18zM1039 -38q50 -23 64.5 -50.5t11.5 -51.5
q-4 -28 -24 -57q-4 9 -14 19q-8 8 -23 19t-39 22t-61 16.5t-72 7.5q-41 2 -85 1l-410 11l10 34q21 2 50 6l60.5 7t82.5 10q46 5 103 15t117 15.5t119 1.5t110 -26z" />
    <glyph glyph-name="j.salt" unicode="&#xe014;" horiz-adv-x="255" 
d="M74 461q14 8 27.5 10.5l24.5 4.5q13 1 25 1h18l-26 -143q-2 -10 -5.5 -29.5l-8 -45l-10 -54.5l-10.5 -58l-27 -148l-9 -56v1l-48 -268q-4 -14 -10 -28q-5 -12 -14.5 -26.5t-24.5 -27.5q-16 -14 -30.5 -20t-25.5 -8q-13 -3 -25 -2q-6 -1 -13 -2q-6 -1 -14.5 -1h-18.5
q-8 0 -23 2.5t-31.5 9t-31.5 19.5t-23 35q-10 27 -8.5 60.5t15 68t39 67.5t62.5 58q15 8 31 14t33 11l-7 -39q-8 -3 -19 -9t-24 -18.5t-27.5 -31.5t-28.5 -47q-8 -14 -15 -40t-7 -52.5t9.5 -48t34.5 -26.5q17 -3 31 14t31 69q7 18 11.5 37l8.5 36l8 46.5l15 83l19 106
l21 115.5l55 303q5 13 14 28.5t32 28.5zM739 -38q50 -23 65 -50.5t12 -51.5q-4 -28 -24 -57q-4 9 -14 19q-8 8 -23 19t-39 22t-61 16.5t-72 7.5q-41 2 -85 1l-410 11l9 34q21 2 50 6l60.5 7t83.5 10q46 5 103 15t117 15.5t119 1.5t109 -26zM193 604q-6 -29 -11.5 -58.5
t-10.5 -59.5q-10 1 -28.5 6.5t-36.5 17.5t-31.5 32.5t-12.5 52.5l2 9h129z" />
    <glyph glyph-name="p.salt" unicode="&#xe015;" horiz-adv-x="544" 
d="M569 249q8 -3 8.5 -9.5t-0.5 -10.5v-1q-2 -8 -11.5 -30t-23.5 -49t-33 -54t-40 -43q-31 -23 -60 -33l-12 -5v1q-32 -9 -66.5 -12t-64 -2.5t-49.5 2t-21 1.5q-24 2 -44 11.5t-33 24.5q-11 12 -14.5 27t-0.5 26q4 12 10 19.5t13 11.5q4 2 8 3.5t7 2.5q4 1 6 1q-3 -4 -5 -9
t-2 -12t4 -16q5 -16 17 -21t19 -6q18 -4 36.5 7.5t34.5 35.5t29 58.5t22 76.5q11 57 4.5 102.5t-26 69t-50.5 20.5t-68 -42l-10 -46l-2 -6l-39 -192q-12 -7 -24.5 -20.5t-14.5 -33.5q-2 -23 3 -39t12 -27q-2 -6 -2.5 -10t-1.5 -7q-1 -4 -1 -6l-11 -56l1 1l-54 -268
q-3 -14 -10 -28q-6 -12 -16 -26.5t-25 -27.5q-16 -14 -31 -20t-26 -8q-13 -3 -25 -2q-6 -1 -13 -2q-6 -1 -14.5 -1h-18.5q-8 0 -23 2.5t-31.5 9t-31.5 19.5t-23 35q-9 27 -6 60.5t17 68t40 67.5t64 58q15 8 31 14t33 11l-8 -38q-8 -3 -19 -9.5t-24.5 -19t-28 -31.5
t-28.5 -47q-9 -14 -16.5 -40t-8 -52.5t8.5 -48t33 -26.5q17 -3 32 14t33 69q6 18 11 37l10 37q2 12 9 46.5l16.5 82.5l21.5 105.5l24 115.5l62 303q5 13 14.5 28.5t33.5 28.5q14 8 27 10.5l24 4.5q12 1 25 1h19l-9 -44q18 14 36.5 22t34.5 12t28 5t18 1q62 -3 96.5 -30
t48 -70.5t8 -97.5t-23.5 -111q-16 -48 -42.5 -82t-58.5 -54q10 0 20 1.5t21 3.5q44 7 74.5 27t49.5 41q22 25 36 53q8 14 16.5 34t16.5 42l1 2q1 1 1 3q2 2 6 4.5t10 0.5zM739 -38q50 -23 65 -50.5t12 -51.5q-4 -28 -24 -57q-4 9 -14 19q-8 8 -23 19t-39 22t-61 16.5
t-72 7.5q-41 2 -85 1l-410 11l9 34q21 2 50 6l60.5 7t83.5 10q46 5 103 15t117 15.5t119 1.5t109 -26z" />
    <glyph glyph-name="y.salt" unicode="&#xe016;" horiz-adv-x="499" 
d="M335 -56h1l-54 -267q-4 -14 -11 -28q-6 -12 -16 -26.5t-25 -27.5q-16 -14 -31 -20t-26 -8q-13 -3 -25 -1q-6 -1 -13 -2q-6 -1 -14 -1.5t-18 -0.5q-8 0 -23 2.5t-31 9t-31 19.5t-23 36q-10 26 -7.5 59.5t17 68t40.5 67.5t64 58q15 8 31 14.5t33 11.5l-9 -39
q-15 -6 -43 -28.5t-57 -78.5q-8 -14 -15.5 -40t-8.5 -52.5t8 -48t34 -25.5q16 -4 31.5 13t33.5 70l10.5 36t9.5 37l71 345q-11 -16 -22.5 -29.5t-25.5 -23.5q-26 -21 -55 -32t-56 -12h-9q-26 2 -47 15.5t-32 41.5q-5 12 -9.5 38.5t4.5 67.5v3l2 7v2q1 1 1 3l46 227l9 19.5
t16 20.5q5 5 10 9t13 8q17 9 34 12.5t28 3.5h33l-3 -12l-27 -131l-47 -231q-6 -35 6 -45t33 -2.5t45.5 28.5t41.5 48h1q0 2 1 2q3 5 11 19.5t16 34.5l17.5 84.5l14.5 68.5l13 63q5 13 14.5 28.5t33.5 28.5q14 7 27 10t24 5q12 2 25 1h18l-29 -143l-6 -29.5l-9 -45l-11 -54.5
l-12 -58l-30 -148zM999 -38q50 -23 64.5 -50.5t11.5 -51.5q-4 -28 -24 -57q-4 9 -14 19q-8 8 -23 19t-38 22q-24 11 -61.5 16.5t-72.5 7.5q-41 2 -85 1l-410 11l10 34q21 2 50 6l60.5 7t82.5 10q46 5 103.5 15t117.5 15.5t119 1.5t109 -26z" />
    <glyph glyph-name="a.ss01" unicode="&#xe017;" horiz-adv-x="574" 
d="M352 532q17 -11 35.5 -19.5t35 -15t29.5 -10.5t19 -5h10l-14 -72.5l-14 -70.5l-47 -231q-7 -35 5.5 -45t33 -3t45 28t41.5 48l1 1v2q5 8 20 35t26 61l1 2q0 1 0.5 1t0.5 1q2 3 6 5t10 0q8 -2 8.5 -9t-0.5 -9v-2q-2 -8 -11.5 -30t-23.5 -49t-33 -54t-41 -43
q-27 -21 -56 -32.5t-55 -11.5h-9q-27 2 -48 16t-32 43l6 22q5 20 -1 33t-14 21q2 9 3 18.5t3 20.5l44 214q-22 39 -51.5 41.5t-58.5 -21t-54 -69t-37 -102.5q-9 -42 -10 -76.5t5 -58.5t19.5 -35.5t33.5 -7.5h1q-1 -1 -2 -1q6 0 20.5 5.5t28.5 22.5q7 9 9.5 16t3.5 12t-1 9
q2 0 6 -1q7 -2 12 -6t8.5 -11t1.5 -21q-2 -11 -11.5 -25.5t-24.5 -27.5q-23 -17 -52 -27t-58 -8v1q-29 0 -55 10.5t-44.5 31.5t-28.5 52.5t-6 73.5q5 57 21.5 111t47.5 97.5t76.5 70.5t108.5 30q6 0 19 -1t28 -5.5t30.5 -13.5t28.5 -25q5 8 13.5 16.5t22.5 16.5q10 6 23 9
q-20 7 -44.5 17t-49.5 26q-9 -3 -20 -4.5t-31 -3t-51.5 -1.5t-80.5 1t-120 3.5t-169 6.5q-44 3 -85 3q-35 0 -72.5 -3.5t-61.5 -13.5q-25 -10 -40 -19.5t-24 -17.5q-11 -10 -15 -18q-19 30 -21 58q-1 12 2 25t12 25.5t25.5 24.5t42.5 22q51 20 110 21t119 -7.5t116.5 -21.5
t102.5 -21q67 -12 116.5 -19.5t72.5 -10.5q19 -1 35 0q-13 12 -23.5 26t-17.5 31q-11 26 -4 47t23.5 35.5t39.5 20.5t44 0t37 -25.5t20 -54.5q4 -36 -9.5 -58.5t-36.5 -36.5zM320 556q30 14 38 36.5t6 45.5v2q0 3 -2 10.5t-6 15t-11.5 13.5t-18.5 6q-13 0 -20.5 -9
t-11.5 -20t-5 -20.5t-1 -10.5q0 -2 0.5 -5.5t0.5 -6.5q2 -16 10 -30t21 -27z" />
    <glyph glyph-name="b.ss01" unicode="&#xe018;" horiz-adv-x="544" 
d="M556 248q8 -2 8.5 -9t0.5 -10v-1h-1q-2 -8 -11 -30t-23.5 -49t-33.5 -54t-41 -43q-14 -11 -28.5 -20t-29.5 -14h-1q-3 -2 -6 -2.5t-5 -1.5q-32 -9 -67 -12t-64.5 -2.5t-49 2.5t-20.5 2q-51 3 -78 35q-11 12 -14.5 27t-0.5 26q3 13 9.5 20t13.5 12q4 2 7.5 3t5.5 2
q6 3 14 3q14 0 24 -10.5t10 -25.5q0 -18 -12 -28q2 -2 6 -2v1q18 -5 36 6.5t34 35.5t29.5 59t21.5 77q11 55 5 99.5t-24.5 68.5t-47.5 24t-65 -34l-25.5 -140.5t-19.5 -106.5q-21 -12 -35.5 -33.5t-10.5 -49.5q2 -25 14 -40.5t24 -23.5q-8 -2 -14.5 -2h-14.5q-23 1 -42 12
t-31.5 32t-16.5 53.5t4 76.5l113 633q3 14 10 28q6 12 16 26.5t25 28.5q15 13 30 19.5t26 8.5q13 3 25 2h5q1 0 13.5 1.5t32.5 1.5q8 0 23 -2.5t31 -9.5t31 -20t23 -35q9 -26 6.5 -59.5t-17 -68.5t-40.5 -67.5t-63 -57.5q-16 -8 -32 -14.5t-33 -11.5l9 39q7 3 18.5 9.5
t25 19t28 31.5t28.5 47q8 14 13 40.5t4 53.5t-10.5 47t-29.5 22q-9 1 -16 -1.5t-13.5 -11.5t-14 -25t-16.5 -42q-8 -26 -15 -53.5t-12 -50.5l-48 -263q18 13 35 20t32 10.5t26.5 4t16.5 0.5q62 -2 96.5 -29.5t48 -70.5t8 -97.5t-23.5 -111.5q-16 -48 -42.5 -81.5
t-58.5 -54.5l20 2t21 3q44 8 74.5 27.5t49.5 40.5q22 25 36 54q8 14 17 33.5t16 41.5v1l1 2l2 2q2 3 5.5 5t9.5 0zM-70 673q20 -13 40 -22t36 -15q18 -7 36 -12l-9 -34q-22 4 -46 13q-20 8 -44.5 21t-47.5 35q-9 -3 -20.5 -4.5t-31 -3t-51 -1.5t-81 1t-120 3t-168.5 6
q-44 4 -85 4q-35 0 -72.5 -3.5t-61.5 -13.5q-25 -10 -40.5 -20t-23.5 -18q-11 -10 -15 -18q-19 30 -21 58q-1 12 2 25t12 26t25.5 25t42.5 22q51 20 110 20.5t118.5 -8t116 -21.5t102.5 -21l117.5 -18.5t72.5 -11.5h18.5t16.5 1q-27 24 -41 56q-10 26 -3.5 47.5t23 36
t39.5 20.5t44 0t37 -25.5t20 -54.5q3 -36 -10.5 -59t-36.5 -36zM-101 697q30 13 38 36t6 46v2q0 3 -2 10.5t-6 15t-11.5 13t-18.5 5.5q-13 0 -20.5 -9t-11.5 -20t-5 -20t-1 -10v-13q2 -16 10.5 -29.5t21.5 -26.5z" />
    <glyph glyph-name="c.ss01" unicode="&#xe019;" horiz-adv-x="421" 
d="M156 521q29 -19 61 -31t49 -17q11 -2 24.5 -5.5t27 -11t25.5 -19.5t20 -30q10 -25 9 -35v-5q0 -16 -11 -27t-27 -11t-27 11t-11 27q0 14 8 24t21 13q-23 29 -51 27t-55.5 -27t-50.5 -68.5t-35 -97.5l-5 -32q0 -2 -0.5 -4t-0.5 -4q-4 -37 2 -70q5 -28 20.5 -54.5
t49.5 -36.5q33 -10 62 -1t51.5 24.5t37 33t19.5 24.5q5 5 10 15l1 1q1 0 1 2q5 8 18.5 35t24.5 61l1 2l2 2q2 3 5.5 5t9.5 0q8 -2 8.5 -9t0.5 -9t-1 -2v-1q-2 -7 -10.5 -29.5t-22.5 -49.5t-32 -54t-39 -43q-29 -23 -59.5 -34.5t-59.5 -9.5l1 1q-5 -1 -10.5 -1h-12.5l-15 2
q-23 3 -43 7t-39.5 12.5t-38 23.5t-38.5 40q-19 24 -25.5 53t-6.5 54.5t3 43.5t4 21q10 38 26.5 73t40.5 63t55.5 47.5t71.5 28.5q-18 6 -38.5 15t-41.5 23q-9 -2 -20 -4t-31 -3.5t-51.5 -1.5t-80.5 1t-120 3.5t-169 6.5q-44 3 -85 3q-35 0 -72.5 -3.5t-61.5 -13.5
q-25 -10 -40 -19.5t-24 -17.5q-11 -10 -15 -18q-19 30 -21 58q-1 12 2 25t12 25.5t25.5 24.5t42.5 22q51 20 110 21t119 -7.5t116.5 -21.5t102.5 -21q67 -12 116.5 -19.5t72.5 -10.5q19 -1 35 0q-13 12 -23.5 26t-17.5 31q-10 25 -3.5 46.5t23 36t39.5 20.5t44 0t37 -25.5
t20 -54.5q4 -36 -9.5 -58.5t-36.5 -36.5zM124 545q30 14 38 36.5t6 45.5v2q0 3 -2 10.5t-6 15t-11.5 13.5t-18.5 6q-13 0 -20.5 -9t-11.5 -20t-5 -20.5t-1 -10.5q0 -2 0.5 -5.5t0.5 -6.5q2 -16 10 -30t21 -27z" />
    <glyph glyph-name="d.ss01" unicode="&#xe020;" horiz-adv-x="572" 
d="M538 619q7 3 18.5 9.5t24.5 19t27.5 31.5t28.5 48q9 13 14 39.5t3.5 53.5t-10.5 47.5t-30 22.5q-8 0 -15 -2.5t-13.5 -11t-13.5 -24.5t-16 -42q-9 -24 -15.5 -50.5l-11.5 -48.5l-124 -603q-6 -35 6 -45t33 -3t45.5 28t41.5 48l1 1v2q5 8 19.5 35t25.5 61l1 2l2 2
q2 3 5.5 5t9.5 0q9 -2 9.5 -9t-0.5 -9v-2q-2 -8 -11.5 -30t-24 -49t-33.5 -54t-40 -43q-27 -21 -56.5 -32.5t-55.5 -11.5h-9q-27 2 -48 16t-32 43l7 22q5 20 -1.5 33t-13.5 21q1 9 2.5 18.5t3.5 20.5l44 214q-22 39 -51.5 41.5t-59 -21t-54 -69t-36.5 -102.5
q-9 -42 -10 -76.5t5 -58.5t19.5 -35.5t33.5 -7.5q-1 -1 -2 -1q7 0 21.5 5.5t27.5 22.5t13.5 25.5t-0.5 10.5q20 -12 23.5 -27.5t-4.5 -31t-24.5 -29.5t-36.5 -24t-40.5 -14t-36.5 0l1 1q-29 0 -55.5 10.5t-45 31.5t-28.5 52.5t-6 73.5q5 57 22 111t47.5 97.5t76.5 70.5
t109 30q6 0 17.5 -1t26 -5t29.5 -12t28 -22l74 373q4 14 11 28q6 12 15.5 26.5t25.5 27.5q21 18 56 27t71 6.5t66.5 -18.5t42.5 -49q9 -26 6.5 -59.5t-17 -68t-40.5 -67.5t-63 -58q-16 -8 -32 -14.5t-33 -11.5zM240 663q20 -13 40 -22t36 -15q18 -7 36 -12l-9 -34
q-22 4 -46 13q-20 8 -44.5 21t-47.5 35q-9 -3 -20.5 -4.5t-31 -3t-51 -1.5t-81 1t-120 3t-168.5 6q-44 4 -85 4q-35 0 -72.5 -3.5t-61.5 -13.5q-25 -10 -40.5 -20t-23.5 -18q-11 -10 -15 -18q-19 30 -21 58q-1 12 2 25t12 26t25.5 25t42.5 22q51 20 110 20.5t118.5 -8
t116 -21.5t102.5 -21l117.5 -18.5t72.5 -11.5h18.5t16.5 1q-27 24 -41 56q-10 26 -3.5 47.5t23 36t39.5 20.5t44 0t37 -25.5t20 -54.5q3 -36 -10.5 -59t-36.5 -36zM209 687q30 13 38 36t6 46v2q0 3 -2 10.5t-6 15t-11.5 13t-18.5 5.5q-13 0 -20.5 -9t-11.5 -20t-5 -20
t-1 -10v-13q2 -16 10.5 -29.5t21.5 -26.5z" />
    <glyph glyph-name="e.ss01" unicode="&#xe021;" horiz-adv-x="423" 
d="M156 521q29 -19 61 -31t49 -17q16 -2 36 -9t38 -24q24 -23 31 -58t-4.5 -70.5t-41.5 -66t-80 -44.5q-31 -10 -59.5 -5.5t-40.5 29t9 52.5q0 -15 7 -22q6 -7 18.5 -7.5t37.5 13.5q44 32 63 61t24 52q6 26 0 49q-21 13 -45 5.5t-46.5 -30.5t-37.5 -53t-16 -41
q-20 -7 -31 -20.5t-14.5 -29t0.5 -31.5t15 -27q-3 -25 -1 -50.5t10.5 -47t23 -38t37.5 -23.5q38 -11 76 3q45 18 76.5 56t51.5 82q12 24 21 54l1 2l2 2q2 3 5.5 5t9.5 0q8 -2 8.5 -9t0.5 -9t-1 -2v-1q-2 -7 -10.5 -29.5t-22.5 -49.5t-32 -54t-39 -43q-29 -23 -59.5 -34.5
t-59.5 -9.5l1 1q-5 -1 -10.5 -1h-12.5l-15 2q-23 3 -43 7t-39.5 12.5t-38 23.5t-38.5 40q-19 24 -25.5 53t-6.5 54.5t3 43.5t4 21q10 38 26.5 73t40.5 63t55.5 47.5t71.5 28.5q-18 6 -38.5 15t-41.5 23q-9 -2 -20 -4t-31 -3.5t-51.5 -1.5t-80.5 1t-120 3.5t-169 6.5
q-44 3 -85 3q-35 0 -72.5 -3.5t-61.5 -13.5q-25 -10 -40 -19.5t-24 -17.5q-11 -10 -15 -18q-19 30 -21 58q-1 12 2 25t12 25.5t25.5 24.5t42.5 22q51 20 110 21t119 -7.5t116.5 -21.5t102.5 -21q67 -12 116.5 -19.5t72.5 -10.5q19 -1 35 0q-13 12 -23.5 26t-17.5 31
q-10 25 -3.5 46.5t23 36t39.5 20.5t44 0t37 -25.5t20 -54.5q4 -36 -9.5 -58.5t-36.5 -36.5zM124 545q30 14 38 36.5t6 45.5v2q0 3 -2 10.5t-6 15t-11.5 13.5t-18.5 6q-13 0 -20.5 -9t-11.5 -20t-5 -20.5t-1 -10.5q0 -2 0.5 -5.5t0.5 -6.5q2 -16 10 -30t21 -27z" />
    <glyph glyph-name="f.ss01" unicode="&#xe022;" horiz-adv-x="402" 
d="M-28 444q32 -20 61 -32l30 169q3 14 10 28q5 12 15 26t25 28q21 18 56 27t71 6t66.5 -19t42.5 -47q10 -25 9 -56.5t-13 -64t-34 -64.5t-54 -57h26t30 1t29 3t24 7q15 7 24.5 14.5t14.5 12.5q6 6 9 12q6 -24 4 -46q-2 -19 -11.5 -40t-35.5 -35q-21 -12 -44.5 -11
t-50.5 7.5t-59 16t-70 14.5l-22 -125t-22 -123v-2q0 -1 -0.5 -1.5t-0.5 -1.5l-71 -399q-4 -14 -10 -28q-5 -12 -15 -26t-25 -27q-16 -14 -30.5 -20.5t-25.5 -8.5q-13 -3 -25 -1h-19q5 22 8.5 43t7.5 42q-1 -4 4.5 24t14.5 78.5l21.5 120l27 149.5l30 166.5l31.5 170.5
q-20 8 -43 20.5t-46 34.5q-9 -2 -20.5 -4t-31 -3.5t-51 -1.5t-81 1t-120 3t-168.5 6q-44 4 -85 4q-35 0 -72.5 -3.5t-61.5 -13.5q-25 -10 -40.5 -20t-23.5 -18q-11 -10 -15 -18q-19 30 -21 58q-1 12 2 25t12 26t25.5 25t42.5 22q51 20 110 20.5t118.5 -8t116 -21.5
t102.5 -21l117.5 -18.5t72.5 -11.5h18.5t16.5 1q-27 24 -41 56q-11 26 -4 47.5t23.5 36t39.5 20.5t44 0t37 -25.5t20 -54.5q3 -36 -10.5 -59t-36.5 -36zM157 392l30 -1q16 7 42.5 29t53.5 76q8 14 11.5 31t5 34t0.5 32t-2 26q0 9 -3 18q-3 13 -11.5 22.5t-24.5 14.5
q-29 7 -60 -94q-8 -25 -14 -51l-11 -48zM-59 468q30 13 38 36t6 46v2q0 3 -2 10.5t-6 15t-11.5 13t-18.5 5.5q-13 0 -20.5 -9t-11.5 -20t-5 -20t-1 -10v-13q2 -16 10.5 -29.5t21.5 -26.5z" />
    <glyph glyph-name="g.ss01" unicode="&#xe023;" horiz-adv-x="524" 
d="M352 532q17 -11 35.5 -19.5t35 -15t29.5 -10.5t19 -5h11q-8 -37 -14.5 -72.5t-14.5 -70.5l-6 -29.5l-9 -45l-11 -54.5l-12 -58l-30 -148l-11 -57v1l-53 -267q-4 -14 -11 -28q-6 -12 -16 -26.5t-25 -27.5q-16 -14 -31 -20.5t-26 -8.5q-13 -3 -25 -1q-6 -1 -13 -2
q-6 -1 -14.5 -1h-18.5q-8 0 -22.5 2t-31 9t-31.5 20t-23 35q-9 26 -6.5 59.5t17 68.5t40.5 68t64 58q15 8 31 14t33 11l-9 -39q-8 -3 -19 -9t-24 -18.5t-27.5 -32t-29.5 -47.5q-8 -14 -15.5 -40t-8.5 -52.5t8 -48t34 -25.5q16 -3 31 13.5t33 69.5q6 17 11 36l10 37
q11 49 24 115l28 138q14 10 28 24.5t21 37.5q9 27 1 46.5t-22 31.5l17 80.5l14.5 71l11.5 56.5l8 38q-22 37 -51.5 39t-58.5 -22t-54 -68.5t-37 -101.5q-9 -42 -9.5 -76.5t5.5 -58.5t19.5 -35.5t33.5 -7.5q-1 -1 -2 -1q6 0 21 5.5t29 22.5q8 9 10 16t3 12q0 5 -1 9q2 0 6 -1
q7 -2 12 -6t9 -11.5t2 -20.5q-2 -11 -12 -25.5t-25 -27.5q-22 -17 -51.5 -27t-58.5 -8q-29 0 -55 10.5t-45 31.5t-28.5 53t-6.5 74q5 56 22 110.5t48 97.5t76.5 70.5t108.5 30.5q6 0 18.5 -1t27.5 -5.5t30.5 -13.5t28.5 -25q11 19 36 33q5 3 10.5 5l11.5 4q-20 6 -44 16.5
t-50 26.5q-9 -3 -20 -4.5t-31 -3t-51.5 -1.5t-80.5 1t-120 3.5t-169 6.5q-44 3 -85 3q-35 0 -72.5 -3.5t-61.5 -13.5q-25 -10 -40 -19.5t-24 -17.5q-11 -10 -15 -18q-19 30 -21 58q-1 12 2 25t12 25.5t25.5 24.5t42.5 22q51 20 110 21t119 -7.5t116.5 -21.5t102.5 -21
q67 -12 116.5 -19.5t72.5 -10.5q19 -1 35 0q-13 12 -23.5 26t-17.5 31q-11 26 -4 47t23.5 35.5t39.5 20.5t44 0t37 -25.5t20 -54.5q4 -36 -9.5 -58.5t-36.5 -36.5zM320 556q30 14 38 36.5t6 45.5v2q0 3 -2 10.5t-6 15t-11.5 13.5t-18.5 6q-13 0 -20.5 -9t-11.5 -20t-5 -20.5
t-1 -10.5q0 -2 0.5 -5.5t0.5 -6.5q2 -16 10 -30t21 -27z" />
    <glyph glyph-name="h.ss01" unicode="&#xe024;" 
d="M550 241q8 -2 8.5 -9t-0.5 -10q0 -1 -0.5 -1t-0.5 -1q-2 -8 -11 -30t-23.5 -49t-33.5 -54t-41 -43q-55 -42 -111 -44h-9q-26 2 -47 15.5t-32 41.5q-5 12 -9.5 38.5t4.5 67.5v3q0 2 0.5 3.5t0.5 3.5l1 1v1q0 2 1 3l46 227l9 19.5t15 20.5h-41q-16 0 -33 -4
q-14 -4 -31.5 -13.5t-33.5 -29.5l-11 -13q-2 -3 -5.5 -10t-8.5 -18l-5 -22q-2 -13 -4.5 -25.5l-5.5 -26.5l-37 -179q-4 -19 -4 -36q-1 -14 2 -29t13 -23l11 -9q-11 -3 -22 -5t-22 -2h-9q-44 2 -69 37l-6 12q-6 13 -10 30q-3 14 -4 35t5 49v1q3 13 3 16l23 112h-2l24 113v4
l81 399q3 14 10 28q6 12 15.5 26t25.5 27q21 18 56 27t71 6.5t66.5 -18.5t42.5 -48q9 -26 6.5 -59.5t-16.5 -68t-40.5 -67.5t-63.5 -58q-15 -8 -31.5 -14.5t-33.5 -11.5l9 39q16 6 43.5 28.5t56.5 78.5q9 14 14 40.5t3.5 53.5t-11 47t-30.5 22q-8 0 -15 -2.5t-13.5 -11
t-13.5 -24.5t-16 -42q-8 -24 -15 -50.5t-12 -48.5l-47 -229h2q-2 -8 -3.5 -15.5t-3.5 -15.5q5 4 10 7t12 6q20 8 41.5 12t38.5 6q20 2 40 0h122q-2 -6 -2 -12l-27 -131l-47 -231q-7 -35 5.5 -45t33.5 -2.5t45 28.5t41 48h1q1 1 1 2q5 8 20 35.5t26 60.5v2l2 2q2 3 5.5 5.5
t10.5 0.5zM-61 672q20 -13 40 -22t36 -15q18 -7 36 -12l-9 -34q-22 4 -46 13q-20 8 -44.5 21t-47.5 35q-9 -3 -20.5 -4.5t-31 -3t-51 -1.5t-81 1t-120 3t-168.5 6q-44 4 -85 4q-35 0 -72.5 -3.5t-61.5 -13.5q-25 -10 -40.5 -20t-23.5 -18q-11 -10 -15 -18q-19 30 -21 58
q-1 12 2 25t12 26t25.5 25t42.5 22q51 20 110 20.5t118.5 -8t116 -21.5t102.5 -21l117.5 -18.5t72.5 -11.5h18.5t16.5 1q-27 24 -41 56q-10 26 -3.5 47.5t23 36t39.5 20.5t44 0t37 -25.5t20 -54.5q3 -36 -10.5 -59t-36.5 -36zM-92 696q30 13 38 36t6 46v2q0 3 -2 10.5t-6 15
t-11.5 13t-18.5 5.5q-13 0 -20.5 -9t-11.5 -20t-5 -20t-1 -10v-13q2 -16 10.5 -29.5t21.5 -26.5z" />
    <glyph glyph-name="i.ss01" unicode="&#xe025;" horiz-adv-x="271" 
d="M12 536q20 -13 42 -22.5t40 -15.5q21 -8 42 -13l-1 -1l14 2h33l-2 -12q-8 -34 -14.5 -66.5l-12.5 -64.5l-47 -231q-7 -35 5.5 -45t33.5 -3t45.5 28t41.5 48v1q0 1 1 1l19.5 36t25.5 60v1l1 2q1 0 1 3q2 2 6 4.5t10 0.5q8 -3 8.5 -9.5t-0.5 -10.5v-1q-2 -8 -11.5 -30
t-23.5 -49t-33 -54t-41 -43q-26 -21 -55.5 -32.5t-55.5 -12.5h-9q-26 2 -47.5 16t-32.5 42v-1q-5 12 -9 38.5t4 67.5q0 1 0.5 1.5t0.5 2.5q1 2 1 7v1q1 2 1 3l47 227q3 9 8 19.5t16 21.5q8 8 24 16l6 3q-17 5 -50 16.5t-68 33.5q-9 -3 -20 -4.5t-31 -3t-51.5 -1.5t-80.5 1
t-120 3.5t-169 6.5q-44 3 -85 3q-35 0 -72.5 -3.5t-61.5 -13.5q-25 -10 -40 -19.5t-24 -17.5q-11 -10 -15 -18q-19 30 -21 58q-1 12 2 25t12 25.5t25.5 24.5t42.5 22q51 20 110 21t119 -7.5t116.5 -21.5t102.5 -21q67 -12 116.5 -19.5t72.5 -10.5q19 -1 35 0
q-13 12 -23.5 26t-17.5 31q-11 25 -4 46.5t23.5 36t39.5 20.5t44 0t37 -25.5t20 -54.5q4 -36 -9.5 -58.5t-36.5 -36.5zM183 495q-10 1 -28.5 6t-36 17t-30 32.5t-10.5 53.5l1 9h129l-12 -58.5t-13 -59.5zM-20 560q30 14 38 36.5t6 45.5v2q0 3 -2 10.5t-6 15t-11.5 13.5
t-18.5 6q-13 0 -20.5 -9t-11.5 -20t-5 -20.5t-1 -10.5q0 -2 0.5 -5.5t0.5 -6.5q2 -16 10 -30t21 -27z" />
    <glyph glyph-name="j.ss01" unicode="&#xe026;" horiz-adv-x="255" 
d="M-2 527q19 -12 39.5 -21t38 -15.5t30 -10t15.5 -4.5q6 1 11.5 1h9.5h9h18l-26 -143q-2 -10 -5.5 -29.5l-8 -45l-10 -54.5l-10.5 -58l-27 -148l-9 -56v1l-48 -268q-4 -14 -10 -28q-5 -12 -14.5 -26.5t-24.5 -27.5q-16 -14 -30.5 -20t-25.5 -8q-13 -3 -25 -2q-6 -1 -13 -2
q-6 -1 -14.5 -1h-18.5q-8 0 -23 2.5t-31.5 9t-31.5 19.5t-23 35q-10 27 -8.5 60.5t15 68t39 67.5t62.5 58q15 8 31 14t33 11l-7 -39q-8 -3 -19 -9t-24 -18.5t-27.5 -31.5t-28.5 -47q-8 -14 -15 -40t-7 -52.5t9.5 -48t34.5 -26.5q17 -3 31 14t31 69q7 18 11.5 37l8.5 36
l8 46.5l15 83l19 106l21 115.5l55 303q5 13 14 28.5t32 28.5q2 2 4 2q-17 5 -49.5 17t-66.5 33q-9 -3 -20 -4.5t-31 -3t-51.5 -1.5t-80.5 1t-120 3.5t-169 6.5q-44 3 -85 3q-35 0 -72.5 -3.5t-61.5 -13.5q-25 -10 -40 -19.5t-24 -17.5q-11 -10 -15 -18q-19 30 -21 58
q-1 12 2 25t12 25.5t25.5 24.5t42.5 22q51 20 110 21t119 -7.5t116.5 -21.5t102.5 -21q67 -12 116.5 -19.5t72.5 -10.5q19 -1 35 0q-13 12 -23.5 26t-17.5 31q-11 25 -4 46.5t23.5 36t39.5 20.5t44 0t37 -25.5t20 -54.5q4 -36 -9.5 -58.5t-36.5 -36.5zM193 604
q-6 -29 -11.5 -58.5t-10.5 -59.5q-10 1 -28.5 6.5t-36.5 17.5t-31.5 32.5t-12.5 52.5l2 9h129zM-34 551q30 14 38 36.5t6 45.5v2q0 3 -2 10.5t-6 15t-11.5 13.5t-18.5 6q-13 0 -20.5 -9t-11.5 -20t-5 -20.5t-1 -10.5q0 -2 0.5 -5.5t0.5 -6.5q2 -16 10 -30t21 -27z" />
    <glyph glyph-name="k.ss01" unicode="&#xe027;" 
d="M550 241q8 -2 8.5 -9t-0.5 -10q-1 -1 -1 -2q-2 -8 -11.5 -30t-23.5 -49t-33 -54t-41 -43q-55 -42 -111 -44h-9q-26 2 -47 15.5t-32 41.5q-5 12 -9.5 38.5t4.5 67.5v3q0 2 0.5 3.5t0.5 3.5v1l1 1v3l47 227q3 9 8.5 19.5t15.5 20.5h-41q-16 0 -33 -4q-14 -4 -31.5 -13.5
t-33.5 -29.5l-11 -13q-2 -3 -5.5 -10t-8.5 -18l-5 -22q-2 -13 -4.5 -25.5l-5.5 -26.5l-37 -179q-3 -19 -4 -36q-1 -14 1.5 -29t12.5 -23l12 -9q-11 -3 -22 -5t-22 -2h-9q-21 1 -39 10t-30 27l-6 12q-6 13 -10 30q-3 14 -4 35t5 49v1q3 13 3 16l23 112h-2l24 113v4l81 399
q3 14 10 28q6 12 15.5 26t25.5 27q21 18 56 27t71 6.5t66.5 -18.5t42.5 -48q9 -26 6.5 -59.5t-16.5 -68t-40.5 -67.5t-63.5 -58q-15 -8 -31.5 -14.5t-33.5 -11.5l9 39q16 6 43.5 28.5t56.5 78.5q9 14 14 40.5t3.5 53.5t-11 47t-30.5 22q-8 0 -15 -2.5t-13.5 -11t-13.5 -24.5
t-16 -42q-8 -24 -15 -50.5t-12 -48.5l-47 -229h2q-2 -8 -3.5 -15.5t-3.5 -15.5q5 4 10 7t11 6h1l171 119q19 12 36 25q14 11 28 24t20 27t8 23.5t2 17.5t-1 15q21 -11 33 -26q11 -13 15.5 -32.5t-8.5 -46.5t-37 -46t-52 -33t-57 -24.5t-51 -20.5l-8 -4h15h6h122
q-2 -6 -2 -12l-27 -131l-48 -231q-6 -35 6.5 -45t33.5 -2.5t45 28.5t41 48h1q1 1 1 2q5 8 20 35.5t26 60.5v2q0 2 2 2q2 3 5.5 5.5t10.5 0.5zM-61 672q20 -13 40 -22t36 -15q18 -7 36 -12l-9 -34q-22 4 -46 13q-20 8 -44.5 21t-47.5 35q-9 -3 -20.5 -4.5t-31 -3t-51 -1.5
t-81 1t-120 3t-168.5 6q-44 4 -85 4q-35 0 -72.5 -3.5t-61.5 -13.5q-25 -10 -40.5 -20t-23.5 -18q-11 -10 -15 -18q-19 30 -21 58q-1 12 2 25t12 26t25.5 25t42.5 22q51 20 110 20.5t118.5 -8t116 -21.5t102.5 -21l117.5 -18.5t72.5 -11.5h18.5t16.5 1q-27 24 -41 56
q-10 26 -3.5 47.5t23 36t39.5 20.5t44 0t37 -25.5t20 -54.5q3 -36 -10.5 -59t-36.5 -36zM-92 696q30 13 38 36t6 46v2q0 3 -2 10.5t-6 15t-11.5 13t-18.5 5.5q-13 0 -20.5 -9t-11.5 -20t-5 -20t-1 -10v-13q2 -16 10.5 -29.5t21.5 -26.5z" />
    <glyph glyph-name="l.ss01" unicode="&#xe028;" horiz-adv-x="281" 
d="M225 616q14 5 42.5 27.5t57.5 78.5q8 14 13 41t3.5 53.5t-10.5 47t-30 22.5q-9 0 -15.5 -2.5t-13.5 -11t-14 -24.5t-16 -43q-6 -18 -11.5 -38.5t-10 -39.5l-8 -34t-4.5 -24l-19.5 -106l-21 -115l-20.5 -113.5l-18.5 -101.5l-15 -80t-8.5 -48q-6 -36 6 -46.5t33 -3
t44.5 28.5t40.5 48l1 1l2 2q5 8 18 35.5t24 60.5l1 2q0 2 2 2q2 3 5.5 5.5t9.5 0.5q8 -3 8.5 -9.5t0.5 -9.5q0 -2 -1 -2q-2 -8 -10.5 -30t-22.5 -49t-32 -54t-39 -44q-29 -23 -60 -34t-60 -9q-23 1 -42 12t-31.5 32t-16.5 53t4 76l113 635q3 14 10 28q6 12 15.5 26t25.5 27
q21 18 56.5 27t72.5 6t68.5 -19t42.5 -47q10 -26 7.5 -59.5t-17 -68.5t-41 -68t-63.5 -58q-15 -8 -31 -14t-33 -11zM-61 672q20 -13 40 -22t36 -15q18 -7 36 -12l-9 -34q-22 4 -46 13q-20 8 -44.5 21t-47.5 35q-9 -3 -20.5 -4.5t-31 -3t-51 -1.5t-81 1t-120 3t-168.5 6
q-44 4 -85 4q-35 0 -72.5 -3.5t-61.5 -13.5q-25 -10 -40.5 -20t-23.5 -18q-11 -10 -15 -18q-19 30 -21 58q-1 12 2 25t12 26t25.5 25t42.5 22q51 20 110 20.5t118.5 -8t116 -21.5t102.5 -21l117.5 -18.5t72.5 -11.5h18.5t16.5 1q-27 24 -41 56q-10 26 -3.5 47.5t23 36
t39.5 20.5t44 0t37 -25.5t20 -54.5q3 -36 -10.5 -59t-36.5 -36zM-92 696q30 13 38 36t6 46v2q0 3 -2 10.5t-6 15t-11.5 13t-18.5 5.5q-13 0 -20.5 -9t-11.5 -20t-5 -20t-1 -10v-13q2 -16 10.5 -29.5t21.5 -26.5z" />
    <glyph glyph-name="m.ss01" unicode="&#xe029;" horiz-adv-x="774" 
d="M53 528q17 -11 35.5 -19.5t35 -15t29.5 -10.5t19 -5h8l-7 -31q5 4 10.5 7l10.5 6q20 8 41.5 12t39.5 6q20 2 40 0h109q-4 -15 -6 -31q7 6 21 13q20 8 41.5 12t38.5 6q20 2 40 0h123q-3 -5 -3 -12l-27 -131l-47 -231q-6 -35 6 -45t33 -2.5t45 28.5t41 48h2q0 2 1 2
q5 8 19.5 35.5t25.5 60.5v2l2 2q2 3 5.5 5.5t10.5 0.5q8 -2 8.5 -9t-0.5 -10q0 -1 -1 -2q-2 -8 -11 -30t-23.5 -49t-33.5 -54t-41 -43q-55 -42 -111 -44h-9q-26 2 -47 15.5t-32 41.5q-5 12 -9.5 38.5t4.5 67.5v3l2 7v2q0 1 0.5 1.5t0.5 1.5l38 186q4 22 17 37t27.5 24.5
t27 14t16.5 5.5h-105q-12 0 -38.5 -8t-51.5 -39l-10 -13q-2 -3 -6 -10t-9 -18l-5 -22q-2 -13 -4.5 -25.5l-5.5 -26.5l-37 -179q-4 -19 -4 -36q-1 -14 2 -29t13 -23l11 -9q-11 -3 -21.5 -5t-21.5 -2h-10q-43 2 -69 37l-6 12q-6 13 -10 30q-3 14 -4 35t5 49v1q3 13 3 16
l38 185l16 80h-11q-16 0 -33 -4q-14 -4 -31.5 -13.5t-33.5 -29.5l-11 -13q-2 -3 -5.5 -10t-8.5 -18l-4 -22l-6 -25.5t-5 -26.5l-37 -179q-3 -19 -4 -36q-1 -14 1.5 -29t12.5 -23q4 -2 6.5 -4.5t5.5 -4.5q-11 -3 -21.5 -5t-21.5 -2h-9q-46 2 -69 37q-5 6 -6 12q-7 13 -11 30
q-3 14 -4 35t5 49l1 1q1 7 1.5 11t0.5 5l46 225q5 12 14.5 28t33.5 29q6 3 12 5.5t12 4.5q-20 6 -43.5 16t-48.5 26q-9 -3 -20 -4.5t-31 -3t-51.5 -1.5t-80.5 1t-120 3.5t-169 6.5q-44 3 -85 3q-35 0 -72.5 -3.5t-61.5 -13.5q-25 -10 -40 -19.5t-24 -17.5q-11 -10 -15 -18
q-19 30 -21 58q-1 12 2 25t12 25.5t25.5 24.5t42.5 22q51 20 110 21t119 -7.5t116.5 -21.5t102.5 -21q67 -12 116.5 -19.5t72.5 -10.5q19 -1 35 0q-13 12 -23.5 26t-17.5 31q-10 26 -3.5 47t23 35.5t39.5 20.5t44 0t37 -25.5t20 -54.5q4 -36 -9.5 -58.5t-36.5 -36.5zM21 552
q30 14 38 36.5t6 45.5v2q0 3 -2 10.5t-6 15t-11.5 13.5t-18.5 6q-13 0 -20.5 -9t-11.5 -20t-5 -20.5t-1 -10.5q0 -2 0.5 -5.5t0.5 -6.5q2 -16 10 -30t21 -27z" />
    <glyph glyph-name="n.ss01" unicode="&#xe030;" 
d="M53 528q17 -11 35.5 -19.5t35 -15t29.5 -10.5t19 -5h6q-2 -8 -3.5 -15.5t-3.5 -15.5q5 4 10 7t11 6q20 8 41.5 12t39.5 6q20 2 40 0h122q-2 -6 -2 -12l-27 -131l-48 -231q-6 -35 6.5 -45t33.5 -2.5t45 28.5t41 48h1q1 1 1 2q5 8 20 35.5t26 60.5v2q0 2 2 2q2 3 5.5 5.5
t10.5 0.5q8 -2 8.5 -9t-0.5 -10q-1 -1 -1 -2q-2 -8 -11.5 -30t-23.5 -49t-33 -54t-41 -43q-55 -42 -111 -44h-9q-26 2 -47 15.5t-32 41.5q-5 12 -9.5 38.5t4.5 67.5v3q0 2 0.5 3.5t0.5 3.5v1l1 1v3l40 192q6 21 17 35t23 22.5t24 12l19 5.5h-93q-16 0 -33 -4
q-14 -4 -31.5 -13.5t-33.5 -29.5l-11 -13q-2 -3 -5.5 -10t-8.5 -18l-5 -22q-2 -13 -4.5 -25.5l-5.5 -26.5l-37 -179q-3 -19 -4 -36q-1 -14 1.5 -29t12.5 -23l12 -9q-11 -3 -22 -5t-22 -2h-9q-44 2 -69 37l-6 12q-6 13 -10 30q-3 14 -4 35t5 49v1q3 13 3 16l46 225
q5 12 14.5 28t33.5 29q6 3 12.5 5.5t12.5 4.5q-19 6 -43 16t-48 26q-9 -3 -20 -4.5t-31 -3t-51.5 -1.5t-80.5 1t-120 3.5t-169 6.5q-44 3 -85 3q-35 0 -72.5 -3.5t-61.5 -13.5q-25 -10 -40 -19.5t-24 -17.5q-11 -10 -15 -18q-19 30 -21 58q-1 12 2 25t12 25.5t25.5 24.5
t42.5 22q51 20 110 21t119 -7.5t116.5 -21.5t102.5 -21q67 -12 116.5 -19.5t72.5 -10.5q19 -1 35 0q-13 12 -23.5 26t-17.5 31q-10 26 -3.5 47t23 35.5t39.5 20.5t44 0t37 -25.5t20 -54.5q4 -36 -9.5 -58.5t-36.5 -36.5zM21 552q30 14 38 36.5t6 45.5v2q0 3 -2 10.5t-6 15
t-11.5 13.5t-18.5 6q-13 0 -20.5 -9t-11.5 -20t-5 -20.5t-1 -10.5q0 -2 0.5 -5.5t0.5 -6.5q2 -16 10 -30t21 -27z" />
    <glyph glyph-name="o.ss01" unicode="&#xe031;" horiz-adv-x="576" 
d="M205 506q26 -17 54.5 -28.5t47.5 -16.5q18 -3 35 -8t33 -13.5t32.5 -22.5t33.5 -35q19 -24 25.5 -53t6.5 -54.5t-3 -44t-4 -21.5q-13 -47 -35.5 -88t-55.5 -71l-10 -8.5t-5 -3.5t-4.5 -2t-9.5 -4q11 -1 35 3t53.5 17.5t60.5 38t57 63.5q8 12 14.5 30t12.5 37l1 2
q0 1 0.5 1.5t0.5 1.5q6 8 15 6q8 -3 8 -9.5v-10.5l-1 -1l-7 -20t-13 -33q-21 -50 -64 -88t-99.5 -60t-121 -25.5t-127.5 16.5q-10 4 -23 12q0 1 -1 1q-11 8 -21 19t-17 27q-5 13 -7 21.5t-2 13.5v5q0 11 6.5 21t17.5 14q8 2 13 2q16 0 27 -10.5t11 -26.5q0 -14 -7.5 -23.5
t-19.5 -12.5q7 -10 13 -15q22 -18 48.5 -10.5t51.5 33t45.5 66.5t31.5 91q2 8 3 16l2 16q1 2 1 8q0 7 1 16q0 8 0.5 18t-1.5 22q-2 17 -7.5 36t-16.5 35q-3 4 -6 7.5t-7 7.5q-23 17 -49 9.5t-51 -33t-45.5 -66.5t-31.5 -90l-6 -33v-8q-1 -5 -1 -10t-0.5 -11.5t0.5 -14.5
q-4 -1 -11 -3t-14 -7t-12.5 -14t-6.5 -22q-1 -26 10 -53t37 -48q-26 7 -49.5 22.5t-48.5 47.5q-19 24 -25.5 53t-7 54.5t3 44t3.5 21.5q11 40 29 76.5t44.5 65t61 48t78.5 25.5h4q-13 5 -25 12l-25 15q-9 -2 -20 -4t-31 -3.5t-51.5 -1.5t-80.5 1t-120 3.5t-169 6.5
q-44 3 -85 3q-35 0 -72.5 -3.5t-61.5 -13.5q-25 -10 -40 -19.5t-24 -17.5q-11 -10 -15 -18q-19 30 -21 58q-1 12 2 25t12 25.5t25.5 24.5t42.5 22q51 20 110 21t119 -7.5t116.5 -21.5t102.5 -21q67 -12 116.5 -19.5t72.5 -10.5q19 -1 35 0q-13 12 -23.5 26t-17.5 31
q-11 26 -4 47t23.5 35.5t39.5 20.5t44 0t37 -25.5t20 -54.5q4 -36 -9.5 -58.5t-36.5 -36.5zM173 530q30 14 38 36.5t6 45.5v2q0 3 -2 10.5t-6 15t-11.5 13.5t-18.5 6q-13 0 -20.5 -9t-11.5 -20t-5 -20.5t-1 -10.5q0 -2 0.5 -5.5t0.5 -6.5q2 -16 10 -30t21 -27z" />
    <glyph glyph-name="r.ss01" unicode="&#xe032;" horiz-adv-x="460" 
d="M97 555q23 -15 48.5 -26t45.5 -17q35 -8 61 -13q31 -6 62 -10.5t57 -7.5q30 -4 57 -7q-3 -14 -13 -25q-8 -10 -23 -19.5t-38 -14.5l-17 -83l-48 -229q-6 -35 6.5 -45t33.5 -3t45 27.5t41 47.5l1 2q0 1 1 1q3 4 8 13t11.5 22t13.5 28.5t12 32.5l1 1q0 1 2 3q2 3 5.5 5
t9.5 0q8 -2 9 -9t-1 -9v-3q-2 -7 -11.5 -29t-23.5 -48.5t-33 -53.5t-41 -43q-55 -42 -111 -44h-9q-24 2 -44 13t-31 34v1q-7 13 -11 30q-3 14 -4 35t5 49l1 1q1 7 2 11t1 5l15 72l21 101l4.5 9t14 20t24 20.5t34.5 11.5q4 0 5 1q-23 2 -55 10t-57 26q-10 6 -23.5 16
l-28 21.5l-29 23.5t-26.5 21q-9 5 -16 10q-9 -3 -20 -4.5t-31 -3t-51.5 -1.5t-80.5 1t-120 3.5t-169 6.5q-44 3 -85 3q-35 0 -72.5 -3.5t-61.5 -13.5q-25 -10 -40 -19.5t-24 -17.5q-11 -10 -15 -18q-19 30 -21 58q-1 12 2 25t12 25.5t25.5 24.5t42.5 22q51 20 110 21
t119 -7.5t116.5 -21.5t102.5 -21q67 -12 116.5 -19.5t72.5 -10.5q19 -1 35 0q-13 12 -23.5 26t-17.5 31q-11 26 -4 47t23.5 35.5t39.5 20.5t44 0t37 -25.5t20 -54.5q4 -36 -9.5 -58.5t-36.5 -36.5zM65 579q30 14 38 36.5t6 45.5v2q0 3 -2 10.5t-6 15t-11.5 13.5t-18.5 6
q-13 0 -20.5 -9t-11.5 -20t-5 -20.5t-1 -10.5q0 -2 0.5 -5.5t0.5 -6.5q2 -16 10 -30t21 -27z" />
    <glyph glyph-name="s.ss01" unicode="&#xe033;" horiz-adv-x="373" 
d="M113 527q32 -20 65 -32t49 -17q12 -1 28 -5t33 -13t33 -25t27 -41q4 -10 4 -19q0 -2 0.5 -2.5t0.5 -2.5q0 -7 -3 -13q-4 -11 -13.5 -17.5t-20.5 -6.5q-16 0 -27 10.5t-11 26.5q0 13 7.5 22.5t18.5 13.5q-31 35 -63 29t-57 -41q-7 -13 -10 -28q-2 -13 1 -30t19 -37
t33.5 -39t31.5 -39.5t22 -43.5t5 -51q-2 -11 -8 -31t-22.5 -39.5t-47 -35.5t-81.5 -19h-10.5t-14.5 2h-2q-1 0 -2 0.5t-2 0.5h-1q-10 2 -18 4.5t-15 7.5q-10 4 -18 12q-8 7 -14.5 18.5t-8.5 29.5q-2 16 2.5 25.5t10.5 14.5q7 6 16 8q-4 -18 -1 -34q2 -14 11.5 -26.5
t32.5 -16.5q22 -4 36 3.5t20.5 19.5t8 25t-0.5 20q0 14 -9 30t-35 36q-29 23 -47 53.5t-23 62.5l-10.5 -42.5t-9.5 -33.5q-3 -9 -9 -14t-12 -5t-9 6t2 19q8 22 17.5 58.5t27.5 74t47 69.5t76 44q-19 6 -41 16t-45 24q-9 -3 -20 -4.5t-31 -3t-51.5 -1.5t-80.5 1t-120 3.5
t-169 6.5q-44 3 -85 3q-35 0 -72.5 -3.5t-61.5 -13.5q-25 -10 -40 -19.5t-24 -17.5q-11 -10 -15 -18q-19 30 -21 58q-1 12 2 25t12 25.5t25.5 24.5t42.5 22q51 20 110 21t119 -7.5t116.5 -21.5t102.5 -21q67 -12 116.5 -19.5t72.5 -10.5q19 -1 35 0q-13 12 -23.5 26
t-17.5 31q-10 25 -3.5 46.5t23 36t39.5 20.5t44 0t37 -25.5t20 -54.5q4 -36 -9.5 -58.5t-36.5 -36.5zM81 551q30 14 38 36.5t6 45.5v2q0 3 -2 10.5t-6 15t-11.5 13.5t-18.5 6q-13 0 -20.5 -9t-11.5 -20t-5 -20.5t-1 -10.5q0 -2 0.5 -5.5t0.5 -6.5q2 -16 10 -30t21 -27z" />
    <glyph glyph-name="t.ss01" unicode="&#xe034;" horiz-adv-x="387" 
d="M422 620q14 -21 15 -40q1 -17 -13 -35.5t-55 -31.5q-44 -15 -92.5 -15t-98.5 7l-24 -129l-21.5 -119l-17 -95l-10.5 -56q-6 -36 6.5 -46.5t33.5 -3.5t44.5 28t40.5 49h1q0 1 0.5 1.5t0.5 1.5q5 8 18.5 35t23.5 61v-1l1 2q2 2 2 3q2 3 5.5 5t9.5 0q8 -2 9 -9t0 -10v-2
q-2 -7 -11 -29.5t-22.5 -49.5t-32 -54t-39.5 -43q-29 -23 -60 -34.5t-60 -9.5q-23 1 -42 12t-31.5 32t-16.5 53.5t4 76.5l63 352q-11 2 -21 3.5t-20 3.5l-64 9l-52 7q-12 2 -20 7t-13 10q-6 6 -9 14l208 -5l41 233q3 14 10 28q6 12 16 26.5t25 27.5q29 24 62.5 28t70.5 5
q7 0 22 -2.5t31.5 -9t31.5 -20t23 -35.5q9 -26 6.5 -59.5t-17 -68t-41 -67.5t-63.5 -58q-15 -8 -30.5 -14.5t-32.5 -11.5l8 39q15 6 43 28.5t57 78.5q8 14 13 40.5t3.5 53.5t-10.5 47t-30 22q-8 1 -15 -1.5t-13.5 -11.5t-13.5 -25t-16 -42l-12 -39t-10.5 -39l-8 -34
t-4.5 -24l-18 -99q10 0 31 -1t46 0t49.5 3.5t41.5 8.5q20 7 31.5 14l19.5 12q8 6 13 12zM-61 672q20 -13 40 -22t36 -15q18 -7 36 -12l-9 -34q-22 4 -46 13q-20 8 -44.5 21t-47.5 35q-9 -3 -20.5 -4.5t-31 -3t-51 -1.5t-81 1t-120 3t-168.5 6q-44 4 -85 4q-35 0 -72.5 -3.5
t-61.5 -13.5q-25 -10 -40.5 -20t-23.5 -18q-11 -10 -15 -18q-19 30 -21 58q-1 12 2 25t12 26t25.5 25t42.5 22q51 20 110 20.5t118.5 -8t116 -21.5t102.5 -21l117.5 -18.5t72.5 -11.5h18.5t16.5 1q-27 24 -41 56q-10 26 -3.5 47.5t23 36t39.5 20.5t44 0t37 -25.5t20 -54.5
q3 -36 -10.5 -59t-36.5 -36zM-92 696q30 13 38 36t6 46v2q0 3 -2 10.5t-6 15t-11.5 13t-18.5 5.5q-13 0 -20.5 -9t-11.5 -20t-5 -20t-1 -10v-13q2 -16 10.5 -29.5t21.5 -26.5z" />
    <glyph glyph-name="u.ss01" unicode="&#xe035;" horiz-adv-x="544" 
d="M53 528q17 -11 35.5 -19.5t35 -15t29.5 -10.5t19 -5h6l-3 -12l-27 -131l-47 -231q-6 -35 6 -45t33 -2.5t45.5 28.5t41.5 48h1q0 2 1 2q5 8 18 32t24 56l37 182l9 19.5t16 20.5q5 5 10 9t12 8q18 9 34.5 12.5t27.5 3.5h33q-2 -6 -2 -12l-27 -131l-47 -231q-6 -35 6 -45
t33 -2.5t45 28.5t41 48h1l2 2q5 8 19.5 35.5t25.5 60.5v2l2 2q2 3 5.5 5.5t10.5 0.5q8 -2 8.5 -9t-0.5 -10q0 -1 -0.5 -1t-0.5 -1q-2 -8 -11 -30t-23.5 -49t-33.5 -54t-41 -43q-55 -42 -111 -44h-9q-26 2 -47 15.5t-32 41.5q-4 8 -7.5 24.5t-3.5 40.5q-13 -23 -29 -43.5
t-34 -34.5q-26 -21 -55 -32t-56 -12h-9q-26 2 -47 15.5t-32 41.5q-5 12 -9.5 38.5t4.5 67.5v3l2 7v2q1 1 1 3l46 227l9 19.5t16 20.5q5 5 10 9t13 8q6 3 12.5 5.5t12.5 4.5q-20 7 -43.5 17t-47.5 25q-9 -3 -20 -4.5t-31 -3t-51.5 -1.5t-80.5 1t-120 3.5t-169 6.5
q-44 3 -85 3q-35 0 -72.5 -3.5t-61.5 -13.5q-25 -10 -40 -19.5t-24 -17.5q-11 -10 -15 -18q-19 30 -21 58q-1 12 2 25t12 25.5t25.5 24.5t42.5 22q51 20 110 21t119 -7.5t116.5 -21.5t102.5 -21q67 -12 116.5 -19.5t72.5 -10.5q19 -1 35 0q-13 12 -23.5 26t-17.5 31
q-10 26 -3.5 47t23 35.5t39.5 20.5t44 0t37 -25.5t20 -54.5q4 -36 -9.5 -58.5t-36.5 -36.5zM21 552q30 14 38 36.5t6 45.5v2q0 3 -2 10.5t-6 15t-11.5 13.5t-18.5 6q-13 0 -20.5 -9t-11.5 -20t-5 -20.5t-1 -10.5q0 -2 0.5 -5.5t0.5 -6.5q2 -16 10 -30t21 -27z" />
    <glyph glyph-name="v.ss01" unicode="&#xe036;" horiz-adv-x="570" 
d="M16 528q17 -11 35.5 -19.5t35 -15t29.5 -10.5t19 -5h7q0 -8 1 -12q2 -34 4.5 -66.5t5.5 -64.5l16 -231q3 -32 16 -43t29 -8l14 11.5t35 36.5t46.5 65t50.5 99q30 71 46 115t24 68l34 -9q-1 -3 -2 -6.5t-2 -8.5l2 1l-1 -1q-13 -72 -17 -131q-2 -25 -1.5 -49.5t3.5 -45
t10.5 -35t19.5 -18.5q15 -6 28 -2t23 12.5t17 20t12 20.5l13 34v1l1 1q0 1 0.5 1t0.5 1v1q6 8 16 6q8 -3 8.5 -9.5t-0.5 -10.5v-1l-6 -18q-2 -8 -6 -17q-3 -8 -8 -17t-10 -19l-3 -3v-1q-7 -11 -16.5 -20t-21 -14.5t-25.5 -6t-30 7.5q-28 14 -39.5 44t-14.5 61q-4 36 0 78v3
q-13 -34 -27.5 -68t-31.5 -63q-45 -73 -89.5 -118t-89.5 -50q-6 0 -9 1q-27 1 -52 15t-43 42q-8 11 -20 37.5t-15 67.5q0 2 -1 4v11l-5 62l-5.5 -16.5t-4.5 -12.5q-6 -17 -24 -9q-5 2 -5 6.5t1 9.5t4 11l28 92l-6 85q1 8 3.5 18.5t10.5 21.5q7 10 18 16q8 7 20 10h1
q-20 7 -44 17t-49 26q-9 -3 -20 -4.5t-31 -3t-51.5 -1.5t-80.5 1t-120 3.5t-169 6.5q-44 3 -85 3q-35 0 -72.5 -3.5t-61.5 -13.5q-25 -10 -40 -19.5t-24 -17.5q-11 -10 -15 -18q-19 30 -21 58q-1 12 2 25t12 25.5t25.5 24.5t42.5 22q51 20 110 21t119 -7.5t116.5 -21.5
t102.5 -21q67 -12 116.5 -19.5t72.5 -10.5q19 -1 35 0q-13 12 -23.5 26t-17.5 31q-10 26 -3.5 47t23 35.5t39.5 20.5t44 0t37 -25.5t20 -54.5q4 -36 -9.5 -58.5t-36.5 -36.5zM-16 552q30 14 38 36.5t6 45.5v2q0 3 -2 10.5t-6 15t-11.5 13.5t-18.5 6q-13 0 -20.5 -9
t-11.5 -20t-5 -20.5t-1 -10.5q0 -2 0.5 -5.5t0.5 -6.5q2 -16 10 -30t21 -27z" />
    <glyph glyph-name="w.ss01" unicode="&#xe037;" horiz-adv-x="775" 
d="M53 528q17 -11 35.5 -19.5t35 -15t29.5 -10.5t19 -5h7l-2 -12l-27 -131l-24.5 -119.5l-22.5 -111.5q-7 -35 5.5 -45t33.5 -2.5t45.5 28.5t41.5 48q0 1 1 2q5 8 17.5 31.5t23.5 53.5l39 185q2 9 7.5 19.5t16.5 20.5q5 5 10 9t13 8q17 9 33.5 12.5t27.5 3.5h33q0 -4 -2 -12
l-13.5 -66.5l-12.5 -64.5l-47 -231q-7 -35 5.5 -45.5t33.5 -2.5v2q4 0 6 1q2 0 2.5 1t1.5 1q32 9 59.5 52.5t48.5 104t34 127.5t17 123q4 -1 17 -4t27.5 -7l27 -7.5t17.5 -4.5l-5 -15q2 0 2 1v-1q-13 -72 -17 -131q-2 -25 -2 -49.5t3.5 -45t11 -35t19.5 -18.5
q15 -6 27.5 -2.5t22.5 12t17 20t12 21.5q4 8 7.5 16.5t6.5 17.5v2q2 2 2 3q2 2 5.5 4.5t10.5 0.5q8 -2 8.5 -8.5t-0.5 -10.5v-1h-1l-6 -18q-2 -8 -6 -17q-3 -8 -7.5 -17t-10.5 -19q-1 -1 -1 -4h-1q-8 -11 -17 -20.5t-20.5 -15t-25.5 -5.5t-30 8q-28 14 -40 43.5t-15 60.5
q-4 36 1 78l1 4l-29 -68.5t-31 -63.5q-31 -51 -60 -86l-19.5 -23t-20.5 -19l-5 -4q-23 -18 -43 -27v2q-33 -13 -63 -15h-9q-26 2 -47.5 15.5t-32.5 41.5q-3 8 -7 24.5t-3 39.5q-13 -23 -29 -43t-33 -34q-27 -21 -56 -32t-55 -12h-10q-26 2 -47 15.5t-32 41.5q-5 12 -9 38.5
t4 67.5v3q1 3 1 7v1l1 1v3l47 227q3 9 8 19.5t16 20.5q10 10 24 17l23 10q-19 6 -43 16t-48 26q-9 -3 -20 -4.5t-31 -3t-51.5 -1.5t-80.5 1t-120 3.5t-169 6.5q-44 3 -85 3q-35 0 -72.5 -3.5t-61.5 -13.5q-25 -10 -40 -19.5t-24 -17.5q-11 -10 -15 -18q-19 30 -21 58
q-1 12 2 25t12 25.5t25.5 24.5t42.5 22q51 20 110 21t119 -7.5t116.5 -21.5t102.5 -21q67 -12 116.5 -19.5t72.5 -10.5q19 -1 35 0q-13 12 -23.5 26t-17.5 31q-10 26 -3.5 47t23 35.5t39.5 20.5t44 0t37 -25.5t20 -54.5q4 -36 -9.5 -58.5t-36.5 -36.5zM21 552q30 14 38 36.5
t6 45.5v2q0 3 -2 10.5t-6 15t-11.5 13.5t-18.5 6q-13 0 -20.5 -9t-11.5 -20t-5 -20.5t-1 -10.5q0 -2 0.5 -5.5t0.5 -6.5q2 -16 10 -30t21 -27z" />
    <glyph glyph-name="x.ss01" unicode="&#xe038;" horiz-adv-x="540" 
d="M11 536q16 -10 33 -18.5t33 -14.5t28.5 -10t20.5 -6h13q0 -5 3 -9q7 -27 14.5 -52.5l14.5 -50.5l31 -107q17 11 31 21t24 18q29 22 51.5 42.5t38.5 36.5q18 18 32 35l6 4q8 8 21 13.5t27 3.5q-4 -26 -8.5 -65t-4.5 -76.5t7.5 -67.5t26.5 -37q15 -6 28 -2t22.5 12.5t17 20
t12.5 21.5l13 34v2l3 3q2 3 5.5 5t9.5 0q8 -2 8.5 -9t-0.5 -10v-2q-2 -2 -3 -6.5t-4 -11.5q-2 -8 -6 -17q-3 -8 -7.5 -17t-10.5 -18q-1 -1 -1 -3l-1 -1q-8 -11 -17 -20t-20.5 -14.5t-25.5 -6t-30 7.5q-28 14 -39.5 43.5t-14.5 60.5q-4 36 0 78l1 4q0 14 -0.5 22t-2.5 13
l-65 -59l-41 -33t-74 -57q1 -3 2 -5.5t1 -4.5q2 -8 5.5 -15.5t6.5 -15.5q10 -25 26.5 -55.5t39.5 -55.5t52 -37.5t65 -1.5q17 8 26 15.5t13 15.5q2 -11 -2 -26t-17 -29.5t-37.5 -24.5t-63.5 -10q-28 0 -53.5 12t-47 30.5t-40 41t-33.5 43.5q-9 19 -5.5 37.5t11.5 32.5
q9 17 24 32l-61 -49q-35 -30 -64 -61t-51.5 -59.5t-39.5 -53t-27 -41.5q-8 13 -13 30t-2 41q3 18 19.5 40t41.5 45.5t56 47.5l63 47l-7 19q-4 10 -5 15q-2 3 -2 5t-1 4t-1 3l-1 1v1l-1 2l-24 87l-22 -68t-19 -52q-7 -18 -23 -8q-5 2 -5 6t1 9t4 11l47 157l-10 36q0 7 0.5 15
t5.5 16q4 7 15 13l10 5q-20 7 -44 17t-49 26q-9 -3 -20 -4.5t-31 -3t-51.5 -1.5t-80.5 1t-120 3.5t-169 6.5q-44 3 -85 3q-35 0 -72.5 -3.5t-61.5 -13.5q-25 -10 -40 -19.5t-24 -17.5q-11 -10 -15 -18q-19 30 -21 58q-1 12 2 25t12 25.5t25.5 24.5t42.5 22q51 20 110 21
t119 -7.5t116.5 -21.5t102.5 -21q67 -12 116.5 -19.5t72.5 -10.5q19 -1 35 0q-13 12 -23.5 26t-17.5 31q-11 25 -4 46.5t23.5 36t39.5 20.5t44 0t37 -25.5t20 -54.5q4 -36 -9.5 -58.5t-36.5 -36.5zM-21 560q30 14 38 36.5t6 45.5v2q0 3 -2 10.5t-6 15t-11.5 13.5t-18.5 6
q-13 0 -20.5 -9t-11.5 -20t-5 -20.5t-1 -10.5q0 -2 0.5 -5.5t0.5 -6.5q2 -16 10 -30t21 -27z" />
    <glyph glyph-name="y.ss01" unicode="&#xe039;" horiz-adv-x="499" 
d="M53 528q17 -11 35.5 -19.5t35 -15t29.5 -10.5t19 -5h6l-3 -12l-27 -131l-47 -231q-6 -35 6 -45t33 -2.5t45.5 28.5t41.5 48h1q0 2 1 2q3 5 11 19.5t16 34.5l17.5 84.5l14.5 68.5l13 63q5 13 14.5 28.5t33.5 28.5q14 7 27 10t24 5q12 2 25 1h18l-29 -143l-6 -29.5l-9 -45
l-11 -54.5l-12 -58l-30 -148l-11 -56h1l-54 -267q-4 -14 -11 -28q-6 -12 -16 -26.5t-25 -27.5q-16 -14 -31 -20t-26 -8q-13 -3 -25 -1q-6 -1 -13 -2q-6 -1 -14 -1.5t-18 -0.5q-8 0 -23 2.5t-31 9t-31 19.5t-23 36q-10 26 -7.5 59.5t17 68t40.5 67.5t64 58q15 8 31 14.5
t33 11.5l-9 -39q-15 -6 -43 -28.5t-57 -78.5q-8 -14 -15.5 -40t-8.5 -52.5t8 -48t34 -25.5q16 -4 31.5 13t33.5 70l10.5 36t9.5 37l71 345q-11 -16 -22.5 -29.5t-25.5 -23.5q-26 -21 -55 -32t-56 -12h-9q-26 2 -47 15.5t-32 41.5q-5 12 -9.5 38.5t4.5 67.5v3l2 7v2q1 1 1 3
l46 227l9 19.5t16 20.5q5 5 10 9t13 8q6 3 12.5 5.5t12.5 4.5q-20 7 -43.5 17t-47.5 25q-9 -3 -20 -4.5t-31 -3t-51.5 -1.5t-80.5 1t-120 3.5t-169 6.5q-44 3 -85 3q-35 0 -72.5 -3.5t-61.5 -13.5q-25 -10 -40 -19.5t-24 -17.5q-11 -10 -15 -18q-19 30 -21 58q-1 12 2 25
t12 25.5t25.5 24.5t42.5 22q51 20 110 21t119 -7.5t116.5 -21.5t102.5 -21q67 -12 116.5 -19.5t72.5 -10.5q19 -1 35 0q-13 12 -23.5 26t-17.5 31q-10 26 -3.5 47t23 35.5t39.5 20.5t44 0t37 -25.5t20 -54.5q4 -36 -9.5 -58.5t-36.5 -36.5zM21 552q30 14 38 36.5t6 45.5v2
q0 3 -2 10.5t-6 15t-11.5 13.5t-18.5 6q-13 0 -20.5 -9t-11.5 -20t-5 -20.5t-1 -10.5q0 -2 0.5 -5.5t0.5 -6.5q2 -16 10 -30t21 -27z" />
    <glyph glyph-name="a.ss02" unicode="&#xe042;" horiz-adv-x="574" 
d="M536 528q-23 13 -36 35.5t-10 58.5t19.5 55t37.5 25.5t43.5 0.5t39 -20.5t23.5 -36t-3 -47.5q-7 -17 -17.5 -30.5t-22.5 -25.5q7 -2 15.5 -2t17.5 1q24 4 74 11t116 19q46 8 102.5 21t116.5 21.5t119 7.5t110 -21t67.5 -46.5t14.5 -50.5q-2 -28 -21 -58q-4 8 -15 18
q-9 8 -24.5 17.5t-39.5 20.5q-25 10 -62 13.5t-72 3.5q-41 0 -85 -4q-98 -4 -169 -6.5t-120.5 -3.5t-80.5 -0.5t-51 1.5t-31.5 3t-20.5 5q-24 -16 -48.5 -26.5t-43.5 -17.5l-26 -131l-47 -231q-7 -35 5.5 -45t33 -3t45 28t41.5 48l1 1v2q5 8 20 35t26 61l1 2q0 1 0.5 1
t0.5 1q2 3 6 5t10 0q8 -2 8.5 -9t-0.5 -9v-2q-2 -8 -11.5 -30t-23.5 -49t-33 -54t-41 -43q-27 -21 -56 -32.5t-55 -11.5h-9q-27 2 -48 16t-32 43l6 22q5 20 -1 33t-14 21q2 9 3 18.5t3 20.5l44 214q-22 39 -51.5 41.5t-58.5 -21t-54 -69t-37 -102.5q-9 -42 -10 -76.5
t5 -58.5t19.5 -35.5t33.5 -7.5h1q-1 -1 -2 -1q5 0 20 5.5t29 22.5q7 9 9.5 16t3.5 12t-1 9q2 0 6 -1q7 -2 12 -6t8.5 -11t1.5 -21q-2 -11 -11.5 -25.5t-24.5 -27.5q-23 -17 -52 -27t-58 -8v1q-29 0 -55 10.5t-44.5 31.5t-28.5 52.5t-6 73.5q5 57 21.5 111t47.5 97.5
t76.5 70.5t108.5 30q6 0 19 -1t28 -5.5t30.5 -13.5t28.5 -25q5 8 13.5 16.5t22.5 16.5q18 9 35 12l48.5 17t65.5 33zM524 634q-3 -23 6 -46t38 -36q13 12 21 26t10 30q0 4 1 7t1 6l-1.5 9.5t-5.5 20.5t-11.5 20t-20.5 9q-11 0 -18.5 -5.5t-11.5 -13t-6 -15t-2 -10.5v-2z" />
    <glyph glyph-name="b.ss02" unicode="&#xe043;" horiz-adv-x="544" 
d="M484 655q-23 13 -35.5 35t-9.5 58q4 36 20 55t37 25.5t43.5 0.5t39 -20.5t23.5 -36t-3 -47.5q-7 -17 -17.5 -30.5t-22.5 -25.5q7 -2 15.5 -2t17.5 1q24 4 74 11t116 19q46 8 102.5 21t116.5 21.5t119 7.5t110 -21t67.5 -46.5t14.5 -50.5q-2 -28 -21 -58q-4 8 -15 18
q-9 8 -24.5 17.5t-39.5 20.5q-25 10 -62 13.5t-72 3.5q-41 0 -85 -4q-98 -4 -169 -6.5t-120.5 -3.5t-80.5 -0.5t-51 1.5t-31.5 3t-20.5 5q-62 -41 -117 -54.5t-96 -13.5q-48 0 -89 13q-1 -1 -3 -1l9 39q7 3 18.5 9.5t25 19t28 31.5t28.5 47q8 14 13 40.5t4 53.5t-10.5 47
t-29.5 22q-9 1 -16 -1.5t-13.5 -11.5t-14 -25t-16.5 -42q-8 -26 -15 -53.5t-12 -50.5l-48 -263q18 13 35 20t32 10.5t26.5 4t16.5 0.5q62 -2 96.5 -29.5t48 -70.5t8 -97.5t-23.5 -111.5q-16 -48 -42.5 -81.5t-58.5 -54.5l20 2t21 3q44 8 74.5 27.5t49.5 40.5q22 25 36 54
q8 14 17 33.5t16 41.5v1l1 2l2 2q2 3 5.5 5t9.5 0q8 -2 8.5 -9t0.5 -10v-1h-1q-2 -8 -11 -30t-23.5 -49t-33.5 -54t-41 -43q-14 -11 -28.5 -20t-29.5 -14h-1q-3 -2 -6 -2.5t-5 -1.5q-32 -9 -67 -12t-64.5 -2.5t-49 2.5t-20.5 2q-51 3 -78 35q-11 12 -14.5 27t-0.5 26
q3 13 9.5 20t13.5 12q4 2 7.5 3t5.5 2q6 3 14 3q14 0 24 -10.5t10 -25.5q0 -18 -12 -28q2 -2 6 -2v1q18 -5 36 6.5t34 35.5t29.5 59t21.5 77q11 55 5 99.5t-24.5 68.5t-47.5 24t-65 -34l-25.5 -140.5t-19.5 -106.5q-21 -12 -35.5 -33.5t-10.5 -49.5q2 -25 14 -40.5t24 -23.5
q-8 -2 -14.5 -2h-14.5q-23 1 -42 12t-31.5 32t-16.5 53.5t4 76.5l113 633q3 14 10 28q6 12 16 26.5t25 28.5q15 13 30 19.5t26 8.5q13 3 25 2h5q1 0 13.5 1.5t32.5 1.5q8 0 23 -2.5t31 -9.5t31 -20t23 -35q9 -26 6.5 -59t-16 -67t-38.5 -66t-60 -57q18 0 43 0.5t52 5
t53.5 12.5t49.5 23zM473 760q-3 -23 6 -46t38 -36q13 12 21 26t10 30q0 4 1 7t1 6l-1.5 9.5t-5.5 20.5t-11.5 20t-20.5 9q-11 0 -18.5 -5.5t-11.5 -13t-6 -15t-2 -10.5v-2z" />
    <glyph glyph-name="c.ss02" unicode="&#xe044;" horiz-adv-x="421" 
d="M429 397q-23 13 -36 35.5t-10 58.5q4 36 20 55t37 25.5t43.5 0.5t39 -20.5t23.5 -36t-3 -47.5q-7 -17 -17.5 -30.5t-22.5 -25.5q7 -2 15.5 -2t17.5 1q24 4 74 11t116 19q46 8 102.5 21t116.5 21.5t119 7.5t110 -21t67.5 -46.5t14.5 -50.5q-2 -28 -21 -58q-4 8 -15 18
q-9 8 -24.5 17.5t-39.5 20.5q-25 10 -62 13.5t-72 3.5q-41 0 -85 -4q-98 -4 -169 -6.5t-120.5 -3.5t-80.5 -0.5t-51 1.5t-31.5 3t-20.5 5q-31 -20 -61.5 -32t-49.5 -17q-10 -5 -19 -5q-16 0 -27 11t-11 27q0 14 8 24t21 13q-23 29 -51 27t-55.5 -27t-50.5 -68.5t-35 -97.5
l-5 -32q0 -2 -0.5 -4t-0.5 -4q-4 -37 2 -70q5 -28 20.5 -54.5t49.5 -36.5q33 -10 62 -1t51.5 24.5t37 33t19.5 24.5q5 5 10 15l1 1q1 0 1 2q5 8 18.5 35t24.5 61l1 2l2 2q2 3 5.5 5t9.5 0q8 -2 8.5 -9t0.5 -9t-1 -2v-1q-2 -7 -10.5 -29.5t-22.5 -49.5t-32 -54t-39 -43
q-29 -23 -59.5 -34.5t-59.5 -9.5l1 1q-5 -1 -10.5 -1h-12.5l-15 2q-23 3 -43 7t-39.5 12.5t-38 23.5t-38.5 40q-19 24 -25.5 53t-6.5 54.5t3 43.5t4 21q12 43 31.5 82t49 68.5t68.5 47.5t89 20q7 0 22 -1.5t33 -8t35.5 -20.5t28.5 -38q10 -25 9 -35v-5q28 12 57 30zM417 503
q-3 -23 6 -46t38 -36q13 12 21 26t10 30q0 4 1 7t1 6l-1.5 9.5t-5.5 20.5t-11.5 20t-20.5 9q-11 0 -18.5 -5.5t-11.5 -13t-6 -15t-2 -10.5v-2z" />
    <glyph glyph-name="d.ss02" unicode="&#xe045;" horiz-adv-x="572" 
d="M791 647q-23 13 -35.5 35t-9.5 58t19.5 55t37.5 25.5t43.5 0.5t39 -20.5t23.5 -36t-3 -47.5q-7 -17 -17.5 -30.5t-22.5 -25.5q7 -2 15.5 -2t17.5 1q24 4 74 11t116 19q46 8 102.5 21t116.5 21.5t119 7.5t110 -21t67.5 -46.5t14.5 -50.5q-2 -28 -21 -58q-4 8 -15 18
q-9 8 -24.5 17.5t-39.5 20.5q-25 10 -62 13.5t-72 3.5q-41 0 -85 -4q-98 -4 -169 -6.5t-120.5 -3.5t-80.5 -0.5t-51 1.5t-31.5 3t-20.5 5q-62 -41 -117 -54.5t-96 -13.5q-48 0 -89 13l4 4l9 38q7 3 18.5 9.5t24.5 19t27.5 31.5t28.5 48q9 13 14 39.5t3.5 53.5t-10.5 47.5
t-30 22.5q-8 0 -15 -2.5t-13.5 -11t-13.5 -24.5t-16 -42q-9 -24 -15.5 -50.5l-11.5 -48.5l-124 -603q-6 -35 6 -45t33 -3t45.5 28t41.5 48l1 1v2q5 8 19.5 35t25.5 61l1 2l2 2q2 3 5.5 5t9.5 0q9 -2 9.5 -9t-0.5 -9v-2q-2 -8 -11.5 -30t-24 -49t-33.5 -54t-40 -43
q-27 -21 -56.5 -32.5t-55.5 -11.5h-9q-27 2 -48 16t-32 43l7 22q5 20 -1.5 33t-13.5 21q1 9 2.5 18.5t3.5 20.5l44 214q-22 39 -51.5 41.5t-59 -21t-54 -69t-36.5 -102.5q-9 -42 -10 -76.5t5 -58.5t19.5 -35.5t33.5 -7.5q-1 -1 -2 -1q6 0 21 5.5t28 22.5t13.5 25.5
t-0.5 10.5q20 -12 23.5 -27.5t-4.5 -31t-24.5 -29.5t-36.5 -24t-40.5 -14t-36.5 0l1 1q-29 0 -55.5 10.5t-45 31.5t-28.5 52.5t-6 73.5q5 57 22 111t47.5 97.5t76.5 70.5t109 30q6 0 17.5 -1t26 -5t29.5 -12t28 -22l74 373q4 14 11 28q6 12 15.5 26.5t25.5 27.5q21 18 56 27
t71 6.5t66.5 -18.5t42.5 -49q9 -26 6.5 -59.5t-17 -68t-40.5 -67.5t-63 -58q18 0 43 1t51.5 5t53 12.5t49.5 22.5zM780 752q-3 -23 6 -46t38 -36q13 12 21 26t10 30q0 4 1 7t1 6l-1.5 9.5t-5.5 20.5t-11.5 20t-20.5 9q-11 0 -18.5 -5.5t-11.5 -13t-6 -15t-2 -10.5v-2z" />
    <glyph glyph-name="e.ss02" unicode="&#xe046;" horiz-adv-x="423" 
d="M543 287q-23 13 -36 35.5t-10 58.5q4 36 20 55t37 25.5t43.5 0.5t39 -20.5t23.5 -36t-3 -47.5q-7 -17 -17.5 -30.5t-22.5 -25.5q7 -2 15.5 -2t17.5 1q24 4 74 11t116 19q46 8 102.5 21t116.5 21.5t119 7.5t110 -21t67.5 -46.5t14.5 -50.5q-2 -28 -21 -58q-4 8 -15 18
q-9 8 -24.5 17.5t-39.5 20.5q-25 10 -62 13.5t-72 3.5q-41 0 -85 -4q-98 -4 -169 -6.5t-120.5 -3.5t-80.5 -0.5t-51 1.5t-31.5 3t-20.5 5q-20 -14 -41 -23.5t-39 -16t-31 -10t-17 -4.5q-2 -8 -11 -30t-22.5 -49t-31.5 -53.5t-39 -42.5q-29 -23 -59.5 -34.5t-59.5 -9.5l1 1
q-5 -1 -10.5 -1h-12.5l-15 2q-23 3 -43 7t-39.5 12.5t-38 23.5t-38.5 40q-19 24 -25.5 53t-6.5 54.5t3 43.5t4 21q12 43 31.5 82t49 68.5t68.5 47.5t89 20q6 0 16.5 -1t24 -4.5t28 -10.5t27.5 -19q24 -23 31 -58t-4.5 -70.5t-41.5 -66t-80 -44.5q-31 -10 -59.5 -5.5
t-40.5 29t9 52.5q0 -15 7 -22q6 -7 18.5 -7.5t37.5 13.5q44 32 63 61t24 52q6 26 0 49q-21 13 -45 5.5t-46.5 -30.5t-37.5 -53t-16 -41q-20 -7 -31 -20.5t-14.5 -29t0.5 -31.5t15 -27q-3 -25 -1 -50.5t10.5 -47t23 -38t37.5 -23.5q38 -11 76 3q29 11 53 32t42.5 47.5
t30.5 56.5t18 60l3 -1q4 1 16.5 5t29.5 10.5t37 15.5t38 21zM531 393q-3 -23 6 -46t38 -36q13 12 21 26t10 30q0 4 1 7t1 6l-1.5 9.5t-5.5 20.5t-11.5 20t-20.5 9q-11 0 -18.5 -5.5t-11.5 -13t-6 -15t-2 -10.5v-2z" />
    <glyph glyph-name="f.ss02" unicode="&#xe047;" horiz-adv-x="402" 
d="M545 562q-23 13 -35.5 35t-9.5 58t19.5 55t37.5 25.5t43.5 0.5t39 -20.5t23.5 -36t-3 -47.5q-7 -17 -17.5 -30.5t-22.5 -25.5q7 -2 15.5 -2t17.5 1q24 4 74 11t116 19q46 8 102.5 21t116.5 21.5t119 7.5t110 -21t67.5 -46.5t14.5 -50.5q-2 -28 -21 -58q-4 8 -15 18
q-9 8 -24.5 17.5t-39.5 20.5q-25 10 -62 13.5t-72 3.5q-41 0 -85 -4q-98 -4 -169 -6.5t-120.5 -3.5t-80.5 -0.5t-51 1.5t-31.5 3t-20.5 5q-62 -41 -117 -54.5t-96 -13.5q-48 0 -89 13l4 4q8 14 11.5 31t5 34t0.5 32t-2 26q0 9 -3 18q-3 13 -11.5 22.5t-24.5 14.5
q-29 7 -60 -94q-8 -25 -14 -51l-11 -48l-17 -89q21 1 49.5 -1t57.5 -3t56 0.5t46 10.5q15 7 24.5 14.5t14.5 12.5q6 6 9 12q6 -24 4 -46q-2 -19 -11.5 -40t-35.5 -35q-21 -12 -44.5 -11t-50.5 7.5t-59 16t-70 14.5l-22 -125t-22 -123v-2q0 -1 -0.5 -1.5t-0.5 -1.5l-71 -399
q-4 -14 -10 -28q-5 -12 -15 -26t-25 -27q-16 -14 -30.5 -20.5t-25.5 -8.5q-13 -3 -25 -1h-19l16 85l95 522h1l32 177l-48 8l6 24l47 -1l33 185q3 14 10 28q5 12 15 26t25 28q21 18 56 27t71 6t66.5 -19t42.5 -47q10 -26 12 -51.5t-10 -57.5q19 0 43 1t50.5 5t52.5 12.5
t48 22.5zM534 667q-3 -23 6 -46t38 -36q13 12 21 26t10 30q0 4 1 7t1 6l-1.5 9.5t-5.5 20.5t-11.5 20t-20.5 9q-11 0 -18.5 -5.5t-11.5 -13t-6 -15t-2 -10.5v-2z" />
    <glyph glyph-name="g.ss02" unicode="&#xe048;" horiz-adv-x="524" 
d="M482 482q-8 -37 -14.5 -72.5t-14.5 -70.5l-6 -29.5l-9 -45l-11 -54.5l-12 -58l-30 -148l-11 -57v1l-53 -267q-4 -14 -11 -28q-6 -12 -16 -26.5t-25 -27.5q-16 -14 -31 -20.5t-26 -8.5q-13 -3 -25 -1q-6 -1 -13 -2q-6 -1 -14.5 -1h-18.5q-8 0 -22.5 2t-31 9t-31.5 20
t-23 35q-9 26 -6.5 59.5t17 68.5t40.5 68t64 58q15 8 31 14t33 11l-9 -39q-8 -3 -19 -9t-24 -18.5t-27.5 -32t-29.5 -47.5q-8 -14 -15.5 -40t-8.5 -52.5t8 -48t34 -25.5q16 -3 31 13.5t33 69.5q6 17 11 36l10 37q11 49 24 115l28 138q14 10 28 24.5t21 37.5q9 27 1 46.5
t-22 31.5l17 80.5l14.5 71l11.5 56.5l8 38q-22 37 -51.5 39t-58.5 -22t-54 -68.5t-37 -101.5q-9 -42 -9.5 -76.5t5.5 -58.5t19.5 -35.5t33.5 -7.5q-1 -1 -2 -1q5 0 20.5 5.5t29.5 22.5q8 9 10 16t3 12q0 5 -1 9q2 0 6 -1q7 -2 12 -6t9 -11.5t2 -20.5q-2 -11 -12 -25.5
t-25 -27.5q-22 -17 -51.5 -27t-58.5 -8q-29 0 -55 10.5t-45 31.5t-28.5 53t-6.5 74q5 56 22 110.5t48 97.5t76.5 70.5t108.5 30.5q6 0 18.5 -1t27.5 -5.5t30.5 -13.5t28.5 -25q11 19 36 33q14 7 27 10t24 5q12 2 25 1h18zM487 -47q-23 14 -36.5 36.5t-9.5 58.5q3 35 19 54.5
t37.5 25.5t44 0t39 -20.5t23.5 -36t-3 -46.5q-7 -17 -17.5 -31t-23.5 -26q15 -1 34 0q23 3 73 10.5t117 19.5q46 8 102.5 21t116.5 21.5t118.5 7.5t109.5 -21q26 -10 42.5 -22t25.5 -24.5t12 -25.5t2 -25q-2 -28 -21 -58q-5 8 -15 18q-9 8 -24 17.5t-40 19.5t-62 13.5
t-72 3.5q-41 0 -85 -3q-98 -4 -168.5 -6.5t-120 -3.5t-81 -1t-51 1.5t-31 3t-20.5 4.5q-18 -21 -40.5 -31.5t-42.5 -15.5q-24 -5 -48 -6l10 36q10 -1 23 3q11 2 27 8.5t36 19.5zM475 59q-3 -23 5.5 -45.5t37.5 -36.5q13 13 21.5 27t10.5 30q0 3 0.5 6.5t0.5 5.5q0 1 -1 10.5
t-5 20.5t-11.5 20t-20.5 9q-12 0 -19 -6t-11.5 -13.5t-6 -15t-1.5 -10.5v-2z" />
    <glyph glyph-name="h.ss02" unicode="&#xe049;" 
d="M491 648q-23 13 -35.5 35t-9.5 58t19.5 55t37.5 25.5t43.5 0.5t39 -20.5t23.5 -36t-3 -47.5q-7 -17 -17.5 -30.5t-22.5 -25.5q7 -2 15.5 -2t17.5 1q24 4 74 11t116 19q46 8 102.5 21t116.5 21.5t119 7.5t110 -21t67.5 -46.5t14.5 -50.5q-2 -28 -21 -58q-4 8 -15 18
q-9 8 -24.5 17.5t-39.5 20.5q-25 10 -62 13.5t-72 3.5q-41 0 -85 -4q-98 -4 -169 -6.5t-120.5 -3.5t-80.5 -0.5t-51 1.5t-31.5 3t-20.5 5q-59 -39 -112 -53t-93.5 -15.5t-66 4.5t-29.5 8h-3l9 39q16 6 43.5 28.5t56.5 78.5q9 14 14 40.5t3.5 53.5t-11 47t-30.5 22
q-8 0 -15 -2.5t-13.5 -11t-13.5 -24.5t-16 -42q-8 -24 -15 -50.5t-12 -48.5l-47 -229h2q-2 -8 -3.5 -15.5t-3.5 -15.5q5 4 10 7t12 6q20 8 41.5 12t38.5 6q20 2 40 0h122q-2 -6 -2 -12l-27 -131l-47 -231q-7 -35 5.5 -45t33.5 -2.5t45 28.5t41 48h1q1 1 1 2q5 8 20 35.5
t26 60.5v2l2 2q2 3 5.5 5.5t10.5 0.5q8 -2 8.5 -9t-0.5 -10q0 -1 -0.5 -1t-0.5 -1q-2 -8 -11 -30t-23.5 -49t-33.5 -54t-41 -43q-55 -42 -111 -44h-9q-26 2 -47 15.5t-32 41.5q-5 12 -9.5 38.5t4.5 67.5v3q0 2 0.5 3.5t0.5 3.5l1 1v1q0 2 1 3l46 227l9 19.5t15 20.5h-41
q-16 0 -33 -4q-14 -4 -31.5 -13.5t-33.5 -29.5l-11 -13q-2 -3 -5.5 -10t-8.5 -18l-5 -22q-2 -13 -4.5 -25.5l-5.5 -26.5l-37 -179q-4 -19 -4 -36q-1 -14 2 -29t13 -23l11 -9q-11 -3 -22 -5t-22 -2h-9q-44 2 -69 37l-6 12q-6 13 -10 30q-3 14 -4 35t5 49v1q3 13 3 16l23 112
h-2l24 113v4l81 399q3 14 10 28q6 12 15.5 26t25.5 27q21 18 56 27t71 6.5t66.5 -18.5t42.5 -48q9 -26 6.5 -58.5t-16 -66.5t-38 -66.5t-60.5 -57.5q18 0 43 1t51.5 5t53 12.5t49.5 22.5zM480 753q-3 -23 6 -46t38 -36q13 12 21 26t10 30q0 4 1 7t1 6l-1.5 9.5t-5.5 20.5
t-11.5 20t-20.5 9q-11 0 -18.5 -5.5t-11.5 -13t-6 -15t-2 -10.5v-2z" />
    <glyph glyph-name="i.ss02" unicode="&#xe050;" horiz-adv-x="271" 
d="M399 297q-23 13 -36 35.5t-10 58.5t19.5 55t37.5 25.5t43.5 0.5t39 -20.5t23.5 -36t-3 -47.5q-7 -17 -17.5 -30.5t-22.5 -25.5q7 -2 15.5 -2t17.5 1q24 4 74 11t116 19q46 8 102.5 21t116.5 21.5t119 7.5t110 -21t67.5 -46.5t14.5 -50.5q-2 -28 -21 -58q-4 8 -15 18
q-9 8 -24.5 17.5t-39.5 20.5q-25 10 -62 13.5t-72 3.5q-41 0 -85 -4q-98 -4 -169 -6.5t-120.5 -3.5t-80.5 -0.5t-51 1.5t-31.5 3t-20.5 5q-23 -15 -46 -25t-42 -17q-22 -8 -42 -12v-1q-2 -8 -11.5 -30t-23.5 -49t-33 -54t-41 -43q-26 -21 -55.5 -32.5t-55.5 -12.5h-9
q-26 2 -47.5 16t-32.5 42v-1q-5 12 -9 38.5t4 67.5q0 1 0.5 1.5t0.5 2.5q1 2 1 7v1q1 2 1 3l47 227q3 9 8 19.5t16 21.5q8 8 24 16q17 9 33.5 12.5t27.5 4.5h33l-2 -12q-8 -34 -14.5 -66.5l-12.5 -64.5l-47 -231q-7 -35 5.5 -45t33.5 -3t45.5 28t41.5 48v1q0 1 1 1
q2 3 8.5 14t13.5 26t13 31.5t6 31.5l2 -1l-1 1q21 5 42 13l40 16t42 23zM183 495q-10 1 -28.5 6t-36 17t-30 32.5t-10.5 53.5l1 9h129l-12 -58.5t-13 -59.5zM387 403q-3 -23 6 -46t38 -36q13 12 21 26t10 30q0 4 1 7t1 6l-1.5 9.5t-5.5 20.5t-11.5 20t-20.5 9
q-11 0 -18.5 -5.5t-11.5 -13t-6 -15t-2 -10.5v-2z" />
    <glyph glyph-name="j.ss02" unicode="&#xe051;" horiz-adv-x="255" 
d="M74 461q14 8 27.5 10.5l24.5 4.5q13 1 25 1h18l-26 -143q-2 -10 -5.5 -29.5l-8 -45l-10 -54.5l-10.5 -58l-27 -148l-9 -56v1l-48 -268q-4 -14 -10 -28q-5 -12 -14.5 -26.5t-24.5 -27.5q-16 -14 -30.5 -20t-25.5 -8q-13 -3 -25 -2q-6 -1 -13 -2q-6 -1 -14.5 -1h-18.5
q-8 0 -23 2.5t-31.5 9t-31.5 19.5t-23 35q-10 27 -8.5 60.5t15 68t39 67.5t62.5 58q15 8 31 14t33 11l-7 -39q-8 -3 -19 -9t-24 -18.5t-27.5 -31.5t-28.5 -47q-8 -14 -15 -40t-7 -52.5t9.5 -48t34.5 -26.5q17 -3 31 14t31 69q7 18 11.5 37l8.5 36l8 46.5l15 83l19 106
l21 115.5l55 303q5 13 14 28.5t32 28.5zM189 -22q-23 14 -36.5 36.5t-9.5 58.5q3 35 19 54.5t37.5 25.5t44 0t39 -20.5t23.5 -36t-3 -46.5q-7 -17 -17.5 -31t-23.5 -26q15 -1 34 0q23 3 73 10.5t117 19.5q46 8 102.5 21t116.5 21.5t118.5 7.5t109.5 -21q26 -10 42.5 -22
t25.5 -24.5t12 -25.5t2 -25q-2 -28 -21 -58q-5 8 -15 18q-9 8 -24 17.5t-40 19.5t-62 13.5t-72 3.5q-41 0 -85 -3q-98 -4 -168.5 -6.5t-120 -3.5t-81 -1t-51 1.5t-31 3t-20.5 4.5q-18 -21 -40.5 -31.5t-42.5 -15.5q-24 -5 -48 -6l10 36q10 -1 23 3q11 2 27 8.5t36 19.5z
M193 604q-6 -29 -11.5 -58.5t-10.5 -59.5q-10 1 -28.5 6.5t-36.5 17.5t-31.5 32.5t-12.5 52.5l2 9h129zM177 84q-3 -23 5.5 -45.5t37.5 -36.5q13 13 21.5 27t10.5 30q0 3 0.5 6.5t0.5 5.5q0 1 -1 10.5t-5 20.5t-11.5 20t-20.5 9q-12 0 -19 -6t-11.5 -13.5t-6 -15t-1.5 -10.5
v-2z" />
    <glyph glyph-name="k.ss02" unicode="&#xe052;" 
d="M682 686q-23 13 -35.5 35t-9.5 58t19.5 55t37.5 25.5t43.5 0.5t39 -20.5t23.5 -36t-3 -47.5q-7 -17 -17.5 -30.5t-22.5 -25.5q7 -2 15.5 -2t17.5 1q24 4 74 11t116 19q46 8 102.5 21t116.5 21.5t119 7.5t110 -21t67.5 -46.5t14.5 -50.5q-2 -28 -21 -58q-4 8 -15 18
q-9 8 -24.5 17.5t-39.5 20.5q-25 10 -62 13.5t-72 3.5q-41 0 -85 -4q-98 -4 -169 -6.5t-120.5 -3.5t-80.5 -0.5t-51 1.5t-31.5 3t-20.5 5q-33 -22 -64 -35.5t-59.5 -21t-53.5 -10t-46 -2.5q-13 -26 -37 -44.5t-51.5 -32t-56 -23.5t-50.5 -20l-8 -4h15h6h122q-2 -6 -2 -12
l-27 -131l-48 -231q-6 -35 6.5 -45t33.5 -2.5t45 28.5t41 48h1q1 1 1 2q5 8 20 35.5t26 60.5v2q0 2 2 2q2 3 5.5 5.5t10.5 0.5q8 -2 8.5 -9t-0.5 -10q-1 -1 -1 -2q-2 -8 -11.5 -30t-23.5 -49t-33 -54t-41 -43q-55 -42 -111 -44h-9q-26 2 -47 15.5t-32 41.5q-5 12 -9.5 38.5
t4.5 67.5v3q0 2 0.5 3.5t0.5 3.5v1l1 1v3l47 227q3 9 8.5 19.5t15.5 20.5h-41q-16 0 -33 -4q-14 -4 -31.5 -13.5t-33.5 -29.5l-11 -13q-2 -3 -5.5 -10t-8.5 -18l-5 -22q-2 -13 -4.5 -25.5l-5.5 -26.5l-37 -179q-3 -19 -4 -36q-1 -14 1.5 -29t12.5 -23l12 -9q-11 -3 -22 -5
t-22 -2h-9q-21 1 -39 10t-30 27l-6 12q-6 13 -10 30q-3 14 -4 35t5 49v1q3 13 3 16l23 112h-2l24 113v4l81 399q3 14 10 28q6 12 15.5 26t25.5 27q21 18 56 27t71 6.5t66.5 -18.5t42.5 -48q9 -26 6.5 -59.5t-16.5 -68t-40.5 -67.5t-63.5 -58q-15 -8 -31.5 -14.5t-33.5 -11.5
l9 39q16 6 43.5 28.5t56.5 78.5q9 14 14 40.5t3.5 53.5t-11 47t-30.5 22q-8 0 -15 -2.5t-13.5 -11t-13.5 -24.5t-16 -42q-8 -24 -15 -50.5t-12 -48.5l-47 -229h2q-2 -8 -3.5 -15.5t-3.5 -15.5q5 4 10 7t11 6h1l171 119q15 10 29 21q12 9 26 21t25 25l2 -1l2 2q43 -4 85 -1
q36 2 76.5 10.5t72.5 29.5zM671 791q-3 -23 6 -46t38 -36q13 12 21 26t10 30q0 4 1 7t1 6l-1.5 9.5t-5.5 20.5t-11.5 20t-20.5 9q-11 0 -18.5 -5.5t-11.5 -13t-6 -15t-2 -10.5v-2z" />
    <glyph glyph-name="l.ss02" unicode="&#xe053;" horiz-adv-x="281" 
d="M480 645q-23 13 -35.5 35t-9.5 58t19.5 55t37.5 25.5t43.5 0.5t39 -20.5t23.5 -36t-3 -47.5q-7 -17 -17.5 -30.5t-22.5 -25.5q7 -2 15.5 -2t17.5 1q24 4 74 11t116 19q46 8 102.5 21t116.5 21.5t119 7.5t110 -21t67.5 -46.5t14.5 -50.5q-2 -28 -21 -58q-4 8 -15 18
q-9 8 -24.5 17.5t-39.5 20.5q-25 10 -62 13.5t-72 3.5q-41 0 -85 -4q-98 -4 -169 -6.5t-120.5 -3.5t-80.5 -0.5t-51 1.5t-31.5 3t-20.5 5q-62 -41 -117 -54.5t-96 -13.5q-48 0 -89 13l2 2l9 39q14 5 42.5 27.5t57.5 78.5q8 14 13 41t3.5 53.5t-10.5 47t-30 22.5
q-9 0 -15.5 -2.5t-13.5 -11t-14 -24.5t-16 -43q-6 -18 -11.5 -38.5t-10 -39.5l-8 -34t-4.5 -24l-19.5 -106l-21 -115l-20.5 -113.5l-18.5 -101.5l-15 -80t-8.5 -48q-6 -36 6 -46.5t33 -3t44.5 28.5t40.5 48l1 1l2 2q5 8 18 35.5t24 60.5l1 2q0 2 2 2q2 3 5.5 5.5t9.5 0.5
q8 -3 8.5 -9.5t0.5 -9.5q0 -2 -1 -2q-2 -8 -10.5 -30t-22.5 -49t-32 -54t-39 -44q-29 -23 -60 -34t-60 -9q-23 1 -42 12t-31.5 32t-16.5 53t4 76l113 635q3 14 10 28q6 12 15.5 26t25.5 27q21 18 56.5 27t72.5 6t68.5 -19t42.5 -47q9 -26 7 -59.5t-16 -68t-39.5 -67
t-62.5 -57.5q18 0 43 1t51.5 5t53 12.5t49.5 22.5zM469 750q-3 -23 6 -46t38 -36q13 12 21 26t10 30q0 4 1 7t1 6l-1.5 9.5t-5.5 20.5t-11.5 20t-20.5 9q-11 0 -18.5 -5.5t-11.5 -13t-6 -15t-2 -10.5v-2z" />
    <glyph glyph-name="m.ss02" unicode="&#xe054;" horiz-adv-x="774" 
d="M898 289q-23 13 -36 35.5t-10 58.5t19.5 55t37.5 25.5t43.5 0.5t39 -20.5t23.5 -36t-3 -47.5q-7 -17 -17.5 -30.5t-22.5 -25.5q7 -2 15.5 -2t17.5 1q24 4 74 11t116 19q46 8 102.5 21t116.5 21.5t119 7.5t110 -21t67.5 -46.5t14.5 -50.5q-2 -28 -21 -58q-4 8 -15 18
q-9 8 -24.5 17.5t-39.5 20.5q-25 10 -62 13.5t-72 3.5q-41 0 -85 -4q-98 -4 -169 -6.5t-120.5 -3.5t-80.5 -0.5t-51 1.5t-31.5 3t-20.5 5q-21 -14 -43 -24t-40.5 -16.5t-31 -10t-15.5 -3.5v-1q-2 -8 -11 -30t-23.5 -49t-33.5 -54t-41 -43q-55 -42 -111 -44h-9
q-26 2 -47 15.5t-32 41.5q-5 12 -9.5 38.5t4.5 67.5v3l2 7v2q0 1 0.5 1.5t0.5 1.5l38 186q4 22 17 37t27.5 24.5t27 14t16.5 5.5h-105q-12 0 -38.5 -8t-51.5 -39l-10 -13q-2 -3 -6 -10t-9 -18l-5 -22q-2 -13 -4.5 -25.5l-5.5 -26.5l-37 -179q-4 -19 -4 -36q-1 -14 2 -29
t13 -23l11 -9q-11 -3 -21.5 -5t-21.5 -2h-10q-43 2 -69 37l-6 12q-6 13 -10 30q-3 14 -4 35t5 49v1q3 13 3 16l38 185l16 80h-11q-16 0 -33 -4q-14 -4 -31.5 -13.5t-33.5 -29.5l-11 -13q-2 -3 -5.5 -10t-8.5 -18l-4 -22l-6 -25.5t-5 -26.5l-37 -179q-3 -19 -4 -36
q-1 -14 1.5 -29t12.5 -23q4 -2 6.5 -4.5t5.5 -4.5q-11 -3 -21.5 -5t-21.5 -2h-9q-46 2 -69 37q-5 6 -6 12q-7 13 -11 30q-3 14 -4 35t5 49l1 1q1 7 1.5 11t0.5 5l46 225q5 12 14.5 28t33.5 29q14 7 27 10t24 5q12 2 25 1h19l-7 -31q5 4 10.5 7l10.5 6q20 8 41.5 12t39.5 6
q20 2 40 0h109q-4 -15 -6 -31q7 6 21 13q20 8 41.5 12t38.5 6q20 2 40 0h123q-3 -5 -3 -12l-27 -131l-47 -231q-6 -35 6 -45t33 -2.5t45 28.5t41 48h2q0 2 1 2q2 4 8 14.5t13 24.5t13 30.5t8 31.5l-1 1h1q1 1 3.5 1t5.5 1q3 3 8 3q18 5 47.5 16.5t58.5 30.5zM886 395
q-3 -23 6 -46t38 -36q13 12 21 26t10 30q0 4 1 7t1 6l-1.5 9.5t-5.5 20.5t-11.5 20t-20.5 9q-11 0 -18.5 -5.5t-11.5 -13t-6 -15t-2 -10.5v-2z" />
    <glyph glyph-name="n.ss02" unicode="&#xe055;" 
d="M653 289q-23 13 -36 35.5t-10 58.5t19.5 55t37.5 25.5t43.5 0.5t39 -20.5t23.5 -36t-3 -47.5q-7 -17 -17.5 -30.5t-22.5 -25.5q7 -2 15.5 -2t17.5 1q24 4 74 11t116 19q46 8 102.5 21t116.5 21.5t119 7.5t110 -21t67.5 -46.5t14.5 -50.5q-2 -28 -21 -58q-4 8 -15 18
q-9 8 -24.5 17.5t-39.5 20.5q-25 10 -62 13.5t-72 3.5q-41 0 -85 -4q-98 -4 -169 -6.5t-120.5 -3.5t-80.5 -0.5t-51 1.5t-31.5 3t-20.5 5q-23 -15 -46 -25t-42 -17q-22 -8 -42 -12h-1v-1q-2 -8 -11.5 -30t-23.5 -49t-33 -54t-41 -43q-55 -42 -111 -44h-9q-26 2 -47 15.5
t-32 41.5q-5 12 -9.5 38.5t4.5 67.5v3q0 2 0.5 3.5t0.5 3.5v1l1 1v3l40 192q6 21 17 35t23 22.5t24 12l19 5.5h-93q-16 0 -33 -4q-14 -4 -31.5 -13.5t-33.5 -29.5l-11 -13q-2 -3 -5.5 -10t-8.5 -18l-5 -22q-2 -13 -4.5 -25.5l-5.5 -26.5l-37 -179q-3 -19 -4 -36
q-1 -14 1.5 -29t12.5 -23l12 -9q-11 -3 -22 -5t-22 -2h-9q-44 2 -69 37l-6 12q-6 13 -10 30q-3 14 -4 35t5 49v1q3 13 3 16l46 225q5 12 14.5 28t33.5 29q14 7 27 10t24 5q12 2 25 1h19q-2 -8 -3.5 -15.5t-3.5 -15.5q5 4 10 7t11 6q20 8 41.5 12t39.5 6q20 2 40 0h122
q-2 -6 -2 -12l-27 -131l-48 -231q-6 -35 6.5 -45t33.5 -2.5t45 28.5t41 48h1q1 1 1 2q2 4 8.5 14.5t14 25t13.5 31.5t7 32h4q2 0 10 2q2 2 4 2q18 5 47.5 16.5t58.5 30.5zM641 395q-3 -23 6 -46t38 -36q13 12 21 26t10 30q0 4 1 7t1 6l-1.5 9.5t-5.5 20.5t-11.5 20t-20.5 9
q-11 0 -18.5 -5.5t-11.5 -13t-6 -15t-2 -10.5v-2z" />
    <glyph glyph-name="o.ss02" unicode="&#xe056;" horiz-adv-x="576" 
d="M699 280q-23 13 -36 35.5t-10 58.5q4 36 20 55t37 25.5t43.5 0.5t39 -20.5t23.5 -36t-3 -47.5q-7 -17 -17.5 -30.5t-22.5 -25.5q7 -2 15.5 -2t17.5 1q24 4 74 11t116 19q46 8 102.5 21t116.5 21.5t119 7.5t110 -21t67.5 -46.5t14.5 -50.5q-2 -28 -21 -58q-4 8 -15 18
q-9 8 -24.5 17.5t-39.5 20.5q-25 10 -62 13.5t-72 3.5q-41 0 -85 -4q-98 -4 -169 -6.5t-120.5 -3.5t-80.5 -0.5t-51 1.5t-31.5 3t-20.5 5q-23 -15 -46 -25t-42 -17q-22 -8 -42 -12l-1 -1l-7 -20t-13 -33q-21 -50 -64 -88t-99.5 -60t-121 -25.5t-127.5 16.5q-10 4 -23 12
q0 1 -1 1q-11 8 -21 19t-17 27q-5 13 -7 21.5t-2 13.5v5q0 11 6.5 21t17.5 14q8 2 13 2q16 0 27 -10.5t11 -26.5q0 -14 -7.5 -23.5t-19.5 -12.5q7 -10 13 -15q22 -18 48.5 -10.5t51.5 33t45.5 66.5t31.5 91q2 8 3 16l2 16q1 2 1 8q0 7 1 16q0 8 0.5 18t-1.5 22
q-2 17 -7.5 36t-16.5 35q-3 4 -6 7.5t-7 7.5q-23 17 -49 9.5t-51 -33t-45.5 -66.5t-31.5 -90l-6 -33v-8q-1 -5 -1 -10t-0.5 -11.5t0.5 -14.5q-4 -1 -11 -3t-14 -7t-12.5 -14t-6.5 -22q-1 -26 10 -53t37 -48q-26 7 -49.5 22.5t-48.5 47.5q-19 24 -25.5 53t-7 54.5t3 44
t3.5 21.5q11 40 29 76.5t44.5 65t61 48t78.5 25.5q6 1 11.5 1h11.5q1 1 3 1h4.5t4.5 -1q5 1 8.5 1h8.5l15 -2q23 -4 43 -8t39.5 -12t38 -23t38.5 -40q19 -24 25.5 -53t6.5 -54.5t-3 -44t-4 -21.5q-13 -47 -35.5 -88t-55.5 -71l-10 -8.5t-5 -3.5t-4.5 -2t-9.5 -4
q7 -5 25.5 -1.5t42.5 15t50.5 30t49.5 42t39.5 51.5t20.5 59q3 0 6 1q6 1 18.5 5t29 10.5t35 15t36.5 20.5zM687 386q-3 -23 6 -46t38 -36q13 12 21 26t10 30q0 4 1 7t1 6l-1.5 9.5t-5.5 20.5t-11.5 20t-20.5 9q-11 0 -18.5 -5.5t-11.5 -13t-6 -15t-2 -10.5v-2z" />
    <glyph glyph-name="q.ss02" unicode="&#xe057;" horiz-adv-x="541" 
d="M514 13q-23 13 -36 35.5t-10 58.5t19.5 55t37.5 25.5t43.5 0.5t39 -20.5t23.5 -36t-3 -47.5q-7 -17 -17.5 -30.5t-22.5 -25.5q7 -2 15.5 -2t17.5 1q24 4 74 11t116 19q46 8 102.5 21t116.5 21.5t119 7.5t110 -21t67.5 -46.5t14.5 -50.5q-2 -28 -21 -58q-4 8 -15 18
q-9 8 -24.5 17.5t-39.5 20.5q-25 10 -62 13.5t-72 3.5q-41 0 -85 -4q-98 -4 -169 -6.5t-120.5 -3.5t-80.5 -0.5t-51 1.5t-31.5 3t-20.5 5q-20 -13 -40 -22t-38 -16q-6 -20 -23.5 -44.5t-56.5 -38.5q-26 -10 -53 -7.5t-54 12t-52.5 23l-47.5 25.5q-38 20 -70.5 24t-52.5 4
q-11 0 -17 -3.5t-10 -7.5t-6 -10q-8 10 -8 20q0 8 7 18t30 20q23 9 58 7t68 -8q39 -7 81 -19l11 -3l8 -3t21.5 -5.5t31.5 -4.5t38 0l25 3q7 2 19.5 6t28.5 10.5t33 14.5t34 19zM444 397q19 -24 25.5 -53t6.5 -54.5t-3 -44t-4 -21.5q-13 -47 -35 -88t-56 -71q-26 -23 -51 -33
t-42 -13q-25 -5 -48.5 -4t-42.5 4q-22 4 -43 9v1h-1q-11 8 -21 19t-17 26q-5 14 -7 22.5t-2 13.5v5q0 11 6.5 21t17.5 14q8 2 14 2q16 0 26.5 -11t10.5 -26q0 -14 -7.5 -23.5t-19.5 -13.5q3 -4 6.5 -8t7.5 -7q22 -18 48.5 -10.5t51.5 33.5t45 67t31 91q2 8 3.5 16t2.5 16
q0 5 1 8q1 7 1 16v18t-1 22q-2 17 -7.5 35.5t-16.5 35.5q-4 4 -6.5 7.5t-7.5 7.5q-23 17 -49 9.5t-51 -33t-45.5 -66.5t-31.5 -91l-5 -32q0 -2 -0.5 -4t-0.5 -4q-1 -5 -1 -10t-0.5 -11.5t0.5 -14.5q-4 -1 -11 -3t-14 -7.5t-12 -14t-6 -22.5q-2 -26 9 -52.5t37 -48.5
q-25 8 -48.5 23.5t-49.5 47.5q-19 24 -25.5 53t-6.5 54.5t3 44t4 21.5q11 40 29 76.5t44 65t60.5 48t78.5 25.5q6 1 12 1h11q2 0 3 1q6 0 10 -1q4 0 8 0.5t9 0.5l15 -2l42.5 -8t39.5 -12t37.5 -23t38.5 -40zM502 119q-3 -23 6 -46t38 -36q13 12 21 26t10 30q0 4 1 7t1 6
l-1.5 9.5t-5.5 20.5t-11.5 20t-20.5 9q-11 0 -18.5 -5.5t-11.5 -13t-6 -15t-2 -10.5v-2z" />
    <glyph glyph-name="r.ss02" unicode="&#xe058;" horiz-adv-x="460" 
d="M582 286q-23 13 -36 35.5t-10 58.5q4 36 20 55t37 25.5t43.5 0.5t39 -20.5t23.5 -36t-3 -47.5q-7 -17 -17.5 -30.5t-22.5 -25.5q7 -2 15.5 -2t17.5 1q24 4 74 11t116 19q46 8 102.5 21t116.5 21.5t119 7.5t110 -21t67.5 -46.5t14.5 -50.5q-2 -28 -21 -58q-4 8 -15 18
q-9 8 -24.5 17.5t-39.5 20.5q-25 10 -62 13.5t-72 3.5q-41 0 -85 -4q-98 -4 -169 -6.5t-120.5 -3.5t-80.5 -0.5t-51 1.5t-31.5 3t-20.5 5q-21 -14 -42.5 -24t-40 -16.5t-31 -9.5t-15.5 -4v-1q-2 -7 -11.5 -29t-23.5 -48.5t-33 -53.5t-41 -43q-55 -42 -111 -44h-9
q-24 2 -44 13t-31 34v1q-7 13 -11 30q-3 14 -4 35t5 49l1 1q1 7 2 11t1 5l15 72l21 101l4.5 9t14 20t24 20.5t34.5 11.5q4 0 5 1q-23 2 -55 10t-57 26q-22 13 -40 26l-32 24q-3 -7 -10 -25t-17 -56q-5 -22 -13.5 -51l-17.5 -58.5t-18 -55.5l-15 -42q-8 -18 -24 -9
q-5 2 -5 6.5t1 9.5t4 11l87 285q-23 15 -23 42q0 20 14.5 35t35.5 15q20 0 34.5 -15t14.5 -35q0 -17 -9 -29q18 -7 43.5 -14.5t57.5 -13.5q31 -6 62 -10.5t57 -7.5q30 -4 57 -7q-3 -14 -13 -25q-8 -10 -23 -19.5t-38 -14.5l-17 -83l-48 -229q-7 -36 7 -45.5t36 -1.5
q21 8 56 45.5t62 108.5l4 12t4 13h4q6 1 18.5 5t29.5 10.5t35.5 15t36.5 20.5zM570 392q-3 -23 6 -46t38 -36q13 12 21 26t10 30q0 4 1 7t1 6l-1.5 9.5t-5.5 20.5t-11.5 20t-20.5 9q-11 0 -18.5 -5.5t-11.5 -13t-6 -15t-2 -10.5v-2z" />
    <glyph glyph-name="s.ss02" unicode="&#xe059;" horiz-adv-x="373" 
d="M416 400q-23 13 -36 35.5t-10 58.5t19.5 55t37.5 25.5t43.5 0.5t39 -20.5t23.5 -36t-3 -47.5q-7 -17 -17.5 -30.5t-22.5 -25.5q7 -2 15.5 -2t17.5 1q24 4 74 11t116 19q46 8 102.5 21t116.5 21.5t119 7.5t110 -21t67.5 -46.5t14.5 -50.5q-2 -28 -21 -58q-4 8 -15 18
q-9 8 -24.5 17.5t-39.5 20.5q-25 10 -62 13.5t-72 3.5q-41 0 -85 -4q-98 -4 -169 -6.5t-120.5 -3.5t-80.5 -0.5t-51 1.5t-31.5 3t-20.5 5q-23 -15 -46 -25t-42 -17q-22 -8 -42 -12l-2 1h-3q-16 0 -27 10.5t-11 26.5q0 13 7.5 22.5t18.5 13.5q-31 35 -63 29t-57 -41
q-7 -13 -10 -28q-2 -13 1 -30t19 -37t33.5 -39t31.5 -39.5t22 -43.5t5 -51q-2 -11 -8 -31t-22.5 -39.5t-47 -35.5t-81.5 -19h-10.5t-14.5 2h-2q-1 0 -2 0.5t-2 0.5h-1q-10 2 -18 4.5t-15 7.5q-10 4 -18 12q-8 7 -14.5 18.5t-8.5 29.5q-2 16 2.5 25.5t10.5 14.5q7 6 16 8
q-4 -18 -1 -34q2 -14 11.5 -26.5t32.5 -16.5q22 -4 36 3.5t20.5 19.5t8 25t-0.5 20q0 14 -9 30t-35 36q-29 23 -47 53.5t-23 62.5l-10.5 -42.5t-9.5 -33.5q-3 -9 -9 -14t-12 -5t-9 6t2 19q6 16 12.5 41t16.5 53t25 56.5t37 51t52.5 36.5t72.5 14q7 0 24.5 -2t38 -10t41 -25
t33.5 -48q4 -10 4 -19q0 -2 0.5 -2.5t0.5 -2.5v-2q15 6 31 13.5t32 18.5zM404 506q-3 -23 6 -46t38 -36q13 12 21 26t10 30q0 4 1 7t1 6l-1.5 9.5t-5.5 20.5t-11.5 20t-20.5 9q-11 0 -18.5 -5.5t-11.5 -13t-6 -15t-2 -10.5v-2z" />
    <glyph glyph-name="t.ss02" unicode="&#xe060;" horiz-adv-x="387" 
d="M545 724q-23 13 -35.5 35t-9.5 58t19.5 55t37.5 25.5t43.5 0.5t39 -20.5t23.5 -36t-3 -47.5q-7 -17 -17.5 -30.5t-22.5 -25.5q7 -2 15.5 -2t17.5 1q24 4 74 11t116 19q46 8 102.5 21t116.5 21.5t119 7.5t110 -21t67.5 -46.5t14.5 -50.5q-2 -28 -21 -58q-4 8 -15 18
q-9 8 -24.5 17.5t-39.5 20.5q-25 10 -62 13.5t-72 3.5q-41 0 -85 -4q-98 -4 -169 -6.5t-120.5 -3.5t-80.5 -0.5t-51 1.5t-31.5 3t-20.5 5q-60 -40 -114 -54t-94.5 -15t-65.5 5.5t-28 7.5l-1 1l47 69q8 14 13 40.5t3.5 53.5t-10.5 47t-30 22q-8 1 -15 -1.5t-13.5 -11.5
t-13.5 -25t-16 -42l-12 -39t-10.5 -39l-8 -34t-4.5 -24l-18 -99q10 0 31 -1t46 0t49.5 3.5t41.5 8.5q20 7 31.5 14l19.5 12q8 6 13 12q14 -21 15 -40q1 -17 -13 -35.5t-55 -31.5q-44 -15 -92.5 -15t-98.5 7l-24 -129l-21.5 -119l-17 -95l-10.5 -56q-6 -36 6.5 -46.5
t33.5 -3.5t44.5 28t40.5 49h1q0 1 0.5 1.5t0.5 1.5q5 8 18.5 35t23.5 61v-1l1 2q2 2 2 3q2 3 5.5 5t9.5 0q8 -2 9 -9t0 -10v-2q-2 -7 -11 -29.5t-22.5 -49.5t-32 -54t-39.5 -43q-29 -23 -60 -34.5t-60 -9.5q-23 1 -42 12t-31.5 32t-16.5 53.5t4 76.5l63 352q-11 2 -21 3.5
t-20 3.5l-64 9l-52 7q-12 2 -20 7t-13 10q-6 6 -9 14l208 -5l41 233q3 14 10 28q6 12 16 26.5t25 27.5t30.5 19.5t32 9t33.5 3t37 1.5q7 0 22 -2.5t31.5 -9t31.5 -20t23 -35.5q12 -35 3.5 -81.5t-38.5 -91.5q19 0 42.5 1.5t48.5 6t49 12.5t45 21zM534 829q-3 -23 6 -46
t38 -36q13 12 21 26t10 30q0 4 1 7t1 6l-1.5 9.5t-5.5 20.5t-11.5 20t-20.5 9q-11 0 -18.5 -5.5t-11.5 -13t-6 -15t-2 -10.5v-2z" />
    <glyph glyph-name="u.ss02" unicode="&#xe061;" horiz-adv-x="544" 
d="M668 289q-23 13 -36 35.5t-10 58.5t19.5 55t37.5 25.5t43.5 0.5t39 -20.5t23.5 -36t-3 -47.5q-7 -17 -17.5 -30.5t-22.5 -25.5q7 -2 15.5 -2t17.5 1q24 4 74 11t116 19q46 8 102.5 21t116.5 21.5t119 7.5t110 -21t67.5 -46.5t14.5 -50.5q-2 -28 -21 -58q-4 8 -15 18
q-9 8 -24.5 17.5t-39.5 20.5q-25 10 -62 13.5t-72 3.5q-41 0 -85 -4q-98 -4 -169 -6.5t-120.5 -3.5t-80.5 -0.5t-51 1.5t-31.5 3t-20.5 5q-23 -15 -46 -25t-42 -17q-22 -8 -42 -12h-1v-1q-2 -8 -11 -30t-23.5 -49t-33.5 -54t-41 -43q-55 -42 -111 -44h-9q-26 2 -47 15.5
t-32 41.5q-4 8 -7.5 24.5t-3.5 40.5q-13 -23 -29 -43.5t-34 -34.5q-26 -21 -55 -32t-56 -12h-9q-26 2 -47 15.5t-32 41.5q-5 12 -9.5 38.5t4.5 67.5v3l2 7v2q1 1 1 3l46 227l9 19.5t16 20.5q5 5 10 9t13 8q17 9 34 12.5t28 3.5h33l-3 -12l-27 -131l-47 -231q-6 -35 6 -45
t33 -2.5t45.5 28.5t41.5 48h1q0 2 1 2q5 8 18 32t24 56l37 182l9 19.5t16 20.5q5 5 10 9t12 8q18 9 34.5 12.5t27.5 3.5h33q-2 -6 -2 -12l-27 -131l-47 -231q-6 -35 6 -45t33 -2.5t45 28.5t41 48h1l2 2l7 14.5t11 24.5t12 30.5l12 33.5l2 -1q3 1 15.5 4.5t30 10t37.5 16
t39 21.5zM656 395q-3 -23 6 -46t38 -36q13 12 21 26t10 30q0 4 1 7t1 6l-1.5 9.5t-5.5 20.5t-11.5 20t-20.5 9q-11 0 -18.5 -5.5t-11.5 -13t-6 -15t-2 -10.5v-2z" />
    <glyph glyph-name="v.ss02" unicode="&#xe062;" horiz-adv-x="570" 
d="M689 289q-23 13 -36 35.5t-10 58.5t19.5 55t37.5 25.5t43.5 0.5t39 -20.5t23.5 -36t-3 -47.5q-7 -17 -17.5 -30.5t-22.5 -25.5q7 -2 15.5 -2t17.5 1q24 4 74 11t116 19q46 8 102.5 21t116.5 21.5t119 7.5t110 -21t67.5 -46.5t14.5 -50.5q-2 -28 -21 -58q-4 8 -15 18
q-9 8 -24.5 17.5t-39.5 20.5q-25 10 -62 13.5t-72 3.5q-41 0 -85 -4q-98 -4 -169 -6.5t-120.5 -3.5t-80.5 -0.5t-51 1.5t-31.5 3t-20.5 5q-21 -14 -42.5 -24t-40 -16.5t-31 -9.5t-15.5 -4v-1q-3 -8 -5 -14.5t-4.5 -13.5t-7 -17t-13.5 -26l-3 -3v-1q-7 -11 -16.5 -20
t-21 -14.5t-25.5 -6t-30 7.5q-28 14 -39.5 44t-14.5 61q-4 36 0 78v3q-13 -34 -27.5 -68t-31.5 -63q-45 -73 -89.5 -118t-89.5 -50q-6 0 -9 1q-27 1 -52 15t-43 42q-8 11 -20 37.5t-15 67.5q0 2 -1 4v11l-5 62l-5.5 -16.5t-4.5 -12.5q-6 -17 -24 -9q-5 2 -5 6.5t1 9.5t4 11
l28 92l-6 85q1 8 3.5 18.5t10.5 21.5q7 10 18 16q8 7 20 10q16 5 33 7h37q0 -8 1 -12q2 -34 4.5 -66.5t5.5 -64.5l16 -231q3 -32 16 -43t29 -8l14 11.5t35 36.5t46.5 65t50.5 99q30 71 46 115t24 68l34 -9q-1 -3 -2 -6.5t-2 -8.5l2 1l-1 -1q-13 -72 -17 -131
q-2 -25 -1.5 -49.5t3.5 -45t10.5 -35t19.5 -18.5q15 -6 28 -2t23 12.5t17 20t12 20.5q3 8 6.5 22.5t2.5 18.5q21 5 42 13l40 16t42 23zM677 395q-3 -23 6 -46t38 -36q13 12 21 26t10 30q0 4 1 7t1 6l-1.5 9.5t-5.5 20.5t-11.5 20t-20.5 9q-11 0 -18.5 -5.5t-11.5 -13t-6 -15
t-2 -10.5v-2z" />
    <glyph glyph-name="w.ss02" unicode="&#xe063;" horiz-adv-x="775" 
d="M898 295q-23 13 -36 35.5t-10 58.5t19.5 55t37.5 25.5t43.5 0.5t39 -20.5t23.5 -36t-3 -47.5q-7 -17 -17.5 -30.5t-22.5 -25.5q7 -2 15.5 -2t17.5 1q24 4 74 11t116 19q46 8 102.5 21t116.5 21.5t119 7.5t110 -21t67.5 -46.5t14.5 -50.5q-2 -28 -21 -58q-4 8 -15 18
q-9 8 -24.5 17.5t-39.5 20.5q-25 10 -62 13.5t-72 3.5q-41 0 -85 -4q-98 -4 -169 -6.5t-120.5 -3.5t-80.5 -0.5t-51 1.5t-31.5 3t-20.5 5q-21 -14 -42.5 -24t-40 -16.5t-31 -9.5t-15.5 -4q0 -1 -1 -1q-3 -9 -4.5 -15t-4.5 -13l-7.5 -17t-13.5 -26q-1 -1 -1 -4h-1
q-8 -11 -17 -20.5t-20.5 -15t-25.5 -5.5t-30 8q-28 14 -40 43.5t-15 60.5q-4 36 1 78l1 4l-29 -68.5t-31 -63.5q-31 -51 -60 -86l-19.5 -23t-20.5 -19l-5 -4q-23 -18 -43 -27v2q-33 -13 -63 -15h-9q-26 2 -47.5 15.5t-32.5 41.5q-3 8 -7 24.5t-3 39.5q-13 -23 -29 -43
t-33 -34q-27 -21 -56 -32t-55 -12h-10q-26 2 -47 15.5t-32 41.5q-5 12 -9 38.5t4 67.5v3q1 3 1 7v1l1 1v3l47 227q3 9 8 19.5t16 20.5q10 10 24 17q17 9 33.5 12.5t27.5 3.5h33l-2 -12l-27 -131l-24.5 -119.5l-22.5 -111.5q-7 -35 5.5 -45t33.5 -2.5t45.5 28.5t41.5 48
q0 1 1 2q5 8 17.5 31.5t23.5 53.5l39 185q2 9 7.5 19.5t16.5 20.5q5 5 10 9t13 8q17 9 33.5 12.5t27.5 3.5h33q0 -4 -2 -12l-13.5 -66.5l-12.5 -64.5l-47 -231q-7 -35 5.5 -45.5t33.5 -2.5v2q4 0 6 1q2 0 2.5 1t1.5 1q27 8 53.5 47.5t46.5 96.5t33 124t13 131q4 -1 19 -3
t32 -4t31.5 -4.5t19.5 -3.5l-5 -15q2 0 2 1v-1q-13 -72 -17 -131q-2 -25 -2 -49.5t3.5 -45t11 -35t19.5 -18.5q15 -6 27.5 -2.5t22.5 12t17 20t12 21.5q4 8 6 16t4 25q1 0 3 1q1 0 9 2h1q17 5 48.5 17t62.5 32zM886 401q-3 -23 6 -46t38 -36q13 12 21 26t10 30q0 4 1 7t1 6
l-1.5 9.5t-5.5 20.5t-11.5 20t-20.5 9q-11 0 -18.5 -5.5t-11.5 -13t-6 -15t-2 -10.5v-2z" />
    <glyph glyph-name="x.ss02" unicode="&#xe064;" horiz-adv-x="540" 
d="M668 341q-23 13 -36 35.5t-10 58.5t19.5 55t37.5 25.5t43.5 0.5t39 -20.5t23.5 -36t-3 -47.5q-7 -17 -17.5 -30.5t-22.5 -25.5q7 -2 15.5 -2t17.5 1q24 4 74 11t116 19q46 8 102.5 21t116.5 21.5t119 7.5t110 -21t67.5 -46.5t14.5 -50.5q-2 -28 -21 -58q-4 8 -15 18
q-9 8 -24.5 17.5t-39.5 20.5q-25 10 -62 13.5t-72 3.5q-41 0 -85 -4q-98 -4 -169 -6.5t-120.5 -3.5t-80.5 -0.5t-51 1.5t-31.5 3t-20.5 5q-23 -15 -46 -25t-42 -17q-22 -8 -42 -12q-3 -10 -8 -25t-23 -47q-1 -1 -1 -3l-1 -1q-8 -11 -17 -20t-20.5 -14.5t-25.5 -6t-30 7.5
q-28 14 -39.5 43.5t-14.5 60.5q-4 36 0 78l1 4q0 14 -0.5 22t-2.5 13l-65 -59l-41 -33t-74 -57q1 -3 2 -5.5t1 -4.5q2 -8 5.5 -15.5t6.5 -15.5q10 -25 26.5 -55.5t39.5 -55.5t52 -37.5t65 -1.5q17 8 26 15.5t13 15.5q2 -11 -2 -26t-17 -29.5t-37.5 -24.5t-63.5 -10
q-28 0 -53.5 12t-47 30.5t-40 41t-33.5 43.5q-9 19 -5.5 37.5t11.5 32.5q9 17 24 32l-61 -49q-35 -30 -64 -61t-51.5 -59.5t-39.5 -53t-27 -41.5q-8 13 -13 30t-2 41q3 18 19.5 40t41.5 45.5t56 47.5l63 47l-7 19q-4 10 -5 15q-2 3 -2 5t-1 4t-1 3l-1 1v1l-1 2l-24 87
l-22 -68t-19 -52q-7 -18 -23 -8q-5 2 -5 6t1 9t4 11l47 157l-10 36q0 7 0.5 15t5.5 16q4 7 15 13q12 8 25.5 10.5t24.5 2.5h31q0 -5 3 -9q7 -27 14.5 -52.5l14.5 -50.5l31 -107q17 11 31 21t24 18q29 22 51.5 42.5t38.5 36.5q18 18 32 35l6 4q8 8 21 13.5t27 3.5
q-4 -26 -8.5 -65t-4.5 -76.5t7.5 -67.5t26.5 -37q15 -6 28 -2t22.5 12.5t17 20t12.5 21.5q3 8 6 17.5t4 23.5q3 0 14 3l1 1q17 5 48 16.5t61 31.5zM656 447q-3 -23 6 -46t38 -36q13 12 21 26t10 30q0 4 1 7t1 6l-1.5 9.5t-5.5 20.5t-11.5 20t-20.5 9q-11 0 -18.5 -5.5
t-11.5 -13t-6 -15t-2 -10.5v-2z" />
    <glyph glyph-name="a.calt" unicode="&#xe069;" horiz-adv-x="700" 
d="M398 628q50 23 94.5 20t80 -25.5t60.5 -61t36 -85t6 -98.5t-28 -101q-7 -14 -20 -35.5t-32 -41.5q-6 -15 -16 -36t-23 -42.5t-28.5 -41t-32.5 -32.5q-27 -21 -56 -32.5t-55 -11.5h-9q-27 2 -48 16t-32 43l6 22q5 20 -1 33t-14 21q2 9 3 18.5t3 20.5l44 214
q-22 39 -51.5 41.5t-58.5 -21t-54 -69t-37 -102.5q-9 -42 -10 -76.5t5 -58.5t19.5 -35.5t33.5 -7.5h1q-1 -1 -2 -1q5 0 20 5.5t29 22.5q7 9 9.5 16t3.5 12t-1 9q2 0 6 -1q7 -2 12 -6t8.5 -11t1.5 -21q-2 -11 -11.5 -25.5t-24.5 -27.5q-23 -17 -52 -27t-58 -8v1
q-29 0 -55 10.5t-44.5 31.5t-28.5 52.5t-6 73.5q5 57 21.5 111t47.5 97.5t76.5 70.5t108.5 30q6 0 19 -1t28 -5.5t30.5 -13.5t28.5 -25q5 8 13.5 16.5t22.5 16.5q14 7 27.5 10t24.5 5q12 2 24 1h18l-14 -72.5l-14 -70.5l-47 -231q-7 -35 5.5 -45t33 -3t45 28t41.5 48l1 1v2
l9.5 16t14.5 28q6 12 15 35.5t18 52.5t14.5 62t4.5 65v19q-1 27 -10 53.5t-30 49.5q-15 17 -33.5 27t-37 14t-37.5 4t-35 -3q-1 0 -12 -4t-18 -14q-5 -8 -5 -16q0 -4 1 -7q-16 -8 -26 2.5t-10.5 29t9.5 39.5t34 36z" />
    <glyph glyph-name="b.calt" unicode="&#xe070;" horiz-adv-x="646" 
d="M357 628q50 23 94.5 20t80 -25.5t60.5 -61t36 -85t6 -98.5t-28 -101q-7 -14 -20 -36t-32 -41q-7 -16 -17 -36.5t-23 -41t-28 -39.5t-31 -31q-14 -11 -28.5 -20t-29.5 -14h-1q-3 -2 -6 -2.5t-5 -1.5q-32 -9 -67 -12t-64.5 -2.5t-49 2.5t-20.5 2q-51 3 -78 35
q-11 12 -14.5 27t-0.5 26q3 13 9.5 20t13.5 12q4 2 7.5 3t5.5 2q6 3 14 3q14 0 24 -10.5t10 -25.5q0 -18 -12 -28q2 -2 6 -2v1q18 -5 36 6.5t34 35.5t29.5 59t21.5 77q11 55 5 99.5t-24.5 68.5t-47.5 24t-65 -34l-25.5 -140.5t-19.5 -106.5q-21 -12 -35.5 -33.5t-10.5 -49.5
q2 -25 14 -40.5t24 -23.5q-8 -2 -14.5 -2h-14.5q-23 1 -42 12t-31.5 32t-16.5 53.5t4 76.5l113 633q3 14 10 28q6 12 16 26.5t25 28.5q15 13 30 19.5t26 8.5q13 3 25 2h5q1 0 13.5 1.5t32.5 1.5q8 0 23 -2.5t31 -9.5t31 -20t23 -35q9 -26 6.5 -59.5t-17 -68.5t-40.5 -67.5
t-63 -57.5q-16 -8 -32 -14.5t-33 -11.5l9 39q7 3 18.5 9.5t25 19t28 31.5t28.5 47q8 14 13 40.5t4 53.5t-10.5 47t-29.5 22q-9 1 -16 -1.5t-13.5 -11.5t-14 -25t-16.5 -42q-8 -26 -15 -53.5t-12 -50.5l-48 -263q18 13 35 20t32 10.5t26.5 4t16.5 0.5q62 -2 96.5 -29.5
t48 -70.5t8 -97.5t-23.5 -111.5q-16 -48 -42.5 -81.5t-58.5 -54.5l20 2t21 3q44 8 74.5 27.5t49.5 40.5q22 25 36 54q2 4 4.5 8t4.5 9q5 11 14.5 34t18.5 53t15 64t5 67v19q-1 27 -10 53.5t-30 49.5q-15 17 -33.5 27t-37 14t-37.5 4t-35 -3q-1 0 -12 -4t-18 -14
q-5 -8 -5 -16q0 -4 1 -7q-16 -8 -26 2.5t-10.5 29t9.5 39.5t34 36z" />
    <glyph glyph-name="c.calt" unicode="&#xe071;" horiz-adv-x="560" 
d="M246 628q50 23 94.5 20t80 -25.5t60.5 -61t36 -85t6 -98.5t-28 -101q-7 -14 -20 -35.5t-32 -41.5q-6 -15 -15.5 -36t-22 -43t-27.5 -43t-32 -34q-29 -23 -59.5 -34.5t-59.5 -9.5l1 1q-5 -1 -10.5 -1h-12.5l-15 2q-23 3 -43 7t-39.5 12.5t-38 23.5t-38.5 40
q-19 24 -25.5 53t-6.5 54.5t3 43.5t4 21q12 43 31.5 82t49 68.5t68.5 47.5t89 20q7 0 22 -1.5t33 -8t35.5 -20.5t28.5 -38q10 -25 9 -35v-5q0 -16 -11 -27t-27 -11t-27 11t-11 27q0 14 8 24t21 13q-23 29 -51 27t-55.5 -27t-50.5 -68.5t-35 -97.5l-5 -32q0 -2 -0.5 -4
t-0.5 -4q-4 -37 2 -70q5 -28 20.5 -54.5t49.5 -36.5q33 -10 62 -1t51.5 24.5t37 33t19.5 24.5q5 5 10 15l1 1q1 0 1 2q2 4 7 12.5t11 20.5h-1l7 16q3 8 7.5 18.5l9.5 22.5q0 2 2 6l1 2q13 35 23 78t8 86v19q-1 27 -10 53.5t-30 49.5q-15 17 -33.5 27t-37 14t-37.5 4t-35 -3
q-1 0 -12 -4t-18 -14q-5 -8 -5 -16q0 -4 1 -7q-16 -8 -26 2.5t-10.5 29t9.5 39.5t34 36z" />
    <glyph glyph-name="d.calt" unicode="&#xe072;" horiz-adv-x="757" 
d="M708 859q9 -24 7 -55t-14 -63.5t-34 -64t-54 -56.5q19 -21 32 -46t18.5 -56.5t3 -72t-14.5 -92.5q-10 -39 -27.5 -92t-55.5 -116h-1q-14 -27 -33 -54t-40 -43q-27 -21 -56.5 -32.5t-55.5 -11.5h-9q-27 2 -48 16t-32 43l7 22q5 20 -1.5 33t-13.5 21q1 9 2.5 18.5t3.5 20.5
l44 214q-22 39 -51.5 41.5t-59 -21t-54 -69t-36.5 -102.5q-9 -42 -10 -76.5t5 -58.5t19.5 -35.5t33.5 -7.5q-1 -1 -2 -1q6 0 21 5.5t28 22.5t13.5 25.5t-0.5 10.5q20 -12 23.5 -27.5t-4.5 -31t-24.5 -29.5t-36.5 -24t-40.5 -14t-36.5 0l1 1q-29 0 -55.5 10.5t-45 31.5
t-28.5 52.5t-6 73.5q5 57 22 111t47.5 97.5t76.5 70.5t109 30q6 0 17.5 -1t26 -5t29.5 -12t28 -22l32 163q-6 -2 -15 -6t-15 -12q-6 -10 -6 -19q0 -4 1 -8q-9 2 -17 6q-7 4 -12.5 11.5t-6.5 21.5q-2 20 7 39l6 10.5t8 10.5q5 8 11.5 13.5t12.5 9.5q19 13 45 19l23 114
q4 14 11 28q6 12 15.5 26.5t25.5 27.5q21 18 56 27t71 6.5t66.5 -18.5t42.5 -49zM532 139q4 6 14 25l19.5 48.5t21.5 63.5t16.5 70.5t5.5 69.5v22q-2 30 -12.5 60t-36.5 56q-24 24 -56 37l-99 -483q-6 -35 6 -45t33 -3t45.5 28t41.5 48l1 1v2zM524 684q29 -12 58 -36
q13 13 27 31.5t28 47.5q9 13 14 39.5t3.5 53.5t-10.5 47.5t-30 22.5q-8 0 -15 -2.5t-13.5 -11t-13.5 -24.5t-16 -42q-9 -24 -15.5 -50.5l-11.5 -48.5z" />
    <glyph glyph-name="e.calt" unicode="&#xe073;" horiz-adv-x="556" 
d="M242 617q50 23 94.5 20t80 -25.5t60.5 -61t36 -85t6 -98.5t-28 -101q-7 -14 -20 -36t-32 -41q-6 -16 -16 -36t-22 -40.5t-26 -38.5t-29 -30q-29 -23 -59.5 -34.5t-59.5 -9.5l1 1q-5 -1 -10.5 -1h-12.5l-15 2q-23 3 -43 7t-39.5 12.5t-38 23.5t-38.5 40q-19 24 -25.5 53
t-6.5 54.5t3 43.5t4 21q12 43 31.5 82t49 68.5t68.5 47.5t89 20q6 0 16.5 -1t24 -4.5t28 -10.5t27.5 -19q24 -23 31 -58t-4.5 -70.5t-41.5 -66t-80 -44.5q-31 -10 -59.5 -5.5t-40.5 29t9 52.5q0 -15 7 -22q6 -7 18.5 -7.5t37.5 13.5q44 32 63 61t24 52q6 26 0 49
q-21 13 -45 5.5t-46.5 -30.5t-37.5 -53t-16 -41q-20 -7 -31 -20.5t-14.5 -29t0.5 -31.5t15 -27q-3 -25 -1 -50.5t10.5 -47t23 -38t37.5 -23.5q38 -11 76 3q45 18 76.5 56t51.5 82q0 1 0.5 1t0.5 1q4 9 8.5 21l9.5 26q1 1 1 2t1 3l1 2q11 34 20 73.5t7 79.5v19
q-1 27 -10 53.5t-30 49.5q-15 17 -33.5 27t-37 14t-37.5 4t-35 -3q-1 0 -12 -4t-18 -14q-5 -8 -5 -16q0 -4 1 -7q-16 -8 -26 2.5t-10.5 29t9.5 39.5t34 36z" />
    <glyph glyph-name="f.calt" unicode="&#xe074;" horiz-adv-x="486" 
d="M150 942q50 23 94.5 20t80 -25.5t60.5 -61t36 -85t6 -98.5t-28 -101q-7 -14 -20.5 -36.5t-32.5 -41.5q-11 -34 -33.5 -66.5t-55.5 -58.5h26t30 1t29 3t24 7q15 7 24.5 14.5t14.5 12.5q6 6 9 12q6 -24 4 -46q-2 -19 -11.5 -40t-35.5 -35q-21 -12 -44.5 -11t-50.5 7.5
t-59 16t-70 14.5l-22 -125t-22 -123v-2q0 -1 -0.5 -1.5t-0.5 -1.5l-71 -399q-4 -14 -10 -28q-5 -12 -15 -26t-25 -27q-16 -14 -30.5 -20.5t-25.5 -8.5q-13 -3 -25 -1h-19q5 22 8.5 43t7.5 42l95 522h1l32 177l-48 8l6 24l47 -1l33 185q3 14 10 28q5 12 15 26t25 28
q21 18 56 27t71 6t66.5 -19t42.5 -47q2 -4 2 -6q10 43 9 88v19q-1 27 -10 53.5t-30 49.5q-15 17 -33.5 27t-37 14t-37.5 4t-35 -3q-1 0 -12 -4t-18 -14q-5 -8 -5 -16q0 -4 1 -7q-16 -8 -26 2.5t-10.5 29t9.5 39.5t34 36zM157 392l30 -1q16 7 42.5 29t53.5 76q8 14 11.5 31
t5 34t0.5 32t-2 26q0 9 -3 18q-3 13 -11.5 22.5t-24.5 14.5q-29 7 -60 -94q-8 -25 -14 -51l-11 -48z" />
    <glyph glyph-name="g.calt" unicode="&#xe075;" horiz-adv-x="730" 
d="M482 482q-8 -37 -14.5 -72.5t-14.5 -70.5l-6 -29.5l-9 -45l-11 -54.5l-12 -58l-30 -148l-11 -57v1l-53 -267q-4 -14 -11 -28q-6 -12 -16 -26.5t-25 -27.5q-16 -14 -31 -20.5t-26 -8.5q-13 -3 -25 -1q-6 -1 -13 -2q-6 -1 -14.5 -1h-18.5q-8 0 -22.5 2t-31 9t-31.5 20
t-23 35q-9 26 -6.5 59.5t17 68.5t40.5 68t64 58q15 8 31 14t33 11l-9 -39q-8 -3 -19 -9t-24 -18.5t-27.5 -32t-29.5 -47.5q-8 -14 -15.5 -40t-8.5 -52.5t8 -48t34 -25.5q16 -3 31 13.5t33 69.5q6 17 11 36l10 37q11 49 24 115l28 138q14 10 28 24.5t21 37.5q9 27 1 46.5
t-22 31.5l17 80.5l14.5 71l11.5 56.5l8 38q-22 37 -51.5 39t-58.5 -22t-54 -68.5t-37 -101.5q-9 -42 -9.5 -76.5t5.5 -58.5t19.5 -35.5t33.5 -7.5q-1 -1 -2 -1q5 0 20.5 5.5t29.5 22.5q8 9 10 16t3 12q0 5 -1 9q2 0 6 -1q7 -2 12 -6t9 -11.5t2 -20.5q-2 -11 -12 -25.5
t-25 -27.5q-22 -17 -51.5 -27t-58.5 -8q-29 0 -55 10.5t-45 31.5t-28.5 53t-6.5 74q5 56 22 110.5t48 97.5t76.5 70.5t108.5 30.5q6 0 18.5 -1t27.5 -5.5t30.5 -13.5t28.5 -25q11 19 36 33q14 7 27 10t24 5q12 2 25 1h18zM595 595q20 -19 32 -42.5t19 -53.5q12 -62 -3 -156
q-12 -72 -33 -134.5t-48 -113.5q-39 -75 -85.5 -120t-88.5 -53l9 44q32 9 67 49.5t65 97.5q12 22 26 54t26.5 68t21 75.5t9 77t-9.5 71.5t-34 61q-15 17 -33.5 27t-37 14t-37.5 4t-35 -3q-1 0 -12 -4t-18 -14q-5 -8 -5 -16q0 -4 1 -7q-8 1 -14 5q-5 4 -10 10.5t-6 18.5
q0 17 6 34q5 12 12 19q9 15 19 20q16 12 40 17.5t50.5 2.5t54 -15.5t52.5 -37.5z" />
    <glyph glyph-name="h.calt" unicode="&#xe076;" horiz-adv-x="672" 
d="M353 628q50 23 94.5 20t80 -25.5t60.5 -61t36 -85t6 -98.5t-28 -101q-7 -14 -20 -35.5t-32 -41.5q-6 -15 -16 -36t-23 -43t-29 -43t-34 -34q-55 -42 -111 -44h-9q-26 2 -47 15.5t-32 41.5q-5 12 -9.5 38.5t4.5 67.5v3q0 2 0.5 3.5t0.5 3.5l1 1v1q0 2 1 3l46 227l9 19.5
t15 20.5h-41q-16 0 -33 -4q-14 -4 -31.5 -13.5t-33.5 -29.5l-11 -13q-2 -3 -5.5 -10t-8.5 -18l-5 -22q-2 -13 -4.5 -25.5l-5.5 -26.5l-37 -179q-4 -19 -4 -36q-1 -14 2 -29t13 -23l11 -9q-11 -3 -22 -5t-22 -2h-9q-44 2 -69 37l-6 12q-6 13 -10 30q-3 14 -4 35t5 49v1
q3 13 3 16l23 112h-2l24 113v4l81 399q3 14 10 28q6 12 15.5 26t25.5 27q21 18 56 27t71 6.5t66.5 -18.5t42.5 -48q9 -26 6.5 -59.5t-16.5 -68t-40.5 -67.5t-63.5 -58q-15 -8 -31.5 -14.5t-33.5 -11.5l9 39q16 6 43.5 28.5t56.5 78.5q9 14 14 40.5t3.5 53.5t-11 47t-30.5 22
q-8 0 -15 -2.5t-13.5 -11t-13.5 -24.5t-16 -42q-8 -24 -15 -50.5t-12 -48.5l-47 -229h2q-2 -8 -3.5 -15.5t-3.5 -15.5q5 4 10 7t12 6q20 8 41.5 12t38.5 6q20 2 40 0h122q-2 -6 -2 -12l-27 -131l-47 -231q-7 -35 5.5 -45t33.5 -2.5t45 28.5t41 48h1q1 1 1 2q2 4 7.5 12.5
t11.5 21.5q18 37 31 76q11 33 20 73.5t7 79.5v19q-1 27 -10 53.5t-30 49.5q-15 17 -33.5 27t-37 14t-37.5 4t-35 -3q-1 0 -12 -4t-18 -14q-5 -8 -5 -16q0 -4 1 -7q-16 -8 -26 2.5t-10.5 29t9.5 39.5t34 36z" />
    <glyph glyph-name="i.calt" unicode="&#xe077;" horiz-adv-x="418" 
d="M94 773q51 30 96 26t81 -33.5t61 -79.5t36 -111.5t6.5 -129t-28.5 -132.5q-7 -20 -21.5 -50.5t-35.5 -56.5v-9q-2 -7 -9 -24.5t-18.5 -38.5t-28 -43.5t-38.5 -38.5q-26 -21 -55.5 -32.5t-55.5 -12.5h-9q-26 2 -47.5 16t-32.5 42v-1q-5 12 -9 38.5t4 67.5q0 1 0.5 1.5
t0.5 2.5q1 2 1 7v1q1 2 1 3l47 227q3 9 8 19.5t16 21.5q8 8 24 16q17 9 33.5 12.5t27.5 4.5h33l-2 -12q-8 -34 -14.5 -66.5l-12.5 -64.5l-47 -231q-7 -35 5.5 -45t38.5 1t60 54t62 125v-1q13 46 24.5 106.5t9.5 119.5v24q-1 36 -10 70.5t-30 64.5q-16 23 -34 36t-37 18.5
t-38 5t-36 -4.5q-1 0 -12 -5t-18 -18q-3 -6 -4 -11.5t-1 -9.5q0 -5 1 -9q-17 -10 -27 3.5t-10.5 37.5t10 52t34.5 47zM183 495q-10 1 -28.5 6t-36 17t-30 32.5t-10.5 53.5l1 9h129l-12 -58.5t-13 -59.5z" />
    <glyph glyph-name="j.calt" unicode="&#xe078;" horiz-adv-x="438" 
d="M74 461q14 8 27.5 10.5l24.5 4.5q13 1 25 1h18l-26 -143q-2 -10 -5.5 -29.5l-8 -45l-10 -54.5l-10.5 -58l-27 -148l-9 -56v1l-48 -268q-4 -14 -10 -28q-5 -12 -14.5 -26.5t-24.5 -27.5q-16 -14 -30.5 -20t-25.5 -8q-13 -3 -25 -2q-6 -1 -13 -2q-6 -1 -14.5 -1h-18.5
q-8 0 -23 2.5t-31.5 9t-31.5 19.5t-23 35q-10 27 -8.5 60.5t15 68t39 67.5t62.5 58q15 8 31 14t33 11l-7 -39q-8 -3 -19 -9t-24 -18.5t-27.5 -31.5t-28.5 -47q-8 -14 -15 -40t-7 -52.5t9.5 -48t34.5 -26.5q17 -3 31 14t31 69q7 18 11.5 37l8.5 36l8 46.5l15 83l19 106
l21 115.5l55 303q5 13 14 28.5t32 28.5zM193 604q-6 -29 -11.5 -58.5t-10.5 -59.5q-10 1 -28.5 6.5t-36.5 17.5t-31.5 32.5t-12.5 52.5l2 9h129zM313 702q21 -23 33 -50.5t20 -62.5q12 -75 -4 -185q-12 -85 -33.5 -158.5t-49.5 -134.5q-40 -89 -87.5 -142t-90.5 -62l9 52
q33 11 68.5 59t66.5 115q12 26 27 63.5t27.5 80.5t21 89t9 90.5t-9.5 85t-35 71.5q-16 21 -34.5 32.5t-37.5 16.5t-38 4.5t-36 -3.5q-1 0 -12.5 -5t-18.5 -16q-5 -9 -5 -19q0 -4 1 -8q-8 2 -14 6q-5 4 -10.5 12t-6.5 22q0 20 6 40q5 14 12 22q5 9 10 15t10 9q17 14 41 21
t51.5 3t55.5 -19t54 -44z" />
    <glyph glyph-name="k.calt" unicode="&#xe079;" horiz-adv-x="689" 
d="M619 505q15 -26 17.5 -61.5t-5.5 -75.5t-24.5 -82.5t-37.5 -82t-45.5 -74t-48.5 -59.5q-15 -17 -27 -26q-55 -42 -111 -44h-9q-26 2 -47 15.5t-32 41.5q-5 12 -9.5 38.5t4.5 67.5v3q0 2 0.5 3.5t0.5 3.5v1l1 1v3l47 227q3 9 8.5 19.5t15.5 20.5h-41q-16 0 -33 -4
q-14 -4 -31.5 -13.5t-33.5 -29.5l-11 -13q-2 -3 -5.5 -10t-8.5 -18l-5 -22q-2 -13 -4.5 -25.5l-5.5 -26.5l-37 -179q-3 -19 -4 -36q-1 -14 1.5 -29t12.5 -23l12 -9q-11 -3 -22 -5t-22 -2h-9q-21 1 -39 10t-30 27l-6 12q-6 13 -10 30q-3 14 -4 35t5 49v1q3 13 3 16l23 112h-2
l24 113v4l81 399q3 14 10 28q6 12 15.5 26t25.5 27q21 18 56 27t71 6.5t66.5 -18.5t42.5 -48q9 -26 6.5 -59.5t-16.5 -68t-40.5 -67.5t-63.5 -58q-15 -8 -31.5 -14.5t-33.5 -11.5l9 39q16 6 43.5 28.5t56.5 78.5q9 14 14 40.5t3.5 53.5t-11 47t-30.5 22q-8 0 -15 -2.5
t-13.5 -11t-13.5 -24.5t-16 -42q-8 -24 -15 -50.5t-12 -48.5l-47 -229h2q-2 -8 -3.5 -15.5t-3.5 -15.5q5 4 10 7t11 6h1l171 119q19 12 36 25q14 11 28 24t20 27t8 23.5t2 17.5t-1 15q21 -11 33 -26q11 -13 15.5 -32.5t-8.5 -46.5t-37 -46t-52 -33t-57 -24.5t-51 -20.5
l-8 -4h15h6h122q-2 -6 -2 -12l-27 -131l-48 -231q-7 -37 7 -46.5t37 0.5q18 10 39 35.5t42 59.5t39.5 72.5t30.5 75t16.5 67.5t-2.5 50q-16 40 -32 48.5t-40 2.5q-4 -1 -8 -4q-4 -2 -8 -5.5t-6 -8.5q-4 -9 -4 -17q0 -4 1 -8q-6 2 -10 6t-7.5 10.5t-4.5 19.5q0 17 5 37l4 10
t4 9q7 15 14 22q12 13 29.5 19t37 2.5t39.5 -17t38 -39.5z" />
    <glyph glyph-name="l.calt" unicode="&#xe080;" horiz-adv-x="717" 
d="M526 595q25 -34 34.5 -75.5t4 -83.5t-25.5 -82t-53.5 -71t-80.5 -49.5t-106 -17.5q-3 -10 -12.5 -32.5t-23 -48.5t-30.5 -51t-37 -41q-29 -23 -60 -34t-60 -9q-23 1 -42 12t-31.5 32t-16.5 53t4 76l113 635q3 14 10 28q6 12 15.5 26t25.5 27q21 18 56.5 27t72.5 6
t68.5 -19t42.5 -47q10 -26 7.5 -59.5t-17 -68.5t-41 -68t-63.5 -58q-15 -8 -31 -14t-33 -11l9 39q14 5 42.5 27.5t57.5 78.5q8 14 13 41t3.5 53.5t-10.5 47t-30 22.5q-9 0 -15.5 -2.5t-13.5 -11t-14 -24.5t-16 -43q-6 -18 -11.5 -38.5t-10 -39.5l-8 -34t-4.5 -24l-19.5 -106
l-21 -115l-20.5 -113.5l-18.5 -101.5l-15 -80t-8.5 -48q-6 -36 6 -46.5t33 -3t44.5 28.5t40.5 48l1 1l2 2q5 8 18 35.5t24 60.5l1 2q0 2 2 2q2 3 5.5 5.5t9.5 0.5q51 -8 101 11.5t84.5 58.5t46 94t-16.5 118q-8 19 -20.5 28.5t-27 13.5t-29.5 3t-27 -4q-4 -1 -8 -4
q-4 -2 -8 -5t-6 -8q-4 -8 -4 -16q0 -4 1 -6q-6 1 -10 5q-4 3 -7 9.5t-4 17.5q-1 8 0.5 16t3.5 16q3 9 8 18q6 13 14 19q12 11 29 16.5t36.5 3t39.5 -14.5t38 -36z" />
    <glyph glyph-name="m.calt" unicode="&#xe081;" horiz-adv-x="774" 
d="M600 691q50 27 95 23t80.5 -29.5t61 -68.5t36.5 -96t6 -112t-28 -115q-7 -16 -20 -40.5t-32 -46.5q-5 -15 -14.5 -37.5t-23 -46t-31 -45t-36.5 -33.5q-29 -18 -56.5 -30.5t-54.5 -13.5h-9q-26 2 -47 15.5t-32 41.5q-5 12 -9.5 38.5t4.5 67.5v3l2 7v2q0 1 0.5 1.5t0.5 1.5
l38 186q4 22 17 37t27.5 24.5t27 14t16.5 5.5h-105q-12 0 -38.5 -8t-51.5 -39l-10 -13q-2 -3 -6 -10t-9 -18l-5 -22q-2 -13 -4.5 -25.5l-5.5 -26.5l-37 -179q-4 -19 -4 -36q-1 -14 2 -29t13 -23l11 -9q-11 -3 -21.5 -5t-21.5 -2h-10q-43 2 -69 37l-6 12q-6 13 -10 30
q-3 14 -4 35t5 49v1q3 13 3 16l38 185l16 80h-11q-16 0 -33 -4q-14 -4 -31.5 -13.5t-33.5 -29.5l-11 -13q-2 -3 -5.5 -10t-8.5 -18l-4 -22l-6 -25.5t-5 -26.5l-37 -179q-3 -19 -4 -36q-1 -14 1.5 -29t12.5 -23q4 -2 6.5 -4.5t5.5 -4.5q-11 -3 -21.5 -5t-21.5 -2h-9
q-46 2 -69 37q-5 6 -6 12q-7 13 -11 30q-3 14 -4 35t5 49l1 1q1 7 1.5 11t0.5 5l46 225q5 12 14.5 28t33.5 29q14 7 27 10t24 5q12 2 25 1h19l-7 -31q5 4 10.5 7l10.5 6q20 8 41.5 12t39.5 6q20 2 40 0h109q-4 -15 -6 -31q7 6 21 13q20 8 41.5 12t38.5 6q20 2 40 0h123
q-3 -5 -3 -12l-27 -131l-47 -231q-6 -35 6 -45t33 -2.5t45 28.5t41 48h2q0 2 1 2q2 5 10 18t16 31q6 14 15 41t18 60.5t14.5 71t4.5 73.5v22q-1 31 -10 60.5t-30 56.5q-15 19 -33.5 30t-37.5 16t-38 4.5t-35 -3.5q-1 0 -12 -4.5t-18 -15.5q-5 -9 -5 -18q0 -4 1 -8
q-16 -9 -26 3t-11 32.5t9.5 44.5t34.5 41z" />
    <glyph glyph-name="n.calt" unicode="&#xe082;" 
d="M354 691q50 27 95 23t80.5 -29.5t61 -68.5t36.5 -96t6 -112t-28 -115q-7 -16 -20 -40.5t-32 -46.5q-5 -14 -14.5 -36t-23 -45.5t-31 -45t-36.5 -35.5q-28 -20 -56 -31.5t-55 -12.5h-9q-26 2 -47 15.5t-32 41.5q-5 12 -9.5 38.5t4.5 67.5v3q0 2 0.5 3.5t0.5 3.5v1l1 1v3
l40 192q6 22 17.5 36t24 22.5t24.5 12t19 4.5h-95q-16 0 -33 -4q-14 -4 -31.5 -13.5t-33.5 -29.5l-11 -13q-2 -3 -5.5 -10t-8.5 -18l-5 -22q-2 -13 -4.5 -25.5l-5.5 -26.5l-37 -179q-3 -19 -4 -36q-1 -14 1.5 -29t12.5 -23l12 -9q-11 -3 -22 -5t-22 -2h-9q-44 2 -69 37
l-6 12q-6 13 -10 30q-3 14 -4 35t5 49v1q3 13 3 16l46 225q5 12 14.5 28t33.5 29q14 7 27 10t24 5q12 2 25 1h19q-2 -8 -3.5 -15.5t-3.5 -15.5q5 4 10 7t11 6q20 8 41.5 12t39.5 6q20 2 40 0h122q-2 -6 -2 -12l-27 -131l-48 -231q-6 -35 6.5 -45t33.5 -2.5t45 28.5t41 48h1
q1 1 1 2l11 19t17 34q6 15 15.5 42t18 59.5t13.5 69t4 71.5v22q-1 31 -10 60.5t-30 56.5q-15 19 -33.5 30t-37.5 16t-38 4.5t-35 -3.5q-1 0 -12 -4.5t-18 -15.5q-5 -9 -5 -18q0 -4 1 -8q-16 -9 -26 3t-11 32.5t9.5 44.5t34.5 41z" />
    <glyph glyph-name="d.ss04" unicode="&#xe085;" horiz-adv-x="572" 
d="M1297 679q30 -10 48.5 -22t29 -25t14 -26t2.5 -25q-2 -28 -24 -57q-6 8 -17 18q-10 8 -27.5 17.5t-44.5 19.5q-29 10 -71.5 13t-82.5 3q-47 0 -97 -3l-495 -11q-1 -1 -3 -1l9 39q7 3 18.5 9.5t24.5 19t27.5 31.5t28.5 48q9 13 14 39.5t3.5 53.5t-10.5 47.5t-30 22.5
q-8 0 -15 -2.5t-13.5 -11t-13.5 -24.5t-16 -42q-9 -24 -15.5 -50.5l-11.5 -48.5l-124 -603q-6 -35 6 -45t33 -3t45.5 28t41.5 48l1 1v2q5 8 19.5 35t25.5 61l1 2l2 2q2 3 5.5 5t9.5 0q9 -2 9.5 -9t-0.5 -9v-2q-2 -8 -11.5 -30t-24 -49t-33.5 -54t-40 -43
q-27 -21 -56.5 -32.5t-55.5 -11.5h-9q-27 2 -48 16t-32 43l7 22q5 20 -1.5 33t-13.5 21q1 9 2.5 18.5t3.5 20.5l44 214q-22 39 -51.5 41.5t-59 -21t-54 -69t-36.5 -102.5q-9 -42 -10 -76.5t5 -58.5t19.5 -35.5t33.5 -7.5q-1 -1 -2 -1q6 0 21 5.5t28 22.5t13.5 25.5
t-0.5 10.5q20 -12 23.5 -27.5t-4.5 -31t-24.5 -29.5t-36.5 -24t-40.5 -14t-36.5 0l1 1q-29 0 -55.5 10.5t-45 31.5t-28.5 52.5t-6 73.5q5 57 22 111t47.5 97.5t76.5 70.5t109 30q6 0 17.5 -1t26 -5t29.5 -12t28 -22l74 373q4 14 11 28q6 12 15.5 26.5t25.5 27.5q21 18 56 27
t71 6.5t66.5 -18.5t42.5 -49q8 -24 6.5 -53.5t-12.5 -61t-32 -62.5t-51 -57l165 24q53 8 117.5 21t133 21t136 7.5t126.5 -19.5z" />
    <glyph glyph-name="g.ss04" unicode="&#xe086;" horiz-adv-x="524" 
d="M482 482q-8 -37 -14.5 -72.5t-14.5 -70.5l-6 -29.5l-9 -45l-11 -54.5l-12 -58l-30 -148l-11 -57v1l-53 -267q-4 -14 -11 -28q-6 -12 -16 -26.5t-25 -27.5q-16 -14 -31 -20.5t-26 -8.5q-13 -3 -25 -1q-6 -1 -13 -2q-6 -1 -14.5 -1h-18.5q-8 0 -22.5 2t-31 9t-31.5 20
t-23 35q-9 26 -6.5 59.5t17 68.5t40.5 68t64 58q15 8 31 14t33 11l-9 -39q-8 -3 -19 -9t-24 -18.5t-27.5 -32t-29.5 -47.5q-8 -14 -15.5 -40t-8.5 -52.5t8 -48t34 -25.5q16 -3 31 13.5t33 69.5q6 17 11 36l10 37q11 49 24 115l28 138q14 10 28 24.5t21 37.5q9 27 1 46.5
t-22 31.5l17 80.5l14.5 71l11.5 56.5l8 38q-22 37 -51.5 39t-58.5 -22t-54 -68.5t-37 -101.5q-9 -42 -9.5 -76.5t5.5 -58.5t19.5 -35.5t33.5 -7.5q-1 -1 -2 -1q5 0 20.5 5.5t29.5 22.5q8 9 10 16t3 12q0 5 -1 9q2 0 6 -1q7 -2 12 -6t9 -11.5t2 -20.5q-2 -11 -12 -25.5
t-25 -27.5q-22 -17 -51.5 -27t-58.5 -8q-29 0 -55 10.5t-45 31.5t-28.5 53t-6.5 74q5 56 22 110.5t48 97.5t76.5 70.5t108.5 30.5q6 0 18.5 -1t27.5 -5.5t30.5 -13.5t28.5 -25q11 19 36 33q14 7 27 10t24 5q12 2 25 1h18zM1148 -33q29 -11 47 -24t28.5 -26t13.5 -26t2 -25
q-3 -28 -26 -56q-6 9 -17 19q-10 8 -27 18t-44 21q-46 17 -107.5 26.5t-129.5 14t-139.5 4t-138 -3t-124.5 -6t-100 -5.5l10 34q29 2 66 6q32 3 75 7.5l97 10.5q53 6 118.5 16.5t134 16.5t136 3t125.5 -25z" />
    <glyph glyph-name="h.ss04" unicode="&#xe087;" 
d="M993 679q29 -10 47.5 -22t29 -25t14.5 -26t3 -25q-2 -28 -24 -57q-6 8 -17 18q-10 8 -27.5 17.5t-45.5 19.5q-29 10 -71.5 13t-82.5 3q-47 0 -97 -3l-485 -11q-4 -2 -7.5 -2.5t-6.5 -1.5l9 39q16 6 43.5 28.5t56.5 78.5q9 14 14 40.5t3.5 53.5t-11 47t-30.5 22
q-8 0 -15 -2.5t-13.5 -11t-13.5 -24.5t-16 -42q-8 -24 -15 -50.5t-12 -48.5l-47 -229h2q-2 -8 -3.5 -15.5t-3.5 -15.5q5 4 10 7t12 6q20 8 41.5 12t38.5 6q20 2 40 0h122q-2 -6 -2 -12l-27 -131l-47 -231q-7 -35 5.5 -45t33.5 -2.5t45 28.5t41 48h1q1 1 1 2q5 8 20 35.5
t26 60.5v2l2 2q2 3 5.5 5.5t10.5 0.5q8 -2 8.5 -9t-0.5 -10q0 -1 -0.5 -1t-0.5 -1q-2 -8 -11 -30t-23.5 -49t-33.5 -54t-41 -43q-55 -42 -111 -44h-9q-26 2 -47 15.5t-32 41.5q-5 12 -9.5 38.5t4.5 67.5v3q0 2 0.5 3.5t0.5 3.5l1 1v1q0 2 1 3l46 227l9 19.5t15 20.5h-41
q-16 0 -33 -4q-14 -4 -31.5 -13.5t-33.5 -29.5l-11 -13q-2 -3 -5.5 -10t-8.5 -18l-5 -22q-2 -13 -4.5 -25.5l-5.5 -26.5l-37 -179q-4 -19 -4 -36q-1 -14 2 -29t13 -23l11 -9q-11 -3 -22 -5t-22 -2h-9q-44 2 -69 37l-6 12q-6 13 -10 30q-3 14 -4 35t5 49v1q3 13 3 16l23 112
h-2l24 113v4l81 399q3 14 10 28q6 12 15.5 26t25.5 27q21 18 56 27t71 6.5t66.5 -18.5t42.5 -48q8 -24 7 -53t-12 -60t-31 -61.5t-49 -55.5q32 4 71.5 9.5t90.5 13.5q53 8 118 21t133 21t136 7.5t127 -19.5z" />
    <glyph glyph-name="j.ss04" unicode="&#xe088;" horiz-adv-x="255" 
d="M74 461q14 8 27.5 10.5l24.5 4.5q13 1 25 1h18l-26 -143q-2 -10 -5.5 -29.5l-8 -45l-10 -54.5l-10.5 -58l-27 -148l-9 -56v1l-48 -268q-4 -14 -10 -28q-5 -12 -14.5 -26.5t-24.5 -27.5q-16 -14 -30.5 -20t-25.5 -8q-13 -3 -25 -2q-6 -1 -13 -2q-6 -1 -14.5 -1h-18.5
q-8 0 -23 2.5t-31.5 9t-31.5 19.5t-23 35q-10 27 -8.5 60.5t15 68t39 67.5t62.5 58q15 8 31 14t33 11l-7 -39q-8 -3 -19 -9t-24 -18.5t-27.5 -31.5t-28.5 -47q-8 -14 -15 -40t-7 -52.5t9.5 -48t34.5 -26.5q17 -3 31 14t31 69q7 18 11.5 37l8.5 36l8 46.5l15 83l19 106
l21 115.5l55 303q5 13 14 28.5t32 28.5zM853 -33q29 -11 47.5 -24t28.5 -26t13 -26t2 -25q-3 -28 -26 -56q-5 9 -16 19q-10 8 -27 18t-45 21q-46 17 -107 26.5t-129.5 14t-139.5 4t-138 -3t-125 -6t-100 -5.5l10 34q29 2 66 6q32 3 75 7.5l97 10.5q53 6 118.5 16.5t134 16.5
t136 3t125.5 -25zM193 604q-6 -29 -11.5 -58.5t-10.5 -59.5q-10 1 -28.5 6.5t-36.5 17.5t-31.5 32.5t-12.5 52.5l2 9h129z" />
    <glyph glyph-name="k.ss04" unicode="&#xe089;" 
d="M1231 778q29 -10 47.5 -22t29 -25t14 -26t2.5 -25q-2 -28 -24 -57q-6 8 -17 18q-10 8 -27 17.5t-45 19.5q-29 10 -71.5 13t-82.5 3q-47 0 -97 -3l-468 -9q11 -14 14.5 -32t-9.5 -44q-13 -27 -37 -46t-52 -33t-57 -24.5t-51 -20.5l-8 -4h15h6h122q-2 -6 -2 -12l-27 -131
l-48 -231q-6 -35 6.5 -45t33.5 -2.5t45 28.5t41 48h1q1 1 1 2q5 8 20 35.5t26 60.5v2q0 2 2 2q2 3 5.5 5.5t10.5 0.5q8 -2 8.5 -9t-0.5 -10q-1 -1 -1 -2q-2 -8 -11.5 -30t-23.5 -49t-33 -54t-41 -43q-55 -42 -111 -44h-9q-26 2 -47 15.5t-32 41.5q-5 12 -9.5 38.5t4.5 67.5
v3q0 2 0.5 3.5t0.5 3.5v1l1 1v3l47 227q3 9 8.5 19.5t15.5 20.5h-41q-16 0 -33 -4q-14 -4 -31.5 -13.5t-33.5 -29.5l-11 -13q-2 -3 -5.5 -10t-8.5 -18l-5 -22q-2 -13 -4.5 -25.5l-5.5 -26.5l-37 -179q-3 -19 -4 -36q-1 -14 1.5 -29t12.5 -23l12 -9q-11 -3 -22 -5t-22 -2h-9
q-21 1 -39 10t-30 27l-6 12q-6 13 -10 30q-3 14 -4 35t5 49v1q3 13 3 16l23 112h-2l24 113v4l81 399q3 14 10 28q6 12 15.5 26t25.5 27q21 18 56 27t71 6.5t66.5 -18.5t42.5 -48q9 -26 6.5 -59.5t-16.5 -68t-40.5 -67.5t-63.5 -58q-15 -8 -31.5 -14.5t-33.5 -11.5l9 39
q16 6 43.5 28.5t56.5 78.5q9 14 14 40.5t3.5 53.5t-11 47t-30.5 22q-8 0 -15 -2.5t-13.5 -11t-13.5 -24.5t-16 -42q-8 -24 -15 -50.5t-12 -48.5l-47 -229h2q-2 -8 -3.5 -15.5t-3.5 -15.5q5 4 10 7t11 6h1l171 119q19 12 36 25q14 11 28 24t20 27q10 23 10.5 36t-1.5 18l-2 3
q36 5 78 10l83 11.5l101 14.5q53 8 118 21t133 21t136 7.5t127 -19.5z" />
    <glyph glyph-name="l.ss04" unicode="&#xe01a;" horiz-adv-x="281" 
d="M988 679q30 -10 48.5 -22t29 -25t14 -26t2.5 -25q-2 -28 -24 -57q-6 8 -17 18q-10 8 -27.5 17.5t-44.5 19.5q-29 10 -71.5 13t-82.5 3q-47 0 -97 -3l-488 -11q-4 -2 -7.5 -2.5t-6.5 -1.5l9 39q14 5 42.5 27.5t57.5 78.5q8 14 13 41t3.5 53.5t-10.5 47t-30 22.5
q-9 0 -15.5 -2.5t-13.5 -11t-14 -24.5t-16 -43q-6 -18 -11.5 -38.5t-10 -39.5l-8 -34t-4.5 -24l-19.5 -106l-21 -115l-20.5 -113.5l-18.5 -101.5l-15 -80t-8.5 -48q-6 -36 6 -46.5t33 -3t44.5 28.5t40.5 48l1 1l2 2q5 8 18 35.5t24 60.5l1 2q0 2 2 2q2 3 5.5 5.5t9.5 0.5
q8 -3 8.5 -9.5t0.5 -9.5q0 -2 -1 -2q-2 -8 -10.5 -30t-22.5 -49t-32 -54t-39 -44q-29 -23 -60 -34t-60 -9q-23 1 -42 12t-31.5 32t-16.5 53t4 76l113 635q3 14 10 28q6 12 15.5 26t25.5 27q21 18 56.5 27t72.5 6t68.5 -19t42.5 -47q9 -24 7.5 -53t-12 -60t-30.5 -61.5
t-49 -56.5q31 5 72 10.5t93 13.5q53 8 117.5 21t133 21t136 7.5t126.5 -19.5z" />
    <glyph glyph-name="m.ss04" unicode="&#xe01b;" horiz-adv-x="774" 
d="M1533 280q29 -11 47 -24t28 -26t13 -26t2 -25q-3 -28 -26 -56q-5 9 -16 19q-10 8 -27 18t-44 21q-44 16 -101 25.5t-121 14t-131.5 4.5t-131.5 -2t-121.5 -5t-102.5 -6q-4 -12 -14 -34t-24 -47t-31.5 -48.5t-37.5 -38.5q-55 -42 -111 -44h-9q-26 2 -47 15.5t-32 41.5
q-5 12 -9.5 38.5t4.5 67.5v3l2 7v2q0 1 0.5 1.5t0.5 1.5l38 186q4 22 17 37t27.5 24.5t27 14t16.5 5.5h-105q-12 0 -38.5 -8t-51.5 -39l-10 -13q-2 -3 -6 -10t-9 -18l-5 -22q-2 -13 -4.5 -25.5l-5.5 -26.5l-37 -179q-4 -19 -4 -36q-1 -14 2 -29t13 -23l11 -9
q-11 -3 -21.5 -5t-21.5 -2h-10q-43 2 -69 37l-6 12q-6 13 -10 30q-3 14 -4 35t5 49v1q3 13 3 16l38 185l16 80h-11q-16 0 -33 -4q-14 -4 -31.5 -13.5t-33.5 -29.5l-11 -13q-2 -3 -5.5 -10t-8.5 -18l-4 -22l-6 -25.5t-5 -26.5l-37 -179q-3 -19 -4 -36q-1 -14 1.5 -29
t12.5 -23q4 -2 6.5 -4.5t5.5 -4.5q-11 -3 -21.5 -5t-21.5 -2h-9q-46 2 -69 37q-5 6 -6 12q-7 13 -11 30q-3 14 -4 35t5 49l1 1q1 7 1.5 11t0.5 5l46 225q5 12 14.5 28t33.5 29q14 7 27 10t24 5q12 2 25 1h19l-7 -31q5 4 10.5 7l10.5 6q20 8 41.5 12t39.5 6q20 2 40 0h109
q-4 -15 -6 -31q7 6 21 13q20 8 41.5 12t38.5 6q20 2 40 0h123q-3 -5 -3 -12l-27 -131l-47 -231q-6 -35 6 -45t33 -2.5t45 28.5t41 48h2q0 2 1 2l16 29t23 50l9 31q29 2 66 6l74.5 7t96.5 10t119 16.5t134 16.5t136.5 3t125.5 -24z" />
    <glyph glyph-name="n.ss04" unicode="&#xe01c;" 
d="M1286 280q29 -11 47 -24t28.5 -26t13.5 -26t2 -25q-3 -28 -26 -56q-6 9 -17 19q-10 8 -27 18t-44 21q-44 16 -101 25.5t-120.5 14t-131 4.5t-131.5 -2t-122 -5t-103 -6q-4 -12 -13.5 -34t-23.5 -46.5t-31.5 -48.5t-37.5 -39q-55 -42 -111 -44h-9q-26 2 -47 15.5t-32 41.5
q-5 12 -9.5 38.5t4.5 67.5v3q0 2 0.5 3.5t0.5 3.5v1l1 1v3l40 192q6 22 17.5 36t24 22.5t24.5 12t19 4.5h-95q-16 0 -33 -4q-14 -4 -31.5 -13.5t-33.5 -29.5l-11 -13q-2 -3 -5.5 -10t-8.5 -18l-5 -22q-2 -13 -4.5 -25.5l-5.5 -26.5l-37 -179q-3 -19 -4 -36q-1 -14 1.5 -29
t12.5 -23l12 -9q-11 -3 -22 -5t-22 -2h-9q-44 2 -69 37l-6 12q-6 13 -10 30q-3 14 -4 35t5 49v1q3 13 3 16l46 225q5 12 14.5 28t33.5 29q14 7 27 10t24 5q12 2 25 1h19q-2 -8 -3.5 -15.5t-3.5 -15.5q5 4 10 7t11 6q20 8 41.5 12t39.5 6q20 2 40 0h122q-2 -6 -2 -12
l-27 -131l-48 -231q-6 -35 6.5 -45t33.5 -2.5t45 28.5t41 48h1q1 1 1 2q5 7 16 28t22 48l10 34q29 2 66 6l75 7t97 10q53 6 118.5 16.5t134 16.5t136 3t125.5 -24z" />
    <glyph glyph-name="t.ss04" unicode="&#xe01d;" horiz-adv-x="387" 
d="M856 621q47 -15 63.5 -40.5t18.5 -51.5q2 -30 -12 -63q-6 8 -17 18q-10 8 -27.5 17.5t-44.5 19.5q-29 10 -71.5 13.5t-82.5 3.5q-47 0 -97 -3l-403 -10l-5 -20l-73 -399q-6 -36 6.5 -46.5t33.5 -3.5t44.5 28t40.5 49h1q0 1 0.5 1.5t0.5 1.5q5 8 18.5 35t23.5 61v-1l1 2
q2 2 2 3q2 3 5.5 5t9.5 0q8 -2 9 -9t0 -10v-2q-2 -7 -11 -29.5t-22.5 -49.5t-32 -54t-39.5 -43q-29 -23 -60 -34.5t-60 -9.5q-23 1 -42 12t-31.5 32t-16.5 53.5t4 76.5l63 352l-120 -7q-20 -1 -32 3.5t-19 11.5t-11.5 13.5t-9.5 8.5l201 11l41 241q3 14 10 28q6 12 16 26.5
t25 27.5t30 19.5t26 8.5q13 3 25 2h8q4 1 15.5 1.5t28.5 1.5q7 0 22 -2.5t31.5 -9t31.5 -20t23 -35.5q9 -26 6.5 -59.5t-17 -68t-41 -67.5t-63.5 -58q-15 -8 -30.5 -14.5t-32.5 -11.5l8 39q15 6 43 28.5t57 78.5q8 14 13 40.5t3.5 53.5t-10.5 47t-30 22q-8 1 -15 -1.5
t-13.5 -11.5t-13.5 -25t-16 -42l-12 -39t-10.5 -39l-8 -34t-4.5 -24l-18 -99q1 0 1 -6l106.5 9.5t118.5 12.5q27 3 63 9l76 13t82 13t81.5 9t75 1t62.5 -11z" />
    <glyph glyph-name="y.ss04" unicode="&#xe01e;" horiz-adv-x="499" 
d="M335 -56h1l-54 -267q-4 -14 -11 -28q-6 -12 -16 -26.5t-25 -27.5q-16 -14 -31 -20t-26 -8q-13 -3 -25 -1q-6 -1 -13 -2q-6 -1 -14 -1.5t-18 -0.5q-8 0 -23 2.5t-31 9t-31 19.5t-23 36q-10 26 -7.5 59.5t17 68t40.5 67.5t64 58q15 8 31 14.5t33 11.5l-9 -39
q-15 -6 -43 -28.5t-57 -78.5q-8 -14 -15.5 -40t-8.5 -52.5t8 -48t34 -25.5q16 -4 31.5 13t33.5 70l10.5 36t9.5 37l71 345q-11 -16 -22.5 -29.5t-25.5 -23.5q-26 -21 -55 -32t-56 -12h-9q-26 2 -47 15.5t-32 41.5q-5 12 -9.5 38.5t4.5 67.5v3l2 7v2q1 1 1 3l46 227l9 19.5
t16 20.5q5 5 10 9t13 8q17 9 34 12.5t28 3.5h33l-3 -12l-27 -131l-47 -231q-6 -35 6 -45t33 -2.5t45.5 28.5t41.5 48h1q0 2 1 2q3 5 11 19.5t16 34.5l17.5 84.5l14.5 68.5l13 63q5 13 14.5 28.5t33.5 28.5q14 7 27 10t24 5q12 2 25 1h18l-29 -143l-6 -29.5l-9 -45l-11 -54.5
l-12 -58l-30 -148zM1118 -33q29 -11 47 -24t28.5 -26t13.5 -26t2 -25q-3 -28 -26 -56q-6 9 -17 19q-10 8 -27 18t-44 21q-46 17 -107.5 26.5t-129.5 14t-139.5 4t-138 -3t-124.5 -6t-100 -5.5l10 34q29 2 66 6q32 3 75 7.5l97 10.5q53 6 118.5 16.5t134 16.5t136 3
t125.5 -25z" />
    <glyph glyph-name="r.ss04" unicode="&#xe02a;" horiz-adv-x="460" 
d="M1108 382q29 -11 47 -23.5t28 -25.5t13 -26t2 -25q-3 -28 -26 -56q-5 8 -16 18q-10 8 -27 18t-45 21q-46 17 -107 26.5t-129.5 14t-139.5 4t-137.5 -3t-124.5 -6t-100 -5.5v1q-5 0 -9 0.5t-9 1.5q-1 1 -2 1t-3 1l-7 3l-4 2l-8 6q-2 1 -2.5 2t-1.5 2q-8 7 -13 18
q-1 1 -1 2q-5 10 -5 20v8q0 3 -2 7q-3 11 -15 21l-2 2q-11 8 -23 11q-3 1 -10 1q-13 2 -24 -4l-7 -3q-11 -7 -20 -18l-11 -13l-3 -5l-1 -2l-7 -13l-2 -6l-1 -1v-1l-5 -22l-10 -52l-37 -179q0 -3 -1 -7q-2 -6 -3 -15v-6q-1 -5 -1 -10v-10q1 -12 4 -22.5t11 -17.5l12 -9
q-1 0 -1 -1h-3q-1 -1 -3 -1q-1 0 -1 -0.5t-1 -0.5q-2 0 -3.5 -0.5t-3.5 -0.5l-16 -3h-21q-27 0 -49 16l-4 3q-8 6 -16 18l-6 12q-2 6 -5 13q-2 6 -4.5 15t-3.5 21v4q-1 5 -1 10v11q0 5 0.5 9.5t1.5 9.5q0 2 0.5 5t0.5 5l2 11v1l2 7v2q1 2 1 5v2l46 225l2 6t3 7l2 4l6 9
q9 14 24 24q3 3 11 7q1 0 1 0.5t1 0.5l6 3q9 4 17.5 6l16.5 4q5 0 7 1h4q2 0 3 0.5t3 0.5h36l-7 -31l2 1l2 2l5 3q2 2 7 4l5 3l15 6q3 0 7 2q2 0 3 1q2 0 3 0.5t3 0.5q5 2 9.5 2.5t9.5 1.5l10 2l22 2h48q1 0 2 -0.5t2 -0.5q3 0 11 -2q3 0 5 -1q2 0 3 -1q11 -3 27 -13
q1 0 3 -2q4 -2 5 -4l8 -7l2 -3q3 -3 7 -9q0 -2 2 -4l3 -7l3 -8q4 -10 6 -23q1 -2 1 -5v-9q0 -9 -3 -18q0 -2 -0.5 -3t-0.5 -2l-2 -4q32 2 78 6.5t109 12.5q54 6 119 16.5t133.5 16.5t136 3t126.5 -25z" />
    <glyph glyph-name="b.ss03" unicode="&#xe02b;" horiz-adv-x="544" 
d="M979 653q29 -11 47.5 -23.5t28.5 -25.5t13 -26t2 -25q-3 -28 -26 -57q-5 9 -16 19q-10 8 -27 18t-45 21q-46 17 -107 26.5t-129.5 14t-139.5 4t-138 -3t-125 -6t-100 -5.5h-2l9 39q7 3 18.5 9.5t25 19t28 31.5t28.5 47q8 14 13 40.5t4 53.5t-10.5 47t-29.5 22
q-9 1 -16 -1.5t-13.5 -11.5t-14 -25t-16.5 -42q-8 -26 -15 -53.5t-12 -50.5l-48 -263q18 13 35 20t32 10.5t26.5 4t16.5 0.5q62 -2 96.5 -29.5t48 -70.5t8 -97.5t-23.5 -111.5q-16 -48 -42.5 -81.5t-58.5 -54.5l20 2t21 3q44 8 74.5 27.5t49.5 40.5q22 25 36 54
q8 14 17 33.5t16 41.5v1l1 2l2 2q2 3 5.5 5t9.5 0q8 -2 8.5 -9t0.5 -10v-1h-1q-2 -8 -11 -30t-23.5 -49t-33.5 -54t-41 -43q-14 -11 -28.5 -20t-29.5 -14h-1q-3 -2 -6 -2.5t-5 -1.5q-32 -9 -67 -12t-64.5 -2.5t-49 2.5t-20.5 2q-51 3 -78 35q-11 12 -14.5 27t-0.5 26
q3 13 9.5 20t13.5 12q4 2 7.5 3t5.5 2q6 3 14 3q14 0 24 -10.5t10 -25.5q0 -18 -12 -28q2 -2 6 -2v1q18 -5 36 6.5t34 35.5t29.5 59t21.5 77q11 55 5 99.5t-24.5 68.5t-47.5 24t-65 -34l-25.5 -140.5t-19.5 -106.5q-21 -12 -35.5 -33.5t-10.5 -49.5q2 -25 14 -40.5t24 -23.5
q-8 -2 -14.5 -2h-14.5q-23 1 -42 12t-31.5 32t-16.5 53.5t4 76.5l113 633q3 14 10 28q6 12 16 26.5t25 28.5q15 13 30 19.5t26 8.5q13 3 25 2h5q1 0 13.5 1.5t32.5 1.5q8 0 23 -2.5t31 -9.5t31 -20t23 -35q9 -24 7 -55t-13.5 -63.5t-33.5 -63.5t-53 -56l71.5 7t92.5 10
q53 6 118.5 16.5t134 16.5t136 3t125.5 -25z" />
    <glyph glyph-name="d.ss03" unicode="&#xe02c;" horiz-adv-x="572" 
d="M-516 215q58 19 124.5 20t134 -7t132 -21t117.5 -21q6 54 23.5 105.5t48.5 92t75.5 66t105.5 28.5q6 0 17.5 -1t26 -5t29.5 -12t28 -22l74 373q4 14 11 28q6 12 15.5 26.5t25.5 27.5q21 18 56 27t71 6.5t66.5 -18.5t42.5 -49q9 -26 6.5 -59.5t-17 -68t-40.5 -67.5
t-63 -58q-16 -8 -32 -14.5t-33 -11.5l9 39q7 3 18.5 9.5t24.5 19t27.5 31.5t28.5 48q9 13 14 39.5t3.5 53.5t-10.5 47.5t-30 22.5q-8 0 -15 -2.5t-13.5 -11t-13.5 -24.5t-16 -42q-9 -24 -15.5 -50.5l-11.5 -48.5l-124 -603q-6 -35 6 -45t33 -3t45.5 28t41.5 48l1 1v2
q5 8 19.5 35t25.5 61l1 2l2 2q2 3 5.5 5t9.5 0q9 -2 9.5 -9t-0.5 -9v-2q-2 -8 -11.5 -30t-24 -49t-33.5 -54t-40 -43q-27 -21 -56.5 -32.5t-55.5 -11.5h-9q-27 2 -48 16t-32 43l7 22q5 20 -1.5 33t-13.5 21q1 9 2.5 18.5t3.5 20.5l44 214q-22 39 -51.5 41.5t-59 -21t-54 -69
t-36.5 -102.5q-5 -22 -7.5 -41.5t-2.5 -36.5q45 -9 73.5 -20t27.5 -25l-99 2q5 -31 19 -46.5t37 -10.5q-1 -1 -2 -1q6 0 21 5.5t28 22.5t13.5 25.5t-0.5 10.5q20 -12 23.5 -27.5t-4.5 -31t-24.5 -29.5t-36.5 -24t-40.5 -14t-36.5 0l1 1q-51 -1 -89 29.5t-45 92.5l-236 6
q-51 3 -98 3q-41 0 -83 -3.5t-71 -13.5q-28 -10 -45 -19.5t-27 -17.5q-11 -9 -17 -17q-22 29 -24 57q-1 12 2.5 25t14 25.5t29 24.5t48.5 22z" />
    <glyph glyph-name="f.ss03" unicode="&#xe02d;" horiz-adv-x="402" 
d="M892 557q47 -22 61 -48.5t12 -49.5q-3 -27 -21 -56q-4 8 -13 18q-8 8 -21.5 18t-35.5 21q-38 17 -87 26.5t-103.5 13.5t-112 4t-111 -2t-100 -5.5t-80.5 -5.5l3 5q8 14 11.5 31t5 34t0.5 32t-2 26q0 9 -3 18q-3 13 -11.5 22.5t-24.5 14.5q-29 7 -60 -94q-8 -25 -14 -51
l-11 -48l-17 -89q21 1 49.5 -1t57.5 -3t56 0.5t46 10.5q15 7 24.5 14.5t14.5 12.5q6 6 9 12q6 -24 4 -46q-2 -19 -11.5 -40t-35.5 -35q-21 -12 -44.5 -11t-50.5 7.5t-59 16t-70 14.5l-22 -125t-22 -123v-2q0 -1 -0.5 -1.5t-0.5 -1.5l-71 -399q-4 -14 -10 -28q-5 -12 -15 -26
t-25 -27q-16 -14 -30.5 -20.5t-25.5 -8.5q-13 -3 -25 -1h-19l16 85l95 522h1l32 177l-48 8l6 24l47 -1l33 185q3 14 10 28q5 12 15 26t25 28q21 18 56 27t71 6t66.5 -19t42.5 -47q10 -25 12.5 -48.5t-7.5 -52.5l126 18q43 6 95.5 16t107 16t108.5 3t101 -25z" />
    <glyph glyph-name="g.ss03" unicode="&#xe02e;" horiz-adv-x="524" 
d="M-543 -59q58 22 125.5 25.5t136 -1.5t134 -15t118.5 -16q54 -5 97.5 -9.5t75.5 -6.5q37 -4 66 -5l-1 -2h3l-9 -39q-8 -3 -19 -9t-24 -18.5t-27.5 -32t-29.5 -47.5q-8 -14 -15.5 -40t-8.5 -52.5t8 -48t34 -25.5q16 -3 31 13.5t33 69.5q6 17 11 36l10 37q11 49 24 115
l28 138q14 10 28 24.5t21 37.5q9 27 1 46.5t-22 31.5l17 80.5l14.5 71l11.5 56.5l8 38q-22 37 -51.5 39t-58.5 -22t-54 -68.5t-37 -101.5q-9 -42 -9.5 -76.5t5.5 -58.5t19.5 -35.5t33.5 -7.5q-1 -1 -2 -1q5 0 20.5 5.5t29.5 22.5q8 9 10 16t3 12q0 5 -1 9q2 0 6 -1
q7 -2 12 -6t9 -11.5t2 -20.5q-2 -11 -12 -25.5t-25 -27.5q-22 -17 -51.5 -27t-58.5 -8q-29 0 -55 10.5t-45 31.5t-28.5 53t-6.5 74q5 56 22 110.5t48 97.5t76.5 70.5t108.5 30.5q6 0 18.5 -1t27.5 -5.5t30.5 -13.5t28.5 -25q11 19 36 33q14 7 27 10t24 5q12 2 25 1h18
q-8 -37 -14.5 -72.5t-14.5 -70.5l-6 -29.5l-9 -45l-11 -54.5l-12 -58l-30 -148l-11 -57v1l-53 -267q-4 -14 -11 -28q-6 -12 -16 -26.5t-25 -27.5q-16 -14 -31 -20.5t-26 -8.5q-13 -3 -25 -1q-6 -1 -13 -2q-6 -1 -14.5 -1h-18.5q-8 0 -22.5 2t-31 9t-31.5 20t-23 35
q-9 25 -7 57t14.5 65t36 64.5t56.5 57.5l-402 -10q-50 1 -97 -1q-40 -2 -82.5 -7t-70.5 -16q-27 -11 -44 -22t-26 -19q-11 -10 -16 -18q-23 28 -27 56q-2 12 1 25t12.5 26.5t28 26t47.5 24.5z" />
    <glyph glyph-name="h.ss03" unicode="&#xe02f;" 
d="M985 646q29 -11 47.5 -24t28.5 -26t13 -26t2 -25q-3 -28 -26 -56q-5 9 -16 19q-10 8 -27 18t-45 21q-46 17 -107 26.5t-129.5 14t-139.5 4t-138 -3t-125 -6t-100 -5.5l9 39q16 6 43.5 28.5t56.5 78.5q9 14 14 40.5t3.5 53.5t-11 47t-30.5 22q-8 0 -15 -2.5t-13.5 -11
t-13.5 -24.5t-16 -42q-8 -24 -15 -50.5t-12 -48.5l-47 -229h2q-2 -8 -3.5 -15.5t-3.5 -15.5q5 4 10 7t12 6q20 8 41.5 12t38.5 6q20 2 40 0h122q-2 -6 -2 -12l-27 -131l-47 -231q-7 -35 5.5 -45t33.5 -2.5t45 28.5t41 48h1q1 1 1 2q5 8 20 35.5t26 60.5v2l2 2q2 3 5.5 5.5
t10.5 0.5q8 -2 8.5 -9t-0.5 -10q0 -1 -0.5 -1t-0.5 -1q-2 -8 -11 -30t-23.5 -49t-33.5 -54t-41 -43q-55 -42 -111 -44h-9q-26 2 -47 15.5t-32 41.5q-5 12 -9.5 38.5t4.5 67.5v3q0 2 0.5 3.5t0.5 3.5l1 1v1q0 2 1 3l46 227l9 19.5t15 20.5h-41q-16 0 -33 -4
q-14 -4 -31.5 -13.5t-33.5 -29.5l-11 -13q-2 -3 -5.5 -10t-8.5 -18l-5 -22q-2 -13 -4.5 -25.5l-5.5 -26.5l-37 -179q-4 -19 -4 -36q-1 -14 2 -29t13 -23l11 -9q-11 -3 -22 -5t-22 -2h-9q-44 2 -69 37l-6 12q-6 13 -10 30q-3 14 -4 35t5 49v1q3 13 3 16l23 112h-2l24 113v4
l81 399q3 14 10 28q6 12 15.5 26t25.5 27q21 18 56 27t71 6.5t66.5 -18.5t42.5 -48q9 -24 7 -55t-14 -63.5t-34 -64t-54 -56.5l164 17q53 6 118.5 16.5t134 16.5t136 3t125.5 -24z" />
    <glyph glyph-name="j.ss03" unicode="&#xe03a;" horiz-adv-x="255" 
d="M-838 -32q59 19 127 20t136 -7.5t133 -21.5t118 -21l96 -14t75 -10q37 -4 66 -8l-3 -13l-5 -26q-8 -3 -19 -9t-24 -18.5t-27.5 -31.5t-28.5 -47q-8 -14 -15 -40t-7 -52.5t9.5 -48t34.5 -26.5q17 -3 31 14t31 69q7 18 11.5 37l8.5 36l8 46.5l15 83l19 106l21 115.5l55 303
q5 13 14 28.5t32 28.5q14 8 27.5 10.5l24.5 4.5q13 1 25 1h18l-26 -143q-2 -10 -5.5 -29.5l-8 -45l-10 -54.5l-10.5 -58l-27 -148l-9 -56v1l-48 -268q-4 -14 -10 -28q-5 -12 -14.5 -26.5t-24.5 -27.5q-16 -14 -30.5 -20t-25.5 -8q-13 -3 -25 -2q-6 -1 -13 -2q-6 -1 -14.5 -1
h-18.5q-8 0 -23 2.5t-31.5 9t-31.5 19.5t-23 35q-10 25 -9 57.5t13 65.5t35 65t57 58l-403 9q-50 3 -97 3q-40 0 -83 -3t-71 -13q-28 -11 -45.5 -20.5t-27.5 -17.5q-11 -9 -17 -17q-22 29 -24 57q-1 12 2.5 25t14 25.5t29 24.5t48.5 22zM193 604q-6 -29 -11.5 -58.5
t-10.5 -59.5q-10 1 -28.5 6.5t-36.5 17.5t-31.5 32.5t-12.5 52.5l2 9h129z" />
    <glyph glyph-name="k.ss03" unicode="&#xe03b;" 
d="M1258 205q29 -11 47 -24t28 -26t13 -26t2 -25q-3 -28 -26 -56q-5 9 -16 19q-10 8 -27 18t-45 21q-44 16 -102 25.5t-122.5 14t-132.5 4.5t-132.5 -2t-122.5 -5.5t-102 -5.5q-13 -26 -29.5 -49.5t-42.5 -43.5q-55 -42 -111 -44h-9q-26 2 -47 15.5t-32 41.5
q-5 12 -9.5 38.5t4.5 67.5v3q0 2 0.5 3.5t0.5 3.5v1l1 1v3l47 227q3 9 8.5 19.5t15.5 20.5h-41q-16 0 -33 -4q-14 -4 -31.5 -13.5t-33.5 -29.5l-11 -13q-2 -3 -5.5 -10t-8.5 -18l-5 -22l-10 -52l-37 -179q-3 -19 -4 -36q-1 -14 1.5 -29t12.5 -23l12 -9q-11 -3 -22 -5t-22 -2
h-9q-21 1 -39 10t-30 27l-6 12q-6 13 -10 30q-3 14 -4 35t5 49v1q3 13 3 16l23 112h-2l24 113v4l81 399q3 14 10 28q6 12 15.5 26t25.5 27q21 18 56 27t71 6.5t66.5 -18.5t42.5 -48q9 -26 6.5 -59.5t-16.5 -68t-40.5 -67.5t-63.5 -58q-15 -8 -31.5 -14.5t-33.5 -11.5l9 39
q16 6 43.5 28.5t56.5 78.5q9 14 14 40.5t3.5 53.5t-11 47t-30.5 22q-8 0 -15 -2.5t-13.5 -11t-13.5 -24.5t-16 -42q-8 -24 -15 -50.5t-12 -48.5l-47 -229h2l-7 -31q5 4 10 7t11 6h1l171 119q19 12 36 25q14 11 28 24t20 27t8 23.5t2 17.5t-1 15q21 -11 33 -26
q11 -13 15.5 -32.5t-8.5 -46.5t-37 -46t-52 -33t-57 -24.5t-51 -20.5l-8 -4h15h6h122l-2 -12l-27 -131l-48 -231q-6 -35 6.5 -45t33.5 -2.5t45 28.5t41 48h1q1 1 1 2q3 5 6.5 10t11.5 22l1 2v1q29 2 66 6l75 7t97 10t119 16.5t133.5 16.5t136 3t126.5 -24z" />
    <glyph glyph-name="l.ss03" unicode="&#xe03c;" horiz-adv-x="281" 
d="M979 646q29 -11 47 -23.5t28 -25.5t13 -26t2 -25q-3 -28 -26 -56q-5 8 -16 18q-10 8 -27 18t-45 21q-46 17 -107 26.5t-129.5 14t-139.5 4t-137.5 -3t-124.5 -6t-100 -5.5h-1l9 39q14 5 42.5 27.5t57.5 78.5q8 14 13 41t3.5 53.5t-10.5 47t-30 22.5q-9 0 -15.5 -2.5
t-13.5 -11t-14 -24.5t-16 -43q-6 -18 -11.5 -38.5t-10 -39.5l-8 -34t-4.5 -24l-19.5 -106l-21 -115l-20.5 -113.5l-18.5 -101.5l-15 -80t-8.5 -48q-6 -36 6 -46.5t33 -3t44.5 28.5t40.5 48l1 1l2 2q5 8 18 35.5t24 60.5l1 2q0 2 2 2q2 3 5.5 5.5t9.5 0.5q8 -3 8.5 -9.5
t0.5 -9.5q0 -2 -1 -2q-2 -8 -10.5 -30t-22.5 -49t-32 -54t-39 -44q-29 -23 -60 -34t-60 -9q-23 1 -42 12t-31.5 32t-16.5 53t4 76l113 635q3 14 10 28q6 12 15.5 26t25.5 27q21 18 56.5 27t72.5 6t68.5 -19t42.5 -47q9 -24 7.5 -55t-13 -63t-33.5 -63.5t-53 -56.5l71 7
t91 10q54 6 119 16.5t133.5 16.5t136 3t126.5 -25z" />
    <glyph glyph-name="p.ss03" unicode="&#xe03d;" horiz-adv-x="544" 
d="M-842 -18q59 19 127 20t136 -7.5t133 -21.5t118 -21l96 -14t75 -10q37 -4 66 -8l-1 -5h2l-8 -38q-8 -3 -19 -9.5t-24.5 -19t-28 -31.5t-28.5 -47q-9 -14 -16.5 -40t-8 -52.5t8.5 -48t33 -26.5q17 -3 32 14t33 69q6 18 11 37l10 37q2 12 9 46.5l16.5 82.5l21.5 105.5
l24 115.5l62 303q5 13 14.5 28.5t33.5 28.5q14 8 27 10.5l24 4.5q12 1 25 1h19l-9 -44q18 14 36.5 22t34.5 12t28 5t18 1q62 -3 96.5 -30t48 -70.5t8 -97.5t-23.5 -111q-16 -48 -42.5 -82t-58.5 -54q10 0 20 1.5t21 3.5q44 7 74.5 27t49.5 41q22 25 36 53q8 14 16.5 34
t16.5 42l1 2q1 1 1 3q2 2 6 4.5t10 0.5q8 -3 8.5 -9.5t-0.5 -10.5v-1q-2 -8 -11.5 -30t-23.5 -49t-33 -54t-40 -43q-31 -23 -60 -33l-12 -5v1q-32 -9 -66.5 -12t-64 -2.5t-49.5 2t-21 1.5q-24 2 -44 11.5t-33 24.5q-11 12 -14.5 27t-0.5 26q4 12 10 19.5t13 11.5q4 2 8 3.5
t7 2.5q4 1 6 1q-3 -4 -5 -9t-2 -12t4 -16q5 -16 17 -21t19 -6q18 -4 36.5 7.5t34.5 35.5t29 58.5t22 76.5q11 57 4.5 102.5t-26 69t-50.5 20.5t-68 -42l-10 -46l-2 -6l-39 -192q-12 -7 -24.5 -20.5t-14.5 -33.5q-2 -23 3 -39t12 -27q-2 -6 -2.5 -10t-1.5 -7q-1 -4 -1 -6
l-11 -56l1 1l-54 -268q-3 -14 -10 -28q-6 -12 -16 -26.5t-25 -27.5q-16 -14 -31 -20t-26 -8q-13 -3 -25 -2q-6 -1 -13 -2q-6 -1 -14.5 -1h-18.5q-8 0 -23 2.5t-31.5 9t-31.5 19.5t-23 35q-9 26 -6 59t16.5 67t38 66t60.5 58l-411 10q-50 3 -97 3q-40 0 -82.5 -3.5
t-71.5 -13.5q-28 -10 -45 -19.5t-27 -17.5q-11 -10 -17 -18q-22 30 -24 58q-1 12 2.5 25t13.5 25.5t28.5 24.5t48.5 22z" />
    <glyph glyph-name="y.ss03" unicode="&#xe03e;" horiz-adv-x="499" 
d="M-580 -29q59 19 127 19.5t136 -7.5t133 -21t118 -21t96 -13.5t75 -10.5l66 -9h2l-9 -39q-15 -6 -43 -28.5t-57 -78.5q-8 -14 -15.5 -40t-8.5 -52.5t8 -48t34 -25.5q16 -4 31.5 13t33.5 70l10.5 36t9.5 37l71 345q-11 -16 -22.5 -29.5t-25.5 -23.5q-26 -21 -55 -32
t-56 -12h-9q-26 2 -47 15.5t-32 41.5q-5 12 -9.5 38.5t4.5 67.5v3l2 7v2q1 1 1 3l46 227l9 19.5t16 20.5q5 5 10 9t13 8q17 9 34 12.5t28 3.5h33l-3 -12l-27 -131l-47 -231q-6 -35 6 -45t33 -2.5t45.5 28.5t41.5 48h1q0 2 1 2q3 5 11 19.5t16 34.5l17.5 84.5l14.5 68.5
l13 63q5 13 14.5 28.5t33.5 28.5q14 7 27 10t24 5q12 2 25 1h18l-29 -143l-6 -29.5l-9 -45l-11 -54.5l-12 -58l-30 -148l-11 -56h1l-54 -267q-4 -14 -11 -28q-6 -12 -16 -26.5t-25 -27.5q-16 -14 -31 -20t-26 -8q-13 -3 -25 -1q-6 -1 -13 -2q-6 -1 -14 -1.5t-18 -0.5
q-8 0 -23 2.5t-31 9t-31 19.5t-23 36q-9 25 -7 57.5t15 65.5t36.5 65t58.5 58l-407 9q-50 3 -97 3q-40 0 -83 -3t-71 -13t-45.5 -19.5t-27.5 -17.5q-11 -10 -17 -18q-22 29 -24 57q-1 12 2.5 25t14 26t29 25t48.5 22z" />
    <glyph glyph-name="uni02EB" unicode="&#x2eb;" horiz-adv-x="2149" 
d="M840 104q31 -20 70.5 -28.5t74.5 -11t60 -0.5t28 2l-31 -32q4 -1 8 -3q7 -3 23 -6q-18 -3 -46 -4.5t-63 4t-76 20.5t-85 44q-9 -3 -20.5 -4.5t-31 -3t-51 -1.5t-81 1t-120 3.5t-168.5 6.5q-44 3 -85 3q-35 0 -72.5 -3.5t-61.5 -13.5q-25 -10 -40.5 -19.5t-23.5 -17.5
q-11 -10 -15 -18q-19 30 -21 58q-1 12 2 25t12 25.5t25.5 24.5t42.5 22q51 20 109.5 21t118.5 -7.5t116.5 -21.5t102.5 -21q67 -12 117 -19.5t73 -10.5q19 -1 34 0q-13 12 -23.5 26t-17.5 31q-10 25 -3 46.5t23.5 36t39 20.5t44 0t37.5 -25.5t19 -54.5q4 -36 -8.5 -58.5
t-35.5 -35.5zM1307 104q-31 -20 -70.5 -28.5t-74.5 -11t-60 -0.5t-28 2l31 -32q-5 -1 -9 -3q-5 -2 -10 -3t-13 -3q19 -3 47 -4.5t63 4t75.5 20.5t85.5 44q9 -3 20.5 -4.5t31 -3t51 -1.5t81 1t120 3.5t168.5 6.5q44 3 85 3q35 0 72 -3.5t62 -13.5q24 -9 39 -19t24 -17.5
t12.5 -13l3.5 -5.5l5.5 8t10 21t6 29.5t-5.5 33.5t-25 33.5t-52 29.5q-51 20 -109.5 21t-118.5 -7.5t-116.5 -21.5t-102.5 -21q-67 -12 -117 -19.5t-73 -10.5q-19 -1 -34 0q13 12 23.5 26t17.5 31q10 25 3 46.5t-23.5 36t-39 20.5t-44 0t-37.5 -25.5t-19 -54.5
q-4 -36 8.5 -58.5t35.5 -35.5zM1297 209v2q0 3 1.5 10.5t6 15t11.5 13.5t19 6q13 0 20.5 -9t11.5 -20t5 -20.5t1 -10.5q0 -2 -0.5 -5.5t-0.5 -6.5q-2 -16 -10.5 -30t-21.5 -27q-29 14 -37.5 36.5t-5.5 45.5zM850 209v2q0 3 -1.5 10.5t-6 15t-11.5 13.5t-19 6q-13 0 -20.5 -9
t-11.5 -20t-5 -20.5t-1 -10.5q0 -2 0.5 -5.5t0.5 -6.5q2 -16 10.5 -30t21.5 -27q29 14 37.5 36.5t5.5 45.5z" />
    <glyph glyph-name="a.ss05" unicode="&#xe04a;" horiz-adv-x="574" 
d="M219 225q7 -19 6.5 -32.5t-4.5 -21.5q-4 -11 -12 -17q-6 12 -17 25q-9 11 -24 24t-36 25q-8 -39 -8 -71.5t7 -54.5t20 -32.5t32 -6.5h1q-1 -1 -2 -1q5 0 20 5.5t29 22.5q7 9 9.5 16t3.5 12t-1 9q2 0 6 -1q7 -2 12 -6t8.5 -11t1.5 -21q-2 -11 -11.5 -25.5t-24.5 -27.5
q-23 -17 -52 -27t-58 -8v1q-29 0 -55 10.5t-44.5 31.5t-28.5 52.5t-6 73.5q2 23 6 47t10 47q-61 5 -116 -3t-108 -21.5l-107.5 -28t-115.5 -21.5t-131 -2.5t-154 29.5q-99 29 -158 69t-87 84t-29.5 88t16.5 81t50 63t70 33q54 10 98.5 7.5t80.5 -14t63.5 -30.5t47.5 -41
q19 20 50.5 43.5t78.5 49.5q72 44 128 66t98 28.5t72 0.5t50 -17.5t31 -27t16 -27.5q4 -13 4 -17q0 -3 -1 -3q-35 12 -78 18q-37 5 -86.5 4.5t-108.5 -14.5q-29 -7 -63.5 -19.5t-67.5 -29t-61.5 -36t-46.5 -40.5q23 -33 29 -69q3 -18 -4.5 -26.5t-20 -9.5t-26 5.5t-22 19.5
t-8 32t16.5 43q-20 22 -57 40t-96 25q-54 7 -91.5 -12t-57 -53t-20.5 -77t18.5 -84.5t59.5 -77t102 -53.5q93 -26 176 -22.5t158.5 20.5t144 39t131.5 33q46 8 83.5 10.5t68.5 0.5q29 66 82 110.5t136 48.5q6 0 19 -1t28 -5.5t30.5 -13.5t28.5 -25q5 8 13.5 16.5t22.5 16.5
q14 7 27.5 10t24.5 5q12 2 24 1h18l-14 -72.5l-14 -70.5l-47 -231q-7 -35 5.5 -45t33 -3t45 28t41.5 48l1 1v2q5 8 20 35t26 61l1 2q0 1 0.5 1t0.5 1q2 3 6 5t10 0q8 -2 8.5 -9t-0.5 -9v-2q-2 -8 -11.5 -30t-23.5 -49t-33 -54t-41 -43q-27 -21 -56 -32.5t-55 -11.5h-9
q-27 2 -48 16t-32 43l6 22q5 20 -1 33t-14 21q2 9 3 18.5t3 20.5l44 214q-20 34 -45.5 40t-51.5 -10t-50 -50.5t-40 -80.5q32 -15 48 -33.5t22 -32.5zM-578 472q5 -16 10 -18.5t7 4t-1 20t-13 29.5q-8 -17 -3 -35z" />
    <glyph glyph-name="c.ss05" unicode="&#xe04b;" horiz-adv-x="421" 
d="M336 476q5 -12 6 -21t0 -17q13 -14 21 -31q10 -25 9 -35v-5q0 -16 -11 -27t-27 -11t-27 11t-11 27q0 14 8 24t21 13q-23 29 -51 27t-55.5 -27t-50.5 -68.5t-35 -97.5l-5 -32q0 -2 -0.5 -4t-0.5 -4q-4 -37 2 -70q5 -28 20.5 -54.5t49.5 -36.5q33 -10 62 -1t51.5 24.5
t37 33t19.5 24.5q5 5 10 15l1 1q1 0 1 2q5 8 18.5 35t24.5 61l1 2l2 2q2 3 5.5 5t9.5 0q8 -2 8.5 -9t0.5 -9t-1 -2v-1q-2 -7 -10.5 -29.5t-22.5 -49.5t-32 -54t-39 -43q-29 -23 -59.5 -34.5t-59.5 -9.5l1 1q-5 -1 -10.5 -1h-12.5l-15 2q-23 3 -43 7t-39.5 12.5t-38 23.5
t-38.5 40q-19 24 -25.5 53t-6.5 54.5t3 43.5t4 21q12 43 31.5 82t49 68.5t68.5 47.5t89 20h5.5t8.5 -1q-19 12 -43.5 21.5t-56.5 14.5q-66 10 -124.5 4t-114.5 -19.5t-112.5 -29t-119 -24t-135 -4.5t-160.5 30q-99 29 -158 69t-87 84t-29.5 88t16.5 81t50 63t70 33
q54 10 98.5 7.5t80.5 -14t63.5 -30.5t47.5 -41q19 20 50.5 43.5t78.5 49.5q72 43 128 65.5t98 29t72 0.5t50 -17.5t31 -27t16 -27.5q4 -13 4 -17q0 -3 -1 -3q-35 12 -78 18q-37 5 -86.5 4.5t-108.5 -14.5q-29 -7 -63.5 -19.5t-67.5 -29t-61.5 -36t-46.5 -40.5q23 -33 29 -69
q3 -18 -4.5 -26.5t-20 -9.5t-26 5.5t-22 19.5t-8 32t16.5 43q-20 22 -57 40t-96 25q-54 6 -91.5 -12.5t-57 -52.5t-20.5 -77t18.5 -84.5t59.5 -77t102 -53.5q93 -26 176 -22.5t158.5 20.5t144 39t131.5 33q92 16 155 11t103 -20.5t60 -36.5t26 -37zM-461 723q5 -16 10 -18.5
t7 4t-1 20t-13 29.5q-8 -17 -3 -35z" />
    <glyph glyph-name="e.ss05" unicode="&#xe04c;" horiz-adv-x="423" 
d="M442 241q8 -2 8.5 -9t0.5 -9t-1 -2v-1q-2 -7 -10.5 -29.5t-22.5 -49.5t-32 -54t-39 -43q-29 -23 -59.5 -34.5t-59.5 -9.5l1 1q-5 -1 -10.5 -1h-12.5l-15 2q-23 3 -43 7t-39.5 12.5t-38 23.5t-38.5 40q-19 24 -25.5 53t-6.5 54.5t3 43.5t4 21q10 39 29 77
q-19 11 -41.5 19.5t-54.5 13.5q-67 10 -125 4t-114 -19.5t-112.5 -29t-119 -24t-135 -4.5t-160.5 30q-99 29 -158 69t-87 84t-29.5 88t16.5 81t50 63t70 33q54 10 98.5 7.5t80.5 -14t63.5 -30.5t47.5 -41q19 20 50.5 43.5t78.5 49.5q72 44 128 66t98 28.5t72 0.5t50 -17.5
t31 -27t16 -27.5q4 -13 4 -17q0 -3 -1 -3q-35 12 -78 18q-37 5 -86.5 4.5t-108.5 -14.5q-29 -7 -63.5 -19.5t-67.5 -29t-61.5 -36t-46.5 -40.5q23 -33 29 -69q3 -18 -4.5 -26.5t-20 -9.5t-26 5.5t-22 19.5t-8 32t16.5 43q-20 22 -57 40t-96 25q-54 7 -91.5 -12t-57 -53
t-20.5 -77t18.5 -84.5t59.5 -77t102 -53.5q93 -26 176 -22.5t158.5 20.5t144 39t131.5 33q59 10 106 11.5t83 -3.5t62.5 -15t44.5 -22q30 38 73.5 61.5t101.5 26.5q6 0 16.5 -1t24 -4.5t28 -10.5t27.5 -19q24 -23 31 -58t-4.5 -70.5t-41.5 -66t-80 -44.5q-31 -10 -59.5 -5.5
t-40.5 29t9 52.5q0 -15 7 -22q6 -7 18.5 -7.5t37.5 13.5q44 32 63 61t24 52q6 26 0 49q-21 13 -45 5.5t-46.5 -30.5t-37.5 -53t-16 -41q-20 -7 -31 -20.5t-14.5 -29t0.5 -31.5t15 -27q-3 -25 -1 -50.5t10.5 -47t23 -38t37.5 -23.5q38 -11 76 3q45 18 76.5 56t51.5 82
q12 24 21 54l1 2l2 2q2 3 5.5 5t9.5 0zM-680 580q5 -16 10 -18.5t7 4t-1 20t-13 29.5q-8 -17 -3 -35z" />
    <glyph glyph-name="g.ss05" unicode="&#xe04d;" horiz-adv-x="524" 
d="M229 193q7 -19 6.5 -32.5t-4.5 -21.5q-4 -11 -12 -17q-8 14 -20 28q-11 12 -27.5 26t-41.5 27q-5 -34 -3.5 -61.5t8.5 -46.5t19.5 -27.5t30.5 -4.5q-1 -1 -2 -1q5 0 20.5 5.5t29.5 22.5q8 9 10 16t3 12q0 5 -1 9q2 0 6 -1q7 -2 12 -6t9 -11.5t2 -20.5q-2 -11 -12 -25.5
t-25 -27.5q-22 -17 -51.5 -27t-58.5 -8q-29 0 -55 10.5t-45 31.5t-28.5 53t-6.5 74q3 31 9 63q-59 4 -112 -5t-105.5 -22.5l-106 -27.5t-113 -20.5t-128.5 -1.5t-151 29q-99 29 -158 69t-87 84t-29.5 88t16.5 81t50 63t70 33q54 10 98.5 7.5t80.5 -14t63.5 -30.5t47.5 -41
q19 20 50.5 43.5t78.5 49.5q72 43 128 65.5t98 29t72 0.5t50 -17.5t31 -27t16 -27.5q4 -13 4 -17q0 -3 -1 -3q-35 12 -78 18q-37 5 -86.5 4.5t-108.5 -14.5q-29 -7 -63.5 -19.5t-67.5 -29t-61.5 -36t-46.5 -40.5q23 -33 29 -69q3 -18 -4.5 -26.5t-20 -9.5t-26 5.5t-22 19.5
t-8 32t16.5 43q-20 22 -57 40t-96 25q-54 6 -91.5 -12.5t-57 -52.5t-20.5 -77t18.5 -85t59.5 -77t102 -53q93 -26 176 -22.5t158.5 20.5t144 39t131.5 33q38 7 71 9.5t61 2.5q13 38 33.5 72t49 59.5t65 41t82.5 17.5q6 0 18.5 -1t27.5 -5.5t30.5 -13.5t28.5 -25q11 19 36 33
q14 7 27 10t24 5q12 2 25 1h18q-8 -37 -14.5 -72.5t-14.5 -70.5l-6 -29.5l-9 -45l-11 -54.5l-12 -58l-30 -148l-11 -57v1l-53 -267q-4 -14 -11 -28q-6 -12 -16 -26.5t-25 -27.5q-16 -14 -31 -20.5t-26 -8.5q-13 -3 -25 -1q-6 -1 -13 -2q-6 -1 -14.5 -1h-18.5q-8 0 -22.5 2
t-31 9t-31.5 20t-23 35q-9 26 -6.5 59.5t17 68.5t40.5 68t64 58q15 8 31 14t33 11l-9 -39q-8 -3 -19 -9t-24 -18.5t-27.5 -32t-29.5 -47.5q-8 -14 -15.5 -40t-8.5 -52.5t8 -48t34 -25.5q16 -3 31 13.5t33 69.5q6 17 11 36l10 37q11 49 24 115l28 138q14 10 28 24.5t21 37.5
q9 27 1 46.5t-22 31.5l17 80.5l14.5 71l11.5 56.5l8 38q-21 35 -48.5 38.5t-55 -16t-52 -59t-39.5 -90.5q41 -16 60.5 -37t26.5 -37zM-568 440q5 -16 10 -18.5t7 4t-1 20t-13 29.5q-8 -17 -3 -35z" />
    <glyph glyph-name="i.ss05" unicode="&#xe04e;" horiz-adv-x="271" 
d="M296 249q8 -3 8.5 -9.5t-0.5 -10.5v-1q-2 -8 -11.5 -30t-23.5 -49t-33 -54t-41 -43q-26 -21 -55.5 -32.5t-55.5 -12.5h-9q-26 2 -47.5 16t-32.5 42v-1q-5 12 -9 38.5t4 67.5q0 1 0.5 1.5t0.5 2.5q1 2 1 7v1q1 2 1 3l47 227q3 9 8 19.5t16 21.5l3 3q-20 14 -46 25.5
t-64 17.5q-66 10 -124.5 4t-114.5 -19.5t-112.5 -29t-119 -24t-135 -4.5t-160.5 30q-99 29 -158 69t-87 84t-29.5 88t16.5 81t50 63t70 33q54 10 98.5 7.5t80.5 -14t63.5 -30.5t47.5 -41q19 20 50.5 43.5t78.5 49.5q72 44 128 66t98 28.5t72 0.5t50 -17.5t31 -27t16 -27.5
q4 -13 4 -17q0 -3 -1 -3q-35 12 -78 18q-37 5 -86.5 4.5t-108.5 -14.5q-29 -7 -63.5 -19.5t-67.5 -29t-61.5 -36t-46.5 -40.5q23 -33 29 -69q3 -18 -4.5 -26.5t-20 -9.5t-26 5.5t-22 19.5t-8 32t16.5 43q-20 22 -57 40t-96 25q-54 6 -91.5 -12.5t-57 -52.5t-20.5 -77
t18.5 -84.5t59.5 -77t102 -53.5q93 -26 176 -22.5t158.5 20.5t144 39t131.5 33q81 14 139 11.5t97.5 -14t63 -29.5t34.5 -34l24 4h33l-2 -12q-8 -34 -14.5 -66.5l-12.5 -64.5l-47 -231q-7 -35 5.5 -45t33.5 -3t45.5 28t41.5 48v1q0 1 1 1l19.5 36t25.5 60v1l1 2q1 0 1 3
q2 2 6 4.5t10 0.5zM183 495q-10 1 -28.5 6t-36 17t-30 32.5t-10.5 53.5l1 9h129l-12 -58.5t-13 -59.5zM-662 712q5 -16 10 -18.5t7 4t-1 20t-13 29.5q-8 -17 -3 -35z" />
    <glyph glyph-name="j.ss05" unicode="&#xe04f;" horiz-adv-x="255" 
d="M28 404q3 8 7.5 18t13.5 20q-20 17 -49.5 32.5t-77.5 23.5q-67 10 -125 4t-114 -19.5t-112.5 -29t-119 -24t-135 -4.5t-160.5 30q-99 29 -158 69t-87 84t-29.5 88t16.5 81t50 63t70 33q54 10 98.5 7.5t80.5 -14t63.5 -30.5t47.5 -41q19 20 50.5 43.5t78.5 49.5
q72 43 128 65.5t98 29t72 0.5t50 -17.5t31 -27t16 -27.5q4 -13 4 -17q0 -3 -1 -3q-35 12 -78 18q-37 5 -86.5 4.5t-108.5 -14.5q-29 -7 -63.5 -19.5t-67.5 -29t-61.5 -36t-46.5 -40.5q23 -33 29 -69q3 -18 -4.5 -26.5t-20 -9.5t-26 5.5t-22 19.5t-8 32t16.5 43
q-20 22 -57 40t-96 25q-54 6 -91.5 -12.5t-57 -52.5t-20.5 -77t18.5 -85t59.5 -77t102 -53q93 -26 176 -22.5t158.5 20.5t144 39t131.5 33q88 15 149.5 11.5t101 -18t61 -34.5t29.5 -36q11 3 20.5 4.5t17.5 2.5q9 1 16 0h18l-26 -143q-2 -10 -5.5 -29.5l-8 -45l-10 -54.5
l-10.5 -58l-27 -148l-9 -56v1l-48 -268q-4 -14 -10 -28q-5 -12 -14.5 -26.5t-24.5 -27.5q-16 -14 -30.5 -20t-25.5 -8q-13 -3 -25 -2q-6 -1 -13 -2q-6 -1 -14.5 -1h-18.5q-8 0 -23 2.5t-31.5 9t-31.5 19.5t-23 35q-10 27 -8.5 60.5t15 68t39 67.5t62.5 58q15 8 31 14t33 11
l-7 -39q-8 -3 -19 -9t-24 -18.5t-27.5 -31.5t-28.5 -47q-8 -14 -15 -40t-7 -52.5t9.5 -48t34.5 -26.5q17 -3 31 14t31 69q7 18 11.5 37l8.5 36l8 46.5l15 83l19 106l21 115.5zM193 604q-6 -29 -11.5 -58.5t-10.5 -59.5q-10 1 -28.5 6.5t-36.5 17.5t-31.5 32.5t-12.5 52.5
l2 9h129zM-697 711q5 -16 10 -18.5t7 4t-1 20t-13 29.5q-8 -17 -3 -35z" />
    <glyph glyph-name="m.ss05" unicode="&#xe05a;" horiz-adv-x="774" 
d="M175 508q8 -23 6 -37.5t-7 -22.5l20 12q20 8 41.5 12t39.5 6q20 2 40 0h109q-4 -15 -6 -31q7 6 21 13q20 8 41.5 12t38.5 6q20 2 40 0h123q-3 -5 -3 -12l-27 -131l-47 -231q-6 -35 6 -45t33 -2.5t45 28.5t41 48h2q0 2 1 2q5 8 19.5 35.5t25.5 60.5v2l2 2q2 3 5.5 5.5
t10.5 0.5q8 -2 8.5 -9t-0.5 -10q0 -1 -1 -2q-2 -8 -11 -30t-23.5 -49t-33.5 -54t-41 -43q-55 -42 -111 -44h-9q-26 2 -47 15.5t-32 41.5q-5 12 -9.5 38.5t4.5 67.5v3l2 7v2q0 1 0.5 1.5t0.5 1.5l38 186q4 22 17 37t27.5 24.5t27 14t16.5 5.5h-105q-12 0 -38.5 -8t-51.5 -39
l-10 -13q-2 -3 -6 -10t-9 -18l-5 -22q-2 -13 -4.5 -25.5l-5.5 -26.5l-37 -179q-4 -19 -4 -36q-1 -14 2 -29t13 -23l11 -9q-11 -3 -21.5 -5t-21.5 -2h-10q-43 2 -69 37l-6 12q-6 13 -10 30q-3 14 -4 35t5 49v1q3 13 3 16l38 185l16 80h-11q-16 0 -33 -4q-14 -4 -31.5 -13.5
t-33.5 -29.5l-11 -13q-2 -3 -5.5 -10t-8.5 -18l-4 -22l-6 -25.5t-5 -26.5l-37 -179q-3 -19 -4 -36q-1 -14 1.5 -29t12.5 -23q4 -2 6.5 -4.5t5.5 -4.5q-11 -3 -21.5 -5t-21.5 -2h-9q-46 2 -69 37q-5 6 -6 12q-7 13 -11 30q-3 14 -4 35t5 49l1 1q1 7 1.5 11t0.5 5l46 225
q5 12 14.5 28t33.5 29q13 7 26 10t24 5q-19 19 -51.5 37.5t-86.5 27.5q-67 10 -125 4t-114 -19.5t-112.5 -29t-119 -24t-135 -4.5t-160.5 30q-99 29 -158 69t-87 84t-29.5 88t16.5 81t50 63t70 33q54 10 98.5 7.5t80.5 -14t63.5 -30.5t47.5 -41q19 20 50.5 43.5t78.5 49.5
q72 43 128 65.5t98 29t72 0.5t50 -17.5t31 -27t16 -27.5q4 -13 4 -17q0 -3 -1 -3q-35 12 -78 18q-37 5 -86.5 4.5t-108.5 -14.5q-29 -7 -63.5 -19.5t-67.5 -29t-61.5 -36t-46.5 -40.5q23 -33 29 -69q3 -17 -4.5 -26t-20 -10t-26 5.5t-22 19.5t-8 32t16.5 43q-20 22 -57 40
t-96 25q-54 6 -91.5 -12.5t-57 -52.5t-20.5 -77t18.5 -84.5t59.5 -77t102 -53.5q93 -26 176 -22.5t158.5 20.5t144 39t131.5 33q92 16 155 11t103 -20.5t60 -36.5t26 -37zM-622 755q5 -16 10 -18.5t7 4t-1 20t-13 29.5q-8 -17 -3 -35z" />
    <glyph glyph-name="n.ss05" unicode="&#xe05b;" 
d="M178 506q7 -18 6.5 -31t-3.5 -21l11 6q20 8 41.5 12t39.5 6q20 2 40 0h122q-2 -6 -2 -12l-27 -131l-48 -231q-6 -35 6.5 -45t33.5 -2.5t45 28.5t41 48h1q1 1 1 2q5 8 20 35.5t26 60.5v2q0 2 2 2q2 3 5.5 5.5t10.5 0.5q8 -2 8.5 -9t-0.5 -10q-1 -1 -1 -2q-2 -8 -11.5 -30
t-23.5 -49t-33 -54t-41 -43q-55 -42 -111 -44h-9q-26 2 -47 15.5t-32 41.5q-5 12 -9.5 38.5t4.5 67.5v3q0 2 0.5 3.5t0.5 3.5v1l1 1v3l40 192q6 22 17.5 36t24 22.5t24.5 12t19 4.5h-95q-16 0 -33 -4q-14 -4 -31.5 -13.5t-33.5 -29.5l-11 -13q-2 -3 -5.5 -10t-8.5 -18
l-5 -22q-2 -13 -4.5 -25.5l-5.5 -26.5l-37 -179q-3 -19 -4 -36q-1 -14 1.5 -29t12.5 -23l12 -9q-11 -3 -22 -5t-22 -2h-9q-44 2 -69 37l-6 12q-6 13 -10 30q-3 14 -4 35t5 49v1q3 13 3 16l46 225q5 12 14.5 28t33.5 29q14 7 27.5 10.5t24.5 4.5q-19 19 -51 37t-84 26
q-66 11 -124.5 4.5t-114.5 -20t-112.5 -29t-119 -24t-135 -4.5t-160.5 30q-99 29 -158 69t-87 84t-29.5 88t16.5 81t50 63t70 33q54 10 98.5 7.5t80.5 -14t63.5 -30.5t47.5 -41q19 20 50.5 43.5t78.5 49.5q72 43 128 65.5t98 29t72 0.5t50 -17.5t31 -27t16 -27.5
q4 -13 4 -17q0 -3 -1 -3q-35 12 -78 18q-37 5 -86.5 4.5t-108.5 -14.5q-29 -7 -63.5 -19.5t-67.5 -29t-61.5 -36t-46.5 -40.5q23 -33 29 -69q3 -17 -4.5 -26t-20 -10t-26 5.5t-22 19.5t-8 32t16.5 43q-20 22 -57 40t-96 25q-54 6 -91.5 -12.5t-57 -52.5t-20.5 -77
t18.5 -84.5t59.5 -77t102 -53.5q93 -26 176 -22.5t158.5 20.5t144 39t131.5 33q92 16 155 11t103 -20.5t60 -36.5t26 -37zM-619 753q5 -16 10 -18.5t7 4t-1 20t-13 29.5q-8 -17 -3 -35z" />
    </font>
</defs>
</svg>
