<?xml version="1.0" encoding="UTF-8" standalone="no"?>
<!DOCTYPE svg  PUBLIC '-//W3C//DTD SVG 1.1//EN'  'http://www.w3.org/Graphics/SVG/1.1/DTD/svg11.dtd'>
<svg xmlns="http://www.w3.org/2000/svg">
<defs>
<font id="LoveSania-Regular" horiz-adv-x="623">
<font-face underline-position="-50" font-weight="400" descent="-200" panose-1="2 0 0 0 0 0 0 0 0 0" units-per-em="1000" unicode-range="U+0020-2212" bbox="-175 -316 812 782" x-height="310" underline-thickness="50" font-family="LoveSania" ascent="800" cap-height="628"/>
<missing-glyph horiz-adv-x="1000"/>
<glyph glyph-name=".notdef" horiz-adv-x="1000"/>
<glyph glyph-name=".null" horiz-adv-x="0"/>
<glyph glyph-name="nonmarkingreturn" horiz-adv-x="333"/>
<glyph glyph-name="space" horiz-adv-x="172" unicode=" "/>
<glyph glyph-name="exclam" horiz-adv-x="122" unicode="!" d="M76 -121q0 24 9 37t32 22q-9 -46 -34 -84q-7 8 -7 25zM85 -54h-2q-13 71 -32 213.5t-33 212.5q-10 58 -10 72v12q2 0 17 3t30.5 5.5t23.5 2.5q6 0 6 -1q30 -62 30 -252q0 -45 -2 -116t-2 -90q0 -43 -26 -62z"/>
<glyph glyph-name="quotedbl" horiz-adv-x="149" unicode='&quot;' d="M107 494q18 0 26.5 -17.5t8.5 -39.5q0 -16 -14 -44q-2 17 -15.5 38t-25.5 35.5t-12 17.5q0 4 13 7t19 3zM39 494q18 0 26.5 -17.5t8.5 -39.5q0 -16 -14 -44q-2 17 -15.5 38t-25.5 35.5t-12 17.5q0 4 13 7t19 3z"/>
<glyph glyph-name="numbersign" horiz-adv-x="207" unicode="#" d="M85 279q-17 -39 -29 -74q15 -4 65 -13q16 50 26 75q-23 2 -62 12zM-32 320q1 0 1.5 8t0.5 15.5t1 7.5q10 -7 81 -26q25 55 52 105q19 33 26 38q1 -2 18 -6.5t17 -5.5q0 -5 -11 -27t-28 -56.5t-27 -57.5q51 -11 63 -11q25 60 61 126q19 33 26 38q1 -2 18 -6.5t17 -5.5 q0 -5 -12 -30t-31 -63t-29 -63q26 -2 41 -2q5 0 15 0.5t15 0.5h1q6 0 6 -3q0 -5 -10.5 -12.5t-22.5 -11.5q-24 -8 -60 -8q-7 -18 -17 -44.5t-12 -32.5q7 0 19.5 -1t23 -1.5t20.5 -0.5q18 0 27 1q6 0 6 -3q0 -5 -10 -12.5t-22 -11.5q-25 -8 -62 -8h-13q-25 -87 -36 -149 q-1 -10 -6 -10t-10.5 18t-6.5 38v10q0 46 13 98q-31 4 -67 14q-29 -101 -42 -168q-1 -10 -6 -10t-10.5 18t-6.5 38v7q0 57 20 128q-17 5 -28 10q-26 11 -28 14q1 0 1 8v16l1 7q13 -7 65 -21q11 34 28 75l-42 15q-26 11 -28 14z"/>
<glyph glyph-name="dollar" horiz-adv-x="386" unicode="$" d="M87 -38q-2 -4 -2 -10q0 -26 66 -26h16v89q-71 -32 -80 -53zM266 41q-1 0 -28 3l-20 -8v-103q59 13 89 38q21 18 21 33q0 10 -9.5 17.5t-20.5 11t-22 5.5zM327 445q-17 40 -109 49v-136q112 23 112 72q0 8 -3 15zM70 214q27 -21 97 -47v95q-34 11 -54 34t-20 40q0 8 6 11 q1 0 6 -0.5t9 -0.5q25 0 53 4v143q-97 -7 -132 -63q-27 -42 -27 -88q0 -77 62 -128zM167 -221v54q-52 3 -83.5 35.5t-31.5 72.5q0 11 3 21q8 30 112 74v25q-100 32 -150 99t-50 145q0 81 48 143q60 78 152 101v52q9 11 22 11q12 0 29 -11v-43h10q46 0 79 -20t43 -59 q15 -57 15 -95q0 -65 -32.5 -92t-83.5 -35q-16 -3 -31 -3v-110q56 -26 89 -57q14 5 32 10.5t38 11t28 8.5v-16q-8 -3 -38 -12.5t-48 -15.5q14 -17 23 -38q19 -52 19 -84q0 -40 -29.5 -65t-97.5 -45q-15 -3 -16 -3v-59q-14 -10 -25 -10t-26 10z"/>
<glyph glyph-name="percent" horiz-adv-x="131" unicode="%" d="M61 106q0 -7 5 -12t12 -5t11.5 5t4.5 12q0 6 -4.5 11t-11.5 5t-12 -5t-5 -11zM41 97q0 14 9.5 23.5t22.5 9.5q14 0 23.5 -9.5t9.5 -23.5t-9.5 -23.5t-23.5 -9.5q-13 0 -22.5 9.5t-9.5 23.5zM34 443q0 -7 4.5 -12t11.5 -5t11.5 5t4.5 12q0 6 -4.5 11t-11.5 5t-11.5 -5 t-4.5 -11zM13 435q0 13 9.5 23t23.5 10t23.5 -10t9.5 -23q0 -14 -9.5 -23.5t-23.5 -9.5t-23.5 9.5t-9.5 23.5zM130 468q1 -2 18 -6.5t17 -5.5q0 -11 -56.5 -136t-60.5 -139q-33 -109 -46 -180q-1 -10 -6 -10t-10.5 18t-6.5 38v9q0 75 37 178t88 196q19 33 26 38z"/>
<glyph glyph-name="ampersand" horiz-adv-x="424" unicode="&amp;" d="M86 244q2 -14 4 -24q16 21 47 59t49 60.5t33 48t15 40.5q0 17 -18 23q-5 2 -16 2q-41 0 -79.5 -44.5t-38.5 -119.5q0 -24 4 -45zM43 -34q20 -21 53 -21q32 0 64 19t51 50q-69 49 -118 131q-68 -82 -68 -132q0 -26 18 -47zM303 9q18 0 33.5 4.5t25.5 10.5t17.5 13 t10.5 11.5t4 6.5l24 -27q-2 -6 -12.5 -18t-35 -26.5t-52.5 -14.5q-29 0 -55 13l-19 10q-26 -37 -62 -59.5t-72 -22.5q-43 0 -74 34q-36 37 -36 84q0 54 61 150l8 12q-33 72 -40 123q-2 18 -2 32q0 26 4.5 48.5t16.5 46t37 37.5t60 14q13 0 20 -1q96 -10 96 -86 q0 -83 -105 -190q-37 -39 -44 -48q40 -79 111 -126l2 5q4 12 4 25q0 28 -19.5 49t-39.5 28l-19 7q3 6 8 14.5t21.5 23t32.5 14.5q5 0 8 -1q20 -4 42 -27t22 -68q0 -20 -6 -45q-4 -20 -18 -46q27 -10 42 -10z"/>
<glyph glyph-name="quotesingle" horiz-adv-x="86" unicode="&apos;" d="M43 494q17 0 26 -17.5t9 -39.5q0 -18 -15 -44q-2 17 -15.5 38t-25.5 35.5t-12 17.5q0 4 13.5 7t19.5 3z"/>
<glyph glyph-name="parenleft" horiz-adv-x="128" unicode="(" d="M5 228q1 85 34.5 163.5t75.5 111.5q55 -28 55 -39q0 -1 -2 -5q-41 -49 -76.5 -132.5t-35.5 -166.5q0 -136 106 -215q-52 13 -89 60.5t-52.5 103t-15.5 112.5v7z"/>
<glyph glyph-name="parenright" horiz-adv-x="128" unicode=")" d="M169 228v-7q0 -57 -15.5 -112.5t-52.5 -103t-88 -60.5q106 80 106 214q0 83 -36 167t-77 133q-2 4 -2 5q0 12 55 39q42 -33 75.5 -111.5t34.5 -163.5z"/>
<glyph glyph-name="asterisk" horiz-adv-x="148" unicode="*" d="M69 539l3 -6l2 9q3 18 -7 28l-4 5q22 -6 22 -29q0 -2 -0.5 -5t-0.5 -4l-1 -9q6 4 9 5q16 10 16 25l1 6q4 -6 4 -14q0 -14 -18 -28l-2 -1h19l13 7q1 -3 1 -8q0 -13 -11 -15q-9 -1 -26 2q8 -12 14 -16l14 -5q-1 -2 -3 -4t-8.5 -5.5t-12.5 2.5q-7 4 -15 19q-2 -16 0 -19 l6 -14q-3 -1 -7 -1q-13 0 -15 12q-2 6 2 26q-13 -8 -16 -14l-5 -14q-2 1 -4.5 3t-6 8.5t2.5 12.5q7 9 23 17l-9 3q-17 3 -29 -7l-5 -4q6 22 30 22q1 0 4 -0.5t5 -0.5l8 -2q-4 8 -5 9q-10 17 -24 17l-6 1l5 2q5 2 9 2q14 0 28 -18z"/>
<glyph glyph-name="plus" horiz-adv-x="181" unicode="+" d="M232 205l-2 1q-2 1 -6.5 2.5t-11.5 2.5t-18.5 2t-25.5 1q-22 0 -36 -1l-26 -2q-4 -125 -26 -138q-9 -5 -16 -5q-6 0 -12 6l1 2q1 1 2.5 4t3 7.5t3.5 12t3.5 17.5t3 24.5t1.5 31.5q0 12 -2 36q-42 -5 -68 -5q-28 0 -42.5 7t-13.5 23q25 4 92 10l26 2q-10 52 -10 73 q0 41 31 50q12 3 22 3q14 0 23.5 -5.5t11.5 -10.5l3 -6q-4 -2 -9.5 -6.5t-15.5 -26t-10 -50.5v-19h20q91 0 102 -16q7 -10 7 -17q0 -10 -5 -10z"/>
<glyph glyph-name="comma" horiz-adv-x="61" unicode="," d="M7 -5q2 3 13.5 7t15.5 4q10 0 16 -9.5t6 -22.5q0 -17 -9.5 -32t-25.5 -18q6 10 6 21q0 24 -22 50z"/>
<glyph glyph-name="hyphen" horiz-adv-x="184" unicode="-" d="M29 216l161 1q0 -3 -1 -7.5t-9.5 -12t-22.5 -7.5q-3 0 -15 -0.5t-21 -0.5q-115 0 -121 3l2 4q1 4 3 8t8 8t16 4z"/>
<glyph glyph-name="period" horiz-adv-x="64" unicode="." d="M40 -42q-32 7 -32 47v7q0 8 7 8q22 0 32 -8t10 -34q0 -6 -17 -20z"/>
<glyph glyph-name="slash" horiz-adv-x="131" unicode="/" d="M130 468q1 -2 18 -6.5t17 -5.5q0 -11 -56.5 -136t-60.5 -139q-33 -109 -46 -180q-1 -10 -6 -10t-10.5 18t-6.5 38v9q0 75 37 178t88 196q19 33 26 38z"/>
<glyph glyph-name="zero" horiz-adv-x="393" unicode="0" d="M101 55q34 0 73.5 56t65.5 130t26 127q0 62 -39 62q-49 0 -92 -49t-66 -114.5t-23 -122.5q0 -89 55 -89zM279 500q59 0 87 -31.5t28 -84.5q0 -73 -44.5 -164t-113.5 -156.5t-131 -65.5q-52 0 -78.5 41.5t-26.5 108.5q0 77 32 156.5t98 137.5t149 58z"/>
<glyph glyph-name="one" horiz-adv-x="286" unicode="1" d="M24 31q22 136 135 378q-15 -12 -52 -20q-36 -6 -54 -6q-3 0 -3 2q0 9 52 43l81 54l19 12q7 5 15 5q21 0 45 -24q15 -12 25 -34q1 -1 1 -5q0 -28 -82 -170q-91 -159 -140 -310q-42 22 -42 75z"/>
<glyph glyph-name="two" horiz-adv-x="387" unicode="2" d="M4 5h-2q-8 0 -12 33q127 87 202.5 196t75.5 179q0 54 -47 54q-30 0 -50 -32t-20 -69q0 -55 39 -55q-22 -24 -66 -25h-3q-41 0 -63 48q-9 20 -9 39q0 29 21 59q35 50 133 62q42 6 71 6q42 0 62 -11q51 -25 51 -84q0 -20 -6 -44q-17 -68 -96.5 -145.5t-200.5 -144.5 q35 -3 67 -3q133 0 235 54q-1 -56 -15.5 -84t-50.5 -37q-20 -5 -38 -5l-37 5q-42 10 -100 17q-18 3 -39 3q-48 0 -102 -16z"/>
<glyph glyph-name="three" horiz-adv-x="385" unicode="3" d="M226 504q11 1 31 1q65 0 96.5 -24t31.5 -61q0 -44 -38.5 -88.5t-96.5 -62.5q44 -1 66 -19.5t22 -48.5q0 -64 -73 -132t-159 -68q-20 0 -46 10q-25 10 -45 41q-8 14 -8 29q0 23 15 53q22 -92 63 -93q40 0 78 35q39 36 48 83q4 16 4 32q0 26 -13.5 36t-40.5 10q-11 0 9 18 q8 8 25 21t28.5 23.5t20.5 23.5q22 35 22 73q0 31 -16 51t-48 20q-45 0 -45 -51v-11q4 -52 32 -88q-11 -20 -53 -20q-29 0 -43.5 16.5t-14.5 43.5q0 48 41 94t107 53z"/>
<glyph glyph-name="four" horiz-adv-x="363" unicode="4" d="M51 192l87 6q62 150 79 188q-157 -185 -166 -194zM226 207l134 24q-16 -99 -118 -99q-12 0 -42 4q-22 -40 -52 -147q-56 0 -56 34q0 5 1 8q19 90 28 117q-22 2 -32 2q-4 0 -12 -0.5t-12 -0.5q-66 -3 -86 -5q0 38 114 165q116 130 174 182q1 1 3 1q16 0 90 -87 q-1 -6 -134 -198z"/>
<glyph glyph-name="five" horiz-adv-x="391" unicode="5" d="M225 416q-70 -88 -88 -121q15 0 53 -0.5t54 -0.5q87 -1 87 -72v-7q-5 -71 -89 -150q-72 -66 -146 -66q-16 0 -31 3q-40 10 -55 51q-5 14 -5 30q0 30 20.5 49.5t53.5 19.5h2q-25 -67 -25 -95q0 -15 7 -22q9 -9 22 -9q15 0 37 14q39 25 65 70q34 59 34 101q0 23 -11 32 q-15 13 -50 13h-7l-82 -3l93 162q-31 -4 -58 -4q-32 0 -45 7q-24 12 -23 33q13 -6 41 -6q57 0 155.5 23t196.5 59q3 -9 3 -22q0 -58 -69 -75q-69 -14 -140 -14z"/>
<glyph glyph-name="six" horiz-adv-x="395" unicode="6" d="M113 39h1q26 0 76 114q23 50 23 82q0 34 -32 35h-4q-56 0 -78 -46q-34 -74 -34 -124q0 -57 48 -61zM113 -6q-55 4 -84 51t-29 117q0 56 19 112.5t53 105.5t90.5 80t123.5 31q27 0 51 -4q39 -6 60 -31t21 -58q0 -11 -1 -17q-3 -24 -25 -49q-20 -23 -59 -23h-5 q-41 3 -56 76q8 -2 22 -2q27 0 43.5 13.5t16.5 28.5q0 16 -19 19h-6q-50 0 -104.5 -48.5t-97.5 -119.5q68 37 107 37q23 0 34 -11q36 -32 36 -97q0 -67 -31 -120q-51 -91 -149 -91h-11z"/>
<glyph glyph-name="seven" horiz-adv-x="330" unicode="7" d="M132 152q-70 -102 -92 -149q0 -2 -2 -2q-7 0 -20 16q-8 10 -8 24q0 21 17 55q27 55 75 127q69 102 147 200l-78 5q-24 2 -34 2q-47 0 -83 -23l-30 -23q-15 27 -15 57v10q6 54 75 54q11 0 33 -4q41 -8 68 -15q27 -5 54 -5q46 0 75 15q18 -28 30 -65q6 -16 6 -29 q0 -12 -7 -19l-82 -79q-68 -64 -129 -152z"/>
<glyph glyph-name="eight" horiz-adv-x="395" unicode="8" d="M155 242q-2 0 -14 -14t-30.5 -45t-30.5 -66q-8 -23 -8 -44q0 -42 33 -42q27 0 71 32q34 25 54.5 74t24 75t3.5 37q-3 -3 -42 -14q-13 -4 -26 -4q-5 0 -9.5 0.5t-7.5 1.5l-6 2t-5 2.5t-3.5 2.5t-2.5 2h-1zM309 393q9 23 9 37q0 20 -12.5 28.5t-27.5 8.5q-7 0 -9 -1 q-67 -20 -93 -95q-9 -23 -9 -40q0 -20 16 -20l13 3q-11 -34 -11 -37q11 5 27.5 14t50.5 39.5t46 62.5zM257 500q74 0 110.5 -25.5t36.5 -66.5q0 -39 -31 -80t-80 -65q40 -26 40 -77q0 -68 -62.5 -131.5t-143.5 -63.5q-59 0 -93 37.5t-34 90.5q0 49 29.5 91.5t85.5 61.5 q-18 27 -18 66q0 62 43 112t117 50z"/>
<glyph glyph-name="nine" horiz-adv-x="371" unicode="9" d="M242 283q1 0 4.5 16.5t7 44t3.5 50.5q0 58 -23 69q-10 5 -20 5q-27 0 -55.5 -24t-43.5 -58q-8 -17 -8 -40q0 -30 15 -51.5t40 -21.5q8 0 12 1q46 12 46 49v5l-1 2q2 -3 7.5 -15t10.5 -22zM222 491q76 0 112 -37t36 -98q0 -73 -44.5 -156.5t-119 -143t-149.5 -59.5h-8 q-47 7 -47 45q0 17 7 35q9 -35 36 -35q11 0 22 4q44 16 79 46q52 48 86 138q-42 -28 -91 -28q-51 0 -85 41t-34 95q0 63 50 108t150 45z"/>
<glyph glyph-name="colon" horiz-adv-x="64" unicode=":" d="M40 177q-32 7 -32 47v7q0 8 7 8q22 0 32 -8t10 -34q0 -6 -17 -20zM40 47q-32 7 -32 47v7q0 7 7 7q23 0 32.5 -7.5t9.5 -33.5q0 -3 -2 -6.5t-4 -5.5t-6 -4.5t-5 -3.5z"/>
<glyph glyph-name="semicolon" horiz-adv-x="52" unicode=";" d="M40 177q-32 7 -32 47v7q0 8 7 8q22 0 32 -8t10 -34q0 -6 -17 -20zM5 -8q22 30 22 48q0 14 -14 25.5t-14 15.5t6.5 15.5t9.5 11.5q21 0 29 -7t13 -34q4 -28 -52 -75z"/>
<glyph glyph-name="less" horiz-adv-x="150" unicode="&lt;" d="M191 -57q1 -5 -6.5 -11t-15.5 -6q-5 0 -9 3q-13 1 -88 107t-75 120q0 15 60.5 155t71.5 152h2q7 0 15 -12.5t9 -23.5v-11q0 -44 -18 -97.5t-39.5 -91.5t-40 -67.5t-18.5 -32.5q98 -164 152 -184z"/>
<glyph glyph-name="equal" horiz-adv-x="164" unicode="=" d="M25 172l138 2q-1 -27 -28 -28q-2 0 -13 -0.5t-18 -0.5q-104 0 -104 3t1 6.5t7 10.5t17 7zM0 97v3l2 6t3.5 7t7.5 6.5t12 2.5l138 1q-1 -26 -28 -28h-16z"/>
<glyph glyph-name="greater" horiz-adv-x="150" unicode="&gt;" d="M-2 -57q54 20 152 184q0 3 -18.5 32.5t-40 67.5t-39.5 91.5t-18 97.5v11q1 11 9 23.5t15 12.5h2q11 -12 71.5 -152t60.5 -155q0 -14 -75 -120t-88 -107q-5 -3 -9 -3q-8 0 -15.5 6t-6.5 11z"/>
<glyph glyph-name="question" horiz-adv-x="169" unicode="?" d="M45 -41q0 15 11 25.5t27 10.5t26.5 -10.5t10.5 -25.5q0 -14 -10.5 -24.5t-26.5 -10.5t-27 10.5t-11 24.5zM12 251q-26 15 -26 59q0 27 13.5 50.5t40.5 34.5q21 9 47 9q50 0 87.5 -31t37.5 -92q0 -8 -2 -28q-3 -21 -9.5 -42.5t-15 -41t-18.5 -38t-20.5 -34.5t-20 -29.5 t-19 -25t-16 -19t-11.5 -12.5l-4 -5l-1 2q-1 1 -2 3.5t-2.5 6t-2.5 8t-1 9.5q0 11 4 20l21 39q22 39 37.5 81.5t15.5 78.5q0 53 -37 83q-26 22 -51 22q-23 0 -37.5 -18.5t-14.5 -39.5q0 -27 22 -27q5 0 8 1q49 11 49 38l-1 8q3 -1 8 -2.5t13.5 -9.5t8.5 -20v-5 q0 -24 -12.5 -38t-33.5 -14q-24 0 -55 19zM76 6z"/>
<glyph glyph-name="at" horiz-adv-x="531" unicode="@" d="M303 108h-3q-1 -3 -6 -22t-9 -30t-11 -26.5t-16 -24t-20 -9.5q-5 -1 -16 -1q-71 0 -93 120q-5 32 -5 53q0 77 41.5 121t101.5 44h10q51 -4 51 -56q0 -8 -3 -35q-6 -9 -18 0q0 1 -1.5 13.5t-3 22.5t-6.5 19t-12 9q-4 0 -6 -1q-32 -28 -48 -85t-16 -109q0 -89 28 -89 q14 0 27 47t23 98t15 56h2q10 0 31 -11.5t21 -18.5q0 -10 -10 -67.5t-10 -87.5q0 -60 34 -60q32 0 49 46.5t17 114.5q0 69 -17 130.5t-47 85.5q-49 39 -112 39q-62 0 -117 -38t-82 -102q-17 -42 -17 -90q0 -94 57.5 -167t155.5 -73h10q52 2 95 15t68 30t42.5 34t24.5 29 l6 11q7 -16 7 -39q0 -52 -43 -90q-23 -21 -70.5 -35t-102.5 -14q-84 0 -156 38.5t-111 124.5q-26 58 -26 118q0 110 79 190t178 80q22 0 41 -4q84 -18 127 -94t43 -169q0 -77 -28 -132.5t-74 -56.5h-1q-21 0 -35.5 16t-21 42t-9 47.5t-2.5 42.5z"/>
<glyph glyph-name="A" d="M316 128q0 12 20 20q6 3 15 5q18 6 43 10q5 90 15.5 190.5t18.5 156.5l7 55q-8 -25 -21.5 -67.5t-52 -153t-72.5 -198.5t-73 -168t-63 -97q-32 -23 -63 -23q-15 0 -28 5q-32 13 -53 68t-21 119q0 120 69 159q21 12 46 12q20 0 40 -8.5t30 -16.5l10 -8q-63 -53 -93 -112 q-12 -23 -21.5 -62.5t-9.5 -72.5q0 -56 28 -56q12 0 24 8q24 14 67.5 191t75.5 347l31 170q71 11 75 11h6q45 0 77 -6t41 -12l9 -6q-37 -211 -58 -418q21 3 44 3q82 0 91 -47q2 -8 2 -22q0 -16 -5.5 -28.5t-13.5 -19.5t-15.5 -11t-13.5 -6l-7 -2v6q0 32 -26.5 53t-62.5 27 q-7 -46 -7 -92q0 -120 54 -121h3q30 0 57.5 12.5t45 30t30.5 35.5t19 30l6 13q9 4 16 4q8 0 16 -8q-3 -6 -8.5 -15.5t-25 -34t-42 -44t-59 -36t-75.5 -17.5h-2q-67 0 -67 169q0 37 3 78q-34 2 -46 2z" unicode="A"/>
<glyph glyph-name="B" horiz-adv-x="612" unicode="B" d="M172 616q0 2 8 5t22 5t29 2q58 0 80 -29h1q6 0 6 -45q28 23 71 28q10 2 29 2q58 0 92 -33.5t34 -89.5q0 -49 -24 -98q-25 -53 -53.5 -90.5t-43 -48.5t-25.5 -16q30 9 71 9q75 0 90 -50q3 -12 3 -26q0 -64 -55 -136.5t-118 -82.5q-6 -1 -17 -1q-34 0 -51.5 20t-17.5 48 q0 33 20 51q18 17 30 17q4 0 6.5 -2t3.5 -4l1 -2q-23 -41 -23 -73q0 -33 31 -38h4q32 0 64 58t32 111q0 48 -29 60q-34 14 -53 14q-11 0 -18.5 -3.5t-9.5 -7.5l-1 -4q-10 11 -10 25q0 15 14 24q21 13 48.5 94.5t27.5 138.5q0 20 -4 32q-17 55 -65 55q-30 0 -54 -25 q-1 -69 -16 -226q-21 -236 -69 -330.5t-122 -94.5h-7q-43 2 -72.5 72.5t-29.5 149.5q0 85 34 111q35 27 65 27q13 0 24.5 -4.5t16.5 -9.5l5 -5q-26 -28 -45 -90q-26 -90 -26 -153q0 -73 41 -73q7 0 11 1q34 7 50.5 135t16.5 300q0 67 -5.5 137t-11.5 113.5t-6 45.5z"/>
<glyph glyph-name="C" horiz-adv-x="382" unicode="C" d="M251 335q0 1 13.5 32.5t26.5 71.5t13 61q0 15 -8 20q-5 4 -14 4q-50 0 -128 -145q-27 -49 -47 -137.5t-20 -166.5q0 -148 75 -152h2q24 0 56.5 27.5t61 66.5t54 78t40.5 67l15 27l12 -9q-21 -65 -61 -122.5t-101 -124.5q-39 -35 -80 -35q-68 0 -118 86t-50 206 q0 86 29 169q38 105 99 155.5t125 50.5q47 0 80 -26t37 -68q0 -3 0.5 -8.5t0.5 -7.5q0 -37 -15 -63.5t-37 -37.5t-36.5 -15t-23.5 -4h-1z"/>
<glyph glyph-name="D" horiz-adv-x="636" unicode="D" d="M172 616q0 2 8 5t22 5t28 2q59 0 81 -30q0 1 1 1q6 0 6 -45q64 38 114 38q55 0 93.5 -44.5t54 -106.5t15.5 -135q0 -24 -1 -36q-2 -41 -12.5 -89.5t-32 -107t-63.5 -101t-97 -50.5q-6 -1 -17 -1q-34 0 -51.5 20t-17.5 48q0 33 20 51q18 17 30 17q4 0 6.5 -2t3.5 -4l1 -2 q-23 -41 -23 -73q0 -33 31 -38h4q13 0 28 9.5t32 34t30.5 61t22.5 98t9 137.5q0 6 -0.5 19.5t-0.5 20.5q-3 111 -40.5 162t-84.5 51q-35 0 -54 -21q-1 -69 -16 -226q-21 -236 -69 -330.5t-122 -94.5h-7q-43 2 -72.5 72.5t-29.5 149.5q0 84 34 111q32 26 64 26q13 0 25 -5 t17 -9l5 -5q-26 -27 -45 -89q-26 -90 -26 -153q0 -73 41 -73q7 0 11 1q34 7 50.5 135t16.5 300q0 67 -5.5 137t-11.5 113.5t-6 45.5z"/>
<glyph glyph-name="E" horiz-adv-x="382" unicode="E" d="M114 520h-1q52 46 120 46q20 0 29 -1q41 -5 69 -30t32 -63q0 -3 0.5 -8.5t0.5 -7.5q0 -32 -11.5 -56t-26.5 -35.5t-33.5 -19t-28 -9t-13.5 -1.5l13 31q12 31 26 72t14 63q0 15 -8 20q-6 3 -12 3q-21 0 -47.5 -36t-68.5 -114q-28 -52 -52 -147q32 -5 55 -5q13 0 19 1 q33 3 51.5 11.5t20.5 15.5l2 6q16 -21 16 -44q0 -39 -58 -53q-16 -4 -38 -4q-40 0 -80 14q-11 -61 -11 -114q0 -128 69 -132h2q24 0 56.5 27.5t61 66.5t54 78.5t40.5 66.5l15 28l12 -10q-21 -65 -61 -122.5t-101 -124.5q-39 -35 -80 -35q-68 0 -118 85.5t-50 204.5 q0 4 0.5 12.5t0.5 12.5l3 44q8 55 25 102q40 112 92 161z"/>
<glyph glyph-name="F" horiz-adv-x="459" unicode="F" d="M61 454q-11 0 -20 4q-13 5 -23 23t-10 39q0 47 47 80q45 32 160 32q19 0 56 -1t55 -1q21 0 55 2q22 2 40.5 7t30.5 11t22 13t15 13.5t9 12.5t5 9l1 2l2 -4q1 -3 2.5 -9t3.5 -13.5t3.5 -16.5t1.5 -18q0 -70 -87 -72h-11q-60 0 -109 15q3 -58 3 -103q0 -64 -10 -184 q18 -2 25 -2h9q26 2 49.5 8.5t33.5 12.5l11 5q2 -9 2 -21q0 -46 -41 -54q-12 -2 -19 -2q-35 0 -73 18q-15 -151 -44 -242.5t-63.5 -125t-80.5 -33.5h-8q-43 2 -72.5 72.5t-29.5 149.5q0 84 34 111q32 26 64 26q13 0 25 -5t17 -9l5 -5q-26 -27 -45 -89q-26 -90 -26 -153 q0 -73 41 -73q7 0 11 1q34 8 50.5 135.5t16.5 299.5q0 198 -16 276q-20 2 -30 2q-60 0 -83 -42q-5 -8 -5 -17q0 -12 12.5 -21t25 -13t12.5 -5q0 -2 -5.5 -12.5t-18 -22t-26.5 -11.5z"/>
<glyph glyph-name="G" horiz-adv-x="412" unicode="G" d="M223 129q-5 1 -12 4.5t-18.5 15.5t-11.5 27q0 8 3 17q5 12 38.5 24.5t67.5 12.5q76 0 76 -63q0 -11 -1 -17q-1 -3 -18 -89t-17 -118q0 -19 5 -27l2 -2q13 0 53 93.5t36 98.5l20 -12q-42 -122 -74 -170q-24 -35 -47 -35q-19 0 -31 23.5t-13 65.5l-40 -45q-39 -35 -80 -35 q-68 0 -118 86t-50 206q0 86 29 169q39 105 100 155.5t124 50.5q47 0 80 -26t37 -67q0 -3 0.5 -8.5t0.5 -7.5q0 -32 -11.5 -56t-26.5 -35.5t-33.5 -19t-28 -9t-13.5 -1.5l13 31q12 31 26 72t14 63q0 15 -8 20q-6 3 -13 3q-24 0 -58.5 -38t-72.5 -109q-26 -48 -46 -135.5 t-20 -164.5q0 -150 76 -154h2q24 0 48 31.5t42.5 80t30 87.5t19.5 73q-27 -4 -56.5 -28.5t-24.5 -37.5z"/>
<glyph glyph-name="H" horiz-adv-x="714" unicode="H" d="M99 238q-16 3 -27 22.5t-11 41.5q0 41 35 56q25 11 49 11q23 0 50 -10q-1 59 -6.5 120t-11 98t-5.5 39t8 5t22 5t28 2q59 0 81 -30q7 -45 7 -94q0 -29 -2 -60.5t-6 -72t-6 -59.5q38 -16 58 -22q52 -20 111 -20h16q3 72 8 140t8.5 106t5.5 38q40 -6 56.5 -26t16.5 -59 t-32 -190q31 8 51 22t25 25l5 10q31 -36 31 -72q0 -23 -17 -39q-8 -7 -15 -11.5t-18 -6.5t-17 -2.5t-24 -0.5h-25l-3 -29q-18 -170 -18 -228q0 -75 15 -105q5 -8 11 -8q32 0 102 113.5t70 163.5q0 2 -0.5 4t-0.5 3q17 -28 19 -28q-15 -74 -84 -174.5t-114 -100.5q-6 0 -8 1 q-52 13 -52 296q0 31 2 97q-14 2 -28 5t-24 5.5t-24.5 8.5t-21 8.5t-22.5 10.5t-20.5 10.5t-23.5 13t-23 12.5q-14 -159 -43 -255.5t-64 -132.5t-82 -36h-7q-43 2 -72.5 72.5t-29.5 149.5q0 84 34 111q32 26 64 26q13 0 25 -5t17 -9l5 -5q-26 -27 -45 -89q-26 -90 -26 -153 q0 -73 41 -73q7 0 11 1q35 8 51 135.5t16 300.5q-48 14 -74 14t-26 -14t22.5 -32t39.5 -18q5 0 10 3q-1 -1 -5.5 -6.5t-7.5 -8.5t-8.5 -7.5t-10 -7.5t-11.5 -5t-14 -2t-11 1z"/>
<glyph glyph-name="I" horiz-adv-x="229" unicode="I" d="M24 284l-17 270q1 45 7 45l1 -1q22 30 81 30q14 0 28 -2t22 -5t8 -5q0 -1 -11 -66t-22 -163t-11 -179q0 -273 76 -273q12 0 25 7q-36 -30 -63 -30q-50 0 -78.5 93.5t-45.5 278.5z"/>
<glyph glyph-name="J" horiz-adv-x="357" unicode="J" d="M318 554v-44q-1 -69 -16 -226q-21 -236 -69 -330.5t-122 -94.5h-7q-43 2 -72.5 72.5t-29.5 149.5q0 84 34 111q32 26 64 26q13 0 25 -5t17 -9l5 -5q-26 -27 -45 -89q-26 -90 -26 -153q0 -73 41 -73q7 0 11 1q34 7 50.5 135t16.5 300q0 67 -5.5 137t-11.5 113.5t-6 45.5 t8 5t22 5t28 2q59 0 81 -30q0 1 1 1q6 0 6 -45z"/>
<glyph glyph-name="K" horiz-adv-x="659" unicode="K" d="M318 554v-44q-1 -69 -16 -226q-4 -56 -12 -106q53 82 132 175q78 91 154 142t115 51q15 0 20 -8q8 -14 13.5 -27t6.5 -19l1 -6q-89 -5 -171 -51q-73 -40 -195 -192q73 40 121 40q67 0 70 -81v-19q0 -60 -14.5 -163t-14.5 -125q0 -32 13 -32q9 0 20 10q33 25 60.5 62 t38.5 61l11 25l19 -6q-3 -7 -8.5 -18.5t-22.5 -40.5t-33.5 -51t-39.5 -40.5t-43 -18.5h-1q-78 2 -78 311v40q0 28 -44 28q-31 0 -80 -14l-8 -12q-29 -37 -49 -67q-26 -148 -69 -210.5t-102 -62.5h-8q-43 2 -72.5 72.5t-29.5 149.5q0 84 34 111q32 26 64 26q13 0 25 -5t17 -9 l5 -5q-26 -27 -45 -89q-26 -90 -26 -153q0 -73 41 -73q7 0 11 1q34 7 50.5 135t16.5 300q0 67 -5.5 137t-11.5 113.5t-6 45.5t8 5t22 5t28 2q59 0 81 -30q0 1 1 1q6 0 6 -45z"/>
<glyph glyph-name="L" horiz-adv-x="205" unicode="L" d="M24 230l-16 270q0 45 6 45h1q22 29 80 29q15 0 29 -2t22 -5t8 -5q0 -1 -11 -65.5t-22 -162.5t-11 -179q0 -231 56 -267q1 -4 12 -4q17 0 159.5 33t215.5 33q89 0 106 -43q7 -18 7 -34q0 -17 -7 -31.5t-14 -21.5l-7 -6q-45 49 -84 69t-106 20q-53 0 -146 -14 q-37 -6 -85 -17.5t-58 -12.5q-3 -1 -10 -1q-50 0 -79 93.5t-46 278.5z"/>
<glyph glyph-name="M" horiz-adv-x="707" unicode="M" d="M244 267l-2 -23q-12 -150 -36 -240.5t-53 -123.5t-68 -33h-6q-36 2 -60 68t-24 139q0 78 28 103t53 25q11 0 20.5 -4.5t13.5 -9.5l4 -4q-21 -25 -36 -83q-22 -80 -22 -144q0 -66 33 -66q6 0 10 1q78 19 78 292q0 79 -10.5 172t-21 154t-10.5 63t6.5 4.5t17.5 4t23 1.5 q48 0 66 -27q10 -57 69.5 -258t82.5 -261l164 398q9 10 19 10q26 0 91 -75q-13 -34 -32 -88t-51 -178.5t-32 -197.5q0 -25 2 -36q6 -41 23 -41q22 0 59.5 60t64.5 121l27 60l15 -11q-4 -10 -11.5 -27t-29 -61t-41 -78t-44 -63t-42.5 -31h-4q-33 0 -49.5 60.5t-16.5 153.5 q0 64 7 120l18 160q-103 -214 -121 -285q2 0 -2.5 -7t-11.5 -14.5t-13 -7.5q-1 0 -5 2q-7 6 -54.5 110.5t-85.5 195.5z"/>
<glyph glyph-name="N" horiz-adv-x="624" unicode="N" d="M276 404q25 -98 90 -270t103 -231q0 2 8 41t11 59t8.5 62.5t8 89t2.5 99.5q0 71 -7.5 124.5t-18.5 79t-22 41t-19 17.5l-7 3q25 15 56 15q62 0 91 -76q10 -26 10 -71q0 -76 -25 -201t-49 -212l-25 -87q-11 -19 -26 -19q-4 0 -6 1q-4 -2 -7 -2q-27 0 -75 75t-87.5 171 t-45.5 154l-2 -23q-12 -150 -36 -240.5t-53 -123.5t-68 -33h-6q-36 2 -60 68t-24 139q0 78 28 103t53 25q11 0 20.5 -4.5t13.5 -9.5l4 -4q-21 -25 -36 -83q-22 -80 -22 -144q0 -66 33 -66q6 0 10 1q78 19 78 295q0 97 -10 200q16 40 75 40q16 0 34 -3z"/>
<glyph glyph-name="O" horiz-adv-x="499" unicode="O" d="M274 461q-55 -1 -91.5 -30.5t-65.5 -105.5q-29 -77 -29 -203q0 -91 22 -152t67 -61h4q37 4 88 87q39 76 69 173t30 176q0 16 -1 24q-5 68 -31.5 95t-59.5 27q-8 0 -18 -2q2 -1 8.5 -14t7.5 -14zM225 505q7 -2 11 -5q33 11 66 11q29 0 53.5 -9.5t48 -31.5t37 -66.5 t14.5 -106.5v-8q0 -84 -17 -154.5t-42 -112.5t-53.5 -71t-49.5 -40.5t-33 -11.5h-1q-26 2 -34 6q-26 -19 -55 -19q-69 0 -125 91.5t-56 214.5q0 51 10 98q23 109 79.5 164t117.5 55q11 0 29 -4z"/>
<glyph glyph-name="P" horiz-adv-x="581" unicode="P" d="M330 273l11 15q32 -42 58 -42q24 0 36.5 34t12.5 84q0 69 -22 124t-60 55q-22 0 -45 -19q-1 -45 -19 -240q-19 -212 -61 -316t-95 -104q-16 0 -31 9q-39 21 -67 88.5t-28 133.5q0 70 33 96q27 22 54 22q11 0 21 -3.5t14 -7.5l5 -3q-26 -27 -45 -89q-14 -46 -14 -109 q0 -113 55 -113q8 0 12 1q52 12 52 312q0 84 -8.5 183.5t-17.5 164.5t-9 67t8 5t22 5t28 2q59 0 81 -30q0 1 1 1q6 0 6 -45q26 21 71 28q10 2 29 2q66 0 104.5 -44t38.5 -116q0 -34 -9 -71q-15 -62 -54.5 -101.5t-82.5 -39.5q-54 0 -85 61z"/>
<glyph glyph-name="Q" horiz-adv-x="496" unicode="Q" d="M47 -112q-1 0 -2 -1zM181 -91q22 1 48 31l-39 29q-40 29 -94 29h-9q11 -38 36 -63.5t54 -25.5h4zM308 374q-38 27 -79 27q-48 0 -89 -35t-58 -94q-19 -68 -19 -135q0 -64 15 -107q43 -5 89 -27l81 -40l21 33q39 76 69 173t30 176q0 16 -1 24q-5 68 -31 95t-59 27 q-9 0 -19 -2q23 -4 43 -38t20 -60q0 -17 -11 -17h-2zM225 505q7 -2 11 -5q33 11 66 11q29 0 53.5 -9.5t48 -31.5t37 -66.5t14.5 -106.5v-8q0 -139 -40 -227.5t-95 -132.5q122 -54 204 -66q18 -3 37 -3q50 0 105 17t84 34l30 17q3 -18 3 -41q0 -49 -17 -73q-29 -42 -136 -42 q-48 0 -98 10q-98 19 -253 123q-93 -15 -105 -15q-80 0 -129 86q-35 -20 -35 -47q0 -5 1 -7q9 -35 29 -35h4q-1 -1 -7 -5.5t-13.5 -9.5t-15.5 -9q-10 -4 -24 -4q-24 0 -41.5 12.5t-17.5 41.5q0 6 4 26q14 60 95 78q-35 81 -35 177q0 49 10 96q23 109 79.5 164t117.5 55 q11 0 29 -4z"/>
<glyph glyph-name="R" horiz-adv-x="581" unicode="R" d="M330 273l11 15q32 -42 58 -42q24 0 36.5 34t12.5 84q0 69 -22 124t-60 55q-22 0 -45 -19q-1 -45 -19 -240q-19 -212 -61 -316t-95 -104q-16 0 -31 9q-39 21 -67 88.5t-28 133.5q0 70 33 96q27 22 54 22q11 0 21 -3.5t14 -7.5l5 -3q-26 -27 -45 -89q-14 -46 -14 -109 q0 -113 55 -113q8 0 12 1q52 12 52 312q0 84 -8.5 183.5t-17.5 164.5t-9 67t8 5t22 5t28 2q59 0 81 -30q0 1 1 1q6 0 6 -45q26 21 71 28q10 2 29 2q66 0 104.5 -44t38.5 -116q0 -34 -9 -71q-15 -62 -54.5 -102t-82.5 -40q-25 0 -45 14q100 -182 149 -238q49 -58 117 -58 q57 0 82 44q-1 -5 -2.5 -14.5t-9 -32.5t-18.5 -41t-32 -32.5t-47 -14.5h-8q-47 4 -94.5 55t-78 114t-46.5 124q-21 84 -45 129q-3 3 -5 9l-2 3v1z"/>
<glyph glyph-name="S" horiz-adv-x="386" unicode="S" d="M266 41q-1 0 -28 3q-136 -52 -151 -82q-2 -4 -2 -10q0 -27 67 -27q42 0 86 12.5t69 33.5q21 18 21 33q0 10 -9.5 17.5t-20.5 11t-22 5.5zM405 117v-16q-8 -3 -38 -12.5t-48 -15.5q14 -17 23 -38q19 -52 19 -84q0 -40 -29.5 -65t-97.5 -45q-32 -9 -58 -9q-56 0 -90 33.5 t-34 75.5q0 11 3 21q9 35 149 89q-118 27 -177.5 98t-59.5 157q0 80 48 142q40 52 98.5 81t114.5 29q45 0 78 -20t44 -59q15 -57 15 -95q0 -65 -32.5 -92t-83.5 -35q-11 -2 -31 -2q-56 0 -90.5 28.5t-34.5 52.5q0 8 6 11q1 0 6 -0.5t8 -0.5q24 0 57.5 4.5t71 13t63 26 t25.5 39.5q0 9 -3 16q-9 22 -47.5 36t-86.5 14q-50 0 -93.5 -16t-64.5 -49q-27 -42 -27 -88q0 -77 62 -128q19 -15 109.5 -52.5t127.5 -74.5q14 5 32 10.5t38 11t28 8.5z"/>
<glyph glyph-name="T" horiz-adv-x="230" unicode="T" d="M-169 501q16 -17 60 -32t90 -15q10 0 28 2l6 142q22 30 81 30q14 0 28 -2t22 -5t8 -5t-10 -69.5t-12 -78.5q17 2 89 15.5t109 13.5q20 0 36 -3q27 -5 43 -22t16 -40q0 -31 -30 -62q0 2 -1 5.5t-8.5 12.5t-19 16.5t-36.5 15.5t-58 12q-25 3 -145 6q-22 -145 -22 -283 q0 -229 64 -229q13 0 42 36.5t29 48.5q0 9 15 1l4 -4q-41 -99 -98 -99q-17 0 -36 10q-71 38 -101 365l-11 149q-21 -1 -42.5 -2.5t-33.5 -2.5t-21 -1q-14 0 -35 3q-55 12 -55 46q0 10 5 25z"/>
<glyph glyph-name="U" horiz-adv-x="489" unicode="U" d="M248 -119q-7 -1 -21 -1q-60 0 -107 28.5t-74 77t-41 106.5t-14 122q0 124 45.5 216.5t117.5 92.5q41 0 85 -34q-4 -7 -11 -19.5t-24 -53t-30 -82.5t-24 -103.5t-11 -119.5v-21q4 -85 32 -137t71 -52q40 0 83 47q65 74 65 278q0 50 -4 124t-4 90q0 22 3 28q11 20 34 20 l27 -6q2 -34 2 -87q0 -59 -3.5 -115.5t-16 -130.5t-32.5 -129t-58.5 -95t-89.5 -44z"/>
<glyph glyph-name="V" horiz-adv-x="472" unicode="V" d="M470 545q32 0 29 -31q-51 -28 -102 -144.5t-69 -201.5q-12 -55 -18 -113t-8.5 -94.5t-6.5 -48.5q-4 -7 -45 -17q-24 -4 -34 -4q-53 0 -91.5 38.5t-60 102t-36 129t-31.5 136.5t-35 108q57 18 90 18q38 0 59 -25q16 -35 31.5 -107t23 -123t22.5 -159q10 -83 51 -83 q9 0 14 2q1 1 3 40.5t12 115t30 148.5q34 127 73.5 206.5t98.5 106.5z"/>
<glyph glyph-name="W" horiz-adv-x="603" unicode="W" d="M546 346q-5 -79 -22 -198q-26 -140 -54 -194q-37 -71 -91 -71q-8 0 -12 1q-103 18 -103 216q0 54 9 164q-16 -51 -27.5 -115.5t-17.5 -112t-8 -54.5q-4 -10 -35 -14q-7 -1 -20 -1q-56 0 -92 38t-52.5 101.5t-25.5 128.5t-19 136.5t-24 108.5q44 11 75 11q46 0 66 -30 q13 -34 22 -105.5t11.5 -117.5t7.5 -155q4 -93 42 -93q7 0 10 1q2 1 8 40.5t23.5 113.5t42.5 142q10 34 15 44q-2 2 0 4q5 0 19 1.5t20 1.5l14 1q22 0 33 -8t16 -31q4 -28 4 -47q0 -46 -14 -148t-14 -138q0 -65 31 -65h2q64 16 86 113.5t32 342.5q6 5 15 5q20 0 27 -17z"/>
<glyph glyph-name="X" horiz-adv-x="367" unicode="X" d="M393 125q-1 -2 -9.5 -24t-14 -33.5t-16.5 -32.5t-20.5 -33t-23 -22.5t-27.5 -11.5h-9q-45 0 -78.5 40.5t-66.5 125.5q-145 -118 -150 -264q-39 10 -39 44q0 52 73.5 140t104.5 108q-129 281 -183 296l-1 1q0 3 12.5 8t34 10t41.5 5q47 0 67 -26q19 -31 35.5 -70.5t24 -64 t18 -66.5t12.5 -49q20 15 54.5 75t41.5 107q6 33 6 58q0 41 -23 86q1 1 5 1q20 0 44.5 -24.5t24.5 -68.5q0 -25 -8 -49q-34 -114 -138 -211q3 -7 14.5 -44t22 -65.5t27 -53.5t32.5 -25q17 0 39.5 31.5t35.5 59t23 51.5q11 6 14 -9z"/>
<glyph glyph-name="Y" horiz-adv-x="583" unicode="Y" d="M171 80q-3 -9 -3 -29q0 -22 4 -47.5t13 -53t26 -45.5t40 -18q6 0 6 30q0 46 -24 248q-55 2 -92.5 38.5t-52.5 80.5t-34 99.5t-37 79.5q50 10 69 10q27 0 45 -15q22 -11 36.5 -55.5t23 -90t32.5 -82t63 -36.5h7q-4 12 -4 24q0 47 27 124t69.5 140t78.5 63q30 0 27 -18 q-77 -37 -123.5 -138t-56.5 -196q8 -64 8 -139q0 -187 -63 -187q-4 0 -12 2q-51 14 -89 62t-38 92v8q1 12 5.5 21t8 13.5t13.5 8t12.5 4t14.5 2.5z"/>
<glyph glyph-name="Z" horiz-adv-x="479" unicode="Z" d="M40 372q0 96 127 96q18 0 28 -1q62 -5 123.5 -19t97.5 -29.5t36 -25.5v-1q-2 -6 -44.5 -43t-111 -108.5t-122.5 -150.5q-108 -157 -108 -209l1 -6q58 42 147 62q30 7 89 11t101 13t66 33q1 0 3 -6.5t3.5 -18.5t1.5 -24q0 -79 -55 -97q-17 -6 -42 -6q-24 0 -81.5 13 t-96.5 13q-27 0 -51 -4q-40 -7 -64 -15.5t-28.5 -12.5t-4.5 -6q-13 1 -13 43q0 15 1 24q10 131 176 325q60 70 110.5 110.5t70.5 45.5l20 6q-43 3 -100 3q-72 0 -134 -7q-38 -5 -63.5 -17t-35.5 -28.5t-13.5 -27.5t-3.5 -23v-7v-1q-3 0 -10 14.5t-13.5 38t-6.5 43.5z"/>
<glyph glyph-name="bracketleft" horiz-adv-x="116" unicode="[" d="M27 452l-2 4h10q45 0 62 -12q-3 -3 -15 -4.5t-29 -2t-19 -0.5q0 -29 -1 -87t-1 -88q0 -50 1 -152t1 -153q42 8 63 9l10 -8l-9 -12q-3 0 -26 -3.5t-34 -3.5q-9 0 -12 3t-2 12l-7 -5q-12 132 -12 302v47q0 85 5 142q3 15 17 12z"/>
<glyph glyph-name="backslash" horiz-adv-x="139" unicode="\" d="M129 -19q-7 7 -10 17q-18 49 -39.5 146.5t-28.5 123.5q-3 12 -30.5 84t-27.5 107q0 5 3 6h1q4 0 8.5 -4.5t9 -12.5t7.5 -14t6.5 -16t4.5 -11q36 -85 69 -211.5t33 -201.5q0 -9 -6 -13z"/>
<glyph glyph-name="bracketright" horiz-adv-x="118" unicode="]" d="M83 -55l2 -3q-2 -1 -9 -1q-48 0 -62 13q3 3 15 4.5t28 1.5h19q0 29 1 87t1 88q0 51 -1 153t-1 152q-30 -6 -62 -9l-11 9l10 11q42 7 59 7q10 0 13 -2.5t1 -12.5l8 6q12 -150 12 -303q0 -128 -6 -188q-1 -14 -17 -13z"/>
<glyph glyph-name="asciicircum" horiz-adv-x="183" unicode="^" d="M73 440q-2 -2 -17.5 -16t-21.5 -19t-19.5 -11t-26.5 -6q-18 0 -24 11l7 -1q24 0 82 46q3 2 11 11t16 17l7 8q9 -3 21.5 -30.5t31.5 -52.5t45 -25q11 0 25 14q-4 -19 -20.5 -29.5t-36.5 -10.5q-32 0 -53 29.5t-27 64.5z"/>
<glyph glyph-name="underscore" horiz-adv-x="344" unicode="_" d="M339 -34q-51 -9 -135 -9h-50h-22q-109 0 -122 7q9 7 216 7q50 0 113 -5z"/>
<glyph glyph-name="grave" horiz-adv-x="191" unicode="`" d="M44 541h1q40 0 92.5 -56t52.5 -78q0 -2 -1 -3q-10 -10 -12 -10v1q-4 26 -50 58q-31 22 -62.5 34.5t-46.5 14.5l-16 1v1q-1 2 -1 3q0 11 9.5 22t33.5 12z"/>
<glyph glyph-name="a" horiz-adv-x="280" unicode="a" d="M163 108h-3q-2 -5 -6.5 -22t-9 -29.5t-11 -27t-15.5 -23.5t-20 -10q-5 -1 -16 -1q-71 0 -94 120q-5 32 -5 53q0 76 42 120t101 44h11q51 -4 51 -54l-4 -36q-4 -9 -17 0q0 1 -2.5 19.5t-7.5 31.5t-14 13q-4 0 -6 -1q-31 -28 -47 -85t-16 -109q0 -89 27 -89q14 0 27 47 t23 98t15 56h2q11 0 31.5 -11.5t20.5 -18.5q0 -10 -10 -67.5t-10 -87.5q0 -60 35 -60q12 0 29 30.5t23 50.5q7 8 11.5 5.5t4.5 -12.5q2 -14 -20.5 -52.5t-50.5 -39.5h-1q-21 0 -35.5 16t-21 42t-9 47.5t-2.5 42.5z"/>
<glyph glyph-name="b" horiz-adv-x="284" unicode="b" d="M152 109v8q-27 -6 -46 -39t-19 -60q0 -21 11 -22h2q14 0 33 47t19 66zM37 22q0 -12 -12 -12t-25.5 18t-20.5 56q-13 66 -13 138q0 42 6 100q18 138 55 201q7 9 27 9t40.5 -9.5t26.5 -25.5l-6 -9q-6 -10 -15 -26t-20 -39t-21.5 -55.5t-19.5 -69t-14.5 -85t-5.5 -99.5 q0 -30 1 -45q0 2 3 24t4.5 32t6.5 32.5t10 35t14.5 30.5t20 27.5t25.5 16.5t33 7q29 0 49 -14.5t28.5 -38t11.5 -42.5t3 -39h1q19 0 58.5 -13t40.5 -26q0 -1 0.5 -2t0.5 -2q0 -4 -6 -4q-7 0 -24 7q-24 11 -73 20q0 -20 -2.5 -43t-8.5 -53.5t-21.5 -50t-37.5 -19.5 q-5 0 -15 2q-73 13 -73 68q0 23 14 51q24 48 72 66q2 5 2 31q0 22 -8 45.5t-23 25.5h-6q-23 0 -40 -21t-26 -54.5t-13 -67t-4 -66.5v-12z"/>
<glyph glyph-name="c" horiz-adv-x="333" unicode="c" d="M350 144q-11 -28 -27.5 -59.5t-42 -70.5t-58 -64t-63.5 -25q-57 0 -97.5 52t-53.5 152q-4 28 -4 57q0 90 39 127t96 37q26 0 54 -7q21 -5 36.5 -21t18.5 -35q2 -14 2 -20q0 -21 -7 -34.5t-14 -13.5q-9 0 -9 19q0 2 1.5 15t1.5 22q0 35 -23 41q-10 2 -15 2q-43 0 -67 -59 t-24 -138q0 -71 19.5 -122.5t53.5 -51.5h1q33 0 74 53.5t66 105.5t26 65q1 0 2 1h2q14 0 14 -17q0 -5 -2 -11z"/>
<glyph glyph-name="d" horiz-adv-x="365" unicode="d" d="M393 75q2 -2 4 -3t3.5 -1.5t3 -1.5t2.5 -1.5t1.5 -2.5t0.5 -4q0 -22 -48 -81t-77 -62q-23 0 -38.5 19t-22.5 50t-10 61.5t-5.5 63t-5.5 45.5q-18 71 -48 77q-3 1 -8 1q-28 0 -49 -39.5t-31 -92.5q-7 -46 -7 -78q0 -64 24 -64l2 1h2q9 2 17 7t14 12.5t11 15.5t8.5 18.5 t6.5 18t5 19t3 17t2.5 15t1.5 10.5q17 -7 30 -18t13 -21q0 -29 -37.5 -69t-81.5 -40q-1 0 -4 0.5t-5 0.5q-46 5 -65.5 49t-19.5 103q0 47 8 76q10 43 36.5 79t68.5 36q21 0 42 -10q40 -18 61 -71q-1 6 -1 27q0 80 19 178t52 110q9 3 20 3q23 0 46 -10.5t24 -19.5 q-10 -2 -34.5 -91.5t-46 -209.5t-21.5 -189q0 -52 13 -66q3 -3 7 -3q21 0 67 61.5t47 74.5z"/>
<glyph glyph-name="e" horiz-adv-x="242" unicode="e" d="M123 295h-2q-24 0 -47 -72t-23 -112v-10q25 -9 26 -9q3 0 17 9q13 9 25.5 42.5t15.5 62.5q3 25 3 46q0 33 -15 43zM254 108q-18 -47 -66 -97t-100 -50q-48 0 -79.5 57.5t-30.5 145.5q1 83 33.5 122.5t77.5 39.5q25 0 48 -13q55 -34 55 -108q0 -4 -0.5 -11t-0.5 -9 q-6 -57 -38 -82t-68 -25q-25 0 -34 9q2 -103 51 -103q10 0 21 4t21 12t19.5 17t18.5 20.5t16.5 22t14.5 21.5t11.5 18.5t8.5 14.5l4 8q11 4 13 1t4 -15z"/>
<glyph glyph-name="f" horiz-adv-x="226" unicode="f" d="M-45 235h5q5 0 15.5 -1.5t19.5 -1.5q0 69 7 125q21 136 84 174q12 8 30 8q33 0 65 -27q25 -20 40.5 -60t15.5 -77q0 -9 -2 -23q-7 -47 -60 -47l-38 5l3 3q2 3 7.5 10t11 15.5t11.5 20t11 23t8 25.5t3 26q0 2 -0.5 6t-0.5 6q-6 45 -19 45q-9 0 -24 -26q-54 -106 -71 -240 q26 0 67.5 14t44.5 14q2 0 2 -12q0 -32 -16 -42q-18 -11 -43 -11q-23 0 -60 11q-3 -36 -3 -81q0 -132 26 -232q0 -7 -1 -11t-2 -5t-3 -1l-2 -1q-6 -2 -7 -2q-7 0 -10 10q-20 19 -43.5 120t-29.5 212q-15 3 -29 3q-15 0 -34 -3q-4 3 -4 8q0 7 7 13t18 7z"/>
<glyph glyph-name="g" horiz-adv-x="319" unicode="g" d="M59 -163q-24 -36 -24 -67q0 -16 9 -16h1q55 4 94 71t54 171q-25 -20 -48 -46t-39 -47.5t-47 -65.5zM332 106q12 0 12 -7q0 -1 -0.5 -3t-0.5 -4q-62 -39 -79 -52q1 -11 1 -33q0 -109 -32 -202q-35 -93 -127 -93q-30 0 -62 12q-29 12 -29 49q0 20 11 46q34 79 169 210 q3 23 3 51q0 147 -70 208h-6q-29 0 -48 -41t-25 -97q-2 -17 -2 -52q0 -87 26 -87q4 0 6 1q11 3 20.5 11t15.5 19.5t10 22.5t7 25.5t4 23.5t2.5 21t1.5 14q45 -7 45 -43t-38 -73t-79 -37h-3q-52 3 -74.5 55t-22.5 118q0 24 4 50q8 46 33 84t70 38q19 0 37 -7q42 -17 65 -67 q0 2 -3 20.5t-5.5 37.5t-2.5 28q2 2 3 5q2 4 4 4q3 0 14 -6q15 -32 26.5 -66t18 -57.5t12.5 -54.5t8 -44t5.5 -41t3.5 -30q4 3 71 43z"/>
<glyph glyph-name="h" horiz-adv-x="317" unicode="h" d="M329 38l18 -12q-48 -139 -108 -139q-87 1 -87 137q0 38 7.5 106.5t7.5 87.5q0 37 -16 37h-2q-30 -9 -46 -71.5t-16 -107.5q0 -17 3 -47t3 -40q0 -24 -11 -28q-2 -1 -7 -1q-20 0 -27 17q-1 2 -10 19.5t-10 20t-8.5 18.5t-9 21t-7.5 20.5t-7.5 24t-6 25t-6.5 30t-4 32 t-4 38.5q-3 38 -3 73q0 101 24 180q9 34 50 34q14 0 29 -4t24 -9t9 -7q0 -13 -26.5 -115t-29.5 -176q0 -5 -0.5 -16t-0.5 -17q0 -137 25 -168q-7 49 -7 84q0 51 22 121t62 74q3 0 8 0.5t7 0.5q85 0 85 -104q0 -41 -16 -123.5t-16 -106.5q0 -38 24 -38h2q34 1 82 129z"/>
<glyph glyph-name="i" horiz-adv-x="146" unicode="i" d="M9 381q10 43 81 43q6 0 14 -0.5t9 -0.5h2q-7 -7 -20 -56q-3 -10 -19 -17.5t-33 -7.5q-36 0 -36 27q0 4 2 12zM173 92q17 7 23 -11q-52 -108 -103 -126q-5 -2 -13 -2q-25 0 -43.5 26t-28.5 56q-29 97 -29 188q0 38 4 71q8 24 49 24q19 0 36 -4.5t17 -8.5l-1 -1 q-4 -3 -10.5 -30.5t-11.5 -73.5t-5 -90q0 -84 19 -136q4 -2 7 -2q26 0 76 92zM115 423z"/>
<glyph glyph-name="j" horiz-adv-x="200" unicode="j" d="M-63 -163q-19 -29 -19 -54q0 -19 12 -19h1q55 4 90 65.5t50 166.5q-25 -20 -48 -46t-39 -47.5t-47 -65.5zM73 29q1 11 1 35q0 161 -30 289q2 2 3.5 5t2.5 3.5t4.5 -0.5t10.5 -5q26 -25 47.5 -118.5t31.5 -167.5q8 6 31.5 17.5t34.5 18.5q12 0 12 -7q0 -4 -1 -7 q-64 -41 -74 -48q2 -42 2 -80q0 -105 -28 -173q-35 -86 -127 -86q-45 0 -72 19q-29 13 -29 49q0 21 11 46q34 79 169 210zM121 485zM121 485q-8 -8 -21 -56q-3 -10 -19 -17.5t-33 -7.5q-36 0 -36 27q0 4 2 12q12 43 81 43h16l9 -1h1z"/>
<glyph glyph-name="k" horiz-adv-x="328" unicode="k" d="M143 400q46 79 99 79q21 0 33 -16q7 -10 12.5 -25.5t6.5 -25.5l2 -11q-10 3 -26 3q-63 0 -110 -51q-30 -32 -54 -116q20 40 49 43q3 0 8 0.5t7 0.5q85 0 85 -104q0 -41 -16 -123.5t-16 -106.5q0 -38 24 -38h2q34 1 82 129l18 -12q-48 -139 -108 -139q-87 1 -87 137 q0 38 7.5 106.5t7.5 87.5q0 37 -16 37h-2q-30 -9 -46 -71.5t-16 -107.5q0 -17 3 -47t3 -40q0 -24 -11 -28q-2 -1 -7 -1q-20 0 -27 17q-1 2 -10 19.5t-10 20t-8.5 18.5t-9 21t-7.5 20.5t-7.5 24t-6 25t-6.5 30t-4 32t-4 38.5q-3 38 -3 73q0 101 24 180q9 34 50 34q14 0 29 -4 t24 -9t9 -7q0 -13 -26.5 -115t-29.5 -176q0 -5 -0.5 -16t-0.5 -17q0 -137 24 -168q-6 56 -6 84q0 70 19 163t53 152z"/>
<glyph glyph-name="l" horiz-adv-x="234" unicode="l" d="M226 -42q13 -30 13 -34q0 -12 -19 -31q-36 -26 -68 -26q-7 0 -19 2q-106 21 -131 175q-16 115 -16 208q0 176 49 233q13 18 55 18q34 0 59 -14q-35 -71 -54.5 -189.5t-19.5 -226.5q0 -30 1 -43q5 -84 23 -113q12 -17 29 -22h8q29 0 54 20t36 43z"/>
<glyph glyph-name="m" horiz-adv-x="563" unicode="m" d="M-28 293q0 21 20 33.5t46 12.5q10 0 26 -4q-7 -26 -12 -133q0 -4 -0.5 -14t-0.5 -16q0 -139 25 -171q-6 56 -6 84q0 19 4.5 48.5t14 62.5t26.5 57.5t39 26.5q2 0 7 0.5t8 0.5q84 0 84 -103q0 -41 -16 -123.5t-16 -106.5q0 -39 25 -39h2q1 1 2 26.5t6.5 77.5t18.5 103 q13 52 24.5 87.5t29 70t40.5 52t51 17.5h9q85 -7 85 -84q0 -47 -37.5 -147t-37.5 -124t21 -27h2q37 0 100 115l16 -16q-66 -120 -122 -120q-2 0 -4 0.5t-4 0.5q-68 12 -68 96q0 49 27 145t27 115q0 21 -14 21h-1q-25 0 -53 -49.5t-46 -103.5t-26 -94q-8 -38 -12 -78.5 t-5.5 -66t-4.5 -33.5q-2 -6 -19 -6h-14q-87 5 -87 140q0 38 8 106t8 87q0 35 -15 35h-3q-31 -8 -46.5 -70.5t-15.5 -108.5q0 -16 3 -46t3 -40q0 -25 -12 -29q-2 -1 -7 -1q-19 0 -26 17q-25 49 -34 68.5t-21.5 68.5t-17.5 112q-4 54 -4 67z"/>
<glyph glyph-name="n" horiz-adv-x="324" unicode="n" d="M-28 294q0 21 20 33t46 12q10 0 26 -4q-7 -26 -12 -133q0 -5 -0.5 -16t-0.5 -17q0 -137 25 -168q-7 49 -7 84q0 51 22 121t62 74q3 0 8 0.5t7 0.5q85 0 85 -104q0 -41 -16 -123.5t-16 -106.5q0 -38 24 -38h2q34 1 82 129l18 -12q-48 -139 -108 -139q-87 1 -87 137 q0 38 7.5 106t7.5 88q0 37 -16 37h-2q-30 -8 -45.5 -70.5t-15.5 -108.5q0 -16 3 -46t3 -40q0 -25 -12 -29q-2 -1 -7 -1q-17 0 -27 17q-41 82 -53 126q-14 51 -19 123q-4 54 -4 68z"/>
<glyph glyph-name="o" horiz-adv-x="320" unicode="o" d="M152 197q3 -14 7 -24.5t7 -14.5l2 -3l-8 96q-10 -10 -10 -38q0 -4 2 -16zM156 280q-6 26 -18 26q-4 0 -6 -1q-32 -28 -48 -85t-16 -109q0 -40 18 -70t39 -30q18 0 30 27.5t12 85.5v8q-38 43 -38 93q0 26 4.5 38.5t22.5 16.5zM-17 115q-5 24 -5 54q0 76 41.5 119.5 t100.5 43.5h11q48 -2 50 -49q36 0 54 -21q14 -46 14 -92q0 -29 -7 -62q13 1 25.5 12.5t18.5 21.5t15 29l9 19q10 19 15 9q1 -2 1 -5q0 -8 -9 -30.5t-31 -47t-48 -24.5h-2q-18 -50 -54.5 -78.5t-76.5 -28.5q-43 0 -76.5 33t-45.5 97z"/>
<glyph glyph-name="p" horiz-adv-x="362" unicode="p" d="M303 278q5 -20 5 -38q0 -62 -45 -139q-40 -68 -100 -68q-6 0 -18 2q-19 3 -30 23t-11 47q0 35 17 62q4 4 11 4q11 0 22 -9t15 -21q-15 -8 -24.5 -28.5t-9.5 -38.5q0 -20 11 -20q9 0 22 14q14 15 29 61q9 29 15 108q0 70 -21 70q-47 0 -99 -93q-25 -68 -25 -251 q0 -70 5 -103q1 -14 -5 -14q-5 0 -11 6q-28 32 -46.5 111.5t-18.5 175.5q0 127 33 232q4 15 21.5 24t39.5 9q36 0 56 -21q-7 -11 -23 -57t-19 -69q9 17 16.5 27t21.5 24.5t33.5 22t44.5 7.5q69 0 88 -60z"/>
<glyph glyph-name="q" horiz-adv-x="332" unicode="q" d="M153 0q-4 5 -12.5 18.5t-14.5 22.5t-8 9q-1 -1 -1 -2q-3 -33 -3 -49q0 -20 3 -24q24 5 36 25zM128 289q-54 -69 -65 -198q-3 -28 -3 -49q0 -25 4 -36q-1 25 16.5 46t36.5 21q10 0 16 -7l39 -40q29 56 29 144q0 77 -23 121q-10 20 -22 20q-11 0 -28 -22zM195 -3 q50 -47 93 -60q50 -15 89 -15q11 0 21.5 1t17 3t11.5 4t7 3l3 1q0 -3 -0.5 -8.5t-4 -19.5t-10 -24.5t-21 -19.5t-34.5 -9q-88 0 -191 128q-36 -24 -75 -24q-48 0 -84 37.5t-42 109.5q-1 9 -1 27q0 93 49 154t113 61q7 0 19 -2q45 -7 64 -88q1 0 4 0.5t5 0.5q37 0 55 -33 q-7 -149 -88 -227z"/>
<glyph glyph-name="r" horiz-adv-x="278" unicode="r" d="M209 381q62 -3 62 -48q0 -20 -10.5 -39t-18.5 -19l-1 1h-1q-3 2 -8.5 19t-16.5 32t-30 15q-8 0 -12 -1q-34 -7 -54.5 -39.5t-27.5 -65.5q-16 -60 -16 -140q0 -23 4 -72t4 -75q0 -13 -16 -13q-14 0 -22 16q-55 144 -55 293q0 34 3 67q1 20 23 33.5t49 13.5q25 0 40 -11 q-16 -59 -17 -74q13 50 49 75.5t72 31.5z"/>
<glyph glyph-name="s" horiz-adv-x="234" unicode="s" d="M-6 -221q44 0 64.5 23.5t29.5 61.5q1 5 1 16q0 37 -21 98q-39 -16 -88.5 -68.5t-49.5 -83.5q0 -22 16.5 -34.5t47.5 -12.5zM247 57q9 -1 9 -5q0 -3 -9 -12q-60 -7 -90 -20q31 -78 31 -129q0 -104 -124 -131q-22 -5 -45 -5q-45 0 -77 18t-32 56q0 49 44.5 94.5t106.5 78.5 q-95 188 -95 253q0 10 1 15q5 31 25 57t62 29q2 0 7 0.5t8 0.5q57 0 95.5 -30.5t38.5 -73.5q0 -50 -54 -93q-8 -7 -21 -7q-19 0 -19 9q0 3 1 4q19 33 19 83q0 39 -15.5 65.5t-47.5 26.5q-8 0 -12 -1q-12 -2 -28 -20t-16 -45q0 -30 23 -64q94 -137 116 -173q48 14 98 19z"/>
<glyph glyph-name="t" horiz-adv-x="234" unicode="t" d="M272 15q-31 -44 -72 -74t-74 -30h-1q-99 3 -123 165q-16 118 -16 212q0 52 4 87q-18 -2 -26 -2q-18 0 -30 4q-23 5 -23 24q0 7 3.5 15t6.5 12l3 5q14 -23 50 -27l20 -2q12 80 40 113q16 19 57 19q30 0 58 -14q-23 -47 -36 -100q24 8 62 25t65 26t50 9h9q48 -5 48 -50 q0 -12 -3.5 -26t-7.5 -22l-3 -7q-3 4 -9.5 9.5t-34.5 15t-65 9.5q-25 0 -39 -2q-16 -2 -44 -7t-35 -6q-31 -136 -31 -284q0 -34 1 -49v-17q1 -18 2 -23t2.5 -21t5 -23t8.5 -18t12.5 -17t17.5 -9q1 0 3.5 -0.5t3.5 -0.5q27 0 66 30.5t65 62.5l6 -2q5 -2 4 -10z"/>
<glyph glyph-name="u" horiz-adv-x="324" unicode="u" d="M331 132q14 7 19 -7q-33 -96 -75 -114q-7 -3 -15 -3q-19 0 -36 20.5t-26 42.5q-10 23 -21 56q0 -82 -27 -138.5t-61 -56.5h-3q-35 3 -55.5 28.5t-26 65t-6 79.5t-1.5 83.5t-7 65.5q40 6 52 6q30 0 38 -25q6 -22 6 -53q0 -32 -7.5 -96.5t-7.5 -86.5q0 -43 20 -43h4 q62 10 62 244q0 23 -2 85q7 25 50 25q30 -1 35 -9q-11 -7 -11 -97q0 -116 30 -179q2 -2 6 -2q15 0 37 41q30 52 29 68z"/>
<glyph glyph-name="v" horiz-adv-x="272" unicode="v" d="M290 437q22 0 20 -21q-36 -20 -71.5 -101t-48.5 -142q-9 -38 -13 -79t-6 -66.5t-5 -33.5q-2 -6 -31 -12q-12 -3 -24 -3q-46 0 -77 43.5t-43 97.5t-27.5 121.5t-30.5 97.5q46 13 64 13q27 0 41 -18q23 -51 54 -272q5 -59 35 -59q2 0 10 2q1 1 2.5 28.5t8.5 80.5t21 104 q25 91 52 146t69 73z"/>
<glyph glyph-name="w" horiz-adv-x="446" unicode="w" d="M385 259q-3 -52 -16 -144q-17 -98 -40 -142q-28 -52 -66 -52q-1 0 -4 0.5t-5 0.5q-74 14 -74 135q0 29 7 113q-12 -38 -20.5 -75.5t-13.5 -68.5l-5 -32q-4 -7 -27 -10q-5 -1 -14 -1q-40 0 -66.5 27.5t-38.5 73.5t-18 93.5t-13.5 100t-18.5 79.5q34 8 55 8q33 0 48 -22 q20 -53 30 -276q2 -61 32 -61q5 0 8 1q1 1 5 28t16 79t30 102q7 23 12 32q-2 2 0 3q20 2 28 2l10 1q16 0 23.5 -5.5t11.5 -22.5q2 -10 2 -33q0 -34 -10.5 -106.5t-10.5 -97.5q0 -44 22 -44h2q35 2 58.5 84t29.5 239q4 3 10 3q16 0 21 -12z"/>
<glyph glyph-name="x" horiz-adv-x="291" unicode="x" d="M308 80l-5 -14q-5 -13 -7.5 -19t-9 -20t-11 -22t-12 -19.5t-14 -17.5t-15 -11t-17.5 -6h-8q-37 0 -64.5 33.5t-54.5 102.5q-119 -95 -124 -217q-32 8 -32 37q0 43 61.5 116.5t85.5 87.5q-51 113 -90.5 176t-60.5 69l-1 1q0 2 10.5 6.5t28 8t34.5 3.5q39 0 55 -22 q16 -25 29.5 -57t20 -53.5t15 -54.5t10.5 -41q16 12 44.5 62t34.5 88q5 30 5 47q0 35 -20 72q1 1 5 1q17 0 37 -20.5t20 -56.5q0 -19 -7 -40q-26 -87 -113 -174q2 -6 9 -28t13.5 -41t15.5 -40t19.5 -33.5t21.5 -12.5q32 0 81 117q10 5 10 -8z"/>
<glyph glyph-name="y" horiz-adv-x="310" unicode="y" d="M150 -50q-13 -8 -45 -37t-54 -61q-53 -73 -53 -113q0 -16 11 -16q4 0 10 3q40 20 69 70q49 85 62 154zM347 118q-11 -35 -36.5 -61t-46.5 -38.5t-21 -13.5q-24 -165 -46 -221q-38 -100 -119 -100q-34 0 -81 18q-10 6 -13.5 9t-6.5 8.5t-3 14.5v8q2 25 13.5 50t22.5 41 t32 41q37 48 114 107q35 124 45 248q-20 -98 -58 -164.5t-82 -66.5q-1 0 -3.5 0.5t-3.5 0.5q-56 8 -56 124q0 50 9 88q13 54 52 54q24 0 47 -23l-22 -47q-22 -51 -22 -112q0 -48 25 -48h3q27 3 63.5 110t52.5 185q29 0 30 -14q12 -96 12 -175q0 -49 -5 -114q15 9 25 17 t27.5 30.5t37.5 57.5q5 5 10 5q7 0 7 -9q0 -4 -3 -10z"/>
<glyph glyph-name="z" horiz-adv-x="206" unicode="z" d="M-53 -130q-19 -26 -19 -54q0 -19 11 -19h1q55 4 90 66t50 167q-58 -50 -133 -160zM-86 -147q38 87 168 209q0 3 0.5 8.5t0.5 7.5q0 36 -15.5 55t-34 20.5t-34 4.5t-15.5 12q67 40 96 71t61 96h1q-14 2 -34 2q-117 0 -117 -47q0 -5 1 -8q-20 2 -34 23.5t-14 46.5 q0 21 12.5 35t37.5 14q5 0 17 -2q39 -7 67 -13.5t44.5 -12.5t24.5 -10t15 -10t9 -7q-2 -6 -6 -15.5t-17.5 -35.5t-30 -48.5t-43 -46.5t-55.5 -36h6q26 0 63 -18.5t52 -50.5q5 4 36 19.5t44 23.5q12 0 12 -8q0 -1 -0.5 -3t-0.5 -4q-11 -7 -41.5 -22t-41.5 -24q11 -31 11 -88 q0 -84 -27 -149q-40 -95 -132 -95q-37 0 -57 15q-38 19 -38 52q0 20 9 39z"/>
<glyph glyph-name="braceleft" horiz-adv-x="158" unicode="{" d="M18 169q-4 15 -14 25q-3 3 -3 5q0 3 2 5q23 25 40 76.5t26 95.5t30 78t54 34q17 0 39 -9q-30 -10 -50 -46.5t-29.5 -77.5t-32 -86t-55.5 -67q26 -14 41.5 -61.5t23 -95.5t32.5 -88t68 -42q-23 -10 -44 -10q-26 0 -46 16.5t-32.5 40t-23 62.5t-15.5 69.5t-11 75.5z"/>
<glyph glyph-name="bar" horiz-adv-x="57" unicode="|" d="M17 -144v647q5 8 9 8q5 0 13 -8v-647q-5 -8 -11 -8q-5 0 -11 8z"/>
<glyph glyph-name="braceright" horiz-adv-x="158" unicode="}" d="M175 169q-6 -45 -11 -75.5t-15.5 -69.5t-23 -62.5t-32.5 -40t-46 -16.5q-21 0 -44 10q43 2 68 42t32.5 88t23 95.5t41.5 61.5q-33 22 -55 67t-32 86t-30 77.5t-50 46.5q23 9 39 9q33 0 54 -34t30 -78t26 -95.5t40 -76.5q2 -2 2 -5q0 -2 -3 -5q-11 -12 -14 -25z"/>
<glyph glyph-name="asciitilde" horiz-adv-x="223" unicode="~" d="M11 395q0 -1 1 1l2.5 5t4 6.5t6.5 7.5t9.5 7.5t13.5 5.5t17 2q1 0 4.5 -0.5t5.5 -0.5q19 -2 50 -8t42 -6q14 0 23 6q21 14 17 18q9 -9 9 -23q0 -8 -4 -16q-11 -28 -56 -28q-35 0 -76 24q-17 10 -29 10q-11 0 -22.5 -8t-12.5 -8q-2 0 -5 5z"/>
<glyph glyph-name="exclamdown" horiz-adv-x="122" unicode="¡" d="M76 447q0 17 7 25q25 -38 34 -84q-23 9 -32 22t-9 37zM83 380h2q26 -19 26 -62q0 -19 2 -90t2 -116q0 -189 -30 -252q0 -1 -6 -1q-8 0 -23.5 2.5t-30.5 5.5t-17 3v12q0 14 10 72q14 70 33 213t32 213z"/>
<glyph glyph-name="cent" horiz-adv-x="334" unicode="¢" d="M155 -51v360q-29 -19 -45 -72t-16 -116q0 -64 16 -113.5t45 -58.5zM155 350v153q5 8 10 8t13 -8v-156l15 -3q22 -6 37 -21.5t18 -34.5q2 -14 2 -20q0 -21 -7 -35t-14 -14q-9 0 -9 19q0 2 1.5 15.5t1.5 22.5q0 34 -22 40q-9 2 -23 2v-370q46 12 99 102.5t58 120.5q1 0 3 1 h1q14 0 14 -17q0 -7 -3 -11q-10 -25 -25 -54.5t-37.5 -65.5t-51.5 -63t-58 -34v-71q-5 -8 -11 -8t-12 8v69q-55 2 -94.5 54t-52.5 150q-4 28 -4 57q0 91 39 128t96 37q3 0 8 -0.5t8 -0.5z"/>
<glyph glyph-name="sterling" horiz-adv-x="330" unicode="£" d="M-51 160q-1 0 1.5 2t8 5t12.5 6.5t17.5 7t21.5 6.5q-3 19 -3 39t3 39q11 59 47.5 93t80.5 34q35 0 59 -20q36 -29 36 -65q0 -10 -9 -37q-6 21 -34.5 59t-61.5 38q-4 0 -12 -2q-38 -10 -38 -139q0 -6 0.5 -18t0.5 -18h5q21 -3 38 -3q27 0 50.5 5.5t33.5 11.5l10 5 q0 -5 -2 -12.5t-17 -21.5t-39 -18t-53 -4q-5 0 -13 0.5t-12 0.5q2 -35 6 -72.5t7 -57.5l3 -20h13q47 0 79 -10q41 -12 64 -12t35 12q14 13 14 33l-1 10q27 -21 27 -56q0 -14 -6 -29q-11 -26 -54 -26q-47 0 -124 29q-48 17 -88 17q-31 0 -45 -10q-15 -9 -15 -25q0 -3 0.5 -6 t1.5 -5l1 -2q-15 15 -15 36q0 19 21 31q28 17 53 17l17 -3q-42 72 -59 155q-28 2 -39 2t-27 -2z"/>
<glyph glyph-name="currency" horiz-adv-x="374" unicode="¤" d="M125 159q0 -54 22.5 -91.5t55.5 -37.5q32 0 55.5 37.5t23.5 91.5q0 56 -23 102.5t-55 46.5t-55.5 -47t-23.5 -102zM22 169q0 77 59 128l-39 60q18 24 36 24q9 0 16 -8q10 -11 33 -49q30 11 61 11q37 0 68 -14q23 38 35 52q7 8 16 8q8 0 17.5 -6t14.5 -12l5 -6 q-30 -46 -43 -65q53 -51 53 -123q0 -71 -52 -121l42 -63q-19 -24 -37 -24q-9 0 -16 8q-14 16 -33 50q-34 -16 -70 -16q-33 0 -62 13q-21 -35 -32 -47q-7 -8 -16 -8q-8 0 -17 6t-14 12l-5 6q24 36 38 58q-58 50 -58 126z"/>
<glyph glyph-name="yen" horiz-adv-x="423" unicode="¥" d="M160 10v2q0 3 1 7t3 8t7 7.5t13 4.5l25 4l-3 24l-52 -4v3q0 3 1 7t3 8.5t7 7.5t13 4l24 3l-2 21q-47 2 -78.5 32.5t-44 68t-29 84.5t-31.5 68q40 8 58 8q22 0 38 -13q18 -9 31 -47t20 -76.5t27.5 -69.5t54.5 -31h5q-3 7 -3 20q0 65 51 171.5t96 106.5q26 -2 23 -16 q-65 -31 -104 -116.5t-48 -165.5l3 -37l56 7q1 -28 -27 -33l-27 -4l1 -24l59 7q1 -28 -27 -33q-24 -4 -31 -4q-2 -155 -54 -155q-6 0 -10 1q-44 12 -76 53t-32 79v6q1 6 2 11t3.5 8.5t4 6t5 5t5 3.5t6.5 2.5t6.5 2t7 1.5t6.5 1q-2 -10 -2 -25q0 -46 17 -90.5t53 -48.5 q4 0 4 26q0 42 -8 106z"/>
<glyph glyph-name="brokenbar" horiz-adv-x="115" unicode="¦" d="M40 -62v229h32v-229h-32zM40 214v229h32v-229h-32z"/>
<glyph glyph-name="section" horiz-adv-x="583" unicode="§" d="M38 223q-16 -13 -16 -33q0 -35 42 -71t98 -41q30 0 30 29q0 7 -1 10q-3 15 -14.5 25t-36.5 22q-10 5 -26.5 12t-22 9.5t-15.5 7.5t-14.5 8.5t-10.5 9t-13 12.5zM228 386q27 -18 27 -35q0 -11 -6 -27q-24 24 -72 43.5t-86 19.5q-35 0 -49 -18q-9 -17 -9 -31q0 -29 37 -50 q53 -30 130 -67q47 -21 47 -73q0 -30 -20 -54.5t-56 -28.5q28 -9 53.5 -30.5t30.5 -41.5q3 -14 3 -25q0 -44 -36 -70.5t-85 -26.5q-84 0 -115 67q-5 12 -5 21q0 19 12.5 31.5t27.5 12.5h2q0 -2 0.5 -17.5t3.5 -28t9 -28t21.5 -26.5t38.5 -14q53 0 60 40q1 4 1 11 q0 33 -40 52q-40 20 -85 50q-72 48 -72 118q0 41 28 77q-25 31 -25 67q0 42 30 73q39 40 97 40q52 0 102 -31z"/>
<glyph glyph-name="dieresis" horiz-adv-x="216" unicode="¨" d="M184 339q-48 11 -48 71v9q0 11 12 11q33 0 47 -11.5t14 -49.5q0 -5 -3 -10t-5.5 -7.5t-9 -7t-7.5 -5.5zM57 339q-48 11 -48 71v9q0 11 11 11q34 0 48 -11.5t14 -49.5q0 -5 -3 -10t-5.5 -7.5t-9 -7t-7.5 -5.5z"/>
<glyph glyph-name="copyright" horiz-adv-x="336" unicode="©" d="M171 95q-30 0 -49 20t-19 53q0 32 18.5 53.5t51.5 21.5q27 0 41 -9l8 27q-22 11 -49 11q-48 0 -77 -29.5t-29 -75.5t26.5 -73.5t70.5 -27.5q34 0 58 12l-6 26q-25 -9 -45 -9zM167 333q68 0 116.5 -48.5t48.5 -117.5q0 -68 -48.5 -117t-116.5 -49q-69 0 -117.5 49 t-48.5 117q0 69 48.5 117.5t117.5 48.5z"/>
<glyph glyph-name="guillemotleft" horiz-adv-x="404" unicode="«" d="M388 359l6 -12q2 -7 2 -14q0 -4 -2 -10q-4 -9 -96.5 -72t-114.5 -76l201 -146q14 -10 14 -27q0 -8 -3 -16t-6 -12l-3 -5l-251 209q253 178 253 181zM239 359l6 -12q3 -8 3 -15q0 -3 -2 -9q-4 -9 -97.5 -72.5t-113.5 -75.5q2 -2 46.5 -34t92.5 -67t61 -45q15 -11 15 -28 q0 -8 -3 -16t-6 -12l-3 -4l-251 209q252 178 252 181z"/>
<glyph glyph-name="registered" horiz-adv-x="334" unicode="®" d="M193 202q0 -14 -10.5 -23t-27.5 -9h-23v62q8 2 22 2q39 0 39 -32zM198 80h23q-5 11 -13 47q-6 27 -25 34v1q32 9 32 43q0 21 -13 32q-17 14 -49 14q-29 0 -42 -4v-167h21v73h21q27 0 34 -33q9 -36 11 -40zM166 331q69 0 117.5 -48.5t48.5 -117.5t-48.5 -117.5 t-117.5 -48.5t-117.5 48.5t-48.5 117.5t48.5 117.5t117.5 48.5z"/>
<glyph glyph-name="degree" horiz-adv-x="189" unicode="°" d="M67 353q0 -16 12 -27.5t28 -11.5t28 11.5t12 27.5q0 17 -11.5 29t-28.5 12t-28.5 -12t-11.5 -29zM17 333q0 34 23 57.5t57 23.5q33 0 57 -23.5t24 -57.5q0 -33 -24 -56.5t-57 -23.5q-34 0 -57 23.5t-23 56.5z"/>
<glyph glyph-name="plusminus" horiz-adv-x="339" unicode="±" d="M322 3h-308q-9 7 -9 17q0 9 9 21h308q11 -9 11 -18t-11 -20zM151 83v134h-137q-9 8 -9 16q0 9 9 21h137v137q8 8 17 8t20 -8v-137h134q11 -8 11 -17t-11 -20h-134v-134q-8 -11 -17 -11t-20 11z"/>
<glyph glyph-name="acute" horiz-adv-x="206" unicode="´" d="M155 541q24 -1 33.5 -12t9.5 -22v-3l-1 -1q-55 -1 -125 -50q-20 -14 -32.5 -28.5t-15.5 -22.5l-2 -7q1 -1 0 -1q-2 0 -12 10q-1 1 -1 3q0 22 52.5 78t92.5 56h1z"/>
<glyph glyph-name="mu" horiz-adv-x="378" unicode="µ" d="M384 92q16 0 21 -14q-47 -90 -90 -96q-2 0 -4.5 -0.5t-3.5 -0.5q-41 0 -77 83q-5 14 -19 63q-4 -76 -35 -124.5t-70 -48.5q-10 0 -23 5q1 -12 1 -34q0 -98 -54 -105q-22 40 -22 167q0 49 4 141t4 123q0 40 -4 56q4 0 14.5 -1t14.5 -1.5t12.5 -1.5t12 -2l10.5 -3t10 -4 t7.5 -4.5t7 -6t5 -8.5t3.5 -10q4 -16 4 -38q0 -37 -14 -112t-14 -99q0 -42 25 -43h3q37 0 59.5 81t22.5 241q5 15 31 15q13 0 29.5 -4t26.5 -8.5t10 -7.5l-1 -1q-4 -1 -8 -19.5t-7 -50t-3 -65.5q0 -95 24 -154q3 -4 9 -4q14 0 41 32q37 44 37 64z"/>
<glyph glyph-name="paragraph" horiz-adv-x="429" unicode="¶" d="M183 321q32 0 96.5 -7.5t82.5 -7.5q20 0 24 5q6 7 10 14t5 11l1 3q26 -22 26 -46q0 -16 -13 -26q-6 -6 -56 -6q-9 0 -24.5 0.5t-20.5 0.5q16 -67 16 -168q0 -190 -75 -259q12 20 23 77q14 76 14 178q0 107 -18 175q-40 4 -59 7l3 -5q27 -87 27 -188q0 -77 -15.5 -141.5 t-37.5 -90.5q-2 -2 -4.5 -3.5t-5 -2t-3.5 2.5t0 9q4 21 4 84q0 147 -21 203q-38 75 -79 75q-18 0 -18 -57q6 -67 13 -87q11 -36 23 -49q11 -12 18 -12q9 0 9 17q0 15 -7.5 31t-20.5 22q4 10 13 17t17 7q4 0 9 -3q14 -23 14 -50q0 -22 -9 -37.5t-24 -18.5q-5 -1 -16 -1 q-46 0 -80 54q-36 59 -36 112q0 18 4 31q16 49 72 49q26 0 46.5 -12.5t28.5 -24t18 -29.5q-7 38 -28 88q-26 -11 -11 -17q-1 -2 -5 -2q-7 0 -13.5 9.5t-6.5 21.5q0 47 88 47h2z"/>
<glyph glyph-name="cedilla" horiz-adv-x="187" unicode="¸" d="M80 30l30 -15q-6 -24 -6 -38q0 -10 4 -10q1 0 9 1t14 1q45 0 45 -52v-3q-1 -35 -32 -54.5t-69 -19.5q-34 0 -49 14t-15 33q0 12 4.5 24.5t9.5 19.5l5 7q1 -1 0 -5t2 -12.5t7 -17.5t15.5 -20t28.5 -19q12 -6 24 -6q22 0 37 17.5t15 38.5q0 23 -19 33q-10 6 -24 6 q-9 0 -18.5 -3t-14.5 -6l-5 -3q-1 -1 -4 -1q-10 0 -10 30q0 20 4.5 40t11.5 20z"/>
<glyph glyph-name="guillemotright" horiz-adv-x="404" unicode="»" d="M146 359l253 -181l-251 -209q-12 16 -12 33t14 27l200 146q-205 137 -210 148q-2 6 -2 9q0 6 2 12.5t4 10.5zM-2 359l253 -181l-252 -209q-12 15 -12 32t15 28l199 146q-204 136 -209 148q-2 6 -2 10q0 6 2 12.5t4 10.5z"/>
<glyph glyph-name="questiondown" horiz-adv-x="169" unicode="¿" d="M157 387q0 -15 -11 -25.5t-27 -10.5t-26.5 10.5t-10.5 25.5q0 14 10.5 24.5t26.5 10.5t27 -10.5t11 -24.5zM190 95q26 -15 26 -59q0 -27 -13.5 -50.5t-40.5 -34.5q-21 -9 -47 -9q-50 0 -87.5 31t-37.5 92q0 8 2 28q3 21 9.5 42.5t15 41t18.5 38t20.5 34.5t20 29.5t19 25 t16 19t11.5 12.5l4 5l1 -2q1 -1 2 -3.5t2.5 -6t2.5 -8t1 -9.5q0 -11 -4 -20l-21 -39q-22 -39 -37.5 -81.5t-15.5 -78.5q0 -53 37 -83q26 -22 51 -22q23 0 37.5 18.5t14.5 39.5q0 27 -22 27q-5 0 -8 -1q-49 -11 -49 -38l1 -8q-3 1 -8 2.5t-13.5 9.5t-8.5 20v5q0 24 12.5 38 t33.5 14q24 0 55 -19zM126 340z"/>
<glyph glyph-name="Agrave" d="M277 782h1q40 0 92.5 -56t52.5 -78q0 -2 -1 -3q-13 -13 -12 -9q-4 26 -50 58q-31 22 -62.5 34.5t-47.5 13.5l-15 2l-1 2v2q0 11 9.5 22t33.5 12zM316 128q0 12 20 20q6 3 15 5q18 6 43 10q5 90 15.5 190.5t18.5 156.5l7 55q-8 -25 -21.5 -67.5t-52 -153t-72.5 -198.5 t-73 -168t-63 -97q-32 -23 -63 -23q-15 0 -28 5q-32 13 -53 68t-21 119q0 120 69 159q21 12 46 12q20 0 40 -8.5t30 -16.5l10 -8q-63 -53 -93 -112q-12 -23 -21.5 -62.5t-9.5 -72.5q0 -56 28 -56q12 0 24 8q24 14 67.5 191t75.5 347l31 170q71 11 75 11h6q45 0 77 -6t41 -12 l9 -6q-37 -211 -58 -418q21 3 44 3q82 0 91 -47q2 -8 2 -22q0 -16 -5.5 -28.5t-13.5 -19.5t-15.5 -11t-13.5 -6l-7 -2v6q0 32 -26.5 53t-62.5 27q-7 -46 -7 -92q0 -120 54 -121h3q30 0 57.5 12.5t45 30t30.5 35.5t19 30l6 13q9 4 16 4q8 0 16 -8q-3 -6 -8.5 -15.5t-25 -34 t-42 -44t-59 -36t-75.5 -17.5h-2q-67 0 -67 169q0 37 3 78q-34 2 -46 2z" unicode="À"/>
<glyph glyph-name="Aacute" d="M523 779q24 -1 33.5 -12t9.5 -22v-3l-1 -1q-55 -1 -125 -50q-20 -14 -32.5 -28.5t-15.5 -22.5l-2 -7l-1 -1q-2 1 -11 10q-1 1 -1 3q0 22 52.5 78t92.5 56h1zM316 128q0 12 20 20q6 3 15 5q18 6 43 10q5 90 15.5 190.5t18.5 156.5l7 55q-8 -25 -21.5 -67.5t-52 -153 t-72.5 -198.5t-73 -168t-63 -97q-32 -23 -63 -23q-15 0 -28 5q-32 13 -53 68t-21 119q0 120 69 159q21 12 46 12q20 0 40 -8.5t30 -16.5l10 -8q-63 -53 -93 -112q-12 -23 -21.5 -62.5t-9.5 -72.5q0 -56 28 -56q12 0 24 8q24 14 67.5 191t75.5 347l31 170q71 11 75 11h6 q45 0 77 -6t41 -12l9 -6q-37 -211 -58 -418q21 3 44 3q82 0 91 -47q2 -8 2 -22q0 -16 -5.5 -28.5t-13.5 -19.5t-15.5 -11t-13.5 -6l-7 -2v6q0 32 -26.5 53t-62.5 27q-7 -46 -7 -92q0 -120 54 -121h3q30 0 57.5 12.5t45 30t30.5 35.5t19 30l6 13q9 4 16 4q8 0 16 -8 q-3 -6 -8.5 -15.5t-25 -34t-42 -44t-59 -36t-75.5 -17.5h-2q-67 0 -67 169q0 37 3 78q-34 2 -46 2z" unicode="Á"/>
<glyph glyph-name="Acircumflex" d="M281 620q100 112 121 112h1q13 -2 53 -38t54 -38q5 -1 13 -1q7 0 12.5 1.5t7.5 3.5l2 1q-2 -5 -5.5 -12t-17.5 -19t-33 -12q-9 0 -26 5q-25 8 -40.5 28t-21.5 35t-10 15q-2 0 -3 -1q-13 -7 -38.5 -38.5t-29.5 -34.5q-12 -10 -25 -10q-3 0 -6.5 1t-5.5 2h-2zM316 128 q0 12 20 20q6 3 15 5q18 6 43 10q5 90 15.5 190.5t18.5 156.5l7 55q-8 -25 -21.5 -67.5t-52 -153t-72.5 -198.5t-73 -168t-63 -97q-32 -23 -63 -23q-15 0 -28 5q-32 13 -53 68t-21 119q0 120 69 159q21 12 46 12q20 0 40 -8.5t30 -16.5l10 -8q-63 -53 -93 -112 q-12 -23 -21.5 -62.5t-9.5 -72.5q0 -56 28 -56q12 0 24 8q24 14 67.5 191t75.5 347l31 170q71 11 75 11h6q45 0 77 -6t41 -12l9 -6q-37 -211 -58 -418q21 3 44 3q82 0 91 -47q2 -8 2 -22q0 -16 -5.5 -28.5t-13.5 -19.5t-15.5 -11t-13.5 -6l-7 -2v6q0 32 -26.5 53t-62.5 27 q-7 -46 -7 -92q0 -120 54 -121h3q30 0 57.5 12.5t45 30t30.5 35.5t19 30l6 13q9 4 16 4q8 0 16 -8q-3 -6 -8.5 -15.5t-25 -34t-42 -44t-59 -36t-75.5 -17.5h-2q-67 0 -67 169q0 37 3 78q-34 2 -46 2z" unicode="Â"/>
<glyph glyph-name="Atilde" d="M374 688q13 -2 33.5 -6t34.5 -6.5t24 -2.5q6 0 14 2q8 3 13 7t5 6l1 3h1q9 0 9 -21q0 -30 -29 -38q-10 -2 -15 -2q-14 0 -31.5 4.5t-38 12t-28.5 9.5q-22 5 -31 5q-18 0 -27 -10l-10 -10q4 13 6.5 20.5t15.5 18t33 10.5q4 0 20 -2zM316 128q0 12 20 20q6 3 15 5 q18 6 43 10q5 90 15.5 190.5t18.5 156.5l7 55q-8 -25 -21.5 -67.5t-52 -153t-72.5 -198.5t-73 -168t-63 -97q-32 -23 -63 -23q-15 0 -28 5q-32 13 -53 68t-21 119q0 120 69 159q21 12 46 12q20 0 40 -8.5t30 -16.5l10 -8q-63 -53 -93 -112q-12 -23 -21.5 -62.5t-9.5 -72.5 q0 -56 28 -56q12 0 24 8q24 14 67.5 191t75.5 347l31 170q71 11 75 11h6q45 0 77 -6t41 -12l9 -6q-37 -211 -58 -418q21 3 44 3q82 0 91 -47q2 -8 2 -22q0 -16 -5.5 -28.5t-13.5 -19.5t-15.5 -11t-13.5 -6l-7 -2v6q0 32 -26.5 53t-62.5 27q-7 -46 -7 -92q0 -120 54 -121h3 q30 0 57.5 12.5t45 30t30.5 35.5t19 30l6 13q9 4 16 4q8 0 16 -8q-3 -6 -8.5 -15.5t-25 -34t-42 -44t-59 -36t-75.5 -17.5h-2q-67 0 -67 169q0 37 3 78q-34 2 -46 2z" unicode="Ã"/>
<glyph glyph-name="Adieresis" d="M472 626q-48 11 -48 71v9q0 11 12 11q33 0 47 -11.5t14 -49.5q0 -5 -3 -10t-5.5 -7.5t-9 -7t-7.5 -5.5zM345 626q-48 11 -48 71v9q0 11 11 11q34 0 48 -11.5t14 -49.5q0 -5 -3 -10t-5.5 -7.5t-9 -7t-7.5 -5.5zM316 128q0 12 20 20q6 3 15 5q18 6 43 10q5 90 15.5 190.5 t18.5 156.5l7 55q-8 -25 -21.5 -67.5t-52 -153t-72.5 -198.5t-73 -168t-63 -97q-32 -23 -63 -23q-15 0 -28 5q-32 13 -53 68t-21 119q0 120 69 159q21 12 46 12q20 0 40 -8.5t30 -16.5l10 -8q-63 -53 -93 -112q-12 -23 -21.5 -62.5t-9.5 -72.5q0 -56 28 -56q12 0 24 8 q24 14 67.5 191t75.5 347l31 170q71 11 75 11h6q45 0 77 -6t41 -12l9 -6q-37 -211 -58 -418q21 3 44 3q82 0 91 -47q2 -8 2 -22q0 -16 -5.5 -28.5t-13.5 -19.5t-15.5 -11t-13.5 -6l-7 -2v6q0 32 -26.5 53t-62.5 27q-7 -46 -7 -92q0 -120 54 -121h3q30 0 57.5 12.5t45 30 t30.5 35.5t19 30l6 13q9 4 16 4q8 0 16 -8q-3 -6 -8.5 -15.5t-25 -34t-42 -44t-59 -36t-75.5 -17.5h-2q-67 0 -67 169q0 37 3 78q-34 2 -46 2z" unicode="Ä"/>
<glyph glyph-name="Aring" d="M388 706q0 -10 8 -18.5t19 -8.5q12 0 20 8t8 19q0 12 -8 20t-20 8q-11 0 -19 -8t-8 -20zM353 692q0 23 16 39.5t39 16.5t39.5 -16.5t16.5 -39.5t-16.5 -39t-39.5 -16q-22 0 -38.5 16.5t-16.5 38.5zM316 128q0 12 20 20q6 3 15 5q18 6 43 10q5 90 15.5 190.5t18.5 156.5 l7 55q-8 -25 -21.5 -67.5t-52 -153t-72.5 -198.5t-73 -168t-63 -97q-32 -23 -63 -23q-15 0 -28 5q-32 13 -53 68t-21 119q0 120 69 159q21 12 46 12q20 0 40 -8.5t30 -16.5l10 -8q-63 -53 -93 -112q-12 -23 -21.5 -62.5t-9.5 -72.5q0 -56 28 -56q12 0 24 8q24 14 67.5 191 t75.5 347l31 170q71 11 75 11h6q45 0 77 -6t41 -12l9 -6q-37 -211 -58 -418q21 3 44 3q82 0 91 -47q2 -8 2 -22q0 -16 -5.5 -28.5t-13.5 -19.5t-15.5 -11t-13.5 -6l-7 -2v6q0 32 -26.5 53t-62.5 27q-7 -46 -7 -92q0 -120 54 -121h3q30 0 57.5 12.5t45 30t30.5 35.5t19 30 l6 13q9 4 16 4q8 0 16 -8q-3 -6 -8.5 -15.5t-25 -34t-42 -44t-59 -36t-75.5 -17.5h-2q-67 0 -67 169q0 37 3 78q-34 2 -46 2z" unicode="Å"/>
<glyph glyph-name="AE" horiz-adv-x="1005" unicode="Æ" d="M402 216l2 16q5 84 13 167.5t13 124.5l5 41q-8 -25 -21.5 -67.5t-52 -153t-72.5 -198.5t-73 -168t-63 -97q-32 -23 -63 -23q-15 0 -28 5q-32 13 -53 68t-21 119q0 120 69 159q21 12 46 12q20 0 40 -8.5t30 -16.5l10 -8q-63 -54 -93 -112q-12 -23 -21.5 -62.5t-9.5 -72.5 q0 -56 28 -56q12 0 24 8q24 14 67.5 191t75.5 347l31 170q71 11 75 11h6q45 0 77 -6t41 -12l9 -6q-26 -325 -28 -335q2 8 7 41t11 64.5t19 71.5t30.5 69.5t47.5 50t67 20.5q6 0 24 -2q40 -5 68 -30t32 -63q1 -6 1 -18q0 -37 -15 -63t-36.5 -37t-36.5 -15t-23 -4h-1 q-1 0 11.5 31t26.5 72.5t14 62.5q0 16 -7 20q-6 3 -12 3q-21 0 -47.5 -36t-68.5 -114q-28 -52 -52 -147q30 -6 56 -6q12 0 18 1q33 4 51.5 12.5t20.5 14.5l2 7q16 -21 16 -44q0 -39 -58 -53q-17 -4 -39 -4q-36 0 -80 13q-11 -60 -11 -111q0 -130 70 -134h2q24 0 56.5 27.5 t61 66.5t54 78t40.5 66l15 28l12 -9q-21 -65 -61 -122.5t-101 -124.5q-39 -35 -80 -35q-69 0 -119 86t-50 206q0 4 0.5 11.5t0.5 11.5z"/>
<glyph glyph-name="Ccedilla" horiz-adv-x="382" unicode="Ç" d="M251 335q0 1 13.5 32.5t26.5 71.5t13 61q0 15 -8 20q-5 4 -14 4q-50 0 -128 -145q-27 -49 -47 -137.5t-20 -166.5q0 -148 75 -152h2q24 0 56.5 27.5t61 66.5t54 78t40.5 67l15 27l12 -9q-21 -65 -61 -122.5t-101 -124.5q-25 -23 -56 -32q-4 -16 -4 -31q0 -10 4 -10 q1 0 9 1t14 1q45 0 45 -52v-3q-1 -35 -32 -54.5t-69 -19.5q-34 0 -49 14t-15 33q0 12 5 24.5t9 19.5l5 7q1 -1 0 -5t2 -12.5t7 -17.5t15.5 -20t28.5 -19q12 -6 24 -6q22 0 37 17.5t15 38.5q0 23 -19 33q-10 6 -24 6q-9 0 -18.5 -3t-14.5 -6l-5 -3q-1 -1 -4 -1q-10 0 -10 30 q0 21 4 36q-63 11 -107.5 94.5t-44.5 196.5q0 86 29 169q38 105 99 155.5t125 50.5q47 0 80 -26t37 -68q0 -3 0.5 -8.5t0.5 -7.5q0 -37 -15 -63.5t-37 -37.5t-36.5 -15t-23.5 -4h-1z"/>
<glyph glyph-name="Egrave" horiz-adv-x="382" unicode="È" d="M202 698h1q40 0 92.5 -56t52.5 -78q0 -2 -1 -3q-13 -13 -12 -9q-4 26 -50 58q-31 22 -62.5 34.5t-46.5 13.5l-16 2v2q-1 1 -1 2q0 11 9.5 22t33.5 12zM113 520q52 46 120 46q20 0 29 -1q41 -5 69 -30t32 -63q0 -3 0.5 -8.5t0.5 -7.5q0 -32 -11.5 -56t-26.5 -35.5 t-33.5 -19t-28 -9t-13.5 -1.5l13 31q12 31 26 72t14 63q0 15 -8 20q-6 3 -12 3q-21 0 -47.5 -36t-68.5 -114q-28 -52 -52 -147q32 -5 55 -5q13 0 19 1q33 3 51.5 11.5t20.5 15.5l2 6q16 -21 16 -44q0 -39 -58 -53q-16 -4 -38 -4q-40 0 -80 14q-11 -61 -11 -114 q0 -128 69 -132h2q24 0 56.5 27.5t61 66.5t54 78.5t40.5 66.5l15 28l12 -10q-21 -65 -61 -122.5t-101 -124.5q-39 -35 -80 -35q-68 0 -118 85.5t-50 204.5q0 4 0.5 12.5t0.5 12.5l3 44q8 55 25 102q40 112 92 161h-1z"/>
<glyph glyph-name="Eacute" horiz-adv-x="382" unicode="É" d="M246 681q24 -1 33.5 -12t9.5 -22q0 -1 -1 -3v-1q-55 -1 -125 -50q-20 -14 -32.5 -28.5t-14.5 -22.5l-3 -7l-1 -1q-2 1 -11 10q-1 1 -1 3q0 22 52.5 78t92.5 56h1zM113 520q52 46 120 46q20 0 29 -1q41 -5 69 -30t32 -63q0 -3 0.5 -8.5t0.5 -7.5q0 -32 -11.5 -56 t-26.5 -35.5t-33.5 -19t-28 -9t-13.5 -1.5l13 31q12 31 26 72t14 63q0 15 -8 20q-6 3 -12 3q-21 0 -47.5 -36t-68.5 -114q-28 -52 -52 -147q32 -5 55 -5q13 0 19 1q33 3 51.5 11.5t20.5 15.5l2 6q16 -21 16 -44q0 -39 -58 -53q-16 -4 -38 -4q-40 0 -80 14q-11 -61 -11 -114 q0 -128 69 -132h2q24 0 56.5 27.5t61 66.5t54 78.5t40.5 66.5l15 28l12 -10q-21 -65 -61 -122.5t-101 -124.5q-39 -35 -80 -35q-68 0 -118 85.5t-50 204.5q0 4 0.5 12.5t0.5 12.5l3 44q8 55 25 102q40 112 92 161h-1z"/>
<glyph glyph-name="Ecircumflex" horiz-adv-x="382" unicode="Ê" d="M114 576q100 112 121 112h1q13 -2 53 -38t54 -38q5 -1 13 -1q7 0 12.5 1.5t7.5 3.5l2 1q-2 -5 -5.5 -12t-17.5 -19t-33 -12q-9 0 -26 5q-25 8 -40.5 28t-21.5 35t-10 15q-2 0 -3 -1q-13 -7 -38.5 -38.5t-29.5 -34.5q-13 -10 -25 -10q-3 0 -6.5 1t-5.5 2h-2zM114 520h-1 q52 46 120 46q20 0 29 -1q41 -5 69 -30t32 -63q0 -3 0.5 -8.5t0.5 -7.5q0 -32 -11.5 -56t-26.5 -35.5t-33.5 -19t-28 -9t-13.5 -1.5l13 31q12 31 26 72t14 63q0 15 -8 20q-6 3 -12 3q-21 0 -47.5 -36t-68.5 -114q-28 -52 -52 -147q32 -5 55 -5q13 0 19 1q33 3 51.5 11.5 t20.5 15.5l2 6q16 -21 16 -44q0 -39 -58 -53q-16 -4 -38 -4q-40 0 -80 14q-11 -61 -11 -114q0 -128 69 -132h2q24 0 56.5 27.5t61 66.5t54 78.5t40.5 66.5l15 28l12 -10q-21 -65 -61 -122.5t-101 -124.5q-39 -35 -80 -35q-68 0 -118 85.5t-50 204.5q0 4 0.5 12.5t0.5 12.5 l3 44q8 55 25 102q40 112 92 161z"/>
<glyph glyph-name="Edieresis" horiz-adv-x="382" unicode="Ë" d="M316 573q-48 11 -48 71v9q0 11 12 11q33 0 47 -11.5t14 -49.5q0 -5 -3 -10t-5.5 -7.5t-9 -7t-7.5 -5.5zM189 573q-48 11 -48 71v9q0 11 11 11q34 0 48 -11.5t14 -49.5q0 -5 -3 -10t-5.5 -7.5t-9 -7t-7.5 -5.5zM114 520h-1q52 46 120 46q20 0 29 -1q41 -5 69 -30t32 -63 q0 -3 0.5 -8.5t0.5 -7.5q0 -32 -11.5 -56t-26.5 -35.5t-33.5 -19t-28 -9t-13.5 -1.5l13 31q12 31 26 72t14 63q0 15 -8 20q-6 3 -12 3q-21 0 -47.5 -36t-68.5 -114q-28 -52 -52 -147q32 -5 55 -5q13 0 19 1q33 3 51.5 11.5t20.5 15.5l2 6q16 -21 16 -44q0 -39 -58 -53 q-16 -4 -38 -4q-40 0 -80 14q-11 -61 -11 -114q0 -128 69 -132h2q24 0 56.5 27.5t61 66.5t54 78.5t40.5 66.5l15 28l12 -10q-21 -65 -61 -122.5t-101 -124.5q-39 -35 -80 -35q-68 0 -118 85.5t-50 204.5q0 4 0.5 12.5t0.5 12.5l3 44q8 55 25 102q40 112 92 161z"/>
<glyph glyph-name="Igrave" horiz-adv-x="230" unicode="Ì" d="M-8 781h1q40 0 92.5 -56t52.5 -78q0 -2 -1 -3q-13 -13 -12 -9q-4 26 -50 58q-31 22 -62.5 34.5t-46.5 14.5l-16 1v1q-1 2 -1 3q0 11 9.5 22t33.5 12zM7 554q1 45 7 45l1 -1q22 30 81 30q14 0 28 -2t22 -5t8 -5q0 -1 -11 -66t-22 -163t-11 -179q0 -273 76 -273q12 0 25 7 q-36 -30 -63 -30q-50 0 -78.5 93.5t-45.5 278.5z"/>
<glyph glyph-name="Iacute" horiz-adv-x="230" unicode="Í" d="M138 756q24 -1 33.5 -12t9.5 -22q0 -1 -1 -2v-2q-55 -1 -125 -50q-20 -14 -32.5 -28.5t-14.5 -21.5l-3 -8l-1 -1q-2 1 -11 10q-1 1 -1 3q0 22 52.5 78t92.5 56h1zM7 554q1 45 7 45l1 -1q22 30 81 30q14 0 28 -2t22 -5t8 -5q0 -1 -11 -66t-22 -163t-11 -179 q0 -273 76 -273q12 0 25 7q-36 -30 -63 -30q-50 0 -78.5 93.5t-45.5 278.5z"/>
<glyph glyph-name="Icircumflex" horiz-adv-x="230" unicode="Î" d="M-43 640q100 112 121 112h1q13 -2 53 -38t54 -38q5 -1 13 -1q7 0 12.5 1.5t7.5 3.5l2 1q-2 -5 -5.5 -12t-17.5 -19t-33 -12q-9 0 -26 5q-25 8 -40.5 28t-21.5 35t-10 15q-2 0 -3 -1q-13 -7 -38.5 -38.5t-29.5 -34.5q-13 -10 -25 -10q-3 0 -6.5 1t-5.5 2h-2zM24 284 l-17 270q1 45 7 45l1 -1q22 30 81 30q14 0 28 -2t22 -5t8 -5q0 -1 -11 -66t-22 -163t-11 -179q0 -273 76 -273q12 0 25 7q-36 -30 -63 -30q-50 0 -78.5 93.5t-45.5 278.5z"/>
<glyph glyph-name="Idieresis" horiz-adv-x="230" unicode="Ï" d="M155 641q-48 11 -48 71v9q0 11 12 11q33 0 47 -11.5t14 -49.5q0 -5 -3 -10t-5.5 -7.5t-9 -7t-7.5 -5.5zM28 641q-48 11 -48 71v9q0 11 11 11q34 0 48 -11.5t14 -49.5q0 -5 -3 -10t-5.5 -7.5t-9 -7t-7.5 -5.5zM24 284l-17 270q1 45 7 45l1 -1q22 30 81 30q14 0 28 -2 t22 -5t8 -5q0 -1 -11 -66t-22 -163t-11 -179q0 -273 76 -273q12 0 25 7q-36 -30 -63 -30q-50 0 -78.5 93.5t-45.5 278.5z"/>
<glyph glyph-name="Eth" horiz-adv-x="636" unicode="Ð" d="M145 344q4 0 20.5 0.5t28.5 0.5q-2 250 -22 270v1q0 2 8 5t22 5t28 2q59 0 81 -30q0 1 1 1q6 0 6 -45q64 38 114 38q55 0 93.5 -44.5t54 -106.5t15.5 -135q0 -24 -1 -36q-2 -41 -12.5 -89.5t-32 -107t-63.5 -101t-97 -50.5q-6 -1 -17 -1q-34 0 -51.5 20t-17.5 48 q0 33 20 51q18 17 30 17q4 0 6.5 -2t3.5 -4l1 -2q-23 -41 -23 -73q0 -33 31 -38h4q13 0 28 9.5t32 34t30.5 61t22.5 98t9 137.5q0 6 -0.5 19.5t-0.5 20.5q-3 111 -40.5 162t-84.5 51q-35 0 -54 -21q-2 -67 -11 -164l104 1q0 -5 -2 -12t-16 -19.5t-37 -13.5q-11 -1 -53 -1 q0 -2 -0.5 -8t-0.5 -9q-21 -236 -69 -330.5t-122 -94.5h-7q-43 2 -72.5 72.5t-29.5 149.5q0 84 34 111q32 26 64 26q13 0 25 -5t17 -9l5 -5q-26 -27 -45 -89q-26 -90 -26 -153q0 -73 41 -73q7 0 11 1q33 7 49 128.5t17 288.5q-97 2 -97 3q0 5 2 12t13.5 17t32.5 10z"/>
<glyph glyph-name="Ntilde" horiz-adv-x="624" unicode="Ñ" d="M252 504q13 -2 33.5 -6t34.5 -6.5t24 -2.5q6 0 14 2q8 3 13 7t5 6l1 3h1q9 0 9 -21q0 -30 -29 -38q-10 -2 -15 -2q-14 0 -31.5 4.5t-38 12t-28.5 9.5q-22 5 -31 5q-18 0 -27 -10l-10 -10q4 13 6.5 20.5t15.5 18t33 10.5q4 0 20 -2zM276 404q25 -98 90 -270t103 -231 q0 2 8 41t11 59t8.5 62.5t8 89t2.5 99.5q0 71 -7.5 124.5t-18.5 79t-22 41t-19 17.5l-7 3q25 15 56 15q62 0 91 -76q10 -26 10 -71q0 -76 -25 -201t-49 -212l-25 -87q-11 -19 -26 -19q-4 0 -6 1q-4 -2 -7 -2q-27 0 -75 75t-87.5 171t-45.5 154l-2 -23q-12 -150 -36 -240.5 t-53 -123.5t-68 -33h-6q-36 2 -60 68t-24 139q0 78 28 103t53 25q11 0 20.5 -4.5t13.5 -9.5l4 -4q-21 -25 -36 -83q-22 -80 -22 -144q0 -66 33 -66q6 0 10 1q78 19 78 295q0 97 -10 200q16 40 75 40q16 0 34 -3z"/>
<glyph glyph-name="Ograve" horiz-adv-x="499" unicode="Ò" d="M194 681h1q40 0 92.5 -56t52.5 -78q0 -2 -1 -3q-13 -13 -12 -9q-4 26 -50 58q-31 22 -62.5 34.5t-46.5 14.5l-16 1v1q-1 2 -1 3q0 11 9.5 22t33.5 12zM274 461q-55 -1 -91.5 -30.5t-65.5 -105.5q-29 -77 -29 -203q0 -91 22 -152t67 -61h4q37 4 88 87q39 76 69 173t30 176 q0 16 -1 24q-5 68 -31.5 95t-59.5 27q-8 0 -18 -2q2 -1 8.5 -14t7.5 -14zM225 505q7 -2 11 -5q33 11 66 11q29 0 53.5 -9.5t48 -31.5t37 -66.5t14.5 -106.5v-8q0 -84 -17 -154.5t-42 -112.5t-53.5 -71t-49.5 -40.5t-33 -11.5h-1q-26 2 -34 6q-26 -19 -55 -19 q-69 0 -125 91.5t-56 214.5q0 51 10 98q23 109 79.5 164t117.5 55q11 0 29 -4z"/>
<glyph glyph-name="Oacute" horiz-adv-x="499" unicode="Ó" d="M305 681q24 -1 33.5 -12t9.5 -22v-3l-1 -1q-55 -1 -125 -50q-20 -14 -32.5 -28.5t-15.5 -22.5l-2 -7l-1 -1q-2 1 -11 10q-1 1 -1 3q0 22 52.5 78t92.5 56h1zM274 461q-55 -1 -91.5 -30.5t-65.5 -105.5q-29 -77 -29 -203q0 -91 22 -152t67 -61h4q37 4 88 87q39 76 69 173 t30 176q0 16 -1 24q-5 68 -31.5 95t-59.5 27q-8 0 -18 -2q2 -1 8.5 -14t7.5 -14zM225 505q7 -2 11 -5q33 11 66 11q29 0 53.5 -9.5t48 -31.5t37 -66.5t14.5 -106.5v-8q0 -84 -17 -154.5t-42 -112.5t-53.5 -71t-49.5 -40.5t-33 -11.5h-1q-26 2 -34 6q-26 -19 -55 -19 q-69 0 -125 91.5t-56 214.5q0 51 10 98q23 109 79.5 164t117.5 55q11 0 29 -4z"/>
<glyph glyph-name="Ocircumflex" horiz-adv-x="499" unicode="Ô" d="M123 535q100 112 121 112h1q13 -2 53 -38t54 -38q5 -1 13 -1q7 0 12.5 1.5t7.5 2.5l2 2q-2 -5 -5.5 -12t-17.5 -19t-33 -12q-9 0 -26 5q-25 8 -40.5 28t-21.5 35t-10 15q-2 0 -3 -1q-13 -7 -38.5 -38.5t-29.5 -34.5q-12 -10 -25 -10q-3 0 -6.5 1t-5.5 1zM274 461 q-55 -1 -91.5 -30.5t-65.5 -105.5q-29 -77 -29 -203q0 -91 22 -152t67 -61h4q37 4 88 87q39 76 69 173t30 176q0 16 -1 24q-5 68 -31.5 95t-59.5 27q-8 0 -18 -2q2 -1 8.5 -14t7.5 -14zM225 505q7 -2 11 -5q33 11 66 11q29 0 53.5 -9.5t48 -31.5t37 -66.5t14.5 -106.5v-8 q0 -84 -17 -154.5t-42 -112.5t-53.5 -71t-49.5 -40.5t-33 -11.5h-1q-26 2 -34 6q-26 -19 -55 -19q-69 0 -125 91.5t-56 214.5q0 51 10 98q23 109 79.5 164t117.5 55q11 0 29 -4z"/>
<glyph glyph-name="Otilde" horiz-adv-x="499" unicode="Õ" d="M213 638q13 -2 33.5 -6t34.5 -6.5t24 -2.5q6 0 14 2q8 3 13 7t6 6v3h1q9 0 9 -21q0 -30 -29 -38q-10 -2 -15 -2q-14 0 -31.5 4.5t-38 12t-28.5 9.5q-22 5 -31 5q-18 0 -27 -10l-10 -10q4 13 6.5 20.5t15.5 18t33 10.5q4 0 20 -2zM274 461q-55 -1 -91.5 -30.5 t-65.5 -105.5q-29 -77 -29 -203q0 -91 22 -152t67 -61h4q37 4 88 87q39 76 69 173t30 176q0 16 -1 24q-5 68 -31.5 95t-59.5 27q-8 0 -18 -2q2 -1 8.5 -14t7.5 -14zM225 505q7 -2 11 -5q33 11 66 11q29 0 53.5 -9.5t48 -31.5t37 -66.5t14.5 -106.5v-8q0 -84 -17 -154.5 t-42 -112.5t-53.5 -71t-49.5 -40.5t-33 -11.5h-1q-26 2 -34 6q-26 -19 -55 -19q-69 0 -125 91.5t-56 214.5q0 51 10 98q23 109 79.5 164t117.5 55q11 0 29 -4z"/>
<glyph glyph-name="Odieresis" horiz-adv-x="499" unicode="Ö" d="M326 537q-48 11 -48 71v9q0 11 12 11q33 0 47 -11.5t14 -49.5q0 -5 -3 -10t-5.5 -7.5t-9 -7t-7.5 -5.5zM199 537q-48 11 -48 71v9q0 11 11 11q34 0 48 -11.5t14 -49.5q0 -5 -3 -10t-5.5 -7.5t-9 -7t-7.5 -5.5zM274 461q-55 -1 -91.5 -30.5t-65.5 -105.5q-29 -77 -29 -203 q0 -91 22 -152t67 -61h4q37 4 88 87q39 76 69 173t30 176q0 16 -1 24q-5 68 -31.5 95t-59.5 27q-8 0 -18 -2q2 -1 8.5 -14t7.5 -14zM225 505q7 -2 11 -5q33 11 66 11q29 0 53.5 -9.5t48 -31.5t37 -66.5t14.5 -106.5v-8q0 -84 -17 -154.5t-42 -112.5t-53.5 -71t-49.5 -40.5 t-33 -11.5h-1q-26 2 -34 6q-26 -19 -55 -19q-69 0 -125 91.5t-56 214.5q0 51 10 98q23 109 79.5 164t117.5 55q11 0 29 -4z"/>
<glyph glyph-name="multiply" horiz-adv-x="348" unicode="×" d="M10 390q6 0 40 -21q59 -40 121 -90q61 50 121 90q34 21 40 21q0 -2 13 -14t13 -13t-27 -21t-65.5 -48.5t-58.5 -45.5q98 -86 133 -159q14 -26 14 -49q0 -9 -4 -9t-8 6q-39 49 -125 139q-1 1 -17 15.5t-29 25.5q-12 -11 -28.5 -25.5t-17.5 -15.5q-86 -90 -124 -139 q-6 -6 -8 -6q-4 0 -4 9q0 21 13 49q33 69 132 159q-20 17 -58 46t-64.5 48.5t-26.5 20.5t12.5 13t12.5 14z"/>
<glyph glyph-name="Oslash" horiz-adv-x="499" unicode="Ø" d="M330 578q1 -2 14.5 -6l27 -8t13.5 -5q0 -3 -5 -11.5t-13 -22t-13 -23.5q98 -35 101 -205v-8q0 -84 -17 -154.5t-42 -112.5t-53.5 -71t-49.5 -40.5t-33 -11.5h-1q-26 2 -34 6q-26 -19 -55 -19q-16 0 -32 6q-5 -20 -10 -50q-3 -16 -9 -16q-8 0 -17 28.5t-10 59.5v6 q-45 40 -74 113t-29 159q0 51 10 98q23 109 79.5 164t117.5 55q11 0 29 -4q7 -2 11 -5q23 7 49 10q1 2 2 4.5t2 3.5q31 54 41 60zM266 475q2 2 4 7.5t4 8.5q-6 0 -16 -2q2 -2 8 -14zM336 464q-38 -84 -81.5 -193t-53.5 -146q-38 -123 -57 -205q16 -11 33 -11h4q37 4 88 87 q39 76 69 173t30 176q0 16 -1 24q-4 65 -31 95zM98 9q28 191 161 451q-48 -4 -82 -34t-60 -101q-29 -77 -29 -203q0 -64 10 -113z"/>
<glyph glyph-name="Ugrave" horiz-adv-x="489" unicode="Ù" d="M189 681h1q40 0 92.5 -56t52.5 -78q0 -2 -1 -3q-13 -13 -12 -9q-4 26 -50 58q-31 22 -62.5 34.5t-47.5 14.5l-15 1l-1 1v3q0 11 9.5 22t33.5 12zM248 -119q-7 -1 -21 -1q-60 0 -107 28.5t-74 77t-41 106.5t-14 122q0 124 45.5 216.5t117.5 92.5q41 0 85 -34 q-4 -7 -11 -19.5t-24 -53t-30 -82.5t-24 -103.5t-11 -119.5v-21q4 -85 32 -137t71 -52q40 0 83 47q65 74 65 278q0 50 -4 124t-4 90q0 22 3 28q11 20 34 20l27 -6q2 -34 2 -87q0 -59 -3.5 -115.5t-16 -130.5t-32.5 -129t-58.5 -95t-89.5 -44z"/>
<glyph glyph-name="Uacute" horiz-adv-x="489" unicode="Ú" d="M300 681q24 -1 33.5 -12t9.5 -22q0 -1 -1 -3v-1q-55 -1 -125 -50q-20 -14 -32.5 -28.5t-14.5 -22.5l-3 -7l-1 -1q-2 1 -11 10q-1 1 -1 3q0 22 52.5 78t92.5 56h1zM248 -119q-7 -1 -21 -1q-60 0 -107 28.5t-74 77t-41 106.5t-14 122q0 124 45.5 216.5t117.5 92.5 q41 0 85 -34q-4 -7 -11 -19.5t-24 -53t-30 -82.5t-24 -103.5t-11 -119.5v-21q4 -85 32 -137t71 -52q40 0 83 47q65 74 65 278q0 50 -4 124t-4 90q0 22 3 28q11 20 34 20l27 -6q2 -34 2 -87q0 -59 -3.5 -115.5t-16 -130.5t-32.5 -129t-58.5 -95t-89.5 -44z"/>
<glyph glyph-name="Ucircumflex" horiz-adv-x="489" unicode="Û" d="M231 518q100 112 121 112h1q13 -2 53 -38t54 -38q5 -1 13 -1q7 0 12.5 1.5t7.5 3.5l2 1q-2 -5 -5.5 -12t-17.5 -19t-33 -12q-9 0 -26 5q-25 8 -40.5 28t-21.5 35t-10 15q-2 0 -3 -1q-13 -7 -38.5 -38.5t-29.5 -34.5q-12 -10 -25 -10q-3 0 -6.5 1t-5.5 2h-2zM248 -119 q-7 -1 -21 -1q-60 0 -107 28.5t-74 77t-41 106.5t-14 122q0 124 45.5 216.5t117.5 92.5q41 0 85 -34q-4 -7 -11 -19.5t-24 -53t-30 -82.5t-24 -103.5t-11 -119.5v-21q4 -85 32 -137t71 -52q40 0 83 47q65 74 65 278q0 50 -4 124t-4 90q0 22 3 28q11 20 34 20l27 -6 q2 -34 2 -87q0 -59 -3.5 -115.5t-16 -130.5t-32.5 -129t-58.5 -95t-89.5 -44z"/>
<glyph glyph-name="Udieresis" horiz-adv-x="489" unicode="Ü" d="M412 493q-48 11 -48 71v9q0 11 12 11q33 0 47 -11.5t14 -49.5q0 -5 -3 -10t-5.5 -7.5t-9 -7t-7.5 -5.5zM285 493q-48 11 -48 71v9q0 11 11 11q34 0 48 -11.5t14 -49.5q0 -5 -3 -10t-5.5 -7.5t-9 -7t-7.5 -5.5zM248 -119q-7 -1 -21 -1q-60 0 -107 28.5t-74 77t-41 106.5 t-14 122q0 124 45.5 216.5t117.5 92.5q41 0 85 -34q-4 -7 -11 -19.5t-24 -53t-30 -82.5t-24 -103.5t-11 -119.5v-21q4 -85 32 -137t71 -52q40 0 83 47q65 74 65 278q0 50 -4 124t-4 90q0 22 3 28q11 20 34 20l27 -6q2 -34 2 -87q0 -59 -3.5 -115.5t-16 -130.5t-32.5 -129 t-58.5 -95t-89.5 -44z"/>
<glyph glyph-name="Yacute" horiz-adv-x="583" unicode="Ý" d="M347 681q24 -1 33.5 -12t9.5 -22v-3l-1 -1q-55 -1 -125 -50q-20 -14 -32.5 -28.5t-15.5 -22.5l-2 -7l-1 -1q-2 1 -11 10q-1 1 -1 3q0 22 52.5 78t92.5 56h1zM171 80q-3 -9 -3 -29q0 -22 4 -47.5t13 -53t26 -45.5t40 -18q6 0 6 30q0 46 -24 248q-55 2 -92.5 38.5 t-52.5 80.5t-34 99.5t-37 79.5q50 10 69 10q27 0 45 -15q22 -11 36.5 -55.5t23 -90t32.5 -82t63 -36.5h7q-4 12 -4 24q0 47 27 124t69.5 140t78.5 63q30 0 27 -18q-77 -37 -123.5 -138t-56.5 -196q8 -64 8 -139q0 -187 -63 -187q-4 0 -12 2q-51 14 -89 62t-38 92v8 q1 12 5.5 21t8 13.5t13.5 8t12.5 4t14.5 2.5z"/>
<glyph glyph-name="Thorn" horiz-adv-x="325" unicode="Þ" d="M302 278q5 -20 5 -38q0 -62 -45 -139q-40 -68 -99 -68q-7 0 -19 2q-19 3 -30 23t-11 47q0 33 17 62q4 4 12 4q11 0 22 -9t15 -21q-15 -8 -24.5 -28.5t-9.5 -38.5q0 -21 11 -21q8 0 21 15q15 16 30 61q9 28 15 108q0 70 -22 70t-45.5 -21.5t-34 -38t-18.5 -33.5 q-26 -67 -26 -252q0 -69 5 -102q3 -14 -5 -14q-7 0 -11 6q-22 26 -35 130.5t-13 238.5q0 266 44 408q4 15 21 24t39 9q36 0 57 -22q-5 -9 -43.5 -182.5t-43.5 -203.5q18 32 52 58t81 26q70 0 88 -60z"/>
<glyph glyph-name="germandbls" horiz-adv-x="583" unicode="ß" d="M-77 17q0 -1 -10.5 -26t-21 -55.5t-10.5 -45.5t10 -15q6 0 17 7q23 14 48.5 106t45 198t47.5 211t55 139q46 59 92 59q44 0 73 -49t29 -112t-32.5 -110t-98.5 -57q57 -7 101 -61.5t44 -117.5q0 -81 -74 -126q-35 -21 -69 -21t-55.5 20.5t-20.5 52.5q8 -14 25.5 -28 t38.5 -14q24 0 45 21q16 16 16 67q0 67 -23.5 132t-57.5 65q-1 0 -3 -0.5t-3 -0.5q-8 1 -8 5t9.5 13.5t23.5 25t22 32.5q13 29 32.5 90t19.5 98q0 14 -5 24q-9 16 -19 16q-13 0 -28 -25.5t-29.5 -73t-27 -95.5t-25.5 -114.5t-21 -107t-17.5 -95t-10.5 -59.5 q-12 -58 -54 -100.5t-97 -42.5q-16 0 -36 5q-35 10 -35 56q0 39 23.5 77t53.5 38q21 0 21 -6z"/>
<glyph glyph-name="agrave" horiz-adv-x="274" unicode="à" d="M25 495h1q40 0 92.5 -56t52.5 -78q0 -2 -1 -3q-13 -13 -12 -9q-4 26 -50 58q-31 22 -62.5 34.5t-47.5 14.5l-15 1l-1 1v3q0 11 9.5 22t33.5 12zM154 108q-2 -5 -6.5 -22t-9 -29.5t-11 -27t-15.5 -23.5t-20 -10q-5 -1 -16 -1q-71 0 -94 120q-5 32 -5 53q0 76 42 120 t101 44h11q51 -4 51 -54l-4 -36q-4 -9 -17 0q0 1 -2.5 19.5t-7.5 31.5t-14 13q-4 0 -6 -1q-31 -28 -47 -85t-16 -109q0 -89 27 -89q14 0 27 47t23 98t15 56h2q11 0 31.5 -11.5t20.5 -18.5q0 -10 -10 -67.5t-10 -87.5q0 -60 35 -60q12 0 29 30.5t23 50.5q7 8 11.5 5.5 t4.5 -12.5q2 -14 -20.5 -52.5t-50.5 -39.5h-1q-21 0 -35.5 16t-21 42t-9 47.5t-2.5 42.5h-3z"/>
<glyph glyph-name="aacute" horiz-adv-x="274" unicode="á" d="M235 497q24 -1 33.5 -12t9.5 -22v-3l-1 -1q-55 -1 -125 -50q-20 -14 -32.5 -28.5t-15.5 -22.5l-2 -7l-1 -1q-2 1 -11 10q-1 1 -1 3q0 22 52.5 78t92.5 56h1zM154 108q-2 -5 -6.5 -22t-9 -29.5t-11 -27t-15.5 -23.5t-20 -10q-5 -1 -16 -1q-71 0 -94 120q-5 32 -5 53 q0 76 42 120t101 44h11q51 -4 51 -54l-4 -36q-4 -9 -17 0q0 1 -2.5 19.5t-7.5 31.5t-14 13q-4 0 -6 -1q-31 -28 -47 -85t-16 -109q0 -89 27 -89q14 0 27 47t23 98t15 56h2q11 0 31.5 -11.5t20.5 -18.5q0 -10 -10 -67.5t-10 -87.5q0 -60 35 -60q12 0 29 30.5t23 50.5 q7 8 11.5 5.5t4.5 -12.5q2 -14 -20.5 -52.5t-50.5 -39.5h-1q-21 0 -35.5 16t-21 42t-9 47.5t-2.5 42.5h-3z"/>
<glyph glyph-name="acircumflex" horiz-adv-x="274" unicode="â" d="M13 345q100 112 121 112h1q13 -2 53 -38t54 -38q5 -1 13 -1q7 0 12.5 1.5t7.5 2.5l2 2q-2 -5 -5.5 -12t-17.5 -19t-33 -12q-9 0 -26 5q-25 8 -40.5 28t-21.5 35t-10 15q-2 0 -3 -1q-13 -7 -38.5 -38.5t-29.5 -34.5q-12 -10 -25 -10q-3 0 -6.5 1t-5.5 1zM157 108h-3 q-2 -5 -6.5 -22t-9 -29.5t-11 -27t-15.5 -23.5t-20 -10q-5 -1 -16 -1q-71 0 -94 120q-5 32 -5 53q0 76 42 120t101 44h11q51 -4 51 -54l-4 -36q-4 -9 -17 0q0 1 -2.5 19.5t-7.5 31.5t-14 13q-4 0 -6 -1q-31 -28 -47 -85t-16 -109q0 -89 27 -89q14 0 27 47t23 98t15 56h2 q11 0 31.5 -11.5t20.5 -18.5q0 -10 -10 -67.5t-10 -87.5q0 -60 35 -60q12 0 29 30.5t23 50.5q7 8 11.5 5.5t4.5 -12.5q2 -14 -20.5 -52.5t-50.5 -39.5h-1q-21 0 -35.5 16t-21 42t-9 47.5t-2.5 42.5z"/>
<glyph glyph-name="atilde" horiz-adv-x="274" unicode="ã" d="M109 419q13 -2 33.5 -6t34.5 -6.5t24 -2.5q6 0 14 2q8 3 13 7t6 7v2h1q9 0 9 -21q0 -30 -29 -38q-10 -2 -15 -2q-14 0 -31.5 4.5t-38 12t-28.5 9.5q-22 5 -31 5q-18 0 -27 -10l-10 -10q4 13 6.5 20.5t15.5 18t33 10.5q4 0 20 -2zM157 108h-3q-2 -5 -6.5 -22t-9 -29.5 t-11 -27t-15.5 -23.5t-20 -10q-5 -1 -16 -1q-71 0 -94 120q-5 32 -5 53q0 76 42 120t101 44h11q51 -4 51 -54l-4 -36q-4 -9 -17 0q0 1 -2.5 19.5t-7.5 31.5t-14 13q-4 0 -6 -1q-31 -28 -47 -85t-16 -109q0 -89 27 -89q14 0 27 47t23 98t15 56h2q11 0 31.5 -11.5t20.5 -18.5 q0 -10 -10 -67.5t-10 -87.5q0 -60 35 -60q12 0 29 30.5t23 50.5q7 8 11.5 5.5t4.5 -12.5q2 -14 -20.5 -52.5t-50.5 -39.5h-1q-21 0 -35.5 16t-21 42t-9 47.5t-2.5 42.5z"/>
<glyph glyph-name="adieresis" horiz-adv-x="274" unicode="ä" d="M182 350q-48 11 -48 71v9q0 11 12 11q33 0 47 -11.5t14 -49.5q0 -5 -3 -10t-5.5 -7.5t-9 -7t-7.5 -5.5zM55 350q-48 11 -48 71v9q0 11 11 11q34 0 48 -11.5t14 -49.5q0 -5 -3 -10t-5.5 -7.5t-9 -7t-7.5 -5.5zM157 108h-3q-2 -5 -6.5 -22t-9 -29.5t-11 -27t-15.5 -23.5 t-20 -10q-5 -1 -16 -1q-71 0 -94 120q-5 32 -5 53q0 76 42 120t101 44h11q51 -4 51 -54l-4 -36q-4 -9 -17 0q0 1 -2.5 19.5t-7.5 31.5t-14 13q-4 0 -6 -1q-31 -28 -47 -85t-16 -109q0 -89 27 -89q14 0 27 47t23 98t15 56h2q11 0 31.5 -11.5t20.5 -18.5q0 -10 -10 -67.5 t-10 -87.5q0 -60 35 -60q12 0 29 30.5t23 50.5q7 8 11.5 5.5t4.5 -12.5q2 -14 -20.5 -52.5t-50.5 -39.5h-1q-21 0 -35.5 16t-21 42t-9 47.5t-2.5 42.5z"/>
<glyph glyph-name="aring" horiz-adv-x="274" unicode="å" d="M110 422q0 -10 8 -18.5t19 -8.5q12 0 20 8t8 19q0 12 -8 20t-20 8q-11 0 -19 -8t-8 -20zM75 408q0 23 16 39.5t39 16.5t39.5 -16.5t16.5 -39.5t-16.5 -39t-39.5 -16q-22 0 -38.5 16.5t-16.5 38.5zM157 108h-3q-2 -5 -6.5 -22t-9 -29.5t-11 -27t-15.5 -23.5t-20 -10 q-5 -1 -16 -1q-71 0 -94 120q-5 32 -5 53q0 76 42 120t101 44h11q51 -4 51 -54l-4 -36q-4 -9 -17 0q0 1 -2.5 19.5t-7.5 31.5t-14 13q-4 0 -6 -1q-31 -28 -47 -85t-16 -109q0 -89 27 -89q14 0 27 47t23 98t15 56h2q11 0 31.5 -11.5t20.5 -18.5q0 -10 -10 -67.5t-10 -87.5 q0 -60 35 -60q12 0 29 30.5t23 50.5q7 8 11.5 5.5t4.5 -12.5q2 -14 -20.5 -52.5t-50.5 -39.5h-1q-21 0 -35.5 16t-21 42t-9 47.5t-2.5 42.5z"/>
<glyph glyph-name="ae" horiz-adv-x="517" unicode="æ" d="M324 295h-2q-24 0 -47 -72t-23 -112v-10q25 -9 26 -9q4 0 17 9t25.5 42.5t15.5 62.5q3 25 3 46q0 33 -15 43zM455 108q-18 -47 -66 -97t-100 -50q-45 0 -76 51t-34 131q-41 -141 -87 -147q-5 -1 -16 -1q-71 0 -94 120q-5 32 -5 53q0 76 42 120t101 44h11q51 -4 51 -54 l-4 -36q-4 -9 -17 0q0 1 -2 19.5t-7 31.5t-14 13q-4 0 -6 -1q-32 -28 -48 -84.5t-16 -109.5q0 -89 27 -89q14 0 27 47t23 98t15 56h2q6 0 22 -7q10 56 40 83t66 27q25 0 48 -13q55 -34 55 -108q0 -4 -0.5 -11t-0.5 -9q-6 -57 -38 -82t-68 -25q-25 0 -34 9q2 -103 51 -103 q10 0 21 4t21 12t19.5 17t18.5 20.5t16.5 22t14.5 21.5t11.5 18.5t8.5 14.5l4 8q11 4 13 1t4 -15z"/>
<glyph glyph-name="ccedilla" horiz-adv-x="334" unicode="ç" d="M146 -74q-52 6 -89 57.5t-49 145.5q-4 28 -4 57q0 90 39 127t96 37q26 0 54 -7q21 -5 36.5 -21t18.5 -35q2 -14 2 -20q0 -21 -7 -34.5t-14 -13.5q-9 0 -9 19q0 2 1.5 15t1.5 22q0 35 -23 41q-10 2 -15 2q-43 0 -67 -59t-24 -138q0 -71 19.5 -122.5t53.5 -51.5h1 q33 0 74 53.5t66 105.5t26 65q1 0 2 1h2q14 0 14 -17q0 -5 -2 -11q-11 -27 -26.5 -57t-39.5 -67.5t-54.5 -63.5t-60.5 -30q-3 -22 0 -22q1 0 5 0.5t8 0.5q27 0 27 -30q0 -22 -18 -34t-41 -12q-19 0 -29 8q-9 9 -9 19q0 7 3 15t6 12l3 4q-4 -26 30 -44q8 -3 14 -3q13 0 22 10 t9 23t-11 19q-7 4 -14 4q-5 0 -10.5 -2t-8.5 -4l-3 -2h-1l-1 -1q-7 0 -7 19q0 2 3 20z"/>
<glyph glyph-name="egrave" horiz-adv-x="242" unicode="è" d="M19 467h1q40 0 92.5 -56t52.5 -78q0 -2 -1 -3q-13 -13 -12 -9q-4 26 -50 58q-31 22 -62.5 34.5t-47.5 14.5l-15 1l-1 1v3q0 11 9.5 22t33.5 12zM123 295h-2q-24 0 -47 -72t-23 -112v-10q25 -9 26 -9q3 0 17 9q13 9 25.5 42.5t15.5 62.5q3 25 3 46q0 33 -15 43zM254 108 q-18 -47 -66 -97t-100 -50q-48 0 -79.5 57.5t-30.5 145.5q1 83 33.5 122.5t77.5 39.5q25 0 48 -13q55 -34 55 -108q0 -4 -0.5 -11t-0.5 -9q-6 -57 -38 -82t-68 -25q-25 0 -34 9q2 -103 51 -103q10 0 21 4t21 12t19.5 17t18.5 20.5t16.5 22t14.5 21.5t11.5 18.5t8.5 14.5l4 8 q11 4 13 1t4 -15z"/>
<glyph glyph-name="eacute" horiz-adv-x="242" unicode="é" d="M173 470q24 -1 33.5 -12t9.5 -22v-2l-1 -2q-55 -1 -125 -50q-20 -14 -32.5 -28.5t-15.5 -21.5l-2 -8l-1 -1q-2 1 -11 10q-1 1 -1 3q0 22 52.5 78t92.5 56h1zM123 295h-2q-24 0 -47 -72t-23 -112v-10q25 -9 26 -9q3 0 17 9q13 9 25.5 42.5t15.5 62.5q3 25 3 46 q0 33 -15 43zM254 108q-18 -47 -66 -97t-100 -50q-48 0 -79.5 57.5t-30.5 145.5q1 83 33.5 122.5t77.5 39.5q25 0 48 -13q55 -34 55 -108q0 -4 -0.5 -11t-0.5 -9q-6 -57 -38 -82t-68 -25q-25 0 -34 9q2 -103 51 -103q10 0 21 4t21 12t19.5 17t18.5 20.5t16.5 22t14.5 21.5 t11.5 18.5t8.5 14.5l4 8q11 4 13 1t4 -15z"/>
<glyph glyph-name="ecircumflex" horiz-adv-x="242" unicode="ê" d="M-18 337q100 112 121 112h1q13 -2 53 -38t54 -38q5 -1 13 -1q7 0 12.5 1.5t7.5 2.5l2 2q-2 -5 -5.5 -12t-17.5 -19t-33 -12q-9 0 -26 5q-25 8 -40.5 28t-21.5 35t-10 15q-2 0 -3 -1q-13 -7 -38.5 -38.5t-29.5 -34.5q-13 -10 -25 -10q-3 0 -6.5 1t-5.5 1zM123 295h-2 q-24 0 -47 -72t-23 -112v-10q25 -9 26 -9q3 0 17 9q13 9 25.5 42.5t15.5 62.5q3 25 3 46q0 33 -15 43zM254 108q-18 -47 -66 -97t-100 -50q-48 0 -79.5 57.5t-30.5 145.5q1 83 33.5 122.5t77.5 39.5q25 0 48 -13q55 -34 55 -108q0 -4 -0.5 -11t-0.5 -9q-6 -57 -38 -82 t-68 -25q-25 0 -34 9q2 -103 51 -103q10 0 21 4t21 12t19.5 17t18.5 20.5t16.5 22t14.5 21.5t11.5 18.5t8.5 14.5l4 8q11 4 13 1t4 -15z"/>
<glyph glyph-name="edieresis" horiz-adv-x="242" unicode="ë" d="M176 339q-48 11 -48 71v9q0 11 12 11q33 0 47 -11.5t14 -49.5q0 -5 -3 -10t-5.5 -7.5t-9 -7t-7.5 -5.5zM49 339q-48 11 -48 71v9q0 11 11 11q34 0 48 -11.5t14 -49.5q0 -5 -3 -10t-5.5 -7.5t-9 -7t-7.5 -5.5zM123 295h-2q-24 0 -47 -72t-23 -112v-10q25 -9 26 -9 q3 0 17 9q13 9 25.5 42.5t15.5 62.5q3 25 3 46q0 33 -15 43zM254 108q-18 -47 -66 -97t-100 -50q-48 0 -79.5 57.5t-30.5 145.5q1 83 33.5 122.5t77.5 39.5q25 0 48 -13q55 -34 55 -108q0 -4 -0.5 -11t-0.5 -9q-6 -57 -38 -82t-68 -25q-25 0 -34 9q2 -103 51 -103q10 0 21 4 t21 12t19.5 17t18.5 20.5t16.5 22t14.5 21.5t11.5 18.5t8.5 14.5l4 8q11 4 13 1t4 -15z"/>
<glyph glyph-name="igrave" horiz-adv-x="173" unicode="ì" d="M-13 457h1q40 0 92.5 -56t52.5 -78q0 -2 -1 -3q-13 -13 -12 -9q-4 26 -50 58q-31 22 -62.5 34.5t-47.5 14.5l-15 1l-1 1v3q0 11 9.5 22t33.5 12zM176 92q17 8 22 -11q-52 -108 -103 -126q-5 -2 -13 -2q-25 0 -43.5 26t-28.5 56q-28 105 -28 191q0 32 3 68q9 24 50 24 q19 0 36 -4.5t17 -8.5l-1 -1q-4 -3 -10.5 -31t-12 -75t-5.5 -91q0 -83 19 -133q4 -2 7 -2q24 0 77 92z"/>
<glyph glyph-name="iacute" horiz-adv-x="173" unicode="í" d="M140 484q24 -1 33.5 -12t9.5 -22q0 -1 -1 -2v-2q-55 -1 -125 -50q-20 -14 -32.5 -28.5t-14.5 -21.5l-3 -8l-1 -1q-2 1 -11 10q-1 1 -1 3q0 22 52.5 78t92.5 56h1zM176 92q17 8 22 -11q-52 -108 -103 -126q-5 -2 -13 -2q-25 0 -43.5 26t-28.5 56q-28 105 -28 191 q0 32 3 68q9 24 50 24q19 0 36 -4.5t17 -8.5l-1 -1q-4 -3 -10.5 -31t-12 -75t-5.5 -91q0 -83 19 -133q4 -2 7 -2q24 0 77 92z"/>
<glyph glyph-name="icircumflex" horiz-adv-x="173" unicode="î" d="M-50 316q100 112 121 112h1q13 -2 53 -38t54 -38q5 -1 13 -1q7 0 12.5 1.5t7.5 3.5l2 1q-2 -5 -5.5 -12t-17.5 -19t-33 -12q-9 0 -26 5q-25 8 -40.5 28t-21.5 35t-10 15q-2 0 -3 -1q-13 -7 -38.5 -38.5t-29.5 -34.5q-12 -10 -25 -10q-3 0 -6.5 1t-5.5 2h-2zM162 64l14 28 q17 8 22 -11q-52 -108 -103 -126q-5 -2 -13 -2q-25 0 -43.5 26t-28.5 56q-28 105 -28 191q0 32 3 68q9 24 50 24q19 0 36 -4.5t17 -8.5l-1 -1q-4 -3 -10.5 -31t-12 -75t-5.5 -91q0 -83 19 -133q4 -2 7 -2q24 0 77 92z"/>
<glyph glyph-name="idieresis" horiz-adv-x="173" unicode="ï" d="M105 329q-48 11 -48 71v9q0 11 12 11q33 0 47 -11.5t14 -49.5q0 -5 -3 -10t-5.5 -7.5t-9 -7t-7.5 -5.5zM-22 329q-48 11 -48 71v9q0 11 11 11q34 0 48 -11.5t14 -49.5q0 -5 -3 -10t-5.5 -7.5t-9 -7t-7.5 -5.5zM162 64l14 28q17 8 22 -11q-52 -108 -103 -126q-5 -2 -13 -2 q-25 0 -43.5 26t-28.5 56q-28 105 -28 191q0 32 3 68q9 24 50 24q19 0 36 -4.5t17 -8.5l-1 -1q-4 -3 -10.5 -31t-12 -75t-5.5 -91q0 -83 19 -133q4 -2 7 -2q24 0 77 92z"/>
<glyph glyph-name="eth" horiz-adv-x="371" unicode="ð" d="M242 204l-5 -10q-5 -10 -10.5 -22t-7.5 -15l1 3v4q0 38 -46 48q-8 2 -13 2q-25 0 -39.5 -21.5t-14.5 -51.5q0 -23 8 -40q15 -34 43.5 -58t55.5 -24q10 0 20 5q23 12 23 69q0 23 -3.5 50.5t-7 44t-4.5 16.5zM222 -5q-100 0 -150 45t-50 108q0 55 33.5 96t85.5 41 q49 0 91 -28q-12 33 -34 72q-14 24 -34 46l-76 -44q1 2 0.5 3t-1.5 5t-1 7q0 16 18 27q3 2 15.5 10t21.5 14q-30 26 -75 43q-11 4 -21 4q-27 0 -36 -35q-7 18 -7 35q0 38 47 45h7q42 0 83 -18q33 -15 63 -36l63 39q3 -6 3 -15q0 -19 -20 -33l-21 -13q37 -33 66 -75 q77 -110 77 -209q0 -61 -36 -97.5t-112 -36.5z"/>
<glyph glyph-name="ntilde" horiz-adv-x="324" unicode="ñ" d="M96 432q13 -2 33.5 -6t34.5 -6.5t24 -2.5q6 0 14 2q8 3 13 7t5 6l1 3h1q9 0 9 -21q0 -30 -29 -38q-10 -2 -15 -2q-14 0 -31.5 4.5t-38 12t-28.5 9.5q-22 5 -31 5q-18 0 -27 -10l-10 -10q4 13 6.5 20.5t15.5 18t33 10.5q4 0 20 -2zM-28 294q0 21 20 33t46 12q10 0 26 -4 q-7 -26 -12 -133q0 -5 -0.5 -16t-0.5 -17q0 -137 25 -168q-7 49 -7 84q0 51 22 121t62 74q3 0 8 0.5t7 0.5q85 0 85 -104q0 -41 -16 -123.5t-16 -106.5q0 -38 24 -38h2q34 1 82 129l18 -12q-48 -139 -108 -139q-87 1 -87 137q0 38 7.5 106t7.5 88q0 37 -16 37h-2 q-30 -8 -45.5 -70.5t-15.5 -108.5q0 -16 3 -46t3 -40q0 -25 -12 -29q-2 -1 -7 -1q-17 0 -27 17q-41 82 -53 126q-14 51 -19 123q-4 54 -4 68z"/>
<glyph glyph-name="ograve" horiz-adv-x="320" unicode="ò" d="M80 467h1q40 0 92.5 -56t52.5 -78q0 -2 -1 -3q-13 -13 -12 -9q-4 26 -50 58q-31 22 -62.5 34.5t-46.5 14.5l-16 1v1q-1 2 -1 3q0 11 9.5 22t33.5 12zM152 197q3 -14 7 -24.5t7 -14.5l2 -3l-8 96q-10 -10 -10 -38q0 -4 2 -16zM156 280q-6 26 -18 26q-4 0 -6 -1 q-32 -28 -48 -85t-16 -109q0 -40 18 -70t39 -30q18 0 30 27.5t12 85.5v8q-38 43 -38 93q0 26 4.5 38.5t22.5 16.5zM-17 115q-5 24 -5 54q0 76 41.5 119.5t100.5 43.5h11q48 -2 50 -49q36 0 54 -21q14 -46 14 -92q0 -29 -7 -62q13 1 25.5 12.5t18.5 21.5t15 29l9 19 q10 19 15 9q1 -2 1 -5q0 -8 -9 -30.5t-31 -47t-48 -24.5h-2q-18 -50 -54.5 -78.5t-76.5 -28.5q-43 0 -76.5 33t-45.5 97z"/>
<glyph glyph-name="oacute" horiz-adv-x="320" unicode="ó" d="M206 479q24 -1 33.5 -12t9.5 -22q0 -1 -1 -3v-1q-55 -1 -125 -50q-20 -14 -32.5 -28.5t-14.5 -22.5l-3 -7l-1 -1q-2 1 -11 10q-1 1 -1 3q0 22 52.5 78t92.5 56h1zM152 197q3 -14 7 -24.5t7 -14.5l2 -3l-8 96q-10 -10 -10 -38q0 -4 2 -16zM156 280q-6 26 -18 26 q-4 0 -6 -1q-32 -28 -48 -85t-16 -109q0 -40 18 -70t39 -30q18 0 30 27.5t12 85.5v8q-38 43 -38 93q0 26 4.5 38.5t22.5 16.5zM-17 115q-5 24 -5 54q0 76 41.5 119.5t100.5 43.5h11q48 -2 50 -49q36 0 54 -21q14 -46 14 -92q0 -29 -7 -62q13 1 25.5 12.5t18.5 21.5t15 29 l9 19q10 19 15 9q1 -2 1 -5q0 -8 -9 -30.5t-31 -47t-48 -24.5h-2q-18 -50 -54.5 -78.5t-76.5 -28.5q-43 0 -76.5 33t-45.5 97z"/>
<glyph glyph-name="ocircumflex" horiz-adv-x="320" unicode="ô" d="M11 324q100 112 121 112h1q13 -2 53 -38t54 -38q5 -1 13 -1q7 0 12.5 1.5t7.5 3.5l2 1q-2 -5 -5.5 -12t-17.5 -19t-33 -12q-9 0 -26 5q-25 8 -40.5 28t-21.5 35t-10 15q-2 0 -3 -1q-13 -7 -38.5 -38.5t-29.5 -34.5q-12 -10 -25 -10q-3 0 -6.5 1t-5.5 2h-2zM152 197 q3 -14 7 -24.5t7 -14.5l2 -3l-8 96q-10 -10 -10 -38q0 -4 2 -16zM156 280q-6 26 -18 26q-4 0 -6 -1q-32 -28 -48 -85t-16 -109q0 -40 18 -70t39 -30q18 0 30 27.5t12 85.5v8q-38 43 -38 93q0 26 4.5 38.5t22.5 16.5zM-17 115q-5 24 -5 54q0 76 41.5 119.5t100.5 43.5h11 q48 -2 50 -49q36 0 54 -21q14 -46 14 -92q0 -29 -7 -62q13 1 25.5 12.5t18.5 21.5t15 29l9 19q10 19 15 9q1 -2 1 -5q0 -8 -9 -30.5t-31 -47t-48 -24.5h-2q-18 -50 -54.5 -78.5t-76.5 -28.5q-43 0 -76.5 33t-45.5 97z"/>
<glyph glyph-name="otilde" horiz-adv-x="320" unicode="õ" d="M129 401q13 -2 33.5 -6t34.5 -6.5t24 -2.5q6 0 14 2q8 3 13 7t6 7v2h1q9 0 9 -21q0 -30 -29 -38q-10 -2 -15 -2q-14 0 -31.5 4.5t-38 12t-28.5 9.5q-22 5 -31 5q-18 0 -27 -10l-10 -10q4 13 6.5 20.5t15.5 18t33 10.5q4 0 20 -2zM152 197q3 -14 7 -24.5t7 -14.5l2 -3 l-8 96q-10 -10 -10 -38q0 -4 2 -16zM156 280q-6 26 -18 26q-4 0 -6 -1q-32 -28 -48 -85t-16 -109q0 -40 18 -70t39 -30q18 0 30 27.5t12 85.5v8q-38 43 -38 93q0 26 4.5 38.5t22.5 16.5zM-17 115q-5 24 -5 54q0 76 41.5 119.5t100.5 43.5h11q48 -2 50 -49q36 0 54 -21 q14 -46 14 -92q0 -29 -7 -62q13 1 25.5 12.5t18.5 21.5t15 29l9 19q10 19 15 9q1 -2 1 -5q0 -8 -9 -30.5t-31 -47t-48 -24.5h-2q-18 -50 -54.5 -78.5t-76.5 -28.5q-43 0 -76.5 33t-45.5 97z"/>
<glyph glyph-name="odieresis" horiz-adv-x="320" unicode="ö" d="M199 343q-48 11 -48 71v9q0 11 12 11q33 0 47 -11.5t14 -49.5q0 -5 -3 -10t-5.5 -7.5t-9 -7t-7.5 -5.5zM72 343q-48 11 -48 71v9q0 11 11 11q34 0 48 -11.5t14 -49.5q0 -5 -3 -10t-5.5 -7.5t-9 -7t-7.5 -5.5zM152 197q3 -14 7 -24.5t7 -14.5l2 -3l-8 96q-10 -10 -10 -38 q0 -4 2 -16zM156 280q-6 26 -18 26q-4 0 -6 -1q-32 -28 -48 -85t-16 -109q0 -40 18 -70t39 -30q18 0 30 27.5t12 85.5v8q-38 43 -38 93q0 26 4.5 38.5t22.5 16.5zM-17 115q-5 24 -5 54q0 76 41.5 119.5t100.5 43.5h11q48 -2 50 -49q36 0 54 -21q14 -46 14 -92q0 -29 -7 -62 q13 1 25.5 12.5t18.5 21.5t15 29l9 19q10 19 15 9q1 -2 1 -5q0 -8 -9 -30.5t-31 -47t-48 -24.5h-2q-18 -50 -54.5 -78.5t-76.5 -28.5q-43 0 -76.5 33t-45.5 97z"/>
<glyph glyph-name="divide" horiz-adv-x="64" unicode="÷" d="M185 199h-308q-9 7 -9 17q0 9 9 21h308q11 -9 11 -18t-11 -20zM39 274q-32 7 -32 47v7q0 8 8 8q22 0 31.5 -7.5t9.5 -33.5q0 -7 -17 -21zM40 101q-32 6 -32 47v7q0 7 7 7q23 0 32.5 -7.5t9.5 -33.5q0 -3 -2 -6.5t-4 -5.5t-6 -4.5t-5 -3.5z"/>
<glyph glyph-name="oslash" horiz-adv-x="320" unicode="ø" d="M-17 115q-5 24 -5 54q0 76 41.5 119.5t100.5 43.5h11q21 -2 31 -9l6 12q19 34 26 37l2 -1q2 -1 5.5 -2l7 -2t7.5 -2t7 -2l4.5 -1.5t1.5 -1.5q-9 -11 -39 -77q30 -4 45 -21q14 -46 14 -92q0 -29 -7 -62q13 1 25.5 12.5t18.5 21.5t15 29l9 19q10 19 15 9q1 -2 1 -5 q0 -8 -9 -30.5t-31 -47t-48 -24.5h-2q-18 -50 -54.5 -78.5t-76.5 -28.5q-7 0 -21 2q-10 -38 -18 -82q-1 -9 -6 -9t-10.5 18t-6.5 38v11q0 27 2 41q-48 33 -62 111zM149 299q-5 7 -11 7q-4 0 -6 -1q-32 -28 -48 -85t-16 -109v-7q31 97 81 195zM95 29q15 -18 30 -18 q18 0 30 27.5t12 85.5v8q-17 19 -25 37q-25 -61 -31 -83q-2 -9 -7.5 -28t-8.5 -29zM153 194q3 -13 6.5 -22.5t6.5 -13.5l2 -3q-4 34 -6 62q-2 -4 -5 -11.5t-4 -11.5z"/>
<glyph glyph-name="ugrave" horiz-adv-x="323" unicode="ù" d="M4 466h1q40 0 92.5 -56t52.5 -78q0 -2 -1 -3q-13 -13 -12 -9q-4 26 -50 58q-31 22 -62.5 34.5t-46.5 13.5l-16 2v2q-1 1 -1 2q0 11 9.5 22t33.5 12zM331 132q14 7 19 -7q-33 -96 -75 -114q-7 -3 -15 -3q-19 0 -36 20.5t-26 42.5q-10 23 -21 56q0 -82 -27 -138.5 t-61 -56.5h-3q-35 3 -55.5 28.5t-26 65t-6 79.5t-1.5 83.5t-7 65.5q40 6 52 6q30 0 38 -25q6 -22 6 -53q0 -32 -7.5 -96.5t-7.5 -86.5q0 -43 20 -43h4q62 10 62 244q0 23 -2 85q7 25 50 25q30 -1 35 -9q-11 -7 -11 -97q0 -116 30 -179q2 -2 6 -2q15 0 37 41q30 52 29 68z "/>
<glyph glyph-name="uacute" horiz-adv-x="323" unicode="ú" d="M220 439q24 -1 33.5 -12t9.5 -22q0 -1 -1 -3v-1q-55 -1 -125 -50q-20 -14 -32.5 -28.5t-14.5 -22.5l-3 -7l-1 -1q-2 1 -11 10q-1 1 -1 3q0 22 52.5 78t92.5 56h1zM331 132q14 7 19 -7q-33 -96 -75 -114q-7 -3 -15 -3q-19 0 -36 20.5t-26 42.5q-10 23 -21 56 q0 -82 -27 -138.5t-61 -56.5h-3q-35 3 -55.5 28.5t-26 65t-6 79.5t-1.5 83.5t-7 65.5q40 6 52 6q30 0 38 -25q6 -22 6 -53q0 -32 -7.5 -96.5t-7.5 -86.5q0 -43 20 -43h4q62 10 62 244q0 23 -2 85q7 25 50 25q30 -1 35 -9q-11 -7 -11 -97q0 -116 30 -179q2 -2 6 -2 q15 0 37 41q30 52 29 68z"/>
<glyph glyph-name="ucircumflex" horiz-adv-x="323" unicode="û" d="M-16 321q100 112 121 112h1q13 -2 53 -38t54 -38q5 -1 13 -1q7 0 12.5 1.5t7.5 2.5l2 2q-2 -5 -5.5 -12t-17.5 -19t-33 -12q-9 0 -26 5q-25 8 -40.5 28t-21.5 35t-10 15q-2 0 -3 -1q-13 -7 -38.5 -38.5t-29.5 -34.5q-13 -10 -25 -10q-3 0 -6.5 1t-5.5 1zM331 132 q14 7 19 -7q-33 -96 -75 -114q-7 -3 -15 -3q-19 0 -36 20.5t-26 42.5q-10 23 -21 56q0 -82 -27 -138.5t-61 -56.5h-3q-35 3 -55.5 28.5t-26 65t-6 79.5t-1.5 83.5t-7 65.5q40 6 52 6q30 0 38 -25q6 -22 6 -53q0 -32 -7.5 -96.5t-7.5 -86.5q0 -43 20 -43h4q62 10 62 244 q0 23 -2 85q7 25 50 25q30 -1 35 -9q-11 -7 -11 -97q0 -116 30 -179q2 -2 6 -2q15 0 37 41q30 52 29 68z"/>
<glyph glyph-name="udieresis" horiz-adv-x="323" unicode="ü" d="M172 313q-48 11 -48 71v9q0 11 12 11q33 0 47 -11.5t14 -49.5q0 -5 -3 -10t-5.5 -7.5t-9 -7t-7.5 -5.5zM45 313q-48 11 -48 71v9q0 11 11 11q34 0 48 -11.5t14 -49.5q0 -5 -3 -10t-5.5 -7.5t-9 -7t-7.5 -5.5zM331 132q14 7 19 -7q-33 -96 -75 -114q-7 -3 -15 -3 q-19 0 -36 20.5t-26 42.5q-10 23 -21 56q0 -82 -27 -138.5t-61 -56.5h-3q-35 3 -55.5 28.5t-26 65t-6 79.5t-1.5 83.5t-7 65.5q40 6 52 6q30 0 38 -25q6 -22 6 -53q0 -32 -7.5 -96.5t-7.5 -86.5q0 -43 20 -43h4q62 10 62 244q0 23 -2 85q7 25 50 25q30 -1 35 -9 q-11 -7 -11 -97q0 -116 30 -179q2 -2 6 -2q15 0 37 41q30 52 29 68z"/>
<glyph glyph-name="yacute" horiz-adv-x="310" unicode="ý" d="M242 444q24 -1 33.5 -12t9.5 -22q0 -1 -1 -2v-2q-55 -1 -125 -50q-20 -14 -32.5 -28.5t-14.5 -21.5l-3 -8l-1 -1q-2 1 -11 10q-1 1 -1 3q0 22 52.5 78t92.5 56h1zM150 -50q-13 -8 -45 -37t-54 -61q-53 -73 -53 -113q0 -16 11 -16q4 0 10 3q40 20 69 70q49 85 62 154z M347 118q-11 -35 -36.5 -61t-46.5 -38.5t-21 -13.5q-24 -165 -46 -221q-38 -100 -119 -100q-34 0 -81 18q-10 6 -13.5 9t-6.5 8.5t-3 14.5v8q2 25 13.5 50t22.5 41t32 41q37 48 114 107q35 124 45 248q-20 -98 -58 -164.5t-82 -66.5q-1 0 -3.5 0.5t-3.5 0.5q-56 8 -56 124 q0 50 9 88q13 54 52 54q24 0 47 -23l-22 -47q-22 -51 -22 -112q0 -48 25 -48h3q27 3 63.5 110t52.5 185q29 0 30 -14q12 -96 12 -175q0 -49 -5 -114q15 9 25 17t27.5 30.5t37.5 57.5q5 5 10 5q7 0 7 -9q0 -4 -3 -10z"/>
<glyph glyph-name="thorn" horiz-adv-x="57" unicode="þ" d="M35 109v9q-27 -7 -45.5 -40t-18.5 -60q0 -21 11 -22h2q13 0 32 47t19 66zM-57 -86l46 -125q1 -3 1 -10q0 -25 -31 -29q-11 2 -29 46t-37.5 123.5t-29.5 164.5q-11 87 -11 166q0 39 3 72q18 137 55 202q8 8 27 8q21 0 41 -9.5t26 -25.5l-6 -9q-6 -10 -15 -26t-20 -39 t-21.5 -55.5t-19.5 -69t-14.5 -85t-5.5 -99.5q0 -30 1 -45q0 2 2.5 21t4 27.5t5.5 29t8 31.5t10.5 28.5t14.5 27.5t18.5 20.5t24 15t29.5 4.5q29 0 49.5 -14.5t29 -38t11.5 -42.5t3 -39h1q18 0 57.5 -13t40.5 -26q0 -1 0.5 -2t0.5 -2q0 -4 -6 -4q-7 0 -24 7q-28 13 -72 20 q0 -20 -2.5 -43.5t-9.5 -53.5t-22 -49.5t-37 -19.5q-4 0 -14 2q-74 13 -74 68q0 24 14 52q24 47 72 65q3 8 3 31q0 21 -8 45t-23 26h-4q-35 0 -55 -72.5t-20 -159.5q0 -65 12 -97z"/>
<glyph glyph-name="OE" horiz-adv-x="881" unicode="Œ" d="M274 461q-55 -1 -91.5 -30.5t-65.5 -105.5q-29 -77 -29 -203q0 -91 22 -152t67 -61h4q37 4 88 87q67 132 90 264l4 21q5 37 5 66q0 15 -1 22q-5 68 -31.5 95t-59.5 27q-8 0 -18 -2q2 -2 8.5 -14.5t7.5 -13.5zM225 505q7 -2 11 -5q31 11 66 11q80 0 120 -66q24 47 54 75 q-6 -1 -26.5 -8t-28.5 -8h-3q-46 0 -46 35q0 11 4 23.5t8 19.5l4 8q0 -1 0.5 -3t3.5 -7.5t8.5 -9.5t17.5 -7t29 -3q20 0 43 4q32 6 72 6q37 0 62 -5q41 -5 69 -30t31 -63q1 -6 1 -18q0 -31 -11.5 -55t-26.5 -35.5t-33 -18.5t-27.5 -8.5t-13.5 -1.5q-1 0 11.5 31t26.5 72.5 t14 62.5q0 16 -7 20q-6 3 -12 3q-21 0 -47.5 -36t-68.5 -114q-28 -52 -52 -147q32 -5 55 -5q13 0 19 1q33 3 51.5 11.5t20.5 15.5l2 6q16 -21 16 -44q0 -39 -58 -53q-16 -4 -38 -4q-39 0 -81 14q-11 -60 -11 -112q0 -130 70 -134h2q24 0 56.5 27.5t61 66.5t54 78.5 t40.5 66.5l15 28l12 -10q-21 -65 -61 -122.5t-101 -124.5q-39 -35 -79 -35q-39 0 -74 31t-60 84q-33 -56 -72 -85t-58 -29h-1q-26 2 -34 6q-26 -19 -55 -19q-69 0 -125 91.5t-56 214.5q0 51 10 98q23 109 79.5 164t117.5 55q11 0 29 -4z"/>
<glyph glyph-name="oe" horiz-adv-x="545" unicode="œ" d="M322 295h-2q-24 0 -47 -72t-23 -112v-10q25 -9 26 -9q4 0 17 9t25.5 42.5t15.5 62.5q3 25 3 46q0 33 -15 43zM453 108q-18 -47 -66 -97t-100 -50q-54 0 -86 71q-41 -47 -96 -47q-43 0 -77 33t-46 97q-5 32 -5 53q0 76 42 120t101 44h11q48 -3 50 -49q9 0 25 -4 q31 47 82 47q25 0 48 -13q55 -34 55 -108q0 -4 -0.5 -11t-0.5 -9q-6 -57 -38 -82t-68 -25q-25 0 -34 9q2 -103 51 -103q10 0 21 4t21 12t19.5 17t18.5 20.5t16.5 22t14.5 21.5t11.5 18.5t8.5 14.5l4 8q11 4 13 1t4 -15zM152 197q3 -14 7 -24.5t7 -14.5l2 -3l-8 96 q-10 -10 -10 -38q0 -4 2 -16zM155 280q-6 26 -17 26q-4 0 -6 -1q-32 -28 -48 -84.5t-16 -109.5q0 -40 17.5 -70t38.5 -30q18 0 30.5 28t12.5 87v6q-38 43 -38 93q0 17 1 26t7 17.5t18 11.5z"/>
<glyph glyph-name="Scaron" horiz-adv-x="386" unicode="Š" d="M133 680q-10 16 -20 27t-15.5 14.5t-8.5 4.5l6 3q6 3 12.5 6.5t15.5 6t17 2.5q18 0 26 -15q8 -16 16.5 -45t12.5 -50l4 -21q99 118 111 121h2l2 1q4 0 7 -2.5t5 -5.5l1 -3q-124 -142 -134 -142q-2 0 -6.5 6t-11 17.5t-13 22.5t-15.5 27t-14 25zM266 41q-1 0 -28 3 q-136 -52 -151 -82q-2 -4 -2 -10q0 -27 67 -27q42 0 86 12.5t69 33.5q21 18 21 33q0 10 -9.5 17.5t-20.5 11t-22 5.5zM405 117v-16q-8 -3 -38 -12.5t-48 -15.5q14 -17 23 -38q19 -52 19 -84q0 -40 -29.5 -65t-97.5 -45q-32 -9 -58 -9q-56 0 -90 33.5t-34 75.5q0 11 3 21 q9 35 149 89q-118 27 -177.5 98t-59.5 157q0 80 48 142q40 52 98.5 81t114.5 29q45 0 78 -20t44 -59q15 -57 15 -95q0 -65 -32.5 -92t-83.5 -35q-11 -2 -31 -2q-56 0 -90.5 28.5t-34.5 52.5q0 8 6 11q1 0 6 -0.5t8 -0.5q24 0 57.5 4.5t71 13t63 26t25.5 39.5q0 9 -3 16 q-9 22 -47.5 36t-86.5 14q-50 0 -93.5 -16t-64.5 -49q-27 -42 -27 -88q0 -77 62 -128q19 -15 109.5 -52.5t127.5 -74.5q14 5 32 10.5t38 11t28 8.5z"/>
<glyph glyph-name="scaron" horiz-adv-x="234" unicode="š" d="M40 477q-10 16 -20 27t-15.5 14.5t-8.5 4.5l6 3q6 3 12.5 6.5t15.5 6t17 2.5q19 0 26 -15q8 -16 16.5 -45t12.5 -50l4 -21q99 118 111 121q1 0 3 1h1q4 0 7.5 -3t4.5 -5l1 -3q-124 -142 -134 -142q-2 0 -6.5 6t-11 17.5t-13 22.5t-15.5 27t-14 25zM-6 -221 q44 0 64.5 23.5t29.5 61.5q1 5 1 16q0 37 -21 98q-39 -16 -88.5 -68.5t-49.5 -83.5q0 -22 16.5 -34.5t47.5 -12.5zM247 57q9 -1 9 -5q0 -3 -9 -12q-60 -7 -90 -20q31 -78 31 -129q0 -104 -124 -131q-22 -5 -45 -5q-45 0 -77 18t-32 56q0 49 44.5 94.5t106.5 78.5 q-95 188 -95 253q0 10 1 15q5 31 25 57t62 29q2 0 7 0.5t8 0.5q57 0 95.5 -30.5t38.5 -73.5q0 -50 -54 -93q-8 -7 -21 -7q-19 0 -19 9q0 3 1 4q19 33 19 83q0 39 -15.5 65.5t-47.5 26.5q-8 0 -12 -1q-12 -2 -28 -20t-16 -45q0 -30 23 -64q94 -137 116 -173q48 14 98 19z"/>
<glyph glyph-name="Ydieresis" horiz-adv-x="583" unicode="Ÿ" d="M346 479q-48 11 -48 71v9q0 11 12 11q33 0 47 -11.5t14 -49.5q0 -5 -3 -10t-5.5 -7.5t-9 -7t-7.5 -5.5zM219 479q-48 11 -48 71v9q0 11 11 11q34 0 48 -11.5t14 -49.5q0 -5 -3 -10t-5.5 -7.5t-9 -7t-7.5 -5.5zM171 80q-3 -9 -3 -29q0 -22 4 -47.5t13 -53t26 -45.5t40 -18 q6 0 6 30q0 46 -24 248q-55 2 -92.5 38.5t-52.5 80.5t-34 99.5t-37 79.5q50 10 69 10q27 0 45 -15q22 -11 36.5 -55.5t23 -90t32.5 -82t63 -36.5h7q-4 12 -4 24q0 47 27 124t69.5 140t78.5 63q30 0 27 -18q-77 -37 -123.5 -138t-56.5 -196q8 -64 8 -139q0 -187 -63 -187 q-4 0 -12 2q-51 14 -89 62t-38 92v8q1 12 5.5 21t8 13.5t13.5 8t12.5 4t14.5 2.5z"/>
<glyph glyph-name="circumflex" horiz-adv-x="258" unicode="ˆ" d="M-16 374q100 112 121 112h1q13 -2 53 -38t54 -38q5 -1 13 -1q7 0 12.5 1.5t7.5 3.5l2 1q-2 -5 -5.5 -12t-17.5 -19t-33 -12q-9 0 -26 5q-25 8 -40.5 28t-21.5 35t-10 15q-2 0 -3 -1q-13 -7 -38.5 -38.5t-29.5 -34.5q-13 -10 -25 -10q-3 0 -6.5 1t-5.5 2h-2z"/>
<glyph glyph-name="tilde" horiz-adv-x="234" unicode="˜" d="M79 498q13 -2 33.5 -6t34.5 -6.5t24 -2.5q6 0 14 2q8 3 13 7t6 6v3h1q9 0 9 -21q0 -30 -29 -38q-10 -2 -15 -2q-14 0 -31.5 4.5t-38 12t-28.5 9.5q-22 5 -31 5q-18 0 -27 -10l-10 -10q4 13 6.5 20.5t15.5 18t33 10.5q4 0 20 -2z"/>
<glyph glyph-name="endash" horiz-adv-x="379" unicode="–" d="M93 207q63 -3 193 -3q58 0 63 1q6 2 10.5 5t5.5 5l1 2q2 -5 2 -11q0 -26 -38 -31q-11 -2 -47 -2q-33 0 -103.5 2.5t-89.5 2.5h-17q-19 -2 -40 -2h-10l1 2q2 3 3 5t3.5 5t5.5 5.5t8 5t10.5 4.5t13.5 3t17 1h8zM23 176l-1 -1q0 1 1 1z"/>
<glyph glyph-name="emdash" horiz-adv-x="489" unicode="—" d="M23 170l1 1zM116 206q90 -5 247 -5q81 0 92 3q8 2 13.5 5t7.5 5l1 3q3 -6 3 -13q0 -28 -50 -34q-15 -2 -65 -2q-47 0 -144 3t-118 3h-13q-29 -3 -57 -3h-9q18 35 82 35h10z"/>
<glyph glyph-name="quoteleft" horiz-adv-x="96" unicode="‘" d="M63 382q-11 -6 -19 -6q-15 0 -24.5 14.5t-9.5 34.5q0 29 18 43q24 21 53 21q9 0 9 -3q-1 -2 -27.5 -18.5t-24.5 -27.5q0 6 14 7q18 0 28 -23q2 -6 2 -9q0 -20 -19 -33z"/>
<glyph glyph-name="quotesinglbase" horiz-adv-x="86" unicode="‚" d="M15 53q9 12 21 12q15 0 27 -20t12 -44q0 -18 -8 -30q-9 -14 -23 -14q-19 0 -27 12q-2 5 22 0q20 0 20 31v8q0 -6 -11 -11q-6 -2 -8 -2q-13 0 -26 13q-7 8 -7 22t8 23z"/>
<glyph glyph-name="quotedblleft" horiz-adv-x="179" unicode="“" d="M142 382q-11 -6 -19 -6q-15 0 -24.5 14.5t-9.5 34.5q0 29 18 43q24 21 53 21q9 0 9 -3q-1 -2 -27.5 -18.5t-24.5 -27.5q0 6 14 7q18 0 28 -23q2 -6 2 -9q0 -20 -19 -33zM63 382q-11 -6 -19 -6q-15 0 -24.5 14.5t-9.5 34.5q0 29 18 43q24 21 53 21q9 0 9 -3 q-1 -2 -27.5 -18.5t-24.5 -27.5q0 6 14 7q18 0 28 -23q2 -6 2 -9q0 -20 -19 -33z"/>
<glyph glyph-name="quotedblright" horiz-adv-x="179" unicode="”" d="M116 484q10 6 19 6q15 0 24.5 -14.5t9.5 -34.5q0 -29 -18 -43q-26 -22 -53 -22q-8 0 -8 3t27 19.5t24 27.5q-2 -6 -14 -7q-18 0 -28 23q-2 6 -2 9q0 20 19 33zM37 484q10 6 19 6q15 0 24.5 -14.5t9.5 -34.5q0 -29 -18 -43q-26 -22 -53 -22q-9 0 -9 3q0 4 27 19.5t25 26.5 q-3 -5 -14 -6q-18 0 -28 23q-2 6 -2 9q0 20 19 33z"/>
<glyph glyph-name="dagger" horiz-adv-x="172" unicode="†" d="M-8 361l1 4q1 4 3 8t9 8t17 4q30 0 53 1v117q5 8 9 8q5 0 13 -8v-117h86q0 -3 -1.5 -7.5t-9.5 -12t-22 -7.5q-11 -1 -53 -1v-502q-5 -8 -11 -8q-5 0 -11 8v503q-15 0 -38 0.5t-34 0.5z"/>
<glyph glyph-name="daggerdbl" horiz-adv-x="172" unicode="‡" d="M31 69q24 0 44 1v211q-69 0 -69 2v3q1 2 2 5.5t3.5 7t7.5 6t12 2.5q24 0 44 1v195q5 8 9 8q5 0 13 -8v-195l72 1q-2 -27 -28 -28q-9 -1 -44 -1v-210l72 1q-2 -27 -28 -28q-9 -1 -44 -1v-186q-5 -8 -11 -8q-5 0 -11 8v187q-69 0 -69 2v2.5t1.5 5.5t4 7.5t7.5 6t12 2.5z "/>
<glyph glyph-name="ellipsis" horiz-adv-x="191" unicode="…" d="M167 -42q-32 7 -32 47v7q0 8 8 8q22 0 31.5 -8t9.5 -34q0 -8 -17 -20zM104 -42q-33 8 -33 54q0 8 8 8q22 0 31.5 -8t9.5 -34q0 -7 -16 -20zM40 -42q-32 7 -32 47v7q0 8 7 8q22 0 32 -8t10 -34q0 -6 -17 -20z"/>
<glyph glyph-name="perthousand" horiz-adv-x="384" unicode="‰" d="M206 468q1 -2 18 -6.5t17 -5.5q0 -11 -56.5 -136t-60.5 -139q-33 -109 -46 -180q-1 -10 -6 -10t-10.5 18t-6.5 38v9q0 75 37 178t88 196q19 33 26 38zM32 290q16 0 34 35.5t18 62.5q0 20 -13 20q-22 0 -39.5 -30.5t-17.5 -59.5q0 -28 18 -28zM88 430q37 0 37 -36t-31 -79 t-61 -43q-33 0 -33 48q0 39 24.5 74.5t63.5 35.5zM286 48q16 0 34 35.5t18 62.5q0 20 -13 20q-22 0 -39.5 -30.5t-17.5 -59.5q0 -28 18 -28zM342 188q37 0 37 -37q0 -36 -31 -79t-61 -43q-33 0 -33 47q0 40 24.5 76t63.5 36zM172 48q16 0 34 35.5t18 62.5q0 20 -13 20 q-22 0 -39.5 -30.5t-17.5 -59.5q0 -28 18 -28zM228 188q37 0 37 -37q0 -36 -31 -79t-61 -43q-33 0 -33 48q0 40 24.5 75.5t63.5 35.5z"/>
<glyph glyph-name="guilsinglleft" horiz-adv-x="272" unicode="‹" d="M255 359l6 -12q3 -8 3 -15q0 -3 -2 -9q-4 -9 -97.5 -72.5t-113.5 -75.5q2 -2 46.5 -34t92.5 -67t61 -45q15 -11 15 -28q0 -8 -3 -16t-6 -12l-3 -4l-251 209q252 178 252 181z"/>
<glyph glyph-name="guilsinglright" horiz-adv-x="272" unicode="›" d="M14 359l253 -181l-252 -209q-12 15 -12 32t15 28l199 146q-204 136 -209 148q-2 6 -2 10q0 6 2 12.5t4 10.5z"/>
<glyph glyph-name="fraction" horiz-adv-x="131" unicode="⁄" d="M130 468q1 -2 18 -6.5t17 -5.5q0 -11 -56.5 -136t-60.5 -139q-33 -109 -46 -180q-1 -10 -6 -10t-10.5 18t-6.5 38v9q0 75 37 178t88 196q19 33 26 38z"/>
<glyph glyph-name="Euro" horiz-adv-x="291" unicode="€" d="M-29 163h19q6 43 20 80q29 81 77 120.5t97 39.5q36 0 61.5 -20t28.5 -53v-12q0 -29 -11.5 -49.5t-28 -29t-27.5 -11.5t-18 -3h-1q-1 0 8.5 23t20.5 55t11 49q0 13 -6 16q-4 3 -11 3q-38 0 -99 -112q-19 -34 -33 -95l75 1q0 -4 -1 -10t-10.5 -16.5t-25.5 -11.5h-46 q-4 -20 -5 -30h88q0 -4 -1 -10t-10.5 -16t-25.5 -11q-11 -1 -55 -1q-2 -26 -2 -38q0 -112 58 -116h2q19 0 44 21.5t47 52t42 60.5t31 51l12 22l9 -8q-28 -84 -125 -191q-30 -27 -62 -27q-46 0 -82 50t-46 125q-53 2 -53 3l1 5q2 5 4.5 11t10 11t18.5 5h16v33q-50 0 -50 1 q0 3 1.5 9t10 15t22.5 9z"/>
<glyph glyph-name="trademark" horiz-adv-x="461" unicode="™" d="M188 271v31h-128v-31h45v-134h38v134h45zM349 137h37l-9 165h-49l-18 -55q-4 -11 -9.5 -33.5t-6.5 -25.5h-1q-5 31 -14 59l-16 55h-50l-10 -165h34l4 62q0 36 3 69q7 -39 15 -64l17 -64h30l20 64q11 36 18 64h1q0 -12 0.5 -35t0.5 -33zM230 454q93 0 159.5 -66.5 t66.5 -160.5q0 -93 -66.5 -159.5t-159.5 -66.5q-94 0 -160.5 66.5t-66.5 159.5q0 94 66.5 160.5t160.5 66.5z"/>
<glyph glyph-name="minus" horiz-adv-x="344" unicode="−" d="M322 199h-308q-9 7 -9 17q0 9 9 21h308q11 -9 11 -18t-11 -20z"/>
</font>
</defs>
</svg>
