<?xml version="1.0" standalone="no"?>
<!DOCTYPE svg PUBLIC "-//W3C//DTD SVG 1.1//EN" "http://www.w3.org/Graphics/SVG/1.1/DTD/svg11.dtd" >
<svg>
<metadata>
Created by FontForge 20090622 at Wed Sep 16 08:27:03 2015
 By deploy user
Copyright (c) 2015 by Olexstudio. All rights reserved.
</metadata>
<defs>
<font id="NellaScript" horiz-adv-x="499" >
  <font-face 
    font-family="Nella Script"
    font-weight="400"
    font-stretch="normal"
    units-per-em="1500"
    panose-1="0 0 0 0 0 0 0 0 0 0"
    ascent="1125"
    descent="-375"
    x-height="287"
    cap-height="830.5"
    bbox="-1359 -494 2526 1195.35"
    underline-thickness="50"
    underline-position="-50"
    unicode-range="U+000D-U+FB02"
  />
<missing-glyph horiz-adv-x="300" 
 />
    <glyph glyph-name="T_h" unicode="Th" horiz-adv-x="1863" 
d="M1395 624l-19 -54q-15 -1 -77 1q-152 3 -264 51q-39 -62 -73 -146.5t-54.5 -151.5t-59 -145t-88.5 -135q-39 -44 -97 -75.5t-122.5 -46t-134 -16t-131.5 15t-115.5 46.5t-85.5 78t-41.5 110.5t16.5 143.5q28 83 92 120q75 42 152 53q14 2 46 4q-4 49 17 97.5t63 88.5
t115 61.5t162 13.5q37 -3 85.5 -14t76 -19.5t81.5 -27t59 -19.5q190 -65 397 -34zM621 564l10 3q30 -109 -22 -179q77 -53 150 -128q-1 -1 -1 -4.5t-2 -6t-9 -2.5q-48 66 -113 113l-30 21q-30 -35 -75 -48.5t-80 0.5q-46 16 -74 51t-35 81q-57 1 -108 -17
q-130 -46 -163 -194q-13 -73 10.5 -135t70 -99.5t105 -58t117.5 -19.5q207 5 340 150q53 57 116.5 179t113.5 232t64 129q-32 10 -99.5 36t-120 41.5t-100.5 17.5q-129 6 -214.5 -74t-95.5 -177q110 -8 221 -80q27 39 33.5 91.5t-9.5 76.5zM448 347q92 -24 144 42
q-44 26 -92 45q-61 24 -125 30q-2 -45 16.5 -76.5t56.5 -40.5zM1925 220l7 -7l-49 -43t-115.5 -95.5t-156.5 -120t-149 -91.5t-116 -36q-40 4 -51 56.5t13 113.5q24 60 49 110.5t45.5 86t23.5 41.5q8 17 -11 16q-9 0 -29 -5q-53 -13 -119 -87q-25 -28 -56 -69l-49 -64.5
t-22 -23.5q-14 0 -22 7q-18 12 -28 29q-9 22 -7 37t7 23q67 147 125 255l8 16l10 16l65 112q46 72 71 107q56 81 133 158l60 57q9 7 22 15q9 5 14 -1q4 -6 0 -16l-15 -35q-32 -64 -77 -131q-93 -134 -185 -235q-12 -14 -21 -30q-21 -38 -59 -116q-1 -4 -14 -35.5l-36 -87
l-41 -99.5l-12 -27l3 2q7 4 41.5 52.5t83.5 102.5t93 74q56 26 88 15q24 -7 10 -39l-49 -111q-104 -257 -28 -263q6 0 12 1q36 6 104 45.5t139.5 92l138 104.5l108.5 87zM1345 466q-3 -8 -1 -10l13 14l103 133q33 43 63 90q27 39 56 98q8 16 10 30q-10 -6 -27 -25
q-29 -32 -83 -109q-45 -65 -134 -221z" />
    <glyph glyph-name="W_h" unicode="Wh" horiz-adv-x="2361" 
d="M2423 220l7 -7l-49 -43t-115.5 -95.5t-156.5 -120t-149 -91.5t-116 -36q-40 4 -51 56.5t13 113.5q24 60 49 110.5t45.5 86t23.5 41.5q8 17 -11 16q-9 0 -29 -5q-53 -13 -119 -87q-25 -28 -56 -69l-49 -64.5t-22 -23.5q-14 0 -22 7q-18 12 -28 29q-9 22 -7 37t7 23
q67 147 125 255l8 16l7 11q-194 -86 -338 -69q-10 -40 -30 -86q-55 -125 -184 -215q-119 -84 -220 -82t-122 97q-3 17 -4 35q-3 57 17 119.5t43.5 102.5t52 82t31.5 47q-76 -45 -143.5 -106t-111 -115l-81.5 -103t-73 -81.5t-67 -39.5q-34 34 -41 79q-5 59 38 158.5t103 212
t77 165.5q25 71 25 142t-33 92q-37 26 -95 21.5t-117 -26t-121 -57.5q-59 -35 -101 -70q13 -9 35 -29q165 -159 87 -373q-25 -69 -88 -109q-62 -40 -111 -37q-48 5 -83 28q-60 42 -75.5 124.5t29.5 190t150 199.5l17 14q-40 25 -90 48l8 11q55 -23 94 -49q57 44 133 85
q91 48 177 60t152 -16q126 -56 65 -253q-18 -61 -81.5 -173.5t-112 -215t-46.5 -165.5q0 -13 11 -46q46 21 78.5 63t80 116t101.5 135q33 39 61 67q25 25 76 68q60 41 101 1l-1 -1q-2 -4 -38.5 -69t-64.5 -131t-43 -136q-27 -126 58 -133q77 -7 197 75q116 80 174 175
q8 14 14 27q19 39 34 88q-60 18 -99 55t-48 76t8 74.5t59 50.5q61 14 115 -46q26 -30 34 -83.5t-8 -124.5q81 -10 169 10q60 14 180 70l54 93q46 72 71 107q56 81 133 158q8 9 18 18.5l22.5 21l19.5 17.5q9 7 22 15q9 5 14 -1q4 -6 0 -16l-15 -35q-32 -64 -77 -131
q-93 -134 -185 -235q-12 -14 -21 -30q-21 -38 -59 -116q-1 -4 -14 -35.5l-36 -87l-41 -99.5l-12 -27l3 2q7 4 41.5 52.5t83.5 102.5t93 74q56 26 88 15q24 -7 10 -39l-49 -111q-104 -257 -28 -263q6 0 12 1q36 6 104 45.5t139.5 92l138 104.5l108.5 87zM261 638
q-17 18 -40 34q-37 -32 -59 -59q-49 -54 -81.5 -114.5t-43.5 -114.5t-6.5 -101t25.5 -80q29 -45 81.5 -53.5t120.5 29.5q66 40 86 106t21 123q5 123 -104 230zM1327 337l8 -3q29 104 11 177q-7 25 -37 45.5t-51 13.5q-43 -13 -52.5 -61.5t23 -100.5t98.5 -71zM1843 466
q-2 -7 -1 -10l13 14l103 133q33 43 63 90q27 39 56 98q8 16 10 30q-10 -6 -27 -25q-29 -32 -83 -109q-45 -65 -134 -221z" />
    <glyph glyph-name="e_e" unicode="ee" horiz-adv-x="938" 
d="M597 281q3 0 6 -5q-6 -4 -16 -5t-12 -2l-131 -88q-369 -239 -467 -216q-29 6 -31 36q-2 24 1 42q9 48 13 58q34 114 101 185q42 42 76 56q12 5 25 8q14 5 26 -2q1 0 2 -1l1 -1q6 -4 8 -8q14 -18 9 -51q-3 -27 -20 -46v-1q-1 -1 -2 -2.5t-2.5 -2.5t-2.5 -2
q-24 -29 -52 -33q-23 -3 -35 29q-99 -153 -102 -227q-5 -5 1 -11q6 -9 12 -9q58 0 196.5 74t257 149t126.5 75q2 0 6.5 0.5t5.5 0.5zM146 309q-38 -56 -48 -74q17 -3 38 12q10 8 21 21t17 22l5 9q1 1 3 4t2 4q6 11 7 19q2 5 -1.5 9t-8.5 3q-6 0 -16 -8q-4 -3 -19 -21z
M937 234l13 -8q-66 -74 -232 -168.5t-268 -90.5q-32 2 -35 28q-2 20 1 35q6 34 11 48q29 94 87 153q33 33 65 46q5 2 21 7q13 3 23 -2q1 0 1 -0.5t1 -0.5q4 -3 7 -7q12 -16 8 -42q-3 -22 -17 -38v-1l-6 -6q-22 -25 -45 -27q-21 -3 -30 24q-85 -127 -88 -188q-3 -5 1 -9
q1 -2 4 -2h4q67 -11 239.5 78t234.5 171zM587 250q-16 -22 -42 -61q16 -3 33 10q9 7 18 17.5t14 17.5l5 8l4 6q4 7 6 16q1 4 -1 7.5t-7 2.5q-7 0 -14 -7q-6 -5 -16 -17z" />
    <glyph glyph-name="s_s" unicode="ss" horiz-adv-x="1059" 
d="M1122 241q2 -2 1 -8t0 -8q-87 -39 -284 -136t-223 -114q0 -137 -31 -191q-28 -48 -98 -71.5t-92 2.5q-6 10 -7.5 24.5t8.5 38.5t26.5 49t46.5 55t68 58q0 9 0.5 26.5t0.5 25.5q-87 -38 -203 -47.5t-194 -11.5t-94 -21q0 -101 -26 -144q-23 -41 -81.5 -60.5t-76.5 2.5
q-10 7 -6 27.5t15.5 44.5t40.5 56t68 60q2 40 1.5 75t-1.5 59l-1 23q-8 75 28 132t98 30q39 -17 40 -63.5t-18 -85.5l-18 -38q-19 -9 -27 9q15 15 26 33q9 13 18.5 44t7.5 44q0 3 -2 9q-8 29 -33 40t-46 5q-17 -6 -19.5 -70t6.5 -111q4 -29 4 -101q51 14 159.5 17t127.5 6
q122 17 206 57l-3 116q-6 56 9.5 108.5t53.5 80t88 5.5q57 -28 52 -85t-42 -114.5t-81 -89.5q1 -14 1 -43l5 3q52 28 113 56q57 26 194.5 96.5t193.5 95.5zM613 60q48 42 77 88q11 15 22.5 52.5t8.5 53.5q0 3 -2 11q-10 34 -40 47.5t-55 5.5q-20 -6 -23 -83t7 -133z
M514 -214q17 32 22 128q-64 -55 -102.5 -106.5t-36.5 -72.5q3 -27 37 -20q42 9 72 57zM-38 -231q14 27 18 107q-52 -45 -84.5 -88.5t-31.5 -60.5q3 -24 34 -16q38 10 62 54z" />
    <glyph glyph-name="o_o" unicode="oo" horiz-adv-x="1206" 
d="M652 300l2 -15q-156 -155 -281 -206.5t-190 15.5l-4 5q-40 -75 -99 -94q-33 -10 -57.5 0t-35.5 33t-18 50t-5 50l3 34v1q6 50 36 89.5t74 59.5q48 21 93 13t55 -37q6 -8 6 -32q-1 -21 -13 -67.5t-34 -90.5q6 -9 36 -27q32 -18 92 -8q64 11 155 74q95 66 185 153zM74 15
q19 0 45 27.5t50 70.5q-17 29 -18 63t13 51q8 11 19 14t19.5 -3t9.5 -19q7 31 4 48q-4 17 -12 21q-68 18 -119 -36.5t-65 -138.5q-4 -31 -3 -48q4 -18 10 -28l1 -1v-1q15 -20 46 -20zM176 125q10 19 21 48l7 29q3 30 -20 27l-8 -2q-13 -4 -13.5 -37t13.5 -65zM1261 182
q-40 -41 -107.5 -80.5t-138.5 -64t-136 -22t-95 39.5l-4 6q-40 -86 -100 -107q-33 -12 -57.5 -0.5t-35.5 37.5t-18 57.5t-5 57.5l3 39v1q6 58 36 103t74 67q49 24 94 14.5t55 -41.5q6 -9 6 -37q-1 -24 -13 -77t-34 -103q6 -11 33 -29q29 -18 99 -14q71 5 188 63
q92 45 145 101zM674 -35q20 0 46.5 32t49.5 80q-17 33 -18 72t13 59q12 20 29 16.5t19 -26.5q7 36 4 55q-4 20 -12 24q-46 14 -86.5 -12.5t-65 -76.5t-33.5 -111q-4 -35 -3 -55q4 -21 10 -32l1 -1v-1q14 -23 46 -23zM777 91q9 19 21 55q2 5 3.5 13t4 24t-4.5 23.5t-24 1.5
q-13 -5 -13.5 -43t13.5 -74z" />
    <glyph glyph-name="b_y" unicode="by" horiz-adv-x="1275" 
d="M1322 220l2 -13l-33 -37.5t-84.5 -81t-125.5 -97.5q-92 -60 -181.5 -99t-108.5 -50q-64 -142 -116 -203q-61 -70 -129 -78q-3 1 -17 -1t-38 6.5t-37 26.5q-22 30 -5 71t65 66l161 81q17 6 37 17l4 3q71 122 141 287l22 68q2 10 10 37.5t9 36.5t-1.5 15.5t-19 -10.5
t-45.5 -56q-15 -20 -71.5 -127t-82.5 -144q-13 -18 -29 -26q-27 -7 -46 7q-32 22 -38 75t11 100v4h1q0 2 1 4v2l1 1q0 2 1 3q3 10 8 23v1l2 4q36 95 73 150q-27 -14 -79 -48l-92 -59t-96.5 -43.5t-108.5 -15.5q-51 3 -81 19q-24 -55 -85 -99q-46 -33 -87 -38h-6
q-17 0 -27 13q-4 5 -6.5 11.5t-4 13.5t-2 14.5t-0.5 15t0.5 14.5t1 13t1 10.5t1.5 6.5v3v1h1q1 8 5 24q7 28 42 110.5t65 134.5l65 111q41 66 71 108q57 80 133 157q30 30 60 57q10 8 23 15q9 6 13 -1q4 -5 0 -16q-13 -32 -15 -35q-33 -68 -77 -131q-87 -126 -185 -235
q-13 -15 -21 -29q-47 -87 -99 -205l-33 -78v-1q-3 -7 -6 -17.5t-9 -37t1 -31.5q5 -20 54 22q65 56 97 122q-18 19 -21 47q-3 43 13.5 67.5t31.5 25.5h1q11 0 21 -16q25 -39 -7 -123l-3 -9q30 -23 81 -23q53 -4 124 27.5t161.5 89.5t105.5 66q1 0 2 0.5t2 0.5q7 6 15 6
q19 0 30.5 -6t13.5 -12l2 -6q-16 -12 -63 -96q-34 -59 -47 -88l-4 -11q-5 -11 -10.5 -27.5t-11.5 -37.5t-8.5 -41t-2 -37t9 -27.5t24.5 -10.5q9 0 18 6.5t16.5 18t13 21t12 23l8.5 17.5q16 28 42.5 80.5l43.5 84.5t41.5 66t48.5 50q59 41 53 -34q-6 -97 -95 -309
q-23 -53 -36 -77q154 50 290 146.5t229 205.5zM575 -362q58 58 126 164l-98 -48q-74 -36 -110 -72q-18 -18 -24 -39t-3 -33.5t9 -16.5q5 -5 9 -6q18 -7 49 15.5t42 35.5zM218 467q-4 -4 -2 -10l13 14l103 133q28 37 64 90q27 41 55 98q9 19 11 30q-12 -7 -28 -25
q-33 -37 -82 -109q-40 -58 -134 -221zM196 213q16 66 7 80q-1 3 -5 3q-12 0 -23 -38q-10 -38 11 -75z" />
    <glyph glyph-name="i_n" unicode="in" horiz-adv-x="1200" 
d="M570 324l-16 -30q-13 -14 -67.5 -57.5t-136 -102.5t-181 -108t-176.5 -59q-14 -2 -24 5.5t-11 22.5q-1 13 1 35q6 34 11 48q6 20 10 30l1 1q0 1 0.5 2t0.5 2l18.5 43t28.5 60t36 59t31 23q12 0 20.5 -2.5t13 -6t7 -7t3.5 -6.5v-2q-13 -9 -63 -96q-78 -137 -80 -182
q-3 -5 1 -9q1 -2 8 -2q87 7 271.5 119.5t292.5 219.5zM146 337q-20 0 -34 15t-14 37t14 37t34 15t34 -15t14 -37t-14 -37t-34 -15zM1248 223l6 -7l-48.5 -44.5l-113 -97.5t-152 -123t-141.5 -94t-105 -37q-60 8 -38 108q16 72 109 228q2 3 4.5 7.5l10.5 18.5t14 26l14.5 30
t12 29t6.5 24t-2 16q-5 8 -20 13q-49 10 -118 -41q-33 -25 -64.5 -66t-53 -79l-40.5 -72.5t-36 -51.5t-31 -9q-8 3 -11 9q-5 7 -4 13q-1 2 -1 6q0 1 0.5 3t0.5 3q-1 2 -1 6q-3 34 29 116.5t62 129.5q16 25 32.5 35.5t24.5 9.5l8 -2q13 -1 20 -7t8 -11l1 -5q-14 -10 -64 -95
q-81 -136 -88 -183q-1 -5 0.5 -9t6.5 -3q3 1 37.5 62t85.5 132.5t92 94.5q42 23 78.5 27t50.5 -9q74 -21 14 -159q-12 -26 -83 -161q-59 -111 -45 -136q8 -14 37 -10q50 7 173.5 98.5t222.5 179.5z" />
    <glyph glyph-name="i_s" unicode="is" horiz-adv-x="988" 
d="M1051 241q2 -2 1 -8t0 -8q-87 -39 -284 -136t-223 -114q0 -137 -31 -191q-28 -48 -98 -71.5t-92 2.5q-6 10 -7.5 24.5t8.5 38.5t26.5 49t46.5 55t68 58q1 19 1 55q-164 -80 -330 -82t-179 82q-1 13 1 35q6 34 11 48q6 20 10 30l1 1q0 1 0.5 2t0.5 2l18.5 43t28.5 60
t36 59t31 23q12 0 20.5 -2.5t13 -6t7 -7t3.5 -6.5v-2q-13 -9 -63 -96q-78 -137 -80 -182q-13 -37 52 -55q95 -25 246 11q91 22 175 63l-6 113q-6 56 9.5 108.5t53.5 80t88 5.5q55 -24 56.5 -78.5t-36 -110.5t-92.5 -95q2 -30 2 -48l5 3q52 28 113 56q57 26 194.5 96.5
t193.5 95.5zM537 102l2 -44q45 35 77.5 89t33.5 107q0 3 -2 11q-10 34 -40 47.5t-55 5.5q-19 -6 -20.5 -83t4.5 -133zM443 -214q17 32 22 128q-64 -55 -102.5 -106.5t-36.5 -72.5q3 -27 37 -20q42 9 72 57zM146 337q-20 0 -34 15t-14 37t14 37t34 15t34 -15t14 -37t-14 -37
t-34 -15z" />
    <glyph glyph-name="i_t" unicode="it" horiz-adv-x="1125" 
d="M625 395l7 -13q-120 -127 -285 -244q-56 -40 -105 -70.5t-83.5 -48t-62.5 -29.5t-46.5 -16t-30 -6t-19.5 -2l-7 1q-14 -2 -24 5.5t-11 22.5q-1 13 1 35q6 34 11 48q6 20 10 30l1 1q0 1 0.5 2t0.5 2l18.5 43t28.5 60t36 59t31 23q12 0 20.5 -2.5t13 -6t7 -7t3.5 -6.5v-2
q-13 -9 -63 -96q-78 -137 -80 -182q-3 -5 1 -9q3 -4 8 -2l4 -1q5 0 14.5 1.5t24 5t39 13.5t55 25t75.5 42t98 62q65 43 177.5 138.5t131.5 123.5zM146 337q-20 0 -34 15t-14 37t14 37t34 15t34 -15t14 -37t-14 -37t-34 -15zM1166 221l4 -11q-1 -2 -4 -2
q-113 16 -242.5 -43.5t-260.5 -200.5l-67 -74q-35 -39 -48.5 -50.5t-25 -12.5t-30.5 13q-29 21 -39 99t7 170l2 11l6 25q0 2 9 30q11 33 19 49q29 75 58 131q-33 4 -59 1.5t-44 -9.5t-29 -14.5t-16 -13.5l-6 -6l-5 8q5 6 15 14.5t52 20.5t96 6l15 27l65 112q32 53 71 107
q58 82 134 158q40 38 61 56q4 4 23 16q10 4 14 -2q3 -6 0 -16q-2 -4 -7 -16l-8 -19q-30 -62 -76 -130q-90 -129 -186 -235q-12 -12 -22 -30l-20 -38q100 -18 135.5 -20.5t90.5 8.5q29 9 43 18.5t14 15.5v5q22 -21 -5 -46q-15 -14 -49 -21t-97 -1.5t-138 29.5
q-39 -78 -71 -155l-15 -34q-32 -79 -37 -159q-7 -52 -0.5 -102t33.5 -45q5 1 19.5 13.5t33.5 32l35.5 37.5l33 36t19.5 21q110 119 231 182.5t268 53.5zM687 470q-2 -7 -1 -10l13 14l104 132q13 17 64 90q27 41 55 98q8 18 10 31q-12 -8 -28 -26q-25 -28 -83 -109
q-41 -58 -134 -220z" />
    <glyph glyph-name="t_t" unicode="tt" horiz-adv-x="1204" 
d="M766 344q1 -2 19 9q-24 -62 -202 -199.5t-357.5 -239.5t-207.5 -74q-26 26 -37 101t5 168l2 11l6 25q0 2 9 30q11 33 19 49q29 75 58 131q-33 4 -59 1.5t-44 -9.5t-29 -14.5t-16 -13.5l-6 -6l-5 8q5 6 15 14.5t52 20.5t96 6l15 27l65 112q32 53 71 107q58 82 134 158
q40 38 61 56q4 4 23 16q10 4 14 -2q3 -6 0 -16q-2 -4 -7 -16l-8 -19q-30 -62 -76 -130q-90 -129 -186 -235q-12 -12 -22 -30l-20 -38q100 -18 135.5 -20.5t90.5 8.5q29 9 43 18.5t14 15.5v5q22 -21 -5 -46q-15 -14 -49 -21t-97 -1.5t-138 29.5q-39 -78 -71 -155l-15 -34
q-32 -79 -37 -159q-6 -99 7 -121q8 -14 25 -11q62 10 158.5 60.5t191.5 116.5t180 132.5t136.5 115.5t48.5 59zM213 470q-2 -7 -1 -10l13 14l104 132q13 17 64 90q27 41 55 98q8 18 10 31q-12 -8 -28 -26q-25 -28 -83 -109q-41 -58 -134 -220zM1257 174l3 -9q0 -2 -3 -2
q-101 14 -215.5 -39t-231.5 -178q-26 -27 -61 -67q-42 -46 -54 -52.5t-37 9.5q-26 18 -34.5 87.5t6.5 151.5l1 10l6 22q2 9 8 26q10 30 17 44q29 74 51 116q-30 4 -52.5 1.5t-38.5 -8.5t-26.5 -13t-15.5 -12l-4 -5l-4 7q4 5 13 13t46.5 18t85.5 5l13 24l58 100q23 38 63 95
q54 77 119 140q44 42 54 50q6 6 20 14q9 4 13 -2q4 -5 0 -14q-3 -5 -7 -15.5l-6 -15.5q-28 -57 -68 -115q-80 -113 -165 -209q-10 -9 -20 -27l-18 -33q89 -16 121 -18.5t80 7.5q26 8 38.5 17t12.5 13v5q19 -19 -5 -41q-22 -21 -82 -22.5t-170 28.5q-33 -68 -63 -138l-13 -30
q-29 -68 -33 -141q-6 -46 -0.5 -90.5t29.5 -40.5q4 1 17 12t30 28.5l31.5 33.5l29.5 32t17 19q99 106 206 162.5t238 46.5zM831 395q-2 -4 -1 -9l12 13l92 117l57 80q25 38 49 87q7 14 9 28q-11 -8 -25 -24q-19 -21 -74 -96q-43 -62 -119 -196z" />
    <glyph glyph-name="r_r" unicode="rr" horiz-adv-x="1294" 
d="M745 326l4 -11q-244 -137 -304 -136q-17 0 -32.5 14.5t-22 26.5t-18.5 36q-4 7 -14.5 32.5t-22.5 45t-27 32.5q-16 15 -36 15.5t-38 -14.5q-11 -9 -23 -25t-22.5 -33t-23 -42t-20.5 -42.5t-19.5 -45l-16.5 -39.5t-14 -35.5t-9 -24.5q-18 -49 -29.5 -64.5t-34.5 -15.5
q-6 0 -9 1q-1 -1 -2 -1q-16 -3 -27 7t-13 30q-3 21 0 46q7 53 10 63l11 38q0 2 1 2q0 1 1 3v2q8 25 19.5 57t30.5 79t39 77.5t35 30.5q20 0 32.5 -8t14.5 -16l2 -8q-14 -12 -68 -125q-76 -166 -84 -231q-2 -29 19 -29q7 0 31.5 59.5l54 132.5t75 138t88.5 74q43 8 70.5 -22
t37 -71.5t22 -84t26.5 -52.5q31 -21 306 134zM1327 236l4 -9q-224 -115 -278 -114q-16 0 -30.5 12.5t-20 21.5l-17.5 30q-2 4 -12 27t-21 39t-25 26q-34 28 -69 2q-52 -42 -135 -241q-17 -42 -27 -54.5t-31 -12.5q-6 0 -9 1q-1 -1 -2 -1q-14 -2 -24.5 6.5t-12.5 24.5
q-1 18 0 39q8 47 10 53l10 32q0 1 1 1v3l1 1q73 206 113 205q19 0 30.5 -7t13.5 -13l2 -7q-13 -11 -63 -105q-68 -136 -77 -193q-2 -25 18 -25q6 0 21 33l36 81t46.5 96.5t59 85.5t65.5 43q39 7 64.5 -18.5t34 -60t20 -70.5t24.5 -44q29 -18 280 112z" />
    <glyph glyph-name="t_h" unicode="th" horiz-adv-x="1354" 
d="M803 425l8 -1q-234 -217 -363 -326q-363 -305 -430 -258q-29 21 -39 99t7 170l2 11l6 25q0 2 9 30q11 33 19 49q29 75 58 131q-33 4 -59 1.5t-44 -9.5t-29 -14.5t-16 -13.5l-6 -6l-5 8q5 6 15 14.5t52 20.5t96 6l15 27l65 112q32 53 71 107q58 82 134 158q40 38 61 56
q4 4 23 16q10 4 14 -2q3 -6 0 -16q-2 -4 -7 -16l-8 -19q-30 -62 -76 -130q-90 -129 -186 -235q-12 -12 -22 -30l-20 -38q100 -18 135.5 -20.5t90.5 8.5q29 9 43 18.5t14 15.5v5q22 -21 -5 -46q-15 -14 -49 -21t-97 -1.5t-138 29.5q-39 -78 -71 -155l-15 -34
q-32 -79 -37 -159q-6 -102 6 -125q8 -17 25 -14q48 8 141.5 70t193.5 145l193.5 164.5l157 137t67.5 55.5zM213 470q-2 -7 -1 -10l13 14l104 132q13 17 64 90q27 41 55 98q8 18 10 31q-12 -8 -28 -26q-25 -28 -83 -109q-41 -58 -134 -220zM1416 220l7 -7l-49 -43
t-115.5 -95.5t-156.5 -120t-149 -91.5t-116 -36q-40 4 -51 56.5t13 113.5q24 60 49 110.5t45.5 86t23.5 41.5q8 17 -11 16q-9 0 -29 -5q-53 -13 -119 -87q-25 -28 -56 -69l-49 -64.5t-22 -23.5q-14 0 -22 7q-18 12 -28 29q-9 22 -7 37t7 23q67 147 125 255l8 16l10 16
l65 112q46 72 71 107q56 81 133 158l60 57q8 7 22 15q9 5 14 -1q4 -6 0 -16l-15 -35q-32 -64 -77 -131q-93 -134 -185 -235q-12 -14 -21 -30q-21 -38 -59 -116q-1 -4 -14 -35.5l-36 -87l-41 -99.5l-12 -27l3 2q7 4 41.5 52.5t83.5 102.5t93 74q56 26 88 15q24 -7 10 -39
l-49 -111q-104 -257 -28 -263q6 0 12 1q36 6 104 45.5t139.5 92l138 104.5l109.5 87zM836 466q-2 -8 -1 -10l13 14l103 133q33 43 63 90q27 39 56 98q8 16 10 30q-10 -6 -27 -25q-29 -32 -83 -109q-45 -65 -134 -221z" />
    <glyph glyph-name="n_o" unicode="no" horiz-adv-x="1329" 
d="M736 269l2 -12q3 -8 -62 -79t-150 -153t-175 -146t-131 -59q-60 8 -38 108q16 72 109 228q2 3 4.5 7.5l10.5 18.5t14 26l14.5 30t12 29t6.5 24t-2 16q-5 8 -20 13q-49 10 -118 -41q-33 -25 -64.5 -66t-53 -79l-40.5 -72.5t-36 -51.5t-31 -9q-8 3 -11 9q-5 7 -4 13
q-1 2 -1 6q0 1 0.5 3t0.5 3q-1 2 -1 6q-3 34 29 116.5t62 129.5q16 25 32 35.5t25 9.5l8 -2q13 -1 20 -7t8 -11l1 -5q-14 -10 -64 -95q-81 -136 -88 -183q-1 -5 0.5 -9t6.5 -3q3 1 37.5 62t85.5 132.5t92 94.5q42 23 78.5 27t50.5 -9q74 -21 14 -159q-12 -26 -83 -161
q-59 -111 -45 -136q8 -14 37 -10q50 7 164 110t203 202zM1384 205q-53 -50 -150.5 -92.5t-187 -52.5t-137.5 34l-4 5q-40 -75 -99 -94q-33 -10 -57.5 0t-35.5 33t-18 50t-5 50l3 34v1q6 50 36 89.5t74 59.5q48 21 93 13t55 -37q6 -8 6 -32q-1 -21 -13 -67.5t-34 -90.5
q5 -8 33 -25q28 -16 98 -12q72 5 188 55q92 39 144 88zM800 15q19 0 45 27.5t50 70.5q-17 29 -18 63t13 51q8 11 19 14t19.5 -3t9.5 -19q7 31 4 48q-4 17 -12 21q-68 18 -119 -36.5t-65 -138.5q-4 -31 -3 -48q4 -18 10 -28l1 -1v-1q15 -20 46 -20zM902 125q10 19 21 48l7 29
q3 30 -20 27l-8 -2q-13 -4 -13.5 -37t13.5 -65z" />
    <glyph glyph-name="o_f" unicode="of" horiz-adv-x="1286" 
d="M641 206q-38 -36 -103.5 -70.5t-134.5 -55.5t-132.5 -19t-92.5 35l-4 4q-41 -75 -97 -93q-32 -10 -56 0t-34.5 32.5t-17.5 49.5t-5 50l3 34v1q6 50 35 89t72 59q48 21 91.5 13t53.5 -37q5 -8 5 -31q-1 -21 -12.5 -67.5t-32.5 -90.5q4 -8 32 -25q28 -15 96 -11
q69 5 183 54q90 40 140 88zM71 17q19 0 44.5 27.5t48.5 69.5q-17 29 -18 63t13 51q8 11 18.5 14t19 -3t9.5 -19q7 31 4 48q-4 17 -12 20q-67 18 -116.5 -36t-62.5 -138q-4 -31 -3 -47q4 -18 9 -28l1 -1v-1q15 -20 45 -20zM171 126q7 13 20 48l7 29q4 33 -24 26q-2 -1 -3 -1
q-13 -4 -13.5 -37t13.5 -65zM1314 182l4 -7q-60 -52 -189 -115t-200 -71q-60 -2 -77 51q-11 29 0 79t26.5 87.5t15.5 38.5q-2 2 -33 -1t-61 -7l-30 -4q-59 -8 -68 -10q-56 -125 -151 -367q-21 -54 -30 -89t-8 -42.5t2 -7.5q-25 0 -42 17q-29 27 -4 114q39 129 158 365
l-35 -4q-6 -1 -16 -3t-30 -4t-28 -1q-13 5 -12 10l129 17l42 84l18 32l65 112l71 107q56 80 133 158q19 19 61 57q11 10 22 15q9 5 14 -2q3 -4 -1 -15q-6 -19 -15 -35q-29 -63 -76 -131q-88 -127 -185 -235q-12 -13 -21 -30q-12 -21 -55 -107l87 12q108 17 123 7
q-60 -160 -50 -204q5 -59 82 -44q67 13 189.5 71t174.5 102zM808 425q-4 -6 -2 -10l13 14l103 132q22 29 64 91q32 48 55 97q10 22 11 31q-9 -6 -28 -25q-31 -36 -82 -109q-40 -58 -134 -221z" />
    <glyph glyph-name="u_s" unicode="us" horiz-adv-x="1252" 
d="M1315 241q2 -2 1 -8t0 -8q-87 -39 -284 -136t-223 -114q0 -137 -31 -191q-28 -48 -98 -71.5t-92 2.5q-6 10 -7.5 24.5t8.5 38.5t26.5 49t46.5 55t68 58q1 18 1 54q-71 -29 -152 -41q-181 -28 -311 20q-15 6 -33 23.5t-19 31.5q-3 17 0 35q3 24 9 48l10 29l1 1v3l1 1
q48 111 72 147q-25 -23 -64 -74q-15 -20 -71.5 -127t-82.5 -144q-13 -18 -29 -26q-27 -7 -46 7q-32 22 -38 75t11 100v4h1q0 2 1 4v2l1 1v1q1 1 1 2q3 10 8 23v1l2 4q11 30 26.5 64.5t42.5 77.5t45 43q19 0 30.5 -6t13.5 -12l2 -6q-16 -12 -63 -96q-34 -59 -47 -88l-5 -11
q-4 -11 -9.5 -27.5t-11.5 -37.5t-8.5 -41t-2 -37t9 -27.5t24.5 -10.5q9 0 18 6.5t16.5 18t13 21t12 23l8.5 17.5q16 28 41.5 77.5l41 77.5t38 60.5t44.5 51.5q21 18 35.5 29t18.5 13l4 2q6 3 10 3q12 0 21.5 -2.5t14 -6t7.5 -7t4 -6.5v-2q-13 -9 -64 -95q-47 -83 -69 -143
q-10 -29 -10 -40q11 -54 139 -65.5t239 18.5q55 13 98 33l-3 114q-6 56 9.5 108.5t53.5 80t88 5.5q45 -20 51 -63.5t-17.5 -89t-53 -83t-51.5 -53.5q1 -14 1 -43l5 3q52 28 113 56q57 26 194.5 96.5t193.5 95.5zM806 60q112 97 108 194q0 3 -2 11q-10 34 -40 47.5t-55 5.5
q-20 -6 -23 -83t7 -133zM707 -214q17 32 22 128q-64 -55 -102.5 -106.5t-36.5 -72.5q3 -27 37 -20q42 9 72 57z" />
    <glyph glyph-name="t_o" unicode="to" horiz-adv-x="1254" 
d="M802 337l1 -13q-1 -2 -4 -2q-105 15 -286.5 -95t-323.5 -263l-67 -74q-35 -39 -48.5 -50.5t-25 -12.5t-30.5 13q-29 21 -39 99t7 170l2 11l6 25q0 2 9 30q11 33 19 49q29 75 58 131q-33 4 -59 1.5t-44 -9.5t-29 -14.5t-16 -13.5l-6 -6l-5 8q5 6 15 14.5t52 20.5t96 6
l15 27l65 112q32 53 71 107q58 82 134 158q40 38 61 56q4 4 23 16q10 4 14 -2q3 -6 0 -16q-2 -4 -7 -16l-8 -19q-30 -62 -76 -130q-90 -129 -186 -235q-12 -12 -22 -30l-20 -38q100 -18 135.5 -20.5t90.5 8.5q29 9 43 18.5t14 15.5v5q22 -21 -5 -46q-15 -14 -49 -21
t-97 -1.5t-138 29.5q-39 -78 -71 -155l-15 -34q-32 -79 -37 -159q-7 -52 -0.5 -102t33.5 -45q5 1 19.5 13.5t33.5 32l35.5 37.5l33 36t19.5 21q55 59 122 117t150 116t172.5 91t164.5 28zM213 470q-2 -7 -1 -10l13 14l104 132q13 17 64 90q27 41 55 98q8 18 10 31
q-12 -8 -28 -26q-25 -28 -83 -109q-41 -58 -134 -220zM1309 205q-53 -50 -150.5 -92.5t-187 -52.5t-137.5 34l-4 5q-40 -75 -99 -94q-33 -10 -57.5 0t-35.5 33t-18 50t-5 50l3 34v1q6 50 36 89.5t74 59.5q48 21 93 13t55 -37q6 -8 6 -32q-1 -21 -13 -67.5t-34 -90.5
q5 -8 33 -25q28 -16 98 -12q72 5 188 55q92 39 144 88zM725 15q19 0 45 27.5t50 70.5q-17 29 -18 63t13 51q8 11 19 14t19.5 -3t9.5 -19q7 31 4 48q-4 17 -12 21q-68 18 -119 -36.5t-65 -138.5q-4 -31 -3 -48q4 -18 10 -28l1 -1v-1q15 -20 46 -20zM827 125q10 19 21 48l7 29
q3 30 -20 27l-8 -2q-13 -4 -13.5 -37t13.5 -65z" />
    <glyph glyph-name="l_l" unicode="ll" horiz-adv-x="1247" 
d="M747 392l19 29q12 17 18 8q8 -14 -18 -45q-89 -85 -233 -193.5t-269 -173.5q-153 -81 -231 -61q-44 11 -56 53.5t5 129.5l2 10v1q1 6 5 23q2 10 9 27v1q8 25 17 45q37 92 71 153l60 104l66 99q52 74 125 147q24 24 57 52q8 8 20 14q10 6 14 -1q4 -6 0 -14q-5 -15 -14 -33
q-28 -61 -71 -121q-90 -128 -173 -218q-15 -19 -19 -28q-47 -87 -91 -189l-14 -33q-30 -81 -33 -147q-3 -43 3 -51.5t32 -8.5h5q68 -1 162 39.5t180 97.5t165.5 120t127.5 107t59 57zM193 474q-2 -7 -1 -9q1 2 5.5 6.5l6.5 6.5l30.5 38.5l35.5 45l30 39.5q25 32 59 84
q26 38 51 90q10 26 10 28q-13 -8 -26 -23q-26 -29 -77 -101q-36 -50 -124 -205zM1288 208q7 -8 0 -12q-2 -2 -50.5 -6t-103.5 -9t-69 -8q-11 -3 -32 -14.5t-39 -23.5l-34 -23l-16 -12q-95 -81 -158 -149l-68 -74q-35 -39 -48 -50.5t-24.5 -12t-30.5 12.5q-30 20 -39.5 99
t7.5 170l2 11v1q1 8 5 24l10 30v1l18 48q42 104 77 165l65 112l71 107q59 84 135 158q12 13 61 57q9 7 22 15q10 6 15 -2q4 -5 0 -15l-15 -35q-31 -65 -77 -131q-90 -129 -186 -235q-14 -15 -21 -30q-49 -90 -98 -204l-15 -35q-32 -84 -36 -159q-7 -52 -1 -101.5t33 -45.5
q5 1 19.5 13.5t34 32l36 37.5l33 36t19.5 21q64 69 147 136l7 5l20 16q78 56 116 59zM810 457q-2 -8 -1 -10l13 14l104 133q33 44 63 90q29 41 55 97q10 22 11 31q-9 -6 -28 -25q-31 -36 -83 -109q-40 -58 -134 -221z" />
    <glyph glyph-name=".notdef" horiz-adv-x="300" 
 />
    <glyph glyph-name=".null" horiz-adv-x="0" 
 />
    <glyph glyph-name="nonmarkingreturn" horiz-adv-x="500" 
 />
    <glyph glyph-name="NULL" horiz-adv-x="0" 
 />
    <glyph glyph-name="NULL" horiz-adv-x="0" 
 />
    <glyph glyph-name="CR" unicode="&#xd;" horiz-adv-x="300" 
 />
    <glyph glyph-name="space" unicode=" " horiz-adv-x="430" 
 />
    <glyph glyph-name="exclam" unicode="!" horiz-adv-x="350" 
d="M540 611q-5 -13 -78 -123l-161.5 -240.5l-95.5 -140.5l-10 1l1 7l254 484q5 9 16 14t20 6t26 0.5t21 -0.5l5 -2zM202 27q-3 -17 -17 -29t-31 -12t-27 12t-7 29q2 17 16.5 29t31.5 12t27 -12t7 -29z" />
    <glyph glyph-name="quotedbl" unicode="&#x22;" horiz-adv-x="318" 
d="M331 637q2 -10 -2 -37t-9.5 -50.5l-13.5 -55.5t-9 -35h-10l-8 166q-1 14 7 23t22 9q20 0 23 -20zM222 638q6 -29 -33 -179h-10l-9 165q-1 13 8 23t22 10q19 0 22 -19z" />
    <glyph glyph-name="numbersign" unicode="#" horiz-adv-x="746" 
d="M719 465l-28 -48h-149l-83 -141h161l-29 -47h-161l-139 -229h-53l137 229h-138l-139 -229h-53l138 229h-158l30 47h156l84 141h-170l29 48h170l138 231h55l-140 -231h140l139 231h54l-139 -231h148zM488 417h-139l-85 -141h140z" />
    <glyph glyph-name="dollar" unicode="$" horiz-adv-x="449" 
d="M499 448q0 -53 -28 -89t-82 -36q-27 0 -36 11q8 5 28.5 16t30 18t23 20t20.5 32.5t11 45.5q-4 27 -12 44.5t-20.5 25.5t-19.5 10.5t-20 4.5q-4 1 -5 1l-117 -212q67 -88 67 -148t-42 -106t-99 -67t-115 -21l-28 -53l-34 -6l35 61q-49 9 -73 69q-24 62 0 111q22 47 80 42
q-11 -11 -21.5 -57t-6 -92.5t32.5 -51.5l149 272q-60 74 -60 127q0 51 36.5 87.5t84 52t96.5 15.5l28 52l32 6l-33 -61q41 -7 69.5 -42.5t28.5 -81.5zM364 556q-2 0 -7 0.5t-7 0.5q-48 0 -89 -32t-41 -79q0 -12 4 -24.5t7 -18.5t13.5 -22.5t11.5 -18.5zM276 174q0 43 -41 98
l-141 -254q69 0 125.5 44.5t56.5 111.5z" />
    <glyph glyph-name="percent" unicode="%" horiz-adv-x="621" 
d="M620 661l-615 -745h-37l-1 5q78 82 169 188l141.5 168l159.5 196q-150 -129 -218 -58q-45 -35 -87 -34q-55 1 -67.5 58.5t18.5 124.5q30 69 85 119t105 49q86 -2 71 -100q-13 -79 -74 -162q-17 -24 -32 -38q37 -66 175 44q25 20 100.5 103t80.5 86q4 3 14 3t12 -7z
M490 321q73 -2 74 -77q0 -75 -62 -165t-129 -105q-12 -3 -24 -3q-55 1 -67.5 58t18.5 124q30 70 85 119.5t105 48.5zM294 698q-31 9 -71.5 -30t-70.5 -101q-30 -64 -34 -108t22 -54q29 -9 68 24q-17 26 -15 49q0 43 34 43q13 0 21.5 -8.5t8.5 -21.5q0 -7 -2 -11
q18 25 37.5 70.5t26.5 92t-25 55.5zM522 173q35 101 -10 114q-32 9 -72.5 -29.5t-70.5 -100.5q-30 -65 -34 -109t22 -54q21 -6 46.5 9.5t37 28.5t31.5 38q24 31 50 103z" />
    <glyph glyph-name="ampersand" unicode="&#x26;" horiz-adv-x="606" 
d="M731 420q27 -47 1.5 -85t-86.5 -61.5t-128 -22.5q32 -26 37 -65t-17 -78.5t-59.5 -74t-95.5 -56.5t-122 -22q-155 0 -219 90q-52 74 -19 165q35 95 141 147q61 30 137 38q-28 39 -28 90q1 67 52 119t119 76t133 23q49 -1 84.5 -21.5t35.5 -66.5q0 -29 -18 -51.5
t-43 -22.5q-20 0 -34 14t-13 34t14.5 33t33.5 12q9 0 20 -5.5t13 -12.5q5 31 -15 45t-52 15q-43 1 -95 -20t-100 -62q-42 -37 -68 -94.5t-5 -101.5q5 0 35 1.5t48 0.5q28 -2 40.5 -18t1 -30.5t-44.5 -14.5q-57 0 -101 44q-107 -16 -166 -114q-52 -86 -36 -175
q16 -90 93 -115q26 -9 56 -9q98 0 168.5 64.5t73.5 130.5q1 32 -26 53t-67.5 26t-82.5 -1t-74 -28t-37 -55q-8 -53 66 -92q10 -6 9 -17q-2 -8 -9 -4q-63 34 -89 76.5t-13.5 78t60.5 59.5t122 24h177q20 0 55.5 9t72.5 26t54 40.5t-1 53.5q-3 5 -2 9t5.5 4t7.5 -5zM417 383
q-34 3 -74 1q24 -30 72 -30q23 0 30 6.5t-1.5 14t-26.5 8.5z" />
    <glyph glyph-name="quotesingle" unicode="'" horiz-adv-x="158" 
d="M188 504q0 -44 -30.5 -73.5t-69.5 -42.5q-6 -2 -9 0t-1.5 5.5t7.5 5.5q30 11 51.5 33t25.5 54q-15 -10 -29 -10q-17 0 -27 12.5t-7 29.5t17 29t31 12q20 0 30.5 -16.5t10.5 -38.5z" />
    <glyph glyph-name="parenleft" unicode="(" horiz-adv-x="350" 
d="M496 755q23 6 23 -4q1 -10 -23 -17q-65 -17 -124 -54t-100.5 -79.5t-76 -93.5t-54.5 -93t-32 -81q-22 -69 -25.5 -138t11 -123t51.5 -85t91 -24q18 2 19 -7q1 -11 -24 -15h-2q-71 -8 -125.5 41t-72.5 137t9 205q15 56 56 121.5t99.5 127t138 111.5t161.5 71z" />
    <glyph glyph-name="parenright" unicode=")" horiz-adv-x="518" 
d="M492 380q-20 -76 -82 -163t-163 -163.5t-210 -104.5q-23 -6 -23 4t24 17q80 21 150 70.5t116 110.5t75 115.5t45 104.5q22 69 25.5 138t-11 123t-51.5 84.5t-90 24.5q-18 -2 -20 7q-1 11 24 15h2q71 8 125.5 -41t72.5 -137t-9 -205z" />
    <glyph glyph-name="asterisk" unicode="*" horiz-adv-x="431" 
d="M392 389q17 0 15 -11q-1 -15 -24 -20q-5 -1 -10 -1l-132 -5l53 -105q4 -8 -2.5 -20.5t-16.5 -15.5t-19 12l-50 112l-109 -119q-7 -7 -19.5 -3.5t-17 12.5t7.5 23l100 101l-132 -5q-9 0 -16 11t-3 22.5t20 11.5h145l-57 125q-9 19 4 22q17 4 30 -21l59 -115l116 117
q15 15 20 2q7 -16 -13 -38l-85 -92h136z" />
    <glyph glyph-name="plus" unicode="+" horiz-adv-x="458" 
d="M461 238q11 0 15.5 -7t-0.5 -13.5t-18 -6.5q-47 0 -133 -6q-3 -18 -8.5 -48.5l-9.5 -53t-5 -35.5q-2 -11 -24 -16q-26 -5 -25 12q1 2 1 4q2 11 14.5 59.5l19.5 75.5q-24 -2 -75.5 -5t-65.5 -4q-11 -1 -11 19q3 26 23 29q10 0 32.5 -0.5t54 -1.5t52.5 -1q3 12 10 42.5
l13.5 57.5t11.5 45t19 21q10 2 10 -11q0 -2 -1 -6q-5 -19 -30 -149q20 -1 64.5 -1h65.5z" />
    <glyph glyph-name="comma" unicode="," horiz-adv-x="153" 
d="M114 20q0 -45 -32.5 -77t-71.5 -45q-10 -4 -10 3q-1 5 8 8q30 10 51 32.5t25 54.5q-13 -10 -28 -10q-17 0 -27 12t-7 29q2 17 16.5 29t31.5 12q21 0 32.5 -13.5t11.5 -34.5z" />
    <glyph glyph-name="hyphen" unicode="-" horiz-adv-x="406" 
d="M388 211q-78 0 -224 -17q-7 -1 -13 11t-3 24.5t16 12.5q65 0 220 -4q17 -1 21 -13q-2 -12 -17 -14z" />
    <glyph glyph-name="period" unicode="." horiz-adv-x="208" 
d="M185 27q-3 -17 -17 -29t-31 -12t-27 12t-7 29q2 17 16.5 29t31.5 12t27 -12t7 -29z" />
    <glyph glyph-name="slash" unicode="/" horiz-adv-x="548" 
d="M698 800q16 20 42 14q20 -5 12 -20q-1 -3 -4 -6q-52 -60 -217 -266l-299 -363t-188 -192q-21 -13 -27 -4q-4 8 10 20q21 18 52.5 52.5l77 88.5l88 105.5l106.5 132.5l109.5 137.5l120.5 152.5z" />
    <glyph glyph-name="zero" unicode="0" horiz-adv-x="502" 
d="M505 468q0 -60 -29 -141.5t-74.5 -157t-111 -128t-129.5 -52.5q-53 0 -81 37.5t-28 92.5q0 77 54 185t140.5 191.5t165.5 83.5q93 0 93 -111zM467 487q0 73 -54 73q-46 0 -101.5 -58.5t-98.5 -137t-72 -158t-29 -122.5q0 -75 61 -75q63 0 134.5 95t115.5 207.5t44 175.5z
" />
    <glyph glyph-name="one" unicode="1" horiz-adv-x="378" 
d="M426 563l-5 -10l-299 -548q-5 -3 -52 -7q-1 0 -4.5 1t-4.5 1l-1 6l270 482q-81 -73 -163 -123h-4l-4 8l2 6q133 101 183 154q28 31 45 33l31 3q2 1 6 -1v-5z" />
    <glyph glyph-name="two" unicode="2" horiz-adv-x="488" 
d="M503 493q0 -22 -15 -51t-45 -64t-57.5 -64t-71.5 -67.5l-67 -58l-63.5 -52.5t-42.5 -35q114 -57 137 -57q25 0 50 17t42 36t21 20l7 -6v-4q-98 -119 -158 -119q-10 0 -34 8t-45 17l-47.5 21t-29.5 13l-70 -55l-13 8q1 5 47 55.5t51 52.5q15 2 22 -1q312 278 312 394
q0 44 -48 44q-52 0 -97.5 -48.5t-67.5 -106.5l-4 -4h-12l-2 6q26 73 83 128.5t127 55.5q40 0 65.5 -22t25.5 -61z" />
    <glyph glyph-name="three" unicode="3" horiz-adv-x="458" 
d="M486 516q0 -109 -222 -189q54 0 94.5 -21.5t40.5 -70.5q0 -58 -50.5 -117t-119.5 -94t-126 -35q-60 0 -93 24v5l7 6l5 2q32 -15 70 -15q78 0 158.5 76.5t80.5 155.5q0 29 -20 45.5t-50 16.5q-19 0 -70 -14l-7 3l-1 9l4 5q34 14 68 31t73.5 43.5t64 60t24.5 67.5
q0 36 -39 36q-59 0 -138 -89h-5l-7 6v5q90 110 182 110q33 0 54.5 -15t21.5 -47z" />
    <glyph glyph-name="four" unicode="4" horiz-adv-x="464" 
d="M485 562q0 -7 -18 -28t-49 -52l-66.5 -64.5l-76 -70l-71 -64l-57.5 -51.5t-30 -27l217 4l65 126q2 4 5 7t7.5 5t8 3t9.5 2t9 1t10 0.5t8 0.5l6 -3l1 -6q0 -3 -30 -62t-37 -71h24l6 -4l-5 -11l-7 -5l-29 -1q-89 -178 -94 -183q-3 -3 -30 -9t-34 -6l-5 1v4q0 12 100 190
l-243 -6v8q3 6 4 7q25 31 81.5 88t74.5 78q81 91 135 163q10 13 18 20.5t18 11.5t16.5 5.5t23 4t27.5 4.5l7 -3z" />
    <glyph glyph-name="five" unicode="5" horiz-adv-x="445" 
d="M507 576q-17 -45 -62 -65t-92.5 -18t-93.5 3l-110 -191q67 45 134 45q44 0 72 -22t28 -65q0 -66 -54.5 -131.5t-130 -105t-139.5 -39.5q-54 0 -71 12v7l6 7l4 2q24 -9 62 -9q84 0 170 85t86 169q0 31 -17 47.5t-48 16.5q-22 0 -43 -8t-50 -25.5t-39 -22.5l-6 2v6
q7 20 78.5 145t81.5 133q37 13 73.5 7.5t83.5 -4.5t73 21z" />
    <glyph glyph-name="six" unicode="6" horiz-adv-x="421" 
d="M433 577q-1 -1 -2.5 -4t-2.5 -4q-10 -11 -35.5 -31.5t-32.5 -26.5q-70 -65 -129 -141q-52 -70 -93.5 -151.5t-41.5 -144.5q0 -27 14.5 -44.5t40.5 -17.5q44 0 89.5 46t72 105.5t26.5 102.5q0 40 -34 40q-31 0 -62.5 -29.5t-50.5 -63t-32 -66.5l-4 -5l-10 -1l-2 6
q16 67 69.5 128.5t115.5 61.5q34 0 52.5 -22t18.5 -57q0 -55 -39 -118.5t-99.5 -107t-116.5 -43.5q-50 0 -79 28.5t-29 78.5q0 64 39 138.5t101.5 141t123 118.5t119.5 93l6 1z" />
    <glyph glyph-name="seven" unicode="7" horiz-adv-x="488" 
d="M578 562l-2 -7q-31 -35 -196 -208q-106 -111 -224 -261q-2 -2 -18.5 -23l-31 -39t-17.5 -19q-8 -4 -72 -10l-6 3l-1 4q3 13 71 84l161.5 162l158 153l98.5 94q-18 0 -73.5 2t-85.5 2t-51.5 -11t-30 -24t-18.5 -24.5t-19 -12.5l-3 2v6q42 83 75 106.5t119 23.5
q87 0 142 -7q13 10 20 10z" />
    <glyph glyph-name="eight" unicode="8" horiz-adv-x="420" 
d="M461 500q0 -29 -14 -60t-41.5 -62t-46 -49t-49.5 -45q19 -42 19 -112q0 -73 -63.5 -128t-137.5 -55q-47 0 -80.5 25.5t-33.5 71.5q0 33 20 69.5t57.5 72t63.5 57.5t63 49q-17 39 -17 80q0 65 51.5 114t116.5 49q40 0 66 -19.5t26 -57.5zM425 501q0 26 -14.5 41t-40.5 15
q-42 0 -73 -34t-31 -76q0 -43 37 -142q48 40 85 93t37 103zM265 157q0 56 -42 158q-163 -121 -163 -232q0 -34 18 -53.5t52 -19.5q55 0 95 45.5t40 101.5z" />
    <glyph glyph-name="nine" unicode="9" horiz-adv-x="435" 
d="M438 456q0 -66 -36.5 -138.5t-95.5 -136t-118 -114t-119 -89.5h-6l-5 9l4 6q242 170 306 422q10 38 10 72q0 69 -55 69q-45 0 -91 -40t-73.5 -95t-27.5 -99q0 -56 50 -56q79 0 137 139l4 3l11 -1l1 -5q-27 -70 -78.5 -132t-110.5 -62q-33 0 -52 22t-19 56q0 87 91 189
t175 102q48 0 73 -35.5t25 -85.5z" />
    <glyph glyph-name="colon" unicode=":" horiz-adv-x="256" 
d="M254 251q-3 -17 -17 -29t-31 -12t-27 12t-7 29q2 17 16.5 29t31.5 12t27 -12t7 -29zM144 27q-2 -17 -16.5 -29t-31.5 -12t-27 12t-7 29t17 29t31 12t27 -12t7 -29z" />
    <glyph glyph-name="semicolon" unicode=";" horiz-adv-x="255" 
d="M254 251q-3 -17 -17 -29t-31 -12t-27 12t-7 29q2 17 16.5 29t31.5 12t27 -12t7 -29zM151 14q0 -45 -30.5 -74t-69.5 -42q-11 -4 -11 3q0 5 8 8q30 10 51.5 32.5t25.5 54.5q-15 -10 -29 -10q-17 0 -27 12t-7 29t17 29t31 12q20 0 30.5 -16t10.5 -38z" />
    <glyph glyph-name="less" unicode="&#x3c;" horiz-adv-x="329" 
d="M333 297q-8 -13 -39.5 -38.5t-76 -56t-46.5 -32.5l-1 -136l-5 -10l-7 -3q-5 0 -8 3q-8 21 -14.5 47t-13 59t-10.5 49q4 2 59 37l102 63t52 28l7 -3z" />
    <glyph glyph-name="equal" unicode="=" horiz-adv-x="458" 
d="M409 322q0 -11 -17 -11q-71 0 -151 -8q-9 -1 -24.5 -3.5t-28 -4t-24.5 -1.5q-8 0 -12.5 10t-4.5 19q0 19 17 19h147q98 0 98 -20zM409 222q0 -11 -17 -11q-71 0 -151 -8q-9 -1 -24.5 -3.5t-28 -4t-24.5 -1.5q-8 0 -12.5 10t-4.5 19q0 19 17 19h147q98 0 98 -20z" />
    <glyph glyph-name="greater" unicode="&#x3e;" horiz-adv-x="329" 
d="M248 150l-205 -128l-7 -1q-4 0 -8 2l-1 4q0 4 8.5 13.5t23 21l31 24.5l34 26t31.5 22.5l24 16.5l10 7l1 136q1 1 2.5 4.5t2.5 4.5l8 4l9 -4q8 -21 14.5 -46.5t12.5 -58.5t9 -48z" />
    <glyph glyph-name="question" unicode="?" horiz-adv-x="382" 
d="M424 444q-23 -26 -79 -80.5t-89 -98.5t-56 -105q-4 -9 -12.5 -6t-6.5 13q8 35 34 80t44 69.5t67 84t56 68.5q25 32 32.5 59.5t-2 44t-28.5 25t-47 6t-56 -16.5q-24 -12 -41.5 -32t-14.5 -37q5 19 35 36q29 13 46.5 3.5t16.5 -34.5t-23 -42q-26 -20 -52.5 -15.5t-36 27.5
t2.5 58q14 31 73 66q41 23 82.5 29.5t70.5 -6t43 -37t-0.5 -67t-58.5 -92.5zM202 27q-3 -17 -17 -29t-31 -12t-27 12t-7 29q2 17 16.5 29t31.5 12t27 -12t7 -29z" />
    <glyph glyph-name="at" unicode="@" horiz-adv-x="956" 
d="M942 442q8 -96 -42 -187.5t-131 -156.5q-27 -21 -76 -37t-86 -16q-44 -3 -74 32.5t-5 122.5q-44 -72 -91 -118q-68 -65 -116 -34q-44 27 -40 108q6 116 106 235q59 71 147 92t145 -34q12 -14 7 -26.5t-20 -9.5q-10 35 -42 43t-66 -12q-41 -22 -86.5 -71.5t-80.5 -107.5
q-44 -72 -52 -128q-9 -61 29 -63q39 0 87 55q51 61 112 176q24 47 41 65.5t45 16.5q4 0 23 -4t30 -2q-23 -22 -65 -102t-52 -133q-17 -81 50 -80q54 1 114 44q6 4 11 8q67 54 106 143.5t32 178.5q-6 76 -49.5 126.5t-103.5 71t-134 20.5q-133 0 -250.5 -74t-184 -196.5
t-55.5 -256.5q7 -85 57.5 -145t121.5 -86t154 -26q162 0 309 99q9 9 16 -1t-5 -15q-158 -105 -327 -105q-97 0 -176 28.5t-135 96t-64 166.5q-8 105 35.5 205t120 172t177.5 115.5t204 43.5q59 0 113.5 -13.5t102 -41t78 -74.5t35.5 -108z" />
    <glyph glyph-name="A" unicode="A" horiz-adv-x="1186" 
d="M1218 253l13 -9q-148 -134 -356.5 -221t-332.5 -87q-39 0 -59 31.5t-20 74.5t10.5 85t27.5 65q-20 -24 -41 -46.5t-51.5 -51.5t-59 -51t-64 -44.5t-66.5 -32t-66 -13t-63 11.5q-72 30 -71.5 147t75.5 252q48 86 94 139q-53 25 -110 76q-65 58 -110.5 110t-60.5 76.5
t-18 35.5l12 20q-2 -8 25 -48t79 -98t107 -100l24 -19.5t33.5 -25.5t30.5 -18q235 261 488 261q79 0 125.5 -35.5t46.5 -91.5q0 -29 -16.5 -59t-51 -59.5t-97.5 -51.5t-146 -29q-156 -14 -296 31q-107 -152 -151 -260q-39 -97 -31 -152.5t44.5 -74t98 2.5t129.5 77
q76 64 149 152t113 163l50 -36q-69 -82 -124 -260q-41 -136 83 -131q129 5 386 145q105 58 143 88q65 52 75 61zM819 658q0 43 -35.5 66t-92.5 23q-67 0 -128.5 -20t-115 -59t-95 -80t-89.5 -98q108 -34 286 -19q124 10 197 61t73 126z" />
    <glyph glyph-name="B" unicode="B" horiz-adv-x="1320" 
d="M1363 205l8 -12q-73 -19 -138 -30q-113 -19 -215 -30q-57 -7 -121 -10q-41 -80 -151.5 -125t-216.5 -32q-91 11 -134.5 22.5t-92.5 33.5q-133 -98 -264 -81q-90 11 -115 69q-20 48 16 89q46 52 138 37q25 -4 51 -13q21 -8 71 -35t74 -39q51 50 109 150l-74 32
q-62 28 -107 78t-61.5 107.5t-11.5 113.5t44 101.5t105 65.5q25 8 49 12q241 46 397 14q12 0 23.5 14t33 35t52.5 32l-58 -81q-7 -7 -8 -9q49 -13 79 -22t61 -21.5t45.5 -25.5t23 -31t3.5 -40.5t-22 -51.5q-34 -57 -91.5 -99t-111.5 -44q128 -41 155 -133q16 -58 -4 -108
q224 4 459 67zM289 681q-60 -17 -97.5 -53t-48 -80t0.5 -94t41 -95t80 -84t112 -60q4 -2 12 -4q15 26 68.5 128.5t96.5 170t95 125.5l57 65q-185 32 -383 -11q-12 -2 -34 -8zM610 392q6 -3 131 -3q37 1 76.5 20.5t67.5 50.5t40.5 66t-6.5 71.5t-71 60.5q-38 18 -94 31
q-56 -77 -159.5 -255.5t-145.5 -241.5q189 -52 404 -54q17 52 -1 97.5t-70 66.5q-19 8 -47.5 17.5l-47.5 16t-38 15t-28.5 19t-10.5 22.5zM477 169l-36 10q-55 -78 -88 -114l-38 -36q119 -50 249 -55q104 -4 179 39t104 108h-12q-86 0 -180 13q-106 15 -178 35zM260 37
q-6 3 -61.5 33t-90.5 42q-77 27 -114 -18q-28 -33 -10 -75q19 -47 79 -50q101 -4 197 68z" />
    <glyph glyph-name="C" unicode="C" horiz-adv-x="1222" 
d="M1279 231q-65 -79 -197 -151t-286 -115.5t-312.5 -54.5t-275.5 33q-91 33 -130 114t-28 176.5t48 189.5t91 162q-33 127 -12 203q2 8 8 12.5t10 0t2 -17.5q-13 -76 8 -190q80 103 188 150t228 33q153 -17 207 -119q45 -84 2 -181q-42 -95 -144 -142q-101 -46 -229 -23
q-76 14 -141 60.5t-102 123.5q-10 -14 -26 -51.5t-33.5 -92.5t-23.5 -116.5t0 -118.5t41 -102.5t97 -64.5q58 -19 143 -21t180 11t196.5 41t192 65.5t167.5 89t121 108.5q9 12 14.5 6.5t-4.5 -18.5zM637 760q-108 12 -219 -58.5t-189 -188.5q62 -158 243 -178
q164 -18 253 83q65 75 59 175q-6 94 -73 141q-32 21 -74 26z" />
    <glyph glyph-name="D" unicode="D" horiz-adv-x="1506" 
d="M1645 253l3 -16q-250 -69 -352 -83.5t-291 -11.5q-36 -75 -114 -117.5t-168 -48t-180.5 12.5t-158.5 56q-121 -98 -259 -81q-90 11 -115 69q-20 47 16 88q46 53 140 38q24 -4 49 -13q41 -15 152 -74q52 50 112 147q-96 25 -212 104q-151 104 -173 201q-24 107 126 175
q104 47 219.5 55t196 -10.5t139.5 -49.5q39 45 74.5 70t56.5 21q6 -1 7.5 -4.5t-1 -6t-6.5 -2.5q-17 0 -44 -36t-44 -67q107 -71 163 -182t42 -248q-4 -41 -17 -77q129 -21 334.5 13.5t304.5 77.5zM469 256q17 -7 26 -10q23 40 76.5 141t97.5 172.5t92 124.5
q-160 77 -391 35q-161 -42 -203 -133q-42 -90 23 -164q63 -70 133 -103q64 -30 146 -63zM947 247q13 128 -22.5 240t-117.5 177l-125.5 -207.5t-137.5 -224.5q169 -51 382 -64q17 41 21 79zM918 151q-213 14 -391 56q-46 -70 -90 -117q-17 -18 -38 -36q81 -48 184.5 -55
t196.5 33t138 119zM353 64q-13 6 -46.5 23l-60.5 30t-54 22q-74 25 -113 -26q-31 -40 -17 -86q15 -49 70 -52q49 -2 110 25.5t111 63.5z" />
    <glyph glyph-name="E" unicode="E" horiz-adv-x="1070" 
d="M1117 176l4 -7q-428 -218 -797 -224q-83 -1 -147 18t-98 52.5t-49.5 75.5t-4 88.5t39.5 88.5t81 78.5t121 56.5q53 15 101 17q-50 18 -86.5 51.5t-33.5 73.5q2 25 12 48q-144 35 -254 89t-151 106l-2 8q183 -139 412 -193q47 96 191.5 154t258.5 45q56 -6 93.5 -26.5
t51 -47t9.5 -56t-25 -55t-60.5 -43.5t-89.5 -21q-179 -11 -368 26q-2 -6 -2 -9q-6 -35 5.5 -60t36.5 -38t50 -20.5t55 -14.5t43 -14l-15 -31q-7 0 -46 5t-79 2t-97 -20q-43 -13 -80.5 -42.5t-60.5 -67t-35 -79.5t-3 -82t33 -72t75 -51t122 -18q396 6 789 209zM708 792
q-115 1 -232.5 -58t-146.5 -144q166 -30 362 -19q39 5 73 28t50 53.5t16 60.5t-31.5 52.5t-90.5 26.5z" />
    <glyph glyph-name="F" unicode="F" horiz-adv-x="1344" 
d="M122 339l6 -8q-50 -48 -63 -121q-13 -70 8 -133.5t64 -105.5t98 -67t110 -25q86 -1 164.5 35t140 99.5t109 137t85.5 160.5q-4 0 -24 1t-40.5 0.5t-39.5 -2.5l-12 45q52 8 130 -7q31 76 78.5 158t66.5 104q-130 64 -272 95q-165 36 -272 -48q-71 -56 -80 -133
q-8 -68 40 -100q45 -29 90 -21t77.5 29t43.5 42l7 2q-31 -57 -100.5 -75t-123.5 14q-70 40 -64 123q6 82 80 147q99 88 247 72q36 -4 72 -14q141 -38 292 -128q109 -72 191.5 -108t152.5 -31q76 6 113 37q54 47 44 121.5t-74 138.5l12 6q82 -107 76.5 -182.5t-82.5 -110.5
q-75 -36 -190 -7.5t-258 118.5q-22 -25 -44.5 -64.5t-34.5 -65t-31.5 -73.5l-22.5 -55q50 -7 141 -7l-13 -26q-81 -5 -140 2l-32.5 -83.5t-40 -83t-51.5 -82t-65 -71.5t-82.5 -60.5t-102.5 -39.5t-126 -18q-179 -5 -272 112.5t-40 281.5q14 42 54 75z" />
    <glyph glyph-name="G" unicode="G" horiz-adv-x="1250" 
d="M1287 182l5 -4q-78 -74 -153 -128.5t-137 -85t-122.5 -50t-110 -23.5t-100 -6.5t-91.5 2.5q-27 1 -41 1q-61 -88 -162.5 -155.5t-197.5 -93t-152 -4.5q-94 34 -95 101q-1 64 78 118q74 51 184 66q79 11 133.5 9.5t112.5 -8.5t63 -7q74 125 101 246l4 17q-21 -20 -50 -42
t-74 -48.5t-90.5 -41t-99 -21t-100.5 11.5q-64 22 -104.5 88.5t-42.5 163t51 211.5q-58 61 -64.5 134.5t51.5 145.5l5 -4q-37 -44 -42.5 -93.5t11.5 -89t49 -77.5q14 30 28 53q78 128 212 196.5t257 49.5q129 -20 174 -106q40 -76 -7 -158q-56 -97 -196 -136
q-70 -20 -153 -21q-72 -1 -143 17.5t-120 51.5q-43 -93 -47.5 -177t26.5 -140.5t89 -75.5q69 -19 141 0t129 57t72 73q11 26 21 41q17 0 23.5 -0.5t19.5 -5.5t23 -18t20 -35q-28 -111 -129 -277q46 -7 96 -8t129.5 11.5t157 40.5t173.5 88t185 146zM609 804
q-99 15 -216.5 -63.5t-190.5 -197.5q-3 -5 -18.5 -28t-20.5 -33q49 -37 125 -59t149 -15q166 17 256 117q69 77 57 158q-11 78 -94 109q-22 8 -47 12zM490 -105q-103 24 -247 11q-137 -13 -236 -80q-77 -53 -70 -100q8 -51 114 -65q46 -10 125.5 13t169 82.5t144.5 138.5z
" />
    <glyph glyph-name="H" unicode="H" horiz-adv-x="1844" 
d="M1453 749q19 -2 31 -17.5t7 -36.5q-14 -32 -52.5 -105.5l-72.5 -138t-66.5 -146.5t-45.5 -145.5t1 -120t63 -83.5q63 -31 143 -16t165.5 63t155 104.5t112.5 107.5l6 -14q-93 -98 -193 -165t-187.5 -95.5t-163 -23.5t-124.5 46q-28 23 -34.5 72t5 109.5t22.5 101t24 78.5
q-93 0 -343 11q-55 -162 -147 -277q113 -54 210 -90t211.5 -64t229.5 -26t222 35q-8 -9 -1 -16q-74 -14 -106.5 -19t-107 -10.5t-153.5 5.5t-172 37q-204 57 -348 130q-153 -182 -353 -207q-86 -11 -167.5 8t-140.5 64.5t-83.5 116.5t4.5 163q13 41 33 68t48 39t59 15.5
t72 -6t80.5 -22.5t92 -37l98.5 -46.5l107 -53.5l121 -61q37 41 147 275q113 241 156 340q-38 -4 -101 -6.5t-108 -3.5t-101 -11t-95.5 -28.5t-75 -56t-54.5 -92.5q-13 -41 -11.5 -77t18 -62t38.5 -41t50 -13.5t53 20.5q34 26 47.5 75.5t10 87.5t-11.5 50q-10 14 -2 14
q5 0 9 -9q17 -45 14.5 -93t-26.5 -90.5t-59 -55.5q-90 -33 -141 19.5t-26 150.5q13 52 41 92t70 64.5t84 40.5t99.5 24t100 12t102.5 7t89 6q11 19 33.5 46.5t43.5 33.5q23 6 40 -1t17 -27q0 -32 -41 -53t-77 -21q-17 -33 -44 -102l-54.5 -143t-30.5 -81q75 0 193.5 -8.5
t145.5 -8.5q21 58 86.5 199.5t108.5 194.5zM198 -133q147 -27 267.5 19t233.5 176l-75 42l-96.5 53t-100 49.5t-137.5 60.5q-221 64 -274 -115q-28 -100 18 -174q22 -34 55 -58q31 -24 109 -53zM1138 793q-7 3 -31 -22.5t-41 -47.5q83 4 92 40q5 20 -14 28q-3 2 -6 2z" />
    <glyph glyph-name="I" unicode="I" horiz-adv-x="1402" 
d="M769 415l24 -4q1 -48 -32.5 -94.5t-83.5 -65.5q-81 -31 -142.5 17t-42.5 135q57 257 570 344q9 19 32.5 47t44.5 35q22 8 39 1.5t18 -25.5q0 -15 -6 -26.5t-18.5 -19.5t-23.5 -13t-29 -11q-6 0 -22 -4.5t-20 -4.5q-26 -67 -60.5 -169.5t-55 -158t-61.5 -137t-97 -162.5
q-141 -203 -395 -245q-106 -18 -195.5 -4t-147.5 56.5t-77 112t16 163.5q14 38 49 73.5t66 50.5l5 -11q-35 -22 -74 -66t-52 -94q-15 -63 1.5 -115t56 -83.5t91.5 -53t107.5 -23.5t104.5 5q63 12 120.5 38t99.5 53.5t83.5 71t66 74t54.5 81t41.5 72.5l33.5 67l75.5 158.5
l73.5 160t39 80.5l-65.5 -14t-70 -17.5t-76.5 -22t-73.5 -26t-73.5 -33t-64 -39.5t-57 -47.5t-40.5 -56.5t-26.5 -67t6 -65t42 -45.5t62 -21.5t67 8q51 20 72.5 61t20.5 80zM1151 823q-4 2 -14.5 -11t-24 -34t-18.5 -27q58 12 81 46q16 24 -2 28q-8 2 -22 -2z" />
    <glyph glyph-name="J" unicode="J" horiz-adv-x="1362" 
d="M833 395l20 6q10 -54 -30.5 -110.5t-100.5 -77.5q-83 -29 -137 17.5t-35 134.5q15 66 64 123t112.5 94.5t142.5 67t145 44.5t128 23q1 1 10.5 17t16.5 26.5t19.5 22.5t24.5 15q23 8 39.5 2t15.5 -26q-2 -19 -16.5 -33.5t-29.5 -21.5t-40 -15q-6 0 -22.5 -4t-20.5 -4
q-63 -90 -128 -227.5l-137 -286t-154 -264.5q-89 -128 -209 -200.5t-230 -88.5q-144 -21 -248.5 14t-140 117t21.5 209q23 45 72.5 85t76.5 41q12 1 11 -4q-1 -4 -14 -10q-32 -13 -84.5 -66.5t-72.5 -109.5q-18 -53 -11 -98.5t34 -76t66.5 -54t86.5 -32t94 -11t89 8.5
q290 66 536 493q37 64 132 252q28 54 62 109.5t57.5 88.5l49.5 69.5l29 40.5q-58 -10 -117.5 -24t-136.5 -40.5t-137.5 -59t-108 -81t-60.5 -103.5q-16 -48 10.5 -90t74 -59t90.5 -1q32 11 54 33t29 44.5t10 45t-3 35.5zM1232 796q-4 2 -18 -12.5t-31.5 -35.5t-24.5 -27
q64 12 87 49q13 22 -2 26q-5 1 -11 0z" />
    <glyph glyph-name="K" unicode="K" horiz-adv-x="1703" 
d="M1277 514l9 -15q-181 -112 -352 -155q-4 -8 -1.5 -55.5t20 -130.5t40.5 -135q30 -70 84.5 -112t115.5 -52q58 -9 132 19t144.5 78.5t129 99t107 94.5t55.5 51l9 -10q-209 -186 -330 -266.5t-226 -85.5q-84 -4 -158.5 41t-110.5 123q-26 57 -34.5 142.5t-3 146t15.5 64.5
q40 2 143 44.5t211 113.5zM730 468h20q13 -52 -17.5 -109.5t-80.5 -76.5q-90 -33 -153 25q-56 51 -53 134q5 103 104 175q66 48 166 70q49 11 103.5 17t124 10.5t88.5 6.5q0 1 6 12t11.5 20t13.5 20.5t17.5 19.5t18.5 11q39 11 57 -15t-10 -54q-29 -29 -98 -36
q-36 -64 -160 -377t-193 -421q-38 -55 -83 -74.5t-75.5 -10t-42.5 30.5q70 -10 173.5 136.5t241.5 449.5l115 266q-71 -4 -296 -42q-179 -29 -245 -135q-46 -74 -17 -146q24 -62 88 -76q36 -8 77 4q45 17 73 66t26 99zM1132 748q28 13 16 35q-10 20 -33 15q-7 -1 -14 -7
t-24.5 -35.5t-20.5 -33.5q34 5 76 26z" />
    <glyph glyph-name="L" unicode="L" horiz-adv-x="1094" 
d="M458 699l7 -16h-1q-59 -12 -104.5 -45t-67.5 -74t-21.5 -84.5t23.5 -78t79 -53.5t135 -12l89 223q88 226 210 278q70 30 120 -6q28 -20 30 -48q8 -98 -52 -199t-159.5 -171.5t-205.5 -88.5q-61 -123 -88 -172l-38 -69q96 -24 345 -114q124 -45 253 -73t226 -37t194.5 -8
t151.5 6t104 13l-3 -17q-121 -11 -212 -13.5t-211 4.5t-249 35t-271 78q-34 12 -106.5 41t-125 46.5t-109.5 28.5q-85 -119 -177 -163q-104 -50 -173 -13q-47 26 -45 74q3 58 76 95q14 7 31 13q49 18 130.5 19.5t132.5 -9.5q39 61 122 231q-69 -2 -125.5 19.5t-88 57t-40 80
t9.5 86.5t70.5 79.5t133.5 56.5zM927 803q3 25 -25 25q-47 0 -113 -61q-82 -76 -131 -200l-114 -229q81 11 152 60t118 116.5t76.5 142.5t36.5 146zM362 79q-106 23 -208 -4q-115 -30 -135 -85q-14 -39 26 -63q53 -32 139 1q12 4 24 10q83 40 154 141z" />
    <glyph glyph-name="M" unicode="M" horiz-adv-x="1836" 
d="M1875 191l12 -7q-113 -136 -283 -227q-175 -94 -289 -74q-123 22 -115 177q0 8 1 16q4 42 23 101t34 95t53 120.5l48 106.5q51 118 12 112q-42 -6 -150 -135q-154 -184 -259 -396q-43 -85 -68 -161q-47 36 -58.5 72.5t5.5 89t43 110.5t57.5 165t45.5 225q8 62 -14.5 87
t-61.5 9.5t-78 -64.5q-43 -53 -79 -105.5l-58.5 -88t-55 -101.5l-46.5 -95.5t-55.5 -123.5l-60.5 -135q-4 -10 -14 -14.5t-21 -3.5t-21 3.5t-18 5.5l-8 3q66 102 146.5 309t97.5 326q23 168 -85 198q-91 25 -231 -52q-132 -73 -213 -184q-34 -47 -51 -93
q-20 -56 -23.5 -104.5t8.5 -81.5t34 -57t51.5 -34.5t63 -10.5t66.5 12q37 14 62 43.5t30 62t-3 61.5t-39 45.5t-76 10.5q-14 -2 -14 7q1 6 8 2q49 9 86.5 -9.5t52.5 -54t15 -76.5t-26.5 -82t-73.5 -65q-49 -26 -107 -12t-98.5 59t-55 116t23.5 161q62 145 209 251
q136 98 261 105q127 8 168 -89q22 -52 15 -131q-10 -87 -52 -199q-11 -31 -4 -32q5 -1 17 21q74 135 163 242q29 35 70 57t78 24t60.5 -28t17.5 -90q-1 -17 -34 -169q-30 -137 -73 -259q-41 -112 -36 -120q2 -3 7.5 0t13.5 13q65 151 189 316q55 75 156 186q100 111 146 67
q47 -44 -3 -142q-86 -171 -90 -180q-186 -400 42 -396h8q141 8 277 94.5t224 194.5z" />
    <glyph glyph-name="N" unicode="N" horiz-adv-x="1632" 
d="M1678 209l8 -9q-81 -136 -264 -244q-178 -105 -340 -120q-164 -16 -213 78q-37 72 5 199q12 35 119 260t116 284q9 51 -35 68.5t-97 -9.5q-91 -43 -224 -202q-63 -77 -118 -177.5t-115 -240t-67 -154.5q-14 -30 -71 9l-9 7q48 71 134.5 262.5t118.5 333.5q17 79 3 127
t-49.5 71t-85.5 23t-105.5 -17t-108.5 -49q-177 -106 -236 -255q-46 -115 -4 -198q41 -76 128 -78q100 0 167 78q52 61 48 121q-4 58 -63 67q-31 4 -74 -8q-9 -2 -9 0q-1 4 8 10l6 2q99 24 138 -43q33 -57 4 -137q-32 -86 -114 -125q-46 -21 -101 -21q-66 0 -114.5 40.5
t-63 114.5t26.5 177q34 83 108.5 156t165.5 123q64 35 135 50t133 6t97.5 -59.5t24.5 -137.5q-2 -16 -5 -32t-9.5 -36l-10.5 -31.5t-14.5 -35.5l-13.5 -31t-16 -35.5t-14 -31.5q-27 -60 -26 -61l14 23l17 27q61 94 132 180q132 160 237 208q49 23 95.5 27t79 -19.5
t31.5 -75.5q-1 -53 -33.5 -126.5t-96 -189.5t-98.5 -191q-138 -302 51 -302q107 0 207 27t171 65.5t133 89t97.5 91t58.5 77.5z" />
    <glyph glyph-name="O" unicode="O" horiz-adv-x="1271" 
d="M711 267l2 -18h3q-32 -72 -83.5 -135t-117 -108t-138 -61t-146.5 7q-57 18 -92.5 76t-39.5 136t29 167q-58 57 -63.5 136t39.5 151q50 84 171 129q112 41 218 17q95 -21 149 -66q54 -42 83 -105q38 -83 34 -161l-4 -35q-4 -63 -32 -130h-12zM530 638v-17l-9 3
q-51 17 -104.5 -7t-96 -75t-74 -105t-50.5 -105q39 -28 93.5 -53t121 -43.5t138 -14.5t129.5 35q48 242 -35 384q-68 115 -250 115q-83 0 -174 -46q-91 -45 -121 -138q-28 -93 48 -199q22 47 60 96.5t88 94.5t113 67t122 8h1zM675 243q-78 -42 -175 -45.5t-179.5 23
t-142.5 71.5q-25 -65 -30.5 -127.5t15 -115.5t66.5 -76q74 -34 147.5 -16.5t136 67t105.5 109t57 110.5zM723 267l-7 -18q23 0 58 -6q9 -2 15 -3.5t10.5 -4.5t6 -4.5t6 -6.5t6.5 -8q5 -7 0.5 -40t-6 -82t-1 -95t16.5 -79.5t47 -34.5q52 -2 115.5 25.5t117 68.5t100 82.5
t73.5 70.5l27 30l2 14l-34 -33.5t-80.5 -72t-111 -89t-109 -64t-90.5 -17.5q-36 10 -50 55t-10 97t6 101.5t-2 67.5q-18 46 -106 46z" />
    <glyph glyph-name="P" unicode="P" horiz-adv-x="1219" 
d="M870 801q2 -25 -25 -52q68 -19 117 -53q73 -47 95.5 -106t1 -115t-68 -107.5t-108 -88.5t-122.5 -53q-128 -34 -226 -27q-75 -119 -151 -198q-133 -133 -296 -112q-83 11 -93 67q-9 52 42 102q65 63 162 58q37 -1 75 -15q13 -5 12 -8q-2 -4 -19 1q-118 27 -202 -33
q-56 -40 -59 -88q-4 -50 54 -65q21 -6 48 -6q112 0 237 131q63 68 160 261q-88 -19 -171 -20.5t-152.5 15t-110.5 61.5t-38 113q3 69 46 124.5t109.5 89.5t129 53.5t125.5 29.5q210 34 363 -1q29 26 65 42zM85 453q-1 -16 1 -31.5t11 -36t26 -36.5t49 -30.5t75 -21t109.5 -5
t147.5 14.5q4 0 7 1l82.5 164.5t82 135t112.5 138.5q-86 18 -179 16.5t-163 -16.5q-50 -9 -108.5 -34.5t-114 -63t-94.5 -89.5t-44 -106zM945 675q-72 50 -110 60q-36 -55 -71.5 -118l-84.5 -156l-67 -126q131 45 199 122q10 -9 8 -11q-64 -75 -215 -125l-56 -98
q82 -3 180 29q81 27 148 80.5t102.5 114.5t29.5 124t-63 104z" />
    <glyph glyph-name="Q" unicode="Q" horiz-adv-x="1049" 
d="M525 -19l9 10q138 33 244 -27q70 -40 83 -94q13 -58 -51 -85q-40 -18 -105 -18q-68 0 -127.5 14.5t-109 43t-81 52.5t-72.5 61q-131 -2 -188 111q-3 -1 -9 -1q-30 -5 -41.5 -22t-8.5 -28l-18 2q6 21 26 39.5t45 21.5l-3 8q-28 68 -20 145.5t40 149.5t83 135
q-29 84 31 147q98 93 198 102q99 9 162 -11q120 -36 145 -185q23 -140 -48 -303.5t-204 -250.5q-81 -52 -165 -59q39 -36 67 -57.5t71.5 -47.5t95 -38.5t110.5 -11.5q108 1 123 52q12 42 -43 87q-74 61 -191 61q-24 0 -48 -3zM485 338l-2 -27q-62 3 -121 34.5t-98 79.5
q-70 -84 -103.5 -179.5t-11.5 -174.5l3 -11q31 -4 64.5 -22.5t54 -36l58.5 -52.5q96 8 185 75q147 111 192 286q39 152 -15 273q-50 113 -158 136q-87 19 -195 -29q-145 -65 -104 -176q77 90 166 127.5t158 -0.5q4 -2 5.5 -9.5t0.5 -16.5t-3.5 -17.5t-6.5 -13.5t-8 -4
q-54 17 -127.5 -22.5t-139.5 -114.5q42 -46 101 -76.5t105 -28.5zM157 47q40 -95 146 -98q-36 33 -52.5 47t-43.5 30.5t-50 20.5z" />
    <glyph glyph-name="R" unicode="R" horiz-adv-x="1342" 
d="M1380 220l6 -4q-35 -36 -178.5 -110t-213.5 -97l-47 -17t-48.5 -15t-37 -4t-42.5 7.5t-37 29.5q-59 62 -95 167t-50 188l-50 -97.5t-53 -85.5t-73 -94q-31 -33 -59 -54q211 -169 419 -107l-6 -11q-193 -60 -431 106q-112 -75 -238 -58q-46 9 -71.5 39.5t-25 64.5t13.5 68
q34 74 100 62q33 -4 200 -143q35 34 75.5 91t61.5 92.5l66 115.5l57.5 102.5l63 111.5t54 85t62.5 82q-84 8 -125 11t-118.5 1t-139.5 -15q-124 -26 -208.5 -86.5t-98.5 -126.5q-8 -39 6.5 -72.5t44.5 -53t65 -27.5t71.5 1.5t61.5 36.5q11 11 18 34.5t7 50.5t-20.5 49
t-60.5 28q-16 2 -1 7q17 5 26 2q37 -15 54 -41.5t14.5 -53t-10.5 -46.5t-17 -30q-50 -52 -118.5 -62t-117 31t-41.5 121q8 87 100 162t249 98q204 29 381 5q42 46 42 17q-1 -9 -5 -22q74 -12 99 -19q133 -38 148 -116q14 -70 -71 -137q-92 -71 -246 -96q-44 -7 -92 -9
q32 -177 111 -298q36 -55 76.5 -64.5t111.5 14.5q46 14 186.5 83.5t194.5 107.5zM948 710q-24 7 -98 19q-21 -37 -98 -161.5t-102 -175.5q106 0 179 17q115 27 181 103q59 69 33 129q-22 47 -95 69zM171 -8q90 -22 177 50q-154 133 -184 141q-29 8 -46 -5q-17 -12 -24 -40
q-5 -28 -1 -57.5t25 -55t53 -33.5z" />
    <glyph glyph-name="S" unicode="S" horiz-adv-x="1254" 
d="M1303 238l9 -7q-147 -63 -453 10q-8 -74 -66.5 -148.5t-125.5 -105.5q-191 -90 -359 -24q-112 44 -167 138q-53 91 -19 167q42 92 195 101q116 7 279 -39l186 -54q-14 43 -53 74q-33 26 -134.5 69.5t-136.5 66.5q-81 53 -76 126q-174 51 -265 126l8 11q109 -75 259 -120
q10 48 54.5 90.5t107.5 65.5q144 50 250 -3q51 -27 43.5 -83t-61.5 -88q-109 -65 -314 -19q16 -42 66 -72q28 -17 112.5 -55.5t123.5 -62.5q93 -59 95 -149q201 -53 315 -40q82 9 127 25zM611 -8q91 37 139 114t35 151q-17 5 -50 13.5t-61 16.5t-55 17q-270 81 -400 4
q-80 -47 -78 -135q2 -84 76 -149q98 -85 248 -70q71 7 146 38zM588 774q-63 -21 -101 -68t-28 -97q66 -13 125 -18q33 -2 73.5 3.5t82 19t66.5 43t19 70.5q-4 23 -32 43q-24 17 -77 20.5t-128 -16.5z" />
    <glyph glyph-name="T" unicode="T" horiz-adv-x="1160" 
d="M293 473q14 2 46 4q-4 49 17 97.5t63 88.5t115 61.5t162 13.5q37 -3 85.5 -14t76 -19.5t81.5 -27t59 -19.5q58 -20 126 -32t171.5 -10t198.5 29q-61 -61 -82.5 -68.5t-112.5 -5.5q-152 3 -264 51q-39 -62 -73 -146.5t-54.5 -151.5t-59 -145t-88.5 -135q-39 -44 -97 -75.5
t-122.5 -46t-134 -16t-131.5 15t-115.5 46.5t-85.5 78t-41.5 110.5t16.5 143.5q28 83 92 120q75 42 152 53zM621 564l10 3q30 -109 -22 -179q77 -53 150 -128q-1 -1 -1 -4.5t-2 -6t-9 -2.5q-48 66 -113 113l-30 21q-30 -35 -75 -48.5t-80 0.5q-46 16 -74 51t-35 81
q-57 1 -108 -17q-130 -46 -163 -194q-13 -73 10.5 -135t70 -99.5t105 -58t117.5 -19.5q207 5 340 150q53 57 116.5 179t113.5 232t64 129q-32 10 -99.5 36t-120 41.5t-100.5 17.5q-129 6 -214.5 -74t-95.5 -177q110 -8 221 -80q27 39 33.5 91.5t-9.5 76.5zM448 347
q92 -24 144 42q-44 26 -92 45q-61 24 -125 30q-2 -45 16.5 -76.5t56.5 -40.5z" />
    <glyph glyph-name="U" unicode="U" horiz-adv-x="1166" 
d="M883 165q-62 -209 -18 -232q-19 8 -30.5 22t-16 30.5t-4 44t3.5 51.5t9 64q3 22 5 34q-34 -53 -64 -90q-40 -50 -81.5 -82.5t-77 -44t-65 -6.5t-48.5 28t-24 61q-8 59 30 158.5t92 212.5t69 165q21 71 17 142t-37 92q-39 26 -96.5 21.5t-115.5 -26t-118 -57.5
q-54 -33 -97 -70q17 -12 36 -29q173 -159 107 -373q-21 -68 -83 -109q-61 -40 -109 -37q-48 5 -85 28q-46 31 -68.5 88.5t-18 126t46.5 149t118 150.5l16 14q-39 25 -92 48l7 11q56 -23 97 -49q56 45 128 85q89 48 174 60t153 -16q128 -56 78 -253q-15 -61 -72.5 -173.5
t-101 -215t-38.5 -165.5q4 -58 54 -60q62 -3 143 79q28 30 55 67q40 57 99 179.5t70 140.5q15 24 27 36l42 -39q-6 -17 -26 -52.5t-25 -46.5q-42 -84 -65 -162zM246 638q-17 16 -42 34q-31 -28 -56 -59q-61 -72 -91 -153t-27 -147t33 -110q32 -45 84 -53t119 29
q64 40 81 106t15 123q-2 123 -116 230z" />
    <glyph glyph-name="V" unicode="V" horiz-adv-x="1084" 
d="M897 426q58 41 101 1q-80 -45 -149 -107.5t-112.5 -118.5l-80.5 -107.5t-71.5 -86t-67.5 -41.5q-36 34 -45 79q-8 59 30 158.5t92 212.5t69 165q21 71 17 142t-37 92q-39 26 -96.5 21.5t-115.5 -26t-118 -57.5q-54 -33 -97 -70q17 -12 36 -29q173 -159 107 -373
q-21 -68 -83 -109q-61 -40 -109 -37q-48 5 -85 28q-46 31 -68.5 88.5t-18 126t46.5 149t118 150.5l16 14q-39 25 -92 48l7 11q56 -23 97 -49q56 45 128 85q89 48 174 60t153 -16q128 -56 78 -253q-15 -61 -72.5 -173.5t-101 -215t-38.5 -165.5q1 -18 14 -46q35 17 63 49
t47 66.5t55.5 91.5t78.5 107q27 34 57 67q24 25 73 68zM246 638q-17 16 -42 34q-31 -28 -56 -59q-61 -72 -91 -153t-27 -147t33 -110q32 -45 84 -53t119 29q64 40 81 106t15 123q-2 123 -116 230z" />
    <glyph glyph-name="W" unicode="W" horiz-adv-x="1658" 
d="M901 426q60 41 101 1l-1 -1q-2 -4 -38.5 -69t-64.5 -131t-43 -136q-27 -126 58 -133q77 -7 197 75q116 80 174 175q8 14 14 27q43 90 53 173t-17.5 137.5t-88.5 58.5l8 9q61 -4 103 -52.5t48 -133.5t-44 -201q-55 -125 -184 -215q-119 -84 -220 -82t-122 97q-3 17 -4 35
q-3 57 17 119.5t43.5 102.5t52 82t31.5 47q-76 -45 -143.5 -106t-111 -115l-81.5 -103t-73 -81.5t-67 -39.5q-34 34 -41 79q-5 59 38 158.5t103 212t77 165.5q25 71 25 142t-33 92q-37 26 -95 21.5t-117 -26t-121 -57.5q-59 -35 -101 -70q13 -9 35 -29q165 -159 87 -373
q-25 -69 -88 -109q-62 -40 -111 -37q-48 5 -83 28q-60 42 -75.5 124.5t29.5 190t150 199.5l17 14q-40 25 -90 48l8 11q55 -23 94 -49q57 44 133 85q91 48 177 60t152 -16q126 -56 65 -253q-18 -61 -81.5 -173.5t-112 -215t-46.5 -165.5q0 -13 11 -46q46 21 78.5 63t80 116
t101.5 135q33 39 61 67q25 25 76 68zM261 638q-17 18 -40 34q-37 -32 -59 -59q-49 -54 -81.5 -114.5t-43.5 -114.5t-6.5 -101t25.5 -80q29 -45 81.5 -53.5t120.5 29.5q66 40 86 106t21 123q5 123 -104 230z" />
    <glyph glyph-name="X" unicode="X" horiz-adv-x="1055" 
d="M1039 789l29 -31q-37 -33 -109.5 -85l-195 -136l-203.5 -142q-4 -208 15 -342q15 -109 75 -106t135 107q39 55 70 124l15 -7q-90 -183 -197 -240q-82 -44 -134 9q-26 27 -37 77q-10 43 -4 340q-377 -271 -575 -545l-23 23q205 281 597 560q2 188 -10 263
q-10 60 -46.5 87.5t-82.5 23t-93 -27t-81 -56.5q-32 -33 -54.5 -81.5t-24.5 -99.5q-2 -52 8 -97.5t33 -71.5t54.5 -25.5t78.5 48.5t99 143l1 1q3 0 8 -2q14 -5 5 -22q-104 -178 -196 -182q-62 -3 -93 69q-37 82 -8 187q35 130 149 193q80 43 188 43q30 0 52.5 -12t36 -37.5
t21.5 -52.5t11.5 -70t4.5 -76t1 -85v-22l172 118t174 121t103 87z" />
    <glyph glyph-name="Y" unicode="Y" horiz-adv-x="1348" 
d="M1336 136l2 -11q-14 -9 -62 -46t-97 -69.5t-115.5 -70t-147.5 -62.5t-163 -31q-90 -135 -277 -213q-121 -51 -208 -13q-58 25 -63 75q-7 60 72 106q5 3 11 6q60 32 145.5 47t131.5 16t155 1q72 174 112 308q-34 -53 -64 -90q-40 -50 -81.5 -82.5t-77 -44t-65 -6.5
t-48.5 28t-24 61q-8 59 30 158.5t92 212.5t69 165q21 71 17 142t-37 92q-39 26 -96.5 21.5t-115.5 -26t-118 -57.5q-54 -33 -97 -70q17 -12 36 -29q173 -159 107 -373q-21 -68 -83 -109q-61 -40 -109 -37q-48 5 -85 28q-46 31 -68.5 88.5t-18 126t46.5 149t118 150.5l16 14
q-39 25 -92 48l7 11q56 -23 97 -49q56 45 128 85q89 48 174 60t153 -16q128 -56 78 -253q-15 -61 -72.5 -173.5t-101 -215t-38.5 -165.5q4 -58 54 -60q62 -3 143 79q28 30 55 67q40 57 99 179.5t70 140.5q15 24 27 36l42 -39q-6 -17 -26 -52.5t-25 -46.5q-42 -84 -89 -247
q-56 -144 -91 -208q87 9 168 33.5t154 65t126.5 77t119.5 88.5zM246 638q-17 16 -42 34q-31 -28 -56 -59q-61 -72 -91 -153t-27 -147t33 -110q32 -45 84 -53t119 29q64 40 81 106t15 123q-2 123 -116 230zM706 -154q-65 0 -106 -1.5t-99 -8t-107.5 -21.5t-91.5 -40
q-102 -58 -78 -102q19 -36 101 -40q69 -4 136 21q73 27 138 75.5t107 116.5z" />
    <glyph glyph-name="Z" unicode="Z" horiz-adv-x="1061" 
d="M555 598l15 -12q-14 -28 -52 -54.5t-91 -35t-102 37.5q-19 17 -29 43.5t-5.5 57t23 57.5t64.5 47.5t112 25.5q35 3 73.5 -0.5t83 -14.5t73 -19t80 -24.5l67.5 -21.5q65 51 111 67q40 14 69 2t29 -38t-30 -55q-37 -31 -162 0q-32 -29 -76.5 -84.5l-99 -128l-78.5 -102.5
q-18 -23 -37.5 -45t-40.5 -43.5l-37 -38t-39 -37.5l-35.5 -32.5t-36 -31l-31 -26t-31 -25.5t-25.5 -21q9 -8 24.5 -20.5t63 -43.5t93 -53.5t106.5 -38t112 -9.5q67 8 91 61q24 50 -12 94q-37 47 -121 52q-3 2 -0.5 3t-0.5 5q69 10 123 -45q51 -52 42 -114q-10 -75 -109 -108
q-12 -4 -26 -7q-83 -20 -202 55q-55 35 -209 155q-129 -92 -200 -69q-32 10 -54 33t-26.5 48.5t4 48t38.5 35.5t75 8q31 -3 61 -15t44 -20.5l63 -39.5l338 399q101 119 213 210q-67 19 -155 33t-186.5 17.5t-155.5 -19.5q-39 -14 -48.5 -55t13 -80t66.5 -50q96 -22 173 82z
M278 42q-22 23 -68 47.5t-69 28.5q-89 19 -112 -20q-18 -30 15 -64q37 -39 106 -42q32 -1 68 14.5t60 35.5zM1028 669q23 14 25.5 46.5t-23.5 33.5q-45 0 -131 -73q96 -27 129 -7z" />
    <glyph glyph-name="bracketleft" unicode="[" horiz-adv-x="585" 
d="M583 668q6 -9 -1 -8q-2 0 -8 1q-11 3 -16 3q-12 0 -36.5 2t-37.5 2q-38 0 -47 -5q-48 -24 -130.5 -147t-146 -257.5t-63.5 -190.5q0 -44 67 -44q24 0 72 4q6 0 -5 -5q-45 -24 -85 -24q-27 0 -50 14.5t-23 45.5q0 117 87 296.5t179 286.5q25 29 43 40t67.5 10.5
t133.5 -24.5z" />
    <glyph glyph-name="backslash" unicode="\" horiz-adv-x="867" 
d="M852 -40q-50 15 -133 103.5t-171 203l-177 227.5t-170.5 190t-131.5 77q-8 0 -23.5 -6.5t-18.5 -7.5q5 14 25.5 25t32.5 13q73 11 168 -72.5t171 -205.5q83 -133 185.5 -261.5t242.5 -285.5z" />
    <glyph glyph-name="bracketright" unicode="]" horiz-adv-x="556" 
d="M516 645q0 -148 -70.5 -331.5t-170.5 -284.5q-21 -21 -56 -32t-60.5 -12.5t-66.5 -1.5q-64 0 -75 5q1 2 43.5 6t99 24t91.5 59q77 86 157.5 269.5t80.5 288.5q0 15 -3 30q-11 4 -33 4q-12 0 -51.5 -1.5t-62.5 -0.5q13 8 41 15.5t59 10.5t54 -8.5t23 -39.5z" />
    <glyph glyph-name="asciicircum" unicode="^" horiz-adv-x="370" 
d="M288 513q9 -6 35 -39l47.5 -62.5t20.5 -29.5q-22 0 -68 34.5t-63 57.5q-119 -85 -142 -81q2 13 74.5 67t89.5 56z" />
    <glyph glyph-name="underscore" unicode="_" horiz-adv-x="806" 
d="M793 -53l-7 -7q-236 0 -567 -7q-28 0 -93.5 -3t-100.5 -3q-8 0 -12.5 10t-4.5 19q0 19 17 19h740q11 0 19 -8.5t9 -19.5z" />
    <glyph glyph-name="grave" unicode="`" horiz-adv-x="211" 
d="M28 534q11 5 89 -58q82 -66 71 -76q-2 -1 -5 -1q-4 0 -33.5 15l-63.5 33l-40 21q-14 7 -20 22.5t-4.5 28.5t6.5 15z" />
    <glyph glyph-name="a" unicode="a" 
d="M518 149q-302 -220 -449 -231q-15 -1 -20.5 13t-3 34.5t6.5 37.5t8 27q14 39 49 94l41 61l15 18q4 4 4 7q-6 2 -8 -2q-58 -43 -147 -155q-5 -8 -17 -22q-21 -18 -44 5l-9 12q-9 16 -7 33q2 19 6 35q28 76 94 124q20 16 47 20q22 3 42 -9q16 -9 16 -25q-46 0 -86.5 -36.5
t-58.5 -83.5q-3 -7 -6 -15l-6.5 -18t-5.5 -15q-3 -8 -2 -15q-1 -2 1.5 -4t4.5 -1q6 2 10 4q3 2 6.5 7.5t4.5 6.5l14.5 22l16.5 25l15 22t18 24l18 20t22 20.5t23 15.5l12 7.5t24 10t26 1.5q31 -14 23 -27l-39 -55q-39 -56 -77 -117.5t-41 -81.5q-1 -8 3 -12t12.5 -3.5t17 2
t21.5 5.5q159 49 400 224z" />
    <glyph glyph-name="b" unicode="b" horiz-adv-x="586" 
d="M611 236q60 22 67 22q8 -1 -67 -32q-217 -88 -279 -101q-25 -5 -45 -5q-45 0 -81 19q-24 -55 -85 -99q-46 -33 -87 -38h-6q-17 0 -27 13q-4 5 -6.5 11.5t-4 13.5t-2 14.5t-0.5 15t0.5 14.5t1 13t1 10.5t1.5 6.5v3v1h1q1 8 5 24q7 28 42 110.5t65 134.5l65 111
q41 66 71 108q57 80 133 157q30 30 60 57q10 8 23 15q9 6 13 -1q4 -5 0 -16q-13 -32 -15 -35q-33 -68 -77 -131q-87 -126 -185 -235q-13 -15 -21 -29q-47 -87 -99 -205l-33 -78v-1q-3 -7 -6 -17.5t-9 -37t1 -31.5q5 -20 54 22q65 56 97 122q-18 19 -21 47q-3 43 13.5 67.5
t31.5 25.5h1q11 0 21 -16q25 -39 -7 -123l-3 -9q30 -23 81 -23q50 0 143 36zM218 467q-4 -4 -2 -10l13 14l103 133q28 37 64 90q27 41 55 98q9 19 11 30q-12 -7 -28 -25q-33 -37 -82 -109q-40 -58 -134 -221zM196 213q16 66 7 80q-1 3 -5 3q-12 0 -23 -38q-10 -38 11 -75z
" />
    <glyph glyph-name="c" unicode="c" horiz-adv-x="460" 
d="M481 274l1 -3q1 -3 1.5 -6.5t1.5 -4.5q-19 -22 -65.5 -62.5t-118 -93.5t-162 -94t-169.5 -49q-14 -2 -24 5.5t-11 22.5q-2 20 1 35q6 34 11 48q29 94 87 153q33 33 65 46q5 2 21 7q13 3 23 -2q1 0 1 -0.5t1 -0.5q4 -3 7 -7q12 -16 8 -42q-6 -44 -53 -66q-15 -8 -20 2
l-1 -1q27 35 49 75q2 4 4 6q4 7 6 16q1 4 -1 7.5t-7 2.5q-7 0 -14 -7q-6 -5 -16 -17q-130 -181 -133 -254q-3 -4 0 -9q2 -2 5 -2h4q17 -3 68.5 13t121.5 48.5t155 94.5t153 139z" />
    <glyph glyph-name="d" unicode="d" horiz-adv-x="598" 
d="M220 144q-32 -78 -39 -159q-7 -52 -2.5 -102t30.5 -45q12 2 62 54.5t78 85.5q81 87 192 173l80 56v-9l-45 -32.5t-101.5 -84t-129.5 -124.5l-68 -75q-34 -39 -47 -50.5t-24 -12t-29 12.5q-28 21 -35.5 99.5t10.5 170.5l2 11l6 25l2 6q-83 -106 -101 -125q-9 -9 -14 -12
t-14 -3t-17 15t-17 44q-23 78 2.5 142.5t79.5 93.5q41 21 77.5 11t41.5 -39q2 -18 2 -21q37 85 65 133l65 111q41 66 71 108q62 85 133 157q30 30 60 57q9 7 22 15q10 6 14 -1q4 -6 0 -16l-15 -35q-33 -68 -77 -131q-93 -134 -185 -235q-13 -15 -21 -29q-47 -87 -99 -205z
M59 39q20 21 64 73t46 54l1 2q11 33 19 49l3 8q0 36 -10 41q-55 18 -96.5 -33.5t-53.5 -131.5q-10 -61 4 -73q8 -6 23 11zM379 463q-3 -6 -1 -10l13 14l103 133q33 44 63 90q27 39 56 98q8 16 10 30q-10 -6 -27 -25q-29 -32 -83 -109q-45 -65 -134 -221z" />
    <glyph glyph-name="e" unicode="e" horiz-adv-x="440" 
d="M468 234l13 -8q-66 -74 -232 -168.5t-268 -90.5q-32 2 -35 28q-2 20 1 35q6 34 11 48q29 94 87 153q33 33 65 46q5 2 21 7q13 3 23 -2h1l1 -1q4 -3 7 -7q12 -16 8 -42q-3 -22 -17 -38v-1l-6 -6q-22 -25 -45 -27q-21 -3 -30 24q-85 -127 -88 -188q-3 -5 1 -9q1 -2 4 -2h4
q67 -11 239.5 78t234.5 171zM118 250q-16 -22 -42 -61q16 -3 33 10q9 7 18 17.5t14 17.5l5 8l4 6q4 7 6 16q2 4 -0.5 7.5t-7.5 2.5q-7 0 -14 -7q-6 -5 -16 -17z" />
    <glyph glyph-name="f" unicode="f" horiz-adv-x="683" 
d="M711 182l4 -7q-60 -52 -189 -115t-200 -71q-60 -2 -77 51q-11 29 0 79t26.5 87.5t15.5 38.5q-2 2 -33 -1t-61 -7l-30 -4q-59 -8 -68 -10q-56 -125 -151 -367q-21 -54 -30 -89t-8 -42.5t2 -7.5q-25 0 -42 17q-29 27 -4 114q39 129 158 365l-35 -4q-6 -1 -16 -3t-30 -4
t-28 -1q-13 5 -12 10l129 17l42 84l18 32l65 112l71 107q56 80 133 158q19 19 61 57q11 10 22 15q9 5 14 -2q3 -4 -1 -15q-6 -19 -15 -35q-29 -63 -76 -131q-88 -127 -185 -235q-12 -13 -21 -30q-12 -21 -55 -107l87 12q108 17 123 7q-60 -160 -50 -204q5 -59 82 -44
q67 13 189.5 71t174.5 102zM205 425q-4 -6 -2 -10l13 14l103 132q22 29 64 91q32 48 55 97q10 22 11 31q-9 -6 -28 -25q-31 -36 -82 -109q-40 -58 -134 -221z" />
    <glyph glyph-name="g" unicode="g" horiz-adv-x="510" 
d="M524 192l12 -8q-65 -79 -136 -133q-66 -52 -122.5 -88.5t-120 -72l-74.5 -41.5q-67 -144 -117 -203q-59 -70 -127 -78q-3 1 -16.5 -1t-36 6.5t-34.5 26.5q-21 30 -3.5 71t64.5 66l157 81q16 6 36 17l3 3q49 83 94.5 180t68 154t22.5 63q-1 15 -14 6l-2 -1l-38 -31
q-25 -22 -42 -40l-51 -57q-18 -18 -22 -21q-23 -17 -43 5l-7 12q-6 17 -2 33q5 19 12 35q38 75 113 124q24 16 50 20q23 3 41 -9q14 -9 13 -25q-9 0 -17 -3q-10 -4 -15 -5q-26 -4 -48 -20q-55 -38 -85 -92q-18 -32 -26 -48q-2 -5 -4 -15q-1 -2 1.5 -4t4.5 -1q4 0 10 4
q10 8 14 13q2 2 11.5 14l14.5 18q48 58 77 83q18 15 26 21q15 12 31 18q-1 -1 -1 -3l6 5l8 -3q21 -20 -17 -133q-52 -154 -99 -260l63 32t96.5 54t93.5 67q99 78 176 163zM-130 -356q52 55 125 165l-96 -48q-73 -37 -107 -72q-19 -18 -25 -39t-3.5 -33.5t8.5 -16.5
q3 -5 8 -6q29 -11 90 50z" />
    <glyph glyph-name="h" unicode="h" horiz-adv-x="703" 
d="M765 220l7 -7l-49 -43t-115.5 -95.5t-156.5 -120t-149 -91.5t-116 -36q-40 4 -51 56.5t13 113.5q24 60 49 110.5t45.5 86t23.5 41.5q8 17 -11 16q-9 0 -29 -5q-53 -13 -119 -87q-25 -28 -56 -69l-49 -64.5t-22 -23.5q-14 0 -22 7q-18 12 -28 29q-9 22 -7 37t7 23
q67 147 125 255l8 16l10 16l65 112q46 72 71 107q56 81 133 158l60 57q9 7 22 15q9 5 14 -1q4 -6 0 -16l-15 -35q-32 -64 -77 -131q-93 -134 -185 -235q-12 -14 -21 -30q-21 -38 -59 -116q-1 -4 -14 -35.5l-36 -87l-41 -99.5l-12 -27l3 2q7 4 41.5 52.5t83.5 102.5t93 74
q56 26 88 15q24 -7 10 -39l-49 -111q-104 -257 -28 -263q6 0 12 1q36 6 104 45.5t139.5 92l138 104.5l108.5 87zM185 466q-3 -8 -1 -10l13 14l103 133q33 43 63 90q27 39 56 98q8 16 10 30q-10 -6 -27 -25q-29 -32 -83 -109q-45 -65 -134 -221z" />
    <glyph glyph-name="i" unicode="i" horiz-adv-x="474" 
d="M517 227q1 0 5 -4q-7 -5 -26 -7q-63 -6 -133.5 -24.5t-164.5 -68t-155 -120.5l-21 -21q-12 -12 -29 -15q-14 -2 -24 5.5t-11 22.5q-1 13 1 35q6 34 11 48q6 20 10 30l1 1q0 1 0.5 2t0.5 2l18.5 43t28.5 60t36 59t31 23q12 0 20.5 -2.5t13 -6t7 -7t3.5 -6.5v-2
q-13 -9 -63 -96q-78 -137 -80 -182q-3 -5 1 -9q3 -4 8 -2q12 7 14 9q7 6 19 20q76 87 200.5 144.5t267.5 67.5q3 1 10 1zM146 337q-20 0 -34 15t-14 37t14 37t34 15t34 -15t14 -37t-14 -37t-34 -15z" />
    <glyph glyph-name="j" unicode="j" horiz-adv-x="539" 
d="M541 146l11 -5q-102 -100 -208 -156q-135 -72 -309 -147q-24 -53 -60.5 -111t-66.5 -94q-60 -70 -127 -78q-3 1 -16.5 -1t-36 6.5t-34.5 26.5q-21 30 -5.5 66.5t62.5 61.5l77.5 44t83.5 46q23 9 65 37l4 3q0 1 -8 -3q128 208 175 459l-7 -2l-15 -4.5t-20 -10.5t-22.5 -19
t-22 -30.5t-19.5 -44.5q-15 -47 -19.5 -90.5t-2.5 -63.5l3 -19l-5 -2.5t-11 -3t-13.5 2t-9.5 17t-3 35.5q4 59 41 129t74 93q29 19 57 25q11 3 18 3h7l-1 -2l2 -2q10 -19 -44 -214t-93 -241l245 114q130 60 254 175zM-188 -368q90 94 145 178l-117 -62q-74 -39 -107 -71
q-18 -18 -24 -39t-3.5 -34t7.5 -17q3 -5 9 -6q28 -11 90 51zM161 345q-20 0 -34 15t-14 37t14 37t34 15t34 -15t14 -37t-14 -37t-34 -15z" />
    <glyph glyph-name="k" unicode="k" horiz-adv-x="767" 
d="M512 419q-53 -9 -86 -12.5t-40 -2.5l-6 1q-9 1 -41 -20q-14 -10 -36 -31t-37 -37l-14 -16q-21 -23 -72 -88q30 25 55 37q37 19 87.5 7.5t33.5 -51.5l-108 -187q-36 -65 -41 -114q-5 -47 18 -51q26 -5 53 -1q58 7 194 98.5t242 178.5l107 88l8 -7l-52 -44.5l-122 -97.5
t-165 -123t-157 -94t-121 -37q-73 8 -60 108q3 25 11.5 49.5t27.5 55.5t34 53l48.5 68.5l53.5 75.5q10 15 -19 19q-23 4 -45 -1q-51 -10 -122 -87q-25 -28 -56 -68.5l-49 -64t-22 -23.5q-14 0 -23 6q-1 0 -1 1q-18 11 -29 28q-16 24 -2 60q67 147 125 255l8 16l9 16l65 112
q46 72 71 107q58 82 134 158l62 56q6 6 22 16q11 4 14 -2q5 -5 1 -16l-15 -35q-31 -65 -77 -130q-90 -129 -186 -235q-12 -13 -21 -30q-31 -57 -58 -116q-22 -50 -90 -221q-8 -18 -11 -27q1 0 2 1q6 3 64 80l19 27.5t47.5 63.5l68 84.5t73 77.5t70.5 55q44 25 82.5 27.5
t52 -3.5t21.5 -13zM216 463q-2 -7 -1 -10l13 14l104 132q13 17 63 91q29 41 55 97q9 21 10 31q-10 -6 -27 -26q-31 -34 -83 -108q-40 -58 -134 -221z" />
    <glyph glyph-name="l" unicode="l" horiz-adv-x="662" 
d="M703 208q7 -8 0 -12q-2 -2 -50.5 -6t-103.5 -9t-69 -8q-11 -3 -32 -14.5t-39 -23.5l-34 -23l-16 -12q-95 -81 -158 -149l-68 -74q-35 -39 -48 -50.5t-24.5 -12t-30.5 12.5q-30 20 -39.5 99t7.5 170l2 11v1q1 8 5 24q1 2 2.5 7t3.5 11l4 12v1l18 48q42 104 77 165l65 112
l71 107q59 84 135 158q12 13 61 57q8 7 22 15q10 6 15 -2q4 -5 0 -15l-15 -35q-31 -65 -77 -131q-90 -129 -186 -235q-14 -15 -21 -30q-49 -90 -98 -204l-15 -35q-32 -84 -36 -159q-7 -52 -1 -101.5t33 -45.5q5 1 19.5 13.5t34 32l36 37.5l33 36t19.5 21q64 69 147 136l7 5
l20 16q78 56 116 59zM225 457q-3 -7 -1 -10l13 14l104 133q33 44 63 90q29 41 55 97q10 22 11 31q-9 -6 -28 -25q-31 -36 -83 -109q-40 -58 -134 -221z" />
    <glyph glyph-name="m" unicode="m" horiz-adv-x="938" 
d="M971 221l5 -7l-48.5 -44.5l-113 -97.5t-152 -123t-141.5 -94t-105 -37q-60 8 -38 108q13 58 79.5 176.5t84.5 133.5q16 12 -7 14q-12 0 -26 -3q-40 -11 -112 -88q-53 -57 -89.5 -106.5t-47.5 -67t-15 -16.5q-13 3 -20 19.5t-2 50.5t25 77q26 56 57 102t46.5 65t13.5 23
q-4 7 -19.5 12t-50 -3.5t-72.5 -37.5q-34 -25 -65.5 -66t-53 -79l-40.5 -72.5t-36 -51.5t-31 -9q-6 2 -11 9q-4 5 -4 13q0 1 -0.5 3t-0.5 3q1 2 1 6q0 1 -0.5 3t-0.5 3q-2 34 30 116.5t61 129.5q16 25 32 35.5t24 9.5l9 -2q13 -1 20 -7t8 -11l1 -5q-16 -13 -64 -96
q-80 -134 -87 -182h-1q-1 -5 0.5 -9t6.5 -3q3 1 37.5 62t85.5 132.5t92 94.5q42 24 77.5 27.5t52.5 -9.5t12 -35q-4 -17 -34.5 -82l-57 -122.5t-23.5 -63.5l7 10l21.5 27.5l31 39l38 45t41.5 45t43.5 39.5t40.5 28q41 21 81 15q41 -7 24 -44l-70 -123q-143 -266 -68 -259
q2 1 4 1q49 9 177.5 103.5t232.5 184.5z" />
    <glyph glyph-name="n" unicode="n" horiz-adv-x="726" 
d="M774 223l6 -7l-48.5 -44.5l-113 -97.5t-152 -123t-141.5 -94t-105 -37q-60 8 -38 108q16 72 109 228q2 3 4.5 7.5l10.5 18.5t14 26l14.5 30t12 29t6.5 24t-2 16q-5 8 -20 13q-49 10 -118 -41q-33 -25 -64.5 -66t-53 -79l-40.5 -72.5t-36 -51.5t-31 -9q-8 3 -11 9
q-5 7 -4 13q-1 2 -1 6q0 1 0.5 3t0.5 3q-1 2 -1 6q-3 34 29 116.5t62 129.5q16 25 32 35.5t25 9.5l8 -2q13 -1 20 -7t8 -11l1 -5q-14 -10 -64 -95q-81 -136 -88 -183q-1 -5 0.5 -9t6.5 -3q3 1 37.5 62t85.5 132.5t92 94.5q42 23 78.5 27t50.5 -9q74 -21 14 -159
q-12 -26 -83 -161q-59 -111 -45 -136q8 -14 37 -10q50 7 173.5 98.5t222.5 179.5z" />
    <glyph glyph-name="o" unicode="o" horiz-adv-x="603" 
d="M658 205q-53 -50 -150.5 -92.5t-187 -52.5t-137.5 34l-4 5q-40 -75 -99 -94q-33 -10 -57.5 0t-35.5 33t-18 50t-5 50l3 34v1q6 50 36 89.5t74 59.5q48 21 93 13t55 -37q6 -8 6 -32q-1 -21 -13 -67.5t-34 -90.5q5 -8 33 -25q28 -16 98 -12q72 5 188 55q92 39 144 88z
M74 15q19 0 45 27.5t50 70.5q-17 29 -18 63t13 51q8 11 19 14t19.5 -3t9.5 -19q7 31 4 48q-4 17 -12 21q-68 18 -119 -36.5t-65 -138.5q-4 -31 -3 -48q4 -18 10 -28l1 -1v-1q15 -20 46 -20zM176 125q10 19 21 48l7 29q3 30 -20 27l-8 -2q-13 -4 -13.5 -37t13.5 -65z" />
    <glyph glyph-name="p" unicode="p" horiz-adv-x="680" 
d="M762 251l-1 -10q-152 -5 -264 -13q-60 -3 -141 -33q-4 -1 -20 -8q-2 -6 -2 -9q-18 -64 -60 -106q-22 -27 -54 -37q-24 -11 -47 -13q-32 0 -38 17q-2 1 -2 7q2 9 7 18q12 20 44 48q34 30 84 56q13 62 4 116t-37 63q-19 5 -42 -18t-34 -42.5t-16 -30.5q-38 -82 -111 -299
q-39 -114 -48 -137q-1 -4 -2 -10.5t-7 -23.5t-13.5 -29t-22.5 -20t-33 -5q-24 3 -37 17q-31 27 -7 114q43 147 206 463l8 16l9 16l65 112l71 107q55 78 135 158q40 38 61 56q4 4 23 16q10 5 14 -2q3 -6 0 -16q-2 -4 -7 -16l-8 -19q-30 -62 -76 -130q-92 -131 -187 -235
q-12 -13 -21 -30q-36 -69 -58 -116l-150 -372q-9 -24 -20 -58q-1 -2 -1.5 -5t-1.5 -11t0 -14.5t5 -11t11 -4.5q4 1 10 6q11 8 72 188l43 126t41 111t46 102.5t38 50.5q33 22 65 19q28 2 51 -24q51 -49 33 -145q76 30 158 36q138 10 265 14zM200 439q-2 -7 -1 -10l13 14
l104 132q25 33 63 90q27 39 56 98q8 18 10 31q-12 -8 -28 -26q-25 -28 -83 -109q-41 -58 -134 -220zM258 131l10 24q-59 -24 -99 -71q-32 -36 -10 -43q63 -19 99 90z" />
    <glyph glyph-name="q" unicode="q" horiz-adv-x="668" 
d="M716 194q-435 -78 -531 -449q-36 -140 -97 -174q-12 -7 -25 -7q-12 -4 -34 12q-30 21 -39.5 99.5t7.5 170.5l1 11h1q1 8 5 24q1 8 10 31q5 18 18 49q39 101 77 165l65 111q2 5 4 7l-3 -2l-2 -1l-39 -31q-25 -22 -42 -40l-52 -57q-11 -13 -22 -21q-23 -18 -44 5
q-5 5 -8 11q-8 17 -3 34q6 24 12 35q36 74 114 124q24 16 51 19q25 3 43 -8q16 -10 13 -25q-9 -1 -17 -4q-6 -2 -16 -4q-26 -4 -48 -20q-55 -37 -87 -92q-9 -16 -25 -48q-2 -5 -4 -15q-1 -2 1.5 -4t4.5 -2q8 2 10 5q10 7 15 13q2 2 11.5 14l14.5 18q48 58 78 83l26 21
q16 12 32 18q-1 -1 -1 -3l3 3l3 5l4 -2q12 -14 13 -34.5t-2.5 -32.5t-15.5 -40.5t-14 -32.5l-3 -6q-47 -87 -98 -205l-15 -34q-32 -87 -37 -159q-2 -40 -2 -62v-2q0 -13 1.5 -28.5t10 -35t22.5 -19.5q22 0 42 20t33 50.5t21.5 55.5t11.5 43q70 243 273 363q44 26 97.5 45.5
t84 26.5t89.5 19z" />
    <glyph glyph-name="r" unicode="r" horiz-adv-x="647" 
d="M686 246l4 -8q-225 -104 -281 -103q-16 0 -30.5 11t-20.5 20t-17 27q-7 17 -17 34.5t-28 37t-38 22.5t-45 -10q-56 -38 -136 -217q-18 -38 -28 -49.5t-31 -11.5q-6 0 -9 1q-1 -1 -2 -1q-14 -2 -24.5 5.5t-12.5 22.5q-2 17 0 35q8 40 10 48l10 29q0 1 1 1q0 1 1 2v2
q11 30 26.5 64.5t42.5 77.5t45 43q19 0 30.5 -6t13.5 -12l2 -6q-12 -9 -63 -95q-69 -123 -78 -175q-2 -22 18 -22q6 0 29 45l50 100.5t69 105t82 55.5q32 5 55 -8.5t34 -38t18.5 -50.5t16.5 -48.5t20 -28.5q29 -16 283 101z" />
    <glyph glyph-name="s" unicode="s" horiz-adv-x="514" 
d="M577 241q2 -2 1 -8t0 -8q-87 -39 -284 -136t-223 -114q0 -137 -31 -191q-28 -48 -98 -71.5t-92 2.5q-6 10 -7.5 24.5t8.5 38.5t26.5 49t46.5 55t68 58q2 48 1.5 90t-1.5 70l-2 28q-6 56 9.5 108.5t53.5 80t88 5.5q30 -13 41.5 -40.5t6.5 -58t-14 -59.5t-19 -48l-10 -18
q-22 -11 -32 11q18 18 31 39q11 15 22.5 52.5t8.5 53.5q0 3 -2 11q-10 34 -40 47.5t-55 5.5q-20 -6 -23 -83t7 -133q8 -54 8 -112l5 3q52 28 113 56q57 26 194.5 96.5t193.5 95.5zM-31 -214q17 32 22 128q-64 -55 -102.5 -106.5t-36.5 -72.5q3 -27 37 -20q42 9 72 57z" />
    <glyph glyph-name="t" unicode="t" horiz-adv-x="651" 
d="M692 221l4 -11q-1 -2 -4 -2q-113 16 -242.5 -43.5t-260.5 -200.5l-67 -74q-35 -39 -48.5 -50.5t-25 -12.5t-30.5 13q-29 21 -39 99t7 170l2 11l6 25q0 2 9 30q11 33 19 49q29 75 58 131q-33 4 -59 1.5t-44 -9.5t-29 -14.5t-16 -13.5l-6 -6l-5 8q5 6 15 14.5t52 20.5t96 6
l15 27l65 112q32 53 71 107q58 82 134 158q40 38 61 56q4 4 23 16q10 4 14 -2q3 -6 0 -16q-2 -4 -7 -16l-8 -19q-30 -62 -76 -130q-90 -129 -186 -235q-12 -12 -22 -30l-20 -38q100 -18 135.5 -20.5t90.5 8.5q29 9 43 18.5t14 15.5v5q22 -21 -5 -46q-15 -14 -49 -21
t-97 -1.5t-138 29.5q-39 -78 -71 -155l-15 -34q-32 -79 -37 -159q-7 -52 -0.5 -102t33.5 -45q5 1 19.5 13.5t33.5 32l35.5 37.5l33 36t19.5 21q110 119 231 182.5t268 53.5zM213 470q-2 -7 -1 -10l13 14l104 132q13 17 64 90q27 41 55 98q8 18 10 31q-12 -8 -28 -26
q-25 -28 -83 -109q-41 -58 -134 -220z" />
    <glyph glyph-name="u" unicode="u" horiz-adv-x="738" 
d="M780 231q2 1 0 -3q-2 -5 -1 -5q-1 -1 -88 -16l-181 -32.5t-108 -24.5q-19 -7 -31 -24q-4 -9 -11 -17q-31 -45 -58 -73q-8 -11 -20 -21q-14 -12 -30 -15q-14 -2 -24.5 5.5t-11.5 22.5q-3 17 0 35q3 24 9 48l10 29l1 1v3l1 1q48 111 72 147q-25 -23 -64 -74
q-15 -20 -71.5 -127t-82.5 -144q-13 -18 -29 -26q-27 -7 -46 7q-32 22 -38 75t11 100v4h1q0 2 1 4v2l1 1v1q1 1 1 2q3 10 8 23v1l2 4q11 30 26.5 64.5t42.5 77.5t45 43q19 0 30.5 -6t13.5 -12l2 -6q-16 -12 -63 -96q-34 -59 -47 -88l-5 -11q-4 -11 -9.5 -27.5t-11.5 -37.5
t-8.5 -41t-2 -37t9 -27.5t24.5 -10.5q9 0 18 6.5t16.5 18t13 21t12 23l8.5 17.5q16 28 41.5 77.5l41 77.5t38 60.5t44.5 51.5q21 18 35.5 29t18.5 13l4 2q6 3 10 3q12 0 21.5 -2.5t14 -6t7.5 -7t4 -6.5v-2q-13 -9 -64 -95q-77 -135 -79 -183q-2 -5 1 -8q4 -4 9 -2q8 3 14 9
q14 12 19 19l43 56q14 18 26 35q16 19 35 27q23 9 159 32.5t219 34.5z" />
    <glyph glyph-name="v" unicode="v" horiz-adv-x="924" 
d="M971 215l10 -13q-404 -212 -526 -148q-2 1 -9.5 6.5t-10 7.5l-9 7t-9.5 8t-7 7.5t-7 9t-5 9.5q-90 -128 -161 -188q-84 -71 -147 -88q-78 -13 -106 87q-11 49 -11 107q4 104 50 235q28 75 53 121v2q33 -22 51 -40q-28 -60 -68 -164q-7 -16 -13 -35q-27 -78 -28 -158
q0 -96 15 -123q11 -16 25 -20t49.5 14t89.5 67q54 50 110 131t75 120q-6 143 53 223q35 47 67 39q33 -8 25 -71q-13 -94 -119 -245q19 -56 82 -67.5t152 16.5t167.5 62.5t161.5 80.5zM390 193l10 11q75 119 87 193q5 30 -7 30q-13 0 -47 -55q-32 -53 -43 -179z" />
    <glyph glyph-name="w" unicode="w" horiz-adv-x="976" 
d="M1018 205l8 -11l-98 -85q-284 -236 -396 -227q-50 4 -59 61q-5 27 -7 57q-2 -5 -4 -7q-30 -54 -68 -101.5t-64.5 -71t-35.5 -23.5q-2 0 -11 -1.5t-15 -1.5q-13 -3 -26 3q-2 0 -6 2q-2 1 -3 1q-6 2 -10 4.5t-5.5 4t-0.5 2.5q-34 36 -34 134q0 87 28 187q-38 -57 -94 -105
q-8 -7 -21 -17t-45.5 -24t-55.5 -7q-13 4 -23 12q-17 7 -19 27q-2 18 -1 27l1 8q3 24 9 48q2 4 5.5 14t5.5 15v1l2 4q11 30 26.5 64.5t42.5 77.5t45 43q19 0 30.5 -6t13.5 -12l2 -6q-13 -9 -64 -95q-63 -114 -76 -164q0 -7 -1 -16.5t6.5 -17.5t22.5 -7q38 2 94 50t113 147v1
q12 33 25 64t21 46l7 14q1 0 4 -1v1q3 -1 9 -5v-1q28 -19 25 -47q-1 -10 -25.5 -58.5t-48.5 -104t-38.5 -131t3.5 -139.5q19 -26 42 -29q53 -2 119 110q48 82 83 208q-11 139 6 177q8 17 35 21v1q53 4 57 -7q14 -6 -2 -78q-17 -102 -68 -204q-4 -53 4 -89.5t24 -42.5
q26 -16 87.5 9.5t131 73.5t135.5 98.5t109 87.5zM467 219q0 -27 1 -51q17 70 27 140q-3 0 -8 -4t-12 -26t-8 -59z" />
    <glyph glyph-name="x" unicode="x" horiz-adv-x="679" 
d="M549 129q38 32 85.5 49t76.5 18l29 2v-10q-12 0 -32 -2.5t-73 -22.5t-94 -53q-43 -35 -144 -143.5t-126 -131.5h1l-6 -6t-15.5 -12.5t-23.5 -13.5t-28.5 -5t-31.5 8q-38 22 -81 204q-52 -57 -108 -102t-87 -62t-37 -16q-4 1 -10 5.5t-10 8.5l-3 4q51 14 125 66.5
t126 113.5l-15.5 68t-14.5 60q-2 32 -24 73q-27 47 -53 60q36 43 81 28q22 -7 38 -66t33 -164q178 238 185 231l5 -6q-15 -7 -153 -204q-16 -24 -33 -45q9 -64 15 -98q15 -128 41 -139q25 -16 53 0v1q223 231 309 302z" />
    <glyph glyph-name="y" unicode="y" horiz-adv-x="689" 
d="M736 220l2 -13l-33 -37.5t-84.5 -81t-125.5 -97.5q-92 -60 -181.5 -99t-108.5 -50q-64 -142 -116 -203q-61 -70 -129 -78q-3 1 -17 -1t-38 6.5t-37 26.5q-22 30 -5 71t65 66l161 81q17 6 37 17l4 3q71 122 141 287l22 68q2 10 10 37.5t9 36.5t-1.5 15.5t-19 -10.5
t-45.5 -56q-15 -20 -71.5 -127t-82.5 -144q-13 -18 -29 -26q-27 -7 -46 7q-32 22 -38 75t11 100v4h1q0 2 1 4v2l1 1q0 2 1 3q3 10 8 23v1l2 4q11 30 26.5 64.5t42.5 77.5t45 43q19 0 30.5 -6t13.5 -12l2 -6q-16 -12 -63 -96q-34 -59 -47 -88l-4 -11q-5 -11 -10.5 -27.5
t-11.5 -37.5t-8.5 -41t-2 -37t9 -27.5t24.5 -10.5q9 0 18 6.5t16.5 18t13 21t12 23l8.5 17.5q16 28 42.5 80.5l43.5 84.5t41.5 66t48.5 50q59 41 53 -34q-6 -97 -95 -309q-23 -53 -36 -77q154 50 290 146.5t229 205.5zM-11 -362q58 58 126 164l-98 -48q-74 -36 -110 -72
q-18 -18 -24 -39t-3 -33.5t9 -16.5q5 -5 9 -6q18 -7 49 15.5t42 35.5z" />
    <glyph glyph-name="z" unicode="z" horiz-adv-x="636" 
d="M427 -36q81 62 140 122.5t75.5 85t21.5 35.5l10 -6l-25.5 -38t-71.5 -84t-113 -105q-52 -40 -107.5 -70.5t-89.5 -43.5t-74 -25.5t-47 -15.5q-68 -147 -116 -203q-60 -70 -130 -78q-3 1 -17 -1t-37.5 6.5t-36.5 26.5q-23 30 -5.5 71t65.5 66q55 29 161 80q21 9 36 18l4 2
q12 20 17 30q4 6 9 18t14 36t8 41.5t-9 34.5q-25 33 -84 6l-11 -5q-14 -3 -28 12.5t-21 31.5l-7 17l7.5 2.5t19.5 9.5t29.5 18t35 29t38.5 42q30 39 32.5 74.5t-15 52.5t-42.5 9q-29 -9 -65 -67q-23 -35 -27 -33q-3 2 10 32q33 69 78 89q26 11 52 -9.5t36 -77.5
q7 -42 -24.5 -101.5t-71.5 -102.5q78 17 107 -2q36 -23 19 -97q-4 -26 -19 -60q8 3 46.5 16t67.5 24.5t73.5 35t81.5 51.5zM-70 -386q60 62 126 165l-99 -49q-71 -33 -109 -71q-19 -18 -25 -39t-3 -33.5t9 -16.5q3 -4 9 -6q13 -5 36 8t35.5 23.5t20.5 18.5zM665 208h-2l1 -1
z" />
    <glyph glyph-name="braceleft" unicode="{" horiz-adv-x="369" 
d="M417 726h4q-1 -2 -28 -9.5t-57 -19t-37 -22.5q-21 -32 -42.5 -148t-56.5 -159q-38 -47 -133 -64q80 -15 103 -54q14 -24 10.5 -71.5t-13.5 -90.5t-20 -70q-23 -59 10.5 -102.5t81.5 -46.5h-3q-98 0 -131 35q-15 17 -16.5 55t4.5 69.5t17 76.5t12 50q15 74 -7 101
q-14 17 -35 26q-22 9 -65 9q-17 0 6 27q85 9 115 35q32 24 47 101q2 9 8.5 44t11.5 56t14.5 51t23 51.5t30.5 34.5q47 35 146 35z" />
    <glyph glyph-name="bar" unicode="|" horiz-adv-x="485" 
d="M264 -231h-43v980h43v-980z" />
    <glyph glyph-name="braceright" unicode="}" horiz-adv-x="485" 
d="M477 304q17 -1 -9 -27q-74 0 -119 -35q-28 -21 -47.5 -69.5t-30 -96t-34 -98t-59.5 -75.5q-49 -34 -147 -34h-5q-3 0 0 1q2 0 8 1q72 12 91 27q39 32 63 81.5t32.5 93t26.5 90t46 72.5q43 38 130 55q-75 13 -96 54q-11 23 0 65.5t33 95.5t25 64q22 71 -2 107
q-12 17 -36.5 25t-42.5 11.5t-18 9.5h5q103 0 129 -35q19 -24 11 -76.5t-27.5 -102.5t-29 -100t6.5 -71q19 -25 96 -33z" />
    <glyph glyph-name="asciitilde" unicode="~" horiz-adv-x="485" 
d="M453 494q-41 -85 -99 -80q-21 2 -60.5 19.5t-60.5 19.5q-33 3 -52 -33q-2 -7 -18 -2q-5 2 -5 4q45 80 98 75q22 -2 61.5 -18.5t59.5 -17.5q36 -4 55 35q2 6 17 1q3 -2 4 -3z" />
    <glyph glyph-name="exclamdown" unicode="&#xa1;" horiz-adv-x="401" 
d="M-44 -289q5 13 78 123l161.5 240.5l95.5 140.5l10 -1l-1 -7l-254 -484q-5 -9 -16 -14t-20 -6t-26 -0.5t-21 0.5l-5 2zM294 295q3 17 17 29t31 12t27 -12t7 -29q-2 -17 -16.5 -29t-31.5 -12t-27 12t-7 29z" />
    <glyph glyph-name="cent" unicode="&#xa2;" horiz-adv-x="316" 
d="M55 -76l-28 -5q9 44 40.5 119t32.5 77q-47 4 -66.5 38t-13 79.5t25 90.5t43.5 74q26 30 63 52.5t70 21.5h6l68 167l22 -12l-65 -160q35 -20 44 -45.5t-4.5 -47.5t-34 -40t-42.5 -26.5t-33 -3.5l-11 4q69 2 103 58q25 40 9 67q-7 12 -21 14q-25 6 -61.5 -19t-66.5 -65
q-61 -83 -58 -164q3 -66 55 -66q56 0 112 63q89 100 116 116q4 2 3 -1q-6 -18 -108 -117l-16.5 -16t-17 -16l-15.5 -13.5t-18 -13.5t-17.5 -9t-21 -7.5t-22.5 -2.5q-2 -4 -16.5 -39l-31 -77t-24.5 -75z" />
    <glyph glyph-name="sterling" unicode="&#xa3;" horiz-adv-x="573" 
d="M329 269q15 3 46 3q23 0 45 -3q182 318 326 318q29 0 50.5 -14.5t21.5 -41.5q0 -55 -74 -131l-9 11q69 71 69 121q0 33 -38 33q-48 0 -97.5 -40t-84.5 -90q-28 -41 -53 -98q-11 -26 -35 -78h61t61 -0.5t54 -6t40 -15.5l-227 2q-82 -157 -206 -228q31 -22 96 -49.5
t103 -36.5q24 -6 49 -6q15 0 22 1l-1 -9q-9 -1 -27 -1q-42 0 -95 12q-32 7 -104 32t-96 39q-43 -20 -83 -20q-39 0 -79 19t-40 53q0 28 24 43.5t53 15.5q28 0 59.5 -14t45.5 -24l50 -37q18 15 35 34t36 48.5l27 42t30.5 52.5t24.5 43q-22 2 -34 2q-32 0 -46 18zM211 2
l-31 20.5t-42.5 27t-39.5 20.5t-35 10t-22 -7.5t-9 -20.5q0 -28 28 -47t58 -22q6 -1 18 -1q40 0 75 20z" />
    <glyph glyph-name="currency" unicode="&#xa4;" horiz-adv-x="671" 
d="M471 365q15 -25 13 -58q-1 -47 -45 -96l106 -164l-156 127q-43 -24 -90 -24q-46 0 -82 23l-216 -131l180 170q-14 26 -12 55q1 57 45 101l-104 162l154 -124q45 24 92 24q48 0 80 -24l218 130zM329 392q-39 0 -70.5 -29.5t-32.5 -73.5q-2 -44 27 -73.5t69 -29.5t72 29.5
t34 73.5q1 44 -29 73.5t-70 29.5z" />
    <glyph glyph-name="yen" unicode="&#xa5;" horiz-adv-x="722" 
d="M90 -43l1 16q30 9 61 33t63.5 65l47 60.5t41.5 59.5h-103v22h118l5 8q0 35 -7 86h-112l1 22h108q-5 30 -15.5 63.5t-28 71.5t-44.5 62.5t-58 24.5q-47 0 -73 -62l-11 7q12 30 34 49t50 19q59 0 103.5 -52t66.5 -118q19 -55 22 -117q8 17 20 36l28 43t24 37l42.5 62.5
t50.5 66t68 67t62 26.5l1 -13q-11 -2 -24.5 -9.5t-25.5 -17.5t-26.5 -26t-25.5 -30.5t-25.5 -35.5l-24 -35t-22.5 -36.5l-19 -32.5l-17 -29t-12 -21h35l-2 -22h-45l-53 -94h90l-1 -21q-1 -1 -3 -1h-100q-28 -43 -51 -73.5t-58.5 -69.5t-75 -62.5t-80.5 -28.5z" />
    <glyph glyph-name="brokenbar" unicode="&#xa6;" horiz-adv-x="485" 
d="M428 749l-94 -427l-48 5l90 422h52zM311 216l-91 -447h-52l96 451z" />
    <glyph glyph-name="section" unicode="&#xa7;" horiz-adv-x="944" 
d="M88 -176l11 2q-7 -39 30 -76t113 -51t192 27q44 16 78.5 51.5t49 77t-1 85.5t-63.5 74q-28 17 -115 55.5t-126 62.5q-59 36 -84 77.5t-19 79.5t35 77.5t70 73t95 65.5q25 15 54 27q-48 72 -3.5 145t142.5 108q79 24 153.5 18t132.5 -35q39 -20 59 -50l-17 -12
q-21 35 -64.5 58t-116 28.5t-166.5 -29.5q-44 -16 -68.5 -44.5t-26 -62t23.5 -70t74 -66.5q28 -17 112.5 -55.5t123.5 -62.5q59 -36 84 -81.5t18.5 -90t-35 -90t-71.5 -84t-95 -69.5q-31 -19 -54 -28q47 -72 3 -144.5t-142 -107.5q-77 -27 -171 -29t-150 24
q-39 19 -57.5 53.5t-7.5 68.5zM458 486q-17 10 -30 23l-19 -9q-129 -68 -167.5 -175.5t49.5 -182.5q33 -26 134.5 -69.5t136.5 -66.5q15 -9 30 -23l19 9q86 45 149 114t77 138t-44 120q-32 26 -165.5 62t-169.5 60z" />
    <glyph glyph-name="dieresis" unicode="&#xa8;" horiz-adv-x="278" 
d="M233 464q0 -14 -9 -23.5t-23 -9.5q-15 0 -24.5 9t-9.5 24q0 14 9 23.5t23 9.5q15 0 24.5 -9t9.5 -24zM104 464q0 -14 -9 -23.5t-23 -9.5q-15 0 -24.5 9t-9.5 24q0 14 9 23.5t23 9.5q15 0 24.5 -9t9.5 -24z" />
    <glyph glyph-name="copyright" unicode="&#xa9;" horiz-adv-x="511" 
d="M50 265q-9 -106 44 -178.5t138 -68.5q84 2 149.5 79t75.5 183q9 106 -44 178.5t-137 69.5q-85 -3 -151 -80t-75 -183zM19 265q10 111 85.5 192.5t172.5 84.5t159.5 -73.5t52.5 -187.5t-85.5 -192.5t-172.5 -83.5q-97 -4 -159 72t-53 188zM300 215q7 14 12 7q3 -4 -1 -14
q-33 -73 -91 -73q-45 0 -57.5 40t0 89.5t36.5 92.5q37 64 81 64q23 0 33.5 -15.5t8.5 -40.5q-3 -30 -23 -44q-11 -8 -18 1q17 24 19 41q9 40 -12 40q-29 0 -65 -70q-33 -66 -33 -122q0 -62 36 -62q41 0 74 66z" />
    <glyph glyph-name="ordfeminine" unicode="&#xaa;" horiz-adv-x="374" 
d="M250 515q-45 -90 -76 -93q-16 -1 -25.5 14t0.5 50q-19 -31 -36 -47q-32 -31 -52 -8q-21 25 0 78q10 27 32 53q24 28 59 36.5t57 -13.5q5 -5 3 -10.5t-8 -3.5q-10 29 -43 12q-33 -18 -66 -71q-18 -31 -21 -51q-4 -26 14 -25q15 2 32 22q19 22 45 70q7 13 10.5 18.5t9.5 10
t14 3.5q2 0 9.5 -1.5t11.5 -0.5q-9 -8 -25.5 -40t-20.5 -53q-7 -30 4 -30q22 -1 65 84q4 9 8 5q2 -3 -1 -9z" />
    <glyph glyph-name="guillemotleft" unicode="&#xab;" horiz-adv-x="451" 
d="M477 297q-9 -14 -39.5 -38.5t-74.5 -55.5t-47 -33l-1 -136l-5 -10l-7 -3l-8 3q-6 11 -13.5 41t-15 67.5t-9.5 46.5q4 2 59.5 37l102.5 63t51 28l6 -3zM333 297q-8 -13 -39.5 -38.5t-76 -56t-46.5 -32.5l-1 -136l-5 -10l-7 -3q-5 0 -8 3q-8 21 -14.5 47t-13 59t-10.5 49
q4 2 59 37l102 63t52 28l7 -3z" />
    <glyph glyph-name="logicalnot" unicode="&#xac;" horiz-adv-x="808" 
d="M669 277l-51 -241q-3 -22 -27 -22q-8 0 -14 7t-5 15l41 193q0 1 -261 1l-261 -1q-20 0 -20 13q0 9 11 22t19 13h568z" />
    <glyph glyph-name="macron" unicode="&#xaf;" horiz-adv-x="485" 
d="M409 441l-12 -30h-214l13 30h213z" />
    <glyph glyph-name="degree" unicode="&#xb0;" horiz-adv-x="323" 
d="M227 688q0 -27 -19 -45.5t-45 -18.5q-29 0 -46.5 18.5t-17.5 45.5q0 26 19 45t45 19t45 -19t19 -45zM208 687q0 19 -13 32.5t-33 13.5q-19 0 -32.5 -13.5t-13.5 -32.5q0 -27 16 -37.5t30 -10.5q18 0 32 15t14 33z" />
    <glyph glyph-name="plusminus" unicode="&#xb1;" horiz-adv-x="458" 
d="M467 287q11 0 15.5 -7t-0.5 -13.5t-18 -6.5q-1 0 -133 -6q-3 -18 -8.5 -48.5l-9.5 -53t-5 -35.5q-2 -11 -24 -16q-26 -5 -25 12q1 2 1 4q2 10 7.5 30.5l14 53l13.5 51.5q-24 -2 -75.5 -4.5t-66.5 -4.5q-10 -1 -11 19q3 26 23 29q10 0 32.5 -0.5t54.5 -1.5t52 -1
q5 18 17 71t18 74q5 18 19 21q10 2 10 -11q0 -2 -1 -6q-7 -27 -30 -150h39.5h49h41.5zM413 35q-153 0 -264 -13q-7 -1 -13 11t-3 24.5t16 12.5q18 0 56.5 -1.5t97.5 -3.5t106 -3q17 0 21 -13q1 -13 -17 -14z" />
    <glyph glyph-name="twosuperior" unicode="&#xb2;" horiz-adv-x="317" 
d="M327 565q0 -22 -21.5 -53.5t-64 -71.5t-64 -58.5l-63.5 -53.5l-9 -8q11 -11 32.5 -20.5t39.5 -9.5q13 0 37 14t35 28q13 15 18 10q4 -3 -6 -20q-58 -75 -99 -76q-58 -1 -105 31l-44 -34q-15 -5 -17 -2t3 14q3 2 48.5 39t58.5 50q159 141 159 216q0 20 -10.5 27t-25 3
t-28.5 -12.5t-22 -18.5q-20 -23 -38 -61q-6 -14 -17 -9q-7 4 -4 13q17 48 55 84t86 36q29 0 47.5 -15t18.5 -42z" />
    <glyph glyph-name="threesuperior" unicode="&#xb3;" horiz-adv-x="298" 
d="M316 579q0 -66 -119 -115q65 -10 65 -61q0 -59 -62 -109.5t-132 -50.5q-47 0 -61 37q-4 10 -2.5 13.5t12.5 -0.5q5 -14 18.5 -24t28.5 -10q55 0 99.5 50.5t44.5 100.5q0 16 -8.5 26.5t-22.5 10.5q-4 0 -12.5 -2.5t-19 -6t-14.5 -4.5q-19 -5 -20 4q-1 5 6 8q45 9 91 46
t46 83q0 7 -8.5 11.5t-17.5 4.5q-37 0 -79 -48q-5 -6 -10 -5.5t-3 12.5q60 74 123 74q25 0 41 -11t16 -34z" />
    <glyph glyph-name="acute" unicode="&#xb4;" horiz-adv-x="267" 
d="M247 502q-5 -12 -93 -52t-94 -37q-9 5 -3 13q2 3 28.5 23l57.5 41.5t37 26.5q33 25 58 12q18 -9 9 -27z" />
    <glyph glyph-name="mu" unicode="&#xb5;" horiz-adv-x="324" 
d="M413 161q-76 -169 -145 -169q-25 0 -38.5 16t-13.5 42q0 25 10 53q-25 -41 -59 -75t-68 -34q-32 0 -47 28l-129 -282q-2 -3 -13 -3q-22 0 -35 6q-4 4 -4 5l193 379q2 3 5 10q21 42 35 66t48.5 62.5t81.5 72.5l2 -2q-18 -20 -49 -77q-24 -44 -46 -79q-59 -106 -59 -148
q0 -27 25 -27q57 0 155 175q18 33 29.5 50.5t39.5 49t66 61.5l3 -1l-78 -151q-69 -128 -69 -167q0 -20 17 -20q25 0 55.5 34t49 67t30.5 60h6z" />
    <glyph glyph-name="paragraph" unicode="&#xb6;" horiz-adv-x="403" 
d="M604 654l-18 -50h-20l-221 -604h-67l221 604h-49l-221 -604h-67l133 363q-69 0 -96 36.5t-2 105.5q16 44 51 80.5t82 54.5q37 14 102 14h172z" />
    <glyph glyph-name="periodcentered" unicode="&#xb7;" horiz-adv-x="261" 
d="M207 232q-3 -17 -17 -29t-31 -12t-27 12t-7 29q2 17 16.5 29t31.5 12t27 -12t7 -29z" />
    <glyph glyph-name="cedilla" unicode="&#xb8;" horiz-adv-x="379" 
d="M326 -115q0 -41 -52 -76q-25 -17 -76 -17q-33 0 -79.5 11.5t-46.5 34.5q0 7 6 7q4 0 15 -11q24 -25 86 -25q73 0 96 36q14 21 14 41q0 27 -23 42t-52 15q-22 0 -46 -12t-26 -12q-7 0 -13 4.5t-6 10.5q0 5 4 9q6 6 40 32t37 26q5 0 8 -8q-1 -1 -13.5 -9.5t-21.5 -15.5
t-9 -10q20 3 39 3q43 0 81 -19t38 -57z" />
    <glyph glyph-name="onesuperior" unicode="&#xb9;" horiz-adv-x="246" 
d="M245 616q17 2 20 0t0 -15q-32 -58 -89.5 -173.5t-88.5 -171.5q-4 -6 -18 -9.5t-25.5 -2.5t-11.5 6l149 277q-10 -8 -37.5 -24t-39.5 -25q-18 -10 -20 -5q-1 3 9 14l16 12q28 21 102 95q18 21 34 22z" />
    <glyph glyph-name="ordmasculine" unicode="&#xba;" horiz-adv-x="273" 
d="M246 520q-26 -61 -50 -78q-14 -11 -31 -11t-28 13q-23 -18 -44 -17q-18 0 -27 13.5t-8 34t11 43.5q14 35 42 60t53 24q18 0 27 -14t8 -34.5t-11 -42.5q-13 -33 -42 -59q6 -12 24 -12q7 0 14.5 3.5t14 11l12 14t10.5 17t8 16t7 14.5l4 9q2 4 5 2.5t1 -7.5zM174 585
q-15 4 -35.5 -15.5t-35.5 -50.5q-34 -73 -6 -81q16 -3 34 12q-8 13 -8 25q2 21 18 21q15 0 15 -14q0 -1 -0.5 -3t-0.5 -3q12 19 15 27q15 31 16 54.5t-12 27.5z" />
    <glyph glyph-name="guillemotright" unicode="&#xbb;" horiz-adv-x="451" 
d="M393 150l-205 -128l-8 -1l-7 2v9q9 15 41 39.5l72 52.5t48 34q0 7 -0.5 43t0.5 65t5 37l8 4l8 -4q4 -4 12 -36t17 -73.5t9 -43.5zM248 150l-205 -128l-7 -1q-4 0 -8 2l-1 4q0 4 8.5 13.5t23 21l31 24.5l34 26t31.5 22.5l24 16.5l10 7l1 136q1 1 2.5 4.5t2.5 4.5l8 4l9 -4
q8 -21 14.5 -46.5t12.5 -58.5t9 -48z" />
    <glyph glyph-name="onequarter" unicode="&#xbc;" horiz-adv-x="622" 
d="M528 340q11 19 43 22.5t41 -5.5q-1 -14 -188 -174q-26 -21 -43 -43l121 3q6 13 17.5 35.5l20.5 39.5q14 15 43 18q19 2 17 -8q0 -3 -2 -6q0 -7 -38 -77h5q13 -2 17 -5.5t-1 -8.5t-20 -11h-15l-58 -113q-5 -5 -26.5 -9.5t-36.5 1.5q0 2 12.5 25.5l29 54.5t20.5 38l-147 -3
l4 19q23 28 57 61l41 43q65 74 86 103zM545 606q13 15 36 11q18 -4 8 -16q-8 -11 -50.5 -64l-76 -95l-85 -106l-93.5 -114l-84.5 -99t-74.5 -81t-49 -43q-12 -8 -16 -4t5 14q80 91 258 313.5t222 283.5zM245 616q17 2 20 0t0 -15q-32 -58 -89.5 -173.5t-88.5 -171.5
q-4 -6 -18 -9.5t-25.5 -2.5t-11.5 6l149 277q-10 -8 -37.5 -24t-39.5 -25q-18 -10 -20 -5q-1 3 9 14l16 12q28 21 102 95q18 21 34 22z" />
    <glyph glyph-name="onehalf" unicode="&#xbd;" horiz-adv-x="622" 
d="M515 606q13 15 36 11q18 -4 8 -16q-8 -11 -50.5 -64l-76 -95l-85 -106l-93.5 -114l-84.5 -99t-74.5 -81t-49 -43q-12 -8 -16 -4t5 14q80 91 258 313.5t222 283.5zM245 616q17 2 20 0t0 -15q-32 -58 -89.5 -173.5t-88.5 -171.5q-4 -6 -18 -9.5t-25.5 -2.5t-11.5 6l149 277
q-10 -8 -37.5 -24t-39.5 -25q-18 -10 -20 -5q-1 3 9 14l16 12q28 21 102 95q18 21 34 22zM618 315q0 -22 -21.5 -53.5t-64 -71.5t-64 -58.5l-63.5 -53.5l-9 -8q11 -11 32.5 -20.5t39.5 -9.5q13 0 37 14t35 28q13 15 18 10q4 -3 -6 -20q-58 -75 -99 -76q-58 -1 -105 31
l-44 -34q-15 -5 -17 -2t3 14q3 2 48.5 39t58.5 50q159 141 159 216q0 20 -10.5 27t-25 3t-28.5 -12.5t-22 -18.5q-20 -23 -38 -61q-6 -14 -17 -9q-7 4 -4 13q17 48 55 84t86 36q29 0 47.5 -15t18.5 -42z" />
    <glyph glyph-name="threequarters" unicode="&#xbe;" horiz-adv-x="622" 
d="M528 340q11 19 43 22.5t41 -5.5q-1 -14 -188 -174q-26 -21 -43 -43l121 3q6 13 17.5 35.5l20.5 39.5q14 15 43 18q19 2 17 -8q0 -3 -2 -6q0 -7 -38 -77h5q13 -2 17 -5.5t-1 -8.5t-20 -11h-15l-58 -113q-5 -5 -26.5 -9.5t-36.5 1.5q0 2 12.5 25.5l29 54.5t20.5 38l-147 -3
l4 19q23 28 57 61l41 43q65 74 86 103zM316 579q0 -66 -119 -115q65 -10 65 -61q0 -59 -62 -109.5t-132 -50.5q-47 0 -61 37q-4 10 -2.5 13.5t12.5 -0.5q5 -14 18.5 -24t28.5 -10q55 0 99.5 50.5t44.5 100.5q0 16 -8.5 26.5t-22.5 10.5q-4 0 -12.5 -2.5t-19 -6t-14.5 -4.5
q-19 -5 -20 4q-1 5 6 8q45 9 91 46t46 83q0 7 -8.5 11.5t-17.5 4.5q-37 0 -79 -48q-5 -6 -10 -5.5t-3 12.5q60 74 123 74q25 0 41 -11t16 -34zM545 606q13 15 36 11q18 -4 8 -16q-8 -11 -50.5 -64l-76 -95l-85 -106l-93.5 -114l-84.5 -99t-74.5 -81t-49 -43q-12 -8 -16 -4
t5 14q80 91 258 313.5t222 283.5z" />
    <glyph glyph-name="questiondown" unicode="&#xbf;" horiz-adv-x="396" 
d="M72 -122q23 26 79 80.5t89 98.5t56 105q4 9 12.5 6t6.5 -13q-8 -35 -34 -80t-44 -69.5t-67 -84t-56 -68.5q-25 -32 -32.5 -59.5t2 -44t28.5 -25t47 -6t56 16.5q24 12 41.5 32t14.5 37q-5 -19 -35 -36q-29 -13 -46.5 -3.5t-16.5 34.5t23 42q26 20 52.5 15.5t36 -27.5
t-2.5 -58q-14 -31 -73 -66q-41 -23 -82.5 -29.5t-70.5 6t-43 37t0.5 67t58.5 92.5zM294 295q3 17 17 29t31 12t27 -12t7 -29q-2 -17 -16.5 -29t-31.5 -12t-27 12t-7 29z" />
    <glyph glyph-name="Agrave" unicode="&#xc0;" horiz-adv-x="1186" 
d="M1218 253l13 -9q-148 -134 -356.5 -221t-332.5 -87q-39 0 -59 31.5t-20 74.5t10.5 85t27.5 65q-20 -24 -41 -46.5t-51.5 -51.5t-59 -51t-64 -44.5t-66.5 -32t-66 -13t-63 11.5q-72 30 -71.5 147t75.5 252q48 86 94 139q-53 25 -110 76q-65 58 -110.5 110t-60.5 76.5
t-18 35.5l12 20q-2 -8 25 -48t79 -98t107 -100l24 -19.5t33.5 -25.5t30.5 -18q235 261 488 261q79 0 125.5 -35.5t46.5 -91.5q0 -29 -16.5 -59t-51 -59.5t-97.5 -51.5t-146 -29q-156 -14 -296 31q-107 -152 -151 -260q-39 -97 -31 -152.5t44.5 -74t98 2.5t129.5 77
q76 64 149 152t113 163l50 -36q-69 -82 -124 -260q-41 -136 83 -131q129 5 386 145q105 58 143 88q65 52 75 61zM819 658q0 43 -35.5 66t-92.5 23q-67 0 -128.5 -20t-115 -59t-95 -80t-89.5 -98q108 -34 286 -19q124 10 197 61t73 126zM344 908q11 5 89 -58q82 -66 71 -76
q-2 -1 -5 -1q-4 0 -33.5 15l-63.5 33l-40 21q-14 7 -20 22.5t-4.5 28.5t6.5 15z" />
    <glyph glyph-name="Aacute" unicode="&#xc1;" horiz-adv-x="1186" 
d="M1218 253l13 -9q-148 -134 -356.5 -221t-332.5 -87q-39 0 -59 31.5t-20 74.5t10.5 85t27.5 65q-20 -24 -41 -46.5t-51.5 -51.5t-59 -51t-64 -44.5t-66.5 -32t-66 -13t-63 11.5q-72 30 -71.5 147t75.5 252q48 86 94 139q-53 25 -110 76q-65 58 -110.5 110t-60.5 76.5
t-18 35.5l12 20q-2 -8 25 -48t79 -98t107 -100l24 -19.5t33.5 -25.5t30.5 -18q235 261 488 261q79 0 125.5 -35.5t46.5 -91.5q0 -29 -16.5 -59t-51 -59.5t-97.5 -51.5t-146 -29q-156 -14 -296 31q-107 -152 -151 -260q-39 -97 -31 -152.5t44.5 -74t98 2.5t129.5 77
q76 64 149 152t113 163l50 -36q-69 -82 -124 -260q-41 -136 83 -131q129 5 386 145q105 58 143 88q65 52 75 61zM819 658q0 43 -35.5 66t-92.5 23q-67 0 -128.5 -20t-115 -59t-95 -80t-89.5 -98q108 -34 286 -19q124 10 197 61t73 126zM741 874q-5 -12 -93 -52t-94 -37
q-9 5 -3 13q2 3 28.5 23l57.5 41.5t37 26.5q33 25 58 12q18 -9 9 -27z" />
    <glyph glyph-name="Acircumflex" unicode="&#xc2;" horiz-adv-x="1186" 
d="M1218 253l13 -9q-148 -134 -356.5 -221t-332.5 -87q-39 0 -59 31.5t-20 74.5t10.5 85t27.5 65q-20 -24 -41 -46.5t-51.5 -51.5t-59 -51t-64 -44.5t-66.5 -32t-66 -13t-63 11.5q-72 30 -71.5 147t75.5 252q48 86 94 139q-53 25 -110 76q-65 58 -110.5 110t-60.5 76.5
t-18 35.5l12 20q-2 -8 25 -48t79 -98t107 -100l24 -19.5t33.5 -25.5t30.5 -18q235 261 488 261q79 0 125.5 -35.5t46.5 -91.5q0 -29 -16.5 -59t-51 -59.5t-97.5 -51.5t-146 -29q-156 -14 -296 31q-107 -152 -151 -260q-39 -97 -31 -152.5t44.5 -74t98 2.5t129.5 77
q76 64 149 152t113 163l50 -36q-69 -82 -124 -260q-41 -136 83 -131q129 5 386 145q105 58 143 88q65 52 75 61zM819 658q0 43 -35.5 66t-92.5 23q-67 0 -128.5 -20t-115 -59t-95 -80t-89.5 -98q108 -34 286 -19q124 10 197 61t73 126zM679 794q3 -6 -6 -6q-10 0 -14 6
l-46 71l-132 -71q-10 -9 -24 -5q-5 2 -1 5l149 106q37 5 38 0z" />
    <glyph glyph-name="Atilde" unicode="&#xc3;" horiz-adv-x="1186" 
d="M1218 253l13 -9q-148 -134 -356.5 -221t-332.5 -87q-39 0 -59 31.5t-20 74.5t10.5 85t27.5 65q-20 -24 -41 -46.5t-51.5 -51.5t-59 -51t-64 -44.5t-66.5 -32t-66 -13t-63 11.5q-72 30 -71.5 147t75.5 252q48 86 94 139q-53 25 -110 76q-65 58 -110.5 110t-60.5 76.5
t-18 35.5l12 20q-2 -8 25 -48t79 -98t107 -100l24 -19.5t33.5 -25.5t30.5 -18q235 261 488 261q79 0 125.5 -35.5t46.5 -91.5q0 -29 -16.5 -59t-51 -59.5t-97.5 -51.5t-146 -29q-156 -14 -296 31q-107 -152 -151 -260q-39 -97 -31 -152.5t44.5 -74t98 2.5t129.5 77
q76 64 149 152t113 163l50 -36q-69 -82 -124 -260q-41 -136 83 -131q129 5 386 145q105 58 143 88q65 52 75 61zM819 658q0 43 -35.5 66t-92.5 23q-67 0 -128.5 -20t-115 -59t-95 -80t-89.5 -98q108 -34 286 -19q124 10 197 61t73 126zM775 879q-34 -71 -83 -67
q-18 1 -51.5 16t-50.5 16q-29 3 -44 -27q-2 -6 -16 -1q-3 2 -4 3q37 66 83 62q19 -1 52.5 -15t49.5 -15q30 -3 47 29q1 5 15 1z" />
    <glyph glyph-name="Adieresis" unicode="&#xc4;" horiz-adv-x="1186" 
d="M1218 253l13 -9q-148 -134 -356.5 -221t-332.5 -87q-39 0 -59 31.5t-20 74.5t10.5 85t27.5 65q-20 -24 -41 -46.5t-51.5 -51.5t-59 -51t-64 -44.5t-66.5 -32t-66 -13t-63 11.5q-72 30 -71.5 147t75.5 252q48 86 94 139q-53 25 -110 76q-65 58 -110.5 110t-60.5 76.5
t-18 35.5l12 20q-2 -8 25 -48t79 -98t107 -100l24 -19.5t33.5 -25.5t30.5 -18q235 261 488 261q79 0 125.5 -35.5t46.5 -91.5q0 -29 -16.5 -59t-51 -59.5t-97.5 -51.5t-146 -29q-156 -14 -296 31q-107 -152 -151 -260q-39 -97 -31 -152.5t44.5 -74t98 2.5t129.5 77
q76 64 149 152t113 163l50 -36q-69 -82 -124 -260q-41 -136 83 -131q129 5 386 145q105 58 143 88q65 52 75 61zM819 658q0 43 -35.5 66t-92.5 23q-67 0 -128.5 -20t-115 -59t-95 -80t-89.5 -98q108 -34 286 -19q124 10 197 61t73 126zM768 839q0 -14 -9 -23.5t-23 -9.5
q-15 0 -24.5 9t-9.5 24q0 14 9 23.5t23 9.5q15 0 24.5 -9t9.5 -24zM639 839q0 -14 -9 -23.5t-23 -9.5q-15 0 -24.5 9t-9.5 24q0 14 9 23.5t23 9.5q15 0 24.5 -9t9.5 -24z" />
    <glyph glyph-name="Aring" unicode="&#xc5;" horiz-adv-x="1186" 
d="M1218 253l13 -9q-148 -134 -356.5 -221t-332.5 -87q-39 0 -59 31.5t-20 74.5t10.5 85t27.5 65q-20 -24 -41 -46.5t-51.5 -51.5t-59 -51t-64 -44.5t-66.5 -32t-66 -13t-63 11.5q-72 30 -71.5 147t75.5 252q48 86 94 139q-53 25 -110 76q-65 58 -110.5 110t-60.5 76.5
t-18 35.5l12 20q-2 -8 25 -48t79 -98t107 -100l24 -19.5t33.5 -25.5t30.5 -18q235 261 488 261q79 0 125.5 -35.5t46.5 -91.5q0 -29 -16.5 -59t-51 -59.5t-97.5 -51.5t-146 -29q-156 -14 -296 31q-107 -152 -151 -260q-39 -97 -31 -152.5t44.5 -74t98 2.5t129.5 77
q76 64 149 152t113 163l50 -36q-69 -82 -124 -260q-41 -136 83 -131q129 5 386 145q105 58 143 88q65 52 75 61zM819 658q0 43 -35.5 66t-92.5 23q-67 0 -128.5 -20t-115 -59t-95 -80t-89.5 -98q108 -34 286 -19q124 10 197 61t73 126zM622 852q-1 -16 7 -26.5t21 -10.5
t22.5 11.5t11.5 27.5q1 16 -7 26.5t-21 9.5t-23 -11.5t-11 -26.5zM587 850q2 22 23.5 38t49.5 18q27 1 44.5 -14.5t15.5 -37.5q-3 -23 -24 -39t-49 -17t-45.5 14.5t-14.5 37.5z" />
    <glyph glyph-name="AE" unicode="&#xc6;" horiz-adv-x="2256" 
d="M886 545q4 65 58.5 119.5t129.5 84.5t151 44.5t128 8.5q56 -6 93.5 -26.5t51 -47t9.5 -56t-25 -55t-60.5 -43.5t-89.5 -21q-179 -11 -368 26q-2 -6 -2 -9q-6 -35 5.5 -60t36.5 -38t50 -20.5t55 -14.5t43 -14l-15 -31q-7 0 -46 5t-79 2t-97 -20q-43 -13 -80.5 -42.5
t-60.5 -67t-35 -79.5t-3 -82t33 -72t75 -51t122 -18q396 6 789 209l4 -7q-428 -218 -797 -224q-118 -1 -195 37q-136 -46 -225 -46q-39 0 -59 31.5t-20 74.5t10.5 85t27.5 65q-20 -24 -41 -46.5t-51.5 -51.5t-59 -51t-64 -44.5t-66.5 -32t-66 -13t-63 11.5q-72 30 -71.5 147
t75.5 252q48 86 94 139q-53 25 -110 76q-65 58 -110.5 110t-60.5 76.5t-18 35.5l12 20q-2 -8 25 -48t79 -98t107 -100l24 -19.5t33.5 -25.5t30.5 -18q235 261 488 261q79 0 125.5 -35.5t46.5 -91.5q0 -29 -16.5 -59t-51 -59.5t-97.5 -51.5t-146 -29q-156 -14 -296 31
q-107 -152 -151 -260q-39 -97 -31 -152.5t44.5 -74t98 2.5t129.5 77q76 64 149 152t113 163l50 -36q-69 -82 -124 -260q-16 -47 -9 -74.5t25 -41.5t51 -14.5t70.5 7.5t83.5 24q-62 36 -82 95.5t-0.5 119t82 115t153.5 82.5q53 15 101 17q-50 18 -86.5 51.5t-33.5 73.5z
M819 658q0 43 -35.5 66t-92.5 23q-67 0 -128.5 -20t-115 -59t-95 -80t-89.5 -98q108 -34 286 -19q124 10 197 61t73 126zM1346 792q-115 1 -232.5 -58t-146.5 -144q166 -30 362 -19q39 5 73 28t50 53.5t16 60.5t-31.5 52.5t-90.5 26.5z" />
    <glyph glyph-name="Ccedilla" unicode="&#xc7;" horiz-adv-x="1222" 
d="M1279 231q-65 -79 -197 -151t-286 -115.5t-312.5 -54.5t-275.5 33q-91 33 -130 114t-28 176.5t48 189.5t91 162q-33 127 -12 203q2 8 8 12.5t10 0t2 -17.5q-13 -76 8 -190q80 103 188 150t228 33q153 -17 207 -119q45 -84 2 -181q-42 -95 -144 -142q-101 -46 -229 -23
q-76 14 -141 60.5t-102 123.5q-10 -14 -26 -51.5t-33.5 -92.5t-23.5 -116.5t0 -118.5t41 -102.5t97 -64.5q58 -19 143 -21t180 11t196.5 41t192 65.5t167.5 89t121 108.5q9 12 14.5 6.5t-4.5 -18.5zM637 760q-108 12 -219 -58.5t-189 -188.5q62 -158 243 -178
q164 -18 253 83q65 75 59 175q-6 94 -73 141q-32 21 -74 26zM413 -183q0 -41 -52 -76q-25 -17 -76 -17q-33 0 -79.5 11.5t-46.5 34.5q0 7 6 7q4 0 15 -11q24 -25 86 -25q73 0 96 36q14 21 14 41q0 27 -23 42t-52 15q-23 0 -47 -12t-25 -12q-7 0 -13 4.5t-6 10.5q0 5 4 9
q6 6 40 32t37 26q5 0 8 -8q-1 -1 -13.5 -9.5t-21.5 -15.5t-9 -10q19 3 39 3q43 0 81 -19t38 -57z" />
    <glyph glyph-name="Egrave" unicode="&#xc8;" horiz-adv-x="1070" 
d="M1117 176l4 -7q-428 -218 -797 -224q-83 -1 -147 18t-98 52.5t-49.5 75.5t-4 88.5t39.5 88.5t81 78.5t121 56.5q53 15 101 17q-50 18 -86.5 51.5t-33.5 73.5q2 25 12 48q-144 35 -254 89t-151 106l-2 8q183 -139 412 -193q47 96 191.5 154t258.5 45q56 -6 93.5 -26.5
t51 -47t9.5 -56t-25 -55t-60.5 -43.5t-89.5 -21q-179 -11 -368 26q-2 -6 -2 -9q-6 -35 5.5 -60t36.5 -38t50 -20.5t55 -14.5t43 -14l-15 -31q-7 0 -46 5t-79 2t-97 -20q-43 -13 -80.5 -42.5t-60.5 -67t-35 -79.5t-3 -82t33 -72t75 -51t122 -18q396 6 789 209zM708 792
q-115 1 -232.5 -58t-146.5 -144q166 -30 362 -19q39 5 73 28t50 53.5t16 60.5t-31.5 52.5t-90.5 26.5zM514 960q11 5 89 -58q82 -66 71 -76q-2 -1 -5 -1q-4 0 -33.5 15l-63.5 33l-40 21q-14 7 -20 22.5t-4.5 28.5t6.5 15z" />
    <glyph glyph-name="Eacute" unicode="&#xc9;" horiz-adv-x="1070" 
d="M1117 176l4 -7q-428 -218 -797 -224q-83 -1 -147 18t-98 52.5t-49.5 75.5t-4 88.5t39.5 88.5t81 78.5t121 56.5q53 15 101 17q-50 18 -86.5 51.5t-33.5 73.5q2 25 12 48q-144 35 -254 89t-151 106l-2 8q183 -139 412 -193q47 96 191.5 154t258.5 45q56 -6 93.5 -26.5
t51 -47t9.5 -56t-25 -55t-60.5 -43.5t-89.5 -21q-179 -11 -368 26q-2 -6 -2 -9q-6 -35 5.5 -60t36.5 -38t50 -20.5t55 -14.5t43 -14l-15 -31q-7 0 -46 5t-79 2t-97 -20q-43 -13 -80.5 -42.5t-60.5 -67t-35 -79.5t-3 -82t33 -72t75 -51t122 -18q396 6 789 209zM708 792
q-115 1 -232.5 -58t-146.5 -144q166 -30 362 -19q39 5 73 28t50 53.5t16 60.5t-31.5 52.5t-90.5 26.5zM805 903q-5 -12 -93 -52t-94 -37q-9 5 -3 13q2 3 28.5 23l57.5 41.5t37 26.5q33 25 58 12q18 -9 9 -27z" />
    <glyph glyph-name="Ecircumflex" unicode="&#xca;" horiz-adv-x="1070" 
d="M1117 176l4 -7q-428 -218 -797 -224q-83 -1 -147 18t-98 52.5t-49.5 75.5t-4 88.5t39.5 88.5t81 78.5t121 56.5q53 15 101 17q-50 18 -86.5 51.5t-33.5 73.5q2 25 12 48q-144 35 -254 89t-151 106l-2 8q183 -139 412 -193q47 96 191.5 154t258.5 45q56 -6 93.5 -26.5
t51 -47t9.5 -56t-25 -55t-60.5 -43.5t-89.5 -21q-179 -11 -368 26q-2 -6 -2 -9q-6 -35 5.5 -60t36.5 -38t50 -20.5t55 -14.5t43 -14l-15 -31q-7 0 -46 5t-79 2t-97 -20q-43 -13 -80.5 -42.5t-60.5 -67t-35 -79.5t-3 -82t33 -72t75 -51t122 -18q396 6 789 209zM708 792
q-115 1 -232.5 -58t-146.5 -144q166 -30 362 -19q39 5 73 28t50 53.5t16 60.5t-31.5 52.5t-90.5 26.5zM753 829q3 -6 -6 -6q-10 0 -14 6l-46 71l-132 -71q-10 -9 -24 -5q-5 2 -1 5l149 106q37 5 38 0z" />
    <glyph glyph-name="Edieresis" unicode="&#xcb;" horiz-adv-x="1070" 
d="M1117 176l4 -7q-428 -218 -797 -224q-83 -1 -147 18t-98 52.5t-49.5 75.5t-4 88.5t39.5 88.5t81 78.5t121 56.5q53 15 101 17q-50 18 -86.5 51.5t-33.5 73.5q2 25 12 48q-144 35 -254 89t-151 106l-2 8q183 -139 412 -193q47 96 191.5 154t258.5 45q56 -6 93.5 -26.5
t51 -47t9.5 -56t-25 -55t-60.5 -43.5t-89.5 -21q-179 -11 -368 26q-2 -6 -2 -9q-6 -35 5.5 -60t36.5 -38t50 -20.5t55 -14.5t43 -14l-15 -31q-7 0 -46 5t-79 2t-97 -20q-43 -13 -80.5 -42.5t-60.5 -67t-35 -79.5t-3 -82t33 -72t75 -51t122 -18q396 6 789 209zM708 792
q-115 1 -232.5 -58t-146.5 -144q166 -30 362 -19q39 5 73 28t50 53.5t16 60.5t-31.5 52.5t-90.5 26.5zM784 853q0 -14 -9 -23.5t-23 -9.5q-15 0 -24.5 9t-9.5 24q0 14 9 23.5t23 9.5q15 0 24.5 -9t9.5 -24zM655 853q0 -14 -9 -23.5t-23 -9.5q-15 0 -24.5 9t-9.5 24
q0 14 9 23.5t23 9.5q15 0 24.5 -9t9.5 -24z" />
    <glyph glyph-name="Igrave" unicode="&#xcc;" horiz-adv-x="1402" 
d="M769 415l24 -4q1 -48 -32.5 -94.5t-83.5 -65.5q-81 -31 -142.5 17t-42.5 135q57 257 570 344q9 19 32.5 47t44.5 35q22 8 39 1.5t18 -25.5q0 -15 -6 -26.5t-18.5 -19.5t-23.5 -13t-29 -11q-6 0 -22 -4.5t-20 -4.5q-26 -67 -60.5 -169.5t-55 -158t-61.5 -137t-97 -162.5
q-141 -203 -395 -245q-106 -18 -195.5 -4t-147.5 56.5t-77 112t16 163.5q14 38 49 73.5t66 50.5l5 -11q-35 -22 -74 -66t-52 -94q-15 -63 1.5 -115t56 -83.5t91.5 -53t107.5 -23.5t104.5 5q63 12 120.5 38t99.5 53.5t83.5 71t66 74t54.5 81t41.5 72.5l33.5 67l75.5 158.5
l73.5 160t39 80.5l-65.5 -14t-70 -17.5t-76.5 -22t-73.5 -26t-73.5 -33t-64 -39.5t-57 -47.5t-40.5 -56.5t-26.5 -67t6 -65t42 -45.5t62 -21.5t67 8q51 20 72.5 61t20.5 80zM1151 823q-4 2 -14.5 -11t-24 -34t-18.5 -27q58 12 81 46q16 24 -2 28q-8 2 -22 -2zM852 903
q11 5 89 -58q82 -66 71 -76q-2 -1 -5 -1q-4 0 -33.5 15l-63.5 33l-40 21q-14 7 -20 22.5t-4.5 28.5t6.5 15z" />
    <glyph glyph-name="Iacute" unicode="&#xcd;" horiz-adv-x="1402" 
d="M769 415l24 -4q1 -48 -32.5 -94.5t-83.5 -65.5q-81 -31 -142.5 17t-42.5 135q57 257 570 344q9 19 32.5 47t44.5 35q22 8 39 1.5t18 -25.5q0 -15 -6 -26.5t-18.5 -19.5t-23.5 -13t-29 -11q-6 0 -22 -4.5t-20 -4.5q-26 -67 -60.5 -169.5t-55 -158t-61.5 -137t-97 -162.5
q-141 -203 -395 -245q-106 -18 -195.5 -4t-147.5 56.5t-77 112t16 163.5q14 38 49 73.5t66 50.5l5 -11q-35 -22 -74 -66t-52 -94q-15 -63 1.5 -115t56 -83.5t91.5 -53t107.5 -23.5t104.5 5q63 12 120.5 38t99.5 53.5t83.5 71t66 74t54.5 81t41.5 72.5l33.5 67l75.5 158.5
l73.5 160t39 80.5l-65.5 -14t-70 -17.5t-76.5 -22t-73.5 -26t-73.5 -33t-64 -39.5t-57 -47.5t-40.5 -56.5t-26.5 -67t6 -65t42 -45.5t62 -21.5t67 8q51 20 72.5 61t20.5 80zM1151 823q-4 2 -14.5 -11t-24 -34t-18.5 -27q58 12 81 46q16 24 -2 28q-8 2 -22 -2zM1069 848
q-5 -12 -93 -52t-94 -37q-9 5 -3 13q2 3 28.5 23l57.5 41.5t37 26.5q33 25 58 12q18 -9 9 -27z" />
    <glyph glyph-name="Icircumflex" unicode="&#xce;" horiz-adv-x="1402" 
d="M769 415l24 -4q1 -48 -32.5 -94.5t-83.5 -65.5q-81 -31 -142.5 17t-42.5 135q57 257 570 344q9 19 32.5 47t44.5 35q22 8 39 1.5t18 -25.5q0 -15 -6 -26.5t-18.5 -19.5t-23.5 -13t-29 -11q-6 0 -22 -4.5t-20 -4.5q-26 -67 -60.5 -169.5t-55 -158t-61.5 -137t-97 -162.5
q-141 -203 -395 -245q-106 -18 -195.5 -4t-147.5 56.5t-77 112t16 163.5q14 38 49 73.5t66 50.5l5 -11q-35 -22 -74 -66t-52 -94q-15 -63 1.5 -115t56 -83.5t91.5 -53t107.5 -23.5t104.5 5q63 12 120.5 38t99.5 53.5t83.5 71t66 74t54.5 81t41.5 72.5l33.5 67l75.5 158.5
l73.5 160t39 80.5l-65.5 -14t-70 -17.5t-76.5 -22t-73.5 -26t-73.5 -33t-64 -39.5t-57 -47.5t-40.5 -56.5t-26.5 -67t6 -65t42 -45.5t62 -21.5t67 8q51 20 72.5 61t20.5 80zM1151 823q-4 2 -14.5 -11t-24 -34t-18.5 -27q58 12 81 46q16 24 -2 28q-8 2 -22 -2zM1037 780
q3 -6 -6 -6q-10 0 -14 6l-46 71l-132 -71q-10 -9 -24 -5q-5 2 -1 5l149 106q37 5 38 0z" />
    <glyph glyph-name="Idieresis" unicode="&#xcf;" horiz-adv-x="1402" 
d="M769 415l24 -4q1 -48 -32.5 -94.5t-83.5 -65.5q-81 -31 -142.5 17t-42.5 135q57 257 570 344q9 19 32.5 47t44.5 35q22 8 39 1.5t18 -25.5q0 -15 -6 -26.5t-18.5 -19.5t-23.5 -13t-29 -11q-6 0 -22 -4.5t-20 -4.5q-26 -67 -60.5 -169.5t-55 -158t-61.5 -137t-97 -162.5
q-141 -203 -395 -245q-106 -18 -195.5 -4t-147.5 56.5t-77 112t16 163.5q14 38 49 73.5t66 50.5l5 -11q-35 -22 -74 -66t-52 -94q-15 -63 1.5 -115t56 -83.5t91.5 -53t107.5 -23.5t104.5 5q63 12 120.5 38t99.5 53.5t83.5 71t66 74t54.5 81t41.5 72.5l33.5 67l75.5 158.5
l73.5 160t39 80.5l-65.5 -14t-70 -17.5t-76.5 -22t-73.5 -26t-73.5 -33t-64 -39.5t-57 -47.5t-40.5 -56.5t-26.5 -67t6 -65t42 -45.5t62 -21.5t67 8q51 20 72.5 61t20.5 80zM1151 823q-4 2 -14.5 -11t-24 -34t-18.5 -27q58 12 81 46q16 24 -2 28q-8 2 -22 -2zM1066 807
q0 -14 -9 -23.5t-23 -9.5q-15 0 -24.5 9t-9.5 24q0 14 9 23.5t23 9.5q15 0 24.5 -9t9.5 -24zM937 807q0 -14 -9 -23.5t-23 -9.5q-15 0 -24.5 9t-9.5 24q0 14 9 23.5t23 9.5q15 0 24.5 -9t9.5 -24z" />
    <glyph glyph-name="Eth" unicode="&#xd0;" horiz-adv-x="1506" 
d="M1645 253l3 -16q-250 -69 -352 -83.5t-291 -11.5q-36 -75 -114 -117.5t-168 -48t-180.5 12.5t-158.5 56q-121 -98 -259 -81q-90 11 -115 69q-20 47 16 88q46 53 140 38q24 -4 49 -13q41 -15 152 -74q52 50 112 147q-96 25 -212 104q-151 104 -173 201q-24 107 126 175
q104 47 219.5 55t196 -10.5t139.5 -49.5q39 45 74.5 70t56.5 21q6 -1 7.5 -4.5t-1 -6t-6.5 -2.5q-17 0 -44 -36t-44 -67q107 -71 163 -182t42 -248q-4 -41 -17 -77q129 -21 334.5 13.5t304.5 77.5zM469 256q17 -7 26 -10q31 54 53 96l-109 -13q-11 -1 -20 17.5t-5 38
t25 19.5q19 0 141 -2q104 196 181 282q-160 77 -391 35q-161 -42 -203 -133q-42 -90 23 -164q63 -70 133 -103q64 -30 146 -63zM789 356q-89 0 -172 -8q-39 -65 -73 -116q169 -51 382 -64q17 41 21 79q13 128 -22.5 240t-117.5 177q-26 -41 -158 -263l134 -3q26 -1 32 -20
q5 -17 -17 -21q-4 -1 -9 -1zM918 151q-213 14 -391 56q-46 -70 -90 -117q-17 -18 -38 -36q81 -48 184.5 -55t196.5 33t138 119zM353 64q-13 6 -46.5 23l-60.5 30t-54 22q-74 25 -113 -26q-31 -40 -17 -86q15 -49 70 -52q49 -2 110 25.5t111 63.5z" />
    <glyph glyph-name="Ntilde" unicode="&#xd1;" horiz-adv-x="1632" 
d="M1678 209l8 -9q-81 -136 -264 -244q-178 -105 -340 -120q-164 -16 -213 78q-37 72 5 199q12 35 119 260t116 284q9 51 -35 68.5t-97 -9.5q-91 -43 -224 -202q-63 -77 -118 -177.5t-115 -240t-67 -154.5q-14 -30 -71 9l-9 7q48 71 134.5 262.5t118.5 333.5q17 79 3 127
t-49.5 71t-85.5 23t-105.5 -17t-108.5 -49q-177 -106 -236 -255q-46 -115 -4 -198q41 -76 128 -78q100 0 167 78q52 61 48 121q-4 58 -63 67q-31 4 -74 -8q-9 -2 -9 0q-1 4 8 10l6 2q99 24 138 -43q33 -57 4 -137q-32 -86 -114 -125q-46 -21 -101 -21q-66 0 -114.5 40.5
t-63 114.5t26.5 177q34 83 108.5 156t165.5 123q64 35 135 50t133 6t97.5 -59.5t24.5 -137.5q-2 -16 -5 -32t-9.5 -36l-10.5 -31.5t-14.5 -35.5l-13.5 -31t-16 -35.5t-14 -31.5q-27 -60 -26 -61l14 23l17 27q61 94 132 180q132 160 237 208q49 23 95.5 27t79 -19.5
t31.5 -75.5q-1 -53 -33.5 -126.5t-96 -189.5t-98.5 -191q-138 -302 51 -302q107 0 207 27t171 65.5t133 89t97.5 91t58.5 77.5zM991 862q-34 -71 -83 -67q-18 1 -51.5 16t-50.5 16q-29 3 -44 -27q-2 -6 -16 -1q-3 2 -4 3q37 66 83 62q19 -1 52.5 -15t49.5 -15q30 -3 47 29
q1 5 15 1z" />
    <glyph glyph-name="Ograve" unicode="&#xd2;" horiz-adv-x="1271" 
d="M711 267l2 -18h3q-32 -72 -83.5 -135t-117 -108t-138 -61t-146.5 7q-57 18 -92.5 76t-39.5 136t29 167q-58 57 -63.5 136t39.5 151q50 84 171 129q112 41 218 17q95 -21 149 -66q54 -42 83 -105q38 -83 34 -161l-4 -35q-4 -63 -32 -130h-12zM530 638v-17l-9 3
q-51 17 -104.5 -7t-96 -75t-74 -105t-50.5 -105q39 -28 93.5 -53t121 -43.5t138 -14.5t129.5 35q48 242 -35 384q-68 115 -250 115q-83 0 -174 -46q-91 -45 -121 -138q-28 -93 48 -199q22 47 60 96.5t88 94.5t113 67t122 8h1zM675 243q-78 -42 -175 -45.5t-179.5 23
t-142.5 71.5q-25 -65 -30.5 -127.5t15 -115.5t66.5 -76q74 -34 147.5 -16.5t136 67t105.5 109t57 110.5zM723 267l-7 -18q23 0 58 -6q9 -2 15 -3.5t10.5 -4.5t6 -4.5t6 -6.5t6.5 -8q5 -7 0.5 -40t-6 -82t-1 -95t16.5 -79.5t47 -34.5q52 -2 115.5 25.5t117 68.5t100 82.5
t73.5 70.5l27 30l2 14l-34 -33.5t-80.5 -72t-111 -89t-109 -64t-90.5 -17.5q-36 10 -50 55t-10 97t6 101.5t-2 67.5q-18 46 -106 46zM331 937q11 5 89 -58q82 -66 71 -76q-2 -1 -5 -1q-4 0 -33.5 15l-63.5 33l-40 21q-14 7 -20 22.5t-4.5 28.5t6.5 15z" />
    <glyph glyph-name="Oacute" unicode="&#xd3;" horiz-adv-x="1271" 
d="M711 267l2 -18h3q-32 -72 -83.5 -135t-117 -108t-138 -61t-146.5 7q-57 18 -92.5 76t-39.5 136t29 167q-58 57 -63.5 136t39.5 151q50 84 171 129q112 41 218 17q95 -21 149 -66q54 -42 83 -105q38 -83 34 -161l-4 -35q-4 -63 -32 -130h-12zM530 638v-17l-9 3
q-51 17 -104.5 -7t-96 -75t-74 -105t-50.5 -105q39 -28 93.5 -53t121 -43.5t138 -14.5t129.5 35q48 242 -35 384q-68 115 -250 115q-83 0 -174 -46q-91 -45 -121 -138q-28 -93 48 -199q22 47 60 96.5t88 94.5t113 67t122 8h1zM675 243q-78 -42 -175 -45.5t-179.5 23
t-142.5 71.5q-25 -65 -30.5 -127.5t15 -115.5t66.5 -76q74 -34 147.5 -16.5t136 67t105.5 109t57 110.5zM723 267l-7 -18q23 0 58 -6q9 -2 15 -3.5t10.5 -4.5t6 -4.5t6 -6.5t6.5 -8q5 -7 0.5 -40t-6 -82t-1 -95t16.5 -79.5t47 -34.5q52 -2 115.5 25.5t117 68.5t100 82.5
t73.5 70.5l27 30l2 14l-34 -33.5t-80.5 -72t-111 -89t-109 -64t-90.5 -17.5q-36 10 -50 55t-10 97t6 101.5t-2 67.5q-18 46 -106 46zM580 905q-5 -12 -93 -52t-94 -37q-9 5 -3 13q2 3 28.5 23l57.5 41.5t37 26.5q33 25 58 12q18 -9 9 -27z" />
    <glyph glyph-name="Ocircumflex" unicode="&#xd4;" horiz-adv-x="1271" 
d="M711 267l2 -18h3q-32 -72 -83.5 -135t-117 -108t-138 -61t-146.5 7q-57 18 -92.5 76t-39.5 136t29 167q-58 57 -63.5 136t39.5 151q50 84 171 129q112 41 218 17q95 -21 149 -66q54 -42 83 -105q38 -83 34 -161l-4 -35q-4 -63 -32 -130h-12zM530 638v-17l-9 3
q-51 17 -104.5 -7t-96 -75t-74 -105t-50.5 -105q39 -28 93.5 -53t121 -43.5t138 -14.5t129.5 35q48 242 -35 384q-68 115 -250 115q-83 0 -174 -46q-91 -45 -121 -138q-28 -93 48 -199q22 47 60 96.5t88 94.5t113 67t122 8h1zM675 243q-78 -42 -175 -45.5t-179.5 23
t-142.5 71.5q-25 -65 -30.5 -127.5t15 -115.5t66.5 -76q74 -34 147.5 -16.5t136 67t105.5 109t57 110.5zM723 267l-7 -18q23 0 58 -6q9 -2 15 -3.5t10.5 -4.5t6 -4.5t6 -6.5t6.5 -8q5 -7 0.5 -40t-6 -82t-1 -95t16.5 -79.5t47 -34.5q52 -2 115.5 25.5t117 68.5t100 82.5
t73.5 70.5l27 30l2 14l-34 -33.5t-80.5 -72t-111 -89t-109 -64t-90.5 -17.5q-36 10 -50 55t-10 97t6 101.5t-2 67.5q-18 46 -106 46zM516 792q3 -6 -6 -6q-10 0 -14 6l-46 71l-132 -71q-10 -9 -24 -5q-5 2 -1 5l149 106q37 5 38 0z" />
    <glyph glyph-name="Otilde" unicode="&#xd5;" horiz-adv-x="1271" 
d="M711 267l2 -18h3q-32 -72 -83.5 -135t-117 -108t-138 -61t-146.5 7q-57 18 -92.5 76t-39.5 136t29 167q-58 57 -63.5 136t39.5 151q50 84 171 129q112 41 218 17q95 -21 149 -66q54 -42 83 -105q38 -83 34 -161l-4 -35q-4 -63 -32 -130h-12zM530 638v-17l-9 3
q-51 17 -104.5 -7t-96 -75t-74 -105t-50.5 -105q39 -28 93.5 -53t121 -43.5t138 -14.5t129.5 35q48 242 -35 384q-68 115 -250 115q-83 0 -174 -46q-91 -45 -121 -138q-28 -93 48 -199q22 47 60 96.5t88 94.5t113 67t122 8h1zM675 243q-78 -42 -175 -45.5t-179.5 23
t-142.5 71.5q-25 -65 -30.5 -127.5t15 -115.5t66.5 -76q74 -34 147.5 -16.5t136 67t105.5 109t57 110.5zM723 267l-7 -18q23 0 58 -6q9 -2 15 -3.5t10.5 -4.5t6 -4.5t6 -6.5t6.5 -8q5 -7 0.5 -40t-6 -82t-1 -95t16.5 -79.5t47 -34.5q52 -2 115.5 25.5t117 68.5t100 82.5
t73.5 70.5l27 30l2 14l-34 -33.5t-80.5 -72t-111 -89t-109 -64t-90.5 -17.5q-36 10 -50 55t-10 97t6 101.5t-2 67.5q-18 46 -106 46zM551 862q-34 -71 -83 -67q-18 1 -51.5 16t-50.5 16q-29 3 -44 -27q-2 -6 -16 -1q-3 2 -4 3q37 66 83 62q19 -1 52.5 -15t49.5 -15
q30 -3 47 29q1 5 15 1z" />
    <glyph glyph-name="Odieresis" unicode="&#xd6;" horiz-adv-x="1271" 
d="M711 267l2 -18h3q-32 -72 -83.5 -135t-117 -108t-138 -61t-146.5 7q-57 18 -92.5 76t-39.5 136t29 167q-58 57 -63.5 136t39.5 151q50 84 171 129q112 41 218 17q95 -21 149 -66q54 -42 83 -105q38 -83 34 -161l-4 -35q-4 -63 -32 -130h-12zM530 638v-17l-9 3
q-51 17 -104.5 -7t-96 -75t-74 -105t-50.5 -105q39 -28 93.5 -53t121 -43.5t138 -14.5t129.5 35q48 242 -35 384q-68 115 -250 115q-83 0 -174 -46q-91 -45 -121 -138q-28 -93 48 -199q22 47 60 96.5t88 94.5t113 67t122 8h1zM675 243q-78 -42 -175 -45.5t-179.5 23
t-142.5 71.5q-25 -65 -30.5 -127.5t15 -115.5t66.5 -76q74 -34 147.5 -16.5t136 67t105.5 109t57 110.5zM723 267l-7 -18q23 0 58 -6q9 -2 15 -3.5t10.5 -4.5t6 -4.5t6 -6.5t6.5 -8q5 -7 0.5 -40t-6 -82t-1 -95t16.5 -79.5t47 -34.5q52 -2 115.5 25.5t117 68.5t100 82.5
t73.5 70.5l27 30l2 14l-34 -33.5t-80.5 -72t-111 -89t-109 -64t-90.5 -17.5q-36 10 -50 55t-10 97t6 101.5t-2 67.5q-18 46 -106 46zM550 824q0 -14 -9 -23.5t-23 -9.5q-15 0 -24.5 9t-9.5 24q0 14 9 23.5t23 9.5q15 0 24.5 -9t9.5 -24zM421 824q0 -14 -9 -23.5t-23 -9.5
q-15 0 -24.5 9t-9.5 24q0 14 9 23.5t23 9.5q15 0 24.5 -9t9.5 -24z" />
    <glyph glyph-name="Oslash" unicode="&#xd8;" horiz-adv-x="1271" 
d="M711 267l2 -18h3q-32 -72 -83.5 -135t-117 -108t-138 -61t-146.5 7q-57 18 -92.5 76t-39.5 136t29 167q-58 57 -63.5 136t39.5 151q50 84 171 129q112 41 218 17q95 -21 149 -66q54 -42 83 -105q38 -83 34 -161l-4 -35q-4 -63 -32 -130h-12zM530 638v-17l-9 3
q-51 17 -104.5 -7t-96 -75t-74 -105t-50.5 -105q39 -28 93.5 -53t121 -43.5t138 -14.5t129.5 35q48 242 -35 384q-68 115 -250 115q-83 0 -174 -46q-91 -45 -121 -138q-28 -93 48 -199q22 47 60 96.5t88 94.5t113 67t122 8h1zM675 243q-78 -42 -175 -45.5t-179.5 23
t-142.5 71.5q-25 -65 -30.5 -127.5t15 -115.5t66.5 -76q74 -34 147.5 -16.5t136 67t105.5 109t57 110.5zM723 267l-7 -18q23 0 58 -6q9 -2 15 -3.5t10.5 -4.5t6 -4.5t6 -6.5t6.5 -8q5 -7 0.5 -40t-6 -82t-1 -95t16.5 -79.5t47 -34.5q52 -2 115.5 25.5t117 68.5t100 82.5
t73.5 70.5l27 30l2 14l-34 -33.5t-80.5 -72t-111 -89t-109 -64t-90.5 -17.5q-36 10 -50 55t-10 97t6 101.5t-2 67.5q-18 46 -106 46zM750 797q16 20 42 14q20 -5 12 -20q-1 -3 -4 -6q-52 -60 -217 -266l-299 -363t-188 -192q-21 -13 -27 -4q-4 8 10 20q21 18 52.5 52.5
l77 88.5l88 105.5l106.5 132.5l109.5 137.5l120.5 152z" />
    <glyph glyph-name="Ugrave" unicode="&#xd9;" horiz-adv-x="1166" 
d="M883 165q-62 -209 -18 -232q-19 8 -30.5 22t-16 30.5t-4 44t3.5 51.5t9 64q3 22 5 34q-34 -53 -64 -90q-40 -50 -81.5 -82.5t-77 -44t-65 -6.5t-48.5 28t-24 61q-8 59 30 158.5t92 212.5t69 165q21 71 17 142t-37 92q-39 26 -96.5 21.5t-115.5 -26t-118 -57.5
q-54 -33 -97 -70q17 -12 36 -29q173 -159 107 -373q-21 -68 -83 -109q-61 -40 -109 -37q-48 5 -85 28q-46 31 -68.5 88.5t-18 126t46.5 149t118 150.5l16 14q-39 25 -92 48l7 11q56 -23 97 -49q56 45 128 85q89 48 174 60t153 -16q128 -56 78 -253q-15 -61 -72.5 -173.5
t-101 -215t-38.5 -165.5q4 -58 54 -60q62 -3 143 79q28 30 55 67q40 57 99 179.5t70 140.5q15 24 27 36l42 -39q-6 -17 -26 -52.5t-25 -46.5q-42 -84 -65 -162zM246 638q-17 16 -42 34q-31 -28 -56 -59q-61 -72 -91 -153t-27 -147t33 -110q32 -45 84 -53t119 29
q64 40 81 106t15 123q-2 123 -116 230zM824 690q11 5 89 -58q82 -66 71 -76q-2 -1 -5 -1q-4 0 -33.5 15l-63.5 33l-40 21q-14 7 -20 22.5t-4.5 28.5t6.5 15z" />
    <glyph glyph-name="Uacute" unicode="&#xda;" horiz-adv-x="1166" 
d="M883 165q-62 -209 -18 -232q-19 8 -30.5 22t-16 30.5t-4 44t3.5 51.5t9 64q3 22 5 34q-34 -53 -64 -90q-40 -50 -81.5 -82.5t-77 -44t-65 -6.5t-48.5 28t-24 61q-8 59 30 158.5t92 212.5t69 165q21 71 17 142t-37 92q-39 26 -96.5 21.5t-115.5 -26t-118 -57.5
q-54 -33 -97 -70q17 -12 36 -29q173 -159 107 -373q-21 -68 -83 -109q-61 -40 -109 -37q-48 5 -85 28q-46 31 -68.5 88.5t-18 126t46.5 149t118 150.5l16 14q-39 25 -92 48l7 11q56 -23 97 -49q56 45 128 85q89 48 174 60t153 -16q128 -56 78 -253q-15 -61 -72.5 -173.5
t-101 -215t-38.5 -165.5q4 -58 54 -60q62 -3 143 79q28 30 55 67q40 57 99 179.5t70 140.5q15 24 27 36l42 -39q-6 -17 -26 -52.5t-25 -46.5q-42 -84 -65 -162zM246 638q-17 16 -42 34q-31 -28 -56 -59q-61 -72 -91 -153t-27 -147t33 -110q32 -45 84 -53t119 29
q64 40 81 106t15 123q-2 123 -116 230zM1021 603q-5 -12 -93 -52t-94 -37q-9 5 -3 13q2 3 28.5 23l57.5 41.5t37 26.5q33 25 58 12q18 -9 9 -27z" />
    <glyph glyph-name="Ucircumflex" unicode="&#xdb;" horiz-adv-x="1166" 
d="M883 165q-62 -209 -18 -232q-19 8 -30.5 22t-16 30.5t-4 44t3.5 51.5t9 64q3 22 5 34q-34 -53 -64 -90q-40 -50 -81.5 -82.5t-77 -44t-65 -6.5t-48.5 28t-24 61q-8 59 30 158.5t92 212.5t69 165q21 71 17 142t-37 92q-39 26 -96.5 21.5t-115.5 -26t-118 -57.5
q-54 -33 -97 -70q17 -12 36 -29q173 -159 107 -373q-21 -68 -83 -109q-61 -40 -109 -37q-48 5 -85 28q-46 31 -68.5 88.5t-18 126t46.5 149t118 150.5l16 14q-39 25 -92 48l7 11q56 -23 97 -49q56 45 128 85q89 48 174 60t153 -16q128 -56 78 -253q-15 -61 -72.5 -173.5
t-101 -215t-38.5 -165.5q4 -58 54 -60q62 -3 143 79q28 30 55 67q40 57 99 179.5t70 140.5q15 24 27 36l42 -39q-6 -17 -26 -52.5t-25 -46.5q-42 -84 -65 -162zM246 638q-17 16 -42 34q-31 -28 -56 -59q-61 -72 -91 -153t-27 -147t33 -110q32 -45 84 -53t119 29
q64 40 81 106t15 123q-2 123 -116 230zM1002 546q3 -6 -6 -6q-10 0 -14 6l-46 71l-132 -71q-10 -9 -24 -5q-5 2 -1 5l149 106q37 5 38 0z" />
    <glyph glyph-name="Udieresis" unicode="&#xdc;" horiz-adv-x="1166" 
d="M883 165q-62 -209 -18 -232q-19 8 -30.5 22t-16 30.5t-4 44t3.5 51.5t9 64q3 22 5 34q-34 -53 -64 -90q-40 -50 -81.5 -82.5t-77 -44t-65 -6.5t-48.5 28t-24 61q-8 59 30 158.5t92 212.5t69 165q21 71 17 142t-37 92q-39 26 -96.5 21.5t-115.5 -26t-118 -57.5
q-54 -33 -97 -70q17 -12 36 -29q173 -159 107 -373q-21 -68 -83 -109q-61 -40 -109 -37q-48 5 -85 28q-46 31 -68.5 88.5t-18 126t46.5 149t118 150.5l16 14q-39 25 -92 48l7 11q56 -23 97 -49q56 45 128 85q89 48 174 60t153 -16q128 -56 78 -253q-15 -61 -72.5 -173.5
t-101 -215t-38.5 -165.5q4 -58 54 -60q62 -3 143 79q28 30 55 67q40 57 99 179.5t70 140.5q15 24 27 36l42 -39q-6 -17 -26 -52.5t-25 -46.5q-42 -84 -65 -162zM246 638q-17 16 -42 34q-31 -28 -56 -59q-61 -72 -91 -153t-27 -147t33 -110q32 -45 84 -53t119 29
q64 40 81 106t15 123q-2 123 -116 230zM997 582q0 -14 -9 -23.5t-23 -9.5q-15 0 -24.5 9t-9.5 24q0 14 9 23.5t23 9.5q15 0 24.5 -9t9.5 -24zM868 582q0 -14 -9 -23.5t-23 -9.5q-15 0 -24.5 9t-9.5 24q0 14 9 23.5t23 9.5q15 0 24.5 -9t9.5 -24z" />
    <glyph glyph-name="Yacute" unicode="&#xdd;" horiz-adv-x="1348" 
d="M1336 136l2 -11q-14 -9 -62 -46t-97 -69.5t-115.5 -70t-147.5 -62.5t-163 -31q-90 -135 -277 -213q-121 -51 -208 -13q-58 25 -63 75q-7 60 72 106q5 3 11 6q60 32 145.5 47t131.5 16t155 1q72 174 112 308q-34 -53 -64 -90q-40 -50 -81.5 -82.5t-77 -44t-65 -6.5
t-48.5 28t-24 61q-8 59 30 158.5t92 212.5t69 165q21 71 17 142t-37 92q-39 26 -96.5 21.5t-115.5 -26t-118 -57.5q-54 -33 -97 -70q17 -12 36 -29q173 -159 107 -373q-21 -68 -83 -109q-61 -40 -109 -37q-48 5 -85 28q-46 31 -68.5 88.5t-18 126t46.5 149t118 150.5l16 14
q-39 25 -92 48l7 11q56 -23 97 -49q56 45 128 85q89 48 174 60t153 -16q128 -56 78 -253q-15 -61 -72.5 -173.5t-101 -215t-38.5 -165.5q4 -58 54 -60q62 -3 143 79q28 30 55 67q40 57 99 179.5t70 140.5q15 24 27 36l42 -39q-6 -17 -26 -52.5t-25 -46.5q-42 -84 -89 -247
q-56 -144 -91 -208q87 9 168 33.5t154 65t126.5 77t119.5 88.5zM246 638q-17 16 -42 34q-31 -28 -56 -59q-61 -72 -91 -153t-27 -147t33 -110q32 -45 84 -53t119 29q64 40 81 106t15 123q-2 123 -116 230zM706 -154q-65 0 -106 -1.5t-99 -8t-107.5 -21.5t-91.5 -40
q-102 -58 -78 -102q19 -36 101 -40q69 -4 136 21q73 27 138 75.5t107 116.5zM1014 623q-5 -12 -93 -52t-94 -37q-9 5 -3 13q2 3 28.5 23l57.5 41.5t37 26.5q33 25 58 12q18 -9 9 -27z" />
    <glyph glyph-name="Thorn" unicode="&#xde;" horiz-adv-x="336" 
d="M421 750l-54 -136q61 -1 99 -36.5t43 -88t-8.5 -107t-54.5 -98.5t-96 -58q-81 -21 -153 -18l-75 -153q-26 -54 -57 -89.5t-51.5 -46.5t-43 -18.5t-25.5 -9.5q87 109 195 324t180.5 434.5t57.5 318.5q-4 12 7 12q18 -1 39 -36q15 -25 16.5 -73.5t-19.5 -120.5zM202 226
q151 -1 217 113t50 187t-109 69l-50 -136q-57 -146 -108 -233z" />
    <glyph glyph-name="germandbls" unicode="&#xdf;" horiz-adv-x="744" 
d="M-504 6l19 5q-57 -26 -89 -113.5t-10 -146.5q22 -60 90 -41q88 23 160 104t192 266l88.5 140.5l73 123l135.5 223.5q22 30 40 50.5t41 39.5t45 27.5t49.5 8.5t57.5 -12q29 -11 43.5 -29.5t15 -40.5t-4.5 -48q-17 -72 -95 -128q-8 -5 -27 -15t-33 -18.5t-33.5 -22
t-27.5 -25.5t-15 -30t3 -35q13 -31 17.5 -77.5t-3.5 -79.5q-22 -88 -66 -113l6 -1q132 -21 308 37t292 158q9 7 16 1q4 -3 -2 -7q-299 -233 -658 -204l-31 -4q-67 1 -72 51q-5 38 24 69q15 16 30 16q3 0 6 2t5 3.5l4 3t3.5 2.5t2.5 0.5t2 -3t2 -7t1.5 -12.5t1.5 -19
q3 -66 26 -78q45 29 65 103q5 29 4 49.5t-4.5 56t-3.5 52.5q0 37 17.5 61.5t61 56t60.5 47.5q55 51 69.5 126t-37.5 101q-20 11 -43 4t-42 -19t-37.5 -33t-31 -38.5t-22.5 -34.5l-114.5 -208.5l-116.5 -214.5t-101.5 -164.5t-105.5 -131.5q-169 -154 -268 -148q-54 3 -77 37
t-16.5 80t24.5 91t43.5 76t42.5 30zM110 18q-15 11 -25.5 46.5t-6.5 63.5q-18 -15 -22.5 -42.5t5 -49t28.5 -21.5q11 -1 21 3z" />
    <glyph glyph-name="agrave" unicode="&#xe0;" 
d="M518 149q-302 -220 -449 -231q-15 -1 -20.5 13t-3 34.5t6.5 37.5t8 27q14 39 49 94l41 61l15 18q4 4 4 7q-6 2 -8 -2q-58 -43 -147 -155q-5 -8 -17 -22q-21 -18 -44 5l-9 12q-9 16 -7 33q2 19 6 35q28 76 94 124q20 16 47 20q22 3 42 -9q16 -9 16 -25q-46 0 -86.5 -36.5
t-58.5 -83.5q-3 -7 -6 -15l-6.5 -18t-5.5 -15q-3 -8 -2 -15q-1 -2 1.5 -4t4.5 -1q6 2 10 4q3 2 6.5 7.5t4.5 6.5l14.5 22l16.5 25l15 22t18 24l18 20t22 20.5t23 15.5l12 7.5t24 10t26 1.5q31 -14 23 -27l-39 -55q-39 -56 -77 -117.5t-41 -81.5q-1 -8 3 -12t12.5 -3.5t17 2
t21.5 5.5q159 49 400 224zM37 430q11 5 89 -58q82 -66 71 -76q-2 -1 -5 -1q-4 0 -33.5 15l-63.5 33l-40 21q-14 7 -20 22.5t-4.5 28.5t6.5 15z" />
    <glyph glyph-name="aacute" unicode="&#xe1;" 
d="M518 149q-302 -220 -449 -231q-15 -1 -20.5 13t-3 34.5t6.5 37.5t8 27q14 39 49 94l41 61l15 18q4 4 4 7q-6 2 -8 -2q-58 -43 -147 -155q-5 -8 -17 -22q-21 -18 -44 5l-9 12q-9 16 -7 33q2 19 6 35q28 76 94 124q20 16 47 20q22 3 42 -9q16 -9 16 -25q-46 0 -86.5 -36.5
t-58.5 -83.5q-3 -7 -6 -15l-6.5 -18t-5.5 -15q-3 -8 -2 -15q-1 -2 1.5 -4t4.5 -1q6 2 10 4q3 2 6.5 7.5t4.5 6.5l14.5 22l16.5 25l15 22t18 24l18 20t22 20.5t23 15.5l12 7.5t24 10t26 1.5q31 -14 23 -27l-39 -55q-39 -56 -77 -117.5t-41 -81.5q-1 -8 3 -12t12.5 -3.5t17 2
t21.5 5.5q159 49 400 224zM332 379q-5 -12 -93 -52t-94 -37q-9 5 -3 13q2 3 28.5 23l57.5 41.5t37 26.5q33 25 58 12q18 -9 9 -27z" />
    <glyph glyph-name="acircumflex" unicode="&#xe2;" 
d="M518 149q-302 -220 -449 -231q-15 -1 -20.5 13t-3 34.5t6.5 37.5t8 27q14 39 49 94l41 61l15 18q4 4 4 7q-6 2 -8 -2q-58 -43 -147 -155q-5 -8 -17 -22q-21 -18 -44 5l-9 12q-9 16 -7 33q2 19 6 35q28 76 94 124q20 16 47 20q22 3 42 -9q16 -9 16 -25q-46 0 -86.5 -36.5
t-58.5 -83.5q-3 -7 -6 -15l-6.5 -18t-5.5 -15q-3 -8 -2 -15q-1 -2 1.5 -4t4.5 -1q6 2 10 4q3 2 6.5 7.5t4.5 6.5l14.5 22l16.5 25l15 22t18 24l18 20t22 20.5t23 15.5l12 7.5t24 10t26 1.5q31 -14 23 -27l-39 -55q-39 -56 -77 -117.5t-41 -81.5q-1 -8 3 -12t12.5 -3.5t17 2
t21.5 5.5q159 49 400 224zM211 299q1 -4 -4 -4q-7 -1 -10 4l-32 50l-92 -50q-8 -7 -18 -3q-3 1 0 3l104 74q26 4 27 0z" />
    <glyph glyph-name="atilde" unicode="&#xe3;" 
d="M518 149q-302 -220 -449 -231q-15 -1 -20.5 13t-3 34.5t6.5 37.5t8 27q14 39 49 94l41 61l15 18q4 4 4 7q-6 2 -8 -2q-58 -43 -147 -155q-5 -8 -17 -22q-21 -18 -44 5l-9 12q-9 16 -7 33q2 19 6 35q28 76 94 124q20 16 47 20q22 3 42 -9q16 -9 16 -25q-46 0 -86.5 -36.5
t-58.5 -83.5q-3 -7 -6 -15l-6.5 -18t-5.5 -15q-3 -8 -2 -15q-1 -2 1.5 -4t4.5 -1q6 2 10 4q3 2 6.5 7.5t4.5 6.5l14.5 22l16.5 25l15 22t18 24l18 20t22 20.5t23 15.5l12 7.5t24 10t26 1.5q31 -14 23 -27l-39 -55q-39 -56 -77 -117.5t-41 -81.5q-1 -8 3 -12t12.5 -3.5t17 2
t21.5 5.5q159 49 400 224zM253 366q-27 -56 -67 -54q-15 1 -42 13t-40 13q-24 3 -35 -22q-1 -3 -9 -2t-8 4q32 53 67 50q15 -1 42 -12t40 -12q24 -3 38 23q1 5 12 1q3 -1 2 -2z" />
    <glyph glyph-name="adieresis" unicode="&#xe4;" 
d="M518 149q-302 -220 -449 -231q-15 -1 -20.5 13t-3 34.5t6.5 37.5t8 27q14 39 49 94l41 61l15 18q4 4 4 7q-6 2 -8 -2q-58 -43 -147 -155q-5 -8 -17 -22q-21 -18 -44 5l-9 12q-9 16 -7 33q2 19 6 35q28 76 94 124q20 16 47 20q22 3 42 -9q16 -9 16 -25q-46 0 -86.5 -36.5
t-58.5 -83.5q-3 -7 -6 -15l-6.5 -18t-5.5 -15q-3 -8 -2 -15q-1 -2 1.5 -4t4.5 -1q6 2 10 4q3 2 6.5 7.5t4.5 6.5l14.5 22l16.5 25l15 22t18 24l18 20t22 20.5t23 15.5l12 7.5t24 10t26 1.5q31 -14 23 -27l-39 -55q-39 -56 -77 -117.5t-41 -81.5q-1 -8 3 -12t12.5 -3.5t17 2
t21.5 5.5q159 49 400 224zM247 334q0 -12 -7.5 -20t-19.5 -8t-20 7.5t-8 20.5q0 11 7.5 19t18.5 8q12 0 20.5 -7.5t8.5 -19.5zM139 334q0 -12 -7 -20t-19 -8t-20 7.5t-8 20.5q0 12 7 19.5t19 7.5t20 -7.5t8 -19.5z" />
    <glyph glyph-name="aring" unicode="&#xe5;" 
d="M518 149q-302 -220 -449 -231q-15 -1 -20.5 13t-3 34.5t6.5 37.5t8 27q14 39 49 94l41 61l15 18q4 4 4 7q-6 2 -8 -2q-58 -43 -147 -155q-5 -8 -17 -22q-21 -18 -44 5l-9 12q-9 16 -7 33q2 19 6 35q28 76 94 124q20 16 47 20q22 3 42 -9q16 -9 16 -25q-46 0 -86.5 -36.5
t-58.5 -83.5q-3 -7 -6 -15l-6.5 -18t-5.5 -15q-3 -8 -2 -15q-1 -2 1.5 -4t4.5 -1q6 2 10 4q3 2 6.5 7.5t4.5 6.5l14.5 22l16.5 25l15 22t18 24l18 20t22 20.5t23 15.5l12 7.5t24 10t26 1.5q31 -14 23 -27l-39 -55q-39 -56 -77 -117.5t-41 -81.5q-1 -8 3 -12t12.5 -3.5t17 2
t21.5 5.5q159 49 400 224zM153 307q-1 -13 5.5 -21t16.5 -8t17.5 9t8.5 21q2 12 -5 20.5t-17 7.5t-17.5 -9t-8.5 -20zM126 305q2 17 19 29.5t38 13.5t34.5 -11t11.5 -29t-18.5 -29.5t-37.5 -13.5q-22 -1 -35.5 11t-11.5 29z" />
    <glyph glyph-name="ae" unicode="&#xe6;" horiz-adv-x="560" 
d="M62 -28l-25 -68q-7 19 2 64.5t17 61.5q18 40 56 94q42 56 46 61l16 18q4 4 5 7q-5 2 -9 -2q-66 -47 -111 -99q-8 -9 -23.5 -28t-23.5 -28q-10 -13 -20 -22q-22 -18 -43 5q-6 8 -8 12q-8 15 -5 33q3 19 9 35q32 75 104 124q22 16 48 20q23 3 42 -9q15 -9 14 -25
q-8 0 -16 -3q-10 -4 -15 -4q-24 -4 -46 -21q-52 -38 -78 -92q-8 -16 -22 -48q-3 -8 -3 -15q-1 -2 1.5 -4t4.5 -1q6 2 10 4q5 4 13 14l23 31q39 54 71 83q11 12 25 22q8 7 19 13l12.5 7.5t25 10t26.5 1.5q29 -14 21 -27q-1 -1 -33 -42.5l-72 -96t-58 -86.5zM559 145l13 -8
q-66 -74 -232 -168.5t-268 -90.5q-32 2 -35 28q-2 20 1 35q6 34 11 48q29 94 87 153q33 33 65 46q5 2 21 7q13 3 23 -2q1 0 1 -0.5t1 -0.5q4 -3 7 -7q12 -16 8 -42q-3 -22 -17 -38v-1l-6 -6q-22 -25 -45 -27q-21 -3 -30 24q-85 -127 -88 -188q-3 -5 1 -9q1 -2 4 -2h4
q67 -11 239.5 78t234.5 171zM209 161q-16 -22 -42 -61q16 -3 33 10q9 7 18 17.5t14 18.5l5 7l4 6q4 7 6 16q1 5 -1 8t-7 2q-7 0 -14 -7q-6 -5 -16 -17z" />
    <glyph glyph-name="ccedilla" unicode="&#xe7;" horiz-adv-x="460" 
d="M481 274l1 -3q1 -3 1.5 -6.5t1.5 -4.5q-19 -22 -65.5 -62.5t-118 -93.5t-162 -94t-169.5 -49q-14 -2 -24 5.5t-11 22.5q-2 20 1 35q6 34 11 48q29 94 87 153q33 33 65 46q5 2 21 7q13 3 23 -2q1 0 1 -0.5t1 -0.5q4 -3 7 -7q12 -16 8 -42q-6 -44 -53 -66q-15 -8 -20 2
l-1 -1q27 35 49 75q2 4 4 6q4 7 6 16q1 4 -1 7.5t-7 2.5q-7 0 -14 -7q-6 -5 -16 -17q-130 -181 -133 -254q-3 -4 0 -9q2 -2 5 -2h4q17 -3 68.5 13t121.5 48.5t155 94.5t153 139zM44 -97q0 -25 -32 -47q-14 -10 -46 -10q-21 0 -49.5 7t-28.5 21q0 4 4 4q3 0 9 -6
q15 -16 53 -16q45 0 59 22q8 13 8 26q0 17 -14 26t-32 9q-14 0 -28.5 -7.5t-15.5 -7.5q-11 0 -11 9q0 4 2 6q3 3 24.5 19.5t22.5 16.5q5 0 5 -5q-1 -1 -8 -6l-13 -9.5t-6 -6.5q16 2 24 2q26 0 49.5 -11.5t23.5 -35.5z" />
    <glyph glyph-name="egrave" unicode="&#xe8;" horiz-adv-x="469" 
d="M468 234l13 -8q-66 -74 -232 -168.5t-268 -90.5q-32 2 -35 28q-2 20 1 35q6 34 11 48q29 94 87 153q33 33 65 46q5 2 21 7q13 3 23 -2h1l1 -1q4 -3 7 -7q12 -16 8 -42q-3 -22 -17 -38v-1l-6 -6q-22 -25 -45 -27q-21 -3 -30 24q-85 -127 -88 -188q-3 -5 1 -9q1 -2 4 -2h4
q67 -11 239.5 78t234.5 171zM118 250q-16 -22 -42 -61q16 -3 33 10q9 7 18 17.5t14 17.5l5 8l4 6q4 7 6 16q2 4 -0.5 7.5t-7.5 2.5q-7 0 -14 -7q-6 -5 -16 -17zM58 386q8 4 61 -41q45 -38 30 -38q-2 0 -19.5 9l-37 19l-23.5 12q-8 4 -11.5 13.5t-3 17t3.5 8.5z" />
    <glyph glyph-name="eacute" unicode="&#xe9;" horiz-adv-x="469" 
d="M468 234l13 -8q-66 -74 -232 -168.5t-268 -90.5q-32 2 -35 28q-2 20 1 35q6 34 11 48q29 94 87 153q33 33 65 46q5 2 21 7q13 3 23 -2h1l1 -1q4 -3 7 -7q12 -16 8 -42q-3 -22 -17 -38v-1l-6 -6q-22 -25 -45 -27q-21 -3 -30 24q-85 -127 -88 -188q-3 -5 1 -9q1 -2 4 -2h4
q67 -11 239.5 78t234.5 171zM118 250q-16 -22 -42 -61q16 -3 33 10q9 7 18 17.5t14 17.5l5 8l4 6q4 7 6 16q2 4 -0.5 7.5t-7.5 2.5q-7 0 -14 -7q-6 -5 -16 -17zM252 353q-3 -6 -51 -28t-52 -21q-4 3 -2 7q1 2 16 13l31.5 23l20.5 15q19 13 32 6q10 -5 5 -15z" />
    <glyph glyph-name="ecircumflex" unicode="&#xea;" horiz-adv-x="469" 
d="M468 234l13 -8q-66 -74 -232 -168.5t-268 -90.5q-32 2 -35 28q-2 20 1 35q6 34 11 48q29 94 87 153q33 33 65 46q5 2 21 7q13 3 23 -2h1l1 -1q4 -3 7 -7q12 -16 8 -42q-3 -22 -17 -38v-1l-6 -6q-22 -25 -45 -27q-21 -3 -30 24q-85 -127 -88 -188q-3 -5 1 -9q1 -2 4 -2h4
q67 -11 239.5 78t234.5 171zM118 250q-16 -22 -42 -61q16 -3 33 10q9 7 18 17.5t14 17.5l5 8l4 6q4 7 6 16q2 4 -0.5 7.5t-7.5 2.5q-7 0 -14 -7q-6 -5 -16 -17zM205 294q2 -4 -3 -4q-7 -1 -9 4l-30 45q-76 -41 -85 -45q-7 -7 -16 -3q-2 1 0 3l96 68q24 3 24 0z" />
    <glyph glyph-name="edieresis" unicode="&#xeb;" horiz-adv-x="469" 
d="M468 234l13 -8q-66 -74 -232 -168.5t-268 -90.5q-32 2 -35 28q-2 20 1 35q6 34 11 48q29 94 87 153q33 33 65 46q5 2 21 7q13 3 23 -2h1l1 -1q4 -3 7 -7q12 -16 8 -42q-3 -22 -17 -38v-1l-6 -6q-22 -25 -45 -27q-21 -3 -30 24q-85 -127 -88 -188q-3 -5 1 -9q1 -2 4 -2h4
q67 -11 239.5 78t234.5 171zM118 250q-16 -22 -42 -61q16 -3 33 10q9 7 18 17.5t14 17.5l5 8l4 6q4 7 6 16q2 4 -0.5 7.5t-7.5 2.5q-7 0 -14 -7q-6 -5 -16 -17zM205 332q0 -8 -5.5 -14t-13.5 -6q-21 0 -21 20t19 20q21 0 21 -20zM127 332q0 -8 -5.5 -14t-13.5 -6
q-21 0 -21 20t19 20q21 0 21 -20z" />
    <glyph glyph-name="igrave" unicode="&#xec;" horiz-adv-x="474" 
d="M517 227q1 0 5 -4q-7 -5 -26 -7q-63 -6 -133.5 -24.5t-164.5 -68t-155 -120.5l-21 -21q-12 -12 -29 -15q-14 -2 -24 5.5t-11 22.5q-1 13 1 35q6 34 11 48q6 20 10 30l1 1q0 1 0.5 2t0.5 2l18.5 43t28.5 60t36 59t31 23q12 0 20.5 -2.5t13 -6t7 -7t3.5 -6.5v-2
q-13 -9 -63 -96q-78 -137 -80 -182q-3 -5 1 -9q3 -4 8 -2q12 7 14 9q7 6 19 20q76 87 200.5 144.5t267.5 67.5q3 1 10 1zM146 337q-20 0 -34 15t-14 37t14 37t34 15t34 -15t14 -37t-14 -37t-34 -15zM103 544q8 4 61 -41q45 -38 30 -38q-2 0 -19.5 9l-37 19l-23.5 12
q-8 4 -11.5 13.5t-3 17t3.5 8.5z" />
    <glyph glyph-name="iacute" unicode="&#xed;" horiz-adv-x="474" 
d="M517 227q1 0 5 -4q-7 -5 -26 -7q-63 -6 -133.5 -24.5t-164.5 -68t-155 -120.5l-21 -21q-12 -12 -29 -15q-14 -2 -24 5.5t-11 22.5q-1 13 1 35q6 34 11 48q6 20 10 30l1 1q0 1 0.5 2t0.5 2l18.5 43t28.5 60t36 59t31 23q12 0 20.5 -2.5t13 -6t7 -7t3.5 -6.5v-2
q-13 -9 -63 -96q-78 -137 -80 -182q-3 -5 1 -9q3 -4 8 -2q12 7 14 9q7 6 19 20q76 87 200.5 144.5t267.5 67.5q3 1 10 1zM146 337q-20 0 -34 15t-14 37t14 37t34 15t34 -15t14 -37t-14 -37t-34 -15zM254 520q-3 -6 -51 -28t-52 -21q-4 3 -2 7q1 2 16 13l31.5 23l20.5 15
q19 13 32 6q10 -5 5 -15z" />
    <glyph glyph-name="icircumflex" unicode="&#xee;" horiz-adv-x="474" 
d="M517 227q1 0 5 -4q-7 -5 -26 -7q-63 -6 -133.5 -24.5t-164.5 -68t-155 -120.5l-21 -21q-12 -12 -29 -15q-14 -2 -24 5.5t-11 22.5q-1 13 1 35q6 34 11 48q6 20 10 30l1 1q0 1 0.5 2t0.5 2l18.5 43t28.5 60t36 59t31 23q12 0 20.5 -2.5t13 -6t7 -7t3.5 -6.5v-2
q-13 -9 -63 -96q-78 -137 -80 -182q-3 -5 1 -9q3 -4 8 -2q12 7 14 9q7 6 19 20q76 87 200.5 144.5t267.5 67.5q3 1 10 1zM146 337q-20 0 -34 15t-14 37t14 37t34 15t34 -15t14 -37t-14 -37t-34 -15zM213 446q2 -4 -3 -4q-7 -1 -9 4l-30 45q-76 -41 -85 -45q-7 -7 -16 -3
q-2 1 0 3l96 68q24 3 24 0z" />
    <glyph glyph-name="idieresis" unicode="&#xef;" horiz-adv-x="474" 
d="M517 227q1 0 5 -4q-7 -5 -26 -7q-63 -6 -133.5 -24.5t-164.5 -68t-155 -120.5l-21 -21q-12 -12 -29 -15q-14 -2 -24 5.5t-11 22.5q-1 13 1 35q6 34 11 48q6 20 10 30l1 1q0 1 0.5 2t0.5 2l18.5 43t28.5 60t36 59t31 23q12 0 20.5 -2.5t13 -6t7 -7t3.5 -6.5v-2
q-13 -9 -63 -96q-78 -137 -80 -182q-3 -5 1 -9q3 -4 8 -2q12 7 14 9q7 6 19 20q76 87 200.5 144.5t267.5 67.5q3 1 10 1zM146 337q-20 0 -34 15t-14 37t14 37t34 15t34 -15t14 -37t-14 -37t-34 -15zM215 475q0 -8 -5.5 -14t-13.5 -6q-21 0 -21 20t19 20q21 0 21 -20z
M137 475q0 -8 -5.5 -14t-13.5 -6q-21 0 -21 20t19 20q21 0 21 -20z" />
    <glyph glyph-name="eth" unicode="&#xf0;" horiz-adv-x="435" 
d="M480 460l-3 -5q-75 0 -113 -1q4 -138 -23.5 -256.5t-97.5 -181.5q-24 -22 -50 -32.5t-54.5 -5.5t-50.5 29q-37 41 -43 121t16.5 157.5t63.5 114.5q26 23 54 23.5t52 -24.5q27 -30 28.5 -84t-12 -99.5t-33.5 -86.5l-5 -3l-8 8v5q63 137 11 195q-34 37 -75 -1
q-52 -47 -70.5 -145t25.5 -154q37 -41 88 5q25 22 47 56q106 159 114 358q-20 0 -62 -2q-11 0 -34 -1.5t-34 -1.5q-6 0 -6 17q0 12 6 12h131q0 68 -7 128l1 7l10 2l4 -4q10 -67 13 -133h107q10 0 10 -17z" />
    <glyph glyph-name="ntilde" unicode="&#xf1;" horiz-adv-x="726" 
d="M774 223l6 -7l-48.5 -44.5l-113 -97.5t-152 -123t-141.5 -94t-105 -37q-60 8 -38 108q16 72 109 228q2 3 4.5 7.5l10.5 18.5t14 26l14.5 30t12 29t6.5 24t-2 16q-5 8 -20 13q-49 10 -118 -41q-33 -25 -64.5 -66t-53 -79l-40.5 -72.5t-36 -51.5t-31 -9q-8 3 -11 9
q-5 7 -4 13q-1 2 -1 6q0 1 0.5 3t0.5 3q-1 2 -1 6q-3 34 29 116.5t62 129.5q16 25 32 35.5t25 9.5l8 -2q13 -1 20 -7t8 -11l1 -5q-14 -10 -64 -95q-81 -136 -88 -183q-1 -5 0.5 -9t6.5 -3q3 1 37.5 62t85.5 132.5t92 94.5q42 23 78.5 27t50.5 -9q74 -21 14 -159
q-12 -26 -83 -161q-59 -111 -45 -136q8 -14 37 -10q50 7 173.5 98.5t222.5 179.5zM408 412q-25 -52 -62 -50q-13 1 -38 12t-38 12q-22 1 -33 -20q0 -2 -4 -2.5t-7 1t-3 2.5q26 49 61 47q14 -1 39.5 -11.5t37.5 -11.5q22 -1 35 22q0 3 10 1z" />
    <glyph glyph-name="ograve" unicode="&#xf2;" horiz-adv-x="650" 
d="M658 205q-53 -50 -150.5 -92.5t-187 -52.5t-137.5 34l-4 5q-40 -75 -99 -94q-33 -10 -57.5 0t-35.5 33t-18 50t-5 50l3 34v1q6 50 36 89.5t74 59.5q48 21 93 13t55 -37q6 -8 6 -32q-1 -21 -13 -67.5t-34 -90.5q5 -8 33 -25q28 -16 98 -12q72 5 188 55q92 39 144 88z
M74 15q19 0 45 27.5t50 70.5q-17 29 -18 63t13 51q8 11 19 14t19.5 -3t9.5 -19q7 31 4 48q-4 17 -12 21q-68 18 -119 -36.5t-65 -138.5q-4 -31 -3 -48q4 -18 10 -28l1 -1v-1q15 -20 46 -20zM176 125q10 19 21 48l7 29q3 30 -20 27l-8 -2q-13 -4 -13.5 -37t13.5 -65zM61 459
q10 4 74 -48q64 -53 45 -54q-3 0 -25.5 11t-48.5 25t-31 16q-11 5 -15.5 17t-3.5 21.5t5 11.5z" />
    <glyph glyph-name="oacute" unicode="&#xf3;" horiz-adv-x="650" 
d="M658 205q-53 -50 -150.5 -92.5t-187 -52.5t-137.5 34l-4 5q-40 -75 -99 -94q-33 -10 -57.5 0t-35.5 33t-18 50t-5 50l3 34v1q6 50 36 89.5t74 59.5q48 21 93 13t55 -37q6 -8 6 -32q-1 -21 -13 -67.5t-34 -90.5q5 -8 33 -25q28 -16 98 -12q72 5 188 55q92 39 144 88z
M74 15q19 0 45 27.5t50 70.5q-17 29 -18 63t13 51q8 11 19 14t19.5 -3t9.5 -19q7 31 4 48q-4 17 -12 21q-68 18 -119 -36.5t-65 -138.5q-4 -31 -3 -48q4 -18 10 -28l1 -1v-1q15 -20 46 -20zM176 125q10 19 21 48l7 29q3 30 -20 27l-8 -2q-13 -4 -13.5 -37t13.5 -65zM320 440
q-4 -9 -74 -41.5t-76 -30.5q-8 4 -2 10q1 3 23 19l46.5 33.5t29.5 21.5q27 20 46 9q14 -7 7 -21z" />
    <glyph glyph-name="ocircumflex" unicode="&#xf4;" horiz-adv-x="650" 
d="M658 205q-53 -50 -150.5 -92.5t-187 -52.5t-137.5 34l-4 5q-40 -75 -99 -94q-33 -10 -57.5 0t-35.5 33t-18 50t-5 50l3 34v1q6 50 36 89.5t74 59.5q48 21 93 13t55 -37q6 -8 6 -32q-1 -21 -13 -67.5t-34 -90.5q5 -8 33 -25q28 -16 98 -12q72 5 188 55q92 39 144 88z
M74 15q19 0 45 27.5t50 70.5q-17 29 -18 63t13 51q8 11 19 14t19.5 -3t9.5 -19q7 31 4 48q-4 17 -12 21q-68 18 -119 -36.5t-65 -138.5q-4 -31 -3 -48q4 -18 10 -28l1 -1v-1q15 -20 46 -20zM176 125q10 19 21 48l7 29q3 30 -20 27l-8 -2q-13 -4 -13.5 -37t13.5 -65zM243 359
q2 -5 -4 -5q-10 -1 -13 5l-40 60l-112 -60q-9 -9 -20 -4q-4 2 -1 4l127 90q31 4 32 0z" />
    <glyph glyph-name="otilde" unicode="&#xf5;" horiz-adv-x="650" 
d="M658 205q-53 -50 -150.5 -92.5t-187 -52.5t-137.5 34l-4 5q-40 -75 -99 -94q-33 -10 -57.5 0t-35.5 33t-18 50t-5 50l3 34v1q6 50 36 89.5t74 59.5q48 21 93 13t55 -37q6 -8 6 -32q-1 -21 -13 -67.5t-34 -90.5q5 -8 33 -25q28 -16 98 -12q72 5 188 55q92 39 144 88z
M74 15q19 0 45 27.5t50 70.5q-17 29 -18 63t13 51q8 11 19 14t19.5 -3t9.5 -19q7 31 4 48q-4 17 -12 21q-68 18 -119 -36.5t-65 -138.5q-4 -31 -3 -48q4 -18 10 -28l1 -1v-1q15 -20 46 -20zM176 125q10 19 21 48l7 29q3 30 -20 27l-8 -2q-13 -4 -13.5 -37t13.5 -65zM268 411
q-25 -55 -63 -51q-14 1 -39.5 12t-38.5 12q-22 3 -33 -21q-2 -2 -9 -1t-7 3q30 49 64 47q14 -1 40 -11.5t37 -11.5q24 -1 36 22q3 2 13 0z" />
    <glyph glyph-name="odieresis" unicode="&#xf6;" horiz-adv-x="650" 
d="M658 205q-53 -50 -150.5 -92.5t-187 -52.5t-137.5 34l-4 5q-40 -75 -99 -94q-33 -10 -57.5 0t-35.5 33t-18 50t-5 50l3 34v1q6 50 36 89.5t74 59.5q48 21 93 13t55 -37q6 -8 6 -32q-1 -21 -13 -67.5t-34 -90.5q5 -8 33 -25q28 -16 98 -12q72 5 188 55q92 39 144 88z
M74 15q19 0 45 27.5t50 70.5q-17 29 -18 63t13 51q8 11 19 14t19.5 -3t9.5 -19q7 31 4 48q-4 17 -12 21q-68 18 -119 -36.5t-65 -138.5q-4 -31 -3 -48q4 -18 10 -28l1 -1v-1q15 -20 46 -20zM176 125q10 19 21 48l7 29q3 30 -20 27l-8 -2q-13 -4 -13.5 -37t13.5 -65zM250 398
q0 -14 -9 -23.5t-23 -9.5q-15 0 -24.5 9t-9.5 24q0 14 9 23.5t23 9.5q15 0 24.5 -9t9.5 -24zM121 398q0 -14 -9 -23.5t-23 -9.5q-15 0 -24.5 9t-9.5 24q0 14 9 23.5t23 9.5q15 0 24.5 -9t9.5 -24z" />
    <glyph glyph-name="divide" unicode="&#xf7;" horiz-adv-x="401" 
d="M295 251q-3 -17 -17 -29t-31 -12t-27 12t-7 29q2 17 16.5 29t31.5 12t27 -12t7 -29zM252 27q-2 -17 -16.5 -29t-31.5 -12t-27 12t-7 29t17 29t31 12t27 -12t7 -29zM411 149l-2 -1h-344l-1 1v18l1 1h344l2 -1v-18z" />
    <glyph glyph-name="oslash" unicode="&#xf8;" horiz-adv-x="624" 
d="M658 205q-53 -50 -150.5 -92.5t-187 -52.5t-137.5 34l-4 5q-40 -75 -99 -94q-33 -10 -57.5 0t-35.5 33t-18 50t-5 50l3 34v1q6 50 36 89.5t74 59.5q48 21 93 13t55 -37q6 -8 6 -32q-1 -21 -13 -67.5t-34 -90.5q5 -8 33 -25q28 -16 98 -12q72 5 188 55q92 39 144 88z
M74 15q19 0 45 27.5t50 70.5q-17 29 -18 63t13 51q8 11 19 14t19.5 -3t9.5 -19q7 31 4 48q-4 17 -12 21q-68 18 -119 -36.5t-65 -138.5q-4 -31 -3 -48q4 -18 10 -28l1 -1v-1q15 -20 46 -20zM176 125q10 19 21 48l7 29q3 30 -20 27l-8 -2q-13 -4 -13.5 -37t13.5 -65zM304 449
q10 13 26 7q12 -4 3 -14l-124.5 -153l-173 -210t-108.5 -110q-13 -8 -15 -2q-2 4 6 11q12 10 30 30l44.5 51.5l50.5 60.5l61.5 76.5l63 79.5l69.5 88z" />
    <glyph glyph-name="ugrave" unicode="&#xf9;" horiz-adv-x="738" 
d="M780 231q2 1 0 -3q-2 -5 -1 -5q-1 -1 -88 -16l-181 -32.5t-108 -24.5q-19 -7 -31 -24q-4 -9 -11 -17q-31 -45 -58 -73q-8 -11 -20 -21q-14 -12 -30 -15q-14 -2 -24.5 5.5t-11.5 22.5q-3 17 0 35q3 24 9 48l10 29l1 1v3l1 1q48 111 72 147q-25 -23 -64 -74
q-15 -20 -71.5 -127t-82.5 -144q-13 -18 -29 -26q-27 -7 -46 7q-32 22 -38 75t11 100v4h1q0 2 1 4v2l1 1v1q1 1 1 2q3 10 8 23v1l2 4q11 30 26.5 64.5t42.5 77.5t45 43q19 0 30.5 -6t13.5 -12l2 -6q-16 -12 -63 -96q-34 -59 -47 -88l-5 -11q-4 -11 -9.5 -27.5t-11.5 -37.5
t-8.5 -41t-2 -37t9 -27.5t24.5 -10.5q9 0 18 6.5t16.5 18t13 21t12 23l8.5 17.5q16 28 41.5 77.5l41 77.5t38 60.5t44.5 51.5q21 18 35.5 29t18.5 13l4 2q6 3 10 3q12 0 21.5 -2.5t14 -6t7.5 -7t4 -6.5v-2q-13 -9 -64 -95q-77 -135 -79 -183q-2 -5 1 -8q4 -4 9 -2q8 3 14 9
q14 12 19 19l43 56q14 18 26 35q16 19 35 27q23 9 159 32.5t219 34.5zM127 447q9 3 74 -50q67 -55 45 -55q-3 0 -25.5 11.5l-49 26t-30.5 16.5q-11 5 -16 17t-3.5 22t5.5 12z" />
    <glyph glyph-name="uacute" unicode="&#xfa;" horiz-adv-x="738" 
d="M780 231q2 1 0 -3q-2 -5 -1 -5q-1 -1 -88 -16l-181 -32.5t-108 -24.5q-19 -7 -31 -24q-4 -9 -11 -17q-31 -45 -58 -73q-8 -11 -20 -21q-14 -12 -30 -15q-14 -2 -24.5 5.5t-11.5 22.5q-3 17 0 35q3 24 9 48l10 29l1 1v3l1 1q48 111 72 147q-25 -23 -64 -74
q-15 -20 -71.5 -127t-82.5 -144q-13 -18 -29 -26q-27 -7 -46 7q-32 22 -38 75t11 100v4h1q0 2 1 4v2l1 1v1q1 1 1 2q3 10 8 23v1l2 4q11 30 26.5 64.5t42.5 77.5t45 43q19 0 30.5 -6t13.5 -12l2 -6q-16 -12 -63 -96q-34 -59 -47 -88l-5 -11q-4 -11 -9.5 -27.5t-11.5 -37.5
t-8.5 -41t-2 -37t9 -27.5t24.5 -10.5q9 0 18 6.5t16.5 18t13 21t12 23l8.5 17.5q16 28 41.5 77.5l41 77.5t38 60.5t44.5 51.5q21 18 35.5 29t18.5 13l4 2q6 3 10 3q12 0 21.5 -2.5t14 -6t7.5 -7t4 -6.5v-2q-13 -9 -64 -95q-77 -135 -79 -183q-2 -5 1 -8q4 -4 9 -2q8 3 14 9
q14 12 19 19l43 56q14 18 26 35q16 19 35 27q23 9 159 32.5t219 34.5zM395 424q-5 -10 -82.5 -46t-82.5 -33q-7 5 -3 11q2 3 26 20.5l51 36.5t32 24q30 21 51 10q7 -3 9.5 -10t-1.5 -13z" />
    <glyph glyph-name="ucircumflex" unicode="&#xfb;" horiz-adv-x="738" 
d="M780 231q2 1 0 -3q-2 -5 -1 -5q-1 -1 -88 -16l-181 -32.5t-108 -24.5q-19 -7 -31 -24q-4 -9 -11 -17q-31 -45 -58 -73q-8 -11 -20 -21q-14 -12 -30 -15q-14 -2 -24.5 5.5t-11.5 22.5q-3 17 0 35q3 24 9 48l10 29l1 1v3l1 1q48 111 72 147q-25 -23 -64 -74
q-15 -20 -71.5 -127t-82.5 -144q-13 -18 -29 -26q-27 -7 -46 7q-32 22 -38 75t11 100v4h1q0 2 1 4v2l1 1v1q1 1 1 2q3 10 8 23v1l2 4q11 30 26.5 64.5t42.5 77.5t45 43q19 0 30.5 -6t13.5 -12l2 -6q-16 -12 -63 -96q-34 -59 -47 -88l-5 -11q-4 -11 -9.5 -27.5t-11.5 -37.5
t-8.5 -41t-2 -37t9 -27.5t24.5 -10.5q9 0 18 6.5t16.5 18t13 21t12 23l8.5 17.5q16 28 41.5 77.5l41 77.5t38 60.5t44.5 51.5q21 18 35.5 29t18.5 13l4 2q6 3 10 3q12 0 21.5 -2.5t14 -6t7.5 -7t4 -6.5v-2q-13 -9 -64 -95q-77 -135 -79 -183q-2 -5 1 -8q4 -4 9 -2q8 3 14 9
q14 12 19 19l43 56q14 18 26 35q16 19 35 27q23 9 159 32.5t219 34.5zM369 360q2 -4 -4 -5q-9 0 -12 5l-37 58l-107 -58q-9 -8 -20 -3q-3 1 0 3l120 86q30 4 31 0z" />
    <glyph glyph-name="udieresis" unicode="&#xfc;" horiz-adv-x="738" 
d="M780 231q2 1 0 -3q-2 -5 -1 -5q-1 -1 -88 -16l-181 -32.5t-108 -24.5q-19 -7 -31 -24q-4 -9 -11 -17q-31 -45 -58 -73q-8 -11 -20 -21q-14 -12 -30 -15q-14 -2 -24.5 5.5t-11.5 22.5q-3 17 0 35q3 24 9 48l10 29l1 1v3l1 1q48 111 72 147q-25 -23 -64 -74
q-15 -20 -71.5 -127t-82.5 -144q-13 -18 -29 -26q-27 -7 -46 7q-32 22 -38 75t11 100v4h1q0 2 1 4v2l1 1v1q1 1 1 2q3 10 8 23v1l2 4q11 30 26.5 64.5t42.5 77.5t45 43q19 0 30.5 -6t13.5 -12l2 -6q-16 -12 -63 -96q-34 -59 -47 -88l-5 -11q-4 -11 -9.5 -27.5t-11.5 -37.5
t-8.5 -41t-2 -37t9 -27.5t24.5 -10.5q9 0 18 6.5t16.5 18t13 21t12 23l8.5 17.5q16 28 41.5 77.5l41 77.5t38 60.5t44.5 51.5q21 18 35.5 29t18.5 13l4 2q6 3 10 3q12 0 21.5 -2.5t14 -6t7.5 -7t4 -6.5v-2q-13 -9 -64 -95q-77 -135 -79 -183q-2 -5 1 -8q4 -4 9 -2q8 3 14 9
q14 12 19 19l43 56q14 18 26 35q16 19 35 27q23 9 159 32.5t219 34.5zM371 399q0 -14 -9 -23.5t-23 -9.5q-15 0 -24.5 9t-9.5 24q0 14 9 23.5t23 9.5q15 0 24.5 -9t9.5 -24zM242 399q0 -14 -9 -23.5t-23 -9.5q-15 0 -24.5 9t-9.5 24q0 14 9 23.5t23 9.5q15 0 24.5 -9
t9.5 -24z" />
    <glyph glyph-name="yacute" unicode="&#xfd;" horiz-adv-x="689" 
d="M736 220l2 -13l-33 -37.5t-84.5 -81t-125.5 -97.5q-92 -60 -181.5 -99t-108.5 -50q-64 -142 -116 -203q-61 -70 -129 -78q-3 1 -17 -1t-38 6.5t-37 26.5q-22 30 -5 71t65 66l161 81q17 6 37 17l4 3q71 122 141 287l22 68q2 10 10 37.5t9 36.5t-1.5 15.5t-19 -10.5
t-45.5 -56q-15 -20 -71.5 -127t-82.5 -144q-13 -18 -29 -26q-27 -7 -46 7q-32 22 -38 75t11 100v4h1q0 2 1 4v2l1 1q0 2 1 3q3 10 8 23v1l2 4q11 30 26.5 64.5t42.5 77.5t45 43q19 0 30.5 -6t13.5 -12l2 -6q-16 -12 -63 -96q-34 -59 -47 -88l-4 -11q-5 -11 -10.5 -27.5
t-11.5 -37.5t-8.5 -41t-2 -37t9 -27.5t24.5 -10.5q9 0 18 6.5t16.5 18t13 21t12 23l8.5 17.5q16 28 42.5 80.5l43.5 84.5t41.5 66t48.5 50q59 41 53 -34q-6 -97 -95 -309q-23 -53 -36 -77q154 50 290 146.5t229 205.5zM-11 -362q58 58 126 164l-98 -48q-74 -36 -110 -72
q-18 -18 -24 -39t-3 -33.5t9 -16.5q5 -5 9 -6q18 -7 49 15.5t42 35.5zM362 414q-4 -9 -72.5 -40.5t-73.5 -29.5q-7 5 -2 11q1 3 22 18l45.5 32.5l28.5 20.5q26 19 45 9q14 -7 7 -21z" />
    <glyph glyph-name="thorn" unicode="&#xfe;" horiz-adv-x="703" 
d="M785 251l-1 -10q-152 -5 -264 -13q-60 -3 -141 -33q-4 -1 -20 -8q-2 -6 -2 -9q-18 -64 -60 -106q-22 -27 -54 -37q-24 -11 -47 -13q-32 0 -38 17q-2 1 -2 7q2 9 7 18q12 20 44 48q34 30 84 56q13 62 4 116t-37 63q-19 5 -42 -18t-34 -42.5t-16 -30.5q-38 -82 -111 -299
q-39 -114 -48 -137q-1 -4 -2 -10.5t-7 -23.5t-13.5 -29t-22.5 -20t-33 -5q-24 3 -37 17q-31 27 -7 114q43 147 206 463l8 16l9 16l65 112l71 107q55 78 135 158q40 38 61 56q4 4 23 16q9 5 14 -2q3 -6 0 -16q-2 -4 -7 -16l-8 -19q-30 -62 -76 -130q-92 -131 -187 -235
q-12 -13 -21 -30q-36 -69 -58 -116l-150 -372q-9 -24 -20 -58q-1 -2 -1.5 -5t-1.5 -11t0 -14.5t5 -11t11 -4.5q4 1 10 6q11 8 72 188l43 126t41 111t46 102.5t38 50.5q33 22 65 19q28 2 51 -24q51 -49 33 -145q76 30 158 36q138 10 265 14zM223 439q-3 -7 -1 -10l13 14
l104 132q25 33 63 90q27 39 56 98q8 18 10 31q-12 -8 -28 -26q-25 -28 -83 -109q-41 -58 -134 -220zM281 131l10 24q-59 -24 -99 -71q-32 -36 -10 -43q63 -19 99 90z" />
    <glyph glyph-name="ydieresis" unicode="&#xff;" horiz-adv-x="689" 
d="M736 220l2 -13l-33 -37.5t-84.5 -81t-125.5 -97.5q-92 -60 -181.5 -99t-108.5 -50q-64 -142 -116 -203q-61 -70 -129 -78q-3 1 -17 -1t-38 6.5t-37 26.5q-22 30 -5 71t65 66l161 81q17 6 37 17l4 3q71 122 141 287l22 68q2 10 10 37.5t9 36.5t-1.5 15.5t-19 -10.5
t-45.5 -56q-15 -20 -71.5 -127t-82.5 -144q-13 -18 -29 -26q-27 -7 -46 7q-32 22 -38 75t11 100v4h1q0 2 1 4v2l1 1q0 2 1 3q3 10 8 23v1l2 4q11 30 26.5 64.5t42.5 77.5t45 43q19 0 30.5 -6t13.5 -12l2 -6q-16 -12 -63 -96q-34 -59 -47 -88l-4 -11q-5 -11 -10.5 -27.5
t-11.5 -37.5t-8.5 -41t-2 -37t9 -27.5t24.5 -10.5q9 0 18 6.5t16.5 18t13 21t12 23l8.5 17.5q16 28 42.5 80.5l43.5 84.5t41.5 66t48.5 50q59 41 53 -34q-6 -97 -95 -309q-23 -53 -36 -77q154 50 290 146.5t229 205.5zM-11 -362q58 58 126 164l-98 -48q-74 -36 -110 -72
q-18 -18 -24 -39t-3 -33.5t9 -16.5q5 -5 9 -6q18 -7 49 15.5t42 35.5zM352 393q0 -14 -9 -23.5t-23 -9.5q-15 0 -24.5 9t-9.5 24q0 14 9 23.5t23 9.5q15 0 24.5 -9t9.5 -24zM223 393q0 -14 -9 -23.5t-23 -9.5q-15 0 -24.5 9t-9.5 24q0 14 9 23.5t23 9.5q15 0 24.5 -9
t9.5 -24z" />
    <glyph glyph-name="dotlessi" unicode="&#x131;" horiz-adv-x="174" 
d="M236 183l-20 -42t-24.5 -45t-33 -49.5t-36.5 -31.5t-43 -15q-35 0 -52 22.5t-16.5 52t14.5 55.5l87 166q19 37 25 42.5t29 5.5h51q-2 -2 -10 -7.5t-15 -12.5t-12 -16q-77 -125 -104 -194q-10 -22 -12 -29q-18 -60 21 -63q22 -3 44 19q40 39 94 151q8 15 14 9q6 -5 -1 -18
z" />
    <glyph glyph-name="OE" unicode="&#x152;" horiz-adv-x="1635" 
d="M711 267l2 -18h3q-32 -72 -83.5 -135t-117 -108t-138 -61t-146.5 7q-57 18 -92.5 76t-39.5 136t29 167q-58 57 -63.5 136t39.5 151q50 84 171 129q112 41 218 17q95 -21 149 -66q54 -42 83 -105q38 -83 34 -161l-4 -35q-4 -63 -32 -130h-12zM530 638v-17l-9 3
q-51 17 -104.5 -7t-96 -75t-74 -105t-50.5 -105q39 -28 93.5 -53t121 -43.5t138 -14.5t129.5 35q48 242 -35 384q-68 115 -250 115q-83 0 -174 -46q-91 -45 -121 -138q-28 -93 48 -199q22 47 60 96.5t88 94.5t113 67t122 8h1zM675 243q-78 -42 -175 -45.5t-179.5 23
t-142.5 71.5q-25 -65 -30.5 -127.5t15 -115.5t66.5 -76q74 -34 147.5 -16.5t136 67t105.5 109t57 110.5zM1757 176l4 -7q-428 -218 -797 -224q-83 -1 -147 18t-98 52.5t-49.5 75.5t-4 88.5t39.5 88.5t81 78.5t121 56.5q53 15 101 17q-49 18 -86 51.5t-34 73.5q2 25 12 48
q-144 35 -254 89t-151 106l-2 8q183 -139 412 -193q47 96 191.5 154t258.5 45q56 -6 93.5 -26.5t51 -47t9.5 -56t-25 -55t-60.5 -43.5t-89.5 -21q-179 -11 -368 26q-2 -6 -2 -9q-6 -35 5.5 -60t36.5 -38t50 -20.5t55 -14.5t43 -14l-15 -31q-7 0 -46 5t-79 2t-97 -20
q-43 -13 -80.5 -42.5t-60.5 -67t-35 -79.5t-3 -82t33 -72t75 -51t122 -18q396 6 789 209zM1348 792q-115 1 -232.5 -58t-146.5 -144q166 -30 362 -19q39 5 73 28t50 53.5t16 60.5t-31.5 52.5t-90.5 26.5z" />
    <glyph glyph-name="oe" unicode="&#x153;" horiz-adv-x="608" 
d="M204 87l-9 -4l-12 11l-4 5q-40 -75 -99 -94q-33 -10 -57.5 0t-35.5 33t-18 50t-5 50l3 34v1q6 50 36 89.5t74 59.5q48 21 93 13t55 -37q6 -8 6 -32q-1 -21 -13 -67.5t-34 -90.5q12 -16 20 -21zM74 15q19 0 45 27.5t50 70.5q-17 29 -18 63t13 51q8 11 19 14t19.5 -3
t9.5 -19q7 31 4 48q-4 17 -12 21q-68 18 -119 -36.5t-65 -138.5q-4 -31 -3 -48q4 -18 10 -28l1 -1v-1q15 -20 46 -20zM176 125q10 19 21 48l7 29q3 30 -20 27l-8 -2q-13 -4 -13.5 -37t13.5 -65zM654 205l13 -8q-66 -74 -232 -168.5t-268 -90.5q-32 2 -35 28q-2 20 1 35
q6 34 11 48q29 94 87 153q33 33 65 46q5 2 21 7q13 3 23 -2l1 -1h1q4 -3 7 -7q12 -16 8 -42q-3 -22 -17 -38v-1l-6 -6q-22 -25 -45 -27q-21 -3 -30 24q-85 -127 -88 -188q-3 -5 1 -9q1 -2 4 -2h4q67 -11 239.5 78t234.5 171zM304 221q-16 -22 -42 -61q16 -3 33 10
q9 7 18 17.5t14 18.5l5 7l4 6q4 7 6 16q2 5 -0.5 8t-7.5 2q-7 0 -14 -7q-6 -5 -16 -17z" />
    <glyph glyph-name="scaron" unicode="&#x161;" horiz-adv-x="514" 
d="M577 241q2 -2 1 -8t0 -8q-87 -39 -284 -136t-223 -114q0 -137 -31 -191q-28 -48 -98 -71.5t-92 2.5q-6 10 -7.5 24.5t8.5 38.5t26.5 49t46.5 55t68 58q2 48 1.5 90t-1.5 70l-2 28q-6 56 9.5 108.5t53.5 80t88 5.5q30 -13 41.5 -40.5t6.5 -58t-14 -59.5t-19 -48l-10 -18
q-22 -11 -32 11q18 18 31 39q11 15 22.5 52.5t8.5 53.5q0 3 -2 11q-10 34 -40 47.5t-55 5.5q-20 -6 -23 -83t7 -133q8 -54 8 -112l5 3q52 28 113 56q57 26 194.5 96.5t193.5 95.5zM-31 -214q17 32 22 128q-64 -55 -102.5 -106.5t-36.5 -72.5q3 -27 37 -20q42 9 72 57z
M48 468q-3 6 6 6q10 0 14 -6l46 -71l132 71q10 9 24 5q5 -2 1 -5l-149 -106q-37 -5 -38 0z" />
    <glyph glyph-name="Zcaron" unicode="&#x17d;" horiz-adv-x="1061" 
d="M555 598l15 -12q-14 -28 -52 -54.5t-91 -35t-102 37.5q-19 17 -29 43.5t-5.5 57t23 57.5t64.5 47.5t112 25.5q35 3 73.5 -0.5t83 -14.5t73 -19t80 -24.5l67.5 -21.5q65 51 111 67q40 14 69 2t29 -38t-30 -55q-37 -31 -162 0q-32 -29 -76.5 -84.5l-99 -128l-78.5 -102.5
q-18 -23 -37.5 -45t-40.5 -43.5l-37 -38t-39 -37.5l-35.5 -32.5t-36 -31l-31 -26t-31 -25.5t-25.5 -21q9 -8 24.5 -20.5t63 -43.5t93 -53.5t106.5 -38t112 -9.5q67 8 91 61q24 50 -12 94q-37 47 -121 52q-3 2 -0.5 3t-0.5 5q69 10 123 -45q51 -52 42 -114q-10 -75 -109 -108
q-12 -4 -26 -7q-83 -20 -202 55q-55 35 -209 155q-129 -92 -200 -69q-32 10 -54 33t-26.5 48.5t4 48t38.5 35.5t75 8q31 -3 61 -15t44 -20.5l63 -39.5l338 399q101 119 213 210q-67 19 -155 33t-186.5 17.5t-155.5 -19.5q-39 -14 -48.5 -55t13 -80t66.5 -50q96 -22 173 82z
M278 42q-22 23 -68 47.5t-69 28.5q-89 19 -112 -20q-18 -30 15 -64q37 -39 106 -42q32 -1 68 14.5t60 35.5zM1028 669q23 14 25.5 46.5t-23.5 33.5q-45 0 -131 -73q96 -27 129 -7zM730 874q-3 6 6 6q10 0 14 -6l46 -71l132 71q10 9 24 5q5 -2 1 -5l-149 -106q-37 -5 -38 0z
" />
    <glyph glyph-name="zcaron" unicode="&#x17e;" horiz-adv-x="636" 
d="M427 -36q81 62 140 122.5t75.5 85t21.5 35.5l10 -6l-25.5 -38t-71.5 -84t-113 -105q-52 -40 -107.5 -70.5t-89.5 -43.5t-74 -25.5t-47 -15.5q-68 -147 -116 -203q-60 -70 -130 -78q-3 1 -17 -1t-37.5 6.5t-36.5 26.5q-23 30 -5.5 71t65.5 66q55 29 161 80q21 9 36 18l4 2
q12 20 17 30q4 6 9 18t14 36t8 41.5t-9 34.5q-25 33 -84 6l-11 -5q-14 -3 -28 12.5t-21 31.5l-7 17l7.5 2.5t19.5 9.5t29.5 18t35 29t38.5 42q30 39 32.5 74.5t-15 52.5t-42.5 9q-29 -9 -65 -67q-23 -35 -27 -33q-3 2 10 32q33 69 78 89q26 11 52 -9.5t36 -77.5
q7 -42 -24.5 -101.5t-71.5 -102.5q78 17 107 -2q36 -23 19 -97q-4 -26 -19 -60q8 3 46.5 16t67.5 24.5t73.5 35t81.5 51.5zM-70 -386q60 62 126 165l-99 -49q-71 -33 -109 -71q-19 -18 -25 -39t-3 -33.5t9 -16.5q3 -4 9 -6q13 -5 36 8t35.5 23.5t20.5 18.5zM665 208h-2l1 -1
zM36 427q-3 6 6 6q10 0 14 -6l46 -71l132 71q10 9 24 5q5 -2 1 -5l-149 -106q-37 -5 -38 0z" />
    <glyph glyph-name="florin" unicode="&#x192;" horiz-adv-x="500" 
d="M-258 -260q-12 -46 5 -67q18 -21 39 -21q58 0 111 106q66 131 153.5 359t93.5 241q-6 -1 -16 -2t-28 4.5t-22 19.5h75l35 84q37 84 68 132q57 89 141 89q44 0 65 -35q8 -14 9 -39q1 -22 -17.5 -67t-59.5 -75q16 14 24 61t5.5 89.5t-14.5 45.5q-48 11 -115 -111
q-24 -42 -83 -174h137q-32 -29 -146 -22q-233 -590 -267 -642q-57 -89 -141 -89q-44 0 -65 35q-11 17 -9 41.5t22 36.5z" />
    <glyph glyph-name="circumflex" unicode="&#x2c6;" horiz-adv-x="485" 
d="M385 389q3 -6 -6 -6q-10 0 -14 6l-46 71l-132 -71q-10 -9 -24 -5q-5 2 -1 5l149 106q37 5 38 0z" />
    <glyph glyph-name="caron" unicode="&#x2c7;" horiz-adv-x="367" 
d="M85 614q-3 6 6 6q10 0 14 -6l46 -71l132 71q10 9 24 5q5 -2 1 -5l-149 -106q-37 -5 -38 0z" />
    <glyph glyph-name="breve" unicode="&#x2d8;" horiz-adv-x="327" 
d="M264 527q10 13 20 6q3 -2 2 -7q-18 -40 -54.5 -63t-84.5 -23q-30 0 -57.5 14t-31.5 39q-8 45 15 45q4 0 7 -6.5l7.5 -16.5t10.5 -16q26 -25 69 -25q27 0 45.5 8t27.5 16.5t24 28.5z" />
    <glyph glyph-name="dotaccent" unicode="&#x2d9;" horiz-adv-x="272" 
d="M181 547q0 -19 -15 -34.5t-34 -15.5q-22 0 -22 20q0 17 15.5 36.5t31.5 19.5q11 0 17.5 -8t6.5 -18z" />
    <glyph glyph-name="ring" unicode="&#x2da;" horiz-adv-x="312" 
d="M139 525q-1 -16 7 -26.5t21 -10.5t22.5 11.5t11.5 27.5q1 16 -7 26.5t-21 9.5t-23 -11.5t-11 -26.5zM104 523q2 22 23.5 38t49.5 18q27 1 44.5 -14.5t15.5 -37.5q-3 -23 -24 -39t-49 -17t-45.5 14.5t-14.5 37.5z" />
    <glyph glyph-name="ogonek" unicode="&#x2db;" horiz-adv-x="333" 
d="M220 -7q-44 -35 -81 -83t-38 -80q0 -33 29 -33q21 0 51 30q2 1 4.5 2t4.5 -0.5t1 -5.5q-4 -18 -32 -37t-63 -19q-20 0 -33 11.5t-12 33.5q1 43 61 108t102 83q6 0 6 -2q1 -3 0 -8z" />
    <glyph glyph-name="tilde" unicode="&#x2dc;" horiz-adv-x="485" 
d="M432 485q-34 -71 -83 -67q-18 1 -51.5 16t-50.5 16q-29 3 -44 -27q-2 -6 -16 -1q-3 2 -4 3q37 66 83 62q19 -1 52.5 -15t49.5 -15q30 -3 47 29q1 5 15 1z" />
    <glyph glyph-name="hungarumlaut" unicode="&#x2dd;" horiz-adv-x="267" 
d="M144 560q3 -9 -27 -76t-35 -70q-8 -2 -10 6q-1 3 3.5 27.5t10.5 52t6 33.5q6 31 29 37q16 4 23 -10zM261 560q3 -9 -27 -76t-35 -70q-8 -2 -10 6q-1 3 3.5 27.5t10.5 52.5t7 33q4 31 28 37q16 3 23 -10z" />
    <glyph glyph-name="n.calt" unicode="&#xe05;" horiz-adv-x="726" 
d="M279 -142q43 7 137 73q90 62 159 156q77 104 45 139q-10 12 -31 14q-16 -1 -31 -7.5t-22.5 -12t-19.5 -17t-16 -14.5l-16 9q56 56 115 54l21 -10q60 -40 -8 -138q-54 -78 -188 -184q-5 -3 -41.5 -28t-57.5 -37.5t-52.5 -25t-52.5 -9.5q-60 8 -38 108q16 72 109 228
q2 3 4.5 7.5l10.5 18.5t14 26l14.5 30t12 29t6.5 24t-2 16q-5 8 -20 13q-49 10 -118 -41q-33 -25 -64.5 -66t-53 -79l-40.5 -72.5t-36 -51.5t-31 -9q-8 3 -11 9q-5 7 -4 13q-1 2 -1 6q0 1 0.5 3t0.5 3q-1 2 -1 6q-3 34 29 116.5t62 129.5q16 25 32 35.5t25 9.5l8 -2
q13 -1 20 -7t8 -11l1 -5q-14 -10 -64 -95q-81 -136 -88 -183q-1 -5 0.5 -9t6.5 -3q3 1 37.5 62t85.5 132.5t92 94.5q42 23 78.5 27t50.5 -9q74 -21 14 -159q-12 -26 -83 -161q-59 -111 -45 -136q8 -14 37 -10z" />
    <glyph glyph-name="endash" unicode="&#x2013;" horiz-adv-x="534" 
d="M512 211q-68 0 -185 -6t-163 -11q-7 -1 -13 11t-3 24.5t16 12.5q189 0 344 -4q17 -1 21 -13q-2 -12 -17 -14z" />
    <glyph glyph-name="emdash" unicode="&#x2014;" horiz-adv-x="819" 
d="M798 211q-86 0 -339.5 -6t-294.5 -11q-7 -1 -13 11t-3 24.5t16 12.5q475 0 630 -4q17 -1 21 -13q-2 -12 -17 -14z" />
    <glyph glyph-name="quoteleft" unicode="&#x2018;" horiz-adv-x="185" 
d="M166 717q-31 -10 -56 -32.5t-34 -53.5q14 9 30 9q17 0 25 -12t3 -29t-21 -29t-33 -12q-21 0 -28.5 16t-4.5 38q7 45 42 74.5t77 42.5q10 3 10 -2.5t-10 -9.5z" />
    <glyph glyph-name="quoteright" unicode="&#x2019;" horiz-adv-x="158" 
d="M268 660q0 -44 -30.5 -73.5t-70.5 -42.5q-10 -4 -10 3q-1 5 8 8q30 10 51 32.5t25 54.5q-13 -10 -28 -10q-17 0 -27 12t-7 29q2 17 16.5 29t31.5 12q20 0 30.5 -16t10.5 -38z" />
    <glyph glyph-name="quotesinglbase" unicode="&#x201a;" horiz-adv-x="154" 
d="M188 116q0 -45 -30.5 -74t-69.5 -42q-11 -4 -11 3q0 5 8 8q30 11 51.5 33t25.5 54q-15 -10 -29 -10q-17 0 -27 12.5t-7 28.5q3 17 17 29.5t31 12.5q20 0 30.5 -16.5t10.5 -38.5z" />
    <glyph glyph-name="quotedblleft" unicode="&#x201c;" horiz-adv-x="304" 
d="M284 717q-31 -10 -55.5 -32.5t-33.5 -53.5q13 9 29 9q17 0 25.5 -12t2.5 -29q-5 -17 -21 -29t-33 -12q-20 0 -28 16t-5 38q7 45 42.5 74.5t76.5 42.5q10 3 10 -2.5t-10 -9.5zM165 717q-31 -10 -55.5 -32.5t-33.5 -53.5q14 9 29 9q17 0 25.5 -12t2.5 -29q-5 -17 -21 -29
t-33 -12q-20 0 -28 16t-5 38q7 45 42.5 74.5t76.5 42.5q10 3 10 -2.5t-10 -9.5z" />
    <glyph glyph-name="quotedblright" unicode="&#x201d;" horiz-adv-x="393" 
d="M387 660q0 -44 -30.5 -73.5t-70.5 -42.5q-10 -4 -10 3q-1 5 8 8q30 10 51 32.5t25 54.5q-13 -10 -28 -10q-17 0 -27 12t-7 29q2 17 16.5 29t31.5 12q20 0 30.5 -16t10.5 -38zM268 660q0 -44 -30.5 -73.5t-70.5 -42.5q-10 -4 -10 3q-1 5 8 8q30 10 51 32.5t25 54.5
q-13 -10 -28 -10q-17 0 -27 12t-7 29q2 17 16.5 29t31.5 12q20 0 30.5 -16t10.5 -38z" />
    <glyph glyph-name="quotedblbase" unicode="&#x201e;" horiz-adv-x="245" 
d="M228 206q2 -10 -2 -37t-9.5 -50.5l-13.5 -55.5t-9 -35h-10l-8 166q-1 14 7 23t22 9q20 0 23 -20zM119 207q6 -29 -33 -179h-10l-9 165q-1 13 8 23t22 10q19 0 22 -19z" />
    <glyph glyph-name="dagger" unicode="&#x2020;" horiz-adv-x="441" 
d="M431 363q0 -6 -19 -9l-85 -16q-5 -1 -16.5 -3.5t-19.5 -4.5q-80 -108 -146.5 -216t-89.5 -172q-1 -3 -3 -10.5t-4.5 -18.5l-5.5 -25q-4 -6 -9 -6q-13 0 -13 8v2q0 3 1.5 9t5 18.5l6.5 23.5q59 191 189 375l-47 -8.5t-59 -9.5h-3q-10 -2 -11 -2q-6 0 -8 4q-3 2 -3 4
q0 7 21 19q11 9 83 18l50 7q45 64 136 167q6 8 26.5 9t32.5 -11q4 -3 -2 -9l-35 -40l-51 -60l-40 -49q1 0 11 1t15 2q48 6 68 6h6q18 0 19 -3z" />
    <glyph glyph-name="daggerdbl" unicode="&#x2021;" horiz-adv-x="441" 
d="M270 200q51 6 69 6h6q16 0 19 -3q-1 -6 -20 -9l-84 -16q-58 -10 -85 -16q-92 -143 -120 -220q-1 -3 -3 -10.5t-4.5 -18.5l-5.5 -25q-4 -6 -9 -6q-13 0 -13 8v2q0 3 1.5 9t5 18.5l6.5 23.5q33 110 85 208q-12 -2 -38 -6t-32 -5h-4q-8 -2 -10 -2q-8 0 -8 4q-2 1 -2 4
q0 7 20 19q9 6 92 18q30 55 86 135l-47 -8.5t-59 -9.5h-3q-10 -2 -11 -2q-6 0 -8 4q-3 2 -3 4q0 7 21 19q11 9 83 18l50 7q45 64 136 167q6 8 26.5 9t32.5 -11q4 -3 -2 -9l-35 -40l-51 -60l-40 -49q1 0 11 1t15 2q48 6 68 6h6q18 0 19 -3q0 -6 -19 -9l-85 -16
q-5 -1 -16.5 -3.5t-19.5 -4.5q-37 -48 -98 -140z" />
    <glyph glyph-name="bullet" unicode="&#x2022;" horiz-adv-x="766" 
d="M386 15q-137 0 -234 97t-97 234t97 234t234 97t234.5 -97t97.5 -234t-97.5 -234t-234.5 -97z" />
    <glyph glyph-name="ellipsis" unicode="&#x2026;" horiz-adv-x="537" 
d="M504 27q-3 -17 -17 -29t-31 -12t-27 12t-7 29q2 17 16.5 29t31.5 12t27 -12t7 -29zM298 27q-3 -17 -17 -29t-31 -12t-27 12t-7 29q2 17 16.5 29t31.5 12t27 -12t7 -29zM104 27q-3 -17 -17 -29t-31 -12t-27 12t-7 29q2 17 16.5 29t31.5 12t27 -12t7 -29z" />
    <glyph glyph-name="perthousand" unicode="&#x2030;" horiz-adv-x="688" 
d="M659 176q0 -60 -43 -128.5t-100 -68.5q-37 0 -56.5 28t-19.5 67q0 64 42.5 121t104.5 57q33 0 52.5 -21t19.5 -55zM488 651l-424 -666h-32l311 475q-17 -12 -35 -12q-15 0 -25 7q-15 -28 -41 -50t-54 -22q-35 0 -53.5 28.5t-18.5 66.5q0 64 42 121t104 57q32 0 49 -21.5
t17 -54.5q0 -29 -11.5 -63t-29.5 -54l1 -2q10 -5 19 -5q12 0 27.5 8.5t21.5 18.5l100 168h32zM417 176q0 -60 -43 -128.5t-100 -68.5q-37 0 -56 28t-19 67q0 64 42 121t104 57q34 0 53 -21t19 -55zM319 572q0 70 -45 70q-38 0 -69 -42t-43 -86q-7 -24 -7 -52q0 -70 38 -70
q24 0 47 20.5t35 44.5l2 4q-14 23 -14 46q0 24 11 45t33 21q2 0 6 -0.5t6 -0.5zM643 185q0 54 -45 54q-38 0 -69 -42t-43 -86q-7 -30 -7 -52q0 -70 36 -70q49 0 88.5 71.5t39.5 124.5zM401 185q0 54 -44 54q-38 0 -69.5 -42.5t-42.5 -85.5q-8 -27 -8 -52q0 -70 37 -70
q48 0 87.5 71.5t39.5 124.5z" />
    <glyph glyph-name="guilsinglleft" unicode="&#x2039;" horiz-adv-x="500" 
d="M299 480q-1 -5 -18.5 -24.5l-59.5 -67l-85 -99.5q16 -35 47.5 -89t39.5 -70q-6 -21 -29 -12q-27 47 -117 140q-5 1 -5 11q5 16 87 102q54 59 104 106q14 14 28 14q12 0 8 -11zM502 480q-1 -5 -18.5 -24.5l-59.5 -67l-85 -99.5q16 -32 46.5 -85t40.5 -74q-6 -21 -29 -12
q-24 45 -116 140q-6 1 -6 11q5 16 87 102q54 59 104 106q14 14 28 14t8 -11z" />
    <glyph glyph-name="guilsinglright" unicode="&#x203a;" horiz-adv-x="500" 
d="M279 122q1 5 18.5 24.5l59.5 67l85 99.5q-16 35 -47.5 89t-39.5 70q6 21 29 12q27 -47 117 -140q5 -1 5 -11q-5 -16 -87 -102q-54 -59 -104 -106q-14 -14 -28 -14q-12 0 -8 11zM76 122q1 5 18.5 24.5l59.5 67l85 99.5q-16 32 -46.5 85t-40.5 74q6 21 29 12
q24 -45 116 -140q6 -1 6 -11q-5 -16 -87 -102q-54 -59 -104 -106q-14 -14 -28 -14t-8 11z" />
    <glyph glyph-name="fraction" unicode="&#x2044;" horiz-adv-x="548" 
d="M545 606q13 15 36 11q18 -4 8 -16q-8 -11 -50.5 -64l-76 -95l-85 -106l-93.5 -114l-84.5 -99t-74.5 -81t-49 -43q-12 -8 -16 -4t5 14q80 91 258 313.5t222 283.5z" />
    <glyph glyph-name="Euro" unicode="&#x20ac;" horiz-adv-x="661" 
d="M673 622q0 -35 -20 -65t-72 -67l5 10q6 9 15 26.5t18 38t15.5 45.5t6.5 46q0 73 -64 73q-59 0 -117.5 -28t-105 -74.5t-83 -98t-61.5 -105.5h229l-64 -27l-177 2q-7 -17 -15 -43h226l-63 -26h-169q-16 -66 -16 -125q0 -45 6.5 -78.5t22 -63.5t46.5 -46t76 -16
q52 0 104 42.5t79 101t15 102.5q37 -53 28.5 -102.5t-45 -87.5t-94 -61t-116.5 -23q-98 0 -144.5 61t-46.5 162q0 62 18 134h-47l11 26h42q10 34 14 43h-39l13 25h37q24 55 62.5 112t88 108t111 83t121.5 32q65 0 107 -36t42 -100z" />
    <glyph glyph-name="trademark" unicode="&#x2122;" horiz-adv-x="736" 
d="M649 394q-11 -16 -35 -16q-6 0 -10.5 2.5t-3.5 8.5q0 11 29 115q-82 -91 -125 -91q-40 0 -73 95q-3 -7 -16 -48.5t-27.5 -66t-33.5 -24.5q-15 0 -15 9q0 8 36.5 78.5t40.5 85.5q1 4 3.5 25t9 31.5t19.5 10.5q12 0 17.5 -42.5t15.5 -85.5t33 -43q16 0 48.5 38.5t63 80
t39.5 46.5q13 0 13 -25q-1 -11 -6.5 -29t-6.5 -25l-7 -61.5t-9 -68.5zM138 364q-20 0 -20 14q1 16 45.5 100.5t44.5 98.5q-12 2 -19 2q-9 0 -29.5 -2t-30.5 -2q-21 0 -26 15q8 12 105.5 19.5t144.5 7.5q23 0 23 -11q0 -9 -30 -14t-63 -9t-37 -10q-16 -22 -45.5 -104
t-40.5 -96q-8 -9 -22 -9z" />
    <glyph glyph-name="minus" unicode="&#x2212;" horiz-adv-x="373" 
d="M362 208l-1 -1h-253l-1 1v21l1 1h253l1 -1v-21z" />
    <glyph glyph-name="A.salt" unicode="&#xe000;" horiz-adv-x="1143" 
d="M1206 176l9 -7q-264 -213 -518 -277q-84 -21 -144.5 -24t-98 12.5t-56.5 44.5t-19 77t12.5 105t39.5 132l-184 -48q-81 -84 -152.5 -139t-132.5 -80.5t-103 -36.5t-97 -19q-16 -2 -23 -3q-148 -24 -248.5 8.5t-123.5 113t53 206.5q23 38 67 73.5t79 50.5l3 -11
q-41 -21 -91.5 -65.5t-75.5 -94.5q-31 -63 -28 -115t34 -83.5t77.5 -53t101.5 -23.5t106 5q67 12 131 38t113 53.5t101.5 71t85 74t75 80.5t60 73l50.5 67l116.5 158.5l115 159.5t59.5 81l-91 -19t-97.5 -24t-108 -32.5t-101 -41.5t-97.5 -54.5t-76.5 -67.5t-58.5 -84
q-17 -34 -10.5 -64.5t30 -46t56.5 -21.5t69 8q56 20 88.5 61t40.5 80l23 -4q-10 -48 -56 -94.5t-101 -65.5q-89 -31 -138 17t-8 135q123 257 658 344q16 20 46 47.5t52 34.5q25 8 40 1.5t11 -25.5q-10 -41 -73 -63q-150 -326 -209 -533q101 16 125 -19q9 -14 10 -30.5
t-4 -29.5t-13 -26t-13 -18.5t-9 -9.5q3 5 6 12.5t4.5 22.5t-3 28t-22 26.5t-47.5 21.5q-17 5 -39 3q-24 -88 -31 -151t4.5 -108.5t44.5 -67.5t91 -22t143 23q238 65 470 253zM258 217l179 40q38 103 96 227l98 206t45 104q-6 0 -23 -4.5t-21 -4.5l-135.5 -220t-138 -219
t-100.5 -129zM731 882q-4 2 -18 -11t-33 -34t-25 -27q65 13 97 49q18 22 1 25q-8 2 -22 -2z" />
    <glyph glyph-name="B.salt" unicode="&#xe001;" horiz-adv-x="967" 
d="M688 506q-29 -57 -88 -99t-115 -44q128 -41 155 -133q14 -50 0 -98q-2 -2 -4 -6q-6 -10 -8 -21q-41 -80 -151.5 -124t-215.5 -31q-91 11 -134.5 22.5t-92.5 33.5q-133 -98 -264 -81q-90 11 -115 69q-20 48 16 89q46 52 138 37q25 -4 51 -13q21 -8 71 -35t74 -39
q48 46 99 134q-160 30 -285 109q-66 42 -96.5 93t-24 96t32.5 83t70.5 59t91.5 18q44 -3 87 -12q37 49 112 75q180 64 374 19q3 2 7 8q4 3 17.5 19.5t31 30.5t42.5 23l-58 -81l-8 -8l11 -4q117 -30 161.5 -82.5t17.5 -106.5zM473 373q36 1 72.5 20.5t60.5 51t34.5 66.5
t-4.5 71t-56 60q-13 8 -61 23l-33 8q-56 -76 -158.5 -253t-142.5 -238l-4 -3l-6 -8q92 -13 157 -11t100 10l35 9l-8 -20q-5 -1 -14.5 -2.5t-40.5 -4t-63.5 -4t-80 0.5t-93.5 8q0 -1 -1 -3v-1q-56 -78 -81 -104l-38 -36q119 -50 249 -55q104 -4 179 39t104 108h-4q9 10 12 23
q15 50 -3.5 94t-69.5 64q-19 8 -47.5 17.5l-47.5 16t-38 15t-28.5 19t-10.5 22.5q6 -3 131 -3zM74 193l40 -10q0 1 1.5 3t2.5 4q0 1 0.5 2.5t1.5 2.5h1q15 26 68.5 128.5t96.5 170t95 125.5l57 65q-2 0 -4 0.5t-4 0.5l1 1q-220 38 -366 -51q-27 -18 -44 -33
q41 -12 71.5 -28.5t48 -37.5t13 -46.5t-34.5 -52.5q-29 -26 -60.5 -28.5t-55 15t-39 44t-14.5 62.5t20 68q-78 12 -143.5 -6.5t-89.5 -70.5q-17 -42 -19 -77t18 -67t49.5 -57.5t76 -49t97.5 -42t115 -35.5zM-205 -47q101 -4 197 68q-6 3 -61.5 33t-90.5 42q-77 27 -114 -18
q-28 -33 -10 -75q19 -47 79 -50zM127 467q35 35 -3 70t-115 54q-29 -31 -36.5 -64t5.5 -55t35.5 -35t54 -5.5t59.5 35.5z" />
    <glyph glyph-name="H.salt" unicode="&#xe002;" horiz-adv-x="1271" 
d="M1160 -121q-11 -9 -4 -16l-85.5 -16t-86.5 -11t-109.5 -4t-114.5 13t-141 31q-194 58 -322 130q-190 -182 -393 -207q-120 -15 -214.5 23.5t-128.5 121.5t26 207q19 37 42.5 62.5t47.5 40t56.5 17.5t60 1.5t68.5 -15.5t72 -26.5t79.5 -38l81.5 -44l89.5 -50.5l91.5 -51
q48 45 201 275l224 340q-40 -4 -142.5 -6.5t-176 -14.5t-132.5 -46q32 -13 53.5 -34.5t26.5 -36.5l6 -15q11 -40 -3 -92t-46 -93t-69 -54q-96 -33 -137 19.5t4 150.5q41 95 132 151q-74 20 -186 12q-106 -7 -186.5 -1.5t-137.5 20t-93 29.5t-52 27l-17 11l3 16q10 -7 30 -18
t84 -33t132 -31q61 -7 131 -4t163 0t144 -19q51 29 122 46.5t121 22.5t133.5 9.5t110.5 7.5q58 70 93 80q25 6 40.5 -1t11.5 -27q-7 -32 -52 -53t-81 -21q-18 -26 -49.5 -77.5l-57 -96.5l-53.5 -94.5t-33 -57.5q75 0 191.5 -8.5t143.5 -8.5q34 60 127 200.5t146 193.5
q19 -2 28 -17.5t0 -36.5q-21 -33 -89 -126l-132 -188.5t-101 -172.5q-70 -125 -91 -233q-47 82 97 349q-94 0 -341 11q-87 -162 -202 -277q103 -54 192.5 -90t198.5 -64t224.5 -26t229.5 35zM-282 -167q141 -27 270 19t268 176q-12 8 -67 42.5l-85 52.5t-90.5 50t-124.5 60
q-208 64 -297 -115q-48 -101 -16 -174q15 -34 43 -58q28 -25 99 -53zM330 457q1 13 -1.5 26.5t-10.5 33t-29.5 38t-54.5 30.5q-68 -46 -107 -121q-22 -40 -27 -77t5.5 -62.5t30 -40.5t47.5 -13.5t57 20.5q71 46 89 156zM840 759q-10 6 -86 -70q86 4 100 41q7 19 -8 27
q-3 2 -6 2z" />
    <glyph glyph-name="M.salt" unicode="&#xe003;" horiz-adv-x="1242" 
d="M612 34q10 34 27 73t45.5 87.5l48.5 81.5l59.5 94l55.5 87q73 118 33 112q-46 -6 -185 -145q-192 -191 -334 -404q-50 -76 -85 -143q-40 36 -45 72.5t21.5 89t63 110.5t87.5 165t87 225q26 87 -17 100q-43 12 -113 -51q-9 -8 -18 -17q-111 -113 -188 -213
q-61 -129 -61 -131l-14 -25q-13 -26 -36 -67l-49 -86.5t-57 -92t-55 -75.5q100 -67 188.5 -112.5t197 -80t223.5 -32.5t229 43q-9 -10 -4 -20q-63 -15 -85.5 -20t-87.5 -13t-109.5 -5t-114 16t-139.5 39q-191 71 -316 162q-195 -227 -401 -258q-120 -19 -214 29t-125 151.5
t33 258.5q25 58 56.5 93.5t65 50t76 9.5t82.5 -20.5t92.5 -46.5t99 -63l107.5 -76l108 -77q48 55 208 344l234 425q-41 -6 -112.5 -8.5t-120.5 -5.5t-110.5 -20.5t-107.5 -50.5q32 -16 53 -42.5t25 -44.5l5 -19q14 -79 -26.5 -176.5t-99.5 -122.5q-97 -41 -136 24.5t8 187.5
q46 120 137 188q-69 26 -185 16q-106 -9 -187 -2t-137.5 25t-92 36.5t-52.5 32.5l-16 15l4 20q10 -9 29.5 -22.5t82.5 -41t131 -39.5q61 -9 131.5 -5t163.5 0.5t144 -23.5q52 36 122.5 57.5t121 28t133 13t111.5 9.5q57 86 95 100q25 8 40 -1t11 -34q-7 -40 -53 -66.5
t-82 -26.5q-23 -40 -137 -269q64 81 153 170q62 61 135 77q75 16 90 -38q8 -29 -5 -76q-2 -9 -65 -169q-58 -144 -120 -259q-62 -113 -58 -120q2 -8 23 13q86 142 246 316q77 81 191 186q121 110 158 67q39 -44 -29 -142q-127 -184 -172 -262q-190 -331 19 -315q4 1 8 1
q108 12 242 98.5t240 192.5l10 -7q-154 -152 -333 -242q-182 -92 -265 -52q-77 37 -36 184zM-722 -358q140 -33 271.5 24.5t274.5 219.5l-65.5 53t-84 66t-89 61.5t-123.5 75.5q-206 81 -300 -144q-51 -127 -21 -217q14 -44 41 -73q25 -29 96 -66zM-88 419v2q7 113 -93 160
q-66 -53 -111 -151q-51 -109 -21 -186q20 -55 67 -55q30 -1 62 25q40 32 63 86t30 109zM429 799q-7 4 -37.5 -29t-50.5 -58q83 5 100 50q9 24 -7 35q-2 1 -5 2zM-89 419h1v1z" />
    <glyph glyph-name="N.salt" unicode="&#xe005;" horiz-adv-x="1119" 
d="M320 95q18 34 166 259.5t167 284.5q18 51 -22.5 68.5t-98.5 -9.5q-100 -44 -260 -202q-101 -100 -226 -288q-125 -237 -199 -327q100 -67 189 -112.5t197 -80t223.5 -32.5t229.5 43q-9 -10 -4 -20q-63 -15 -85.5 -20t-87.5 -13t-109.5 -5t-114 16t-139.5 39
q-193 72 -318 162q-195 -227 -400 -258q-120 -19 -213.5 29t-125.5 151.5t31 258.5q20 45 43.5 76.5t47.5 50t55.5 23.5t59.5 3t66.5 -17.5t69 -31t76 -45l79 -53l84.5 -60.5l107 -76q48 55 208 344l232 425q-41 -6 -112 -8.5t-121 -5.5t-111.5 -20.5t-107.5 -50.5
q32 -16 53.5 -42.5t26.5 -44.5l5 -19q14 -78 -26.5 -176t-98.5 -123q-97 -41 -136.5 24.5t7.5 187.5q46 120 135 188q-69 26 -185 16q-106 -9 -186.5 -2t-137.5 25t-92.5 36.5t-52.5 32.5l-16 15l4 20q10 -9 29.5 -22.5t83 -41t131.5 -39.5q61 -9 131.5 -5t163.5 0.5
t144 -23.5q52 36 123 57.5t121.5 28t133 13t111.5 9.5q13 21 42.5 56.5t52.5 43.5q25 8 40 -1t10 -34q-7 -40 -52.5 -66.5t-81.5 -26.5q-39 -65 -171 -341q72 87 158 171q160 160 275 208q53 23 100 27t75 -19.5t18 -75.5q-10 -53 -56 -126.5t-130.5 -189.5t-132.5 -191
q-193 -302 -3 -302q107 0 211.5 27t183 65.5t149.5 89t113.5 91t72.5 77.5l6 -9q-110 -141 -321 -251q-202 -104 -364 -114q-158 -10 -185 84q-21 71 42 194zM-757 -358q140 -33 271 24.5t274 219.5l-66.5 53l-83.5 65.5t-90 62.5t-123 75q-206 81 -300 -144
q-51 -125 -21 -217q16 -45 42 -73q25 -29 97 -66zM-128 421q2 16 0 33t-9.5 41.5t-28.5 47.5t-53 38q-68 -55 -111 -151q-50 -109 -21 -186q21 -55 68 -55q30 0 62 25q38 32 61 86t31 109l1 11l1 -1v4zM390 799q-11 7 -88 -87q83 5 101 48q9 25 -7 36q-3 2 -6 3z" />
    <glyph glyph-name="P.salt" unicode="&#xe006;" horiz-adv-x="926" 
d="M961 -301q-9 -10 -4 -20l-84 -20t-86 -13t-109 -5t-115 16t-143 39q-199 72 -331 162q-173 -227 -378 -258q-118 -19 -215.5 29t-138 151.5t10.5 258.5q24 68 57.5 105.5t77 44.5t90.5 -3t108 -43t118.5 -70l132.5 -88l112 -76q42 50 181 344q145 304 198 425
q-40 -6 -111 -8.5t-120.5 -5.5t-109 -20.5t-102.5 -50.5q32 -16 54.5 -42.5t29.5 -44.5l6 -19q21 -78 -11.5 -176t-87.5 -123q-94 -41 -138.5 24.5t-6.5 187.5q35 119 120 188q-72 26 -186 16q-106 -9 -187.5 -2t-139.5 25t-95 36.5t-54 32.5l-18 15l3 20q11 -9 31 -22.5
t85.5 -41t134.5 -39.5q62 -9 132 -5t163 0.5t146 -23.5q49 36 117.5 57.5t119 28t132.5 12.5t110 10q52 86 87 100q24 8 40 -1t13 -34q-3 -40 -46.5 -66.5t-80.5 -26.5q-40 -83 -114 -269q10 16 24.5 35.5t49.5 61t81.5 77t94.5 52.5q58 21 76 -54q21 -83 -19 -209
q-47 -148 -138 -212q-5 -4 -10 -7q-135 -86 -165 -12q-8 19 -6 40q7 -2 19.5 -4.5t53 6t82.5 34.5q48 30 85 78.5t54.5 97.5t25 95t3 78.5t-17.5 40.5q-14 9 -31 10t-42 -10t-53.5 -34t-65.5 -65.5t-78 -102.5l-46 -70l-48 -110l-25 -55q-97 -210 -158 -291
q107 -67 199.5 -112.5t203.5 -80t226 -32.5t227 43zM-477 -358q143 -33 269.5 24.5t253.5 219.5l-55 42t-68 51l-67.5 47.5t-90.5 58.5t-101 57q-213 81 -288 -144q-41 -125 -3 -217q18 -44 47 -73q28 -29 103 -66zM88 421v1q-1 16 -4.5 33t-13 41.5t-31.5 47t-54 37.5
q-62 -53 -99 -151q-41 -109 -6 -186q25 -56 73 -55q29 0 57 25q67 58 76 195zM575 799q-9 6 -81 -87q82 5 97 48q8 24 -9 36q-3 2 -7 3zM88 421v1v1q-1 1 -1 2z" />
    <glyph glyph-name="R.salt" unicode="&#xe007;" horiz-adv-x="1078" 
d="M495 219q52 30 93 78.5t63.5 97.5t34.5 95t10 78.5t-14 40.5q-13 9 -30 10t-43 -10t-56.5 -34t-71.5 -65.5t-87 -102.5l-21 -27l-18 -23l-15 -20l-58 -110l-30 -55q-113 -205 -186 -291q100 -67 188 -112.5t196 -80t223.5 -32.5t230.5 43q-10 -11 -5 -20
q-63 -15 -85.5 -20t-87.5 -13t-109.5 -5t-114 16t-139.5 39q-190 71 -316 162q-197 -227 -403 -258q-120 -19 -213.5 29t-124 151.5t35.5 258.5q75 167 206 153q92 -10 261 -126l113 -81l106 -76q46 50 214 344l239 425q-41 -6 -112.5 -8.5t-121.5 -5.5t-111.5 -20.5
t-108.5 -50.5q31 -16 51.5 -42.5t25.5 -44.5l5 -19q14 -79 -28 -176.5t-101 -122.5q-97 -41 -135.5 24.5t10.5 187.5q46 120 137 188q-68 26 -184 16q-107 -9 -187.5 -2t-137 25t-91.5 36.5t-51 32.5l-16 15l3 20l11 -8.5t30.5 -20t50 -27t67.5 -26.5t84 -21q61 -9 131 -5
t163 0.5t144 -23.5q52 36 123.5 57.5t122.5 28t133.5 13t111.5 9.5q8 13 22 30.5t36.5 40.5t38.5 29q25 8 40 -1t10 -34q-7 -40 -53.5 -66.5t-82.5 -26.5q-35 -57 -140 -269q11 15 28.5 36.5t55.5 62t87.5 75.5t98.5 52q59 20 71 -51q14 -82 -36 -208q-60 -147 -155 -213
q-8 -6 -15 -10q-41 -24 -72 -35q3 -9 5 -45.5t7 -76t15.5 -80t34.5 -69.5t59 -34q70 -10 154.5 28.5t156 100t132.5 125t96 109.5l35 45l10 -6l-19 -25t-51 -61.5t-78.5 -87t-96.5 -93t-111 -89t-116.5 -64.5t-117.5 -30q-56 1 -89 31.5t-41.5 79t-8.5 93t5 90.5t5 54
q-29 -8 -47 -4t-25.5 15.5t-10 24t-1.5 22.5l1 10q7 -2 19.5 -4.5t53.5 6t85 34.5zM-541 -358q140 -33 271.5 24.5t276.5 219.5q-8 7 -64.5 52.5l-84 66.5t-87.5 61.5t-123 75.5q-205 81 -302 -144q-52 -125 -24 -217q13 -42 41 -73q25 -29 96 -66zM100 421v2q1 16 -0.5 33
t-9 41t-28 46.5t-51.5 37.5q-69 -55 -114 -151q-51 -109 -23 -186q20 -55 67 -55q30 -1 62 25q73 59 95 195zM624 799q-9 6 -89 -87q84 5 101 49q10 24 -6 35q-3 2 -6 3z" />
    <glyph glyph-name="a.salt" unicode="&#xe008;" 
d="M103 -16l3 -3q3 -13 -14 -38t-23 -25q-15 -1 -20.5 13t-3 34.5t6.5 37.5t8 27q14 39 49 94l41 61l15 18q4 4 4 7q-6 2 -8 -2q-72 -54 -104 -95q-10 -12 -30 -41t-30 -41q-35 -7 -49 12t-7 63q13 89 93 160t118 51q38 -19 55 -54q4 -3 2.5 -8.5t-1.5 -8.5q-58 108 -134 35
q-54 -51 -87 -150q-25 -79 -6 -90q5 -2 12 1q2 1 3 2t3.5 4.5t5 7.5l8 12.5l12.5 18.5q33 52 64 83q23 23 54 43t50 11q31 -14 23 -27l-39 -59q-39 -58 -77 -122t-41 -84q-1 -10 16 5q24 21 28 47z" />
    <glyph glyph-name="d.salt" unicode="&#xe009;" horiz-adv-x="598" 
d="M196 14l42 22q-44 -39 -62.5 -46t-35.5 11q-4 23 12 101l2 11l6 25l2 6q-83 -106 -101 -125q-9 -9 -14 -12t-14 -3t-17 15t-17 44q-23 78 2.5 142.5t79.5 93.5q41 21 77.5 11t41.5 -39q2 -18 2 -21q37 85 65 133l11 18l7 13l11 18l36 62q41 66 71 108q62 85 133 157
q30 30 60 57q9 7 22 15q10 6 14 -1q4 -6 0 -16l-15 -35q-33 -68 -77 -131q-93 -134 -185 -235q-13 -15 -21 -29q-111 -206 -145 -314q-22 -68 7 -56zM59 39q20 21 64 73t46 54l1 2q11 33 19 49l3 8q0 36 -10 41q-55 18 -96.5 -33.5t-53.5 -131.5q-10 -61 4 -73q8 -6 23 11z
M379 463q-3 -6 -1 -10l13 14l103 133q33 44 63 90q27 39 56 98q8 16 10 30q-10 -6 -27 -25q-29 -32 -83 -109q-45 -65 -134 -221z" />
    <glyph glyph-name="h.salt" unicode="&#xe00a;" horiz-adv-x="645" 
d="M276 20l5 -3q-30 -25 -75 -30q-47 -5 -45 31q0 14 10 35q19 44 39.5 82.5t36.5 65.5t19 34q8 17 -11 16q-9 0 -29 -5q-53 -13 -119 -87q-25 -28 -56 -69l-49 -64.5t-22 -23.5q-14 0 -22 7q-18 12 -28 29q-9 22 -7 37t7 23q67 147 125 255l8 16l10 16l65 112q46 72 71 107
q56 81 133 158l60 57q9 7 22 15q9 5 14 -1q4 -6 0 -16l-15 -35q-32 -64 -77 -131q-93 -134 -185 -235q-12 -14 -21 -30q-21 -38 -59 -116q-1 -4 -14 -35.5l-36 -87l-41 -99.5l-12 -27l3 2q7 4 41.5 52.5t83.5 102.5t93 74q56 26 88 15q24 -7 10 -39q-37 -75 -67 -157
q-16 -46 -20 -59q-4 -12 13 -13q27 -2 53 21zM185 466q-3 -8 -1 -10l13 14l103 133q33 43 63 90q27 39 56 98q8 16 10 30q-10 -6 -27 -25q-29 -32 -83 -109q-45 -65 -134 -221z" />
    <glyph glyph-name="k.salt" unicode="&#xe00b;" horiz-adv-x="610" 
d="M336 223q-78 -136 -61 -194q10 -26 32 -16q-83 -54 -94 -9q-11 43 48 135q28 45 66 86q12 13 -18 18q-25 5 -46 0q-51 -10 -122 -87q-25 -28 -56 -68.5l-49 -64t-22 -23.5q-14 0 -23 6q-1 0 -1 1q-18 11 -29 28q-16 24 -2 60q67 147 125 255l8 16l9 16l65 112
q46 72 71 107q58 82 134 158l62 56q6 6 22 16q11 4 14 -2q5 -5 1 -16l-15 -35q-31 -65 -77 -130q-90 -129 -186 -235q-12 -13 -21 -30q-31 -57 -58 -116q-22 -50 -90 -221q-8 -18 -11 -27q1 0 2 1q6 3 64 80l19 27.5t47.5 63.5l68 84.5t73 77.5t70.5 55q44 25 82.5 27.5
t52 -3.5t21.5 -13q-53 -9 -86 -12.5t-40 -2.5l-6 1q-9 1 -41 -20q-14 -10 -36 -31t-37 -37l-14 -16q-21 -23 -72 -88q30 25 55 37q55 25 89 14q25 -9 12 -41zM216 463q-2 -7 -1 -10l13 14l104 132q13 17 63 91q29 41 55 97q9 21 10 31q-10 -6 -27 -26q-31 -34 -83 -108
q-40 -58 -134 -221z" />
    <glyph glyph-name="l.salt" unicode="&#xe00c;" horiz-adv-x="545" 
d="M588 213l7 -7q-468 -284 -574 -201q-35 28 -23 91l2 11v1q1 8 5 24q1 2 2.5 7t3.5 11l4 12v1l18 48q42 104 77 165l65 112l71 107q59 84 135 158q12 13 61 57q8 7 22 15q10 6 15 -2q4 -5 0 -15l-15 -35q-31 -65 -77 -131q-90 -129 -186 -235q-14 -15 -21 -30
q-49 -90 -98 -204l-15 -35q-4 -9 -5 -12.5t-5 -16.5t-5 -19.5t-2.5 -19.5t1 -20.5l6 -18t13 -15.5t21 -9.5t30.5 -4t42 5.5q13 3 83 31.5t172.5 78.5t169.5 95zM225 457q-3 -7 -1 -10l13 14l104 133q33 44 63 90q29 41 55 97q10 22 11 31q-9 -6 -28 -25q-31 -36 -83 -109
q-40 -58 -134 -221z" />
    <glyph glyph-name="m.salt" unicode="&#xe00d;" horiz-adv-x="820" 
d="M476 -102q-35 -27 -61 -29.5t-35 14t-2 43.5q16 58 81.5 177t82.5 133q16 12 -7 14q-12 0 -26 -3q-40 -11 -112 -88q-53 -57 -89.5 -106.5t-47.5 -67t-15 -16.5q-13 3 -20 19.5t-2 50.5t25 77q26 56 57 102t46.5 65t13.5 23q-4 7 -19.5 12t-50 -3.5t-72.5 -37.5
q-34 -25 -65.5 -66t-53 -79l-40.5 -72.5t-36 -51.5t-31 -9q-6 2 -11 9q-4 5 -4 13q0 1 -0.5 3t-0.5 3q1 2 1 6q0 1 -0.5 3t-0.5 3q-2 34 30 116.5t61 129.5q16 25 32 35.5t24 9.5l9 -2q13 -1 20 -7t8 -11l1 -5q-16 -13 -64 -96q-80 -134 -87 -182h-1q-1 -5 0.5 -9t6.5 -3
q3 1 37.5 62t85.5 132.5t92 94.5q42 24 77.5 27.5t52.5 -9.5t12 -35q-4 -17 -34.5 -82l-57 -122.5t-23.5 -63.5l7 10l21.5 27.5l31 39l38 45t41.5 45t43.5 39.5t40.5 28q48 25 75 15q22 -7 7 -40l-51 -93q-123 -237 -72 -245q11 -2 31 8z" />
    <glyph glyph-name="n.salt" unicode="&#xe00e;" horiz-adv-x="633" 
d="M281 -25q-3 -5 -19 -14.5t-35.5 -14.5t-31.5 10q-1 6 -2.5 10.5t3 16l7.5 19.5t11 23l14 25.5l15.5 26.5l16 27l16 27t15.5 25q2 3 4.5 7.5l10.5 18.5t14 26l14.5 30t12 29t6.5 24t-2 16q-5 8 -20 13q-49 10 -118 -41q-33 -25 -64.5 -66t-53 -79l-40.5 -72.5t-36 -51.5
t-31 -9q-8 3 -11 9q-5 7 -4 13q-1 2 -1 6q0 1 0.5 3t0.5 3q-1 2 -1 6q-3 34 29 116.5t62 129.5q16 25 32 35.5t25 9.5l8 -2q13 -1 20 -7t8 -11l1 -5q-14 -10 -64 -95q-81 -136 -88 -183q-1 -5 0.5 -9t6.5 -3q3 1 37.5 62t85.5 132.5t92 94.5q42 23 78.5 27t50.5 -9
q2 -1 4 -2.5t8.5 -7.5t9 -14t4.5 -22.5t-5 -31.5q0 -6 -5 -16l-13 -27l-3.5 -7t-4.5 -7q-69 -143 -77 -182q-5 -28 7 -32z" />
    <glyph glyph-name="r.salt" unicode="&#xe00f;" horiz-adv-x="597" 
d="M236 246l-98 12l-112 -80l89 85q-21 9 -35.5 24t-19.5 25l-4 10q12 -14 73.5 -25t123 -17t65.5 -8q-17 -17 -33 -23t-22 -3.5t-10 -1.5l-27 -40l-8 -10q-146 -232 -73 -230h6q46 6 162 69t209 123l93 61l6 -5l-45.5 -31l-106 -67.5t-142.5 -85t-133 -65t-99 -25.5
q-55 4 -35 75q8 27 29.5 60t42 56.5l55.5 62z" />
    <glyph glyph-name="t.salt" unicode="&#xe010;" horiz-adv-x="492" 
d="M331 332l-4 -24q-78 -2 -185 32q-39 -78 -71 -155l-15 -34q-32 -79 -37 -159q-7 -52 -0.5 -102t33.5 -45q-9 -12 -34 -5q-37 11 -44.5 94.5t12.5 174.5l2 11l6 25q0 2 9 30q11 33 19 49q29 75 58 131q-33 4 -59 1.5t-44 -9.5t-29 -14.5t-16 -13.5l-6 -6l-5 8q5 6 15 14.5
t52 20.5t96 6l15 27l65 112q32 53 71 107q58 82 134 158q40 38 61 56q4 4 23 16q10 4 14 -2q3 -6 0 -16q-2 -4 -7 -16l-8 -19q-30 -62 -76 -130q-90 -129 -186 -235q-12 -12 -22 -30l-20 -38q135 -24 183 -20zM213 470q-2 -7 -1 -10l13 14l104 132q13 17 64 90q27 41 55 98
q8 18 10 31q-12 -8 -28 -26q-25 -28 -83 -109q-41 -58 -134 -220z" />
    <glyph glyph-name="u.salt" unicode="&#xe011;" horiz-adv-x="674" 
d="M279 27q-7 -23 -27 -27q-14 -2 -24.5 5.5t-11.5 22.5q-3 17 0 35q3 24 9 48l10 29l1 1v3l1 1q48 111 72 147q-25 -23 -64 -74q-15 -20 -71.5 -127t-82.5 -144q-13 -18 -29 -26q-27 -7 -46 7q-32 22 -38 75t11 100v4h1q0 2 1 4v2l1 1v1q1 1 1 2q3 10 8 23v1l2 4
q11 30 26.5 64.5t42.5 77.5t45 43q19 0 30.5 -6t13.5 -12l2 -6q-16 -12 -63 -96q-34 -59 -47 -88l-5 -11q-4 -11 -9.5 -27.5t-11.5 -37.5t-8.5 -41t-2 -37t9 -27.5t24.5 -10.5q9 0 18 6.5t16.5 18t13 21t12 23l8.5 17.5q16 28 41.5 77.5l41 77.5t38 60.5t44.5 51.5
q21 18 35.5 29t18.5 13l4 2q6 3 10 3q12 0 21.5 -2.5t14 -6t7.5 -7t4 -6.5v-2q-13 -9 -64 -95q-77 -135 -79 -183q-2 -5 1 -8q4 -4 9 -2q8 3 14 9z" />
    <glyph glyph-name="a.ss01" unicode="&#xe012;" 
d="M513 159l5 -10q-302 -220 -449 -231q-15 -1 -20.5 13t-3 34.5t6.5 37.5t8 27q14 39 49 94l41 61l15 18q4 4 4 7q-6 2 -8 -2q-64 -48 -104 -99l-21.5 -28l-21.5 -28q-5 -8 -17 -22q-21 -18 -44 5l-9 12q-9 16 -7 33q2 19 6 35q20 54 60 95q-8 -4 -36 -14q-32 -10 -96 -20
t-108.5 9.5t-54 65t35.5 116.5q-15 -4 -56.5 -10t-119 -12.5t-152.5 -6.5q-416 -2 -503 118q-14 19 -14 47l8 -2q0 -77 161 -118q210 -47 454 -33q162 10 229 25l13 17q59 70 132 78q15 5 17 -8q4 -16 -26 -38.5t-91 -44.5q-8 -3 -41 -11q-33 -58 -33.5 -99t24.5 -59t63 -24
t78.5 0t74.5 18q21 8 74 34l1 1q20 16 47 20q22 3 42 -9q16 -9 16 -25q-8 0 -16 -3q-8 -4 -14 -4q-23 -4 -45 -21q-50 -39 -70 -92q-3 -7 -6 -15l-6.5 -18t-5.5 -15q-3 -8 -2 -15q-1 -2 1.5 -4t4.5 -1q6 2 10 4q3 2 6.5 7.5t4.5 6.5l21 31q33 52 64 83q15 15 24 22
q6 6 18 13l12 7.5t24 10t26 1.5q31 -14 23 -27l-39 -55q-39 -56 -77 -117.5t-41 -81.5q-1 -8 3 -12t12.5 -3.5t17 2t21.5 5.5q159 49 400 224zM-229 387q-1 -1 -3 -2.5t-3 -3t-2 -2.5l31 9q44 15 71.5 32t34 26.5t5.5 14.5q0 2 -1.5 3t-3.5 0.5t-3 -1.5h-1q-69 -8 -125 -76z
" />
    <glyph glyph-name="b.ss01" unicode="&#xe013;" horiz-adv-x="586" 
d="M611 236q60 22 67 22q8 -1 -67 -32q-217 -88 -279 -101q-25 -5 -45 -5q-45 0 -81 19q-24 -55 -85 -99q-46 -33 -87 -38h-6q-17 0 -27 13q-4 5 -6.5 11.5t-4 13.5t-2 14.5t-0.5 15t0.5 14.5t1 13t1 10.5t1.5 6.5v3v1h1q1 8 5 24q6 24 35 94.5t57 124.5q-32 -17 -56 -25
q-32 -10 -96 -20t-108.5 9.5t-54 65t35.5 116.5q-15 -4 -56.5 -10t-119 -12.5t-152.5 -6.5q-416 -2 -503 118q-14 19 -14 47l8 -2q0 -77 161 -118q210 -47 454 -33q162 10 229 25l13 17q59 70 132 78q15 5 17 -8q4 -16 -26 -38.5t-91 -44.5q-8 -3 -41 -11q-33 -58 -33.5 -99
t24.5 -59t63 -24t78.5 0t74.5 18q42 15 69 31l7 12l65 111q41 66 71 108q57 80 133 157q30 30 60 57q10 8 23 15q9 6 13 -1q4 -5 0 -16q-13 -32 -15 -35q-33 -68 -77 -131q-87 -126 -185 -235q-13 -15 -21 -29q-47 -87 -99 -205l-33 -78v-1q-3 -7 -6 -17.5t-9 -37t1 -31.5
q5 -20 54 22q65 56 97 122q-18 19 -21 47q-3 43 13.5 67.5t31.5 25.5h1q11 0 21 -16q25 -39 -7 -123l-3 -9q30 -23 81 -23q50 0 143 36zM218 467q-4 -4 -2 -10l13 14l103 133q28 37 64 90q27 41 55 98q9 19 11 30q-12 -7 -28 -25q-33 -37 -82 -109q-40 -58 -134 -221z
M-162 526q-1 -1 -3 -2.5t-3 -3t-2 -2.5l31 9q44 15 71.5 32t34 26.5t5.5 14.5q0 2 -1.5 3t-3.5 0.5t-3 -1.5h-1q-69 -8 -125 -76zM196 213q16 66 7 80q-1 3 -5 3q-12 0 -23 -38q-10 -38 11 -75z" />
    <glyph glyph-name="c.ss01" unicode="&#xe014;" horiz-adv-x="460" 
d="M494 221q1 0 5 -4q-7 -5 -26 -7q-63 -10 -92.5 -16t-86.5 -22t-94.5 -36t-87 -55.5t-93.5 -83.5l-20 -21q-12 -12 -29 -15q-14 -2 -24 5.5t-11 22.5q-2 20 1 35q6 34 11 48q27 86 79 145q-19 -10 -43 -18q-32 -10 -96 -20t-108.5 9.5t-54 65t35.5 116.5q-15 -4 -56.5 -10
t-119 -12.5t-152.5 -6.5q-416 -2 -503 118q-14 19 -14 47l8 -2q0 -77 161 -118q210 -47 454 -33q162 10 229 25l13 17q59 70 132 78q15 5 17 -8q4 -16 -26 -38.5t-91 -44.5q-8 -3 -41 -11q-33 -58 -33.5 -99t24.5 -59t63 -24t78.5 0t74.5 18q45 16 71 32q25 21 50 32
q5 2 21 7q13 3 23 -2q1 0 1 -0.5t1 -0.5q4 -3 7 -7q12 -16 8 -42q-6 -44 -53 -66q-15 -8 -20 2l-1 -1q27 35 49 75q2 4 4 6q4 7 6 16q1 4 -1 7.5t-7 2.5q-7 0 -14 -7q-6 -5 -16 -17q-130 -181 -133 -254q-3 -4 0 -9q4 -4 9 -2q13 7 14 9q7 6 19 20q95 102 194 144t274 68
q2 0 5 0.5t5 0.5zM-213 389l-8 -8l31 9q44 15 71.5 32t34 26.5t5.5 14.5q0 2 -1.5 3t-3.5 0.5t-3 -1.5h-1q-69 -8 -125 -76z" />
    <glyph glyph-name="d.ss01" unicode="&#xe015;" horiz-adv-x="598" 
d="M220 144q-32 -78 -39 -159q-7 -52 -2.5 -102t30.5 -45q12 2 62 54.5t78 85.5q81 87 192 173l80 56v-9l-45 -32.5t-101.5 -84t-129.5 -124.5l-68 -75q-34 -39 -47 -50.5t-24 -12t-29 12.5q-28 21 -35.5 99.5t10.5 170.5l2 11l6 25l2 6q-83 -106 -101 -125q-9 -9 -14 -12
t-14 -3t-17 15t-17 44q-23 78 2.5 142.5t79.5 93.5q41 21 77.5 11t41.5 -39q2 -18 2 -21q37 85 63 130q-25 -14 -57 -25q-32 -10 -96 -20t-108.5 9.5t-54 65t35.5 116.5q-15 -4 -56.5 -10t-119 -12.5t-152.5 -6.5q-416 -2 -503 118q-14 19 -14 47l8 -2q0 -77 161 -118
q210 -47 454 -33q162 10 229 25l13 17q59 70 132 78q15 5 17 -8q4 -16 -26 -38.5t-91 -44.5q-8 -3 -41 -11q-33 -58 -33.5 -99t24.5 -59t63 -24t78.5 0t74.5 18q42 15 71 33l58 98q41 66 71 108q62 85 133 157q30 30 60 57q9 7 22 15q10 6 14 -1q4 -6 0 -16l-15 -35
q-33 -68 -77 -131q-93 -134 -185 -235q-13 -15 -21 -29q-47 -87 -99 -205zM59 39q20 21 64 73t46 54l1 2q11 33 19 49l3 8q0 36 -10 41q-55 18 -96.5 -33.5t-53.5 -131.5q-10 -61 4 -73q8 -6 23 11zM379 463q-3 -6 -1 -10l13 14l103 133q33 44 63 90q27 39 56 98q8 16 10 30
q-10 -6 -27 -25q-29 -32 -83 -109q-45 -65 -134 -221zM12 545l-8 -8l31 9q44 15 71.5 32t34 26.5t5.5 14.5q0 2 -1.5 3t-3.5 0.5t-3 -1.5h-1q-69 -8 -125 -76z" />
    <glyph glyph-name="e.ss01" unicode="&#xe016;" horiz-adv-x="469" 
d="M505 227q1 0 5 -4q-7 -5 -26 -7q-15 -4 -46 -10l-47 -9q-45 -8 -70 -14q-85 -24 -192 -66q-19 -8 -30 -24l-11 -17q-25 -37 -57 -73l-21 -21q-12 -12 -29 -15q-14 -2 -24 5.5t-11 22.5q-2 20 1 35q6 34 11 48q24 75 63 126q-22 -13 -51 -22q-32 -10 -96 -20t-108.5 9.5
t-54 65t35.5 116.5q-15 -4 -56.5 -10t-119 -12.5t-152.5 -6.5q-416 -2 -503 118q-14 19 -14 47l8 -2q0 -77 161 -118q210 -47 454 -33q162 10 229 25l13 17q59 70 132 78q15 5 17 -8q4 -16 -26 -38.5t-91 -44.5q-8 -3 -41 -11q-33 -58 -33.5 -99t24.5 -59t63 -24t78.5 0
t74.5 18q46 16 73 34l7 7q33 33 65 46q5 2 21 7q13 3 23 -2h1l1 -1q4 -3 7 -7q12 -16 8 -42q-3 -22 -17 -38v-1l-6 -6q-22 -25 -45 -27q-21 -3 -30 24q-85 -127 -88 -188q-3 -5 1 -9q3 -4 8 -2q13 7 14 9q7 6 19 20l42 55l27 35q14 18 34 27l75 30q71 27 123 39q5 1 80 15
q36 7 87 11q3 1 10 1zM-226 372q-1 -1 -3 -2.5t-3 -3t-2 -2.5l31 9q44 15 71.5 32t34 26.5t5.5 14.5q0 2 -1.5 3t-3.5 0.5t-3 -1.5h-1q-69 -8 -125 -76zM118 250q-16 -22 -42 -61q16 -3 33 10q9 7 18 17.5t14 17.5l5 8l4 6q4 7 6 16q2 4 -0.5 7.5t-7.5 2.5q-7 0 -14 -7
q-6 -5 -16 -17z" />
    <glyph glyph-name="f.ss01" unicode="&#xe017;" horiz-adv-x="683" 
d="M-23 207l3 14l52 7l39 79q-24 -13 -53 -23q-32 -10 -96 -20t-108.5 9.5t-54 65t35.5 116.5q-15 -4 -56.5 -10t-119 -12.5t-152.5 -6.5q-416 -2 -503 118q-14 19 -14 47l8 -2q0 -77 161 -118q210 -47 454 -33q162 10 229 25l13 17q59 70 132 78q15 5 17 -8
q4 -16 -26 -38.5t-91 -44.5q-8 -3 -41 -11q-33 -58 -33.5 -99t24.5 -59t63 -24t78.5 0t74.5 18q43 15 66 30l4 6l9 16l65 112l71 107q56 80 133 158q19 19 61 57q11 10 22 15q9 5 14 -2q3 -4 -1 -15q-6 -19 -15 -35q-29 -63 -76 -131q-88 -127 -185 -235q-12 -13 -21 -30
q-12 -21 -55 -107l87 12q108 17 123 7q-60 -160 -50 -204q5 -59 82 -44q67 13 189.5 71t174.5 102l4 -7q-60 -52 -189 -115t-200 -71q-60 -2 -77 51q-11 29 0 79t26.5 87.5t15.5 38.5q-2 2 -33 -1t-61 -7l-30 -4q-59 -8 -68 -10q-56 -125 -151 -367q-21 -54 -30 -89
t-8 -42.5t2 -7.5q-25 0 -42 17q-29 27 -4 114q39 129 158 365l-35 -4q-5 -1 -12 -2zM205 425q-4 -6 -2 -10l13 14l103 132q22 29 64 91q32 48 55 97q10 22 11 31q-9 -6 -28 -25q-31 -36 -82 -109q-40 -58 -134 -221zM-178 474q-1 -1 -3 -2.5t-3 -3t-2 -2.5l31 9
q44 15 71.5 32t34 26.5t5.5 14.5q0 2 -1.5 3t-3.5 0.5t-3 -1.5h-1q-69 -8 -125 -76z" />
    <glyph glyph-name="g.ss01" unicode="&#xe018;" horiz-adv-x="510" 
d="M59 271q10 8 39 29q24 16 50 20q23 3 41 -9q14 -9 13 -25q-9 0 -17 -3q-10 -4 -15 -5q-26 -4 -48 -20q-55 -38 -85 -92q-18 -32 -26 -48q-2 -5 -4 -15q-1 -2 1.5 -4t4.5 -1q4 0 10 4q10 8 14 13q2 2 11.5 14l14.5 18q48 58 77 83q18 15 26 21q15 12 31 18q-1 -1 -1 -3
l6 5q2 -6 4 -18.5t-5 -62t-28 -113.5q-32 -96 -79 -202l63 32t96.5 54t93.5 67q99 78 176 163l1 1l12 -8q-65 -79 -136 -133q-66 -52 -122.5 -88.5t-120 -72l-74.5 -41.5q-67 -144 -117 -203q-59 -70 -127 -78q-3 1 -16.5 -1t-36 6.5t-34.5 26.5q-21 30 -3.5 71t64.5 66
l157 81q16 6 36 17l3 3q49 83 94.5 180t68 154t22.5 63q-1 15 -14 6l-2 -1l-38 -31q-25 -22 -42 -40l-51 -57q-18 -18 -22 -21q-23 -17 -43 5l-7 12q-6 17 -2 33q5 19 12 35q22 42 49 71q-26 -13 -45 -19q-32 -10 -96 -20t-108.5 9.5t-54 65t35.5 116.5q-15 -4 -56.5 -10
t-119 -12.5t-152.5 -6.5q-416 -2 -503 118q-14 19 -14 47l8 -2q0 -77 161 -118q210 -47 454 -33q162 10 229 25l13 17q59 70 132 78q15 5 17 -8q4 -16 -26 -38.5t-91 -44.5q-8 -3 -41 -11q-33 -58 -33.5 -99t24.5 -59t63 -24t78.5 0t74.5 18q20 7 39 16t27 14zM-130 -356
q52 55 125 165l-96 -48q-73 -37 -107 -72q-19 -18 -25 -39t-3.5 -33.5t8.5 -16.5q3 -5 8 -6q29 -11 90 50zM-207 418l-8 -8l31 9q44 15 71.5 32t34 26.5t5.5 14.5q0 2 -1.5 3t-3.5 0.5t-3 -1.5h-1q-69 -8 -125 -76z" />
    <glyph glyph-name="h.ss01" unicode="&#xe019;" horiz-adv-x="703" 
d="M765 220l7 -7l-49 -43t-115.5 -95.5t-156.5 -120t-149 -91.5t-116 -36q-40 4 -51 56.5t13 113.5q24 60 49 110.5t45.5 86t23.5 41.5q8 17 -11 16q-9 0 -29 -5q-53 -13 -119 -87q-25 -28 -56 -69l-49 -64.5t-22 -23.5q-14 0 -22 7q-18 12 -28 29q-9 22 -7 37t7 23
q67 147 125 255q-22 -12 -54 -23q-32 -10 -96 -20t-108.5 9.5t-54 65t35.5 116.5q-15 -4 -56.5 -10t-119 -12.5t-152.5 -6.5q-416 -2 -503 118q-14 19 -14 47l8 -2q0 -77 161 -118q210 -47 454 -33q162 10 229 25l13 17q59 70 132 78q15 5 17 -8q4 -16 -26 -38.5t-91 -44.5
q-8 -3 -41 -11q-33 -58 -33.5 -99t24.5 -59t63 -24t78.5 0t74.5 18q43 15 66 30q1 0 1 1l10 16l65 112q46 72 71 107q56 81 133 158l60 57q9 7 22 15q9 5 14 -1q4 -6 0 -16l-15 -35q-32 -64 -77 -131q-93 -134 -185 -235q-12 -14 -21 -30q-21 -38 -59 -116q-1 -4 -14 -35.5
l-36 -87l-41 -99.5l-12 -27l3 2q7 4 41.5 52.5t83.5 102.5t93 74q56 26 88 15q24 -7 10 -39l-49 -111q-104 -257 -28 -263q6 0 12 1q36 6 104 45.5t139.5 92l138 104.5l108.5 87zM185 466q-3 -8 -1 -10l13 14l103 133q33 43 63 90q27 39 56 98q8 16 10 30q-10 -6 -27 -25
q-29 -32 -83 -109q-45 -65 -134 -221zM-195 520q-1 -1 -3 -2.5t-3 -3t-2 -2.5l31 9q44 15 71.5 32t34 26.5t5.5 14.5q0 2 -1.5 3t-3.5 0.5t-3 -1.5h-1q-69 -8 -125 -76z" />
    <glyph glyph-name="t.ss01" unicode="&#xe01a;" horiz-adv-x="651" 
d="M692 221l4 -11q-1 -2 -4 -2q-113 16 -242.5 -43.5t-260.5 -200.5l-67 -74q-35 -39 -48.5 -50.5t-25 -12.5t-30.5 13q-29 21 -39 99t7 170l2 11l6 25q0 2 9 30q11 33 19 49q29 75 58 131q-33 4 -59 1.5t-44 -9.5t-29 -14.5t-16 -13.5l-6 -6l-5 8q5 6 15 14.5t52 20.5t96 6
l15 27l1 2q-39 -9 -76 -14q-64 -10 -108.5 9.5t-54 65t35.5 116.5q-15 -4 -56.5 -10t-119 -12.5t-152.5 -6.5q-416 -2 -503 118q-14 19 -14 47l8 -2q0 -77 161 -118q210 -47 454 -33q162 10 229 25l13 17q59 70 132 78q15 5 17 -8q4 -16 -26 -38.5t-91 -44.5q-8 -3 -41 -11
q-39 -74 -32.5 -115.5t47.5 -56.5t89.5 -12.5t93.5 17.5l58 99q32 53 71 107q58 82 134 158q40 38 61 56q4 4 23 16q10 4 14 -2q3 -6 0 -16q-2 -4 -7 -16l-8 -19q-30 -62 -76 -130q-90 -129 -186 -235q-12 -12 -22 -30l-20 -38q100 -18 135.5 -20.5t90.5 8.5q29 9 43 18.5
t14 15.5v5q22 -21 -5 -46q-15 -14 -49 -21t-97 -1.5t-138 29.5q-39 -78 -71 -155l-15 -34q-32 -79 -37 -159q-7 -52 -0.5 -102t33.5 -45q5 1 19.5 13.5t33.5 32l35.5 37.5l33 36t19.5 21q110 119 231 182.5t268 53.5zM213 470q-2 -7 -1 -10l13 14l104 132q13 17 64 90
q27 41 55 98q8 18 10 31q-12 -8 -28 -26q-25 -28 -83 -109q-41 -58 -134 -220zM-76 587l-8 -8l31 9q44 15 71.5 32t34 26.5t5.5 14.5q0 2 -1.5 3t-3.5 0.5t-3 -1.5h-1q-69 -8 -125 -76z" />
    <glyph glyph-name="u.ss01" unicode="&#xe01b;" horiz-adv-x="738" 
d="M780 231q2 1 0 -3q-2 -5 -1 -5q-1 -1 -88 -16l-181 -32.5t-108 -24.5q-19 -7 -31 -24q-4 -9 -11 -17q-31 -45 -58 -73q-8 -11 -20 -21q-14 -12 -30 -15q-14 -2 -24.5 5.5t-11.5 22.5q-3 17 0 35q3 24 9 48l10 29l1 1v3l1 1q48 111 72 147q-25 -23 -64 -74
q-15 -20 -71.5 -127t-82.5 -144q-13 -18 -29 -26q-27 -7 -46 7q-32 22 -38 75t11 100v4h1q0 2 1 4v2l1 1v1q1 1 1 2q3 10 8 23v1l2 4q36 100 77 155q-20 -10 -44 -18q-32 -10 -96 -20t-108.5 9.5t-54 65t35.5 116.5q-15 -4 -56.5 -10t-119 -12.5t-152.5 -6.5
q-416 -2 -503 118q-14 19 -14 47l8 -2q0 -77 161 -118q210 -47 454 -33q162 10 229 25l13 17q59 70 132 78q15 5 17 -8q4 -16 -26 -38.5t-91 -44.5q-8 -3 -41 -11q-33 -58 -33.5 -99t24.5 -59t63 -24t78.5 0t74.5 18q39 13 64 28q12 12 22 12q19 0 30.5 -6t13.5 -12l2 -6
q-16 -12 -63 -96q-34 -59 -47 -88l-5 -11q-4 -11 -9.5 -27.5t-11.5 -37.5t-8.5 -41t-2 -37t9 -27.5t24.5 -10.5q9 0 18 6.5t16.5 18t13 21t12 23l8.5 17.5q16 28 41.5 77.5l41 77.5t38 60.5t44.5 51.5q21 18 35.5 29t18.5 13l4 2q6 3 10 3q12 0 21.5 -2.5t14 -6t7.5 -7
t4 -6.5v-2q-13 -9 -64 -95q-77 -135 -79 -183q-2 -5 1 -8q4 -4 9 -2q8 3 14 9q14 12 19 19l43 56q14 18 26 35q16 19 35 27q23 9 159 32.5t219 34.5zM-160 472l-8 -8l31 9q44 15 71.5 32t34 26.5t5.5 14.5q0 2 -1.5 3t-3.5 0.5t-3 -1.5h-1q-69 -8 -125 -76z" />
    <glyph glyph-name="v.ss01" unicode="&#xe01c;" horiz-adv-x="924" 
d="M76 384v1q33 -22 51 -40q-28 -60 -68 -164q-7 -16 -13 -35q-27 -78 -28 -158q0 -96 15 -123q11 -16 25 -20t49.5 14t89.5 67q54 50 110 131t75 120q-6 67 15 139.5t44 95.5q18 19 47.5 25t54 1.5t31.5 -13.5q5 -6 -16.5 -50.5t-62.5 -114.5t-87 -137q19 -56 82 -67.5
t152 16.5t167.5 62.5t161.5 80.5l10 -13q-404 -212 -526 -148q-2 1 -9.5 6.5t-10 7.5l-9 7t-9.5 8t-7 7.5t-7 9t-5 9.5q-90 -128 -161 -188q-84 -71 -147 -88q-78 -13 -106 87q-11 49 -11 107q4 104 50 235q28 74 45 107q-28 -16 -62 -28q-32 -10 -96 -20t-108.5 9.5t-54 65
t35.5 116.5q-15 -4 -56.5 -10t-119 -12.5t-152.5 -6.5q-416 -2 -503 118q-14 19 -14 47l8 -2q0 -77 161 -118q210 -47 454 -33q162 10 229 25l13 17q59 70 132 78q15 5 17 -8q4 -16 -26 -38.5t-91 -44.5q-8 -3 -41 -11q-33 -58 -33.5 -99t24.5 -59t63 -24t78.5 0t74.5 18
q20 7 39 16t28 14zM532 425q-5 2 -14 4t-32 -4t-40 -25t-31.5 -69.5t-14.5 -126.5l66 107.5l50 84.5zM-190 531l-8 -8l31 9q44 15 71.5 32t34 26.5t5.5 14.5q0 2 -1.5 3t-3.5 0.5t-3 -1.5h-1q-69 -8 -125 -76z" />
    <glyph glyph-name="w.ss01" unicode="&#xe01d;" horiz-adv-x="976" 
d="M77 317v-1q5 4 12 4q19 0 30.5 -6t13.5 -12l2 -6q-13 -9 -64 -95q-63 -114 -76 -164q0 -7 -1 -16.5t6.5 -17.5t22.5 -7q38 2 94 50t113 147v1q12 33 25 64t21 46l7 14q1 0 4 -1v1q3 -1 9 -5v-1q28 -19 25 -47q-1 -10 -25.5 -58.5t-48.5 -104t-38.5 -131t3.5 -139.5
q19 -26 42 -29q53 -2 119 110q48 82 83 208q-11 139 6 177q8 17 35 21v1q53 4 57 -7q14 -6 -2 -78q-17 -102 -68 -204q-4 -53 4 -89.5t24 -42.5q26 -16 87.5 9.5t131 73.5t135.5 98.5t109 87.5l43 37l8 -11l-98 -85q-284 -236 -396 -227q-50 4 -59 61q-5 27 -7 57
q-2 -5 -4 -7q-30 -54 -68 -101.5t-64.5 -71t-35.5 -23.5q-2 0 -11 -1.5t-15 -1.5q-13 -3 -26 3q-2 0 -6 2q-2 1 -3 1q-6 2 -10 4.5t-5.5 4t-0.5 2.5q-34 36 -34 134q0 87 28 187q-38 -57 -94 -105q-8 -7 -21 -17t-45.5 -24t-55.5 -7q-13 4 -23 12q-17 7 -19 27q-2 18 -1 27
l1 8q3 24 9 48q2 4 5.5 14t5.5 15v1l2 4q44 113 80 159q-29 -13 -48 -20q-32 -10 -96 -20t-108.5 9.5t-54 65t35.5 116.5q-15 -4 -56.5 -10t-119 -12.5t-152.5 -6.5q-416 -2 -503 118q-14 19 -14 47l8 -2q0 -77 161 -118q210 -47 454 -33q162 10 229 25l13 17q59 70 132 78
q15 5 17 -8q4 -16 -26 -38.5t-91 -44.5q-8 -3 -41 -11q-33 -58 -33.5 -99t24.5 -59t63 -24t78.5 0t74.5 18q20 7 39 16t27 14zM-189 464l-8 -8l31 9q44 15 71.5 32t34 26.5t5.5 14.5q0 2 -1.5 3t-3.5 0.5t-3 -1.5h-1q-69 -8 -125 -76zM467 219q0 -27 1 -51q17 70 27 140
q-3 0 -8 -4t-12 -26t-8 -59z" />
    <glyph glyph-name="x.ss01" unicode="&#xe01e;" horiz-adv-x="679" 
d="M549 129q38 32 85.5 49t76.5 18l29 2v-10q-12 0 -32 -2.5t-73 -22.5t-94 -53q-43 -35 -144 -143.5t-126 -131.5h1l-6 -6t-15.5 -12.5t-23.5 -13.5t-28.5 -5t-31.5 8q-38 22 -81 204q-52 -57 -108 -102t-87 -62t-37 -16q-4 1 -10 5.5t-10 8.5l-3 4q51 14 125 66.5
t126 113.5l-15.5 68t-14.5 60q-2 32 -24 73q-25 43 -46 56q-23 -12 -55 -23q-32 -10 -96 -20t-108.5 9.5t-54 65t35.5 116.5q-15 -4 -56.5 -10t-119 -12.5t-152.5 -6.5q-416 -2 -503 118q-14 19 -14 47l8 -2q0 -77 161 -118q210 -47 454 -33q162 10 229 25l13 17
q59 70 132 78q15 5 17 -8q4 -16 -26 -38.5t-91 -44.5q-8 -3 -41 -11q-33 -58 -33.5 -99t24.5 -59t63 -24t78.5 0t74.5 18q35 12 59 25q31 36 75 22q22 -7 38 -66t33 -164q178 238 185 231l5 -6q-15 -7 -153 -204q-16 -24 -33 -45q9 -64 15 -98q15 -128 41 -139q25 -16 53 0
v1q223 231 309 302zM-269 452l-8 -8l31 9q44 15 71.5 32t34 26.5t5.5 14.5q0 2 -1.5 3t-3.5 0.5t-3 -1.5h-1q-69 -8 -125 -76z" />
    <glyph glyph-name="y.ss01" unicode="&#xe01f;" horiz-adv-x="689" 
d="M736 220l2 -13l-33 -37.5t-84.5 -81t-125.5 -97.5q-92 -60 -181.5 -99t-108.5 -50q-64 -142 -116 -203q-61 -70 -129 -78q-3 1 -17 -1t-38 6.5t-37 26.5q-22 30 -5 71t65 66l161 81q17 6 37 17l4 3q71 122 141 287l22 68l5 18q6 19 12 42.5l10 38.5l-24 -24l14 22
q-23 -19 -64 -74q-15 -20 -71.5 -127t-82.5 -144q-13 -18 -29 -26q-27 -7 -46 7q-32 22 -38 75t11 100v4h1q0 2 1 4v2l1 1q0 2 1 3q3 10 8 23v1l2 4q37 101 78 157q-26 -13 -45 -19q-32 -10 -96 -20t-108.5 9.5t-54 65t35.5 116.5q-15 -4 -56.5 -10t-119 -12.5t-152.5 -6.5
q-416 -2 -503 118q-14 19 -14 47l8 -2q0 -77 161 -118q210 -47 454 -33q162 10 229 25l13 17q59 70 132 78q15 5 17 -8q4 -16 -26 -38.5t-91 -44.5q-8 -3 -41 -11q-33 -58 -33.5 -99t24.5 -59t63 -24t78.5 0t74.5 18q38 13 67 30q9 9 19 9q19 0 30.5 -6t13.5 -12l2 -6
q-16 -12 -63 -96q-34 -59 -47 -88l-4 -11q-5 -11 -10.5 -27.5t-11.5 -37.5t-8.5 -41t-2 -37t9 -27.5t24.5 -10.5q9 0 18 6.5t16.5 18t13 21t12 23l8.5 17.5q16 28 41.5 77.5l41 77.5t38 60.5t44.5 51.5q20 18 34.5 29t19.5 13l4 2q6 3 10 3q8 0 12 -1l-11 -8h1l2 1
q5 -37 -61 -238l-2 -5q0 -2 -1 -5l-1 -1q-29 -91 -74 -196q154 50 290 146.5t229 205.5zM-11 -362q58 58 126 164l-98 -48q-74 -36 -110 -72q-18 -18 -24 -39t-3 -33.5t9 -16.5q5 -5 9 -6q18 -7 49 15.5t42 35.5zM-159 464l-8 -8l31 9q44 15 71.5 32t34 26.5t5.5 14.5
q0 2 -1.5 3t-3.5 0.5t-3 -1.5h-1q-69 -8 -125 -76z" />
    <glyph glyph-name="i.ss01" unicode="&#xe020;" horiz-adv-x="474" 
d="M90 298v-1q1 0 3 0.5t3 0.5q12 0 20.5 -2.5t13 -6t7 -7t3.5 -6.5v-2q-13 -9 -63 -96q-78 -137 -80 -182q-3 -5 1 -9q3 -4 8 -2q12 7 14 9q7 6 19 20q76 87 200.5 144.5t267.5 67.5q3 1 10 1q1 0 5 -4q-7 -5 -26 -7q-63 -6 -133.5 -24.5t-164.5 -68t-155 -120.5l-21 -21
q-12 -12 -29 -15q-14 -2 -24 5.5t-11 22.5q-1 13 1 35q6 34 11 48q6 20 10 30l1 1q0 1 0.5 2t0.5 2q47 115 82 160q-20 -10 -44 -18q-32 -10 -96 -20t-108.5 9.5t-54 65t35.5 116.5q-15 -4 -56.5 -10t-119 -12.5t-152.5 -6.5q-416 -2 -503 118q-14 19 -14 47l8 -2
q0 -77 161 -118q210 -47 454 -33q162 10 229 25l13 17q59 70 132 78q15 5 17 -8q4 -16 -26 -38.5t-91 -44.5q-8 -3 -41 -11q-33 -58 -33.5 -99t24.5 -59t63 -24t78.5 0t74.5 18q20 7 39 16t28 14zM146 337q-20 0 -34 15t-14 37t14 37t34 15t34 -15t14 -37t-14 -37t-34 -15z
M-176 445l-8 -8l31 9q44 15 71.5 32t34 26.5t5.5 14.5q0 2 -1.5 3t-3.5 0.5t-3 -1.5h-1q-69 -8 -125 -76z" />
    <glyph glyph-name="j.ss01" unicode="&#xe021;" horiz-adv-x="539" 
d="M541 146l11 -5q-102 -100 -208 -156q-135 -72 -309 -147q-24 -53 -60.5 -111t-66.5 -94q-60 -70 -127 -78q-3 1 -16.5 -1t-36 6.5t-34.5 26.5q-21 30 -5.5 66.5t62.5 61.5l77.5 44t83.5 46q23 9 65 37l4 3q0 1 -8 -3q128 208 175 459q-1 -1 -6 -2t-13.5 -4t-16.5 -8
l-11 -7q-39 -29 -59 -90q-15 -47 -19.5 -90.5t-2.5 -63.5l3 -19l-5 -2.5t-11 -3t-13.5 2t-9.5 17t-3 35.5q3 47 29 104.5t58 93.5l-30 -12q-32 -10 -96 -20t-108.5 9.5t-54 65t35.5 116.5q-15 -4 -56.5 -10t-119 -12.5t-152.5 -6.5q-416 -2 -503 118q-14 19 -14 47l8 -2
q0 -77 161 -118q210 -47 454 -33q162 10 229 25l13 17q59 70 132 78q15 5 17 -8q4 -16 -26 -38.5t-91 -44.5q-8 -3 -41 -11q-33 -58 -33.5 -99t24.5 -59t63 -24t78.5 0t74.5 18q33 11 61 26l2 2q29 19 57 25q11 3 18 3h7l-1 -2l2 -2q10 -19 -44 -214t-93 -241l245 114
q130 60 254 175zM-188 -368q90 94 145 178l-117 -62q-74 -39 -107 -71q-18 -18 -24 -39t-3.5 -34t7.5 -17q3 -5 9 -6q28 -11 90 51zM161 345q-20 0 -34 15t-14 37t14 37t34 15t34 -15t14 -37t-14 -37t-34 -15zM-158 442l-8 -8l31 9q44 15 71.5 32t34 26.5t5.5 14.5
q0 2 -1.5 3t-3.5 0.5t-3 -1.5h-1q-69 -8 -125 -76z" />
    <glyph glyph-name="k.ss01" unicode="&#xe022;" horiz-adv-x="767" 
d="M512 419q-53 -9 -86 -12.5t-40 -2.5l-6 1q-9 1 -41 -20q-14 -10 -36 -31t-37 -37l-14 -16q-21 -23 -72 -88q30 25 55 37q57 25 90 15q25 -8 12 -40q-153 -224 -141 -312q5 -41 26 -52.5t56 -7.5q58 7 194 98.5t242 178.5l107 88l8 -7l-52 -44.5l-122 -97.5t-165 -123
t-157 -94t-121 -37q-73 8 -60 108q3 25 11.5 49.5t27.5 55.5t34 53l48.5 68.5l53.5 75.5q10 15 -19 19q-23 4 -45 -1q-51 -10 -122 -87q-25 -28 -56 -68.5l-49 -64t-22 -23.5q-14 0 -23 6q-1 0 -1 1q-18 11 -29 28q-16 24 -2 60q67 147 125 255l11 22q-14 -8 -52 -22
q-32 -10 -96 -20t-108.5 9.5t-54 65t35.5 116.5q-15 -4 -56.5 -10t-119 -12.5t-152.5 -6.5q-416 -2 -503 118q-14 19 -14 47l8 -2q0 -77 161 -118q210 -47 454 -33q162 10 229 25l13 17q59 70 132 78q15 5 17 -8q4 -16 -26 -38.5t-91 -44.5q-8 -3 -41 -11q-33 -58 -33.5 -99
t24.5 -59t63 -24t78.5 0t74.5 18q37 13 66 29l62 107q46 72 71 107q58 82 134 158l62 56q6 6 22 16q11 4 14 -2q5 -5 1 -16l-15 -35q-31 -65 -77 -130q-90 -129 -186 -235q-12 -13 -21 -30q-31 -57 -58 -116q-22 -50 -90 -221q-8 -18 -11 -27q1 0 2 1q6 3 64 80l19 27.5
t47.5 63.5l68 84.5t73 77.5t70.5 55q44 25 82.5 27.5t52 -3.5t21.5 -13zM216 463q-2 -7 -1 -10l13 14l104 132q13 17 63 91q29 41 55 97q9 21 10 31q-10 -6 -27 -26q-31 -34 -83 -108q-40 -58 -134 -221zM-153 540l-8 -8l31 9q44 15 71.5 32t34 26.5t5.5 14.5q0 2 -1.5 3
t-3.5 0.5t-3 -1.5h-1q-69 -8 -125 -76z" />
    <glyph glyph-name="l.ss01" unicode="&#xe023;" horiz-adv-x="662" 
d="M703 208q7 -8 0 -12q-2 -2 -50.5 -6t-103.5 -9t-69 -8q-11 -3 -32 -14.5t-39 -23.5l-34 -23l-16 -12q-95 -81 -158 -149l-68 -74q-35 -39 -48 -50.5t-24.5 -12t-30.5 12.5q-30 20 -39.5 99t7.5 170l2 11v1q1 8 5 24q1 2 2.5 7t3.5 11l4 12v1l18 48q28 72 65 144
q-19 -11 -49 -21q-32 -10 -96 -20t-108.5 9.5t-54 65t35.5 116.5q-15 -4 -56.5 -10t-119 -12.5t-152.5 -6.5q-416 -2 -503 118q-14 19 -14 47l8 -2q0 -77 161 -118q210 -47 454 -33q162 10 229 25l13 17q59 70 132 78q15 5 17 -8q4 -16 -26 -38.5t-91 -44.5q-8 -3 -41 -11
q-33 -58 -33.5 -99t24.5 -59t63 -24t78.5 0t74.5 18q29 9 62 27l4 7l65 112l71 107q59 84 135 158q12 13 61 57q8 7 22 15q10 6 15 -2q4 -5 0 -15l-15 -35q-31 -65 -77 -131q-90 -129 -186 -235q-14 -15 -21 -30q-49 -90 -98 -204l-15 -35q-32 -84 -36 -159
q-7 -52 -1 -101.5t33 -45.5q5 1 19.5 13.5t34 32l36 37.5l33 36t19.5 21q64 69 147 136l7 5l20 16q78 56 116 59zM225 457q-3 -7 -1 -10l13 14l104 133q33 44 63 90q29 41 55 97q10 22 11 31q-9 -6 -28 -25q-31 -36 -83 -109q-40 -58 -134 -221zM-147 524l-8 -8l31 9
q44 15 71.5 32t34 26.5t5.5 14.5q0 2 -1.5 3t-3.5 0.5t-3 -1.5h-1q-69 -8 -125 -76z" />
    <glyph glyph-name="m.ss01" unicode="&#xe024;" horiz-adv-x="938" 
d="M82 299q14 17 27.5 24.5t20.5 6.5l7 -2q13 -1 20 -7t8 -11l1 -5q-16 -13 -64 -96q-80 -134 -87 -182h-1q-1 -5 0.5 -9t6.5 -3q3 1 37.5 62t85.5 132.5t92 94.5q42 24 77.5 27.5t52.5 -9.5t12 -35q-4 -17 -34.5 -82l-57 -122.5t-23.5 -63.5l7 10l21.5 27.5l31 39l38 45
t41.5 45t43.5 39.5t40.5 28q48 25 75 15q22 -7 7 -40l-57 -119q-116 -262 -39 -253h3q49 9 173 100t224 178l99 87l5 -7l-48.5 -44.5l-113 -97.5t-152 -123t-141.5 -94t-105 -37q-60 8 -38 108q13 58 79.5 176.5t84.5 133.5q16 12 -7 14q-12 0 -26 -3q-40 -11 -112 -88
q-53 -57 -89.5 -106.5t-47.5 -67t-15 -16.5q-13 3 -20 19.5t-2 50.5t25 77q26 56 57 102t46.5 65t13.5 23q-4 7 -19.5 12t-50 -3.5t-72.5 -37.5q-34 -25 -65.5 -66t-53 -79l-40.5 -72.5t-36 -51.5t-31 -9q-6 2 -11 9q-4 5 -4 13q0 1 -0.5 3t-0.5 3q1 2 1 6q0 1 -0.5 3
t-0.5 3q-2 34 29 113.5t60 128.5q-26 -14 -58 -25q-32 -10 -96 -20t-108.5 9.5t-54 65t35.5 116.5q-15 -4 -56.5 -10t-119 -12.5t-152.5 -6.5q-416 -2 -503 118q-14 19 -14 47l8 -2q0 -77 161 -118q210 -47 454 -33q162 10 229 25l13 17q59 70 132 78q15 5 17 -8
q4 -16 -26 -38.5t-91 -44.5q-8 -3 -41 -11q-33 -58 -33.5 -99t24.5 -59t63 -24t78.5 0t74.5 18q20 7 39 16t28 14zM-184 446l-8 -8l31 9q44 15 71.5 32t34 26.5t5.5 14.5q0 2 -1.5 3t-3.5 0.5t-3 -1.5h-1q-69 -8 -125 -76z" />
    <glyph glyph-name="n.ss01" unicode="&#xe025;" horiz-adv-x="726" 
d="M774 223l6 -7l-48.5 -44.5l-113 -97.5t-152 -123t-141.5 -94t-105 -37q-62 8 -38 108q21 85 60 170.5t68 138.5t30 69q1 10 -9 14q-49 10 -118 -41q-33 -25 -64.5 -66t-53 -79l-40.5 -72.5t-36 -51.5t-31 -9q-8 3 -11 9q-5 7 -4 13q-1 2 -1 6q0 1 0.5 3t0.5 3q-1 2 -1 6
q-3 34 29 116.5t62 129.5q0 1 0.5 1t0.5 1q-26 -13 -50 -21q-32 -10 -96 -20t-108.5 9.5t-54 65t35.5 116.5q-15 -4 -56.5 -10t-119 -12.5t-152.5 -6.5q-416 -2 -503 118q-14 19 -14 47l8 -2q0 -77 161 -118q210 -47 454 -33q162 10 229 25l13 17q59 70 132 78q15 5 17 -8
q4 -16 -26 -38.5t-91 -44.5q-8 -3 -41 -11q-33 -58 -33.5 -99t24.5 -59t63 -24t78.5 0t74.5 18q46 16 69 31q12 14 24.5 20t19.5 5l6 -2q13 -1 20 -7t8 -11l1 -5q-14 -10 -64 -95q-81 -136 -88 -183q-1 -5 0.5 -9t6.5 -3q3 1 37.5 62t85.5 132.5t92 94.5q42 23 78.5 27
t50.5 -9q2 -1 4 -2.5t8.5 -7.5t9 -14t4.5 -22.5t-5 -31.5q0 -6 -5 -16l-13 -27l-3.5 -7t-4.5 -7q-144 -300 -92 -329q8 -4 20 -2q31 6 93.5 45.5t129.5 92l129.5 104.5l102.5 88zM-182 458l-8 -8l31 9q44 15 71.5 32t34 26.5t5.5 14.5q0 2 -1.5 3t-3.5 0.5t-3 -1.5h-1
q-69 -8 -125 -76z" />
    </font>
</defs>
</svg>
