<?xml version="1.0" standalone="no"?>
<!DOCTYPE svg PUBLIC "-//W3C//DTD SVG 1.1//EN" "http://www.w3.org/Graphics/SVG/1.1/DTD/svg11.dtd" >
<svg xmlns="http://www.w3.org/2000/svg">
<metadata></metadata>
<defs>
<font id="tynabella_scriptregular" horiz-adv-x="745" >
<font-face units-per-em="2048" ascent="1536" descent="-512" />
<missing-glyph horiz-adv-x="368" />
<glyph horiz-adv-x="0" />
<glyph horiz-adv-x="682" />
<glyph horiz-adv-x="0" />
<glyph horiz-adv-x="0" />
<glyph unicode="&#xd;" horiz-adv-x="479" />
<glyph unicode=" "  horiz-adv-x="368" />
<glyph unicode="&#x09;" horiz-adv-x="368" />
<glyph unicode="&#xa0;" horiz-adv-x="368" />
<glyph unicode="!" horiz-adv-x="520" d="M0 117q3 46 39 82q44 32 82 32q44 0 80 -32q31 -39 28 -82q0 -46 -36 -82q-35 -35 -82 -35q-44 0 -82 35q-29 33 -29 82zM82 299l141 715q83 108 205 43l-192 -758q-101 -58 -154 0z" />
<glyph unicode="&#x22;" horiz-adv-x="559" d="M0 803l84 274h154l-123 -274h-115zM227 803l82 274h158l-127 -274h-113z" />
<glyph unicode="#" horiz-adv-x="905" d="M0 184l74 123h147l27 162h-187l76 123h131l68 389l123 45l-88 -434h161l66 389l123 45l-86 -434h178l-74 -123h-129l-32 -162h174l-76 -123h-123l-45 -227h-86l41 227h-172l-45 -227h-84l37 227h-199zM315 307h168l29 162h-166z" />
<glyph unicode="$" horiz-adv-x="591" d="M2 270q-6 54 16.5 106.5t71.5 78.5l80 -90q-49 -19 -71.5 -51t-12.5 -60q6 -24 34 -36t62 -7l35 246q-4 6 -10.5 12.5t-16.5 15.5t-16 15q-51 33 -76 88q-34 62 -16.5 131t84.5 108q54 25 115 31l18 129l84 43l-37 -176q98 -19 131.5 -91.5t11.5 -166.5l-110 68 q13 63 1 93.5t-42 33.5l-39 -218q2 -2 8.5 -4t7.5 -4q7 -6 40 -30.5t48 -40.5q43 -39 50 -84q23 -115 -51 -190t-185 -85l-29 -174h-41l27 174q-68 7 -116 40.5t-56 94.5zM223 686q3 -25 6.5 -33.5t16.5 -25.5l20 147q-21 -15 -34 -39t-9 -49zM236 227q53 24 73 86 q13 55 -37 105z" />
<glyph unicode="%" horiz-adv-x="862" d="M2 692q4 147 86.5 229t173 72.5t121.5 -90.5q14 -32 14 -72q-5 -169 -109 -251q-75 -59 -162 -45q-79 14 -110 82q-15 33 -14 75zM74 -2l553 1081h102l-553 -1081h-102zM115 760q-12 -103 30 -147q33 -34 73 -3q49 38 67 150q14 87 -25 143q-31 46 -69 26 q-54 -28 -76 -169zM375 160q4 148 86.5 230t173 72t121.5 -91q14 -32 14 -72q-5 -168 -109 -250q-76 -60 -163 -45q-79 14 -109 82q-15 33 -14 74zM487 227q-12 -102 30 -146q33 -34 73 -3q49 38 67 149q14 88 -25 144q-30 45 -68 26q-55 -28 -77 -170z" />
<glyph unicode="&#x26;" horiz-adv-x="1079" d="M0 227q0 53 16 115q23 64 54 111q75 112 202 145q-46 34 -67 78q-21 46 -21 94q0 58 23 111q22 49 65 98q38 44 99 72q63 26 127 26q121 0 186 -108q50 -83 42 -174q-8 -78 -55 -95q-52 -17 -128 54q67 93 35 168q-21 50 -73 59q-62 11 -107 -47q-23 -30 -36 -74 q-12 -50 -12 -72q0 -47 8 -67q20 -47 48 -78t51.5 -43t50.5 -25.5t39 -25.5q-156 -8 -243 -82t-87 -221q0 -101 80 -137q79 -34 182 12q117 53 185 179q12 23 22 48q-135 -26 -250 -29q14 20 28.5 37.5t26 31t28.5 26t25.5 20t27.5 17t25 13t27.5 11t24.5 8.5t26.5 8t24.5 7 q170 47 287 112q100 -32 41 -104q-49 -60 -164 -111q-61 -26 -106 -33q-17 -65 -58 -133q-41 -77 -106 -133q-63 -60 -139 -90q-79 -33 -176 -33q-76 0 -134 21q-54 23 -82 55q-32 34 -47 82q-16 50 -16 96z" />
<glyph unicode="'" horiz-adv-x="327" d="M0 805l82 272h154l-123 -272h-113z" />
<glyph unicode="(" horiz-adv-x="595" d="M1.5 133.5q-3.5 138.5 29 284.5t94.5 272t156 229t206 158l17 -57q-100 -50 -181.5 -173.5t-127.5 -280t-63 -321.5t7.5 -316.5t87.5 -245.5l-47 -43q-85 94 -130 224.5t-48.5 269z" />
<glyph unicode=")" horiz-adv-x="593" d="M0 -297q83 42 154.5 136t118.5 213.5t74.5 259t29.5 271.5t-23.5 252t-77.5 199l48 43q85 -94 129.5 -224.5t48 -268.5t-28.5 -283t-94 -270.5t-155.5 -228t-205.5 -156.5z" />
<glyph unicode="*" horiz-adv-x="583" d="M0 721l158 90l-158 92l90 47l111 -63v145l92 49v-194l113 65l86 -49l-158 -92l158 -90l-86 -49l-113 63v-145l-92 -47v192l-115 -63z" />
<glyph unicode="+" horiz-adv-x="632" d="M0 291l31 164h196l37 178h123l-37 -178h191l-29 -164h-197l-36 -178h-121l39 178h-197z" />
<glyph unicode="," horiz-adv-x="342" d="M0 -106q55 3 81.5 27.5t47.5 78.5q-59 8 -89.5 57.5t-10.5 104.5q19 46 63.5 67t89.5 2q40 -15 56.5 -59t5.5 -98t-38.5 -106t-79.5 -88.5t-114 -39.5z" />
<glyph unicode="-" horiz-adv-x="423" d="M0 317l27 115h305l-17 -115h-315z" />
<glyph unicode="." horiz-adv-x="323" d="M0 106q0 41 33 82q36 33 82 33q48 0 84 -33q32 -40 32 -82q0 -44 -32 -81q-36 -33 -84 -33q-46 0 -82 33q-33 38 -33 81z" />
<glyph unicode="/" horiz-adv-x="507" d="M0 -358l307 1435h109l-305 -1435h-111z" />
<glyph unicode="0" horiz-adv-x="874" d="M7 564q22 236 129 410q116 188 282 211q21 3 43 3q175 0 260 -172q79 -158 57 -395q-22 -235 -129 -410q-116 -188 -283 -212q-22 -3 -44 -3q-174 0 -259 172q-79 159 -56 396zM190.5 334.5q12.5 -258.5 139.5 -258.5q82 0 143 106.5t83.5 258.5t23 304t-34.5 258.5 t-94 106.5q-106 0 -189.5 -258.5t-71 -517z" />
<glyph unicode="1" horiz-adv-x="550" d="M3 30.5q4 16.5 27 30.5t52 15q2 0 21 -0.5t25 0t22.5 2t23.5 5.5t17 10.5t14.5 17t5.5 24.5q8 151 45 432t55 494q-43 -54 -89.5 -83.5t-82.5 -27.5q-23 1 -42.5 12.5t-27.5 23.5l-8 11q13 -1 73 42t125 93.5t124.5 83.5t73.5 15q5 -149 -35 -624.5t-47 -606.5h-363 q-13 14 -9 30.5z" />
<glyph unicode="2" horiz-adv-x="796" d="M0 0l16 123q15 112 49.5 205t77 154t90.5 112.5t93 92.5t82 82.5t59 94t22 115.5q0 88 -57 126q-57 36 -123 -5q-93 -58 -133 -230q-8 -9 -21.5 -10t-28.5 7t-27.5 22t-19.5 38t-5 52q-5 -13 -6 -2q-4 31 24 79q67 114 239 133q29 3 62 3q122 0 196.5 -56t74.5 -173 q0 -67 -23 -123.5t-60.5 -101t-83.5 -88.5t-95 -97.5t-92 -116t-77.5 -155t-48.5 -203.5q44 0 77.5 1.5t78.5 7.5t77.5 16.5t66.5 30t55.5 46.5t35 68t13.5 92q9 7 22 7.5t29 -9t30 -22.5t24 -33t12 -41q-7 -61 -29.5 -105t-54 -70t-77.5 -41.5t-93 -20.5t-109 -5h-342z" />
<glyph unicode="3" horiz-adv-x="800" d="M1 152.5q-2 39.5 26.5 65.5t76.5 36q39 -86 87 -132t92 -50.5t86.5 20t73.5 72.5t50 114t19 138q0 42 -9.5 70.5t-23.5 44t-43 23.5t-53.5 10t-69.5 3l11 78q43 1 75.5 12t54 25.5t36.5 43t22.5 50t11 63t4 65.5t0.5 73v12q0 59 -22 90t-78 31q-36 0 -63 -6t-61.5 -24.5 t-65 -62t-54.5 -110.5q-33 33 -48 58t-11 64.5t41 82.5q108 78 264 78q116 0 197.5 -70t81.5 -184q0 -118 -55 -207t-165 -111v-8q99 -9 148 -70.5t49 -162.5q0 -185 -100 -283t-285 -98q-163 0 -256 74q-42 43 -44 82.5z" />
<glyph unicode="4" horiz-adv-x="954" d="M3 338q6 15 26 31q46 13 91 50.5t85 96.5t66.5 104.5t60 112.5t41.5 82l139 301q40 -3 73 -29t33 -67q0 -73 -71.5 -221.5t-159 -275.5t-135.5 -154h326q5 39 18 279q16 294 64 408q64 151 202 93q-45 -103 -70 -217t-31 -194.5t-12 -192.5t-14 -176h121q12 -80 -63 -80 h-66l-35 -289h-346q-10 62 76 76q35 0 58.5 3t39 12.5t23.5 18t12.5 30t5.5 37.5t3 51t5 61h-391q-70 0 -117 -31q-22 15 -34 25.5t-21 25t-3 29.5z" />
<glyph unicode="5" horiz-adv-x="917" d="M1.5 160.5q-1.5 42.5 26 67t81.5 42.5q4 -67 15.5 -111t30.5 -64.5t37.5 -27t45.5 -6.5q67 0 118.5 28t81 75t44 104t14.5 121q0 87 -47 151t-132 64q-48 0 -98 -31q-30 -18 -48 -27t-37.5 -14.5t-26 5t-1.5 36.5l72 613l357 2q68 0 137.5 -18.5t107.5 -57.5 q53 -70 43 -117t-53 -70t-94 -18q45 92 -3.5 146.5t-148.5 54.5h-168l-51 -442q49 18 105 18q121 0 194.5 -77t73.5 -199q0 -200 -110 -311t-310 -111q-150 0 -215 75q-40 57 -41.5 99.5z" />
<glyph unicode="6" horiz-adv-x="763" d="M0 324q0 145 38.5 276t112 241.5t165 203t212.5 182.5q50 18 62.5 -1t-8.5 -67q-234 -187 -353 -465q72 88 179 88q130 0 197 -81.5t67 -213.5q0 -83 -11.5 -153t-39.5 -133.5t-72 -108t-112 -70.5t-156 -26q-157 0 -219 82t-62 246zM172 260q0 -29 2 -51t9 -48.5t19 -44 t34.5 -29t52.5 -11.5q33 0 61 12t47.5 30t35.5 48t26 57t17 67t10.5 67.5t5.5 69.5t2 62.5v55.5q0 80 -26.5 117.5t-105.5 37.5q-190 0 -190 -440z" />
<glyph unicode="7" horiz-adv-x="931" d="M0 45q69 30 126.5 97.5t97 154t74 185t65.5 196.5t63.5 183t75.5 150.5t94 92.5q-197 7 -222 7q-174 -3 -216 -72q-17 -27 -17 -66q-38 23 -60 43.5t-31.5 46.5t9.5 56.5t66 64.5q41 26 143.5 31t205.5 -3.5t202 -9t133 14.5l31 -113q-62 -17 -113 -67.5t-88.5 -122.5 t-70 -158t-66 -182.5t-69 -186.5t-86 -179.5t-109.5 -152.5q-19 -20 -35 -30.5t-43.5 -17.5t-67 2.5t-92.5 35.5z" />
<glyph unicode="8" horiz-adv-x="835" d="M0 254q0 68 25 146t79.5 143t124.5 73v5q-30 2 -54 21.5t-36.5 48.5t-19 58.5t-6.5 57.5q0 172 92 278.5t260 106.5q117 0 197.5 -67.5t80.5 -182.5q0 -44 -12 -94t-34 -98.5t-59 -85t-81 -46.5v-4q78 -18 122 -90t44 -155q0 -184 -105 -278.5t-292 -94.5 q-69 0 -125 13.5t-102.5 42t-72.5 80t-26 122.5zM202.5 206.5q25.5 -130.5 131.5 -130.5q94 -18 153.5 105.5t35 254.5t-131.5 131q-96 18 -155 -106t-33.5 -254.5zM296 758q12 -113 105 -113q68 0 103 41q22 27 39 79t22 111t-1.5 113t-34.5 89.5t-74 35.5 q-65 -10 -118 -126.5t-41 -229.5z" />
<glyph unicode="9" horiz-adv-x="763" d="M0 694q0 498 391 498q154 0 217.5 -84t63.5 -244q0 -182 -107 -411.5t-248 -361.5t-227 -62q234 187 356 465q-75 -88 -184 -88q-128 0 -195 79.5t-67 208.5zM175 640.5q14 -153.5 134 -153.5q100 0 159 156.5t35.5 312.5t-122.5 156q-82 -7 -151 -162.5t-55 -309z" />
<glyph unicode=":" horiz-adv-x="395" d="M0 195q0 51 35 81q35 35 80 35q47 0 82 -35q32 -28 32 -81q0 -52 -32 -80q-35 -35 -82 -35q-45 0 -80 35q-35 30 -35 80zM74 543q0 52 32 80q31 34 82 34q53 0 80 -34q35 -30 35 -80q0 -47 -35 -82q-29 -33 -80 -33q-49 0 -82 33q-32 32 -32 82z" />
<glyph unicode=";" horiz-adv-x="411" d="M0 -109q56 4 81 28.5t48 80.5q-16 0 -31 6q-46 19 -67 64t-2 90q17 46 62.5 66t92.5 3q40 -15 56 -59t5 -98t-38.5 -106t-80 -88.5t-114.5 -39.5zM88 471q0 49 33 82q35 35 82 35t82 -35q34 -31 34 -82t-34 -82q-30 -33 -82 -33t-82 33q-33 33 -33 82z" />
<glyph unicode="&#x3c;" horiz-adv-x="598" d="M0 342l14 61l455 224q22 -8 31.5 -17t0 -26t-45.5 -39l-359 -178l289 -142q43 -59 -18 -84z" />
<glyph unicode="=" horiz-adv-x="841" d="M27 139q-64 111 39 158h583q16 -29 20 -53t-9.5 -52t-49.5 -53h-583zM73 515q-5 22 8.5 51t53.5 57h584q73 -86 -37 -158h-586q-18 28 -23 50z" />
<glyph unicode="&#x3e;" horiz-adv-x="559" d="M0 106l14 82l359 179l-289 141l16 86l367 -203l-14 -61z" />
<glyph unicode="?" horiz-adv-x="651" d="M5 753.5q6 56.5 31.5 106t62.5 86t91.5 57t118.5 19.5q80 -1 136.5 -32t84.5 -75q41 -83 21 -162t-86 -141q-19 -19 -57 -56.5t-50 -50t-36 -39t-33.5 -43t-22 -41.5t-22.5 -54q-6 -30 -24.5 -51.5t-45.5 -23.5t-59 32q26 142 186 348q3 4 20.5 24.5t22.5 27.5t20 27 t19 30.5t13 29.5t8 32t-2.5 29.5t-11.5 31.5t-25 30q-26 33 -78 33q-69 0 -110 -63t-9 -128q2 -28 -3 -48t-22 -37t-50.5 -19.5t-86.5 4.5q-7 60 -1 116.5zM47 117q0 53 33 82q37 32 82 32q50 0 82 -32q35 -28 35 -82q0 -47 -35 -82q-30 -35 -82 -35q-47 0 -82 35 q-33 36 -33 82z" />
<glyph unicode="@" horiz-adv-x="821" d="M2 360q7 191 114 313.5t246 135.5q137 12 252 -57q132 -85 110 -241q-15 -113 -99 -209q-70 -80 -132 -85q-62 -4 -78 78q-1 2 -1 4q-26 -43 -61.5 -62.5t-64.5 -13t-47 41.5t-12 91q8 98 57.5 169t131.5 75q7 -1 26 -1.5t28.5 -3t22.5 -10.5t20 -26.5t9 -48.5 q-6 -32 -14 -67t-10.5 -48.5t-5.5 -35.5t-5 -52q-4 -43 18 -39q28 5 69 68q64 100 62 198q-2 120 -116 171q-81 32 -176 10q-97 -19 -165 -114t-72 -232q-2 -72 28.5 -126.5t80 -79.5t112.5 -30t125 21q25 -42 31.5 -71.5t-5.5 -44.5t-27 -21.5t-40 -10.5 q-83 -14 -159.5 3.5t-134 61.5t-90 119t-28.5 170zM281 367q8 -95 56 -53q50 45 120 216q-19 44 -72 19q-50 -25 -82 -86q-26 -49 -22 -96z" />
<glyph unicode="A" horiz-adv-x="1380" d="M2 822q2 36 25 61q37 39 99 55q54 13 107 14h17q34 -1 77 -2q34 0 72 1q87 2 152 16q162 36 248 104q114 123 284 129q4 0 8 1q51 0 91 -26q42 -27 55 -79h8q48 0 91 -42q21 -20 22 -31q0 -3 -3 -5q-1 -2 -5 -2q-28 0 -64.5 -216t-59.5 -430q-22 -205 -22 -237 q0 -33 20 -47t39 -10l19 2q3 -9 3 -18q1 -26 -25 -46q-27 -22 -72 -21q-10 0 -21 1q-40 3 -73 22q-60 40 -70 158q-86 -146 -195 -169q-19 -4 -37 -4q-76 0 -134 71q-87 106 -87 309v27q5 193 88 426q18 47 54 114q-39 -22 -101 -47q-81 -34 -187 -50t-176 -28t-95 -41 q-17 -19 -23.5 -37.5t-4.5 -31t6.5 -22.5t9.5 -15l5 -4q-1 -2 -2.5 -4t-9.5 -5t-18 -1q-33 6 -61 32t-42 59q-12 28 -13 58q1 6 1 11zM792 491q-13 -99 -12 -176q0 -102 22 -163q21 -56 58 -56q10 0 21 4q2 -1 4 -1q37 -1 103 241q70 254 116 514q32 179 33 236q0 26 -7 26 q-6 1 -12 1q-111 0 -204 -188q-89 -181 -122 -438z" />
<glyph unicode="B" horiz-adv-x="1507" d="M2 906q2 36 25 61q37 39 99 55q54 13 107 14h17q34 -1 77 -2q34 0 72 1q87 2 152 16q91 20 161 53.5t94 56.5l25 23q13 11 45 20q26 7 59 7h15q42 -2 68 -21q26 12 68 18q20 3 42 4q24 0 52 -4q52 -7 86 -32q44 -34 68 -84t26 -102q0 -6 1 -12q0 -47 -11 -95 q-29 -111 -133 -191q53 -9 100 -41q52 -43 80 -105q28 -63 28 -131q0 -63 -14 -130q-27 -108 -93 -186q-68 -78 -148 -89q-9 -1 -17 -1q-71 0 -141 79q-11 22 3.5 33t39.5 -2q8 -8 14 -8q19 -13 36 -13q30 0 58 37q44 59 62 164q7 47 9 86v16q0 32 -6 70q-8 47 -28 79 q-21 30 -64 50q-36 16 -85 17q-10 0 -21 -1q-4 -2 -10 -2q-21 -230 -40 -361.5t-46 -162.5q-49 -84 -145 -84q-14 0 -29 2q-24 4 -33.5 19.5t-7.5 28.5l2 14q5 -1 9 -1q25 0 48 31q10 15 16 59t23 225q31 332 62 630q4 20 4 68t-15 69q-103 -103 -256 -166q-81 -34 -187 -50 t-176 -28t-95 -41q-17 -19 -23.5 -37.5t-4.5 -31t6.5 -22.5t9.5 -15l5 -4q-1 -2 -2.5 -4t-9.5 -5.5t-18 -1.5q-33 6 -61 32q-28 25 -42 59q-12 29 -13 59q1 6 1 11zM1026 684q54 16 105 77t61 138q6 35 8 65v13q0 23 -4 51q-5 36 -20 60q-14 26 -45 42q-29 16 -71 15h-5 q8 -25 8 -51q0 -12 -2 -23q-24 -249 -35 -387z" />
<glyph unicode="C" horiz-adv-x="1331" d="M2 830q2 36 25 61q37 39 99 55q54 13 107 14h17q34 -1 77 -2q34 0 72 1q87 2 152 16q91 20 161 53.5t94 56.5l25 23h5q91 75 211 92q10 1 19 1q32 0 58 -13q34 -17 47 -55q55 -3 84 -40.5t32 -86.5q1 -14 1 -28q0 -36 -6 -75q-8 -54 -18 -89.5t-15 -45.5q-19 -27 -60 -47 q-40 -20 -74 -20q-1 1 -2 1q-35 0 -38 27q2 15 36 157q28 118 28 181q0 46 -15 61q-14 14 -39 9q-59 -12 -112 -80t-87 -167t-57 -220q-23 -120 -23 -240v-8q0 -116 15 -221q20 -111 75 -111q29 0 68 32q86 69 180 245q60 112 66 157q18 37 48 34q25 -2 30 -33q1 -5 1 -10 q0 -18 -9 -40q-37 -114 -100 -220t-138.5 -177t-140.5 -74q-18 -4 -36 -4q-27 0 -51 8q-42 14 -74 49t-58.5 84.5t-43 113t-26.5 132.5q-8 55 -7 113q1 16 1 32q2 76 13 148.5t34.5 144t57.5 131.5q-55 -30 -99 -47q-81 -34 -187 -50t-176 -27.5t-95 -40.5 q-17 -19 -23.5 -37.5t-4.5 -31t6.5 -22.5t9.5 -15l5 -5q-1 -2 -2.5 -4t-9.5 -5t-18 -1q-33 6 -61 32t-42 59q-12 28 -13 58q1 6 1 11z" />
<glyph unicode="D" horiz-adv-x="1632" d="M2 902q2 36 25 61q37 39 99 55q54 13 107 14h17q34 -1 77 -2q34 0 72 1q87 2 152 16q91 20 161 53.5t94 56.5l25 23q7 14 43 24q26 7 57 7q13 1 29 -1q48 -4 76 -32q29 13 64 20.5t85 11.5q9 1 18 0q43 0 91 -14q58 -16 113 -53q48 -31 82.5 -81t51.5 -104 q17 -56 24 -120q6 -53 6 -100q-1 -10 -1 -20q-2 -56 -9 -114q-39 -381 -234 -532q-54 -41 -111 -57q-28 -8 -56 -8q-30 0 -60 9q-60 17 -105 72q-11 22 3.5 33t37.5 -2q12 -8 19 -8q12 -10 27.5 -10t35.5 10q38 19 82 69q128 160 164 447q12 115 12 204q0 246 -94 283 q-69 25 -126 25q-50 0 -91 -19q3 -21 0 -49q-13 -114 -37 -387.5t-44.5 -417.5t-47.5 -176q-51 -84 -144 -84q-14 0 -28 2q-24 4 -34.5 19.5t-8.5 28.5l2 14q4 -1 9 -1q24 0 50 31q9 15 16 69t25 246q30 323 58 599q0 4 2 22t2.5 31t0 30t-3.5 31t-10 23 q-108 -108 -260 -170q-81 -34 -187 -50t-176 -28t-95 -41q-17 -19 -23.5 -37.5t-4.5 -31t6.5 -22.5t9.5 -15l5 -4q-1 -2 -2.5 -4t-9.5 -5.5t-18 -1.5q-33 6 -61 32q-28 25 -42 59q-12 29 -13 59q1 6 1 11z" />
<glyph unicode="E" horiz-adv-x="1271" d="M2 902q2 36 25 61q37 39 99 55q54 13 107 14h17q34 -1 77 -2q34 0 72 1q87 2 152 16q91 20 161 53.5t94 56.5l25 23l17 -2q35 17 80 26q10 1 19 1q32 0 59 -13q34 -17 45 -55q55 -3 89.5 -29.5t45 -61.5t10.5 -73t-5.5 -63.5t-10.5 -35.5q-20 -26 -61 -46 q-40 -19 -74 -19q-1 1 -2 1q-35 0 -39 26q2 18 13 68.5t16 88t5.5 78t-17 59.5t-52.5 11q-39 -8 -83 -86q-46 -78 -72 -179q-20 -75 -20 -132q0 -19 3 -37q2 -14 17.5 -19t36.5 -1.5t41.5 8.5t35.5 11l14 5q4 -3 8.5 -9.5t1 -23t-27.5 -31.5q-76 -81 -111 -142.5t-53 -156.5 q-6 -32 -6 -63q0 -44 12 -86q20 -71 66 -95q14 -7 30 -7q36 0 84 36q70 64 136 196t73 191q18 37 44 31q25 -6 25 -47q0 -21 -10 -45q-27 -86 -67.5 -165t-91 -144t-113.5 -103.5t-127 -38.5q-110 1 -178.5 72t-71.5 184v6q0 166 164 293q49 37 92 58q-61 2 -109.5 45 t-64.5 139q-3 18 -3 38q0 81 48 177q-46 -26 -80 -39q-81 -34 -187 -50t-176 -28t-95 -41q-17 -19 -23.5 -37.5t-4.5 -31t6.5 -22.5t9.5 -15l5 -4q-1 -2 -2.5 -4t-9.5 -5.5t-18 -1.5q-33 6 -61 32q-28 25 -42 59q-12 29 -13 59q1 6 1 11z" />
<glyph unicode="F" horiz-adv-x="1128" d="M2 838q2 36 25 61q37 39 99 55q54 13 107 14h17q34 -1 77 -2q34 0 72 1q87 2 152 16q160 36 256 111q74 90 199 110q11 1 22 1q79 0 102 -68q55 -3 89.5 -30t45 -61t11 -73t-5 -63.5t-10.5 -35.5q-21 -26 -62 -46q-40 -19 -74 -19q-1 1 -2 1q-35 0 -39 26q2 16 8.5 47 t11.5 59t10 61t4.5 58.5t-6 46.5t-21.5 30t-41 3q-38 -6 -78 -72q-15 -23 -27.5 -46.5t-22 -51.5t-17 -48t-13 -54t-9 -50t-7.5 -55.5t-5 -51t-4 -55.5t-4 -51q38 4 71 16.5t47.5 21.5t14.5 11q2 1 5.5 2t11.5 2t13.5 -1t9 -11t1.5 -24q-4 -31 -58 -54t-122 -28v-2 q-36 -405 -78 -449q-47 -84 -142 -84q-15 0 -30 2q-24 4 -34.5 19.5t-8.5 28.5l2 14q5 -1 10 -1q27 0 50 31q8 14 14 62.5t21 200.5q12 124 20 208q2 22 7.5 100.5t9.5 115t16 95t30 103.5q-55 -37 -131 -67q-81 -34 -187 -50t-176 -28t-95 -41q-17 -19 -23.5 -37.5 t-4.5 -31t6.5 -22.5t9.5 -15l5 -5q-1 -2 -2.5 -4t-9.5 -5t-18 -1q-33 6 -61 32t-42 59q-12 28 -13 58q1 6 1 11z" />
<glyph unicode="G" horiz-adv-x="1484" d="M2 807q2 36 25 61q37 40 99 56q54 13 107 13q9 0 17 -1q35 -1 77 -1q33 0 72 1q87 2 152 16q91 20 161 53.5t94 56.5l25 23h3q102 99 241 119q10 1 19 1q33 0 59 -13q34 -17 47 -55q55 -3 84 -40.5t32 -86.5q2 -16 2 -33q0 -34 -5 -70q-7 -54 -17.5 -89.5t-15.5 -45.5 q-20 -27 -60 -47t-74 -20q-1 0 -2 1q-34 0 -38 27q1 11 36 155q29 120 29 183q0 49 -18 64q-13 11 -35 6q-61 -12 -114.5 -80t-88.5 -167t-57 -220q-22 -116 -22 -230v-10q1 -120 18 -229q18 -111 71 -111q29 0 68 32q85 70 180 248q59 109 66 154q17 27 35 33q20 17 55 0 q31 -17 41 -42q9 -19 9 -65q0 -12 -1 -28q-3 -67 -24 -215q-10 -84 -10 -140q0 -99 33 -107q8 -2 16 3q-2 -4 -6.5 -10.5t-19.5 -21t-31 -21.5q-13 -5 -30 -5q-7 0 -14 1q-26 2 -53 20q-58 36 -58 174q0 54 9 125q-60 -97 -129.5 -158.5t-130.5 -62.5q-19 -4 -37 -4 q-25 0 -49 8q-40 13 -72 47t-59 82.5t-43.5 110.5t-26.5 130q-9 62 -9 129v13q1 75 11 147t32 143.5t54 131.5q-71 -41 -119 -59q-81 -34 -187 -50t-176 -28t-95 -41q-17 -19 -23.5 -37.5t-4.5 -31t6.5 -22.5t9.5 -15l5 -5q-1 -2 -2.5 -4t-9.5 -5t-18 -1q-33 6 -61 32 t-42 59q-13 28 -13 58q0 6 1 11z" />
<glyph unicode="H" horiz-adv-x="1632" d="M2 902q2 36 25 61q37 39 99 55q54 13 107 14h17q34 -1 77 -2q34 0 72 1q87 2 152 16q188 41 278 131q1 9 27.5 19.5t62.5 12.5h14q29 0 57 -6q35 -8 56 -42q16 -27 17 -67q0 -11 -2 -24q-8 -80 -21.5 -239t-19.5 -220q32 -8 63 -8l29 2q37 4 87.5 22.5t83 34t32.5 17.5 q2 0 4 2q27 290 33 389q8 115 109 136q22 5 43 5q39 0 76 -16q24 -10 24 -19q0 -3 -3 -5q-5 -3 -16 -5q-52 -6 -59 -146v-7q-20 -257 -47 -570q-19 -218 -21 -267q-1 -14 -1 -27q0 -30 5 -50q9 -16 21.5 -23.5t20.5 -6.5h9q0 -2 0.5 -6t-1.5 -13.5t-6.5 -17.5t-15.5 -15.5 t-28 -9.5q-15 -2 -28 -2q-93 0 -125 84q-20 25 -20 148q0 129 22 364q-57 -32 -145 -50q-52 -10 -92 -10q-28 0 -50 5q-2 0 -5 1t-5 1q-36 -411 -82 -459q-46 -83 -136 -83q-9 0 -18 1h-13q-39 0 -77 16q-44 18 -75.5 48.5t-51.5 67.5t-24 71q-10 42 -10 86t17.5 85t43.5 72 t68 48q35 14 75 14h14q7 -4 15 -11t16 -17t5.5 -22.5t-17.5 -23.5q-70 -48 -77 -177q-1 -16 -1 -31q0 -78 26 -128q16 -30 33 -30q12 0 26 15q4 4 7 9q15 22 44 331q30 318 57 583q0 4 2 22t2.5 31t0 30t-3.5 31t-10 23q-99 -104 -258 -170q-81 -34 -187 -50t-176 -28 t-95 -41q-17 -19 -23.5 -37.5t-4.5 -31t6.5 -22.5t9.5 -15l5 -4q-1 -2 -2.5 -4t-9.5 -5.5t-18 -1.5q-33 6 -61 32q-28 25 -42 59q-12 29 -13 59q1 6 1 11z" />
<glyph unicode="I" horiz-adv-x="1128" d="M2 902q2 36 25 61q37 39 99 55q54 13 107 14h17q34 -1 77 -2q34 0 72 1q87 2 152 16q91 20 161 53.5t94 56.5l25 23q5 10 32 20t63 12h10q32 0 60 -8q34 -10 54 -44q16 -27 16 -66q0 -11 -1 -23q-12 -107 -35.5 -386t-44 -421t-47.5 -174q-49 -84 -145 -84q-14 0 -29 2 q-24 4 -33.5 19.5t-7.5 28.5l2 14q5 -1 9 -1q25 0 48 31q10 15 16 59t23 225q31 332 62 630q4 20 4 68t-15 69q-108 -108 -260 -170q-81 -34 -187 -50t-176 -28t-95 -41q-17 -19 -23.5 -37.5t-4.5 -31t6.5 -22.5t9.5 -15l5 -4q-1 -2 -2.5 -4t-9.5 -5.5t-18 -1.5 q-33 6 -61 32q-28 25 -42 59q-12 29 -13 59q1 6 1 11z" />
<glyph unicode="J" horiz-adv-x="1157" d="M2 902q2 36 25 61q37 40 99 55q54 14 107 14h17q35 -2 77 -2q33 0 72 1q87 2 152 16q91 20 161 53.5t94 56.5l25 23h3q3 7 18.5 14.5t37.5 12t48 5.5q4 1 9 1q21 0 41 -7q24 -7 43 -21.5t28 -44.5q6 -18 6 -42q0 -13 -2 -27q-6 -60 -31 -358l-24 -273q-31 -307 -72 -350 q-46 -83 -137 -83q-9 0 -19 1h-13q-39 0 -77 16q-44 18 -74.5 48.5t-50.5 67.5t-24 71q-12 33 -12 69q0 19 4 39q10 56 35 101.5t74 72.5q42 24 93 24q7 0 15 -1q11 -5 21 -15.5t14.5 -27t-15.5 -31.5q-70 -48 -79 -177q-1 -19 -1 -36q0 -75 24 -123q15 -30 32 -30 q13 0 28 17q3 3 6 7q4 6 7 13.5t6.5 24t6 36.5t6.5 59t8 82.5t11 115t15 150t20 194t25 239.5q4 18 4 58q0 6 -1 11q0 49 -16 70q-93 -104 -260 -172q-81 -34 -187 -50t-176 -28t-95 -41q-17 -19 -23.5 -37.5t-4.5 -31t6.5 -22.5t9.5 -15l5 -4q-1 -2 -2.5 -4t-9.5 -5.5 t-18 -1.5q-33 6 -61 32t-42 59q-13 29 -13 59q0 6 1 11z" />
<glyph unicode="K" horiz-adv-x="1572" d="M2 902q2 36 25 61q37 39 99 55q54 13 107 14h17q34 -1 77 -2q34 0 72 1q87 2 152 16q188 41 274 127q-6 8 19 20q39 17 83 17q17 0 34 -2q91 -13 95 -104q1 -16 -1 -34q-5 -48 -37 -442q41 28 113 95.5t118 133.5q35 54 59.5 130t31.5 126l8 49q0 2 0.5 5t3 11t8.5 11.5 t17 5.5t28 -6q17 -9 31 -38q14 -28 20 -72q2 -20 3 -41q0 -25 -4 -53q-7 -50 -39.5 -106t-88.5 -102q-61 -54 -145 -108l6 -8q5 0 13 -0.5t32 -5t45.5 -11t48.5 -21t46.5 -34t33.5 -50.5t16 -69q0 -10 1 -21q0 -54 -8 -144q-10 -108 -16 -186q-2 -24 -2 -48q0 -52 10 -100 q14 -69 58 -83q18 -12 43 -4q14 4 25 15t11 -7q-1 -36 -33 -80q-45 -59 -108 -59q-16 0 -34 4q-38 9 -65.5 24.5t-45.5 37.5t-29 51t-16 65t-6 80v45v48q3 63 16 143q12 80 22 134q10 55 11 112q0 53 -18 84q-22 37 -121 51q-41 -24 -104 -49q-21 -224 -39.5 -344.5 t-46.5 -149.5q-46 -83 -137 -83q-9 0 -19 1h-13q-39 0 -77 16q-44 18 -75 48.5t-51 67.5t-24 71q-12 33 -12 69q0 19 4 39q10 56 35 101.5t73 72.5q42 24 94 24q8 0 15 -1q11 -5 21 -15.5t15 -27t-15 -31.5q-70 -48 -79 -177q-1 -19 -2 -36q0 -75 25 -123q15 -30 32 -30 q13 0 28 17q3 3 6 7q4 6 7 13.5t6.5 24t6 36.5t6.5 59t8 82.5t11 115t15 150t20 194t25 239.5q0 2 1.5 17t2 23.5t0.5 24.5t-1 26.5t-4 23t-8 20.5q-95 -101 -256 -168q-81 -34 -187 -50t-176 -28t-95 -41q-17 -19 -23.5 -37.5t-4.5 -31t6.5 -22.5t9.5 -15l5 -4 q-1 -2 -2.5 -4t-9.5 -5.5t-18 -1.5q-33 6 -61 32q-28 25 -42 59q-12 29 -13 59q1 6 1 11z" />
<glyph unicode="L" horiz-adv-x="1187" d="M2 902q2 36 25 61q37 39 99 55q54 13 107 14h17q34 -1 77 -2q34 0 72 1q87 2 152 16q91 20 161 53.5t94 56.5l25 23q5 10 33 20q26 10 62 12h11q31 0 59 -8q34 -10 53 -44q15 -27 16 -65q0 -12 -2 -24q-9 -91 -21.5 -234.5t-21.5 -248.5t-21 -214t-27 -180t-32 -98 q61 -4 123 -33q37 -17 51 -23.5t58 -26t69.5 -28.5t67.5 -22t70 -17t58.5 -3t51.5 10q3 -3 12 4.5t17 22t8 28.5q0 15 13 22t30 0t28 -28q6 -12 7 -34v-6q0 -20 -4 -42q-6 -26 -21 -52.5t-37 -47.5t-58 -31q-23 -6 -49 -6q-15 0 -32 2q-62 8 -122.5 34t-102 54.5t-95.5 62.5 t-96 52q-55 20 -97 20q-10 0 -20 -2q-50 -6 -78 -23l-28 -18q-2 2 -4.5 5.5t-6 15.5t-1.5 26q-18 6 -25.5 20.5t-5.5 25.5l2 12q5 -1 10 -1q26 0 47 31q10 15 16 59t23 225q31 332 62 630q0 4 2 22t2.5 31t0 30t-3.5 31t-10 23q-108 -108 -260 -170q-81 -34 -187 -50 t-176 -28t-95 -41q-17 -19 -23.5 -37.5t-4.5 -31t6.5 -22.5t9.5 -15l5 -4q-1 -2 -2.5 -4t-9.5 -5.5t-18 -1.5q-33 6 -61 32q-28 25 -42 59q-12 29 -13 59q1 6 1 11z" />
<glyph unicode="M" horiz-adv-x="1847" d="M2 902q2 36 25 61q37 39 99 55q54 13 107 14h17q34 -1 77 -2q34 0 72 1q87 2 152 16q175 39 266 118l14 15q6 14 49 26q23 6 49 6q22 0 47 -5q53 -10 75 -50q95 -95 153 -387q84 -392 84 -614q0 2 3.5 25t7.5 48t10 64t13 78.5t16 86t19 92t21 90t23.5 87.5t25.5 78 q43 121 86 203q101 168 162 194q28 11 63 11q24 0 50 -5q51 -10 61 -27q1 -2 1 -4q0 -7 -14 -10h-3q-12 -1 -22 -8t-16 -19t-10.5 -23.5t-7.5 -28.5t-4 -27.5t-2.5 -26.5t-1.5 -20q-20 -283 -46 -609q-15 -191 -17 -235q0 -9 -1 -16q0 -32 7 -54q8 -16 20 -23.5t20 -6.5h7 q-1 -1 0 -6t-1.5 -13.5t-6 -17t-14 -16t-25.5 -9.5t-29 -2q-96 0 -129 84q-14 18 -18 72q-2 24 -2 58q0 41 4 97q6 101 11.5 179t19.5 228t20 218q0 37 2 55l-30 -49q-39 -64 -76 -178q-43 -139 -77 -328.5t-47 -309.5l-13 -120q-6 -2 -16.5 -5t-39 -3t-53 10t-50.5 43.5 t-40 87.5q-18 66 -30 212.5t-29 284.5t-48 210q-4 -43 -10 -114.5t-10 -115.5t-10 -108t-10.5 -105t-11 -91.5t-12.5 -83.5t-13.5 -64.5t-15.5 -51t-17 -28.5q-44 -83 -134 -83q-9 0 -18 1h-13q-41 0 -79 16q-44 18 -75.5 48.5t-51.5 67.5t-24 71q-10 40 -10 82q0 47 19 89 q18 41 44 72t68 48q35 14 76 14h14q7 -4 14.5 -11t14.5 -17t5 -22.5t-16 -23.5q-70 -48 -77 -177q-1 -16 -1 -31q0 -78 26 -128q16 -30 33 -31q12 0 26 16q4 4 7 9q9 15 16 68.5t25 240.5q31 325 60 605q0 4 2 22t2.5 31t0 30t-3.5 31t-10 23q-108 -108 -260 -170 q-81 -34 -187 -50t-176 -28t-95 -41q-17 -19 -23.5 -37.5t-4.5 -31t6.5 -22.5t9.5 -15l5 -4q-1 -2 -2.5 -4t-9.5 -5.5t-18 -1.5q-33 6 -61 32q-28 25 -42 59q-12 29 -13 59q1 6 1 11z" />
<glyph unicode="N" horiz-adv-x="1691" d="M2 902q2 36 25 61q37 39 99 55q54 13 107 14h17q34 -1 77 -2q34 0 72 1q87 2 152 16q188 41 276 129q-1 12 35 24q30 10 70 10h17q51 -2 81 -32q111 -73 180 -408q38 -182 59 -336t23 -217l2 -63q3 -58 19 -70q13 -9 27.5 5.5t35.5 70t41 149.5q38 202 38 375 q0 164 -34 301q-15 57 -43 115.5t-48.5 89.5t-22.5 31q-3 0 -9.5 12.5t-0.5 27.5t34 19q17 2 37 4q5 0 11 1q17 0 39 -3q32 -4 60.5 -15t60 -36t54.5 -61t40 -95.5t20 -134.5q4 -38 4 -80q0 -81 -16 -180q-25 -150 -67.5 -276.5t-88 -223.5t-74.5 -121q-9 -13 -23.5 -24.5 t-25.5 -16.5l-10 -6q-2 -2 -6 -4t-15 -6q-11 -6 -22 -6h-2q-10 0 -23 6q-14 6 -25.5 19.5t-21.5 42t-16 69.5q-4 24 -21.5 167.5t-32.5 244t-47 230.5t-71 204l-13 -125q-5 -53 -13 -146.5t-12.5 -148.5t-12 -132t-14.5 -124t-15.5 -96t-18 -77.5t-20.5 -39.5 q-46 -83 -137 -83q-9 0 -19 1h-13q-53 0 -103 28q-56 32 -88.5 80.5t-37.5 94.5q-10 36 -10 72q0 35 9 71q19 72 75 120q50 43 118 43q8 0 17 -1q12 -5 22.5 -16t15 -27t-16.5 -31q-70 -48 -78 -177q-1 -19 -1 -36q0 -75 24 -123q15 -30 33 -30q13 0 28 17q3 3 6 7 q11 15 18 65t23 229q30 329 59 620q6 46 6 78q0 41 -10 57q-94 -99 -258 -168q-81 -34 -187 -50t-176 -28t-95 -41q-17 -19 -23.5 -37.5t-4.5 -31t6.5 -22.5t9.5 -15l5 -4q-1 -2 -2.5 -4t-9.5 -5.5t-18 -1.5q-33 6 -61 32q-28 25 -42 59q-12 29 -13 59q1 6 1 11z" />
<glyph unicode="O" horiz-adv-x="1404" d="M2 902q2 36 25 61q37 39 99 55q54 13 107 14h17q34 -1 77 -2q34 0 72 1q87 2 152 16q91 20 161 53.5t94 56.5l25 23h3q90 74 180 77q52 -9 76 -26q11 -9 20.5 -26.5t13.5 -30.5l4 -13q25 23 58 29q9 2 22.5 -0.5t34.5 -15.5t39 -36.5t35.5 -71t25.5 -112.5q7 -61 7 -131 q0 -5 1 -10q-1 -66 -7 -139q-6 -79 -22.5 -156.5t-41 -151.5t-63.5 -137.5t-87.5 -111.5t-115.5 -75.5t-146 -27.5q-99 0 -173 85t-105 229q-18 86 -18 181q0 64 8 132q27 215 129 387q-59 -33 -97 -47q-81 -34 -187 -50t-176 -28t-95 -41q-17 -19 -23.5 -37.5t-4.5 -31 t6.5 -22.5t9.5 -15l5 -4q-1 -2 -2.5 -4t-9.5 -5.5t-18 -1.5q-33 6 -61 32q-28 25 -42 59q-12 29 -13 59q1 6 1 11zM807 228q43 -136 133 -136q84 0 156.5 154.5t95.5 378.5q9 106 9 189q0 306 -122 306q-163 0 -270 -522q-23 -120 -23 -214q0 -90 21 -156z" />
<glyph unicode="P" horiz-adv-x="1380" d="M2 902q2 36 25 61q37 39 99 55q54 13 107 14h17q34 -1 77 -2q34 0 72 1q87 2 152 16q91 20 161 53.5t94 56.5l25 23q9 13 49 24q24 7 53 7q18 0 37 -3q50 -7 74 -41q108 48 199 48q84 0 152 -41q46 -28 70.5 -79t25.5 -105v-8q0 -49 -10 -99q-21 -72 -76 -134t-119 -95 q-62 -32 -125 -32h-6q-66 2 -106 46q-9 17 1.5 25t32.5 -1q3 -6 11 -6q13 -10 31 -11q20 1 46 13q50 22 95 80.5t53 128.5q3 28 2 55t-9 58.5t-25.5 54t-46.5 41t-72 19.5h-7q-41 0 -95 -11q0 -29 -3 -45q-12 -111 -34.5 -386t-42.5 -419t-50 -176q-47 -83 -151 -83 q-11 0 -23 1q-24 4 -33.5 19.5t-7.5 28.5l2 14q4 -1 7 -1q26 0 52 31q3 6 5.5 13.5t5.5 24t5.5 36.5t6 59t8 82.5t11 115t14 150t19 194t24.5 239.5q0 4 2 22.5t2.5 30.5t0 30t-4.5 32t-11 24q-99 -104 -258 -170q-81 -34 -187 -50t-176 -28t-95 -41q-17 -19 -23.5 -37.5 t-4.5 -31t6.5 -22.5t9.5 -15l5 -4q-1 -2 -2.5 -4t-9.5 -5.5t-18 -1.5q-33 6 -61 32q-28 25 -42 59q-12 29 -13 59q1 6 1 11z" />
<glyph unicode="Q" horiz-adv-x="1439" d="M2 902q2 36 25 61q37 40 99 55q54 14 107 14h17q35 -2 77 -2q33 0 72 1q87 2 152 16q91 20 161 53.5t94 56.5l25 23h5q75 60 159 63q1 -1 29.5 -10t42.5 -19q12 -10 23.5 -28t16.5 -30l5 -13q22 24 55 28q8 2 21 0t33.5 -14.5t39 -35.5t36 -70.5t26.5 -112.5 q6 -73 8 -154v-22q0 -73 -11 -154q-13 -95 -35 -182t-62.5 -169.5t-94.5 -139.5q17 -8 53.5 -25t59 -27.5t55.5 -24.5t62 -24t55 -14.5t45.5 -3.5t36.5 3.5t30 10.5t22 14t17 16.5t11.5 16t8.5 14t5 9.5q5 9 15.5 12t17.5 2l8 -2q2 -3 5.5 -9t10 -24t8.5 -37q1 -6 1 -13 q0 -14 -3 -31q-4 -26 -18 -50q-15 -29 -43 -50t-72 -30q-23 -4 -48 -4q-23 0 -49 4q-52 8 -120.5 43.5t-140.5 96.5q-57 50 -96 73q-94 -65 -217 -65q-99 0 -173 84.5t-105 229.5q-17 82 -17 172q0 68 10 141q27 224 135 397q-63 -33 -86 -41q-81 -34 -187 -50t-176 -28 t-95 -41q-17 -19 -23.5 -37.5t-4.5 -31t6.5 -22.5t9.5 -15l5 -4q-1 -2 -2.5 -4t-9.5 -5.5t-18 -1.5q-33 6 -61 32t-42 59q-13 29 -13 59q0 6 1 11zM788 580q-21 -114 -21 -206q0 -129 42 -212q28 17 92 20h7q47 0 128 -26q51 72 87 191t48 259q9 106 9 190q0 306 -121 306 q-83 0 -151.5 -136.5t-119.5 -385.5zM825 131q39 -57 97 -57q34 0 71 30q-69 33 -124 33q-23 0 -44 -6z" />
<glyph unicode="R" horiz-adv-x="1607" d="M2 902q2 36 25 61q37 39 99 55q54 13 107 14h17q34 -1 77 -2q34 0 72 1q87 2 152 16q91 20 161 53.5t94 56.5l25 23q15 13 53 22q20 5 43 5q19 0 41 -4q46 -8 70 -40q105 48 196 48q84 0 155 -42q45 -28 69.5 -78.5t24.5 -104t-13 -107.5q-21 -78 -78.5 -142.5 t-129.5 -95.5q20 -2 40.5 -5.5t53 -16.5t57 -32.5t44 -55.5t22.5 -82v-21q0 -52 -7 -140q-10 -108 -16 -186q-2 -24 -1 -47q-1 -53 9 -101q14 -70 58 -83l11 -6q31 -10 56 14q11 11 11 -6q-1 -35 -34 -78q-45 -60 -109 -60q-15 0 -32 3q-45 12 -75.5 32.5t-48 50.5t-25.5 70 q-8 39 -10 89q-1 21 -1 45q0 31 1 65q3 62 15 143.5t21.5 135.5t9.5 108.5t-18 85.5q-10 18 -37.5 30.5t-54 16.5t-49.5 6l-23 2q-53 6 -90 46q-7 17 4.5 25t30.5 -1q3 -6 10 -6q14 -10 32 -10q21 0 47 12q50 22 96 80.5t55 128.5q4 27 2.5 55t-9.5 59t-26 54t-47.5 41 t-73.5 19h-7q-42 0 -97 -11q3 -21 0 -45q-9 -90 -21.5 -240t-22 -255.5t-22.5 -217t-28.5 -179.5t-34.5 -89q-45 -83 -146 -83q-11 0 -22 1q-24 4 -35 19t-9 29l1 13h6q28 0 49 31q12 15 18 60.5t25 241.5q32 327 62 612q4 19 4 68t-15 71q-96 -101 -254 -166 q-81 -34 -187 -50t-176 -28t-95 -41q-17 -19 -23.5 -37.5t-4.5 -31t6.5 -22.5t9.5 -15l5 -4q-1 -2 -2.5 -4t-9.5 -5.5t-18 -1.5q-33 6 -61 32q-28 25 -42 59q-12 29 -13 59q1 6 1 11z" />
<glyph unicode="S" horiz-adv-x="1382" d="M2 824q2 36 25 61q37 39 99 55q54 13 107 14h17q34 -1 77 -2q34 0 72 1q87 2 152 16q188 41 278 131q62 93 168 110q29 5 56 5q29 1 55 -5q52 -10 87 -35.5t57.5 -55t29.5 -58.5q8 -35 8 -64q0 -12 -2 -23q-4 -37 -19.5 -62t-36.5 -41t-44.5 -25t-43.5 -12.5t-33 -3.5 l-13 -1q33 46 33 104q0 41 -17 88q-28 82 -84 122q-27 20 -50 20q-25 0 -43 -25q-16 -20 -24 -55q-8 -30 -8 -57.5t8 -54.5q15 -53 50.5 -95.5t81 -84.5t91.5 -90.5t82.5 -102t53.5 -129.5q10 -43 10 -90q0 -36 -6 -74q-23 -144 -151 -231q-98 -66 -224 -66q-39 0 -82 6 q-46 7 -85 44.5t-58 95.5q-18 55 -18 116v6q1 66 37.5 138t105.5 129l7 -5q7 -6 13.5 -12.5t6.5 -15t-11 -14.5q-16 -10 -36.5 -44t-37.5 -80.5t-19 -97.5q0 -8 -1 -16q-1 -42 11 -78q14 -42 61 -69q44 -25 113 -25h10t21.5 6t43.5 23.5t51.5 42t42 68t17.5 96.5 q-1 66 -27 126.5t-64.5 107.5t-79 89.5t-77 90.5t-51.5 93q-17 52 -17 103q0 34 8 67q-70 -53 -174 -96q-81 -34 -187 -50t-176 -28t-95 -41q-17 -19 -23.5 -37.5t-4.5 -31t6.5 -22.5t9.5 -15l5 -4q-1 -2 -2.5 -4t-9.5 -5t-18 -1q-33 6 -61 32t-42 59q-12 28 -13 58 q1 6 1 11z" />
<glyph unicode="T" horiz-adv-x="516" d="M0 1237q0 9 4 17q4 12 14 16q7 2 13 -11.5t11.5 -32t23.5 -36.5t47 -23q17 -3 42.5 4t48.5 17.5t69.5 32t84.5 36.5q128 52 264 70q78 10 141 10q48 1 88 -5q93 -14 124 -48q19 -20 25 -45q3 -11 3 -22q1 -13 -3 -25q-6 -22 -16 -41t-19 -30l-9 -11q-5 6 -16 16.5 t-62 30.5t-122 27q-26 2 -56 2q-117 0 -284 -37q12 -23 12 -56q0 -12 -2 -26q-11 -101 -36 -383.5t-45.5 -424t-47.5 -173.5q-47 -83 -149 -83q-11 0 -23 1q-24 4 -34 19.5t-9 28.5l2 14q4 -1 8 -1q27 0 49 31q12 15 18.5 63.5t24.5 248.5q30 324 58 602q5 55 5 84 q0 12 -1 20q-50 -9 -87 -9q-22 0 -40 3q-32 7 -55.5 21.5t-34.5 30t-16.5 30t-6.5 24.5l-2 9q-4 0 -4 14z" />
<glyph unicode="U" horiz-adv-x="1691" d="M2 902q2 36 25 61q37 39 99 55q54 13 107 14h17q34 -1 77 -2q34 0 72 1q87 2 152 16q189 42 276 129q5 10 33 20q26 10 62 12h13q29 0 57 -7q34 -9 53 -43q15 -27 15 -66q0 -12 -1 -25l-43 -489h-2q-4 -58 -6 -112v-30q0 -42 3 -92q4 -69 15.5 -120t37.5 -89t64 -45 q10 -2 20 -2q24 0 48 10q34 14 62.5 44.5t51.5 63.5t44 73q4 108 30 388t33 400q8 116 109 137q23 5 45 5q39 0 76 -16q23 -10 23 -18q0 -3 -3 -5q-4 -4 -16 -5q-12 -2 -21.5 -8.5t-15.5 -19.5t-10.5 -23.5t-7.5 -29t-4.5 -27.5t-3 -27t-1.5 -20q-21 -279 -47 -603 q-16 -196 -18 -240v-17q0 -32 6 -54q9 -16 21.5 -23.5t20.5 -6.5h9q-1 -1 0 -6t-1.5 -13.5t-7 -17t-15.5 -16t-27 -9.5q-12 -1 -23 -1q-102 0 -135 83q-15 21 -18 94q-120 -180 -290 -180h-9q-59 2 -103.5 34t-68.5 81.5t-38 110t-17 120.5q-2 45 -2 83v26q1 50 4.5 81 t5.5 33l45 441q4 19 4 68t-15 71q-95 -101 -256 -168q-81 -34 -187 -50t-176 -28t-95 -41q-17 -19 -23.5 -37.5t-4.5 -31t6.5 -22.5t9.5 -15l5 -4q-1 -2 -2.5 -4t-9.5 -5.5t-18 -1.5q-33 6 -61 32q-28 25 -42 59q-12 29 -13 59q1 6 1 11z" />
<glyph unicode="V" horiz-adv-x="1499" d="M2 902q2 36 25 61q37 39 99 55q54 13 107 14h17q34 -1 77 -2q34 0 72 1q87 2 152 16q91 20 161 53.5t94 56.5l25 23l13 -2q11 10 38.5 19t62 9t66 -10t49.5 -44q14 -25 15 -62q0 -12 -2 -25q-36 -393 -43 -490h-2q-14 -125 -18 -219q-2 -47 -2 -83.5t2 -62.5 q4 -52 14.5 -83.5t21.5 -41.5t25 -13q15 -3 31.5 25t44 105.5t54 163t79.5 250.5t104 316q43 138 111 215q24 20 55.5 23t59 -8.5t46.5 -41.5t19 -71q-8 0 -8 -2q-49 -18 -92 -56.5t-93 -123t-96 -210.5q-8 -23 -30.5 -90t-40.5 -118t-44.5 -123t-50.5 -124.5t-50.5 -102 t-53 -75.5t-49.5 -26q-82 2 -135 61.5t-71 140.5q-19 82 -23 166q-2 42 -2 77t2 63q4 56 8 61l45 441q0 3 2 24t2.5 34.5t-0.5 33t-6.5 33.5t-14.5 22q-103 -109 -262 -174q-81 -34 -187 -50t-176 -28t-95 -41q-17 -19 -23.5 -37.5t-4.5 -31t6.5 -22.5t9.5 -15l5 -4 q-1 -2 -2.5 -4t-9.5 -5.5t-18 -1.5q-33 6 -61 32q-28 25 -42 59q-12 29 -13 59q1 6 1 11z" />
<glyph unicode="W" horiz-adv-x="2111" d="M2 902q2 36 25 61q37 39 99 55q54 13 107 14h17q34 -1 77 -2q34 0 72 1q87 2 152 16q91 20 161 53.5t94 56.5l25 23q2 9 28.5 19.5t62.5 12.5h13q29 0 58 -7q35 -9 57 -43q17 -27 17 -68q0 -11 -2 -23q-18 -151 -43 -489h-2q-13 -126 -17 -220q-2 -50 -3 -87q0 -33 2 -58 q4 -52 14.5 -84t20.5 -42t24 -13h1q14 0 30 66q16 70 38.5 191.5t53.5 260t88 299.5t129 283q62 -11 97.5 -25.5t53.5 -32.5t19 -48v-7q0 -27 -7 -57q-8 -34 -23 -89t-29 -114.5t-25.5 -149t-13.5 -184.5v-15q0 -85 21 -170q23 -93 65 -136q49 -59 93 -59q46 0 88 63 q76 117 107 384q14 121 14 228q0 131 -21 241q-36 189 -122 201q-15 5 -12 14q3 14 51 19q26 4 49 4q170 0 234 -184q24 -74 23 -186q0 -91 -15 -205q-38 -274 -136 -465q-101 -201 -223 -201h-5q-113 4 -228 186q-37 58 -55 158t-19 194v21q0 86 8 186q8 112 15.5 169 t15.5 106q-43 -38 -80 -133.5t-60.5 -208.5t-49.5 -236.5t-48 -222.5t-54 -161q-30 -58 -64 -58h-6q-82 2 -134.5 61.5t-70.5 141t-23 165.5q-3 44 -3 81q0 33 2 59q4 56 8 61l45 441q0 3 2 22t2.5 31.5t0 30.5t-4.5 32t-11 23q-99 -105 -260 -172q-81 -34 -187 -50 t-176 -28t-95 -41q-17 -19 -23.5 -37.5t-4.5 -31t6.5 -22.5t9.5 -15l5 -4q-1 -2 -2.5 -4t-9.5 -5.5t-18 -1.5q-33 6 -61 32q-28 25 -42 59q-12 29 -13 59q1 6 1 11z" />
<glyph unicode="X" horiz-adv-x="1835" d="M2 869q2 36 25 61q37 40 99 56q54 13 107 13q9 -1 17 -1q34 -1 77 -1q34 0 72 1q87 2 152 16q57 13 107 31t80.5 35.5t52.5 32.5t31 25l9 9h3q15 17 53 35q38 16 86 26q15 3 30 4q33 0 65 -14q48 -20 73 -76q85 -222 176 -434h2q0 -10 24 -63q109 149 201 239 q75 73 120 74q10 0 19 -4q13 -2 29.5 -38t9.5 -50q-47 -4 -113 -53t-121.5 -108.5t-111.5 -131.5l37 -80v-2q123 -301 170 -340q29 -23 51.5 -26t35 7t30.5 31q16 20 34 28q20 9 32 -3q9 -9 9 -30q0 -7 -1 -15q-2 -25 -8 -51t-21.5 -60t-37.5 -60t-60 -45.5t-86 -21.5h-6 q-35 1 -74 33q-42 36 -81 98.5t-70.5 125t-61.5 134.5v-2l-33 80q-38 -57 -88.5 -143.5t-80 -125.5t-65.5 -60q-27 -20 -53 -20q-18 0 -35 9q-33 16 -30 45q1 13 12 25q5 0 10 -1q31 0 57 16q67 40 156 175q37 64 88 146l-248 594q-1 1 -5 11.5t-6.5 15.5t-8 15.5t-9 17 t-10 16.5t-12 16t-12.5 12t-14 10q-93 -106 -269 -180q-81 -34 -187 -50t-176 -28t-95 -41q-17 -19 -23.5 -37.5t-4.5 -31t6.5 -22.5t9.5 -14l5 -5q-1 -2 -2.5 -4t-9.5 -5t-18 -1q-33 6 -61 32t-42 59q-12 28 -13 58q1 6 1 11z" />
<glyph unicode="Y" horiz-adv-x="1583" d="M2 877q2 36 25 61q37 40 99 56q54 13 107 13q9 0 17 -1q35 -1 77 -1q33 0 72 1q87 2 152 16q57 13 107 31t80.5 35.5t52.5 32.5t31 25l9 9h3q16 18 47.5 32t72.5 20q8 1 17 1q33 0 68 -17q45 -22 79 -73q15 -25 121 -188l152 -232q16 58 33.5 113t40.5 120t48 116 t52 92.5t56 59.5q18 11 35 11q11 0 21 -4q14 0 45 -35.5t29 -48.5q-2 1 -5 2t-14.5 0t-24 -6.5t-32.5 -22t-41 -42.5q-62 -85 -204 -469h2q-11 -119 -17.5 -179.5t-17 -140.5t-22 -121.5t-25.5 -56.5q-51 -85 -140 -85q-9 0 -18 1h-10q-85 0 -152 64q-71 67 -78 141 q-10 42 -10 86t17.5 85t43.5 72t67 48q36 14 76 14h15q10 -4 20.5 -15t15.5 -27.5t-15 -31.5q-71 -47 -81 -175q-1 -18 -1 -36q0 -75 25 -125q16 -30 34 -30q12 0 26 15q4 4 7 9q11 16 18 70t25 246q10 106 16 172h2l-272 430q0 1 -5.5 10t-8 12t-8.5 12.5t-9.5 14.5t-10 14 t-11.5 14l-12 12t-13 11.5t-12.5 9t-13.5 6.5q-101 -107 -265 -174q-81 -34 -187 -50t-176 -27.5t-95 -40.5q-17 -19 -23.5 -37.5t-4.5 -31t6.5 -22.5t9.5 -15l5 -5q-1 -2 -2.5 -4t-9.5 -5t-18 -1q-33 6 -61 32t-42 59q-13 28 -13 58q0 6 1 11z" />
<glyph unicode="Z" horiz-adv-x="948" d="M2 114q-1 6 -1 11q0 28 22 57q216 216 364 379l98 111q-64 20 -116 20q-48 0 -94 -82q-10 -14 -11 -14q0 2 -7.5 10t-13 18t-7.5 23.5t10.5 31t40.5 36.5q43 28 96 28q37 0 78 -14q15 -7 55 -20q157 193 232 325q-19 4 -55 13t-59.5 14.5t-58 12.5t-62.5 11t-60 7.5 t-63 3t-60 -3.5q-45 -6 -75 -22t-40.5 -35t-15 -37t-2.5 -30l2 -12q-10 -6 -20 -6q-28 0 -62 40q-47 56 -53 129v11q0 66 59 125q43 26 130 26h3q90 0 222.5 -32t258.5 -86q35 -15 86.5 -40t73.5 -33q-41 -72 -121.5 -185t-177.5 -225q63 -22 94 -24.5t60 16.5q0 -2 8.5 -7 t12.5 -9.5t-1 -12.5l-11.5 -11.5t-18 -11t-30.5 -9.5t-43 2.5t-61 15.5l-41 14q-58 -64 -123 -129q-96 -95 -188.5 -188t-137.5 -139l-44 -46q14 -3 39 -6t95 -6q26 -1 52 -1q42 0 82 3q64 5 139 28t127 64q51 41 82 81t38.5 68.5t7.5 51t-6 34.5l-5 11q0 2 1 5.5t6 10 t12.5 9t22 -1.5t32.5 -17q23 -13 39 -52q15 -37 15 -86v-7q-1 -54 -21.5 -108t-80 -105.5t-151.5 -79.5q-90 -29 -182 -36q-37 -3 -69 -3q-47 0 -87 6q-64 10 -116.5 25.5t-78.5 28.5l-26 14q-33 9 -39 42z" />
<glyph unicode="[" horiz-adv-x="669" d="M0 -358l287 1435h291l-17 -90h-127l-252 -1257h127l-18 -88h-291z" />
<glyph unicode="\" horiz-adv-x="522" d="M0 1077h125l305 -1435h-127z" />
<glyph unicode="]" horiz-adv-x="671" d="M0 -358l18 90h127l252 1257h-127l17 88h293l-287 -1435h-293z" />
<glyph unicode="^" horiz-adv-x="546" d="M0 1040l256 269q40 40 76 4l123 -250q-23 -78 -86 -8l-86 116l-154 -122q-83 -67 -129 -9z" />
<glyph unicode="_" horiz-adv-x="630" d="M0 0l41 117h498l-37 -117h-502z" />
<glyph unicode="`" horiz-adv-x="352" d="M0 1384q27 13 52.5 18.5t53 2.5t51.5 -24t42 -58l61 -248q-24 -82 -113 0z" />
<glyph unicode="a" horiz-adv-x="712" d="M10 392q4 25 10 50q17 61 46 118.5t70 108.5t97.5 83t120.5 34h8q51 0 89 -25q41 -27 53 -79h8q47 0 88 -41q27 -28 17 -37q-1 -2 -5 -2q-30 0 -46.5 -111.5t-20.5 -244.5h2q0 -3 -0.5 -7t-0.5 -18v-25.5t1.5 -29t5.5 -29.5t10.5 -25.5t16.5 -18t23.5 -7t31.5 7.5 q34 16 60.5 68t36.5 96l9 45q14 31 43 32t41 -30q-1 -7 -3.5 -18.5t-13 -46t-23.5 -65.5t-36 -68.5t-50 -65t-66.5 -46t-83.5 -18.5q-86 0 -133 54q-44 39 -51 149q-110 -176 -208 -176q-7 0 -14 1q-72 8 -112 110q-30 77 -30 170q0 51 9 107zM189 164q10 -54 28 -58 q3 -1 6 -1q21 0 52 51q36 58 67 144q32 86 56 178q25 94 25 157q0 59 -26 67h-2q-25 0 -71 -58q-48 -60 -84 -150q-39 -88 -50 -182q-6 -49 -6 -88q0 -34 5 -60z" />
<glyph unicode="b" horiz-adv-x="788" d="M-58 66l1 18q43 6 63 33q16 19 25.5 90t42.5 410q31 308 53 530q0 2 1.5 15.5t2.5 21.5t2 23.5t0.5 25.5t-1.5 24.5t-4.5 24t-8 18.5t-12 14.5t-17.5 6.5q-32 4 -11 20q31 24 98 29q11 1 22 1q91 0 124 -63q14 -30 14 -71q0 -13 -1 -27l-49 -471q35 36 118 36h9 q90 -2 137 -42q78 -64 106 -164q17 -62 17 -124q0 -38 -6 -75q-17 -99 -66 -188q64 52 123 119q24 28 50.5 80.5t40.5 90.5l15 38q14 31 43 32t41 -30q-2 -10 -7 -26.5t-24.5 -64t-43.5 -91t-66 -95.5t-90 -88q-73 -54 -148 -90.5t-115 -46.5t-44 -6h-12q-95 0 -170 102 q-54 -107 -165 -107q-17 0 -36 3q-27 4 -40 24.5t-12 39.5zM234 329q-3 -36 -3 -69q0 -44 5 -80q9 -62 32 -63q21 -15 41 -14q40 0 77 59q55 89 68 236q2 30 2 58q0 123 -47 190q-25 37 -63 48q-3 1 -6 1q-23 -1 -45 -51q-25 -56 -40 -142t-21 -173z" />
<glyph unicode="c" horiz-adv-x="598" d="M7 222q-6 39 -6 81q-1 47 7 97q14 94 49.5 175.5t100 139.5t145.5 69q14 2 28 2q37 0 69 -16q44 -22 61 -70q29 -1 44 -24t15 -53t-3.5 -57t-10.5 -38q-32 -41 -95 -41q-15 0 -32 2q10 63 10 115q1 20 -1 38q-6 65 -34 65h-1q-31 0 -68 -67q-38 -68 -63.5 -150 t-31.5 -138q-9 -70 -9 -121q0 -33 4 -59q9 -65 30 -88.5t51 -13.5q65 20 132.5 79.5t117.5 132t86 139.5t51 116q3 0 8 0.5t17.5 -1t21.5 -4.5q8 -4 14 -12q4 -6 4 -13q0 -4 -1 -9q-8 -37 -37 -104.5t-90 -159.5t-129 -146q-87 -68 -157 -92q-37 -13 -76 -14q-33 0 -68 10 q-62 18 -101.5 82t-51.5 148z" />
<glyph unicode="d" horiz-adv-x="755" d="M2 288q2 56 14 111q15 59 42.5 117t67.5 110.5t97.5 89t122.5 44.5q16 3 31 3l59 -11l47 458q13 130 124 155q27 7 54 7q43 0 84 -17q31 -13 29 -24q-2 -8 -20 -10q-65 -8 -74 -174q-18 -169 -38.5 -361t-29 -275t-17.5 -170t-11.5 -123.5t-1.5 -59.5q3 -39 24 -60 q15 -9 27 -12q11 -2 35 8q34 16 67.5 68t50.5 96l17 45q14 31 43 32t41 -30q-2 -7 -5.5 -18.5t-17 -46t-29 -65.5t-42 -68.5t-56 -65t-70.5 -46t-85 -18.5q-82 0 -127 48q-64 43 -72 165q-44 -72 -87.5 -117.5t-81.5 -60.5q-27 -11 -53 -11q-9 -1 -19 1q-34 6 -60 30.5 t-45 64t-28 87.5q-8 41 -8 88q1 8 1 16zM196 294q-3 -33 -4 -60q0 -48 9 -79q13 -50 32 -51h4q29 0 74 95q63 136 95 305q14 75 14 119q0 58 -24 64q-2 1 -5 1q-25 -2 -72.5 -65t-78.5 -150q-36 -89 -44 -179z" />
<glyph unicode="e" horiz-adv-x="555" d="M4 229q-4 35 -5 72q0 49 8 103q14 94 50 174t100.5 137.5t145.5 68.5q14 2 28 2q37 0 69 -16q44 -22 61 -70q47 -19 47 -73q0 -30 -15 -71q-38 -103 -136 -203q-94 -95 -171 -109q-5 -40 -5 -69q0 -22 3 -38q6 -37 16 -48.5t31 -14.5q9 -2 19 -2q43 0 96 33 q65 40 121 104t101 134.5t61 123.5q3 0 8 0.5t17.5 -1t21 -5t14.5 -11.5q4 -6 3 -13q0 -4 -1 -9q-10 -45 -43.5 -107t-87.5 -126.5t-117 -115.5t-141 -74q-40 -12 -78 -12q-37 0 -73 11q-61 18 -99.5 80.5t-48.5 144.5zM188 332q59 32 130 137q82 120 82 190q0 48 -46 48h-1 q-31 0 -68 -67q-38 -68 -63.5 -150t-31.5 -138q-2 -8 -2 -20z" />
<glyph unicode="f" horiz-adv-x="532" d="M-125 -422q44 6 62 33q28 43 57 534q-14 5 -35 5q-17 0 -39 -3h-12q-4 0 -8 3.5t-6.5 12.5t2.5 23q9 44 66 44q15 0 34 -3q4 60 7.5 99.5t12.5 100.5t21 102t34.5 89.5t51 79.5t71 55t95.5 31q11 2 22 2q37 0 74 -18q49 -22 80.5 -61t45.5 -87q5 -18 5 -36q0 -29 -14 -56 q-29 -41 -93 -41q-15 0 -32 2q6 51 6 94q0 32 -3 59q-8 65 -36 65q-28 1 -50.5 -20t-38 -62.5t-27 -87.5t-19 -109t-11.5 -111.5t-8 -109.5q15 -10 50 -6.5t79 11.5t92.5 30.5t90.5 50.5t73.5 72.5t40.5 95.5q3 0 8.5 0.5t18 -1t21.5 -5t15 -11.5q4 -6 4 -14q0 -4 -1 -8 q-22 -83 -82.5 -148t-135.5 -99t-149 -49q-48 -10 -89 -10q-22 0 -42 3l-22 -385q-8 -58 -24 -102t-35.5 -69t-42.5 -42t-46 -21t-46 -6q-7 -1 -14 -1q-14 0 -26 3q-26 4 -39.5 24.5t-13.5 39.5v18z" />
<glyph unicode="g" horiz-adv-x="681" d="M17 440q1 1 1 2q18 61 47 118.5t70.5 108.5t98 83t120.5 34h8q51 0 89 -25q41 -27 53 -79h8q48 0 88 -41q27 -28 17 -37q-1 -2 -5 -2q-17 -9 -29.5 -37.5t-23 -86t-16 -102t-15.5 -132.5q63 49 130 97.5t107 76t44 31.5q22 19 39 5q16 -14 16 -41v-7q-4 -12 -48.5 -48.5 t-142.5 -111t-159 -123.5q-8 -74 -16.5 -133t-22.5 -128.5t-30.5 -122t-40 -103.5t-52 -83t-66.5 -51q-34 -18 -75 -18h-8q-86 3 -132 56q-38 43 -38 108q0 15 2 30q18 151 293 400l6 55q-95 -129 -178 -129q-16 0 -32 5q-71 23 -105 138q-21 69 -21 145q0 71 19 148z M134 -386q10 -30 38 -32h2q33 0 58 30q26 32 42 92t25 117t16 132q-154 -150 -174 -234q-11 -47 -11 -77q0 -17 4 -28zM189 164q10 -55 28 -58q3 -1 6 -1q20 0 52 51q36 58 67 144t56 178q25 95 25 157q0 59 -26 67h-2q-25 0 -71 -58q-48 -60 -84 -150q-39 -89 -50 -182 q-6 -49 -6 -88q0 -35 5 -60z" />
<glyph unicode="h" horiz-adv-x="765" d="M2 152.5q0 35.5 2 80.5q0 9 4 41l84 936q12 130 124 156q26 6 52 6q43 0 85 -17q31 -13 29 -24q-2 -8 -20 -10q-16 -2 -28.5 -11.5t-20 -29.5t-12.5 -33t-7.5 -40.5t-3 -32.5t-1.5 -27l-53 -494q35 53 79.5 85t102.5 42q13 2 26 2q46 0 95 -26q106 -51 107 -238 q0 -12 -1 -24q-2 -60 -16 -168t-15 -144q7 -96 58 -96q15 0 33 8q34 16 60.5 68t36.5 96l9 45q14 31 43 32t41 -30q-1 -7 -4 -18.5t-13.5 -46t-23.5 -65.5t-36 -68.5t-50 -65t-66.5 -46t-83.5 -18.5t-83 17q-100 11 -100 180q0 28 3 59q1 12 6.5 58.5t11 101t9.5 99.5 q5 58 5 99q0 56 -9 79q-6 15 -21.5 25.5t-40 10t-52.5 -13.5t-61 -51.5t-63 -97.5l-10 -101l-2 -2q-3 -38 -9.5 -95t-11 -93t-4.5 -72t7 -55q15 -43 51 -43q-1 0 -9.5 -13t-20 -28t-30.5 -28.5t-39 -16.5q-13 -2 -23.5 -2t-25.5 1.5t-26 7.5t-24.5 17t-20.5 28.5t-15 43 t-8 61z" />
<glyph unicode="i" horiz-adv-x="366" d="M2 188q0 12 -1 24q-1 54 5 112q6 72 18 141t20 127q8 54 9 90q0 41 -16 45q-14 3 -17 12q0 16 36 32q32 14 75 14h11q50 -2 81 -31q29 -26 35 -80q2 -20 2 -38q0 -33 -6 -63q-10 -48 -25 -111.5t-18 -88.5q-15 -107 -15 -169q0 -48 9 -69q8 -27 21 -38t22 -11q17 0 33 8 q34 16 70 68.5t55 97.5l20 45q14 31 43 32t41 -30q-2 -7 -6 -19t-18.5 -46t-31 -65.5t-44.5 -69.5t-58 -65t-71.5 -46t-85.5 -19q-63 0 -113 33q-39 18 -58.5 66.5t-21.5 111.5zM80 882q6 4 20 5q6 1 1 17.5t-12 43.5q-3 13 -3 27q0 17 4 37q10 53 70 68q20 5 39 5 q37 0 67 -20q30 -21 40 -58q4 -14 5 -29q0 -24 -11 -50q-17 -42 -62 -72q-21 -14 -45 -20q-16 -4 -29 -4q-6 0 -14 1q-20 3 -36 8t-25 10l-9 5q-1 1 -2.5 3t-3.5 7q-1 3 -1 6q-1 6 7 10z" />
<glyph unicode="j" horiz-adv-x="442" d="M-272 -283q-1 11 -1 23q0 52 19 104q22 64 70 126.5t101 116t126 114.5q5 61 14 205t15 219q9 129 112 156q26 7 52 7q39 0 76 -16q35 -16 30 -31q-2 -6 -20 -12q-10 -2 -27 -47q-7 -21 -12 -47t-10 -64t-7.5 -62t-7 -77t-6.5 -72q55 38 110.5 72t93.5 55l38 21 q18 11 33.5 12.5t27.5 -13.5t14 -48q-239 -149 -329 -213q-25 -250 -47 -361q-73 -399 -263 -399h-8q-82 3 -134 69.5t-60 161.5zM-174 -276q6 -63 22.5 -100.5t38.5 -39.5h3q58 0 86 108q30 110 55 388q-206 -189 -206 -335q0 -11 1 -21zM124 882q6 4 19 5q5 1 -1 16 t-12.5 46.5t-0.5 62.5q9 53 69 68q20 5 38 5q37 0 67 -20q31 -21 43 -58q4 -15 4 -32q0 -23 -9 -47q-16 -43 -60 -72q-21 -15 -45 -20q-16 -4 -29 -4q-7 0 -14 1q-19 3 -35.5 8t-25.5 10l-9 5q-1 1 -2.5 3t-3.5 7q-1 3 -1 6q0 6 8 10z" />
<glyph unicode="k" d="M2 240l100 970q13 130 124 155q27 7 54 7q43 0 84 -17q31 -13 29 -24q-2 -8 -20 -10q-65 -8 -74 -174l-43 -402q56 102 113 175q76 96 148 97q15 0 29 -5q54 -16 78 -77q13 -31 12 -59q0 -32 -16 -61q-5 -8 -10 -14q-40 -48 -106 -90q-17 -9 -44.5 -26.5t-31.5 -20.5 q23 -3 59 -17q74 -36 97 -135q10 -48 10 -111q0 -39 -4 -84l-8 -71h2q-1 -12 -2 -31.5t5.5 -60t22.5 -56.5q16 -8 29 -10l-2 -2q11 -2 35 8q34 16 60.5 68t35.5 96l10 45q14 31 43 32t41 -30q-1 -7 -3.5 -18.5t-13 -46t-23.5 -65.5t-36 -68.5t-50 -65t-66.5 -46t-83.5 -18.5 q-56 0 -101 25q-89 18 -89 174q0 30 3 64q17 176 17 258q0 48 -6 63q-15 32 -42 32q-28 0 -69 -34q-65 -70 -78 -139q-18 -172 -20 -234v-19q0 -44 8 -50q6 -12 20.5 -20.5t25.5 -10.5l11 -2q-1 -8 -3.5 -20.5t-19.5 -35t-44 -26.5q-20 -5 -42 -2.5t-44.5 6.5t-43 21 t-35.5 42t-24 69q-8 40 -8 91v11zM240 588q28 29 83 83t93 93t76 81.5t52 70.5q7 14 6 23q0 10 -7 15q-6 5 -15 5q-18 1 -44 -19q-40 -28 -90.5 -94.5t-94.5 -151.5q-48 -87 -57 -100q0 -1 -1 -3t-1 -3z" />
<glyph unicode="l" horiz-adv-x="391" d="M2 184q-2 31 -1 60q0 34 2 68q4 62 15 139l78 759q13 130 124 155q27 7 54 7q43 0 84 -17q31 -13 29 -24q-2 -8 -20 -10q-65 -8 -74 -174q-7 -72 -76 -715q-18 -176 -18 -240q0 -12 1 -21q2 -24 7 -36q10 -37 41 -49q21 0 37 8q34 16 71 68t58 96l20 45q14 31 43 32 t41 -30q-2 -7 -6 -18.5t-19 -46t-32 -65.5t-45 -68.5t-58.5 -65t-72.5 -46t-86 -18.5q-66 0 -111 33q-39 17 -60.5 62.5t-25.5 111.5z" />
<glyph unicode="m" horiz-adv-x="1177" d="M2 216q0 9 -1 18q1 56 9 114q10 68 19 134t17 120q7 45 7 77q-1 5 -1 11q-2 34 -15 39q-14 3 -17 12q0 22 58 40q24 7 48 7q35 0 70 -14q60 -26 62 -110q113 122 208 121q42 0 79 -23q71 -46 88 -121q0 -6 2 -8q65 78 157 116q51 21 94 21q35 0 64 -14q41 -20 65.5 -59 t32.5 -83q8 -41 8 -96v-6q0 -60 -5.5 -106.5t-13 -106t-9.5 -90.5q0 -16 1 -30t4.5 -32.5t9.5 -29.5t16 -21.5t24.5 -9.5t34.5 8q34 16 60.5 68t36.5 96l10 45q14 31 43 32t41 -30q-1 -7 -4 -18.5t-13.5 -46t-23.5 -65.5t-36 -68.5t-50 -65t-66.5 -46t-83.5 -18.5 q-45 0 -84 17q-105 8 -105 181q0 27 3 58q1 16 8 64.5t13 99.5t11 106q4 46 4 85v16q-1 46 -10 66q-12 29 -39.5 29t-62 -23t-68.5 -56t-67 -73l-21 -330q0 -8 -1 -16q0 -90 67 -113q-1 0 -9.5 -13t-19.5 -28t-30 -28.5t-39 -16.5q-22 -9 -50 -3t-53 20.5t-39 68.5 q-10 38 -10 93q0 23 2 50q10 171 39 383q3 45 -4 62q-14 34 -40 34q-48 0 -139 -109q-23 -28 -48 -62q-13 -70 -20.5 -112.5t-16.5 -108.5q-9 -63 -9 -108q0 -49 11 -73q6 -21 18 -33t18.5 -14t10.5 -2q-1 0 -9.5 -13.5t-20.5 -29t-31 -29t-39 -14.5h-13q-46 0 -77 24 q-35 28 -46.5 77t-13.5 113z" />
<glyph unicode="n" horiz-adv-x="772" d="M2 210q0 9 -1 18q1 56 9 114q10 68 19 134t17 120q7 45 7 77q-1 5 -1 11q-2 34 -15 39q-14 3 -17 12q-2 23 58 41q24 7 48 7q36 -1 72 -17q60 -28 60 -115q113 122 214 122q38 0 73 -17q53 -26 79 -82q26 -54 27 -126v-18q0 -62 -6 -122q-7 -68 -17 -139q-8 -59 -7 -94 v-13q10 -77 54 -77q15 0 34 9q34 16 60.5 68t36.5 96l9 45q14 31 43 32t41 -30q-1 -7 -3.5 -18.5t-13 -46t-23.5 -65.5t-36 -68.5t-50 -65t-66.5 -46t-83.5 -18.5q-47 0 -86 17q-100 12 -100 182q0 18 1 39v25l2 2q1 12 9 67t13.5 100t10.5 101q4 43 4 77q-1 10 -1 20 q-2 42 -9 63q-13 33 -39 34h-2q-25 0 -57 -26q-33 -28 -64 -63t-65 -83q-13 -70 -20 -112q-8 -44 -17 -110q-9 -63 -9 -106q0 -49 11 -73q6 -21 18 -33t18.5 -14t10.5 -2q-1 0 -9.5 -13.5t-20.5 -29t-31 -29t-39 -14.5h-13q-46 0 -77 24q-35 28 -46.5 77t-13.5 113z" />
<glyph unicode="o" d="M8 389q25 158 131.5 271t231.5 116q46 -8 61 -16q10 -6 19.5 -17.5t13.5 -19.5l4 -8q20 14 45 16q11 2 26.5 -1.5t37.5 -15.5t41 -45t28 -83q6 -47 6 -94q0 -38 -4 -76q26 0 47 8q22 8 40 22.5t27 30t15.5 29t7.5 22.5l2 9q14 31 43 32t41 -30q-2 -8 -6.5 -20.5 t-22.5 -45.5t-42 -59.5t-68.5 -50.5t-97.5 -29q-16 -68 -44.5 -125t-73.5 -106t-114 -77t-155 -28q-84 0 -146 52.5t-88 142.5q-15 52 -14 108q0 43 8 88zM231 149q32 -79 97 -79q57 0 108 83t70 205q-109 53 -195 217q-44 -75 -80 -213q-16 -67 -16 -120t16 -93zM410 662 q9 -25 37.5 -73.5t66.5 -90.5q-3 166 -88 166q-3 0 -8.5 -1t-7.5 -1z" />
<glyph unicode="p" horiz-adv-x="739" d="M-150 -428q44 6 64 33q16 21 32.5 136t49.5 435q5 47 14.5 139t15 147t9.5 119q3 43 3 73q0 16 -1 28q-1 16 -7 24.5t-13.5 9.5t-13.5 7t-7 18q-1 9 19.5 20.5t53 18.5t68 7t70 -17t53.5 -51q33 47 96 59q25 5 50 5q38 0 75 -11q61 -20 109.5 -72t54.5 -122q1 -22 1 -44 q0 -66 -13 -126q37 -4 59 6q36 13 59 41t28 49l5 22q14 31 43 32t41 -30q-2 -8 -7 -22t-25 -49t-47 -62t-77 -49t-110 -22q-47 -104 -134 -162q-74 -50 -165 -50q-14 0 -29 1q-43 3 -88 41l-41 -426q-43 -240 -209 -240q-16 0 -34 2q-27 4 -40 24.5t-12 39.5v18zM197 262 q18 -60 57 -80q19 -10 39 -10q21 0 45 11q44 22 76 79q30 62 41 109q-111 68 -215 196q-11 -46 -19 -99t-15 -122t-9 -84zM287 682q98 -121 188 -193q1 12 1 24q0 100 -38 165q-32 42 -76 42l-1 1q-42 0 -74 -39z" />
<glyph unicode="q" horiz-adv-x="702" d="M19 150q-19 67 -19 139q0 74 20 153q17 61 46 118.5t70 108.5t97.5 83t120.5 34h8q51 0 89 -25q41 -27 53 -79h8q48 0 88 -41q27 -28 17 -37q-1 -2 -5 -2q-10 0 -17.5 -17t-18.5 -69.5t-27 -157.5q-22 -122 -47 -305q-42 -236 -42 -331q0 -136 65 -136h3h4q32 0 50 42 q20 46 22 117v24q0 60 -6 123q-8 77 -25 142t-36 93l229 211h4.5t10.5 -1t14.5 -3t14 -6t10.5 -10q5 -7 5 -17q0 -9 -6 -20q-6 -15 -52.5 -56.5t-90.5 -75.5l-43 -34q46 -197 46 -332q0 -288 -208 -295h-5q-37 0 -66 12q-31 14 -50 42t-32 63.5t-17 85t-5 97.5v9q0 45 6 101 q5 62 11.5 114.5t16.5 116.5q-93 -126 -174 -126q-17 0 -33 6q-71 25 -104 141zM189 164q10 -55 28 -58q3 -1 6 -1q20 0 52 51q36 58 67 144t56 178q25 95 25 157q0 59 -26 67h-2q-25 0 -71 -58q-48 -60 -84 -150q-39 -89 -50 -182q-6 -49 -6 -88q0 -35 5 -60z" />
<glyph unicode="r" horiz-adv-x="638" d="M2 210q0 9 -1 18q1 56 9 114q10 68 19 134t17 120q7 45 7 77q-1 5 -1 11q-2 34 -15 39q-14 3 -17 12q-2 23 58 41q24 7 48 7q36 -1 72 -17q60 -28 60 -115q113 122 214 122q38 0 73 -17q33 -18 47 -50q12 -29 12 -64v-8q-2 -39 -8 -78q-5 -36 -4 -71v-7q0 -38 14 -62 q4 -6 8 -6q15 0 43 56l19 44q37 -10 37 -12t-6.5 -20t-20.5 -45.5t-32 -53t-45 -42t-56 -13.5q-45 6 -63 44q-17 34 -16 80v10q2 41 2 86v23q0 58 -9 103q-13 33 -39 34h-2q-25 0 -57 -26q-33 -28 -64 -63t-65 -83q-13 -70 -20 -112q-8 -44 -17 -110q-9 -63 -9 -106 q0 -49 11 -73q6 -21 18 -33t18.5 -14t10.5 -2q-1 0 -9.5 -13.5t-20.5 -29t-31 -29t-39 -14.5h-13q-46 0 -77 24q-35 28 -46.5 77t-13.5 113z" />
<glyph unicode="s" horiz-adv-x="577" d="M-98 -318q-3 17 -3 34q0 40 17 81q65 164 254 324q-4 15 -10 30.5t-13.5 35t-11.5 30.5q-24 59 -40 102.5t-31 97.5q-14 53 -18 93q-1 15 -2 32q0 24 4 50q6 42 24.5 73.5t55 58.5t89.5 44q41 12 77 13q10 1 20 -1q44 -4 74 -26t53.5 -53t32 -68t10.5 -73v-12 q0 -29 -9 -54q-15 -43 -38.5 -73.5t-48 -44t-44 -18.5t-35.5 -4q-4 1 -16 4.5t-19 3.5q4 -10 25 -53.5t29 -66.5q94 64 175 100q75 34 116 33h6q4 0 4 -6q10 -10 10 -29q0 -14 -6 -24q-7 -12 -17 -11q-123 -55 -258 -145q45 -134 55 -252q3 -35 3 -66q0 -77 -17 -141 q-24 -90 -90 -145.5t-168 -63.5q-9 -1 -17 -1q-54 0 -100 22q-54 25 -83 69t-39 100zM0 -227q-11 -36 -12 -67q0 -40 19 -68q30 -47 86 -47q6 0 13 1q94 10 118 140q8 42 7 88q0 99 -34 219q-154 -130 -197 -266zM214 591q-3 -22 -3 -41q-1 -32 7 -60q12 -44 38 -95 q70 38 84 154q4 30 4 55q0 65 -29 102q-18 21 -34 21q-8 0 -16 -5t-13 -15q-31 -59 -38 -116z" />
<glyph unicode="t" horiz-adv-x="434" d="M-201 947q8 15 19 22q39 16 49 -17q-3 -10 -3 -18q0 -37 50 -51q8 -1 17 -1q48 0 139 33l30 295q13 130 124 155q27 7 54 7q43 0 84 -17q31 -13 29 -24q-2 -8 -20 -10q-65 -8 -74 -174q-4 -36 -14 -146q36 14 101 45.5t112.5 51.5t103.5 36q38 11 73 12q15 0 31 -3 q48 -8 84 -41q51 -47 51 -102q0 -34 -20 -71q-30 -54 -81 -82q-42 -22 -47 1q-3 11 7 33q7 14 7 27q0 20 -14 38q-23 30 -56 43q-33 10 -62.5 10t-61.5 -8.5t-61 -19.5t-79.5 -29.5t-98.5 -32.5q-70 -668 -73 -729v-28q6 -36 24 -54q15 -9 27 -12q11 -2 35 8q34 16 75 78 t65 116l24 54q14 31 42.5 32t40.5 -30q-2 -8 -7 -21t-21 -51t-34.5 -73t-48 -77t-61.5 -72.5t-74.5 -51.5t-86.5 -21q-79 0 -125 46q-74 50 -74 205v12l63 612q-98 -25 -156 -25q-39 0 -61 11q-30 16 -44 36q-13 19 -13 36q0 19 10 37z" />
<glyph unicode="u" horiz-adv-x="780" d="M1 228q-1 15 -1 29q0 49 8 100q10 66 21 130.5t21 115.5q8 42 7 73v12q-2 34 -18 39q-13 3 -16 12q-1 25 65 43q22 6 43 6q42 0 81 -24q48 -29 48 -105q0 -17 -2 -36l-14 -70t-23.5 -131t-18.5 -140q-5 -42 -5 -78q1 -26 3 -48q6 -52 29 -62q11 -5 22 -5q33 0 67 43 q44 57 69 133.5t31 135.5q21 187 28 224q19 110 101 147q38 15 74 15q5 -1 11 -1q40 -2 67 -16.5t22 -28.5q-2 -6 -21 -12q-36 -7 -71 -221q-33 -202 -33 -323v-13q3 -57 33 -78q11 -6 28 -6l-2 -2q13 0 29 8q34 16 69 70t53 100l19 47q14 31 43 32t41 -30q-2 -7 -6 -19 t-18 -47t-30 -66.5t-43.5 -70.5t-57 -67t-71 -47t-85.5 -19q-79 0 -123 41q-63 40 -63 158q-45 -99 -67 -126q-37 -45 -116 -49q-20 -2 -45 -1q-66 2 -108 33.5t-57 81t-18 113.5z" />
<glyph unicode="v" d="M1 228q-1 15 -1 29q0 49 8 100q10 66 21 130.5t21 115.5q8 42 7 73v12q-2 34 -18 39q-13 3 -16 12q-1 25 65 43q22 6 43 6q42 0 81 -24q48 -29 48 -105q0 -17 -2 -36q-1 -6 -14.5 -72t-24.5 -133.5t-20 -143.5q-5 -42 -5 -76q0 -27 3 -49q7 -50 32 -55q6 -1 12 -1 q75 0 175 181q78 143 127 275q-46 118 -46 309q0 65 5 137q-6 11 16 47q10 20 40 32q16 6 35 6q17 0 37 -5q42 -11 75 -55q33 -45 37 -113q1 -14 0 -27q0 -52 -11 -100q-14 -60 -43 -145q-17 -53 -49 -121q18 -29 31 -33q24 -11 43 -6.5t34.5 19.5t25.5 31t16 29l6 13 l51 -24q-2 -4 -4.5 -11.5t-13 -27t-22.5 -36t-31 -33t-39.5 -24t-48.5 -3.5t-58 24q-14 7 -21 14q-112 -225 -219 -335q-93 -111 -199 -111h-6q-66 2 -108 33.5t-57 81t-18 113.5zM575 973q-3 -39 -3 -81q0 -92 16 -196q21 92 21 163q0 16 -1 32q-7 56 -33 82z" />
<glyph unicode="w" horiz-adv-x="1257" d="M1 228q-1 15 -1 29q0 49 8 100q10 66 21 130.5t21 115.5q8 42 7 73v12q-2 34 -18 39q-13 3 -16 12q-1 25 65 43q22 6 43 6q42 0 81 -24q48 -29 48 -105q0 -17 -2 -36q-1 -6 -14.5 -72t-24.5 -133.5t-20 -143.5q-5 -42 -5 -76q0 -27 3 -49q7 -50 32 -55q6 -1 12 -1 q24 0 50 18q33 23 65 70t60 95.5t56 111.5t43 98.5t30 74.5q13 73 13 114q0 47 -17 52q-14 3 -17 12q-2 25 64 43q22 6 44 6q42 0 82 -24q49 -29 48 -105q0 -17 -2 -36q-1 -6 -14.5 -72t-24.5 -133.5t-20 -143.5q-5 -42 -5 -76q0 -27 3 -49q7 -50 32 -55q8 -2 16 -2 q35 0 67 34q40 42 71 128q41 119 47 143q-43 95 -62 235q-16 119 -16 214v34q4 108 20 148q6 20 46 38q31 14 73 13q11 -1 22 -1q55 -4 93 -42q70 -72 90 -186q9 -51 8 -103q0 -65 -14 -133q-24 -122 -82 -241q13 -3 26 -3l40 7q33 12 56.5 33.5t42 44.5t27.5 40l9 17 l67 -10q-2 -6 -5.5 -15t-16 -38t-28.5 -50t-42 -51t-56 -42t-72 -22q-14 -3 -30 -3q-28 0 -59 12q-78 -132 -179.5 -212.5t-203.5 -80.5q-184 0 -184 245q0 27 2 58q-25 -57 -54.5 -106t-69.5 -96.5t-91 -74.5q-49 -26 -101 -26h-4q-66 2 -108 33.5t-57 81t-18 113.5z M934 756q4 -138 31 -230q23 106 23 232t-42 200q-13 -53 -13 -155q0 -22 1 -47z" />
<glyph unicode="x" horiz-adv-x="632" d="M-274 -100q-2 8 -2 14q0 10 8 14q13 6 48 9.5t79.5 11.5t110 44t128.5 97q42 36 76 94q-40 92 -113 367q-16 98 -16 126q0 55 23 81q24 28 65 28q23 0 33 -2q38 -9 53 -24q6 -22 -2 -33q-6 -7 -6 -27q0 -29 12 -87q20 -98 60 -222q10 22 44 98t48.5 106t42 81.5t50.5 81 t48 49.5q38 31 74 41q24 6 42 6q10 0 16 -2q22 -4 43.5 -20.5t28.5 -25t15 -20.5h2l-2 -2l2 -2l-6 -4q-19 -27 -50.5 -77t-72 -118t-60.5 -121q-12 -30 -12 -46q0 -13 7 -17q22 -14 54.5 8.5t54.5 52.5l22 29q29 -30 33 -32q1 -1 -9.5 -16.5t-30 -37t-43.5 -42.5t-54 -34 t-56 -10q-46 4 -46 81q0 19 3 42q-67 -103 -137 -200q44 -122 72 -150q14 -7 29 -9t23 -1l9 2q16 -16 16 -41q-1 -15 -23 -28t-62 -15h-7q-37 0 -86 22q-42 21 -82 76q-85 -89 -166 -144q-81 -56 -137 -72q-55 -16 -99 -16h-3q-44 0 -66 12t-26 24z" />
<glyph unicode="y" horiz-adv-x="811" d="M1 226q-1 14 -1 29q0 49 8 100q10 66 21 130.5t21 115.5q7 42 7 73v12q-2 34 -18 39q-13 3 -16 12q-1 25 65 43q22 6 43 6q42 0 81 -24q48 -29 48 -105q0 -17 -2 -36q-1 -6 -14.5 -72t-24.5 -133.5t-20 -143.5q-5 -42 -5 -76q0 -27 3 -49q7 -50 32 -55q6 -1 13 -1l65 39 q39 47 71 131.5t57 175t44 188.5q13 129 117 156q26 7 52 7q39 0 76 -16q35 -16 30 -31q-2 -6 -21 -12q-11 -2 -28 -47q-12 -37 -22.5 -95.5t-16.5 -109t-16.5 -141.5l-16.5 -143q51 21 107.5 43t86 33t33.5 14q14 11 28.5 -6.5t24.5 -49.5q-61 -31 -165.5 -81t-129.5 -62 q-19 -126 -34 -199q-83 -399 -275 -399h-8q-77 3 -128 60.5t-56 138.5q-1 9 -1 17q0 209 308 388l18 170q-18 -53 -41 -96.5t-54.5 -83.5t-72.5 -62q-40 -20 -86 -20h-4q-66 2 -108 33.5t-57 81t-18 113.5zM211 -297v-5q0 -48 17 -79q18 -33 40 -35h2q35 0 60 41 q26 42 45 124.5t37 223.5q-98 -61 -149 -125t-52 -145z" />
<glyph unicode="z" horiz-adv-x="698" d="M-125 -252q103 321 475 545q-38 71 -133 110q-24 -5 -40 -5t-26 5.5t-5 21.5t26 42q63 77 160 133q-54 8 -139.5 31.5t-102.5 23.5q-11 0 -19.5 -2t-14 -4.5t-9 -6t-5.5 -6.5t-3.5 -6l-2 -4t-1.5 -1q-4 2 -12 8.5t-21 22t-21 34t-6.5 46.5t17.5 57t63 29q1 0 2 1 q47 0 105 -19q60 -19 128 -39t126 -32q27 -6 52 -6q29 0 54 8q0 -2 10 1t21.5 12t15.5 22q5 19 21 -1q20 -26 14 -52q-14 -46 -50.5 -79t-76 -49t-92.5 -43t-88 -57l-29 -26q106 -43 183 -117q160 82 280 114q24 5 37.5 -15.5t19.5 -49.5q-3 -3 -39 -17.5t-104 -44 t-131 -61.5l27 -47q25 -53 31 -114q2 -18 2 -36q0 -41 -9 -83q-13 -58 -39 -119.5t-64.5 -114t-83.5 -101.5t-95 -83.5t-100 -59t-98 -28.5q-12 -1 -24 -1q-35 0 -65 9q-76 26 -111 100q-20 43 -20 89q0 32 10 65zM-36 -356q6 -36 28 -45q12 -4 27 -4q17 -1 38 5 q39 10 83.5 40t92.5 91t84 144q66 171 66 285q0 20 -2 39q-349 -215 -410 -465q-9 -36 -8 -64q-1 -14 1 -26z" />
<glyph unicode="{" horiz-adv-x="634" d="M0 -201q3 56 25 121q8 25 25.5 67t23.5 60q6 15 17 39.5t19.5 44.5t14.5 37q8 19 10.5 26t8.5 24t6.5 24.5t2 21t-2.5 20t-10 14.5t-18 12t-28 5q-29 2 -80 2l47 82q7 1 27.5 1.5t28 1.5t22.5 4t23 8.5t17 15t16 23.5q5 16 14 55l4 51q3 65 -2 121v111q0 37 18 90 q14 50 47 94q26 40 82 74q51 28 119 28h66l-33 -71q-34 0 -57 -5q-40 -12 -58 -32q-40 -40 -59 -92q-11 -42 -14 -109q-3 -58 0 -121q7 -125 -31 -287q-34 -142 -92 -284q-46 -129 -47 -133q-19 -54 -27 -119q0 -37 2 -51q4 -27 12 -35q14 -17 37 -25q21 -6 68 -6l14 -63 h-72q-92 -3 -141 43q-45 36 -45 112z" />
<glyph unicode="|" horiz-adv-x="223" d="M0 -358v1435h131v-1435h-131z" />
<glyph unicode="}" horiz-adv-x="634" d="M0 -358l33 71q39 0 57 4q34 10 57 33q43 43 58 92q14 43 14 109q6 60 0 123q-4 134 31 286q41 167 94 283l47 133q22 75 25 119v51q-4 26 -15 35q-10 17 -34 25q-21 6 -68 6l-16 65h73q96 0 142 -43q46 -40 43 -114q0 -48 -25 -121q-8 -26 -25 -69t-22 -58 q-28 -61 -53 -121q-28 -75 -26 -100q3 -42 59 -48q16 0 42 -1t35 -1l-47 -82q-6 0 -21 -0.5t-21 -0.5t-18.5 -1.5t-18 -3.5t-15 -6t-15 -9t-11.5 -13.5t-11 -18.5q-12 -36 -14 -53q-4 -16 -4 -53q-3 -60 0 -119q3 -54 0 -111q0 -43 -17 -90q-15 -53 -47 -96q-34 -46 -82 -72 q-50 -30 -121 -30h-63z" />
<glyph unicode="~" horiz-adv-x="667" d="M0 1032q35 71 98 105q53 34 142 34q39 0 69 -6q44 -10 58 -16q28 -10 53 -16q31 -9 57 -9q15 0 51 9q19 11 29 28l18 -2q-6 -26 -26 -53q-22 -25 -55 -45q-30 -21 -70 -33q-38 -14 -80 -14q-28 0 -68 8q-37 11 -57 20q-15 3 -57 17q-27 10 -58 10q-18 0 -30.5 -6.5 t-19.5 -13.5t-21 -27z" />
<glyph unicode="&#xa4;" horiz-adv-x="620" d="M0 702l55 52l82 -82q54 45 129 45q38 0 68 -12q27 -7 61 -31l80 82l53 -51l-79 -80q40 -54 40 -133q0 -78 -40 -132l79 -79l-53 -52l-78 80q-27 -21 -61 -30q-32 -13 -70 -13q-74 0 -131 45l-82 -82l-51 52l82 81q-22 28 -33 60q-10 33 -10 67q0 37 10 70q12 35 33 59z M123 492q0 -60 43 -103t100 -43q56 0 105 43q41 44 41 103q0 58 -41 102q-46 43 -105 43q-60 0 -100 -43q-43 -43 -43 -102z" />
<glyph unicode="&#xa8;" horiz-adv-x="526" d="M0 1133q0 36 25 61t63 25q35 0 61.5 -25.5t26.5 -60.5q0 -38 -26 -63.5t-62 -25.5q-38 0 -63 25.5t-25 63.5zM258 1133q0 36 25 61t63 25q35 0 61.5 -25.5t26.5 -60.5q0 -38 -26 -63.5t-62 -25.5q-38 0 -63 25.5t-25 63.5z" />
<glyph unicode="&#xad;" horiz-adv-x="423" d="M0 317l27 115h305l-17 -115h-315z" />
<glyph unicode="&#xb0;" horiz-adv-x="329" d="M12 1255q6 29 23 52q35 59 94 64t89 -48q33 -60 7 -164q-9 -36 -22 -51q-36 -59 -93 -67t-91 50t-7 164zM66 1208q-12 -73 12 -111q21 -36 54 7q11 14 22 37q18 36 22 65q16 114 -22 125q-26 8 -56 -36q-26 -38 -32 -87z" />
<glyph unicode="&#xb4;" horiz-adv-x="327" d="M0 1065l82 272q103 122 154 0l-123 -272q-46 -85 -113 0z" />
<glyph unicode="&#xb5;" horiz-adv-x="997" d="M0 -240q2 13 190 957q85 73 177 0q-22 -104 -113 -580q-18 -86 34 -85q47 1 111 65q37 36 60 78q0 2 102 522q37 35 69 44t57 -3t50 -41q-25 -123 -61 -309.5t-53 -270.5q-17 -83 34 -84q48 0 112 62q57 55 79 118q33 49 57 0q-50 -137 -161 -214q-98 -67 -182 -48 q-85 19 -102 122q-1 3 -1 7q-54 -63 -119.5 -98.5t-122.5 -32.5l-35 -170q-40 -43 -68.5 -64t-59.5 -18t-54 43z" />
<glyph unicode="&#xb6;" horiz-adv-x="831" d="M0 700q0 57 23 134q19 58 67 116q39 47 111 84q44 21 124.5 31.5t140 11t158.5 -1.5t115 -2l-32 -100h-125l14 -27q22 -49 22 -108q0 -34 -4 -52q-7 -48 -8 -53l-180 -846l-133 -2l117 543q-10 -6 -31 -10l-31 -6l-110 -527h-134l109 527q-47 8 -94 37q-46 33 -66 67 q-26 39 -41 86q-12 46 -12 98zM362 485h11q35 0 49 4l70 324q8 54 8 72q0 27 -8 51q-16 28 -25 37z" />
<glyph unicode="&#xb8;" horiz-adv-x="411" d="M8 -176l58 -23q-1 -2 -4 -10t-3.5 -10.5t-2 -9t0 -9.5l3.5 -7t7 -6t13 -3q53 -3 92 39q46 59 2 88q-39 27 -107 9q-15 -4 -30 -11l88 266l47 -33l-55 -170q138 29 184 -33q34 -44 2 -104q-33 -63 -110 -84q-49 -14 -105 -4q-52 8 -72 37q-27 42 -8 78z" />
<glyph unicode="&#xc0;" horiz-adv-x="1384" d="M1.5 822q2.5 36 25.5 61q37 40 99.5 55.5t124 13t148.5 -0.5t152 16q162 36 248 104q114 123 284 129q56 2 98.5 -25t55.5 -79q53 4 99 -42q28 -27 19 -36q-1 -2 -5 -2q-28 0 -64.5 -216t-59.5 -429.5t-22 -239.5q1 -31 20.5 -44.5t38.5 -10.5l19 2q11 -37 -22.5 -63.5 t-92.5 -20.5q-40 3 -73 22q-60 40 -70 158q-86 -146 -195 -169q-99 -21 -171 67q-93 113 -87 336q5 193 88 426q18 47 54 114q-39 -22 -101 -47q-81 -34 -187 -50t-176 -28t-95 -41q-17 -19 -23.5 -37.5t-4.5 -31t6.5 -22.5t9.5 -15l5 -4q-1 -2 -2.5 -4t-9.5 -5t-18 -1 q-33 6 -61 32t-42.5 59t-12 69zM774 1794q27 13 52.5 18.5t53 2.5t51.5 -24t42 -58l61 -248q-24 -81 -112 0zM792 491q-30 -232 10 -339q26 -71 79 -52q36 -13 106.5 240.5t117 513.5t25.5 262q-118 11 -216 -187q-89 -181 -122 -438z" />
<glyph unicode="&#xc1;" horiz-adv-x="1406" d="M1.5 822q2.5 36 25.5 61q37 40 99.5 55.5t124 13t148.5 -0.5t152 16q162 36 248 104q114 123 284 129q56 2 98.5 -25t55.5 -79q53 4 99 -42q28 -27 19 -36q-1 -2 -5 -2q-28 0 -64.5 -216t-59.5 -429.5t-22 -239.5q1 -31 20.5 -44.5t38.5 -10.5l19 2q11 -37 -22.5 -63.5 t-92.5 -20.5q-40 3 -73 22q-60 40 -70 158q-86 -146 -195 -169q-99 -21 -171 67q-93 113 -87 336q5 193 88 426q18 47 54 114q-39 -22 -101 -47q-81 -34 -187 -50t-176 -28t-95 -41q-17 -19 -23.5 -37.5t-4.5 -31t6.5 -22.5t9.5 -15l5 -4q-1 -2 -2.5 -4t-9.5 -5t-18 -1 q-33 6 -61 32t-42.5 59t-12 69zM792 491q-30 -232 10 -339q26 -71 79 -52q36 -13 106.5 240.5t117 513.5t25.5 262q-118 11 -216 -187q-89 -181 -122 -438zM1061 1475l82 272q102 121 153 0l-122 -272q-46 -85 -113 0z" />
<glyph unicode="&#xc2;" horiz-adv-x="1402" d="M1.5 822q2.5 36 25.5 61q37 40 99.5 55.5t124 13t148.5 -0.5t152 16q162 36 248 104q114 123 284 129q56 2 98.5 -25t55.5 -79q53 4 99 -42q28 -27 19 -36q-1 -2 -5 -2q-28 0 -64.5 -216t-59.5 -429.5t-22 -239.5q1 -31 20.5 -44.5t38.5 -10.5l19 2q11 -37 -22.5 -63.5 t-92.5 -20.5q-40 3 -73 22q-60 40 -70 158q-86 -146 -195 -169q-99 -21 -171 67q-93 113 -87 336q5 193 88 426q18 47 54 114q-39 -22 -101 -47q-81 -34 -187 -50t-176 -28t-95 -41q-17 -19 -23.5 -37.5t-4.5 -31t6.5 -22.5t9.5 -15l5 -4q-1 -2 -2.5 -4t-9.5 -5t-18 -1 q-33 6 -61 32t-42.5 59t-12 69zM792 491q-30 -232 10 -339q26 -71 79 -52q36 -13 106.5 240.5t117 513.5t25.5 262q-118 11 -216 -187q-89 -181 -122 -438zM807 1489l125 250q4 2 14.5 8.5t15 9t13 4.5t13.5 0t10.5 -9t9.5 -19l186 -240q-2 -14 -4.5 -21t-10.5 -14t-21 -4.5 t-37 14t-58 35.5l-84 96l-84 -118q-91 -79 -88 8z" />
<glyph unicode="&#xc3;" horiz-adv-x="1449" d="M1.5 822q2.5 36 25.5 61q37 40 99.5 55.5t124 13t148.5 -0.5t152 16q162 36 248 104q114 123 284 129q56 2 98.5 -25t55.5 -79q53 4 99 -42q28 -27 19 -36q-1 -2 -5 -2q-28 0 -64.5 -216t-59.5 -429.5t-22 -239.5q1 -31 20.5 -44.5t38.5 -10.5l19 2q11 -37 -22.5 -63.5 t-92.5 -20.5q-40 3 -73 22q-60 40 -70 158q-86 -146 -195 -169q-99 -21 -171 67q-93 113 -87 336q5 193 88 426q18 47 54 114q-39 -22 -101 -47q-81 -34 -187 -50t-176 -28t-95 -41q-17 -19 -23.5 -37.5t-4.5 -31t6.5 -22.5t9.5 -15l5 -4q-1 -2 -2.5 -4t-9.5 -5t-18 -1 q-33 6 -61 32t-42.5 59t-12 69zM764 1444q34 70 98 104q55 35 142 35q39 0 69 -6q42 -9 57 -16q33 -12 54 -17q28 -8 57 -8q19 0 51 8q18 11 29 29l18 -2q-6 -26 -26 -53q-20 -23 -56 -45q-31 -22 -69 -33q-40 -15 -80 -15q-23 0 -68 9q-37 11 -57 20q-22 4 -57 16 q-29 11 -58 11q-18 0 -30.5 -6.5t-19.5 -13.5t-21 -27zM792 491q-30 -232 10 -339q26 -71 79 -52q36 -13 106.5 240.5t117 513.5t25.5 262q-118 11 -216 -187q-89 -181 -122 -438z" />
<glyph unicode="&#xc4;" horiz-adv-x="1449" d="M1.5 822q2.5 36 25.5 61q37 40 99.5 55.5t124 13t148.5 -0.5t152 16q162 36 248 104q114 123 284 129q56 2 98.5 -25t55.5 -79q53 4 99 -42q28 -27 19 -36q-1 -2 -5 -2q-28 0 -64.5 -216t-59.5 -429.5t-22 -239.5q1 -31 20.5 -44.5t38.5 -10.5l19 2q11 -37 -22.5 -63.5 t-92.5 -20.5q-40 3 -73 22q-60 40 -70 158q-86 -146 -195 -169q-99 -21 -171 67q-93 113 -87 336q5 193 88 426q18 47 54 114q-39 -22 -101 -47q-81 -34 -187 -50t-176 -28t-95 -41q-17 -19 -23.5 -37.5t-4.5 -31t6.5 -22.5t9.5 -15l5 -4q-1 -2 -2.5 -4t-9.5 -5t-18 -1 q-33 6 -61 32t-42.5 59t-12 69zM792 491q-30 -232 10 -339q26 -71 79 -52q36 -13 106.5 240.5t117 513.5t25.5 262q-118 11 -216 -187q-89 -181 -122 -438zM909 1470q0 36 25 61t63 25q35 0 61.5 -25.5t26.5 -60.5q0 -38 -26 -63t-62 -25q-38 0 -63 25t-25 63zM1167 1470 q0 36 25 61t63 25q35 0 61.5 -25.5t26.5 -60.5q0 -38 -26 -63t-62 -25q-38 0 -63 25t-25 63z" />
<glyph unicode="&#xc5;" horiz-adv-x="1449" d="M1.5 822q2.5 36 25.5 61q37 40 99.5 55.5t124 13t148.5 -0.5t152 16q162 36 248 104q114 123 284 129q56 2 98.5 -25t55.5 -79q53 4 99 -42q28 -27 19 -36q-1 -2 -5 -2q-28 0 -64.5 -216t-59.5 -429.5t-22 -239.5q1 -31 20.5 -44.5t38.5 -10.5l19 2q11 -37 -22.5 -63.5 t-92.5 -20.5q-40 3 -73 22q-60 40 -70 158q-86 -146 -195 -169q-99 -21 -171 67q-93 113 -87 336q5 193 88 426q18 47 54 114q-39 -22 -101 -47q-81 -34 -187 -50t-176 -28t-95 -41q-17 -19 -23.5 -37.5t-4.5 -31t6.5 -22.5t9.5 -15l5 -4q-1 -2 -2.5 -4t-9.5 -5t-18 -1 q-33 6 -61 32t-42.5 59t-12 69zM792 491q-30 -232 10 -339q26 -71 79 -52q36 -13 106.5 240.5t117 513.5t25.5 262q-118 11 -216 -187q-89 -181 -122 -438zM1008 1573q5 23 20 49q35 58 92 61q56 4 84 -49q28 -57 4 -153q-6 -25 -20 -47q-35 -59 -92 -63q-56 -4 -83 49 q-29 56 -5 153zM1057 1528q-12 -84 23 -83q28 1 60 49q31 48 31 95q13 57 -19 60q-28 3 -60 -37q-28 -36 -35 -84z" />
<glyph unicode="&#xc6;" horiz-adv-x="2662" d="M1.5 822q2.5 36 25.5 61q37 40 99.5 55.5t124 13t148.5 -0.5t152 16q162 36 248 104q114 123 284 129q56 2 98.5 -25t55.5 -79q53 4 99 -42q28 -27 19 -36q-1 -2 -5 -2q-28 0 -64.5 -216t-59.5 -429.5t-22 -239.5q1 -31 20.5 -44.5t38.5 -10.5l19 2q11 -37 -22.5 -63.5 t-92.5 -20.5q-40 3 -73 22q-60 40 -70 158q-86 -146 -195 -169q-99 -21 -171 67q-93 113 -87 336q5 193 88 426q18 47 54 114q-39 -22 -101 -47q-81 -34 -187 -50t-176 -28t-95 -41q-17 -19 -23.5 -37.5t-4.5 -31t6.5 -22.5t9.5 -15l5 -4q-1 -2 -2.5 -4t-9.5 -5t-18 -1 q-33 6 -61 32t-42.5 59t-12 69zM792 491q-30 -232 10 -339q26 -71 79 -52q36 -13 106.5 240.5t117 513.5t25.5 262q-118 11 -216 -187q-89 -181 -122 -438zM1073 264q-1 81 9.5 147t26.5 106.5t34 88t30.5 91t16.5 116.5t-8 164q23 43 54.5 84.5t73 77.5t82.5 53t86 4.5 t81 -59.5q55 -3 89.5 -29.5t45 -61.5t10.5 -73t-5.5 -63.5t-10.5 -35.5q-20 -26 -61 -45.5t-76.5 -19t-39.5 26.5q2 18 13 68.5t16.5 88t6 78t-17 59.5t-52.5 11q-39 -8 -83.5 -86t-71 -179t-17.5 -169q2 -14 17.5 -19t36.5 -1.5t41.5 8.5t35.5 11l14 5q4 -3 8.5 -9.5t1 -23 t-27.5 -31.5q-76 -81 -111 -142.5t-53 -156.5q-14 -78 6 -149t65.5 -95t114.5 29q70 64 136 196t73 191q18 37 44 31q24 -6 25 -43q1 -22 -10 -49q-27 -86 -67.5 -165t-91 -144t-113.5 -103.5t-127 -38.5q-110 1 -178.5 72t-71.5 184z" />
<glyph unicode="&#xc7;" horiz-adv-x="1382" d="M1.5 830q2.5 36 25.5 61q37 40 99.5 55.5t124 13t148.5 -0.5t152 16q91 20 161 53.5t94 56.5l25 23h5q91 75 211 92q43 5 77 -12t47 -55q55 -3 84 -40.5t32 -86.5t-4.5 -103t-18 -89.5t-15.5 -45.5q-19 -27 -60 -47t-76 -19.5t-38 27.5q2 15 36 157q49 205 13 242 q-14 14 -39 9q-59 -12 -112 -80t-87 -167t-57 -220t-23.5 -240.5t15.5 -228.5q31 -170 143 -79q86 69 180 245q60 112 66 157q18 37 48 34q25 -2 30 -33q3 -22 -8 -50q-37 -114 -100 -220t-138.5 -177t-140.5 -74q-45 -10 -86.5 4.5t-74 49t-59 84t-43 113t-26 132.5 t-7 144.5t13.5 148.5t34.5 144.5t57.5 131.5q-55 -30 -99 -47q-81 -34 -187 -50t-176 -27.5t-95 -40.5q-17 -19 -23.5 -37.5t-4.5 -31t6.5 -22.5t9.5 -15l5 -5q-1 -2 -2.5 -4t-9.5 -5t-18 -1q-33 6 -61 32t-42.5 59t-12 69zM762 -233l57 -23q-1 -2 -3 -8t-2.5 -8t-2 -7.5 t-1.5 -8v-6.5t2 -6t4.5 -5t7 -4t10.5 -2q53 -3 92 39q46 59 2 88q-39 27 -107 9q-15 -4 -30 -11l88 266l47 -33l-56 -170q138 29 185 -33q33 -44 2 -103q-33 -64 -110 -85q-49 -14 -105 -4q-52 8 -72 37q-27 42 -8 78z" />
<glyph unicode="&#xc8;" horiz-adv-x="1316" d="M1.5 902q2.5 36 25.5 61q37 40 99.5 55.5t124 13t148.5 -0.5t152 16q91 20 161 53.5t94 56.5l25 23l17 -2q35 17 80 26q44 5 78 -12t45 -55q55 -3 89.5 -29.5t45 -61.5t10.5 -73t-5.5 -63.5t-10.5 -35.5q-20 -26 -61 -45.5t-76 -19t-39 26.5q2 18 13 68.5t16 88t5.5 78 t-17 59.5t-52.5 11q-39 -8 -83.5 -86t-71 -179t-17.5 -169q2 -14 17.5 -19t36.5 -1.5t41.5 8.5t35.5 11l14 5q4 -3 8.5 -9.5t1 -23t-27.5 -31.5q-76 -81 -111 -142.5t-53 -156.5q-14 -78 6 -149t65.5 -95t114.5 29q70 64 136 196t73 191q18 37 44 31q24 -6 25 -43 q1 -22 -10 -49q-27 -86 -67.5 -165t-91 -144t-113.5 -103.5t-127 -38.5q-110 1 -178.5 72t-71.5 184q-3 170 164 299q49 37 92 58q-61 2 -109.5 45t-64.5 139q-14 96 45 215q-46 -26 -80 -39q-81 -34 -187 -50t-176 -28t-95 -41q-17 -19 -23.5 -37.5t-4.5 -31t6.5 -22.5 t9.5 -15l5 -4q-1 -2 -2.5 -4t-9.5 -5.5t-18 -1.5q-33 6 -61 32t-42.5 59.5t-12 69.5zM735 1794q27 13 52.5 18.5t53 2.5t51.5 -24t42 -58l61 -248q-24 -81 -112 0z" />
<glyph unicode="&#xc9;" horiz-adv-x="1316" d="M1.5 902q2.5 36 25.5 61q37 40 99.5 55.5t124 13t148.5 -0.5t152 16q91 20 161 53.5t94 56.5l25 23l17 -2q35 17 80 26q44 5 78 -12t45 -55q55 -3 89.5 -29.5t45 -61.5t10.5 -73t-5.5 -63.5t-10.5 -35.5q-20 -26 -61 -45.5t-76 -19t-39 26.5q2 18 13 68.5t16 88t5.5 78 t-17 59.5t-52.5 11q-39 -8 -83.5 -86t-71 -179t-17.5 -169q2 -14 17.5 -19t36.5 -1.5t41.5 8.5t35.5 11l14 5q4 -3 8.5 -9.5t1 -23t-27.5 -31.5q-76 -81 -111 -142.5t-53 -156.5q-14 -78 6 -149t65.5 -95t114.5 29q70 64 136 196t73 191q18 37 44 31q24 -6 25 -43 q1 -22 -10 -49q-27 -86 -67.5 -165t-91 -144t-113.5 -103.5t-127 -38.5q-110 1 -178.5 72t-71.5 184q-3 170 164 299q49 37 92 58q-61 2 -109.5 45t-64.5 139q-14 96 45 215q-46 -26 -80 -39q-81 -34 -187 -50t-176 -28t-95 -41q-17 -19 -23.5 -37.5t-4.5 -31t6.5 -22.5 t9.5 -15l5 -4q-1 -2 -2.5 -4t-9.5 -5.5t-18 -1.5q-33 6 -61 32t-42.5 59.5t-12 69.5zM946 1466l82 273q103 122 154 0l-123 -273q-46 -85 -113 0z" />
<glyph unicode="&#xca;" horiz-adv-x="1316" d="M1.5 902q2.5 36 25.5 61q37 40 99.5 55.5t124 13t148.5 -0.5t152 16q91 20 161 53.5t94 56.5l25 23l17 -2q35 17 80 26q44 5 78 -12t45 -55q55 -3 89.5 -29.5t45 -61.5t10.5 -73t-5.5 -63.5t-10.5 -35.5q-20 -26 -61 -45.5t-76 -19t-39 26.5q2 18 13 68.5t16 88t5.5 78 t-17 59.5t-52.5 11q-39 -8 -83.5 -86t-71 -179t-17.5 -169q2 -14 17.5 -19t36.5 -1.5t41.5 8.5t35.5 11l14 5q4 -3 8.5 -9.5t1 -23t-27.5 -31.5q-76 -81 -111 -142.5t-53 -156.5q-14 -78 6 -149t65.5 -95t114.5 29q70 64 136 196t73 191q18 37 44 31q24 -6 25 -43 q1 -22 -10 -49q-27 -86 -67.5 -165t-91 -144t-113.5 -103.5t-127 -38.5q-110 1 -178.5 72t-71.5 184q-3 170 164 299q49 37 92 58q-61 2 -109.5 45t-64.5 139q-14 96 45 215q-46 -26 -80 -39q-81 -34 -187 -50t-176 -28t-95 -41q-17 -19 -23.5 -37.5t-4.5 -31t6.5 -22.5 t9.5 -15l5 -4q-1 -2 -2.5 -4t-9.5 -5.5t-18 -1.5q-33 6 -61 32t-42.5 59.5t-12 69.5zM774 1489l125 250q4 2 14.5 8.5t15 9t13 4.5t13.5 0t10.5 -9t9.5 -19l186 -240q-2 -14 -4.5 -21t-10.5 -14t-21 -4.5t-37 14t-58 35.5l-84 96l-84 -118q-91 -79 -88 8z" />
<glyph unicode="&#xcb;" horiz-adv-x="1316" d="M1.5 902q2.5 36 25.5 61q37 40 99.5 55.5t124 13t148.5 -0.5t152 16q91 20 161 53.5t94 56.5l25 23l17 -2q35 17 80 26q44 5 78 -12t45 -55q55 -3 89.5 -29.5t45 -61.5t10.5 -73t-5.5 -63.5t-10.5 -35.5q-20 -26 -61 -45.5t-76 -19t-39 26.5q2 18 13 68.5t16 88t5.5 78 t-17 59.5t-52.5 11q-39 -8 -83.5 -86t-71 -179t-17.5 -169q2 -14 17.5 -19t36.5 -1.5t41.5 8.5t35.5 11l14 5q4 -3 8.5 -9.5t1 -23t-27.5 -31.5q-76 -81 -111 -142.5t-53 -156.5q-14 -78 6 -149t65.5 -95t114.5 29q70 64 136 196t73 191q18 37 44 31q24 -6 25 -43 q1 -22 -10 -49q-27 -86 -67.5 -165t-91 -144t-113.5 -103.5t-127 -38.5q-110 1 -178.5 72t-71.5 184q-3 170 164 299q49 37 92 58q-61 2 -109.5 45t-64.5 139q-14 96 45 215q-46 -26 -80 -39q-81 -34 -187 -50t-176 -28t-95 -41q-17 -19 -23.5 -37.5t-4.5 -31t6.5 -22.5 t9.5 -15l5 -4q-1 -2 -2.5 -4t-9.5 -5.5t-18 -1.5q-33 6 -61 32t-42.5 59.5t-12 69.5zM737 1542q0 36 25 61t63 25q35 0 61.5 -25.5t26.5 -60.5q0 -38 -26 -63t-62 -25q-38 0 -63 25t-25 63zM995 1542q0 36 25 61t63 25q35 0 61.5 -25.5t26.5 -60.5q0 -38 -26 -63t-62 -25 q-38 0 -63 25t-25 63z" />
<glyph unicode="&#xcc;" horiz-adv-x="1159" d="M1.5 902q2.5 36 25.5 61q37 40 99.5 55.5t124 13t148.5 -0.5t152 16q91 20 161 53.5t94 56.5l25 23q5 10 32 20t63 11.5t69.5 -7.5t54.5 -43.5t15 -89.5q-12 -107 -35.5 -386t-44 -421t-47.5 -174q-56 -96 -174 -82q-24 4 -33.5 19.5t-7.5 28.5l2 14q30 -7 57 30 q10 15 16 59t23 225q31 332 62 630q4 20 4 68t-15 69q-108 -108 -260 -170q-81 -34 -187 -50t-176 -28t-95 -41q-17 -19 -23.5 -37.5t-4.5 -31t6.5 -22.5t9.5 -15l5 -4q-1 -2 -2.5 -4t-9.5 -5.5t-18 -1.5q-33 6 -61 32t-42.5 59.5t-12 69.5zM721 1794q27 13 52.5 18.5 t53 2.5t51.5 -24t42 -58l61 -248q-24 -82 -113 0z" />
<glyph unicode="&#xcd;" horiz-adv-x="1159" d="M1.5 902q2.5 36 25.5 61q37 40 99.5 55.5t124 13t148.5 -0.5t152 16q91 20 161 53.5t94 56.5l25 23q5 10 32 20t63 11.5t69.5 -7.5t54.5 -43.5t15 -89.5q-12 -107 -35.5 -386t-44 -421t-47.5 -174q-56 -96 -174 -82q-24 4 -33.5 19.5t-7.5 28.5l2 14q30 -7 57 30 q10 15 16 59t23 225q31 332 62 630q4 20 4 68t-15 69q-108 -108 -260 -170q-81 -34 -187 -50t-176 -28t-95 -41q-17 -19 -23.5 -37.5t-4.5 -31t6.5 -22.5t9.5 -15l5 -4q-1 -2 -2.5 -4t-9.5 -5.5t-18 -1.5q-33 6 -61 32t-42.5 59.5t-12 69.5zM872 1475l82 272q103 122 154 0 l-123 -272q-46 -85 -113 0z" />
<glyph unicode="&#xce;" horiz-adv-x="1159" d="M1.5 902q2.5 36 25.5 61q37 40 99.5 55.5t124 13t148.5 -0.5t152 16q91 20 161 53.5t94 56.5l25 23q5 10 32 20t63 11.5t69.5 -7.5t54.5 -43.5t15 -89.5q-12 -107 -35.5 -386t-44 -421t-47.5 -174q-56 -96 -174 -82q-24 4 -33.5 19.5t-7.5 28.5l2 14q30 -7 57 30 q10 15 16 59t23 225q31 332 62 630q4 20 4 68t-15 69q-108 -108 -260 -170q-81 -34 -187 -50t-176 -28t-95 -41q-17 -19 -23.5 -37.5t-4.5 -31t6.5 -22.5t9.5 -15l5 -4q-1 -2 -2.5 -4t-9.5 -5.5t-18 -1.5q-33 6 -61 32t-42.5 59.5t-12 69.5zM739 1489l125 250q4 2 14.5 8.5 t15 9t13 4.5t13.5 0t10.5 -9t9.5 -19l186 -240q-2 -14 -4.5 -21t-10.5 -14t-21 -4.5t-37 14t-58 35.5l-84 96l-84 -118q-91 -79 -88 8z" />
<glyph unicode="&#xcf;" horiz-adv-x="1159" d="M1.5 902q2.5 36 25.5 61q37 40 99.5 55.5t124 13t148.5 -0.5t152 16q91 20 161 53.5t94 56.5l25 23q5 10 32 20t63 11.5t69.5 -7.5t54.5 -43.5t15 -89.5q-12 -107 -35.5 -386t-44 -421t-47.5 -174q-56 -96 -174 -82q-24 4 -33.5 19.5t-7.5 28.5l2 14q30 -7 57 30 q10 15 16 59t23 225q31 332 62 630q4 20 4 68t-15 69q-108 -108 -260 -170q-81 -34 -187 -50t-176 -28t-95 -41q-17 -19 -23.5 -37.5t-4.5 -31t6.5 -22.5t9.5 -15l5 -4q-1 -2 -2.5 -4t-9.5 -5.5t-18 -1.5q-33 6 -61 32t-42.5 59.5t-12 69.5zM721 1542q0 36 25 61t63 25 q35 0 61.5 -25.5t26.5 -60.5q0 -38 -26 -63t-62 -25q-38 0 -63 25t-25 63zM979 1542q0 36 25 61t63 25q35 0 61.5 -25.5t26.5 -60.5q0 -38 -26 -63t-62 -25q-38 0 -63 25t-25 63z" />
<glyph unicode="&#xd0;" horiz-adv-x="1662" d="M1.5 902q2.5 36 25.5 61q37 40 99.5 55.5t124 13t148.5 -0.5t152 16q91 20 161 53.5t94 56.5l25 23q7 13 43.5 23.5t85 6t76.5 -31.5q29 13 64 20.5t85 11t108.5 -13t113.5 -53.5q48 -31 82.5 -81t51.5 -104.5t24 -119t5.5 -120.5t-9.5 -114q-39 -381 -234 -532 q-54 -41 -111 -57t-116.5 1t-104.5 72q-11 22 3.5 33t37.5 -2q12 -8 19 -8q24 -19 62.5 0t82.5 69q128 160 164 447q46 436 -82 487q-129 47 -217 6q3 -21 0 -49q-22 -193 -37 -387h51l-20 -137h-45q-36 -408 -78 -457q-59 -96 -172 -82q-24 4 -34.5 19.5t-8.5 28.5l2 14 q28 -7 59 30q8 15 14.5 67t22.5 219q9 99 15 161h-152l33 137h133q10 120 33 330q0 4 2 22t2.5 31t0 30t-3.5 31t-10 23q-108 -108 -260 -170q-81 -34 -187 -50t-176 -28t-95 -41q-17 -19 -23.5 -37.5t-4.5 -31t6.5 -22.5t9.5 -15l5 -4q-1 -2 -2.5 -4t-9.5 -5.5t-18 -1.5 q-33 6 -61 32t-42.5 59.5t-12 69.5z" />
<glyph unicode="&#xd1;" horiz-adv-x="1751" d="M1.5 902q2.5 36 25.5 61q37 40 99.5 55.5t124 13t148.5 -0.5t152 16q188 41 276 129q-2 11 34.5 23.5t87.5 10t81 -31.5q111 -73 180 -408q38 -182 59 -336t23 -217l2 -63q3 -58 19 -70q13 -9 27.5 5.5t35.5 70t41 149.5q74 394 4 676q-15 57 -43 115.5t-48.5 89.5 t-22.5 31q-3 0 -9.5 12.5t-0.5 27.5t34 19q17 3 36.5 4.5t51 -2.5t60 -15t60 -36t54.5 -61t40 -95.5t20 -134.5q13 -110 -12 -260t-67.5 -276.5t-88 -223.5t-74.5 -121q-9 -13 -23.5 -24.5t-25.5 -16.5l-10 -6q-2 -2 -6 -4t-15 -6.5t-22 -5t-25 5.5t-25.5 19.5t-21.5 42 t-16 69.5q-4 24 -21.5 167.5t-32.5 244t-47 230.5t-71 204l-13 -125q-5 -53 -13 -146.5t-12.5 -148.5t-12 -132t-14.5 -124t-15.5 -96t-18 -77.5t-20.5 -39.5q-50 -91 -156 -82q-61 -4 -116.5 28.5t-88 80.5t-37.5 94q-20 70 -1 142.5t75.5 120.5t134.5 42q12 -5 22.5 -16 t15 -27t-16.5 -31q-70 -48 -78 -177q-7 -100 23 -159q27 -53 61 -13q3 3 6 7q11 15 18 65t23 229q30 329 59 620q14 105 -4 135q-94 -99 -258 -168q-81 -34 -187 -50t-176 -28t-95 -41q-17 -19 -23.5 -37.5t-4.5 -31t6.5 -22.5t9.5 -15l5 -4q-1 -2 -2.5 -4t-9.5 -5.5 t-18 -1.5q-33 6 -61 32t-42.5 59.5t-12 69.5zM874 1444q34 69 99 104q55 35 141 35q40 0 70 -6q42 -9 57 -16q34 -13 53 -17q28 -8 58 -8q19 0 51 8q18 11 29 29l18 -2q-5 -24 -27 -53q-22 -25 -55 -45q-30 -21 -70 -33q-40 -15 -79 -15q-23 0 -68 9q-37 11 -57 20 q-25 5 -58 16q-29 11 -57 11q-25 0 -38.5 -10t-33.5 -37z" />
<glyph unicode="&#xd2;" horiz-adv-x="1443" d="M1.5 902q2.5 36 25.5 61q37 40 99.5 55.5t124 13t148.5 -0.5t152 16q91 20 161 53.5t94 56.5l25 23h3q90 74 180 77q52 -9 76 -26q11 -9 20.5 -26.5t13.5 -30.5l4 -13q25 23 58 29q9 2 22.5 -0.5t34.5 -15.5t39 -36.5t35.5 -71t25.5 -112.5q7 -61 7.5 -131t-6 -149 t-23 -156.5t-41 -151.5t-63.5 -137.5t-87.5 -111.5t-115.5 -75.5t-146 -27.5q-99 0 -173 85t-105 229.5t-10 312.5q27 215 129 387q-59 -33 -97 -47q-81 -34 -187 -50t-176 -28t-95 -41q-17 -19 -23.5 -37.5t-4.5 -31t6.5 -22.5t9.5 -15l5 -4q-1 -2 -2.5 -4t-9.5 -5.5 t-18 -1.5q-33 6 -61 32t-42.5 59.5t-12 69.5zM807 228q43 -136 133 -136q84 0 156.5 154.5t95.5 378.5q42 495 -113 495q-163 0 -270 -522q-45 -234 -2 -370zM864 1794q27 13 52.5 18.5t53 2.5t51.5 -24t42 -58l61 -248q-24 -81 -112 0z" />
<glyph unicode="&#xd3;" horiz-adv-x="1443" d="M1.5 902q2.5 36 25.5 61q37 40 99.5 55.5t124 13t148.5 -0.5t152 16q91 20 161 53.5t94 56.5l25 23h3q90 74 180 77q52 -9 76 -26q11 -9 20.5 -26.5t13.5 -30.5l4 -13q25 23 58 29q9 2 22.5 -0.5t34.5 -15.5t39 -36.5t35.5 -71t25.5 -112.5q7 -61 7.5 -131t-6 -149 t-23 -156.5t-41 -151.5t-63.5 -137.5t-87.5 -111.5t-115.5 -75.5t-146 -27.5q-99 0 -173 85t-105 229.5t-10 312.5q27 215 129 387q-59 -33 -97 -47q-81 -34 -187 -50t-176 -28t-95 -41q-17 -19 -23.5 -37.5t-4.5 -31t6.5 -22.5t9.5 -15l5 -4q-1 -2 -2.5 -4t-9.5 -5.5 t-18 -1.5q-33 6 -61 32t-42.5 59.5t-12 69.5zM807 228q43 -136 133 -136q84 0 156.5 154.5t95.5 378.5q42 495 -113 495q-163 0 -270 -522q-45 -234 -2 -370zM1087 1475l82 272q103 122 154 0l-123 -272q-46 -85 -113 0z" />
<glyph unicode="&#xd4;" horiz-adv-x="1443" d="M1.5 902q2.5 36 25.5 61q37 40 99.5 55.5t124 13t148.5 -0.5t152 16q91 20 161 53.5t94 56.5l25 23h3q90 74 180 77q52 -9 76 -26q11 -9 20.5 -26.5t13.5 -30.5l4 -13q25 23 58 29q9 2 22.5 -0.5t34.5 -15.5t39 -36.5t35.5 -71t25.5 -112.5q7 -61 7.5 -131t-6 -149 t-23 -156.5t-41 -151.5t-63.5 -137.5t-87.5 -111.5t-115.5 -75.5t-146 -27.5q-99 0 -173 85t-105 229.5t-10 312.5q27 215 129 387q-59 -33 -97 -47q-81 -34 -187 -50t-176 -28t-95 -41q-17 -19 -23.5 -37.5t-4.5 -31t6.5 -22.5t9.5 -15l5 -4q-1 -2 -2.5 -4t-9.5 -5.5 t-18 -1.5q-33 6 -61 32t-42.5 59.5t-12 69.5zM807 228q43 -136 133 -136q84 0 156.5 154.5t95.5 378.5q42 495 -113 495q-163 0 -270 -522q-45 -234 -2 -370zM854 1434l125 249q4 2 14.5 8.5t15 9t13 4.5t13.5 0t10.5 -9t9.5 -19l186 -239q-2 -14 -4.5 -21t-10.5 -14 t-21 -4.5t-37 14t-58 35.5l-84 96l-84 -119q-44 -38 -66.5 -36t-21.5 45z" />
<glyph unicode="&#xd5;" horiz-adv-x="1443" d="M1.5 902q2.5 36 25.5 61q37 40 99.5 55.5t124 13t148.5 -0.5t152 16q91 20 161 53.5t94 56.5l25 23h3q90 74 180 77q52 -9 76 -26q11 -9 20.5 -26.5t13.5 -30.5l4 -13q25 23 58 29q9 2 22.5 -0.5t34.5 -15.5t39 -36.5t35.5 -71t25.5 -112.5q7 -61 7.5 -131t-6 -149 t-23 -156.5t-41 -151.5t-63.5 -137.5t-87.5 -111.5t-115.5 -75.5t-146 -27.5q-99 0 -173 85t-105 229.5t-10 312.5q27 215 129 387q-59 -33 -97 -47q-81 -34 -187 -50t-176 -28t-95 -41q-17 -19 -23.5 -37.5t-4.5 -31t6.5 -22.5t9.5 -15l5 -4q-1 -2 -2.5 -4t-9.5 -5.5 t-18 -1.5q-33 6 -61 32t-42.5 59.5t-12 69.5zM750 1425q35 71 98 105q55 35 141 35q40 0 70 -6q37 -8 57 -17q28 -10 53 -16q28 -8 58 -8q19 0 51 8q19 11 29 28l18 -2q-5 -24 -27 -53q-22 -25 -55 -45q-31 -22 -69 -33q-38 -14 -80 -14q-28 0 -68 8q-30 9 -57 21 q-25 5 -58 16q-27 10 -57 10q-25 0 -38.5 -10t-33.5 -37zM807 228q43 -136 133 -136q84 0 156.5 154.5t95.5 378.5q42 495 -113 495q-163 0 -270 -522q-45 -234 -2 -370z" />
<glyph unicode="&#xd6;" horiz-adv-x="1443" d="M1.5 902q2.5 36 25.5 61q37 40 99.5 55.5t124 13t148.5 -0.5t152 16q91 20 161 53.5t94 56.5l25 23h3q90 74 180 77q52 -9 76 -26q11 -9 20.5 -26.5t13.5 -30.5l4 -13q25 23 58 29q9 2 22.5 -0.5t34.5 -15.5t39 -36.5t35.5 -71t25.5 -112.5q7 -61 7.5 -131t-6 -149 t-23 -156.5t-41 -151.5t-63.5 -137.5t-87.5 -111.5t-115.5 -75.5t-146 -27.5q-99 0 -173 85t-105 229.5t-10 312.5q27 215 129 387q-59 -33 -97 -47q-81 -34 -187 -50t-176 -28t-95 -41q-17 -19 -23.5 -37.5t-4.5 -31t6.5 -22.5t9.5 -15l5 -4q-1 -2 -2.5 -4t-9.5 -5.5 t-18 -1.5q-33 6 -61 32t-42.5 59.5t-12 69.5zM807 228q43 -136 133 -136q84 0 156.5 154.5t95.5 378.5q42 495 -113 495q-163 0 -270 -522q-45 -234 -2 -370zM862 1524q0 36 25 61t63 25q35 0 61.5 -25.5t26.5 -60.5q0 -38 -26 -63t-62 -25q-38 0 -63 25t-25 63zM1120 1524 q0 36 25 61t63 25q35 0 61.5 -25.5t26.5 -60.5q0 -38 -26 -63t-62 -25q-38 0 -63 25t-25 63z" />
<glyph unicode="&#xd8;" horiz-adv-x="1443" d="M1.5 902q2.5 36 25.5 61q37 40 99.5 55.5t124 13t148.5 -0.5t152 16q91 20 161 53.5t94 56.5l25 23h3q90 74 180 77q52 -9 76 -26q11 -9 20.5 -26.5t13.5 -30.5l4 -13q25 23 58 29q9 2 22.5 -0.5t34.5 -15.5t39 -36.5t35.5 -71t25.5 -112.5q7 -61 7.5 -131t-6 -149 t-23 -156.5t-41 -151.5t-63.5 -137.5t-87.5 -111.5t-115.5 -75.5t-146 -27.5q-99 0 -173 85t-105 229.5t-10 312.5q27 215 129 387q-59 -33 -97 -47q-81 -34 -187 -50t-176 -28t-95 -41q-17 -19 -23.5 -37.5t-4.5 -31t6.5 -22.5t9.5 -15l5 -4q-1 -2 -2.5 -4t-9.5 -5.5 t-18 -1.5q-33 6 -61 32t-42.5 59.5t-12 69.5zM807 228q43 -136 133 -136q84 0 156.5 154.5t95.5 378.5q42 495 -113 495q-163 0 -270 -522q-45 -234 -2 -370zM819 -113l307 1436h109l-305 -1436h-111z" />
<glyph unicode="&#xd9;" horiz-adv-x="1761" d="M1.5 902q2.5 36 25.5 61q37 40 99.5 55.5t124 13t148.5 -0.5t152 16q189 42 276 129q5 10 32.5 20t63 12t69 -7t53.5 -43.5t14 -90.5l-43 -489h-2q-4 -58 -5.5 -111.5t2.5 -122.5t15.5 -120t37.5 -89t64 -45q34 -6 67.5 8.5t62.5 44.5t52 63t44 73q4 108 30 388t33 400 q8 116 109 137q63 14 121 -11q31 -14 20 -23q-4 -4 -16 -5q-12 -2 -21.5 -8.5t-15.5 -19.5t-10.5 -23.5t-7.5 -29t-4.5 -27.5t-3 -27t-1.5 -20q-21 -279 -47 -603q-16 -196 -18 -240t6 -71q9 -16 21.5 -23.5t20.5 -6.5h9q-1 -1 0 -6t-1.5 -13.5t-7 -17t-15.5 -16t-27 -9.5 q-121 -10 -158 82q-15 21 -18 94q-123 -185 -299 -180q-59 2 -103.5 34t-68.5 81.5t-38 110t-17 120t-2 109.5t4.5 81t5.5 33l45 441q4 19 4 68t-15 71q-95 -101 -256 -168q-81 -34 -187 -50t-176 -28t-95 -41q-17 -19 -23.5 -37.5t-4.5 -31t6.5 -22.5t9.5 -15l5 -4 q-1 -2 -2.5 -4t-9.5 -5.5t-18 -1.5q-33 6 -61 32t-42.5 59.5t-12 69.5zM1069 1735q37 18 70.5 22.5t69.5 -15.5t59 -69l61 -248q-24 -81 -112 0z" />
<glyph unicode="&#xda;" horiz-adv-x="1761" d="M1.5 902q2.5 36 25.5 61q37 40 99.5 55.5t124 13t148.5 -0.5t152 16q189 42 276 129q5 10 32.5 20t63 12t69 -7t53.5 -43.5t14 -90.5l-43 -489h-2q-4 -58 -5.5 -111.5t2.5 -122.5t15.5 -120t37.5 -89t64 -45q34 -6 67.5 8.5t62.5 44.5t52 63t44 73q4 108 30 388t33 400 q8 116 109 137q63 14 121 -11q31 -14 20 -23q-4 -4 -16 -5q-12 -2 -21.5 -8.5t-15.5 -19.5t-10.5 -23.5t-7.5 -29t-4.5 -27.5t-3 -27t-1.5 -20q-21 -279 -47 -603q-16 -196 -18 -240t6 -71q9 -16 21.5 -23.5t20.5 -6.5h9q-1 -1 0 -6t-1.5 -13.5t-7 -17t-15.5 -16t-27 -9.5 q-121 -10 -158 82q-15 21 -18 94q-123 -185 -299 -180q-59 2 -103.5 34t-68.5 81.5t-38 110t-17 120t-2 109.5t4.5 81t5.5 33l45 441q4 19 4 68t-15 71q-95 -101 -256 -168q-81 -34 -187 -50t-176 -28t-95 -41q-17 -19 -23.5 -37.5t-4.5 -31t6.5 -22.5t9.5 -15l5 -4 q-1 -2 -2.5 -4t-9.5 -5.5t-18 -1.5q-33 6 -61 32t-42.5 59.5t-12 69.5zM1192 1436l82 272q102 121 153 0l-122 -272q-46 -85 -113 0z" />
<glyph unicode="&#xdb;" horiz-adv-x="1761" d="M1.5 902q2.5 36 25.5 61q37 40 99.5 55.5t124 13t148.5 -0.5t152 16q189 42 276 129q5 10 32.5 20t63 12t69 -7t53.5 -43.5t14 -90.5l-43 -489h-2q-4 -58 -5.5 -111.5t2.5 -122.5t15.5 -120t37.5 -89t64 -45q34 -6 67.5 8.5t62.5 44.5t52 63t44 73q4 108 30 388t33 400 q8 116 109 137q63 14 121 -11q31 -14 20 -23q-4 -4 -16 -5q-12 -2 -21.5 -8.5t-15.5 -19.5t-10.5 -23.5t-7.5 -29t-4.5 -27.5t-3 -27t-1.5 -20q-21 -279 -47 -603q-16 -196 -18 -240t6 -71q9 -16 21.5 -23.5t20.5 -6.5h9q-1 -1 0 -6t-1.5 -13.5t-7 -17t-15.5 -16t-27 -9.5 q-121 -10 -158 82q-15 21 -18 94q-123 -185 -299 -180q-59 2 -103.5 34t-68.5 81.5t-38 110t-17 120t-2 109.5t4.5 81t5.5 33l45 441q4 19 4 68t-15 71q-95 -101 -256 -168q-81 -34 -187 -50t-176 -28t-95 -41q-17 -19 -23.5 -37.5t-4.5 -31t6.5 -22.5t9.5 -15l5 -4 q-1 -2 -2.5 -4t-9.5 -5.5t-18 -1.5q-33 6 -61 32t-42.5 59.5t-12 69.5zM1061 1440l125 250q3 2 14 8.5t15.5 8.5t13 4.5t13.5 0t10.5 -9.5t9.5 -19l186 -239q-2 -14 -4.5 -21t-10.5 -14t-21 -4.5t-37 14t-58 35.5l-84 96l-84 -118q-91 -79 -88 8z" />
<glyph unicode="&#xdc;" horiz-adv-x="1761" d="M1.5 902q2.5 36 25.5 61q37 40 99.5 55.5t124 13t148.5 -0.5t152 16q189 42 276 129q5 10 32.5 20t63 12t69 -7t53.5 -43.5t14 -90.5l-43 -489h-2q-4 -58 -5.5 -111.5t2.5 -122.5t15.5 -120t37.5 -89t64 -45q34 -6 67.5 8.5t62.5 44.5t52 63t44 73q4 108 30 388t33 400 q8 116 109 137q63 14 121 -11q31 -14 20 -23q-4 -4 -16 -5q-12 -2 -21.5 -8.5t-15.5 -19.5t-10.5 -23.5t-7.5 -29t-4.5 -27.5t-3 -27t-1.5 -20q-21 -279 -47 -603q-16 -196 -18 -240t6 -71q9 -16 21.5 -23.5t20.5 -6.5h9q-1 -1 0 -6t-1.5 -13.5t-7 -17t-15.5 -16t-27 -9.5 q-121 -10 -158 82q-15 21 -18 94q-123 -185 -299 -180q-59 2 -103.5 34t-68.5 81.5t-38 110t-17 120t-2 109.5t4.5 81t5.5 33l45 441q4 19 4 68t-15 71q-95 -101 -256 -168q-81 -34 -187 -50t-176 -28t-95 -41q-17 -19 -23.5 -37.5t-4.5 -31t6.5 -22.5t9.5 -15l5 -4 q-1 -2 -2.5 -4t-9.5 -5.5t-18 -1.5q-33 6 -61 32t-42.5 59.5t-12 69.5zM1059 1493q0 36 25 61t63 25q35 0 61.5 -25.5t26.5 -60.5q0 -38 -26 -63t-62 -25q-38 0 -63 25t-25 63zM1317 1493q0 36 25 61t63 25q35 0 61.5 -25.5t26.5 -60.5q0 -38 -26 -63t-62 -25q-38 0 -63 25 t-25 63z" />
<glyph unicode="&#xdd;" horiz-adv-x="1845" d="M1.5 877q2.5 36 25.5 61q37 40 99.5 55.5t124 13t148.5 -0.5t152 16q57 13 107 31t80.5 35.5t52.5 32.5t31 25l9 9h3q16 18 47.5 32t72 20t85.5 -16t79 -73q15 -25 121 -188l152 -232q16 58 33.5 113t40.5 120t48 116t52 92.5t56 59.5t56 7q14 0 45 -35.5t29 -48.5 q-2 1 -5 2t-14.5 0t-24 -6.5t-32.5 -22t-41 -42.5q-62 -85 -204 -469h2q-11 -119 -17.5 -179.5t-17 -140.5t-22 -121.5t-25.5 -56.5q-56 -93 -158 -84q-91 -4 -162 63.5t-78 141.5q-10 42 -10 86t17.5 85t43.5 72t67.5 48t90.5 14q10 -4 20.5 -15t15.5 -27.5t-15 -31.5 q-71 -47 -81 -175q-7 -100 24 -161q27 -52 60 -15q4 4 7 9q11 16 18 70t25 246q10 106 16 172h2l-272 430q0 1 -5.5 10t-8 12t-8.5 12.5t-9.5 14.5t-10 14t-11.5 14l-12 12t-13 11.5t-12.5 9t-13.5 6.5q-101 -107 -265 -174q-81 -34 -187 -50t-176 -27.5t-95 -40.5 q-17 -19 -23.5 -37.5t-4.5 -31t6.5 -22.5t9.5 -15l5 -5q-1 -2 -2.5 -4t-9.5 -5t-18 -1q-33 6 -61 32t-42.5 59t-12 69zM1288 1440l82 272q103 122 154 0l-123 -272q-46 -85 -113 0z" />
<glyph unicode="&#xdf;" horiz-adv-x="1705" d="M1.5 906q2.5 36 25.5 61q37 40 99.5 55.5t124 13t148.5 -0.5t152 16q91 20 161 53.5t94 56.5l25 23q14 11 45.5 20t73 7t68.5 -21q26 12 67.5 18.5t94 -0.5t86.5 -32q44 -34 68.5 -84t26 -102.5t-10.5 -106.5q-29 -111 -133 -191q53 -9 100 -41q52 -42 80 -104.5 t28.5 -127.5t-14.5 -134q-27 -108 -93.5 -186t-147 -89t-158.5 78q-11 22 3.5 33t39.5 -2q8 -8 14 -8q50 -35 94 24t62 164q7 47 9 86t-6 86t-28.5 78.5t-63.5 51t-106 15.5q-4 -2 -10 -2q-27 -146 -37.5 -296t-27 -239t-72.5 -198q-19 -37 -60 -76.5t-96.5 -74t-122.5 -51 t-133 -12t-134 48t-120 124.5q-45 69 -55.5 146t8.5 145t52 134.5t75 118.5t79 92.5t62 62.5l25 22l41 -125q-8 -7 -21.5 -19t-49.5 -50t-65 -76.5t-58 -94t-40 -106.5t1.5 -109.5t54.5 -107.5q69 -68 146 -77.5t142 32t115.5 130t69.5 206.5q10 57 19 163.5t25 300 t36 386.5q4 20 4 68t-15 69q-103 -103 -256 -166q-81 -34 -187 -50t-176 -28t-95 -41q-17 -19 -23.5 -37.5t-4.5 -31t6.5 -22.5t9.5 -15l5 -4q-1 -2 -2.5 -4t-9.5 -5.5t-18 -1.5q-33 6 -61 32t-42.5 59.5t-12 69.5zM1026 684q54 16 105 77t61 138q6 35 7.5 64.5t-3.5 65 t-19.5 60t-45.5 41t-76 15.5q11 -37 6 -74q-24 -249 -35 -387z" />
<glyph unicode="&#xe0;" horiz-adv-x="712" d="M-4 393q4 25 10 49q17 61 46 118.5t70 108.5t97.5 83t120.5 34q56 2 96.5 -25t52.5 -79q53 4 97 -42q27 -27 17 -36q-1 -2 -5 -2q-30 0 -47 -112t-21 -244h2q0 -3 -0.5 -7t-1 -18t0.5 -25.5t2.5 -29t5.5 -29.5t10.5 -25.5t16.5 -18t23.5 -7t31.5 7.5q34 16 60.5 68 t36.5 96l9 45q14 31 43 32t41 -30q-1 -7 -3.5 -18.5t-13 -46t-23.5 -65.5t-36 -68.5t-50 -65t-66.5 -46t-83.5 -18.5q-87 0 -134 54q-44 39 -51 149q-119 -188 -222 -175q-72 9 -112 110q-46 121 -20 278zM174.5 163.5q10.5 -54.5 28.5 -57.5q22 -8 58 50t67 144t55.5 178.5 t25 154t-25.5 69.5q-25 3 -73.5 -57.5t-84.5 -150.5q-39 -89 -50 -182.5t-0.5 -148zM229 1384q27 13 52.5 18.5t53 2.5t51.5 -24t42 -58l61 -248q-24 -81 -112 0z" />
<glyph unicode="&#xe1;" horiz-adv-x="712" d="M0 393q4 25 10 49q17 61 46 118.5t70 108.5t97.5 83t120.5 34q56 2 97 -25t53 -79q52 4 96 -41q27 -28 17 -37q-1 -2 -5 -2q-30 0 -46.5 -111.5t-20.5 -244.5h2q0 -3 -0.5 -7t-1 -18t0 -25.5t2 -29t5.5 -29.5t10.5 -25.5t16.5 -18t23.5 -7t31.5 7.5q34 16 60.5 68 t36.5 96l9 45q14 31 43 32t41 -30q-1 -7 -3.5 -18.5t-13 -46t-23.5 -65.5t-36 -68.5t-50 -65t-66.5 -46t-83.5 -18.5q-86 0 -133 54q-45 40 -52 149q-119 -188 -222 -175q-72 9 -112 110q-46 121 -20 278zM178.5 163.5q10.5 -54.5 28.5 -57.5q22 -8 58 50t67 144t55.5 178.5 t25 154t-25.5 69.5q-25 3 -73.5 -57.5t-84.5 -150.5q-39 -89 -50 -182.5t-0.5 -148zM242 1065l82 272q102 121 153 0l-123 -272q-46 -84 -112 0z" />
<glyph unicode="&#xe2;" horiz-adv-x="712" d="M-2 393q4 25 10 49q17 61 46 118.5t70 108.5t97.5 83t120.5 34q56 2 97 -25t53 -79q52 4 96 -41q27 -28 17 -37q-1 -2 -5 -2q-30 0 -47 -112t-21 -244h3q0 -3 -0.5 -7t-1 -18t0 -25.5t2 -29t5.5 -29.5t10.5 -25.5t16.5 -18t23.5 -7t31.5 7.5q34 16 60.5 68t36.5 96l9 45 q14 31 43 32t41 -30q-1 -7 -3.5 -18.5t-13 -46t-23.5 -65.5t-36 -68.5t-50 -65t-66.5 -46t-83.5 -18.5q-87 0 -134 54q-44 39 -51 149q-119 -188 -222 -175q-72 9 -112 110q-46 121 -20 278zM166 1079l125 250q4 2 14.5 8.5t15 9t13 4.5t13.5 0t10.5 -9t9.5 -19l186 -240 q-2 -14 -4.5 -21t-10.5 -13.5t-21 -4t-37 14t-58 35.5l-84 96l-84 -119q-91 -79 -88 8zM176.5 163.5q10.5 -54.5 28.5 -57.5q22 -8 58 50t67 144t55.5 178.5t25 154t-25.5 69.5q-25 3 -73.5 -57.5t-84.5 -150.5q-39 -89 -50 -182.5t-0.5 -148z" />
<glyph unicode="&#xe3;" horiz-adv-x="739" d="M4 393q4 25 10 49q17 61 46 118.5t70 108.5t97.5 83t120.5 34q56 2 97 -25t53 -79q52 4 96 -41q27 -28 17 -37q-1 -2 -5 -2q-30 0 -46.5 -111.5t-20.5 -244.5h2q0 -3 -0.5 -7t-1 -18t0 -25.5t2 -29t5.5 -29.5t10.5 -25.5t16.5 -18t23.5 -7t31.5 7.5q34 16 60.5 68 t36.5 96l9 45q14 31 43 32t41 -30q-1 -7 -3.5 -18.5t-13 -46t-23.5 -65.5t-36 -68.5t-50 -65t-66.5 -46t-83.5 -18.5q-86 0 -133 54q-45 40 -52 149q-119 -188 -222 -175q-72 9 -112 110q-46 121 -20 278zM72 1034q35 71 98 105q55 35 141 35q35 0 70 -7q42 -9 57 -16 q26 -10 54 -16q31 -9 57 -9q15 0 51 9q19 11 29 28l18 -2q-6 -26 -26 -53q-20 -23 -56 -45q-31 -22 -69 -33q-38 -14 -80 -14q-28 0 -68 8q-37 11 -57 20q-17 4 -58 17q-27 10 -57 10q-25 0 -38.5 -10t-33.5 -37zM182.5 163.5q10.5 -54.5 28.5 -57.5q22 -8 58 50t67 144 t55.5 178.5t25 154t-25.5 69.5q-25 3 -73.5 -57.5t-84.5 -150.5q-39 -89 -50 -182.5t-0.5 -148z" />
<glyph unicode="&#xe4;" horiz-adv-x="712" d="M8 393q4 25 10 49q17 61 46 118.5t70 108.5t97.5 83t120.5 34q56 2 97 -25t53 -79q52 4 96 -41q27 -28 17 -37q-1 -2 -5 -2q-30 0 -46.5 -111.5t-20.5 -244.5h2q0 -3 -0.5 -7t-1 -18t0 -25.5t2 -29t5.5 -29.5t10.5 -25.5t16.5 -18t23.5 -7t31.5 7.5q34 16 60.5 68 t36.5 96l9 45q14 31 43 32t41 -30q-1 -7 -3.5 -18.5t-13 -46t-23.5 -65.5t-36 -68.5t-50 -65t-66.5 -46t-83.5 -18.5q-86 0 -133 54q-45 40 -52 149q-119 -188 -222 -175q-72 9 -112 110q-46 121 -20 278zM178 1133q0 36 25 61t63 25q35 0 61.5 -25.5t26.5 -60.5 q0 -38 -26 -63.5t-62 -25.5q-38 0 -63 25.5t-25 63.5zM187 163.5q10 -54.5 28 -57.5q22 -8 58 50t67 144t55.5 178.5t25 154t-25.5 69.5q-25 3 -73 -57.5t-84 -150.5q-39 -89 -50 -182.5t-1 -148zM436 1133q0 36 25 61t63 25q35 0 61.5 -25.5t26.5 -60.5q0 -38 -26 -63.5 t-62 -25.5q-38 0 -63 25.5t-25 63.5z" />
<glyph unicode="&#xe5;" horiz-adv-x="712" d="M-6 393q4 25 10 49q17 61 46 118.5t70 108.5t97.5 83t120.5 34q56 2 96.5 -25t52.5 -79q53 4 97 -42q27 -27 17 -36q-1 -2 -5 -2q-30 0 -47 -112t-21 -244h2q0 -3 -0.5 -7t-1 -18t0 -25.5t2 -29t5.5 -29.5t10.5 -25.5t16.5 -18t23.5 -7t31.5 7.5q34 16 60.5 68t36.5 96 l10 45q14 31 43 32t41 -30q-1 -7 -4 -18.5t-13.5 -46t-23.5 -65.5t-36 -68.5t-50 -65t-66.5 -46t-83.5 -18.5q-86 0 -133 54q-44 39 -51 149q-119 -188 -222 -175q-72 9 -112 110q-46 121 -20 278zM172.5 163.5q10.5 -54.5 28.5 -57.5q22 -8 58 50t67 144t55.5 178.5t25 154 t-25.5 69.5q-25 3 -73.5 -57.5t-84.5 -150.5q-39 -89 -50 -182.5t-0.5 -148zM274 1212q5 22 21 50q35 58 92 61t84 -50q28 -57 4 -153q-6 -26 -20 -47q-34 -56 -88.5 -64t-86.5 47t-6 156zM324 1167q-12 -84 23 -82q28 1 60 49q31 48 31 95q13 57 -19 60q-29 3 -60 -38 q-29 -37 -35 -84z" />
<glyph unicode="&#xe6;" horiz-adv-x="1318" d="M-26 393q4 25 10 49q17 61 45.5 118.5t69.5 108.5t97.5 83t120.5 34q56 2 97 -25t53 -79q52 4 96 -41q27 -28 17 -37q-1 -2 -5 -2q-30 0 -46.5 -111.5t-20.5 -244.5h2q0 -3 -0.5 -7t-1 -18t0 -25.5t2 -29t5.5 -29.5t10.5 -25.5t16.5 -18t23.5 -7t31.5 7.5q34 16 60.5 68 t36.5 96l10 45q14 31 42.5 32t40.5 -30q-1 -7 -3.5 -18.5t-13 -46t-23.5 -65.5t-36 -68.5t-50 -65t-66.5 -46t-83.5 -18.5q-86 0 -133 54q-44 39 -51 149q-119 -188 -222 -175q-72 9 -112 110q-46 121 -20 278zM152 163.5q10 -54.5 28 -57.5q22 -8 58 50t67 144t55.5 178.5 t25 154t-25.5 69.5q-25 3 -73 -57.5t-84 -150.5q-39 -89 -50 -182.5t-1 -148zM404.5 229q-10.5 82 4 175.5t50.5 173.5t100.5 137.5t145.5 68.5q54 8 97 -14t60 -70q73 -30 32 -144q-37 -103 -135 -203q-94 -95 -171 -109q-8 -70 -2 -107t16 -48.5t31 -14.5q50 -9 115 31 t121 104t100.5 134.5t60.5 123.5q3 0 8 0.5t17.5 -1t21.5 -5t14.5 -12t2.5 -21.5q-8 -37 -33.5 -87t-64.5 -104.5t-89 -103.5t-107.5 -85t-120 -49t-126.5 5q-61 18 -99.5 80.5t-49 144.5zM590 332q59 32 130 137q80 117 82 188q1 50 -46 50q-31 1 -69 -67t-63.5 -150 t-31.5 -138q-2 -8 -2 -20z" />
<glyph unicode="&#xe7;" horiz-adv-x="614" d="M7 221.5q-12 83.5 1.5 178t49 176t100 139.5t145.5 69q54 8 97.5 -14t60.5 -70q29 -1 44 -24t15.5 -53t-3.5 -57t-11 -38q-39 -51 -127 -39q14 88 8.5 153t-33.5 65q-31 1 -69 -67t-63.5 -150t-31.5 -138q-14 -115 -5 -180t30 -88.5t51 -13.5q65 20 132.5 79.5t117.5 132 t86 139.5t51 116q3 0 8 0.5t17.5 -1t21.5 -5t14.5 -12t2.5 -21.5q-8 -37 -37 -104.5t-90 -159.5t-129 -146q-87 -68 -156.5 -92.5t-144.5 -3.5q-62 18 -101.5 82t-51.5 147.5zM104 -260l58 -23q-1 -2 -4 -10t-3.5 -10.5t-2 -9t0 -9.5l3.5 -7t7 -6t13 -3q53 -3 92 39 q46 59 2 88q-39 27 -107 9q-15 -4 -30 -11l88 266l47 -33l-55 -170q138 29 184 -33q34 -44 2 -104q-33 -63 -110 -84q-49 -14 -105 -4q-50 7 -71 37q-27 43 -9 78z" />
<glyph unicode="&#xe8;" horiz-adv-x="600" d="M3.5 229q-10.5 82 3.5 175.5t50 173.5t100.5 137.5t145.5 68.5q54 8 97.5 -14t60.5 -70q73 -30 32 -144q-38 -103 -136 -203q-94 -95 -171 -109q-8 -70 -2 -107t16 -48.5t31 -14.5q50 -9 115 31t121 104t101 134.5t61 123.5q3 0 8 0.5t17.5 -1t21 -5t14 -12t2.5 -21.5 q-10 -45 -43.5 -107t-87.5 -126.5t-117 -115.5t-141 -74t-151 -1q-61 18 -99.5 80.5t-49 144.5zM158 1384q137 68 198 -61l62 -248q-24 -82 -113 0zM188 332q59 32 130 137q80 117 82 188q1 50 -46 50q-31 1 -69 -67t-63.5 -150t-31.5 -138q-2 -8 -2 -20z" />
<glyph unicode="&#xe9;" horiz-adv-x="600" d="M3.5 229q-10.5 82 3.5 175.5t50 173.5t100.5 137.5t145.5 68.5q54 8 97.5 -14t60.5 -70q73 -30 32 -144q-38 -103 -136 -203q-94 -95 -171 -109q-8 -70 -2 -107t16 -48.5t31 -14.5q50 -9 115 31t121 104t101 134.5t61 123.5q3 0 8 0.5t17.5 -1t21 -5t14 -12t2.5 -21.5 q-10 -45 -43.5 -107t-87.5 -126.5t-117 -115.5t-141 -74t-151 -1q-61 18 -99.5 80.5t-49 144.5zM172 1065l82 272q103 122 154 0l-123 -272q-46 -85 -113 0zM188 332q59 32 130 137q80 117 82 188q1 50 -46 50q-31 1 -69 -67t-63.5 -150t-31.5 -138q-2 -8 -2 -20z" />
<glyph unicode="&#xea;" horiz-adv-x="600" d="M3.5 229q-10.5 82 3.5 175.5t50 173.5t100.5 137.5t145.5 68.5q54 8 97.5 -14t60.5 -70q73 -30 32 -144q-38 -103 -136 -203q-94 -95 -171 -109q-8 -70 -2 -107t16 -48.5t31 -14.5q50 -9 115 31t121 104t101 134.5t61 123.5q3 0 8 0.5t17.5 -1t21 -5t14 -12t2.5 -21.5 q-10 -45 -43.5 -107t-87.5 -126.5t-117 -115.5t-141 -74t-151 -1q-61 18 -99.5 80.5t-49 144.5zM96 1079l125 250q4 2 14.5 8.5t15 9t13 4.5t13.5 0t10.5 -9t9.5 -19l186 -240q-2 -14 -4.5 -21t-10.5 -13.5t-21 -4t-37 14t-58 35.5l-84 96l-84 -119q-91 -79 -88 8zM188 332 q59 32 130 137q80 117 82 188q1 50 -46 50q-31 1 -69 -67t-63.5 -150t-31.5 -138q-2 -8 -2 -20z" />
<glyph unicode="&#xeb;" horiz-adv-x="600" d="M3.5 229q-10.5 82 3.5 175.5t50 173.5t100.5 137.5t145.5 68.5q54 8 97.5 -14t60.5 -70q73 -30 32 -144q-38 -103 -136 -203q-94 -95 -171 -109q-8 -70 -2 -107t16 -48.5t31 -14.5q50 -9 115 31t121 104t101 134.5t61 123.5q3 0 8 0.5t17.5 -1t21 -5t14 -12t2.5 -21.5 q-10 -45 -43.5 -107t-87.5 -126.5t-117 -115.5t-141 -74t-151 -1q-61 18 -99.5 80.5t-49 144.5zM72 1133q0 36 25 61t63 25q35 0 61.5 -25.5t26.5 -60.5q0 -38 -26 -63.5t-62 -25.5q-38 0 -63 25.5t-25 63.5zM188 332q59 32 130 137q80 117 82 188q1 50 -46 50 q-31 1 -69 -67t-63.5 -150t-31.5 -138q-2 -8 -2 -20zM330 1133q0 36 25 61t63 25q35 0 61.5 -25.5t26.5 -60.5q0 -38 -26 -63.5t-62 -25.5q-38 0 -63 25.5t-25 63.5z" />
<glyph unicode="&#xec;" horiz-adv-x="409" d="M1.5 214q-1.5 64 8 132t19 134.5t17.5 120t6.5 88t-15.5 38.5q-14 3 -17 12q-1 16 35.5 32t87 14t80.5 -31q29 -26 34.5 -79.5t-4 -101.5t-24.5 -111.5t-18 -88.5q-27 -190 -6 -238q6 -21 18 -33t18.5 -14t10.5 -2q-1 0 -9.5 -13.5t-20.5 -29t-31 -29t-39 -14.5 q-55 -4 -90 24t-47 77t-13.5 113zM57 1384q27 13 52.5 18.5t53 2.5t51.5 -24t42 -58l61 -248q-24 -81 -112 0z" />
<glyph unicode="&#xed;" horiz-adv-x="397" d="M1.5 214q-1.5 64 8 132t19 134.5t17.5 120t6.5 88t-15.5 38.5q-14 3 -17 12q-1 16 35.5 32t87 14t80.5 -31q29 -26 34.5 -79.5t-4 -101.5t-24.5 -111.5t-18 -88.5q-27 -190 -6 -238q6 -21 18 -33t18.5 -14t10.5 -2q-1 0 -9.5 -13.5t-20.5 -29t-31 -29t-39 -14.5 q-55 -4 -90 24t-47 77t-13.5 113zM70 1065l82 272q102 121 153 0l-123 -272q-46 -84 -112 0z" />
<glyph unicode="&#xee;" horiz-adv-x="481" d="M2 1079l125 250q4 2 14.5 8.5t15 9t13 4.5t13.5 0t10.5 -9t9.5 -19l186 -240q-2 -14 -4.5 -21t-10.5 -13.5t-21 -4t-37 14t-58 35.5l-84 96l-84 -119q-91 -79 -88 8zM7.5 214q-1.5 64 8 132t19 134.5t17.5 120t6.5 88t-15.5 38.5q-13 3 -16 12q-1 16 35 32t86.5 14 t80.5 -31q29 -26 34.5 -79.5t-4 -101.5t-24.5 -111.5t-18 -88.5q-27 -190 -6 -238q6 -21 18 -33t18.5 -14t10.5 -2q-1 0 -9.5 -13.5t-20.5 -29t-31 -29t-39 -14.5q-55 -4 -90 24t-47 77t-13.5 113z" />
<glyph unicode="&#xef;" horiz-adv-x="526" d="M0 1133q0 36 25 61t63 25q35 0 61.5 -25.5t26.5 -60.5q0 -38 -26 -63.5t-62 -25.5q-38 0 -63 25.5t-25 63.5zM29.5 214q-1.5 64 8 132t19 134.5t18 120t7 88t-15.5 38.5q-14 3 -17 12q-1 16 35.5 32t87 14t80.5 -31q29 -26 34.5 -79.5t-4 -101.5t-24.5 -111.5t-18 -88.5 q-27 -192 -7 -238q6 -21 18.5 -33t19 -14t10.5 -2q-1 0 -10 -13.5t-20.5 -29t-31 -29t-39.5 -14.5q-55 -4 -90 24t-47 77t-13.5 113zM258 1133q0 36 25 61t63 25q35 0 61.5 -25.5t26.5 -60.5q0 -38 -26 -63.5t-62 -25.5q-38 0 -63 25.5t-25 63.5z" />
<glyph unicode="&#xf0;" horiz-adv-x="763" d="M0 694q0 498 391 498q154 0 217.5 -84t63.5 -244q0 -182 -107 -411.5t-248 -361.5t-227 -62q234 187 356 465q-75 -88 -184 -88q-128 0 -195 79.5t-67 208.5zM175 640.5q14 -153.5 134 -153.5q100 0 159 156.5t35.5 312.5t-122.5 156q-82 -7 -151 -162.5t-55 -309z" />
<glyph unicode="&#xf1;" horiz-adv-x="772" d="M1.5 210q-1.5 64 8 132t19 134.5t17.5 120t6.5 88t-15.5 38.5q-14 3 -17 12q-1 23 58.5 41t119.5 -9.5t60 -115.5q156 168 287 105q53 -26 79 -81.5t27 -127t-6 -139t-16.5 -139.5t-7.5 -107q13 -104 88 -68q34 16 60.5 68t36.5 96l9 45q14 31 43 32t41 -30 q-1 -7 -3.5 -18.5t-13 -46t-23.5 -65.5t-36 -68.5t-50 -65t-66.5 -46t-83.5 -18.5q-47 0 -86 17q-111 13 -99 221v25l2 2q1 12 9 67t13.5 100t10.5 100.5t3.5 97.5t-9.5 63q-14 33 -39.5 34t-58.5 -26.5t-64 -62.5t-65 -83q-13 -70 -20.5 -112.5t-16.5 -109t-8.5 -111.5 t10.5 -68q6 -21 18 -33t18.5 -14t10.5 -2q-1 0 -9.5 -13.5t-20.5 -29t-31 -29t-39 -14.5q-55 -4 -90 24t-47 77t-13.5 113zM102 1034q34 70 99 105q55 35 141 35q35 0 70 -7q42 -9 57 -16q28 -10 53 -16q31 -9 58 -9q15 0 51 9q18 10 28 28l19 -2q-5 -24 -27 -53 q-22 -25 -55 -45q-30 -21 -70 -33q-38 -14 -80 -14q-27 0 -67 8q-37 11 -57 20q-18 4 -58 17q-27 10 -57 10q-25 0 -38.5 -10t-33.5 -37z" />
<glyph unicode="&#xf2;" d="M8 389q25 158 131.5 271t231.5 116q46 -8 61 -16q10 -6 19.5 -17.5t13.5 -19.5l4 -8q20 14 45 16q11 2 26.5 -1.5t37.5 -15.5t41 -45t28 -83q10 -85 2 -170q26 0 47 8q22 8 40 22.5t27 30t15.5 29t7.5 22.5l2 9q14 31 43 32t41 -30q-2 -8 -6.5 -20.5t-22.5 -45.5 t-42 -59.5t-68.5 -50.5t-97.5 -29q-16 -68 -44.5 -125t-73.5 -106t-114 -77t-155 -28q-84 0 -146 52.5t-87.5 142.5t-6.5 196zM231 149q32 -79 97 -79q57 0 108 83t70 205q-109 53 -195 217q-44 -75 -80 -213q-32 -134 0 -213zM238 1384q137 68 198 -61l62 -248 q-24 -82 -113 0zM410 662q9 -25 37.5 -73.5t66.5 -90.5q-3 166 -88 166q-3 0 -8.5 -1t-7.5 -1z" />
<glyph unicode="&#xf3;" d="M8 389q25 158 131.5 271t231.5 116q46 -8 61 -16q10 -6 19.5 -17.5t13.5 -19.5l4 -8q20 14 45 16q11 2 26.5 -1.5t37.5 -15.5t41 -45t28 -83q10 -85 2 -170q26 0 47 8q22 8 40 22.5t27 30t15.5 29t7.5 22.5l2 9q14 31 43 32t41 -30q-2 -8 -6.5 -20.5t-22.5 -45.5 t-42 -59.5t-68.5 -50.5t-97.5 -29q-16 -68 -44.5 -125t-73.5 -106t-114 -77t-155 -28q-84 0 -146 52.5t-87.5 142.5t-6.5 196zM231 149q32 -79 97 -79q57 0 108 83t70 205q-109 53 -195 217q-44 -75 -80 -213q-32 -134 0 -213zM250 1065l82 272q102 121 153 0l-123 -272 q-46 -84 -112 0zM410 662q9 -25 37.5 -73.5t66.5 -90.5q-3 166 -88 166q-3 0 -8.5 -1t-7.5 -1z" />
<glyph unicode="&#xf4;" d="M8 389q25 158 131.5 271t231.5 116q46 -8 61 -16q10 -6 19.5 -17.5t13.5 -19.5l4 -8q20 14 45 16q11 2 26.5 -1.5t37.5 -15.5t41 -45t28 -83q10 -85 2 -170q26 0 47 8q22 8 40 22.5t27 30t15.5 29t7.5 22.5l2 9q14 31 43 32t41 -30q-2 -8 -6.5 -20.5t-22.5 -45.5 t-42 -59.5t-68.5 -50.5t-97.5 -29q-16 -68 -44.5 -125t-73.5 -106t-114 -77t-155 -28q-84 0 -146 52.5t-87.5 142.5t-6.5 196zM176 1079l125 250q4 2 14.5 8.5t15 9t13 4.5t13.5 0t10.5 -9t9.5 -19l186 -240q-2 -14 -4.5 -21t-10.5 -13.5t-21 -4t-37 14t-58 35.5l-84 96 l-84 -119q-91 -79 -88 8zM231 149q32 -79 97 -79q57 0 108 83t70 205q-109 53 -195 217q-44 -75 -80 -213q-32 -134 0 -213zM410 662q9 -25 37.5 -73.5t66.5 -90.5q-3 166 -88 166q-3 0 -8.5 -1t-7.5 -1z" />
<glyph unicode="&#xf5;" horiz-adv-x="749" d="M8 389q25 158 131.5 271t231.5 116q46 -8 61 -16q10 -6 19.5 -17.5t13.5 -19.5l4 -8q20 14 45 16q11 2 26.5 -1.5t37.5 -15.5t41 -45t28 -83q10 -85 2 -170q26 0 47 8q22 8 40 22.5t27 30t15.5 29t7.5 22.5l2 9q14 31 43 32t41 -30q-2 -8 -6.5 -20.5t-22.5 -45.5 t-42 -59.5t-68.5 -50.5t-97.5 -29q-16 -68 -44.5 -125t-73.5 -106t-114 -77t-155 -28q-84 0 -146 52.5t-87.5 142.5t-6.5 196zM82 1034q35 71 98 105q55 35 142 35q34 0 69 -7q44 -10 58 -16q28 -10 53 -16q32 -9 57 -9q15 0 51 9q19 11 29 28l18 -2q-6 -26 -26 -53 q-20 -23 -56 -45q-31 -22 -69 -33q-38 -14 -80 -14q-28 0 -68 8q-37 11 -57 20q-15 3 -57 17q-27 10 -58 10q-18 0 -30.5 -6.5t-19.5 -13.5t-21 -27zM231 149q32 -79 97 -79q57 0 108 83t70 205q-109 53 -195 217q-44 -75 -80 -213q-32 -134 0 -213zM410 662 q9 -25 37.5 -73.5t66.5 -90.5q-3 166 -88 166q-3 0 -8.5 -1t-7.5 -1z" />
<glyph unicode="&#xf6;" d="M8 389q25 158 131.5 271t231.5 116q46 -8 61 -16q10 -6 19.5 -17.5t13.5 -19.5l4 -8q20 14 45 16q11 2 26.5 -1.5t37.5 -15.5t41 -45t28 -83q10 -85 2 -170q26 0 47 8q22 8 40 22.5t27 30t15.5 29t7.5 22.5l2 9q14 31 43 32t41 -30q-2 -8 -6.5 -20.5t-22.5 -45.5 t-42 -59.5t-68.5 -50.5t-97.5 -29q-16 -68 -44.5 -125t-73.5 -106t-114 -77t-155 -28q-84 0 -146 52.5t-87.5 142.5t-6.5 196zM152 1133q0 36 25 61t63 25q35 0 61.5 -25.5t26.5 -60.5q0 -38 -26 -63.5t-62 -25.5q-38 0 -63 25.5t-25 63.5zM231 149q32 -79 97 -79 q57 0 108 83t70 205q-109 53 -195 217q-44 -75 -80 -213q-32 -134 0 -213zM410 662q9 -25 37.5 -73.5t66.5 -90.5q-3 166 -88 166q-3 0 -8.5 -1t-7.5 -1zM410 1133q0 36 25 61t63 25q35 0 61.5 -25.5t26.5 -60.5q0 -38 -26 -63.5t-62 -25.5q-38 0 -63 25.5t-25 63.5z" />
<glyph unicode="&#xf7;" horiz-adv-x="395" d="M0 195q0 51 35 81q35 35 80 35q47 0 82 -35q32 -28 32 -81q0 -52 -32 -80q-35 -35 -82 -35q-45 0 -80 35q-35 30 -35 80zM74 543q0 52 32 80q31 34 82 34q53 0 80 -34q35 -30 35 -80q0 -47 -35 -82q-29 -33 -80 -33q-49 0 -82 33q-32 32 -32 82z" />
<glyph unicode="&#xf8;" d="M8 389q25 158 131.5 271t231.5 116q46 -8 61 -16q10 -6 19.5 -17.5t13.5 -19.5l4 -8q20 14 45 16q11 2 26.5 -1.5t37.5 -15.5t41 -45t28 -83q10 -85 2 -170q26 0 47 8q22 8 40 22.5t27 30t15.5 29t7.5 22.5l2 9q14 31 43 32t41 -30q-2 -8 -6.5 -20.5t-22.5 -45.5 t-42 -59.5t-68.5 -50.5t-97.5 -29q-16 -68 -44.5 -125t-73.5 -106t-114 -77t-155 -28q-84 0 -146 52.5t-87.5 142.5t-6.5 196zM160 -358l307 1435h108l-305 -1435h-110zM231 149q32 -79 97 -79q57 0 108 83t70 205q-109 53 -195 217q-44 -75 -80 -213q-32 -134 0 -213z M410 662q9 -25 37.5 -73.5t66.5 -90.5q-3 166 -88 166q-3 0 -8.5 -1t-7.5 -1z" />
<glyph unicode="&#xf9;" horiz-adv-x="815" d="M1 227.5q-3 63.5 7 129.5t21 130.5t20.5 115.5t7.5 85t-18 39q-13 3 -16 12q-1 25 64.5 43t124.5 -17.5t46 -141.5l-14 -70t-23.5 -131t-19 -140.5t-2 -126t29.5 -61.5q44 -19 88.5 38t69.5 133.5t31 135.5q21 187 28 224q19 110 101 147q44 17 84.5 14.5t67.5 -17 t22 -28.5q-2 -6 -21 -12q-36 -8 -71 -221.5t-33 -335.5q3 -57 33 -78q11 -6 28 -6l-2 -2q13 0 29 8q34 16 69 70t53 100l19 47q14 31 43 32t41 -30q-2 -7 -6 -19t-18 -47t-30 -66.5t-43.5 -70.5t-57 -67t-71 -47t-85.5 -19q-79 0 -123 41q-63 40 -63 158q-45 -99 -67 -126 q-37 -45 -116 -49q-20 -2 -45 -1q-66 2 -108 33.5t-57 81t-18 113zM260 1384q27 13 52.5 18.5t53 2.5t51.5 -24t42 -58l61 -248q-24 -81 -112 0z" />
<glyph unicode="&#xfa;" horiz-adv-x="815" d="M1 227.5q-3 63.5 7 129.5t21 130.5t20.5 115.5t7.5 85t-18 39q-13 3 -16 12q-1 25 64.5 43t124.5 -17.5t46 -141.5l-14 -70t-23.5 -131t-19 -140.5t-2 -126t29.5 -61.5q44 -19 88.5 38t69.5 133.5t31 135.5q21 187 28 224q19 110 101 147q44 17 84.5 14.5t67.5 -17 t22 -28.5q-2 -6 -21 -12q-36 -8 -71 -221.5t-33 -335.5q3 -57 33 -78q11 -6 28 -6l-2 -2q13 0 29 8q34 16 69 70t53 100l19 47q14 31 43 32t41 -30q-2 -7 -6 -19t-18 -47t-30 -66.5t-43.5 -70.5t-57 -67t-71 -47t-85.5 -19q-79 0 -123 41q-63 40 -63 158q-45 -99 -67 -126 q-37 -45 -116 -49q-20 -2 -45 -1q-66 2 -108 33.5t-57 81t-18 113zM272 1065l82 272q103 122 154 0l-123 -272q-46 -85 -113 0z" />
<glyph unicode="&#xfb;" horiz-adv-x="815" d="M1 227.5q-3 63.5 7 129.5t21 130.5t20.5 115.5t7.5 85t-18 39q-13 3 -16 12q-1 25 64.5 43t124.5 -17.5t46 -141.5l-14 -70t-23.5 -131t-19 -140.5t-2 -126t29.5 -61.5q44 -19 88.5 38t69.5 133.5t31 135.5q21 187 28 224q19 110 101 147q44 17 84.5 14.5t67.5 -17 t22 -28.5q-2 -6 -21 -12q-36 -8 -71 -221.5t-33 -335.5q3 -57 33 -78q11 -6 28 -6l-2 -2q13 0 29 8q34 16 69 70t53 100l19 47q14 31 43 32t41 -30q-2 -7 -6 -19t-18 -47t-30 -66.5t-43.5 -70.5t-57 -67t-71 -47t-85.5 -19q-79 0 -123 41q-63 40 -63 158q-45 -99 -67 -126 q-37 -45 -116 -49q-20 -2 -45 -1q-66 2 -108 33.5t-57 81t-18 113zM197 1079l125 250q4 2 14 8.5t15 9t13 4.5t13 0t10.5 -9t9.5 -19l187 -240q-2 -14 -4.5 -21t-10.5 -13.5t-21 -4t-37 14t-58 35.5l-84 96l-84 -119q-91 -79 -88 8z" />
<glyph unicode="&#xfc;" horiz-adv-x="815" d="M1 227.5q-3 63.5 7 129.5t21 130.5t20.5 115.5t7.5 85t-18 39q-13 3 -16 12q-1 25 64.5 43t124.5 -17.5t46 -141.5l-14 -70t-23.5 -131t-19 -140.5t-2 -126t29.5 -61.5q44 -19 88.5 38t69.5 133.5t31 135.5q21 187 28 224q19 110 101 147q44 17 84.5 14.5t67.5 -17 t22 -28.5q-2 -6 -21 -12q-36 -8 -71 -221.5t-33 -335.5q3 -57 33 -78q11 -6 28 -6l-2 -2q13 0 29 8q34 16 69 70t53 100l19 47q14 31 43 32t41 -30q-2 -7 -6 -19t-18 -47t-30 -66.5t-43.5 -70.5t-57 -67t-71 -47t-85.5 -19q-79 0 -123 41q-63 40 -63 158q-45 -99 -67 -126 q-37 -45 -116 -49q-20 -2 -45 -1q-66 2 -108 33.5t-57 81t-18 113zM174 1133q0 36 25 61t63 25q35 0 61.5 -25.5t26.5 -60.5q0 -38 -26 -63.5t-62 -25.5q-38 0 -63 25.5t-25 63.5zM432 1133q0 36 25 61t63 25q35 0 61.5 -25.5t26.5 -60.5q0 -38 -26 -63.5t-62 -25.5 q-38 0 -63 25.5t-25 63.5z" />
<glyph unicode="&#xfd;" horiz-adv-x="847" d="M1 225.5q-3 63.5 7 129.5t21 130.5t20.5 115.5t7.5 85t-18 39q-13 3 -16 12q-1 25 64.5 43t124.5 -17.5t46 -141.5q-1 -6 -14.5 -72t-24.5 -133.5t-20 -143t-2 -125.5t32 -55q39 -9 78 38t71 131.5t57 175t44 188.5q13 129 117 156q66 18 128 -9q35 -16 30 -31 q-2 -6 -21 -12q-11 -2 -28 -47q-12 -37 -22.5 -95.5t-16.5 -109t-16.5 -141.5l-16.5 -143q51 21 107.5 43t86 33t33.5 14q14 11 28.5 -6.5t24.5 -49.5q-61 -31 -165.5 -81t-129.5 -62q-19 -126 -34 -199q-85 -407 -283 -399q-77 3 -128 60.5t-56 138.5q-13 219 307 405 l18 170q-18 -53 -41 -96.5t-54.5 -83.5t-73 -61.5t-89.5 -20.5q-66 2 -108 33.5t-57 81t-18 113zM211 -297q-1 -51 17 -84t40 -35q36 -1 62 41t45 124.5t37 223.5q-98 -61 -149 -125t-52 -145zM272 1065l82 272q103 122 154 0l-123 -272q-46 -85 -113 0z" />
<glyph unicode="&#xff;" horiz-adv-x="847" d="M1 225.5q-3 63.5 7 129.5t21 130.5t20.5 115.5t7.5 85t-18 39q-13 3 -16 12q-1 25 64.5 43t124.5 -17.5t46 -141.5q-1 -6 -14.5 -72t-24.5 -133.5t-20 -143t-2 -125.5t32 -55q39 -9 78 38t71 131.5t57 175t44 188.5q13 129 117 156q66 18 128 -9q35 -16 30 -31 q-2 -6 -21 -12q-11 -2 -28 -47q-12 -37 -22.5 -95.5t-16.5 -109t-16.5 -141.5l-16.5 -143q51 21 107.5 43t86 33t33.5 14q14 11 28.5 -6.5t24.5 -49.5q-61 -31 -165.5 -81t-129.5 -62q-19 -126 -34 -199q-85 -407 -283 -399q-77 3 -128 60.5t-56 138.5q-13 219 307 405 l18 170q-18 -53 -41 -96.5t-54.5 -83.5t-73 -61.5t-89.5 -20.5q-66 2 -108 33.5t-57 81t-18 113zM174 1133q0 36 25 61t63 25q35 0 61.5 -25.5t26.5 -60.5q0 -38 -26 -63.5t-62 -25.5q-38 0 -63 25.5t-25 63.5zM211 -297q-1 -51 17 -84t40 -35q36 -1 62 41t45 124.5 t37 223.5q-98 -61 -149 -125t-52 -145zM432 1133q0 36 25 61t63 25q35 0 61.5 -25.5t26.5 -60.5q0 -38 -26 -63.5t-62 -25.5q-38 0 -63 25.5t-25 63.5z" />
<glyph unicode="&#x178;" horiz-adv-x="1570" d="M1.5 877q2.5 36 25.5 61q37 40 99.5 55.5t124 13t148.5 -0.5t152 16q57 13 107 31t80.5 35.5t52.5 32.5t31 25l9 9h3q16 18 47.5 32t72 20t85.5 -16t79 -73q15 -25 121 -188l152 -232q16 58 33.5 113t40.5 120t48 116t52 92.5t56 59.5t56 7q14 0 45 -35.5t29 -48.5 q-2 1 -5 2t-14.5 0t-24 -6.5t-32.5 -22t-41 -42.5q-62 -85 -204 -469h2q-11 -119 -17.5 -179.5t-17 -140.5t-22 -121.5t-25.5 -56.5q-56 -93 -158 -84q-91 -4 -162 63.5t-78 141.5q-10 42 -10 86t17.5 85t43.5 72t67.5 48t90.5 14q10 -4 20.5 -15t15.5 -27.5t-15 -31.5 q-71 -47 -81 -175q-7 -100 24 -161q27 -52 60 -15q4 4 7 9q11 16 18 70t25 246q10 106 16 172h2l-272 430q0 1 -5.5 10t-8 12t-8.5 12.5t-9.5 14.5t-10 14t-11.5 14l-12 12t-13 11.5t-12.5 9t-13.5 6.5q-101 -107 -265 -174q-81 -34 -187 -50t-176 -27.5t-95 -40.5 q-17 -19 -23.5 -37.5t-4.5 -31t6.5 -22.5t9.5 -15l5 -5q-1 -2 -2.5 -4t-9.5 -5t-18 -1q-33 6 -61 32t-42.5 59t-12 69zM1073 1401q0 36 25 61t63 25q35 0 61.5 -25.5t26.5 -60.5q0 -38 -26 -63t-62 -25q-38 0 -63 25t-25 63zM1331 1401q0 36 25 61t63 25q35 0 61.5 -25.5 t26.5 -60.5q0 -38 -26 -63t-62 -25q-38 0 -63 25t-25 63z" />
<glyph unicode="&#x2c6;" horiz-adv-x="481" d="M2 1079l125 250q4 2 14.5 8.5t15 9t13 4.5t13.5 0t10.5 -9t9.5 -19l186 -240q-2 -14 -4.5 -21t-10.5 -13.5t-21 -4t-37 14t-58 35.5l-84 96l-84 -119q-91 -79 -88 8z" />
<glyph unicode="&#x2dc;" horiz-adv-x="667" d="M0 1034q35 71 98 105q55 35 142 35q34 0 69 -7q44 -10 58 -16q28 -10 53 -16q31 -9 57 -9q15 0 51 9q19 11 29 28l18 -2q-6 -26 -26 -53q-22 -25 -55 -45q-30 -21 -70 -33q-38 -14 -80 -14q-28 0 -68 8q-37 11 -57 20q-15 3 -57 17q-27 10 -58 10q-18 0 -30.5 -6.5 t-19.5 -13.5t-21 -27z" />
<glyph unicode="&#x2000;" horiz-adv-x="908" />
<glyph unicode="&#x2001;" horiz-adv-x="1816" />
<glyph unicode="&#x2002;" horiz-adv-x="908" />
<glyph unicode="&#x2003;" horiz-adv-x="1816" />
<glyph unicode="&#x2004;" horiz-adv-x="605" />
<glyph unicode="&#x2005;" horiz-adv-x="454" />
<glyph unicode="&#x2006;" horiz-adv-x="302" />
<glyph unicode="&#x2007;" horiz-adv-x="302" />
<glyph unicode="&#x2008;" horiz-adv-x="227" />
<glyph unicode="&#x2009;" horiz-adv-x="363" />
<glyph unicode="&#x200a;" horiz-adv-x="100" />
<glyph unicode="&#x2010;" horiz-adv-x="423" d="M0 317l27 115h305l-17 -115h-315z" />
<glyph unicode="&#x2011;" horiz-adv-x="423" d="M0 317l27 115h305l-17 -115h-315z" />
<glyph unicode="&#x2012;" horiz-adv-x="423" d="M0 317l27 115h305l-17 -115h-315z" />
<glyph unicode="&#x2013;" horiz-adv-x="423" d="M0 315l25 115h307l-25 -115h-307z" />
<glyph unicode="&#x2014;" horiz-adv-x="622" d="M0 315l43 115h487l-36 -115h-494z" />
<glyph unicode="&#x2018;" horiz-adv-x="301" d="M4 873.5q9 45.5 32.5 89t67 74.5t95.5 34l10 -45q-48 -3 -70 -23.5t-39 -66.5l27 -6q38 -15 54.5 -52.5t2.5 -76.5q-15 -39 -52.5 -56.5t-76.5 -3.5q-33 12 -46.5 49.5t-4.5 83z" />
<glyph unicode="&#x2019;" horiz-adv-x="301" d="M0 778q46 3 67.5 23.5t41.5 66.5q-18 4 -27 9q-38 13 -55.5 51t-3.5 78q15 39 53 55t78 2q33 -12 46.5 -49.5t4.5 -83t-32.5 -89t-68 -74.5t-96.5 -34z" />
<glyph unicode="&#x201a;" horiz-adv-x="303" d="M0 -88q47 0 69 20.5t42 67.5q-51 3 -78 46.5t-8 88.5q13 40 52 57.5t77 2.5q34 -12 48.5 -49.5t5 -83t-33 -89t-68 -74.5t-96.5 -34z" />
<glyph unicode="&#x201c;" horiz-adv-x="608" d="M4 875.5q9 45.5 32.5 89t67 74.5t95.5 34l10 -45q-47 -3 -68 -23.5t-41 -66.5q22 -6 27 -8q38 -15 55 -53t2 -76q-13 -40 -51 -56.5t-78 -1.5q-33 12 -46.5 49.5t-4.5 83zM311 875.5q9 45.5 32.5 89t67 74.5t95.5 34l10 -45q-47 -3 -69 -24t-39 -66q20 -5 26 -8 q38 -15 55 -53t3 -76q-15 -39 -53 -56t-77 -2q-33 12 -46.5 49.5t-4.5 83z" />
<glyph unicode="&#x201d;" horiz-adv-x="610" d="M0 780q48 3 70 23.5t39 66.5l-25 7q-38 15 -55.5 53t-3.5 76q15 39 53 56t78 3q33 -12 46.5 -49.5t4.5 -83t-32.5 -89t-68 -74.5t-96.5 -34zM307 780q48 3 70 23.5t39 66.5l-25 7q-39 15 -56 52.5t-3 76.5q15 39 53 56t78 3q33 -12 46.5 -49.5t4 -83t-33 -89t-67.5 -74.5 t-96 -34z" />
<glyph unicode="&#x201e;" horiz-adv-x="610" d="M0 -92q49 3 70.5 23t42.5 69q-14 0 -29 6q-40 15 -57 55t0 80q14 39 52.5 57t78.5 1q34 -12 48.5 -50.5t5 -85t-33.5 -91.5t-69 -76t-99 -33zM303 -92q47 3 69.5 23.5t43.5 68.5q-14 0 -29 6q-40 15 -57 55t-2 80q15 39 54.5 57t78.5 1q34 -12 48.5 -50.5t5 -85 t-33.5 -91.5t-69 -76t-99 -33z" />
<glyph unicode="&#x2022;" horiz-adv-x="356" d="M0 385q0 54 37 94q39 39 94 39t94 -39t39 -94t-39 -94q-40 -37 -94 -37t-94 37q-37 40 -37 94z" />
<glyph unicode="&#x2026;" horiz-adv-x="1007" d="M0 106q0 44 35 82q29 33 78 33q47 0 80 -33q34 -34 34 -82q0 -50 -34 -77q-35 -35 -80 -35q-48 0 -78 35q-35 30 -35 77zM336 106q0 47 35 82q29 33 78 33q48 0 81 -33q33 -36 33 -82q0 -48 -33 -77q-35 -35 -81 -35q-48 0 -78 35q-35 28 -35 77zM686 106q0 41 33 82 q33 33 82 33q47 0 80 -33q34 -37 34 -82q0 -47 -34 -77q-35 -35 -80 -35q-47 0 -82 35q-33 33 -33 77z" />
<glyph unicode="&#x202f;" horiz-adv-x="363" />
<glyph unicode="&#x205f;" horiz-adv-x="454" />
<glyph unicode="&#x25fc;" horiz-adv-x="849" d="M0 0v850h850v-850h-850z" />
</font>
</defs>
</svg>
