<?xml version="1.0" standalone="no"?>
<!DOCTYPE svg PUBLIC "-//W3C//DTD SVG 1.1//EN" "http://www.w3.org/Graphics/SVG/1.1/DTD/svg11.dtd" >
<svg xmlns="http://www.w3.org/2000/svg">
<metadata></metadata>
<defs>
<font id="valentine_agnesregular" horiz-adv-x="638" >
<font-face units-per-em="2048" ascent="1536" descent="-512" />
<missing-glyph horiz-adv-x="512" />
<glyph horiz-adv-x="0" />
<glyph horiz-adv-x="682" />
<glyph unicode=" "  horiz-adv-x="512" />
<glyph unicode="&#x09;" horiz-adv-x="512" />
<glyph unicode="&#xa0;" horiz-adv-x="512" />
<glyph unicode="!" horiz-adv-x="440" d="M97 753q4 358 85 410q44 28 81 36.5t58.5 0.5t36.5 -20t21 -24l6 -11q-204 -364 -213 -824q-2 -74 3 -159v-23q-1 0 -1 2q-3 1 -7.5 3t-13.5 5.5t-15.5 5.5t-6.5 1l-6 38q-32 286 -28 559zM111 43q0 28 18.5 47t46.5 19t47 -19t19 -47t-19 -47t-47 -19t-46.5 19t-18.5 47 z" />
<glyph unicode="&#x22;" horiz-adv-x="395" d="M78 907h76l-17 -289h-43zM240 907h75l-16 -289h-41z" />
<glyph unicode="#" horiz-adv-x="610" d="M49 270v52h115l29 215h-117v51h123l34 264h52l-33 -264h147l35 264h53l-32 -264h106v-51h-115l-26 -215h117v-52h-123l-35 -270h-55l34 270h-145l-35 -270h-55l35 270h-109zM219 322h146l26 215h-145z" />
<glyph unicode="$" d="M94 84l27 49q71 -57 170 -57q78 0 126 44t48 113q0 61 -38.5 104t-115.5 77q-104 46 -153 96t-49 125q0 78 50 131t132 65v138h53v-135q92 -3 158 -50l-29 -47q-70 45 -149 45q-78 0 -117 -41.5t-39 -95.5q0 -60 36.5 -95.5t127.5 -76.5q98 -46 146 -99t48 -134 q0 -78 -50.5 -139t-141.5 -74v-138h-53v136q-51 0 -102 16.5t-85 42.5z" />
<glyph unicode="%" horiz-adv-x="966" d="M43 600q0 128 54.5 197t129.5 69h2q79 0 128 -65t49 -189q0 -130 -52.5 -199t-132.5 -69q-75 0 -126 65t-52 191zM98 606q-3 -93 31.5 -155t93.5 -62q63 0 94 61t31 158q0 96 -29.5 155.5t-93.5 59.5h-2q-58 0 -91.5 -62t-33.5 -155zM201 -16l510 884h51l-510 -884h-51z M561 248q0 128 55 197t132 69h2q77 0 125.5 -65.5t48.5 -190.5q0 -129 -52.5 -197.5t-130.5 -68.5q-75 0 -127 65t-53 191zM618 252q-3 -91 31.5 -153t91.5 -62q64 0 95.5 61t31.5 158q0 94 -30.5 153.5t-94.5 59.5h-2q-57 0 -90 -61.5t-33 -155.5z" />
<glyph unicode="&#x26;" horiz-adv-x="712" d="M41 233q0 160 174 261v2q-6 8 -23.5 32t-24.5 34.5t-20 31t-18.5 33.5t-10.5 30.5t-5 32.5q0 97 62.5 152t162.5 55q76 0 138.5 -49.5t62.5 -124.5q0 -69 -59 -126.5t-179 -115.5v-4q53 -62 148.5 -170.5t109.5 -124.5q22 33 28 95t-9.5 125t-51.5 92l47 34 q48 -42 65 -114t4 -144t-48 -125q4 -4 21 -23.5t32 -35t42 -37.5t53.5 -37t65.5 -28t79 -16.5t92.5 4t107.5 28.5l-26 -63q-240 -112 -502 163q-119 -114 -268 -114q-108 0 -179 71t-71 176zM150 242q0 -34 8 -67.5t24.5 -65.5t48.5 -52t74 -20q131 0 217 100 q-21 26 -119 136t-159 182q-41 -25 -67.5 -85.5t-26.5 -127.5zM213 694q0 -99 57 -178q84 45 123 90.5t39 110.5q0 128 -104 145q-60 0 -87.5 -49t-27.5 -119z" />
<glyph unicode="'" horiz-adv-x="233" d="M78 907h76l-17 -289h-43z" />
<glyph unicode="(" horiz-adv-x="348" d="M88 373q0 305 184 540h60q-185 -229 -185 -540q0 -167 48.5 -294t136.5 -239h-60q-184 227 -184 533z" />
<glyph unicode=")" horiz-adv-x="348" d="M16 -160q185 237 185 537q0 166 -48.5 293t-136.5 243h60q182 -229 182 -536q0 -304 -182 -537h-60z" />
<glyph unicode="*" horiz-adv-x="512" d="M39 657v60l186 -12v2l-114 157l57 33l86 -172h4l82 172l57 -33l-114 -159v-3l190 15v-60l-190 15v-2l114 -156l-59 -35l-82 172h-4l-90 -172l-51 35l114 158v2z" />
<glyph unicode="+" horiz-adv-x="782" d="M53 324v53h312v321h55v-321h309v-53h-309v-324h-55v324h-312z" />
<glyph unicode="," horiz-adv-x="227" d="M35 -166q15 42 36.5 130.5t30.5 148.5l82 14q-18 -69 -51 -162t-49 -125z" />
<glyph unicode="-" horiz-adv-x="249" d="M25 213v37h200v-37h-200z" />
<glyph unicode="." horiz-adv-x="227" d="M70 45q0 25 16 41t39 16t37 -16t14 -41t-14.5 -42t-38.5 -17h-2q-22 0 -36.5 17t-14.5 42z" />
<glyph unicode="/" horiz-adv-x="460" d="M-14 -53l417 950h64l-422 -950h-59z" />
<glyph unicode="0" d="M49 422q0 218 82 331t199 113q118 0 189 -108t71 -320q0 -223 -74.5 -337.5t-204.5 -114.5q-110 0 -184.5 110t-77.5 326zM188 299.5q1 -60.5 8 -109t20.5 -83t38.5 -52.5t62 -18q34 0 58.5 11t39 39t23.5 53t12.5 78t4 86.5t0.5 105.5v22q0 191 -9 248q-18 110 -87 130 q-18 5 -40 5q-26 0 -46 -10t-34 -25.5t-23.5 -44t-15 -56.5t-8 -72t-3.5 -81.5t-1 -93.5q-1 -72 0 -132.5z" />
<glyph unicode="1" horiz-adv-x="378" d="M47 758l162 94h57v-852h-61l-72 748l-70 -41z" />
<glyph unicode="2" d="M61 0v37q87 56 172.5 171t135 223t53.5 169q5 37 3 74.5t-10.5 68t-38.5 49.5t-81 19q-97 0 -180 -74l-27 45q94 84 219 84q63 0 111 -22t74.5 -57.5t39.5 -74.5t13 -79q0 -62 -20.5 -120t-70 -124t-101 -122t-144.5 -148l-62 -64v-2h420v-53h-506z" />
<glyph unicode="3" d="M59 43l25 51q27 -21 77 -38t105 -17q51 0 85.5 12t51.5 27t25.5 43t9.5 45.5t0 48.5q0 105 -55.5 163t-149.5 58h-55v51h55q73 0 116.5 51t43.5 138v18q1 34 -1 49.5t-11.5 35t-33.5 27t-64 7.5q-89 0 -164 -59l-25 45q34 27 87.5 47t109.5 20q113 0 168 -58t55 -140 q0 -65 -41.5 -118.5t-116.5 -82.5v-4q83 -16 137 -75t54 -148q0 -105 -75 -179.5t-214 -74.5q-59 0 -114.5 17.5t-84.5 39.5z" />
<glyph unicode="4" d="M12 250v41l418 561h98l-24 -549h106v-53h-106l-19 -246l-65 -4v250h-408zM88 303h332v344q0 21 1 60.5t1 58.5h-2q-6 -11 -68 -107l-264 -354v-2z" />
<glyph unicode="5" d="M55 41l25 49q84 -51 176 -51q88 0 129 59t39 160q0 52 -7 87.5t-27 67t-60 47t-101 15.5q-62 0 -120 -8l53 385h370v-55h-321l-43 -275q20 6 80 6q91 0 158 -34q56 -27 94.5 -85.5t38.5 -136.5q0 -126 -83 -206t-204 -80q-127 0 -197 55z" />
<glyph unicode="6" d="M49 344q0 122 37.5 221t99.5 166q101 101 240 125q39 10 86 10v-57q-48 0 -92 -10q-132 -27 -212 -128.5t-93 -234.5h2q32 51 89.5 85t131.5 34q116 0 185 -76t69 -196q0 -76 -30 -142.5t-92.5 -110.5t-145.5 -44q-119 0 -197 94.5t-78 263.5zM195 310q0 -45 0.5 -67 t2.5 -57t7 -52t15 -39.5t24 -32.5t35.5 -17.5t50.5 -7.5h2q155 0 155 239q0 114 -39.5 170t-125.5 56q-59 0 -93 -47.5t-34 -124.5v-20z" />
<glyph unicode="7" d="M82 799v53h498v-45l-385 -807h-60l273 797l106 2h-432z" />
<glyph unicode="8" d="M53 213q0 82 46.5 142t131.5 94v6q-145 63 -145 192q0 96 69.5 157.5t172.5 61.5h2q102 0 163.5 -59.5t61.5 -144.5q0 -136 -149 -205v-4q89 -35 134.5 -94t45.5 -134q0 -105 -79.5 -172t-189.5 -67q-113 0 -188.5 64.5t-75.5 162.5zM147 657q0 -74 47.5 -116.5 t141.5 -65.5q156 54 156 182q0 64 -42 111t-126 47q-83 0 -130 -46t-47 -112zM182 225q-3 -43 0.5 -72.5t16 -58t42.5 -43t76 -14.5q86 0 115 46t29 134q0 96 -30 140.5t-128 72.5q-29 -8 -50.5 -19.5t-34.5 -28.5t-20.5 -31.5t-11 -39.5t-4 -40.5t-0.5 -45.5z" />
<glyph unicode="9" d="M61 567q0 123 76 211t197 88q114 0 186 -93.5t72 -260.5q0 -257 -146 -403q-87 -90 -200 -113q-73 -13 -115 -10v57q37 -3 96 6q110 18 187 101q92 98 114 270l-4 -2q-84 -111 -219 -111q-114 0 -179 76t-65 184zM186 569q0 -106 25.5 -156.5t103.5 -50.5q46 0 76 15 t43.5 44t18 56t4.5 64v21v53t-1 45.5t-3.5 41.5t-7 33.5t-11 29.5t-16.5 21t-23.5 17t-31 8.5t-39.5 3.5q-42 0 -70.5 -18t-42.5 -53t-19.5 -76t-5.5 -99z" />
<glyph unicode=":" horiz-adv-x="227" d="M70 45q0 25 16 41t39 16t37 -16t14 -41t-14.5 -42t-38.5 -17h-2q-22 0 -36.5 17t-14.5 42zM70 532q0 26 16 43t39 17t37 -16.5t14 -43.5q0 -24 -14.5 -41.5t-38.5 -17.5h-2q-21 0 -36 17.5t-15 41.5z" />
<glyph unicode=";" horiz-adv-x="227" d="M35 -164q15 42 36.5 130.5t30.5 148.5l82 12q-18 -70 -51 -162.5t-49 -122.5zM82 532q0 26 15 43t38 17q24 0 38.5 -16.5t14.5 -43.5q0 -24 -14.5 -41.5t-38.5 -17.5t-38.5 17.5t-14.5 41.5z" />
<glyph unicode="&#x3c;" horiz-adv-x="782" d="M94 324v47l594 325v-61l-534 -287v-2l534 -285v-61z" />
<glyph unicode="=" horiz-adv-x="782" d="M53 203v53h676v-53h-676zM53 453v51h676v-51h-676z" />
<glyph unicode="&#x3e;" horiz-adv-x="782" d="M94 0v61l533 285v2l-533 287v61l594 -325v-47z" />
<glyph unicode="?" horiz-adv-x="567" d="M70 848q47 24 105.5 37.5t119.5 11t111.5 -21.5t83 -66t32.5 -117q0 -60 -30 -112.5t-72 -89.5t-83.5 -71t-68.5 -72.5t-24 -78.5l2 -39h-58l-4 35q-16 115 82 240q56 63 79.5 109t23.5 96q0 62 -37 97.5t-107 35.5q-84 0 -131 -41zM162 45q0 25 15 41t40 16q23 0 37 -16 t14 -41t-14.5 -42t-38.5 -17h-2q-22 0 -37 17.5t-14 41.5z" />
<glyph unicode="@" horiz-adv-x="940" d="M49 272q0 136 57 250t166 184t248 70q169 0 271 -106t102 -273q0 -142 -66.5 -226.5t-156.5 -84.5q-39 0 -66.5 31t-21.5 92h-4q-74 -123 -197 -123q-55 0 -96 44.5t-41 115.5q0 68 28.5 133t76.5 111t104.5 72.5t119 21t113.5 -46.5l-47 -234q-22 -109 6 -155 q15 -26 39 -13q109 56 109 262q0 163 -66.5 255.5t-212.5 88.5q-150 -5 -259.5 -142t-109.5 -341q0 -163 78.5 -253.5t222.5 -90.5q123 0 205 49l17 -45q-93 -55 -228 -55q-166 0 -278.5 112.5t-112.5 296.5zM385 148q7 -9 18 -13q31 9 55.5 23.5t50.5 42t47 66.5t39.5 98.5 t31.5 136.5q-55 54 -134 -24q-68 -68 -106 -176q-40 -112 -2 -154z" />
<glyph unicode="A" horiz-adv-x="1067" d="M-20 -12q-4 21 -4 43q0 35 10 73q16 62 38.5 114.5t45.5 88.5q63 92 163.5 143.5t219.5 57.5q30 64 80 171.5t78 167.5t61 127.5t51.5 99t26.5 34.5q16 5 33 5q11 -1 23 -3q28 -6 48 -15.5t23 -13.5q1 -2 1 -6q0 -19 -16 -92q-36 -254 -51 -580q34 -28 58 -61.5t31 -52.5 l7 -19l-14 -8q-28 60 -82 111q-2 -57 -2 -108q0 -329 78 -423q20 -20 53 -18q22 6 27 8h2l32 27l9 -23q-24 -17 -54 -26h-10v-3h-12h-6q-46 1 -94 31q-50 32 -89 109q-61 131 -61 372q0 83 2 132q-84 36 -187 36h-16q-74 -158 -147 -288q-72 -131 -150 -225 q-69 -85 -113 -84q-5 0 -10 1q-19 6 -32 15q-41 27 -51 82zM6 68q-3 -24 -3 -45q0 -82 50 -105q7 -3 15 -3q15 1 33 11q27 16 58 54.5t62.5 87t70 121t72 139.5t76.5 157q-11 -2 -49.5 -9.5t-53 -11.5t-47 -13.5t-52 -21.5t-47 -31t-51.5 -45.5t-48 -61.5q-70 -102 -86 -223 zM494 510q17 0 63 -4q73 -9 131 -31l6 55q25 261 84 517q0 15 -3 22q-3 6 -9 6h-2q-7 -1 -30 -40t-69 -135.5t-102 -229.5z" />
<glyph unicode="B" horiz-adv-x="731" d="M8 728q18 130 70 209t120 133q62 49 126 49q7 0 14 -1q71 -6 129 -45q53 -44 73 -103q14 -41 14 -79q0 -17 -3 -33q-9 -53 -25 -99.5t-34 -74.5l-17 -27q7 -8 18 -23.5t39 -66t48 -103.5q20 -52 36 -132q13 -67 13 -133v-25q-3 -87 -21 -155t-42.5 -104t-41 -53 t-30.5 -24v-2q-24 -17 -54 -26h-10v-3h-12h-6q-46 1 -94 31q-50 32 -89 109q-37 75 -53 200q-114 78 -158 302q-18 90 -18 174q1 54 8 105zM24 614q0 -71 13 -143q39 -210 137 -291q-6 68 -6 139q0 113 10 211q24 263 88 531h7q48 0 79 -41q-42 -282 -57 -641v-4 q-3 -60 -3 -114q0 -71 5 -128q18 -1 36 0.5t32 5t25 7t18 6.5l6 2l10 -17q-6 -3 -17 -7t-44 -12q-29 -7 -57 -7h-7q16 -202 72 -269q18 -18 47 -18h6q22 6 27 8h2l26 23q24 27 47 64t46 109.5t24 151.5v8q0 224 -117 410q-16 26 -38.5 55.5t-36.5 45.5l-15 16q4 9 11 24.5 t21.5 59t22.5 82.5q6 32 6 70v15q-2 46 -20 74q-34 56 -94 56q-17 0 -37 -5q-89 -23 -165 -126q-108 -146 -110 -351z" />
<glyph unicode="C" horiz-adv-x="847" d="M8 438q6 55 39 111q43 74 137 131.5t262 118.5l74 26q80 125 175 194q84 61 165 61q11 0 21 -1q19 -2 35 -12q14 -9 22 -25q6 -13 6 -28v-6q-2 -18 -19.5 -36.5t-50.5 -33.5q-47 -23 -227 -88q-35 -58 -74 -143q-48 -108 -76.5 -252t-30.5 -275q0 -9 -1 -18 q-1 -120 31 -208q34 -96 102 -106l18 -2q44 0 84 32q48 38 79.5 98.5t54.5 121.5t33 104l10 44l5 -2.5t7.5 -6t3.5 -8.5l-1 -3q-35 -190 -119 -301q-77 -104 -181 -104q-26 0 -55 7q-82 18 -132.5 80t-66.5 148q-12 62 -12 133q0 27 2 55q6 103 31.5 204.5t64.5 194.5 q40 93 78 154q-115 -44 -195 -80.5t-150.5 -86.5t-90.5 -98q-27 -70 -28 -117q0 -8 2 -15q6 -50 37 -74q31 -22 67 -30q28 -6 52 -6h12l28 1q-4 -19 0 -21q-20 -5 -42 -5.5t-36.5 1.5t-27 4t-13.5 2q-61 20 -88 66q-22 37 -22 79q0 10 1 21zM668 881q204 77 223 96 q25 27 25 48v8q-6 24 -35 24q-20 0 -48.5 -13t-75 -55.5t-89.5 -107.5z" />
<glyph unicode="D" horiz-adv-x="825" d="M-16 977q82 73 191 109q93 31 179 30h28q98 -6 179 -55t109 -135q37 -125 37 -255q1 -90 -17 -181q-44 -225 -142 -408t-196 -246q-55 -28 -102 -28q-104 0 -162 139q-61 131 -61 372q0 113 10 211q21 247 78 498q-64 -38 -109 -80zM154 375q-2 -61 -2 -115 q0 -338 75 -428q9 -2 19 -2q49 0 92 57q52 68 86.5 181.5t61.5 249t40.5 260.5t19.5 214q4 59 4 89q0 15 -1 22q-12 79 -48 124.5t-90 56.5q-31 6 -64 6q-23 0 -47 -3q-58 -8 -126 -34q15 -8 37 -33q-42 -282 -57 -641v-4z" />
<glyph unicode="E" horiz-adv-x="626" d="M-208 438q6 55 38 111q43 74 137 131.5t262 118.5l74 26q80 125 175 194q84 61 165 61q11 0 21 -1q19 -2 34 -12q16 -9 24 -25q6 -13 5 -28q1 -3 1 -6q-2 -18 -20 -36.5t-51 -33.5q-47 -23 -227 -88q-107 -175 -111 -301q-1 -26 11.5 -41t30 -23t20.5 -12h2q11 1 21 0 q32 0 63 -6l8 -31q-11 1 -22 1q-44 0 -82 -23q-61 -38 -93 -114q-29 -69 -28 -130v-12q0 -132 32.5 -216t98.5 -94l18 -2q45 0 85 32q48 38 78.5 98.5t53.5 121.5t33 104l10 44l5 -2.5t8 -6t4 -8.5l-1 -3q-35 -189 -118 -300q-78 -105 -183 -105q-26 0 -55 7 q-187 42 -208 299q2 26 3.5 40.5t7 48t13.5 55.5t23.5 54t35 54t50.5 44t69 36q8 4 13 4q-67 19 -95 59q-19 26 -21 60q0 6 -1 13q0 28 9 55q11 34 23 61.5t27 54t17 31.5q-180 -69 -294 -132.5t-143 -132.5q-27 -70 -28 -117q0 -8 2 -15q6 -50 37 -74q31 -22 67 -30 q28 -6 52 -6h12l28 1q-4 -19 0 -21q-20 -5 -42 -5.5t-36.5 1.5t-26.5 4t-13 2q-61 20 -88 66q-22 37 -22 79q1 10 2 21zM451 881q204 77 223 96q25 27 25 48q-1 4 -1 8q-6 24 -34 24q-20 0 -48.5 -13t-75 -55.5t-89.5 -107.5z" />
<glyph unicode="F" horiz-adv-x="514" d="M-29 474h-1q0 1 1 1l3 4q2 4 7 10.5t12.5 14t19 15.5t26 15t35.5 11.5t45 5.5q20 225 76 477q-64 -38 -109 -80l-23 29q71 65 151 103q79 36 151 44q18 2 36 3q52 0 100 -17q64 -22 107.5 -68t61.5 -123q10 -41 10 -87q0 -41 -8 -87l-49 -4q14 58 14 109q-1 20 -3 40 q-8 68 -43.5 115t-85.5 71q-41 20 -93 21q-12 1 -24 -1q-66 -6 -134 -43q15 -8 37 -33q-34 -227 -49 -485q11 -3 42.5 -11t41 -10t33 -4.5t36.5 1t31.5 11t36.5 21.5l14 -21q-5 -5 -15 -12q-9 -8 -40 -18q-24 -8 -49 -8q-7 0 -15 1q-30 2 -68 13t-50 14l-7 -133v-4 q-2 -60 -2 -114q0 -338 76 -429h2l13 -22q-97 7 -154 137q-62 133 -62 372q0 119 9 205q-38 -4 -69 -20.5t-42 -30.5l-12 -14q-1 0 -2 1t-4 3l-6 4t-5.5 4t-3.5 3z" />
<glyph unicode="G" horiz-adv-x="960" d="M-137 438q7 55 39 111q43 74 137 131.5t262 118.5l74 26q81 125 175 194q83 61 164 61q10 0 21 -1q19 -2 35 -12t23.5 -25.5t6 -33.5t-19.5 -36.5t-51 -33.5q-47 -23 -227 -88q-35 -58 -74 -143q-48 -108 -76.5 -252t-31.5 -275v-18q0 -120 32 -208q33 -96 101 -106 q8 -1 17 -1q34 0 66 20q40 25 68 63.5t53 93t38 94.5t24 81q2 53 5 102.5t5.5 76t3.5 25.5q0 -1 30 -6t60 -16.5t33 -26.5q2 -14 -6 -51t-25 -124t-30 -189q-6 -47 -6 -84q0 -112 54 -137q14 -7 27 -5l-16 -22q-3 0 -8.5 1t-20.5 10t-29 24.5t-30 48.5t-27 78 q-16 67 -20 213q-14 -45 -31.5 -86t-47 -85.5t-63.5 -74t-83 -43.5q-25 -6 -51 -6t-52 6q-101 22 -154 110.5t-56 209.5v25q0 109 23 223q25 129 75 247q43 98 77 154q-115 -44 -195 -80.5t-150.5 -86.5t-90.5 -98q-27 -70 -27 -117q0 -8 1 -15q5 -50 36.5 -73.5t67.5 -30.5 q28 -6 52 -6h12l28 1q-4 -19 0 -21q-20 -5 -42 -5.5t-36.5 1.5t-27 4t-13.5 2q-61 20 -88 66q-21 36 -21 78q0 11 1 22zM522 881q204 77 223 96q25 27 25 48v8q-6 24 -35 24q-20 0 -48.5 -13t-75 -55.5t-89.5 -107.5z" />
<glyph unicode="H" horiz-adv-x="905" d="M-126 25v8q0 79 29 153q30 78 66 121q49 58 104.5 100t104.5 61.5t84.5 28t63.5 9.5q5 35 5 80q-1 86 -19 204q-28 182 -97 271q34 15 57.5 15.5t45 -20.5t34.5 -69q18 -63 26.5 -117t12.5 -148q1 -24 1 -49q0 -75 -9 -161q126 -4 205 -37l6 55q25 261 84 517v4 q24 27 69 41q13 4 20 4q11 0 10 -10q0 -3 -1 -5q-25 -56 -45 -306t-20 -372q34 -28 58 -61.5t31 -52.5l7 -19l-14 -8q-28 60 -82 111q-2 -58 -2 -109q0 -329 77 -422q20 -20 54 -18q20 5 26 8h2l33 27l8 -23q-24 -17 -53 -26h-10v-3h-12h-6q-46 1 -94 31q-50 32 -89 109 q-62 123 -62 382q0 58 3 122q-84 36 -187 36h-16q-14 -132 -40.5 -235t-56 -167t-67.5 -107.5t-71 -63t-71.5 -26.5t-63 -5t-50.5 8q-21 6 -33 15q-54 35 -56 119zM-74 14q-1 -8 0 -15q0 -51 27 -81q15 -15 42 -18h7q25 0 59 18q39 22 79 68.5t83.5 145t77.5 235.5q3 8 9 38 t8 54q1 11 1 17q0 8 -2 9q-81 -16 -155.5 -66t-128.5 -132q-45 -69 -74 -140t-33 -133z" />
<glyph unicode="I" horiz-adv-x="335" d="M-332 762q2 4 6 9.5t19 20t33 24.5t49 16q19 4 39 4q14 0 28 -2q45 -6 90 -29v11q0 44 14 88q16 50 44 81q37 38 95 66.5t97 37.5l39 9v-4q11 3 16.5 -0.5t2.5 -12.5q-55 -406 -66 -708q-2 -55 -2 -105q0 -311 70 -415l-23 -27q-61 28 -110 121q-59 117 -59 381 q0 92 7 202q25 261 84 517v4l4 6q-47 -9 -95.5 -40t-76.5 -83q-25 -50 -25 -111q0 -14 1 -28q63 -36 82 -76q17 -37 -25 -41q-31 -4 -51 28.5t-23 84.5q-36 22 -88 28q-16 2 -31 2q-19 0 -35 -3q-30 -5 -48 -15.5t-31 -22t-18 -20.5l-5 -8zM-49 778q13 -70 42 -85q5 -3 9 -3 q8 0 16 8v2t-4 12q-6 12 -23.5 31.5t-39.5 34.5z" />
<glyph unicode="J" horiz-adv-x="595" d="M-95 14q9 71 34 139.5t57 106.5q52 62 109 106.5t107 65t86.5 29.5t66.5 10q5 37 5 83q0 91 -20 218q-29 192 -102 287q34 13 68 14h3q33 0 63 -25q32 -27 46 -77q31 -109 43 -217q6 -51 6 -116q0 -76 -8 -173q28 0 94 -8l-2 -25q-41 8 -92 8q-15 -140 -44 -249.5 t-62 -177.5t-75.5 -114.5t-79.5 -67t-80 -28.5q-34 -6 -58 -6h-11q-27 2 -55 8q-59 17 -84 77q-17 44 -17 94q0 18 2 38zM-68 18q-3 -26 -3 -48q0 -79 40 -122q16 -16 45 -19h6q27 0 64 19q41 23 83.5 72.5t89 154t81.5 249.5q3 9 9 41t9 58q2 13 2 20t-2 8 q-94 -19 -189 -74.5t-151 -138.5q-69 -106 -84 -220z" />
<glyph unicode="K" horiz-adv-x="679" d="M20 319q0 104 11 211q20 226 88 545q53 -16 86 -55q-40 -274 -55 -602q26 52 64.5 117t95.5 145t112 140t115 91q35 18 65 18q21 0 39 -9q25 -12 28 -36q1 -4 1 -9q0 -21 -12 -45q-14 -30 -38 -62.5t-52.5 -63t-53.5 -55t-42 -40.5t-17 -17q0 3 -12.5 5.5t-16.5 2.5 q3 2 23.5 19.5t54.5 51.5t61 66q51 59 73.5 104.5t2.5 55.5q-6 3 -14 3q-19 0 -50 -20q-44 -30 -131 -116q-79 -81 -247 -307q60 52 141 63q22 2 41 3q28 1 52 -5q41 -8 76 -35.5t54 -84t19 -140.5q0 -44 -3.5 -103t-7.5 -107q-3 -48 -7 -100q-2 -36 -3 -65q1 -13 1 -25 q2 -38 8 -69.5t22.5 -46.5t42.5 -12l-2 -17q-4 -1 -11.5 -2t-28.5 -1t-40.5 4t-43 17t-41.5 33.5t-31 57t-15 84.5q-1 15 -1 31q1 65 11 143q12 96 26.5 161t20.5 137q2 20 2 36q0 43 -12 63l-9 7q-8 8 -40 14q-16 3 -36 3q-18 0 -40 -3q-125 -17 -197 -127v-21 q-1 -44 -1 -85q0 -342 75 -433h2l13 -22q-97 7 -154 137q-62 133 -62 372z" />
<glyph unicode="L" horiz-adv-x="360" d="M10 319q0 113 10 211q19 218 89 545q53 -16 86 -55q-43 -291 -58 -641q0 -9 -2 -58.5t-2 -76v-80t3.5 -87t9 -79.5t17 -74t27 -54.5t39 -37t52.5 -6.5q45 7 81 40t49 62l13 29l18 -10q-2 -6 -5.5 -15.5t-18.5 -33.5t-34 -42.5t-52 -34t-72 -16.5q-48 0 -74 13 q-69 25 -114 129q-62 133 -62 372z" />
<glyph unicode="M" horiz-adv-x="1009" d="M-296 14q9 72 34 140t57 106q118 142 262 191l6 -27q-164 -62 -247 -186q-70 -106 -84 -220q-3 -25 -2 -48q0 -79 39 -122q13 -13 34.5 -17.5t53.5 6t65.5 37.5t72.5 86t73 142q42 102 69 222q20 80 31 211q2 28 2 58q0 99 -25 221q-33 160 -98 245q33 13 63 13 q25 0 48 -9q70 -8 136.5 -69t117.5 -146q53 -85 86 -174q1 -2 2 -5.5t2 -4.5q5 17 16 43q31 72 73 135t79 101.5t75 69t57 42t29 16.5v4q54 -17 87 -55q-43 -291 -58 -641q0 -9 -2 -58.5t-2 -76v-80t3.5 -87t9 -79.5t17 -74t27 -54.5t39 -37t52.5 -6.5q45 7 81 40t49 62 l13 29l18 -10q-2 -6 -5.5 -15.5t-18.5 -33.5t-34 -42.5t-52 -34t-72 -16.5q-48 0 -74 13q-69 25 -114 129q-62 133 -62 372q0 113 10 211q19 210 82 512q-18 -9 -41 -30.5t-58 -66t-80.5 -128t-92.5 -194.5l-23 -58q24 -101 38 -211q9 -72 9 -127q0 -29 -2 -53 q-3 -38 -11.5 -68.5t-17.5 -47.5t-18.5 -28.5t-15.5 -15.5t-8 -4q-51 2 -70 102q-10 55 -10 122q0 56 6 120q16 144 59 275q0 6 -4 14q-33 101 -90 193q-79 127 -194 192q18 -25 26 -57q31 -109 43 -217q6 -50 6 -116q0 -76 -8 -173v-25q-15 -140 -44 -249.5t-62 -177.5 t-75.5 -114.5t-79.5 -67t-79 -28.5q-34 -6 -59 -6h-11q-27 2 -55 8q-59 17 -83 77q-18 44 -18 94q0 19 2 38zM454 122q11 -83 39 -94q3 -1 6 -1q9 0 17 12q34 55 37 162q1 22 1 44q0 133 -36 283q-68 -192 -67 -339q-1 -35 3 -67z" />
<glyph unicode="N" horiz-adv-x="948" d="M-202 14q8 72 33.5 140t57.5 106q118 142 263 191l6 -27q-166 -63 -248 -186q-70 -106 -84 -220q-3 -25 -3 -48q0 -79 40 -122q13 -13 34.5 -17.5t53.5 6t65.5 37.5t72.5 86t73 142q42 102 69 222q20 80 31 211q2 28 2 58q0 99 -25 221q-33 160 -98 245q33 15 62 15 q35 0 65 -21q41 -28 54 -82q18 -65 52 -229t89 -330q50 -149 119.5 -268t134.5 -185q-52 116 -52 365q0 93 7 206q25 261 84 517v4q24 27 69 41q13 4 20 4q11 0 10 -10q0 -3 -1 -5q-55 -406 -66 -708q-2 -55 -1 -105q0 -311 69 -415l-22 -27q-14 12 -48 40.5t-50.5 43 t-43 40.5t-48 53.5t-42.5 59.5q-62 96 -97 169.5t-67 164.5q-19 50 -69 258q1 -16 0 -35q0 -63 -7 -155v-25q-15 -140 -44 -249.5t-62 -177.5t-75.5 -114.5t-78.5 -66.5q-38 -21 -80 -29q-34 -6 -58 -6h-11q-27 2 -55 8q-60 17 -84 77q-18 45 -18 95q0 19 2 37z" />
<glyph unicode="O" horiz-adv-x="851" d="M-53 455l2 24q41 -8 92 -8q15 140 44 249.5t62 177.5t75.5 114.5t79.5 67.5q38 20 80 28q34 6 58 6h11q27 -2 55 -8q66 -20 88 -88q13 -40 12 -88q0 -34 -6 -72q101 -80 133 -264q14 -82 13 -159q0 -178 -73 -330q-75 -156 -198 -227q-73 -42 -140 -42q-49 0 -94 22 q-132 63 -180 282q-23 105 -23 238q0 21 1 42v18q0 1 1 4t1 4q-20 0 -94 9zM143 366q0 -45 3 -119t17.5 -140.5t37.5 -125.5t67 -89q30 -21 67 -21q16 0 34 4q60 13 109 57t80.5 106t55 139.5t31.5 157.5q7 80 11 160q1 22 1 44q0 55 -6 104q-11 122 -59 180 q-25 -109 -78 -172q-81 -98 -186 -155q7 -140 56.5 -253t150.5 -163q2 -2 -1.5 -5.5t-7.5 -6.5l-4 -2q-3 1 -9 2.5t-23 10t-33.5 20t-38.5 34.5t-40.5 50.5t-36 70.5t-28.5 94q-15 64 -18 129q-80 -37 -150 -37q-2 -29 -2 -74zM154 469q93 17 139 39q-1 21 -1 41 q0 121 32 215q36 110 104 131q27 8 53 8q47 0 92 -26q7 38 7 69q0 76 -39 117q-17 16 -45 19h-6q-26 0 -64 -20q-42 -22 -84 -71t-88.5 -153.5t-81.5 -249.5q-3 -10 -9 -39.5t-9 -53.5q-2 -12 -2 -18.5t2 -7.5zM326 526q109 61 168 148q51 76 75 174q-27 21 -60 26 q-15 2 -29 2q-16 0 -30 -3q-26 -6 -51 -19q-29 -14 -51 -112q-22 -93 -22 -206v-10z" />
<glyph unicode="P" horiz-adv-x="659" d="M-369 705q2 4 6 9.5t19 19.5t33 24t49 16q19 4 39 4q14 0 28 -2q49 -6 91 -28v10q0 103 57 170q38 44 88.5 79.5t81.5 49.5l31 14q98 44 190 45q18 0 36 -2q108 -10 177 -76q102 -125 102 -267q0 -106 -57 -222q-36 -72 -85.5 -122.5t-96.5 -71.5t-91 -29q-26 -4 -48 -4 q-13 0 -25 2q-30 5 -41 16q-15 15 -15 45t7 52.5t10 25.5q11 46 39 87.5t59 67.5t60.5 45.5t48.5 28.5l20 8q4 -4 10 -8q5 -3 5 -5t-8 -5q-22 -8 -44.5 -21t-55.5 -38.5t-63.5 -69t-51.5 -98.5q-16 -42 -16 -67q0 -35 32 -36h2q53 0 148 82q13 11 26 23q122 117 141 295 q4 31 4 61q-1 43 -9 83q-14 66 -49 110q-35 46 -85 70q-40 20 -90 20q-10 0 -22 -2q-64 -6 -130 -41q15 -8 37 -33q-42 -282 -57 -641v-4q-2 -60 -2 -114q0 -338 76 -429h2l12 -22q-97 7 -154 137q-61 131 -61 372q0 113 10 211q22 248 74 486q-48 -18 -103.5 -60.5 t-80.5 -93.5q-30 -58 -29 -110v-15q63 -36 82 -75q17 -37 -25 -41q-31 -4 -50.5 28t-22.5 84q-38 23 -89 29q-16 2 -31 2q-19 0 -35 -3q-30 -5 -48 -16t-30.5 -22.5t-17.5 -20.5l-5 -8zM-86 721q13 -68 42 -84q6 -3 11 -3q16 0 15 9q0 3 -4 13q-6 12 -24 31t-40 34z" />
<glyph unicode="Q" horiz-adv-x="849" d="M-57 455l2 24q41 -8 92 -8q15 140 44 249.5t62 177.5t75.5 114.5t79.5 67t80 28.5q34 6 58 6h11q27 -2 55 -8q66 -19 88 -88q12 -40 12 -88q0 -34 -6 -72q101 -80 133 -264q13 -80 13 -155q0 -113 -29 -216q-55 -191 -181 -301q6 -12 15 -24q20 -36 53 -82q25 3 47 3 q101 0 158 -59q35 -37 35 -75q0 -7 -1 -14q-7 -37 -46 -37h-2q-24 1 -54 18q-72 39 -147 131l-25 -4q-59 -7 -112 -30.5t-86.5 -51.5t-58.5 -55t-36 -46l-10 -18l-20 10l47 70q13 20 34.5 39t42.5 32t40 23.5t31 16.5l12 6q68 28 118 37q-40 54 -61 90q-64 -47 -131 -60 q-22 -5 -44 -5q-44 0 -86 19q-63 27 -111 92t-76 187q-24 107 -24 244q0 20 1 41v20q0 1 1 3t1 3q-20 0 -94 9zM139 366q0 -45 3 -119t17.5 -140.5t37.5 -125.5t67 -89q30 -21 67 -21q16 0 34 4q64 14 116 66q-127 192 -172 407q-15 64 -18 129q-80 -37 -150 -37 q-2 -29 -2 -74zM150 461q64 12 139 47q-1 21 -1 41q0 121 32 215q36 110 104 131q27 8 53 8q47 0 92 -26q7 38 7 69q0 76 -39 117q-16 16 -45 19h-6q-27 0 -64 -20q-41 -22 -83.5 -71t-89 -153.5t-81.5 -249.5q-3 -9 -9 -41t-9 -58q-2 -13 -2 -20t2 -8zM322 526 q107 60 167 148q52 78 76 174q-27 21 -60 26q-15 2 -29 2q-16 0 -30 -3q-27 -6 -51 -19q-29 -14 -51 -112q-22 -93 -22 -206v-10zM324 496q18 -134 46 -233.5t81 -201.5q20 -36 55 -94q60 71 98 197q50 164 50 344q0 66 -7 135q-11 122 -59 180q-25 -109 -78 -172 q-81 -98 -186 -155zM627 -215q62 -70 114 -104q38 -25 59 -25q10 0 16 5q6 6 6 17q0 5 -1 11q-5 18 -13.5 32.5t-28 31t-58.5 25.5q-35 7 -83 7h-11z" />
<glyph unicode="R" horiz-adv-x="851" d="M-334 696l8 -10q2 3 5.5 9t17.5 19.5t31 23.5q18 8 48 14q18 3 37 4q14 0 29 -2q50 -6 88 -29q3 -52 23 -84.5t51 -28.5q42 4 24 42q-20 40 -81 75q-1 9 -1 18q0 51 29 107q27 55 91 101.5t110 56.5q-52 -233 -74 -482q-8 -78 -8 -114q-46 7 -82 7t-61 -7 q-33 -10 -50 -39t-14.5 -59t30 -54t75.5 -24q60 0 100 10q10 -196 62 -303q57 -130 153 -137l-12 22h-2q-76 91 -76 440q115 31 176 52q147 -18 236 -238q128 -322 255 -322h7q25 2 47 20t32 35l9 17l-12 12q-1 -2 -3 -4t-8.5 -10t-13 -13.5t-17 -13.5t-20.5 -11t-23.5 -5.5 t-25.5 2.5q-26 8 -39 63t-35 149t-61 165q-38 68 -116.5 109.5t-164.5 60.5q136 51 213 209q57 116 57 222q0 142 -102 267q-73 68 -186 77q-15 1 -29 2q-99 0 -205 -54q-13 -5 -34 -15t-74.5 -47t-91.5 -81q-28 -33 -44 -83q-14 -44 -14 -87v-11q-45 23 -90 29q-15 2 -29 2 q-20 0 -38 -4q-31 -6 -49.5 -17t-32.5 -23t-19 -21zM-86 307q-4 12 -5 23q0 31 32 59q15 14 62 14q35 0 89 -8v-119q-59 -16 -92 -16h-10q-60 3 -76 47zM-51 713q22 -15 39.5 -34t23.5 -31.5t4 -14.5q-23 -23 -47 20q-13 24 -20 60zM217 315q0 36 2 54l86 -23 q-10 -3 -40 -14t-48 -17zM219 393q15 354 57 627q-23 26 -36 33q66 35 130 41q12 1 22 2q50 0 90 -20q50 -24 85 -69t49 -111q9 -39 9 -83q0 -30 -4 -61q-19 -177 -142 -295q-63 -60 -125 -92q-1 0 -3.5 -1.5t-4.5 -1.5q-10 3 -34 9t-47.5 12t-45.5 10z" />
<glyph unicode="S" horiz-adv-x="800" d="M14 672l25 2q11 -154 137 -174q-1 11 -1 23q-1 81 49 179q56 112 138.5 198.5t167.5 146t134 59.5q47 0 72 -26q24 -26 26 -64q0 -9 -1 -18q0 -30 -3 -58q-5 -38 -14 -64l-9 -26q-5 -12 -15 -37t-17 -40.5t-19.5 -41t-24.5 -43t-31 -41.5t-39 -41.5t-48.5 -37.5 t-60.5 -34.5t-74 -28t-89 -22.5q57 -63 193 -125q196 -91 237 -255q10 -40 10 -80q0 -80 -42 -158q-49 -90 -127 -120q-29 -11 -56 -11q-60 0 -110 55q-12 14 -23 31q-30 55 -30 105v6q2 53 21 91l18 37l14 -32q-2 -2 -5 -6.5t-9 -20.5t-8 -34.5t1.5 -48.5t14.5 -62 q29 -82 104 -90q8 -1 16 -1q59 0 107 46q56 52 56 126q0 13 -2 28q-20 141 -228 267q-57 34 -127 66q-139 63 -162 180q-73 7 -111.5 46.5t-50.5 117.5q-4 20 -4 31zM285 723q-22 -58 -22 -107q0 -63 36 -112q146 28 242.5 101t148.5 214q32 84 32 151q0 14 -1 27 q-8 77 -66 78h-1q-40 0 -116 -54q-76 -55 -150.5 -140t-102.5 -158z" />
<glyph unicode="T" horiz-adv-x="503" d="M-240 1128l29 2q24 -142 190 -142h9q103 3 331 73q221 68 297 82q59 11 105 11q108 0 149 -60q28 -43 28 -116q0 -37 -7 -81h-27v7q0 74 -42 118q-44 46 -110 58q-46 9 -98 9q-22 1 -46 -1q-76 -6 -141.5 -25.5t-104.5 -42.5q-43 -291 -58 -641v-4q-2 -60 -2 -114 q0 -338 76 -429h2l12 -22q-96 7 -153 137q-62 133 -62 372q0 113 10 211q18 224 68 453q-87 -32 -168 -41q-40 -4 -74 -4q-83 0 -129 25q-66 36 -80 139q-4 16 -4 26z" />
<glyph unicode="U" horiz-adv-x="991" d="M-70 549q8 91 35 172t62.5 136.5t75.5 99.5t77 68.5t63 37.5t38 12q8 0 14 -6q43 -13 74 -49q-43 -291 -58 -641q0 -9 -2 -58t-2 -75.5v-79.5t3.5 -86t9 -78.5t17 -73t27 -53.5t39 -36.5t52.5 -6.5q103 28 225 324q-8 83 -8 176.5t8 197.5q25 261 84 517v4q24 27 69 41 q13 4 20 4q11 0 10 -10q0 -3 -1 -5q-54 -396 -65 -708q-2 -56 -2 -107q0 -312 69 -413l-22 -27q-63 29 -111 121q-29 58 -45 149q-21 -52 -45 -98.5t-56.5 -93.5t-72.5 -74q-37 -25 -73 -25h-5q-54 3 -74 13q-69 25 -114 129q-62 133 -62 372q0 104 11 211q18 223 81 514 q-8 0 -12 -2q-64 -31 -98 -57q-175 -135 -205 -428q-6 -59 -6 -107q0 -174 79 -211q20 -10 39 -10q12 0 23 4v-20q-8 -2 -21.5 -3t-46 11.5t-56.5 42.5q-24 29 -38 103q-9 44 -8 100q0 38 4 82z" />
<glyph unicode="V" horiz-adv-x="1118" d="M57 782l21 19q21 -49 74 -84q52 -35 110 -37h4q55 0 101 43q2 138 40.5 239t114.5 144q29 16 59 6t38 -42q2 -6 1 -13q0 -29 -24 -72q-53 -89 -139 -201q44 -245 115.5 -506.5t156.5 -435.5q8 32 46.5 147t107.5 294.5t146.5 353t171.5 324.5t173 206q16 9 29 9 q10 0 17 -5q18 -12 26 -35l8 -24l-18 -4q-8 17 -12 23.5t-12 12.5t-17 3q-55 -19 -142 -160t-170 -334q-118 -276 -220 -536t-97 -291l-7 -27q-11 -26 -30 -26q-27 0 -71 52l-29 38q-83 115 -166 375t-92 417l-4 37v2q-58 -45 -117 -45q-2 1 -4 1q-61 2 -112.5 38.5 t-76.5 93.5zM459 821q121 172 127 205q3 14 3 25q1 12 -3 21q-8 18 -22 20h-4q-12 0 -25 -7q-29 -18 -53 -85q-24 -64 -23 -170v-9z" />
<glyph unicode="W" horiz-adv-x="1587" d="M-74 409q5 -58 19.5 -95t33 -59t39 -31t37.5 -11.5t28 -0.5l11 1v20l-25 -3q-74 2 -102 100q-14 50 -14 123q0 47 6 104q37 362 295 481l8 4q4 2 12 2q-63 -291 -81 -514q-11 -107 -11 -211q0 -239 62 -372q45 -104 114 -129q20 -10 74 -13h5q35 0 73 25q40 27 72.5 74 t56.5 93.5t45 98.5q16 -91 45 -149q35 -69 94 -108.5t127 -39.5q37 0 93 23t125 75.5t131.5 124.5t112.5 182.5t67 237.5q12 74 12 140q0 18 -1 34q-4 80 -15.5 144t-34.5 115.5t-46.5 88.5t-51 64.5t-49 42.5t-40.5 23q-15 8 -33 8q-5 0 -11 -1q-25 -3 -50.5 -12t-51 -33 t-46.5 -54.5t-36 -77t-21 -101.5q-1 -13 -1 -29q0 -58 18 -142q23 -106 65 -223.5t76 -201t67 -157.5q-61 -84 -113.5 -138.5t-93 -78t-73.5 -24t-56 20.5t-40.5 59.5t-27 88.5t-14 111.5t-4.5 124.5t4 131q3 50 33 372q-14 2 -26 2q-28 1 -54 -9q-36 -14 -49 -40 q-1 -19 -4 -56q-6 -86 -9.5 -130.5t-13 -124.5t-20 -128t-30 -115.5t-44 -114.5t-60.5 -98t-81 -91q-29 -4 -52.5 6.5t-39 36.5t-27 53.5t-17 73t-9 78.5t-3.5 86v79.5t2 75.5t2 58q15 350 58 641q-31 36 -74 49q-6 6 -14 6q-12 1 -38 -12t-63 -37.5t-77 -68.5t-75.5 -99.5 t-62.5 -136.5t-35 -172q-4 -47 -4 -87q0 -28 2 -53zM1046 767q-2 25 -2 48q0 63 16 115q22 72 75 110q42 31 77 31q55 0 93 -75q56 -110 56 -324q0 -21 -1 -43q-6 -262 -83 -458q-15 -39 -32 -71q-29 64 -55 129.5t-61.5 165.5t-55 190.5t-27.5 181.5z" />
<glyph unicode="X" horiz-adv-x="839" d="M-239 46q9 60 34 122l27 -10q-41 -92 -42 -170q0 -13 2 -26q8 -89 62 -113q18 -8 39 -8q44 0 105 34q82 53 220 315q31 60 134 265q-79 63 -132 130.5t-75.5 124t-30.5 110.5q-4 30 -4 57q0 21 2 39q6 42 17 74.5t20 49t11 17.5l47 -10q-4 -5 -10 -14.5t-19 -41.5 q-13 -33 -20 -67q-5 -25 -5 -60q1 -13 1 -27q2 -53 20 -106q34 -100 194 -244q122 245 208 386t163 182q65 34 119 42q20 3 37 3q27 0 47 -8q30 -14 50.5 -32t28.5 -35q6 -12 6 -16q0 -1 -1 -1l-29 -15q0 7 -6 21q-9 22 -45 40q-17 9 -36 8q-22 0 -48 -11q-15 -7 -35 -30 t-45.5 -64t-49 -83t-57 -108t-58.5 -116.5t-64 -130.5t-64 -130q73 -56 143.5 -125t98.5 -121q23 -53 23 -92v-7q-2 -42 -18 -64l-15 -23l-25 25l13 13q17 23 17 53q0 48 -45 114q-63 90 -206 200q0 -1 -1 -3t-1 -3q-275 -554 -533 -554q-18 0 -36 3q-56 8 -90 43 q-34 34 -43 86q-4 26 -4 54t4 58z" />
<glyph unicode="Y" horiz-adv-x="798" d="M-299 727l16 14q0 -4 1.5 -12t8 -28.5t16 -38t28.5 -36t43 -28t62 -8.5t83 18q87 32 152 88q-1 11 -1 26q0 41 10 107q15 89 51 177t83 100q4 1 7 1q23 0 35 -38q11 -31 11 -71q0 -17 -2 -35q-6 -49 -35 -112.5t-84 -117.5q13 -81 58 -143q29 -40 70 -56q20 -7 41 -7 q23 0 47 9q46 17 81 68q25 203 56.5 299.5t97.5 140.5q52 34 101 43q22 4 40 4q24 0 42 -7q34 -11 58.5 -28t37.5 -32q11 -13 11 -15q0 -1 -1 -1l-23 -15q-2 7 -14 21q-14 20 -57 39q-21 9 -42 9q-22 0 -45 -11q-13 -7 -24 -29.5t-21 -64t-17.5 -83t-16.5 -108.5t-15 -116.5 t-15 -131t-15 -129.5l-7 -27q1 -1 1 -3t1 -3q-13 -99 -31.5 -179.5t-48 -154t-68 -122t-94.5 -74.5q-46 -22 -101 -22q-10 0 -21 1q-85 7 -130 69q-40 55 -40 130q0 10 1 20q6 88 58 169q21 33 53.5 53t63.5 25.5t59 6t45 -2.5l17 -3l-6 -20q-7 2 -18 4t-42.5 2t-59.5 -8 t-60 -34t-52 -69q-28 -58 -28 -122q0 -33 8 -68q20 -88 76 -113q17 -8 35 -8q41 0 87 39q28 23 52.5 93.5t45.5 184.5t33.5 199t28.5 213q-84 -75 -156 -75h-13q-78 8 -129.5 59t-63.5 117q-12 -7 -31 -19.5t-26.5 -17t-26.5 -13.5t-47 -20q-72 -26 -122 -26h-9 q-53 3 -83.5 28t-46 53.5t-19.5 52.5zM178 791q0 -33 4 -33q1 0 2 2q7 11 30 44.5t30 45.5t19.5 38.5t16.5 51.5t5 57q0 21 -4 46t-7 28q-6 8 -13 8q-18 0 -42 -62q-13 -34 -26 -81q-14 -52 -15 -145z" />
<glyph unicode="Z" horiz-adv-x="1073" d="M90 82v2q1 5 10 27l2 -2q35 83 158 100q14 2 29 2q97 0 221 -84q30 56 137 270l17 33q168 343 270 475q-13 6 -35.5 17t-30.5 14.5t-23 10t-23.5 8t-21 4t-26.5 2.5h-11q-39 -1 -72 -13q-38 -14 -63 -38t-45 -53.5t-30.5 -59.5t-17.5 -55t-9 -40l-2 -16l-26 10 q-25 66 -25 118q1 34 11 62q28 70 92 102q60 29 136 28h12q83 -2 153 -37l77 -39q41 47 80 67q60 33 110 41q25 4 45.5 4t36.5 -4q30 -8 52.5 -26.5t31 -33t11.5 -24.5q4 -17 4 -33q0 -36 -22 -59q-29 -32 -71 -36q-8 -1 -16 0q-42 0 -118 16q-18 2 -49 14 q-33 -58 -72.5 -135t-105 -211t-87.5 -178l-14 -27q0 -1 -1 -3t-1 -3q-73 -149 -147 -258q128 -100 141 -109q155 -116 298 -161q72 -22 132 -22t108 22q37 17 71 42.5t55.5 49t38 45t23.5 34.5l7 13l18 -16q-4 -8 -11.5 -22.5t-37.5 -50.5t-66.5 -64.5t-101.5 -52 t-139 -25.5h-6q-75 0 -173 45q-102 47 -162 89t-176 131l-36 27q-188 -271 -368 -271q-19 0 -37 3q-70 11 -105 63q-34 51 -34 118q0 71 30 153zM88 -36q-2 -20 -3 -37q1 -34 9 -60q12 -40 38 -64q23 -21 58 -21h10q42 4 93 36q76 49 203 280q-74 49 -109 60q-54 18 -100 18 q-104 0 -168 -92q-25 -62 -31 -120zM1067 885q84 -32 135 -32q16 0 29 3q10 2 18.5 5.5t14 7t10.5 8.5t8 9.5t5 10.5t3 10t1.5 9.5t0.5 8v7.5v4q0 6 -6 20q-8 22 -44 40q-17 9 -37 8q-22 0 -48 -11q-31 -13 -90 -108z" />
<glyph unicode="[" horiz-adv-x="348" d="M119 -147v1390h223v-49h-166v-1292h166v-49h-223z" />
<glyph unicode="\" horiz-adv-x="454" d="M-18 1266h61l428 -1319h-63z" />
<glyph unicode="]" horiz-adv-x="348" d="M119 -98h166v1292h-166v49h223v-1390h-223v49z" />
<glyph unicode="^" horiz-adv-x="782" d="M94 258l271 594h55l268 -594h-61l-234 533h-4l-235 -533h-60z" />
<glyph unicode="_" horiz-adv-x="655" d="M0 -98h655v-66h-655v66z" />
<glyph unicode="`" horiz-adv-x="393" d="M43 901h92l117 -180h-49z" />
<glyph unicode="a" horiz-adv-x="620" d="M-4 288q8 55 28.5 105.5t61 92.5t94.5 65q73 29 120 28l2 1q48 0 71.5 -22.5t33.5 -48.5t11 -47v-22h-12v5t-1 12t-3 18t-6 20.5t-9.5 20.5t-14 17.5t-19.5 12.5t-26.5 4.5t-33.5 -5.5q-74 -23 -134 -149q-60 -124 -62 -242v-7q0 -109 61 -121q3 -1 6 -1q5 -1 11 -1 q89 0 157 160q0 44 10 201v35q59 -15 76 -25q35 -21 35 -90q-39 -238 -42 -310v-17q0 -77 25 -87q6 -2 12 -2q24 0 51 30q34 38 62 99t51.5 123t36.5 107l13 45l14 -8q-5 -17 -13 -45t-33 -99t-50 -126t-58.5 -99.5t-62.5 -44.5q-120 0 -127 260q-66 -124 -154 -127h-4 q-47 0 -84 22q-39 24 -60.5 65t-31.5 91q-6 28 -6 58q0 23 4 48z" />
<glyph unicode="b" horiz-adv-x="610" d="M0 319q0 329 97.5 738.5t199.5 582.5l5.5 11t14.5 23.5t22 28t27 18.5q8 4 16 3q7 0 13 -2q11 -4 17 -10q11 -14 20 -45q23 -72 24 -169q0 -5 1 -10q0 -92 -19 -192q-19 -106 -46 -211t-65.5 -214t-70.5 -190.5t-66 -160.5l3 -2q22 -5 45.5 -14.5t58 -29.5t67.5 -55.5 t56 -82.5q72 -98 112 -105q22 -7 41 -3.5t33.5 14.5t25 23t16.5 21l5 9l13 -14q-2 -3 -5 -9t-15.5 -20t-27 -23.5t-38.5 -15.5t-50 -2q-40 8 -84 55q13 -64 15 -96q1 -19 1 -38q0 -112 -42 -187q-6 -12 -17.5 -30.5t-50 -55t-80.5 -49.5h-10v-3h-12h-6q-112 0 -183 140 q-61 131 -61 372zM125 375q-1 -44 -1 -85q0 -352 77 -448q18 -18 49 -18h6q22 6 27 8q111 69 111 265q0 22 -1 46q-5 75 -24 137.5t-42.5 100t-53 66t-49.5 40t-38 17.5v2h-2l-57 -127v-2q0 -2 -2 -2zM127 428q27 58 53 119t64.5 160.5t69.5 192t60.5 204t45.5 207.5 q15 93 15 185q-1 3 -1 6q0 95 -22 165q-8 23 -16 32q-7 7 -15 7h-4q-18 -2 -41 -49q-70 -142 -132.5 -512.5t-76.5 -716.5z" />
<glyph unicode="c" horiz-adv-x="526" d="M6 143q-7 49 -7 94q0 75 19 142q29 113 97 168q53 41 123 41q50 0 84 -17q34 -14 52.5 -46.5t20.5 -58.5l2 -26v-2l-14 2q0 3 -1 12.5t-6 27.5t-13.5 33t-25 26.5t-38.5 11.5q-40 0 -95 -111q-68 -135 -88 -280q-6 -41 -5 -74q0 -103 54 -126q14 -5 30 -5q55 1 113 38 t105.5 95.5t80.5 108.5t57 98v2l20 -4q-19 -40 -43 -81.5t-62.5 -93t-79 -91t-93.5 -67.5t-105 -30q-84 13 -126 65.5t-56 147.5z" />
<glyph unicode="d" horiz-adv-x="768" d="M6 145q-6 33 -6 65q0 82 39 165q62 127 182 178q76 29 123 29q52 0 82 -33q7 -11 10 -19q28 309 115.5 636.5t171.5 473.5q2 4 6 11t15 23.5t22 27.5q10 12 26 19q8 4 16 3q7 0 13 -2q11 -4 17 -10q7 -7 22 -45q22 -70 23 -163q0 -5 1 -10q0 -88 -17 -184 q-17 -101 -42.5 -203t-61.5 -207t-68 -188t-66 -163l-33 -78l-43 -92v-4q-2 -57 -2 -109q0 -331 78 -424q20 -20 53 -18q22 6 27 8h2l32 27l9 -23q-24 -17 -54 -26h-10v-3h-12h-6q-46 1 -94 31q-50 32 -89 109q-61 131 -61 372q0 81 6 166q-3 26 -18 47q-18 18 -47 18 q-15 0 -33 -5q-41 -12 -86.5 -62t-83.5 -125q-36 -71 -54 -141q-15 -57 -14 -100v-19q6 -67 56 -73h10q28 0 56.5 17.5t51.5 46t44 62.5t37 68t27.5 62t17.5 47l7 18v2l19 -4q0 -2 -7 -25t-23.5 -64.5t-35.5 -78.5q-89 -170 -192 -172h-6q-60 0 -100 37t-52 104zM555 428 q27 61 52 119.5t64 160t69.5 192.5t60.5 203.5t45 207.5q15 92 15 184q-1 3 -1 7q0 96 -22 165q-7 23 -15 32q-7 7 -16 7h-4q-18 -2 -41 -49q-70 -141 -131.5 -511t-75.5 -718z" />
<glyph unicode="e" horiz-adv-x="419" d="M6 143q-7 49 -7 94q0 75 19 142q29 113 97 168q53 41 123 41q115 0 111 -63q-2 -52 -79 -118q-58 -51 -112 -67q-22 -68 -34.5 -133.5t-12.5 -123t21 -93t63 -35.5q38 0 70 19t53 46.5t41 66.5t32 73.5t27 74t26 60.5v2l21 -4q-11 -23 -27 -66t-28.5 -78t-34.5 -77 t-46 -70.5t-60.5 -49t-80.5 -22.5q-65 3 -117 63t-65 150zM166 362q47 13 105 75q53 57 53 91q0 6 -2 12q-4 12 -19 17q-4 1 -8 1q-25 0 -58 -49q-38 -57 -71 -147z" />
<glyph unicode="f" horiz-adv-x="405" d="M-84 362l6 2q6 2 16 5t22 5.5t28.5 4t31.5 0.5q23 166 66 308.5t90 213.5q2 3 4.5 8t12 17.5t19.5 21t24 14.5q8 3 16 3l12 -2q6 -3 12 -7l-24 -6h-4q-4 -2 -10 -6q-16 -11 -25 -31q-37 -70 -61 -226t-29 -343q9 -7 27 -14q104 -53 151 -60q34 -3 60.5 4t40.5 18.5 t22.5 25t11 21.5t2.5 11l21 -4q0 -2 -2.5 -11t-11.5 -24.5t-23 -29t-41.5 -23.5t-61.5 -10h-22q-65 9 -158 63q-1 0 -3 1t-3 1q17 -31 34.5 -64.5t44 -85t49 -102t47 -108t40.5 -110t26 -101.5q9 -40 9 -75v-13q-2 -39 -16 -64q-28 -36 -76 -36q-105 12 -176 102 q-75 94 -101 272q-12 87 -12 186q0 113 16 242q-16 1 -29.5 0t-25.5 -3.5t-20 -4.5t-13 -4l-6 -2zM121 291q0 -171 10 -283v2l4 -41q0 -14 2 -20v-2q34 -295 129 -369l6 -2q5 -3 15 -6t20 -4h-2q25 6 41 31q13 23 15 59v13q0 32 -7 69q-10 44 -25 93.5t-37.5 104t-44 102.5 t-47 99t-43.5 85.5t-36 68.5z" />
<glyph unicode="g" horiz-adv-x="657" d="M-176 -920q-1 8 -1 16q0 34 15 76q20 52 63.5 117.5t67.5 98t70 90.5q81 96 276 301q22 194 25 350q-66 -122 -154 -125h-6q-68 0 -114 49q-46 46 -58 119q-7 37 -7 73q0 73 30 144q51 118 157 164q72 29 119 29q53 0 86 -33q29 -34 33 -84q38 -27 41 -103q1 -55 1 -108 q0 -179 -13 -326q43 47 80.5 97t62.5 92.5t45.5 82.5t32 71t19 54.5t11.5 36.5l3 13v2l24 -17v-2q0 -3 -7.5 -27t-28 -73t-50 -104.5t-81 -127.5t-113.5 -137q-19 -184 -52 -338q-57 -274 -202 -425q-124 -130 -252 -130q-50 0 -86 25q-32 22 -37 59zM-145 -934 q20 -33 59 -33h2q57 2 128.5 54t115.5 139q102 187 149 510q-255 -281 -371 -452q-90 -134 -90 -192q0 -16 7 -26zM106 119q9 -87 66 -94h10q85 0 158 159v4v64q0 153 -8 240v6h2q0 -2 4 -2q33 -6 72 -21l-7 21q-18 55 -67 55q-17 0 -35 -6q-81 -26 -143 -174 q-53 -117 -53 -219q0 -17 1 -33z" />
<glyph unicode="h" horiz-adv-x="671" d="M2 319q0 329 97.5 738.5t199.5 582.5q2 4 6 11t15 23.5t22 27.5q10 12 26 19q8 4 16 3q7 0 13 -2q11 -4 17 -10q7 -7 22 -45q22 -70 23 -163q0 -5 1 -10q0 -88 -17 -184q-17 -101 -42.5 -203t-61.5 -207t-68 -188t-66 -163l-33 -78l-43 -92v-4q-2 -56 -2 -107 q0 -209 33 -325q18 318 164 516q91 126 161 126q9 0 18 -2q46 -11 60 -74q4 -20 4 -39.5t-4 -39.5q-6 -24 -22 -78.5t-29.5 -107t-22.5 -103.5q-15 -68 -21 -121q-4 -34 -3 -59q0 -15 1 -25q3 -30 10.5 -50t15.5 -27.5t16 -8.5h4q22 0 49 36q29 40 54 101.5t47 123t34 105.5 l13 44l18 -8q-4 -16 -12 -43.5t-31.5 -97.5t-46 -124.5t-53 -101.5t-56.5 -51q-6 -1 -12 -1q-8 0 -14 1q-14 2 -31 9.5t-31 24t-28 43.5t-21 67t-10 96q-1 14 -1 28q0 45 7 101q2 35 8.5 74.5t14.5 73t16.5 66t15 57t10.5 43.5t2.5 28t-8.5 8q-35 -6 -108.5 -107.5 t-112.5 -240.5q-46 -152 -51 -309v-7l-16 -8q-6 0 -8 -2q-20 -3 -40 11t-30 28t-17 29q-61 131 -61 372zM129 428q27 58 53 119t64.5 160.5t69.5 192t60.5 204t45.5 207.5q15 93 15 185q-1 3 -1 6q0 95 -22 165q-7 23 -15 32q-7 7 -16 7h-4q-18 -2 -41 -49 q-70 -141 -132 -510.5t-77 -718.5z" />
<glyph unicode="i" horiz-adv-x="335" d="M0 386q2 104 8 142q5 0 13.5 -0.5t30.5 -3.5t38 -8.5t29 -17.5t12 -29q0 -7 -5 -81q-4 -76 -7 -138q-2 -34 -2 -70q-1 -30 1 -62q2 -70 13 -95q9 -35 26 -52.5t31 -19.5q3 0 6 -1q38 0 80 77q44 82 69 167l24 85l26 -11q-4 -13 -10.5 -35t-27 -78.5t-41.5 -100.5 t-50.5 -81.5t-56.5 -40.5q-6 -1 -12 -1q-13 0 -27 3q-21 4 -49 22.5t-50.5 49.5t-41 90t-23.5 137q-4 38 -4 108v45zM8 788q12 30 51 37q12 2 23 2q48 0 74 -40q18 -28 19 -54q0 -21 -11 -41q-14 -25 -34.5 -42.5t-33.5 -21.5l-14 -5q-1 2 0.5 9.5t-8 22.5t-29.5 25 q-25 14 -37 46q-6 16 -6 31q0 16 6 31z" />
<glyph unicode="j" horiz-adv-x="313" d="M-514 -934q-1 9 -1 20q0 33 15 74q19 53 61 116t68.5 98.5t69.5 88.5q55 68 276 304q19 157 27 355q7 175 7 278v25q-1 106 -3 144v4q4 0 6 -2q50 -8 80 -24q5 -3 9.5 -9.5t7.5 -17t5.5 -21t4.5 -26.5t3 -27t2 -28.5t1.5 -26t1 -24.5t0.5 -19q1 -55 1 -108 q0 -178 -13 -324q57 60 104 128.5t73.5 121.5t45 100t25 70t6.5 26l18 -12q0 -3 -6.5 -27.5t-26 -74t-48 -105.5t-80 -128.5t-113.5 -137.5q-16 -157 -50 -338q-57 -273 -204 -426q-58 -61 -124 -95t-128 -34q-50 0 -86 25q-32 19 -35 57zM-485 -946q20 -33 59 -33h2 q57 0 128 52t116 139q101 186 149 509q-255 -280 -371 -450q-90 -133 -90 -191q0 -16 7 -26zM-22 784q-6 16 -6 32t6 31q12 31 51 38q12 2 23 2q48 0 74 -40q18 -28 18 -54q0 -21 -11 -41q-14 -25 -34.5 -42.5t-34.5 -22.5l-13 -5q-1 2 0.5 9.5t-8 22.5t-29.5 25 q-24 14 -36 45z" />
<glyph unicode="k" horiz-adv-x="636" d="M0 319q0 329 98 738t201 583l5.5 11t14.5 23.5t22 28t26 18.5q8 4 16 3q6 0 12 -2q13 -4 17 -10q12 -12 22 -45q22 -70 24 -163v-15q0 -86 -16 -179q-17 -101 -42.5 -203t-62 -207.5t-68 -188t-66.5 -162.5l-33 -78q-31 -70 -43 -92v-4q-1 -44 -1 -86q0 -179 21 -297 q-3 39 -3 77q0 245 112 435q69 118 143 149q19 8 35 8q27 0 39 -25q10 -19 8 -48q-7 -97 -147 -256q43 -9 76 -53q16 -21 22.5 -52.5t6 -55.5t-5 -67.5t-5.5 -60.5q-7 -45 -7 -78q-1 -23 3 -39q8 -42 17.5 -57.5t21.5 -18.5h4q22 0 50 36q30 40 55 101.5t47 123t35 105.5 l12 44l16 -8q-4 -16 -12 -43.5t-31 -97.5t-45.5 -124.5t-52.5 -101.5t-56 -51q-6 -1 -12.5 -1t-12.5 1q-14 2 -31.5 9.5t-31.5 24t-28 43.5t-21 67t-10 96q-1 14 -1 28q0 45 7 101v8q0 2 1 7t1 7q0 80 -33 82q-3 1 -7 1q-24 0 -50 -33q-30 -37 -46 -73.5t-30 -78.5 q-9 -57 -11 -114q-1 -23 -1 -41q0 -27 2 -44l2 -28v-7l-16 -8q-5 0 -9 -2q-4 -1 -8 -1q-44 0 -78 69q-61 131 -61 372zM129 428q26 57 52.5 119t64.5 160.5t69 192t60.5 204.5t44.5 207q15 93 15 185q-1 3 -1 6q0 95 -22 165q-6 23 -14 32q-7 7 -17 7h-4q-16 -2 -41 -49 q-69 -142 -131 -513t-76 -716zM205 238q47 80 98 92l-2 2q5 5 14 13t33 34.5t43.5 53t39 64.5t26.5 74q4 19 4 31q0 24 -14 23h-4q-33 -8 -100 -102q-47 -68 -79 -136q-34 -62 -59 -149z" />
<glyph unicode="l" horiz-adv-x="399" d="M0 319q0 329 97.5 738.5t199.5 582.5l5.5 11t14.5 23.5t22 28t27 18.5q8 4 16 3q7 0 13 -2q11 -4 17 -10q11 -14 20 -45q22 -70 24 -163v-15q0 -85 -16 -179q-17 -102 -42 -203t-61.5 -207.5t-67.5 -188t-66 -162.5l-33 -78q-24 -49 -43 -92v-2q0 -2 -2 -2 q-1 -31 -2.5 -82.5t-2 -82.5t-1.5 -76q-1 -30 -1 -53v-21q0 -28 2 -63.5t6 -58.5t9.5 -45.5t13.5 -37t19 -21.5q13 -9 26 -9q16 0 34 12q33 22 62.5 67.5t51 88t33.5 75.5q35 92 45 147l22 -8q-23 -107 -57 -178q-90 -200 -174 -227q-12 -4 -25 -4q-70 0 -129 132 q-57 122 -57 389zM127 428q27 58 53 119t64.5 160.5t69.5 192t60.5 204t45.5 207.5q15 93 15 185q-1 3 -1 6q0 95 -22 165q-8 23 -16 32q-7 7 -15 7h-4q-18 -2 -41 -49q-70 -142 -132.5 -512.5t-76.5 -716.5z" />
<glyph unicode="m" horiz-adv-x="962" d="M6 319q4 48 8 74q4 22 11.5 48t20.5 60.5t33.5 58t43.5 26.5q10 2 17 2q16 0 24 -8q-11 -69 -21 -152l-6 -49v-4q-18 -147 -18 -266q21 121 88 208q41 49 81 73q36 21 63 21h7q30 -3 53 -19.5t33.5 -43t6.5 -53.5q-1 -4 -16 -84t-17 -131q-4 -39 -4.5 -69.5t4.5 -53.5 q24 291 160 475q92 127 175 126h13q55 -8 80 -65q12 -28 12 -57q0 -17 -4 -33q-3 -14 -32 -117t-40 -171q-16 -67 -22 -121q-4 -35 -3 -59q0 -14 1 -24q3 -30 11 -50t15.5 -27t14.5 -8q3 -1 5 0q22 0 48 35q30 40 55.5 101t47 122.5t33.5 105.5l13 43l19 -6 q-4 -16 -12 -43.5t-31.5 -97.5t-46 -124t-53 -101t-56.5 -51q-7 -1 -14 -1q-5 1 -11 1q-14 2 -31.5 9t-31.5 23t-28 43t-21 67t-10 96q-1 14 -1 29q0 45 7 101q2 35 9 73.5t14.5 71t16 64t15.5 55.5t10.5 43t2.5 29.5t-9 11.5h-7q-56 0 -130 -95q-78 -101 -123 -253 q-36 -122 -49 -272l-14 -4h-7q-26 0 -51 24q-46 69 -51 201q-3 28 -1.5 55.5t4.5 54t7 49.5t7 42t4.5 32.5t-0.5 20.5t-9 6q-34 -4 -94 -80t-82 -180q-13 -71 -13 -153q0 -21 1 -42q2 0 2 -2q3 -20 8 -34v-7l-18 -8q-4 0 -8 -2q-29 -4 -49.5 19t-30.5 49q-35 91 -35 240 q0 61 6 132z" />
<glyph unicode="n" horiz-adv-x="675" d="M4 348q8 70 45 90q22 13 42.5 15t32 -2.5t13.5 -12.5v-4q-18 -153 -18 -268q0 -86 10 -152q24 294 160 478q92 127 176 126h13q55 -8 81 -67q12 -28 12 -56q0 -16 -4 -32q-6 -23 -22 -78.5t-29 -107.5t-22 -103q-24 -102 -24 -163v-17q4 -64 15 -85t27 -24q3 -1 5 -1 q22 0 48 36q29 40 54 101t47 122.5t34 105.5l13 44l18 -6q-4 -16 -12 -43.5t-31.5 -97.5t-46 -124.5t-53 -101.5t-56.5 -51q-8 -2 -16 -2q-10 0 -22 3q-20 5 -44.5 25t-39 61t-22.5 110q-4 29 -4 63q0 49 7 109q2 35 9 73.5t15 71t16.5 64t15 55.5t10.5 43t3 29.5t-9 11.5 h-7q-57 0 -131 -95q-79 -101 -123 -253q-40 -138 -49 -283v-6l-18 -8q-4 0 -8 -2q-29 -4 -49.5 19t-30.5 48q-35 92 -35 237q0 49 4 105z" />
<glyph unicode="o" horiz-adv-x="577" d="M6 143q-7 49 -7 94q0 75 19 142q29 113 97 168q53 41 123 41q50 0 84 -17q25 -10 40.5 -44t19 -70t5.5 -68.5t0 -40.5v-2v-2h-27v2v1q2 31 2 58q0 99 -32 134q-14 14 -33 14q-14 0 -31 -8q-44 -22 -78 -100.5t-51 -172.5q-18 -93 -17 -177v-13q2 -90 23 -137h2v-2 q0 -2 2 -2q13 -26 29 -31q10 -6 21 -6q29 0 63 41q29 29 57 90v2q16 37 17 41q35 81 35 141q0 15 -2 23q-53 46 -53 81q0 4 1 7q3 20 17 20q7 0 18 -8.5t17 -17.5q15 -21 18 -68q28 -28 76 -35q12 -1 24 -1q70 0 136 50l16 -14q-33 -26 -81 -44q-35 -13 -69 -13q-13 0 -26 2 q-44 7 -74 26q0 -35 -6 -73q-7 -34 -22.5 -76.5t-39.5 -87t-58 -75.5t-71 -34h-2q-59 0 -106 62q-58 77 -76 200zM338 326l4.5 -9t8.5 -15.5t11 -16.5q-9 31 -24 41z" />
<glyph unicode="p" horiz-adv-x="569" d="M-51 -227q-1 24 -1 50q0 237 52 527q0 6 41 238q89 -16 92 -64q43 61 88 64h12q101 0 158 -62q49 -52 49 -140q0 -18 -2 -38q-3 -64 -26 -125l215 68l4 -17q-40 -7 -230 -75q-20 -47 -53 -95q-41 -57 -89.5 -88.5t-94.5 -31.5q-17 0 -35 6h-4l-2 2q-33 15 -33 40.5 t33 61.5q30 27 153 80q35 106 35 223.5t-43 151.5q-21 18 -43 18q-56 0 -100 -110q-47 -378 -49 -578v-59q0 -279 41 -418l4 -10v-2l12 -33v-8l-16 -6q-2 -2 -8 -2q-4 -1 -9 -1q-24 0 -44 20q-24 22 -36 46q-65 129 -71 367zM115 14q10 -12 39 -12q31 2 61 40t53 105 q-50 -22 -84.5 -42t-49 -33.5t-20.5 -26.5q-4 -10 -4 -16q0 -5 5 -15z" />
<glyph unicode="q" horiz-adv-x="651" d="M0 176q-7 36 -7 72q0 74 30 145q51 117 157 162q76 29 121 29q55 0 84 -33q17 -18 26 -45.5t9 -45.5v-18v-2l-14 2v2q-1 27 -11 54q-18 55 -67 55q-15 0 -33 -6q-79 -25 -145 -172q-51 -122 -51 -220q0 -16 1 -32q9 -89 66 -94q4 -2 10 -2q49 0 88.5 47t67.5 114 q8 17 10 23q17 73 47 164q28 66 72 69q-52 -183 -58 -483q42 11 115 93.5t126 159.5l52 77l15 -12q-8 -13 -22 -34t-54.5 -76.5t-76 -98.5t-78 -82t-70.5 -45q16 -29 33.5 -62t44 -85t50 -103.5t48 -110t41 -112.5t27.5 -104q10 -44 10 -81v-10q-2 -41 -17 -66 q-27 -35 -63 -35q-7 0 -13 1q-101 11 -176 100q-76 102 -98 274q-13 91 -13 192q0 171 38 370q-61 -102 -142 -105h-6q-69 0 -115 49q-43 43 -59 121zM403 -88v-36q0 -103 9 -247h2l2 -39q2 -6 2 -20v-2q34 -295 129 -369l5 -3q6 -2 16 -5.5t20 -5.5v2q26 6 39 31 q13 23 15 60v12q0 32 -8 68q-9 45 -23.5 94.5t-37 103.5t-44 103t-46.5 99.5t-43.5 85.5t-36.5 68z" />
<glyph unicode="r" horiz-adv-x="688" d="M-96 700q-1 -8 0 -16q0 -34 12 -72q15 -48 49 -92q59 -72 125 -94v-2l-59 -156l18 -8q14 52 53 158q64 -31 160 -35q-9 -30 -22 -88.5t-31 -152t-24 -184.5q-3 -50 -3 -97q0 -39 2 -77q6 -82 38 -132q31 -48 86 -47h5q53 2 107 44.5t97 109t82.5 147t68.5 160t50.5 146 t32.5 107.5l11 41l-21 13q-4 -15 -11 -40.5t-30 -99.5t-48 -142t-63 -152.5t-76 -147.5t-86 -109.5t-95 -54.5q-11 -2 -21 -2q-69 0 -69 90q0 72 62 277q61 202 69 271q2 17 2 31q0 68 -39 83q46 5 101 20.5t69 22.5q5 4 6 8.5t0 7.5l-2 2q-10 -4 -27 -9t-67 -15t-96 -12 h-11q-43 0 -93 12q-57 12 -99 43l24 69q45 121 45 227q0 18 -1 36q-9 122 -79 143q-7 2 -16 2q-14 0 -30 -6q-26 -8 -51.5 -29t-49 -50.5t-37.5 -68.5t-18 -80zM29 676q-1 16 0 30q0 101 29 165q18 40 40 40q13 0 28 -15q4 -5 9 -11q26 -40 26 -113.5t-16 -147t-43 -155.5 q-66 57 -73 207z" />
<glyph unicode="s" horiz-adv-x="385" d="M-102 -338q3 43 30.5 73t77.5 36q6 2 4 -23q-43 -7 -65.5 -31.5t-24.5 -58.5q0 -3 -1 -5q-1 -39 29 -75q30 -38 81 -51q25 -5 48 -5q30 0 54 9q43 16 64 50.5t29 82.5q6 31 6 62q0 17 -2 34q-4 49 -17 97q-21 76 -106.5 278.5t-94.5 288.5q-3 30 -3 57q-1 31 3 57 q6 52 23.5 86t42.5 59t55.5 35t64.5 12q6 0 12 1l56 -10q21 -8 21 -36q0 -71 -135 -269q6 -22 18 -47q145 -311 170 -510q3 -28 3 -55q1 -29 -3 -58q-8 -56 -31.5 -105.5t-60.5 -84.5q-36 -34 -92 -50q-32 -9 -68 -9q-27 0 -57 5q-59 10 -97 58q-34 42 -35 90q0 6 1 12z M138 628q-16 -36 -16 -82q0 -47 17 -104q62 88 101 170q18 37 18 58q0 25 -25 26h-8q-57 1 -87 -68z" />
<glyph unicode="t" horiz-adv-x="393" d="M-217 717q23 6 59 7q70 0 187 -24q6 44 18 92t30.5 98t44.5 75q17 16 35 16q11 0 21 -6q-26 -196 -33 -275q-2 -8 -2 -22q70 -14 124 -14h18q38 0 73 14l13 -16q-29 -15 -56 -17q-26 -2 -53 -2q-60 0 -121 12q-12 -156 -16 -430q2 -26 4.5 -68.5t4.5 -65.5t6 -54.5 t11 -48.5t18 -34t27.5 -24t39.5 -6q34 1 67 41.5t57 99.5t39.5 107.5t24.5 87.5l16 -12q-82 -327 -198 -342q-12 -2 -24 -2q-47 0 -86 30q-49 36 -77 100t-42 138q-13 69 -13 137v10q3 172 27 359l-117 20q-23 5 -51 5q-33 0 -72 -7z" />
<glyph unicode="u" horiz-adv-x="630" d="M4 365q8 70 45 90q34 17 56.5 16t29.5 -12q-21 -88 -29 -217q-3 -55 -3 -100q-1 -58 5 -98q10 -70 25 -77l14 -6q3 -1 6 -1q21 0 52 28q55 57 108 209l52 155q7 38 43 174l32 107q48 -7 72 -53q17 -32 17 -67q0 -16 -3 -32q-3 -15 -31.5 -118.5t-39.5 -172.5 q-15 -68 -21 -121q-4 -39 -5 -65q0 -10 1 -18q2 -30 9.5 -49.5t15.5 -26.5t16 -8q3 -1 6 0q39 0 86 94q51 102 82 207l31 106l14 -6q-4 -16 -12 -43.5t-31 -97.5t-45.5 -124.5t-53 -101.5t-56.5 -51q-7 -1 -14 -1h-11q-13 2 -30 9.5t-31 23t-28.5 41t-21.5 64.5 q-6 38 -10 91q-1 16 -2 34q0 40 6 89q-77 -210 -137 -261q-38 -36 -76 -36q-39 0 -76 38q0 3 -2 5l-2 2l-2 2v2q-6 8 -20 35q-35 92 -35 237q0 49 4 105z" />
<glyph unicode="v" horiz-adv-x="940" d="M12 899q11 25 43.5 43.5t63.5 26.5q19 5 34 5q7 0 13 -1q-3 -163 -3 -302q0 -260 10 -434q15 -267 60.5 -407.5t133.5 -173.5q6 -2 13 -2q24 0 56 26q42 34 80 115l10 21q93 193 150 381q-70 59 -108 203q-21 81 -20 154q0 57 12 108q26 102 106 102q12 0 24 -2 q30 -16 48.5 -28.5t43 -47t32.5 -78.5q5 -27 5 -67q0 -25 -2 -55q-5 -78 -31 -177q-15 -62 -32 -114q9 -1 18 -1q32 0 64 12q40 15 66.5 40t47 51t30.5 45l9 18l15 -12q-4 -8 -12 -21.5t-34 -47.5t-54.5 -58t-71.5 -41q-30 -12 -61 -12q-13 0 -26 2q-77 -231 -219 -424 l-37 -45q-47 -59 -98 -69q-14 -3 -28 -2q-35 0 -67 18q-44 26 -87 82q-86 116 -133 354q-59 301 -64 815zM592 418q27 -148 82 -192q4 -3 8 -5q66 224 66 410v2q-5 92 -58 110q-15 6 -28 6q-47 0 -68 -79q-15 -53 -14 -119q-1 -61 12 -133z" />
<glyph unicode="w" horiz-adv-x="917" d="M0 274v18q0 28 2 60q3 42 7 68.5t11 68.5l9 54l20 106q51 -7 81 -53q25 -39 25 -81q0 -8 -1 -17q-1 -12 -19 -115t-22 -170q-9 -67 -9 -119.5t5.5 -82.5t15.5 -50t18.5 -27t16.5 -8h5q23 0 49 40q28 45 48.5 117.5t32.5 127t20 98.5l-4 68q4 71 37 90q35 18 59.5 15.5 t30.5 -15.5v-4q-1 -28 -1 -56q0 -67 5 -137l5 -98q18 -184 75 -184h4q20 2 43 26q35 35 72 131h2l6 21q52 135 85 265.5t44 216.5q12 86 14 164q1 29 0 52q0 38 -2 58q-2 32 -6 49v2q-9 49 -29.5 77t-43.5 33t-44.5 2.5t-36.5 -9.5l-14 -7l-16 14l11 5.5t29 9.5t44 6h2 q21 0 48 -8q29 -8 54 -29l5 -4q3 -1 7 -4.5t15.5 -17t21 -31.5t19.5 -51.5t14 -73.5q3 -28 4 -65q0 -17 -1 -36q-2 -61 -13 -131q-49 -333 -203 -557l-32 -43l-29 -35l-12 -12q-2 -3 -11 -8l-8 -6h-2q-33 -32 -70 -32q-38 0 -79 36l-8 8l-3 2q-11 13 -22 35q-41 75 -57 201 q-68 -319 -142 -332q-7 -1 -15 -1q-11 1 -23 3q-20 4 -46.5 25t-47 58t-35 109.5t-15.5 169.5z" />
<glyph unicode="x" horiz-adv-x="600" d="M-180 -303q134 31 323 418q-62 100 -116 223q-26 56 -54 104.5t-43 69.5l-14 20l-20 23q23 17 44 23q22 8 38 8h1q15 0 30 -10q16 -10 25.5 -18.5t22 -29.5t16.5 -29.5t14.5 -32.5t12.5 -28q12 -26 42 -99.5t53 -119.5l88 195q61 137 155 168q22 5 39 5q15 0 27 -4 q25 -9 36 -25l11 -15q-5 1 -14.5 1t-47 -18t-83.5 -55q-41 -32 -84.5 -101t-108.5 -190q4 -8 8 -12q32 -72 64.5 -124.5t58.5 -78t44 -37t32 -14.5q35 0 55 14q41 20 70 80q52 87 98 264q11 -7 19 -10q-73 -265 -154 -332q-33 -28 -70 -32h-12h-5q-42 0 -101 32 q-62 34 -136 121l-20 33q-60 -111 -103 -176q-36 -55 -72.5 -99.5t-63.5 -68.5t-48 -40t-32 -21l-11 -5z" />
<glyph unicode="y" horiz-adv-x="684" d="M-152 -934q-1 9 -1 20q0 33 15 74q19 53 61 116t68.5 98.5t69.5 88.5q49 60 277 304q18 147 24 307q-83 -229 -153 -238q-18 -2 -39 2t-49 22.5t-50.5 49.5t-41 90t-23.5 137q-4 38 -4 108v45q2 103 8 142q5 0 13.5 -0.5t30.5 -3.5t38 -8.5t29 -17.5t12 -29 q0 -7 -4.5 -82t-7.5 -137q-2 -35 -2 -71q0 -30 1 -61q3 -70 13 -96q16 -61 57 -67h5q28 0 57 38q33 42 57.5 106.5t38 107t19.5 67.5q3 71 4 144q1 50 1 86v34q-1 45 -2 85t-1 42v4q4 0 6 -2q50 -8 80 -24q6 -3 11.5 -12.5t8.5 -26t5.5 -30.5t4 -37t2 -34.5t1.5 -34t1 -24.5 q1 -55 1 -108q0 -178 -13 -324q57 60 104 128.5t73.5 121.5t45 100t25 70t6.5 26l19 -12q0 -3 -6.5 -27.5t-26.5 -74t-48.5 -105.5t-80 -128.5t-113.5 -137.5q-17 -168 -49 -338q-56 -271 -205 -426q-58 -61 -124 -95t-128 -34q-50 0 -86 25q-32 19 -35 57zM-119 -946 q20 -33 60 -33h2q57 0 127.5 52t115.5 139q103 189 150 509q-255 -261 -373 -436q-90 -134 -90 -198q0 -20 8 -33z" />
<glyph unicode="z" horiz-adv-x="491" d="M-189 -571q0 33 13 81q14 52 39 114t62 131.5t80 136.5t96 131.5t106 113.5q-54 54 -135 88q22 13 63 59t83.5 105.5t74.5 121.5q32 61 36 107v9q0 38 -32 55q-2 1 -5 1q-18 1 -58 -31q-48 -36 -94 -92q-44 -54 -70 -116q-12 -28 -12 -53q0 -29 16 -53l-21 -6 q-24 12 -39.5 55t-17.5 82v10q0 48 24 93q28 50 72 83t92 52q37 14 71 15q11 0 21 -2q44 -6 64 -38q14 -21 15 -50.5t-10 -62.5t-27.5 -67t-40 -69.5t-45.5 -65.5t-46.5 -59.5t-40 -47t-28.5 -31.5q110 -67 116 -71q46 42 127 90.5t139 75.5l58 28l14 -16q-25 -11 -65 -29.5 t-127 -69.5t-131 -94q81 -59 106 -149q13 -45 13 -90q-1 -45 -13 -90q-24 -91 -81.5 -180.5t-132 -153.5t-158.5 -94q-49 -18 -93 -18q-32 0 -61 9q-17 13 -17 52zM-164 -575q4 -18 23 -18q21 0 61 24q92 55 188 175q144 181 156 342q1 12 1 24q0 74 -32 134q-3 6 -10 13 q-81 -64 -179 -214t-158 -291q-51 -119 -52 -172q0 -10 2 -17z" />
<glyph unicode="{" horiz-adv-x="378" d="M35 633l2 45q63 -1 85.5 27.5t22.5 76.5q0 51 -10 113q-14 65 -14 115q0 84 50.5 126t133.5 42h17v-50h-23q-66 -1 -93.5 -31t-27.5 -93q0 -37 12 -107q11 -91 11 -104q0 -109 -82 -136v-2q38 -11 60 -47t22 -90q0 -59 -11.5 -253t-11.5 -236q0 -124 121 -127h23v-49h-17 q-83 0 -133.5 43t-50.5 137q0 44 12 240t12 257q0 105 -110 103z" />
<glyph unicode="|" horiz-adv-x="278" d="M111 -328v1653h57v-1653h-57z" />
<glyph unicode="}" horiz-adv-x="378" d="M35 -98h22q121 3 121 127q0 42 -11 236t-11 253q0 54 22 90t60 47v2q-82 27 -82 136q0 21 10 104q12 70 12 107q0 63 -27.5 93t-93.5 31h-22v50h16q83 0 134 -42t51 -126q0 -46 -15 -115q-10 -62 -10 -113q0 -48 22.5 -76.5t85.5 -27.5l3 -45q-111 2 -111 -103 q0 -61 12.5 -257t12.5 -240q0 -94 -51 -137t-134 -43h-16v49z" />
<glyph unicode="~" horiz-adv-x="782" d="M70 291q-6 76 35 123t104 47q35 0 72.5 -12t115.5 -46q125 -59 185 -59q42 0 63 30.5t21 84.5h47q4 -86 -35.5 -128t-99.5 -42q-68 0 -195 55q-10 4 -37 16.5t-39 17.5t-32 12t-36 10t-32 3q-88 0 -88 -112h-49z" />
<glyph unicode="&#xa7;" horiz-adv-x="632" d="M88 465q0 81 88 149q-19 15 -32 44t-13 59q0 78 61 128t152 50q100 0 166 -47l-27 -45q-65 45 -145 45q-62 0 -106 -33t-44 -86q0 -30 22 -46t51 -20.5t75 -12t76 -19.5q93 -36 132 -106t21 -148t-84 -144q47 -47 47 -114q0 -89 -65 -139t-160 -50q-118 0 -182 54l26 45 q66 -49 160 -49q70 0 116 35t46 96q0 26 -14 38.5t-34.5 16t-66 13t-86.5 24.5q-92 33 -136 105.5t-44 156.5zM145 467q0 -40 36 -71t124 -62q75 -28 141 -74q56 50 56 121q0 94 -133 139q-104 37 -156 68q-68 -47 -68 -119v-2z" />
<glyph unicode="&#xa8;" horiz-adv-x="393" d="M47 817q0 24 17 42t40 18q24 0 41 -18t17 -42t-16.5 -41.5t-41.5 -17.5h-2q-25 0 -40 17.5t-15 41.5zM221 817q0 24 17 42t41 18t39.5 -18t15.5 -42t-15 -41.5t-40 -17.5h-5q-24 0 -38.5 17.5t-14.5 41.5z" />
<glyph unicode="&#xad;" horiz-adv-x="249" d="M25 213v37h200v-37h-200z" />
<glyph unicode="&#xb0;" horiz-adv-x="385" d="M39 733q0 71 46.5 118.5t113.5 47.5h2q71 0 113 -46.5t42 -111.5q0 -72 -49 -117.5t-112 -45.5q-67 0 -111.5 46t-44.5 109zM88 733q0 -46 32 -79t77 -33q46 0 77 33.5t31 84.5q0 44 -26.5 80.5t-81.5 36.5h-2q-52 0 -79.5 -37.5t-27.5 -85.5z" />
<glyph unicode="&#xb1;" horiz-adv-x="782" d="M53 0v53h676v-53h-676zM53 420v51h312v272h55v-272h309v-51h-309v-283h-55v283h-312z" />
<glyph unicode="&#xb4;" horiz-adv-x="393" d="M154 721l116 180h92l-161 -180h-47z" />
<glyph unicode="&#xb5;" horiz-adv-x="700" d="M104 -25v654h64v-385q0 -87 41.5 -145t128.5 -58q65 0 112.5 36.5t69.5 90.5q12 27 12 70v391h62v-475q0 -62 13.5 -88t51.5 -29l-8 -49q-12 -2 -20 -2q-38 0 -64.5 28t-29.5 90h-2q-28 -47 -78.5 -81.5t-118.5 -34.5q-124 0 -170 88v-92q0 -189 14 -242h-57 q-21 64 -21 233z" />
<glyph unicode="&#xb6;" horiz-adv-x="645" d="M45 596q0 44 9.5 83t34.5 77t63 65.5t98.5 44.5t138.5 17q93 0 133 -9v-942h-53v899h-92v-899h-53v414h-13q-99 0 -181 67t-85 183z" />
<glyph unicode="&#xb8;" horiz-adv-x="393" d="M78 -240l16 47q26 -18 72 -18q28 0 44 10.5t15 34.5q0 53 -100 60l65 108h50l-47 -72q37 -6 62.5 -30.5t25.5 -59.5q0 -51 -34 -74.5t-89 -23.5q-39 0 -80 18z" />
<glyph unicode="&#xbb;" horiz-adv-x="514" d="M29 567h65l189 -235l-189 -238h-63l186 238zM219 567h66l188 -235l-188 -238h-64l187 238z" />
<glyph unicode="&#xc0;" horiz-adv-x="1067" d="M-20 -12q-10 55 6 116.5t38.5 114t45.5 88.5q63 92 163.5 143.5t219.5 57.5q30 64 80 171.5t78 167.5t61 127.5t51.5 99t26.5 34.5q28 9 56.5 2.5t48 -16t22.5 -13.5q4 -9 -15 -98q-36 -254 -51 -580q34 -28 58 -61.5t31 -52.5l7 -19l-14 -8q-28 60 -82 111 q-14 -423 76 -531q20 -20 53 -18q22 6 27 8h2l32 27l9 -23q-24 -17 -54 -26h-10v-3h-12q-49 -2 -99.5 30.5t-89.5 109.5q-61 131 -61 372q0 83 2 132q-91 39 -203 36q-74 -158 -146.5 -288t-150 -224.5t-123.5 -83.5q-19 6 -32 15q-41 27 -51 82zM6.5 68 q-15.5 -121 46.5 -150q21 -8 48 7.5t58 54.5t62.5 87.5t70 121t72 139.5t76.5 157q-11 -2 -49.5 -9.5t-53 -11.5t-47 -13.5t-52 -21.5t-47 -31t-51.5 -45.5t-48 -61.5q-70 -102 -85.5 -223zM494 510q17 0 63 -4q73 -9 131 -31l6 55q25 261 84 517q0 15 -3 22t-11 6 q-7 -1 -30 -40t-69 -135.5t-102 -229.5zM598 1354h92l117 -180h-49z" />
<glyph unicode="&#xc1;" horiz-adv-x="1067" d="M-20 -12q-10 55 6 116.5t38.5 114t45.5 88.5q63 92 163.5 143.5t219.5 57.5q30 64 80 171.5t78 167.5t61 127.5t51.5 99t26.5 34.5q28 9 56.5 2.5t48 -16t22.5 -13.5q4 -9 -15 -98q-36 -254 -51 -580q34 -28 58 -61.5t31 -52.5l7 -19l-14 -8q-28 60 -82 111 q-14 -423 76 -531q20 -20 53 -18q22 6 27 8h2l32 27l9 -23q-24 -17 -54 -26h-10v-3h-12q-49 -2 -99.5 30.5t-89.5 109.5q-61 131 -61 372q0 83 2 132q-91 39 -203 36q-74 -158 -146.5 -288t-150 -224.5t-123.5 -83.5q-19 6 -32 15q-41 27 -51 82zM6.5 68 q-15.5 -121 46.5 -150q21 -8 48 7.5t58 54.5t62.5 87.5t70 121t72 139.5t76.5 157q-11 -2 -49.5 -9.5t-53 -11.5t-47 -13.5t-52 -21.5t-47 -31t-51.5 -45.5t-48 -61.5q-70 -102 -85.5 -223zM494 510q17 0 63 -4q73 -9 131 -31l6 55q25 261 84 517q0 15 -3 22t-11 6 q-7 -1 -30 -40t-69 -135.5t-102 -229.5zM725 1171l117 181h92l-162 -181h-47z" />
<glyph unicode="&#xc2;" horiz-adv-x="1067" d="M-20 -12q-10 55 6 116.5t38.5 114t45.5 88.5q63 92 163.5 143.5t219.5 57.5q30 64 80 171.5t78 167.5t61 127.5t51.5 99t26.5 34.5q28 9 56.5 2.5t48 -16t22.5 -13.5q4 -9 -15 -98q-36 -254 -51 -580q34 -28 58 -61.5t31 -52.5l7 -19l-14 -8q-28 60 -82 111 q-14 -423 76 -531q20 -20 53 -18q22 6 27 8h2l32 27l9 -23q-24 -17 -54 -26h-10v-3h-12q-49 -2 -99.5 30.5t-89.5 109.5q-61 131 -61 372q0 83 2 132q-91 39 -203 36q-74 -158 -146.5 -288t-150 -224.5t-123.5 -83.5q-19 6 -32 15q-41 27 -51 82zM6.5 68 q-15.5 -121 46.5 -150q21 -8 48 7.5t58 54.5t62.5 87.5t70 121t72 139.5t76.5 157q-11 -2 -49.5 -9.5t-53 -11.5t-47 -13.5t-52 -21.5t-47 -31t-51.5 -45.5t-48 -61.5q-70 -102 -85.5 -223zM494 510q17 0 63 -4q73 -9 131 -31l6 55q25 261 84 517q0 15 -3 22t-11 6 q-7 -1 -30 -40t-69 -135.5t-102 -229.5zM639 1182l123 180h51l119 -180h-60l-84 131h-2l-84 -131h-63z" />
<glyph unicode="&#xc3;" horiz-adv-x="1067" d="M-20 -12q-10 55 6 116.5t38.5 114t45.5 88.5q63 92 163.5 143.5t219.5 57.5q30 64 80 171.5t78 167.5t61 127.5t51.5 99t26.5 34.5q28 9 56.5 2.5t48 -16t22.5 -13.5q4 -9 -15 -98q-36 -254 -51 -580q34 -28 58 -61.5t31 -52.5l7 -19l-14 -8q-28 60 -82 111 q-14 -423 76 -531q20 -20 53 -18q22 6 27 8h2l32 27l9 -23q-24 -17 -54 -26h-10v-3h-12q-49 -2 -99.5 30.5t-89.5 109.5q-61 131 -61 372q0 83 2 132q-91 39 -203 36q-74 -158 -146.5 -288t-150 -224.5t-123.5 -83.5q-19 6 -32 15q-41 27 -51 82zM6.5 68 q-15.5 -121 46.5 -150q21 -8 48 7.5t58 54.5t62.5 87.5t70 121t72 139.5t76.5 157q-11 -2 -49.5 -9.5t-53 -11.5t-47 -13.5t-52 -21.5t-47 -31t-51.5 -45.5t-48 -61.5q-70 -102 -85.5 -223zM494 510q17 0 63 -4q73 -9 131 -31l6 55q25 261 84 517q0 15 -3 22t-11 6 q-7 -1 -30 -40t-69 -135.5t-102 -229.5zM627 1165q-1 53 20.5 84t57.5 31q7 0 14 -1t16 -4.5t13.5 -6t17.5 -9t18 -8.5q33 -20 56 -20q34 0 34 53h46q0 -110 -78 -110q-28 0 -74 26q-7 4 -19 10l-17 8.5t-12 4.5t-13 2q-30 0 -37 -60h-43z" />
<glyph unicode="&#xc4;" horiz-adv-x="1067" d="M-20 -12q-10 55 6 116.5t38.5 114t45.5 88.5q63 92 163.5 143.5t219.5 57.5q30 64 80 171.5t78 167.5t61 127.5t51.5 99t26.5 34.5q28 9 56.5 2.5t48 -16t22.5 -13.5q4 -9 -15 -98q-36 -254 -51 -580q34 -28 58 -61.5t31 -52.5l7 -19l-14 -8q-28 60 -82 111 q-14 -423 76 -531q20 -20 53 -18q22 6 27 8h2l32 27l9 -23q-24 -17 -54 -26h-10v-3h-12q-49 -2 -99.5 30.5t-89.5 109.5q-61 131 -61 372q0 83 2 132q-91 39 -203 36q-74 -158 -146.5 -288t-150 -224.5t-123.5 -83.5q-19 6 -32 15q-41 27 -51 82zM6.5 68 q-15.5 -121 46.5 -150q21 -8 48 7.5t58 54.5t62.5 87.5t70 121t72 139.5t76.5 157q-11 -2 -49.5 -9.5t-53 -11.5t-47 -13.5t-52 -21.5t-47 -31t-51.5 -45.5t-48 -61.5q-70 -102 -85.5 -223zM494 510q17 0 63 -4q73 -9 131 -31l6 55q25 261 84 517q0 15 -3 22t-11 6 q-7 -1 -30 -40t-69 -135.5t-102 -229.5zM666 1253q0 24 17 42t40 18q24 0 40.5 -18t16.5 -42t-16 -41.5t-41 -17.5h-2q-25 0 -40 17.5t-15 41.5zM840 1253q0 24 16.5 42t40.5 18t39.5 -18t15.5 -42t-15 -41.5t-40 -17.5h-4q-24 0 -38.5 17.5t-14.5 41.5z" />
<glyph unicode="&#xc5;" horiz-adv-x="1067" d="M-20 -12q-10 55 6 116.5t38.5 114t45.5 88.5q63 92 163.5 143.5t219.5 57.5q30 64 80 171.5t78 167.5t61 127.5t51.5 99t26.5 34.5q28 9 56.5 2.5t48 -16t22.5 -13.5q4 -9 -15 -98q-36 -254 -51 -580q34 -28 58 -61.5t31 -52.5l7 -19l-14 -8q-28 60 -82 111 q-14 -423 76 -531q20 -20 53 -18q22 6 27 8h2l32 27l9 -23q-24 -17 -54 -26h-10v-3h-12q-49 -2 -99.5 30.5t-89.5 109.5q-61 131 -61 372q0 83 2 132q-91 39 -203 36q-74 -158 -146.5 -288t-150 -224.5t-123.5 -83.5q-19 6 -32 15q-41 27 -51 82zM6.5 68 q-15.5 -121 46.5 -150q21 -8 48 7.5t58 54.5t62.5 87.5t70 121t72 139.5t76.5 157q-11 -2 -49.5 -9.5t-53 -11.5t-47 -13.5t-52 -21.5t-47 -31t-51.5 -45.5t-48 -61.5q-70 -102 -85.5 -223zM494 510q17 0 63 -4q73 -9 131 -31l6 55q25 261 84 517q0 15 -3 22t-11 6 q-7 -1 -30 -40t-69 -135.5t-102 -229.5zM698 1272q0 52 35 86.5t88 34.5h2q50 0 83.5 -34.5t33.5 -86.5q0 -48 -36 -81.5t-83 -33.5q-53 0 -88 33.5t-35 81.5zM750 1272q0 -29 20.5 -52.5t48.5 -23.5q32 0 52 23t20 57q0 33 -20 54.5t-52 21.5h-2q-30 0 -48.5 -23t-18.5 -57 z" />
<glyph unicode="&#xc6;" horiz-adv-x="1693" d="M-20 -12q-10 55 6 116.5t38.5 114t45.5 88.5q63 92 163.5 143.5t219.5 57.5q30 64 80 171.5t78 167.5t61 127.5t51.5 99t26.5 34.5q28 9 56.5 2.5t48 -16t22.5 -13.5q4 -9 -15 -98q-36 -254 -51 -580q31 -27 47 -49q41 33 88 49q10 5 12 5q-66 19 -94 59q-19 26 -21.5 60 t8.5 68t23 61t27 53.5t17 31.5l18 29q81 125 175 194t185 60q19 -2 35 -12t23.5 -25.5t6 -33.5t-19.5 -36.5t-51 -33.5q-47 -23 -227 -88q-107 -175 -111 -301q-1 -26 11.5 -41t30 -23t20.5 -12h2q44 3 84 -6l8 -31q-56 6 -104 -23q-61 -38 -92.5 -113.5t-28.5 -142.5 q0 -132 32.5 -215.5t98.5 -93.5q54 -8 102.5 30.5t79 98t53.5 120.5t33 104l10 44l5 -2.5t8 -5.5t4 -8l-1 -3q-35 -189 -118 -300q-98 -131 -238 -98q-75 18 -123 69q-45 29 -84 105q-61 131 -61 372q0 83 2 132q-91 39 -203 36q-74 -158 -146.5 -288t-150 -224.5 t-123.5 -83.5q-19 6 -32 15q-41 27 -51 82zM6.5 68q-15.5 -121 46.5 -150q21 -8 48 7.5t58 54.5t62.5 87.5t70 121t72 139.5t76.5 157q-11 -2 -49.5 -9.5t-53 -11.5t-47 -13.5t-52 -21.5t-47 -31t-51.5 -45.5t-48 -61.5q-70 -102 -85.5 -223zM494 510q17 0 63 -4 q73 -9 131 -31l6 55q25 261 84 517q0 15 -3 22t-11 6q-7 -1 -30 -40t-69 -135.5t-102 -229.5zM809 299q20 28 33 41l-31 33q-2 -25 -2 -74zM1083 825q204 77 224 97q30 32 24 55.5t-35 23.5q-20 0 -48.5 -13t-75 -55.5t-89.5 -107.5z" />
<glyph unicode="&#xc7;" horiz-adv-x="847" d="M8.5 438q6.5 55 38.5 111q43 74 137 131.5t262 118.5l74 26q80 125 175 194t186 60q19 -2 34.5 -12t23 -25.5t6 -33.5t-19.5 -36.5t-51 -33.5q-47 -23 -227 -88q-35 -58 -74 -143q-48 -108 -76.5 -252t-31 -275t31 -226.5t101.5 -105.5q54 -8 102.5 30.5t79.5 98.5 t54 121t33 104l10 44l5 -2.5t7.5 -6t3.5 -8.5l-1 -3q-35 -190 -119 -301q-97 -130 -236 -97q-82 18 -132.5 80t-66.5 147.5t-10 188.5t31.5 204.5t64.5 194.5q40 93 78 154q-115 -44 -195 -80.5t-150.5 -86.5t-90.5 -98q-32 -82 -26.5 -132t37 -73.5t67 -31t64.5 -5.5l28 1 q-4 -19 0 -21q-20 -5 -42 -5.5t-36.5 1.5t-27 4t-13.5 2q-61 20 -88 65.5t-20.5 100.5zM377 -379l16 47q26 -18 72 -18q28 0 44 10.5t15 34.5q0 52 -100 59l65 109h50l-47 -72q37 -6 62.5 -30.5t25.5 -59.5q0 -51 -34 -74.5t-89 -23.5q-39 0 -80 18zM668 881q204 77 223 96 q30 32 24.5 56t-34.5 24q-20 0 -48.5 -13t-75 -55.5t-89.5 -107.5z" />
<glyph unicode="&#xc8;" horiz-adv-x="626" d="M-208.5 438q6.5 55 38.5 111q43 74 137 131.5t262 118.5l74 26q80 125 175 194t186 60q19 -2 34.5 -12t23 -25.5t6 -33.5t-19.5 -36.5t-51 -33.5q-47 -23 -227 -88q-107 -175 -111 -301q-1 -26 11.5 -41t30 -23t20.5 -12h2q43 3 84 -6l8 -31q-57 7 -104 -22 q-61 -38 -92.5 -113.5t-28.5 -142.5q0 -132 32.5 -216t98.5 -94q54 -8 102.5 30.5t79 98.5t53.5 121t33 104l10 44l5 -2.5t8 -6t4 -8.5l-1 -3q-35 -189 -118 -300q-98 -131 -238 -98q-187 42 -208 299q2 26 3.5 40.5t7 48t13.5 55.5t23.5 54t35 54t50.5 44t69 36q8 4 13 4 q-67 19 -95 59q-19 26 -21.5 60t8.5 68t23 61.5t27 54t17 31.5q-180 -69 -294 -132.5t-143 -132.5q-32 -82 -26.5 -132t37 -73.5t67 -31t64.5 -5.5l28 1q-4 -19 0 -21q-20 -5 -42 -5.5t-36.5 1.5t-26.5 4t-13 2q-61 20 -88 65.5t-20.5 100.5zM209 1311h92l117 -181h-49z M451 881q204 77 223 96q30 32 24.5 56t-34.5 24q-20 0 -48.5 -13t-75 -55.5t-89.5 -107.5z" />
<glyph unicode="&#xc9;" horiz-adv-x="626" d="M-208.5 438q6.5 55 38.5 111q43 74 137 131.5t262 118.5l74 26q80 125 175 194t186 60q19 -2 34.5 -12t23 -25.5t6 -33.5t-19.5 -36.5t-51 -33.5q-47 -23 -227 -88q-107 -175 -111 -301q-1 -26 11.5 -41t30 -23t20.5 -12h2q43 3 84 -6l8 -31q-57 7 -104 -22 q-61 -38 -92.5 -113.5t-28.5 -142.5q0 -132 32.5 -216t98.5 -94q54 -8 102.5 30.5t79 98.5t53.5 121t33 104l10 44l5 -2.5t8 -6t4 -8.5l-1 -3q-35 -189 -118 -300q-98 -131 -238 -98q-187 42 -208 299q2 26 3.5 40.5t7 48t13.5 55.5t23.5 54t35 54t50.5 44t69 36q8 4 13 4 q-67 19 -95 59q-19 26 -21.5 60t8.5 68t23 61.5t27 54t17 31.5q-180 -69 -294 -132.5t-143 -132.5q-32 -82 -26.5 -132t37 -73.5t67 -31t64.5 -5.5l28 1q-4 -19 0 -21q-20 -5 -42 -5.5t-36.5 1.5t-26.5 4t-13 2q-61 20 -88 65.5t-20.5 100.5zM209 1130l117 181h92l-162 -181 h-47zM451 881q204 77 223 96q30 32 24.5 56t-34.5 24q-20 0 -48.5 -13t-75 -55.5t-89.5 -107.5z" />
<glyph unicode="&#xca;" horiz-adv-x="626" d="M-208.5 438q6.5 55 38.5 111q43 74 137 131.5t262 118.5l74 26q80 125 175 194t186 60q19 -2 34.5 -12t23 -25.5t6 -33.5t-19.5 -36.5t-51 -33.5q-47 -23 -227 -88q-107 -175 -111 -301q-1 -26 11.5 -41t30 -23t20.5 -12h2q43 3 84 -6l8 -31q-57 7 -104 -22 q-61 -38 -92.5 -113.5t-28.5 -142.5q0 -132 32.5 -216t98.5 -94q54 -8 102.5 30.5t79 98.5t53.5 121t33 104l10 44l5 -2.5t8 -6t4 -8.5l-1 -3q-35 -189 -118 -300q-98 -131 -238 -98q-187 42 -208 299q2 26 3.5 40.5t7 48t13.5 55.5t23.5 54t35 54t50.5 44t69 36q8 4 13 4 q-67 19 -95 59q-19 26 -21.5 60t8.5 68t23 61.5t27 54t17 31.5q-180 -69 -294 -132.5t-143 -132.5q-32 -82 -26.5 -132t37 -73.5t67 -31t64.5 -5.5l28 1q-4 -19 0 -21q-20 -5 -42 -5.5t-36.5 1.5t-26.5 4t-13 2q-61 20 -88 65.5t-20.5 100.5zM166 1262l123 180h51l119 -180 h-60l-84 131h-2l-84 -131h-63zM451 881q204 77 223 96q30 32 24.5 56t-34.5 24q-20 0 -48.5 -13t-75 -55.5t-89.5 -107.5z" />
<glyph unicode="&#xcb;" horiz-adv-x="626" d="M-208.5 438q6.5 55 38.5 111q43 74 137 131.5t262 118.5l74 26q80 125 175 194t186 60q19 -2 34.5 -12t23 -25.5t6 -33.5t-19.5 -36.5t-51 -33.5q-47 -23 -227 -88q-107 -175 -111 -301q-1 -26 11.5 -41t30 -23t20.5 -12h2q43 3 84 -6l8 -31q-57 7 -104 -22 q-61 -38 -92.5 -113.5t-28.5 -142.5q0 -132 32.5 -216t98.5 -94q54 -8 102.5 30.5t79 98.5t53.5 121t33 104l10 44l5 -2.5t8 -6t4 -8.5l-1 -3q-35 -189 -118 -300q-98 -131 -238 -98q-187 42 -208 299q2 26 3.5 40.5t7 48t13.5 55.5t23.5 54t35 54t50.5 44t69 36q8 4 13 4 q-67 19 -95 59q-19 26 -21.5 60t8.5 68t23 61.5t27 54t17 31.5q-180 -69 -294 -132.5t-143 -132.5q-32 -82 -26.5 -132t37 -73.5t67 -31t64.5 -5.5l28 1q-4 -19 0 -21q-20 -5 -42 -5.5t-36.5 1.5t-26.5 4t-13 2q-61 20 -88 65.5t-20.5 100.5zM170 1227q0 23 17 41t40 18 q24 0 41 -17.5t17 -41.5t-16.5 -42t-41.5 -18h-2q-25 0 -40 17.5t-15 42.5zM344 1227q0 24 16.5 41.5t40.5 17.5t40 -17.5t16 -41.5t-15.5 -42t-40.5 -18h-4q-24 0 -38.5 18t-14.5 42zM451 881q204 77 223 96q30 32 24.5 56t-34.5 24q-20 0 -48.5 -13t-75 -55.5 t-89.5 -107.5z" />
<glyph unicode="&#xcc;" horiz-adv-x="335" d="M-332 762q2 4 6 9.5t19 20t33 24.5t49 16t67 2q45 -6 90 -29q-2 50 13.5 99.5t44.5 80.5q37 38 95 66.5t97 37.5l39 9v-4q11 3 16.5 -0.5t2.5 -12.5q-55 -406 -66 -708q-13 -400 68 -520l-23 -27q-61 28 -110 121q-80 158 -52 583q25 261 84 517v4l4 6q-47 -9 -95.5 -40 t-76.5 -83q-31 -61 -24 -139q63 -36 82 -76q17 -37 -25 -41q-31 -4 -51 28.5t-23 84.5q-36 22 -88 28q-36 4 -66 -1t-48 -15.5t-31 -22t-18 -20.5l-5 -8zM-49 778q13 -70 42 -85q13 -7 25 5q2 2 -4 14.5t-23.5 31.5t-39.5 34zM63 1311h93l116 -181h-49z" />
<glyph unicode="&#xcd;" horiz-adv-x="335" d="M-332 762q2 4 6 9.5t19 20t33 24.5t49 16t67 2q45 -6 90 -29q-2 50 13.5 99.5t44.5 80.5q37 38 95 66.5t97 37.5l39 9v-4q11 3 16.5 -0.5t2.5 -12.5q-55 -406 -66 -708q-13 -400 68 -520l-23 -27q-61 28 -110 121q-80 158 -52 583q25 261 84 517v4l4 6q-47 -9 -95.5 -40 t-76.5 -83q-31 -61 -24 -139q63 -36 82 -76q17 -37 -25 -41q-31 -4 -51 28.5t-23 84.5q-36 22 -88 28q-36 4 -66 -1t-48 -15.5t-31 -22t-18 -20.5l-5 -8zM-49 778q13 -70 42 -85q13 -7 25 5q2 2 -4 14.5t-23.5 31.5t-39.5 34zM63 1130l117 181h92l-161 -181h-48z" />
<glyph unicode="&#xce;" horiz-adv-x="335" d="M-332 762q2 4 6 9.5t19 20t33 24.5t49 16t67 2q45 -6 90 -29q-2 50 13.5 99.5t44.5 80.5q37 38 95 66.5t97 37.5l39 9v-4q11 3 16.5 -0.5t2.5 -12.5q-55 -406 -66 -708q-13 -400 68 -520l-23 -27q-61 28 -110 121q-80 158 -52 583q25 261 84 517v4l4 6q-47 -9 -95.5 -40 t-76.5 -83q-31 -61 -24 -139q63 -36 82 -76q17 -37 -25 -41q-31 -4 -51 28.5t-23 84.5q-36 22 -88 28q-36 4 -66 -1t-48 -15.5t-31 -22t-18 -20.5l-5 -8zM-49 778q13 -70 42 -85q13 -7 25 5q2 2 -4 14.5t-23.5 31.5t-39.5 34zM23 1262l122 180h52l118 -180h-59l-84 131h-2 l-84 -131h-63z" />
<glyph unicode="&#xcf;" horiz-adv-x="335" d="M-332 762q2 4 6 9.5t19 20t33 24.5t49 16t67 2q45 -6 90 -29q-2 50 13.5 99.5t44.5 80.5q37 38 95 66.5t97 37.5l39 9v-4q11 3 16.5 -0.5t2.5 -12.5q-55 -406 -66 -708q-13 -400 68 -520l-23 -27q-61 28 -110 121q-80 158 -52 583q25 261 84 517v4l4 6q-47 -9 -95.5 -40 t-76.5 -83q-31 -61 -24 -139q63 -36 82 -76q17 -37 -25 -41q-31 -4 -51 28.5t-23 84.5q-36 22 -88 28q-36 4 -66 -1t-48 -15.5t-31 -22t-18 -20.5l-5 -8zM-49 778q13 -70 42 -85q13 -7 25 5q2 2 -4 14.5t-23.5 31.5t-39.5 34zM25 1227q0 23 17 41t40 18q24 0 40.5 -17.5 t16.5 -41.5t-16 -42t-41 -18h-2q-25 0 -40 17.5t-15 42.5zM199 1227q0 24 16.5 41.5t40.5 17.5t39.5 -17.5t15.5 -41.5q0 -25 -15 -42.5t-40 -17.5h-4q-24 0 -38.5 18t-14.5 42z" />
<glyph unicode="&#xd0;" horiz-adv-x="825" d="M-45 414v69h76l6 47q21 247 78 498q-64 -38 -109 -80l-22 29q82 73 191 109t207.5 30t179 -55t108.5 -135q63 -211 19.5 -436t-141.5 -408t-196 -246q-179 -90 -264 111q-61 131 -61 372q0 58 2 95h-74zM154 375q-14 -438 73 -543q59 -13 111 55t86.5 181.5t61.5 249 t40.5 260.5t19.5 214t3 111q-12 79 -48 124.5t-90 56.5t-111.5 3t-125.5 -34q15 -8 37 -33q-34 -224 -53 -537h166v-69h-170v-39z" />
<glyph unicode="&#xd1;" horiz-adv-x="948" d="M-201.5 13.5q8.5 71.5 33.5 140t57 106.5q118 142 263 191l6 -27q-166 -63 -248 -186q-69 -106 -83.5 -220.5t36.5 -169.5q13 -13 34.5 -17.5t53.5 6t65.5 37.5t72.5 86t73 142q42 102 69 222q20 80 31 211q10 119 -23 279t-98 245q71 33 127 -6q41 -28 54 -82 q18 -65 52 -229t89 -330q50 -149 119.5 -268t134.5 -185q-72 160 -45 571q25 261 84 517v4q24 27 69 41q33 11 30 -6q0 -3 -1 -5q-55 -406 -66 -708q-13 -400 68 -520l-22 -27q-14 12 -48 40.5t-50.5 43t-43 40.5t-48 53.5t-42.5 59.5q-62 96 -97 169.5t-67 164.5 q-19 50 -69 258q3 -71 -7 -190v-25q-15 -140 -44 -249.5t-62 -177.5t-75.5 -114.5t-79 -67t-79 -28.5t-69.5 -6t-55 8q-59 17 -83.5 77t-16 131.5zM328 1159q-1 53 20.5 84t57.5 31q7 0 14 -1t16 -4.5t13.5 -6t17.5 -9t18 -8.5q33 -20 56 -20q34 0 34 53h46q0 -111 -78 -111 q-26 0 -74 27q-7 4 -19 10l-17 8.5t-12 4.5t-13 2q-30 0 -37 -60h-43z" />
<glyph unicode="&#xd2;" horiz-adv-x="851" d="M-53 455l2 24q41 -8 92 -8q15 140 44 249.5t62 177.5t75.5 114.5t79.5 67t79.5 28.5t69.5 6t55 -8q66 -19 87.5 -87.5t6.5 -160.5q101 -80 133 -264q46 -270 -60 -489q-75 -156 -198 -227q-125 -72 -234 -20q-132 63 -180 282q-26 121 -22 280v18q0 1 1 4t1 4 q-20 0 -94 9zM143 366q0 -45 3 -119t17.5 -140.5t37.5 -125.5t66.5 -89t101.5 -17q60 13 109 57t80.5 106t55 139.5t31.5 157.5t11.5 160t-5.5 148q-11 122 -59 180q-25 -109 -78 -172q-81 -98 -186 -155q7 -140 56.5 -253t150.5 -163q2 -2 -1.5 -5.5t-7.5 -6.5l-4 -2 q-3 1 -9 2.5t-23 10t-33.5 20t-38.5 34.5t-40.5 50.5t-36 70.5t-28.5 94q-15 64 -18 129q-80 -37 -150 -37q-2 -29 -2 -74zM154 469q93 17 139 39q-6 146 30.5 256t104.5 131q75 22 145 -18q23 128 -32 186q-16 16 -44.5 19t-70 -19.5t-84 -71.5t-89 -153.5t-81.5 -249.5 q-3 -10 -9 -39.5t-9 -53.5t0 -26zM322 1368h92l116 -180h-49zM326 526q109 61 168 148q51 76 75 174q-27 21 -60 26t-59.5 -1t-50.5 -19q-29 -14 -51.5 -111.5t-21.5 -216.5z" />
<glyph unicode="&#xd3;" horiz-adv-x="851" d="M-53 455l2 24q41 -8 92 -8q15 140 44 249.5t62 177.5t75.5 114.5t79.5 67t79.5 28.5t69.5 6t55 -8q66 -19 87.5 -87.5t6.5 -160.5q101 -80 133 -264q46 -270 -60 -489q-75 -156 -198 -227q-125 -72 -234 -20q-132 63 -180 282q-26 121 -22 280v18q0 1 1 4t1 4 q-20 0 -94 9zM143 366q0 -45 3 -119t17.5 -140.5t37.5 -125.5t66.5 -89t101.5 -17q60 13 109 57t80.5 106t55 139.5t31.5 157.5t11.5 160t-5.5 148q-11 122 -59 180q-25 -109 -78 -172q-81 -98 -186 -155q7 -140 56.5 -253t150.5 -163q2 -2 -1.5 -5.5t-7.5 -6.5l-4 -2 q-3 1 -9 2.5t-23 10t-33.5 20t-38.5 34.5t-40.5 50.5t-36 70.5t-28.5 94q-15 64 -18 129q-80 -37 -150 -37q-2 -29 -2 -74zM154 469q93 17 139 39q-6 146 30.5 256t104.5 131q75 22 145 -18q23 128 -32 186q-16 16 -44.5 19t-70 -19.5t-84 -71.5t-89 -153.5t-81.5 -249.5 q-3 -10 -9 -39.5t-9 -53.5t0 -26zM326 526q109 61 168 148q51 76 75 174q-27 21 -60 26t-59.5 -1t-50.5 -19q-29 -14 -51.5 -111.5t-21.5 -216.5zM342 1229l117 180h92l-162 -180h-47z" />
<glyph unicode="&#xd4;" horiz-adv-x="851" d="M-53 455l2 24q41 -8 92 -8q15 140 44 249.5t62 177.5t75.5 114.5t79.5 67t79.5 28.5t69.5 6t55 -8q66 -19 87.5 -87.5t6.5 -160.5q101 -80 133 -264q46 -270 -60 -489q-75 -156 -198 -227q-125 -72 -234 -20q-132 63 -180 282q-26 121 -22 280v18q0 1 1 4t1 4 q-20 0 -94 9zM143 366q0 -45 3 -119t17.5 -140.5t37.5 -125.5t66.5 -89t101.5 -17q60 13 109 57t80.5 106t55 139.5t31.5 157.5t11.5 160t-5.5 148q-11 122 -59 180q-25 -109 -78 -172q-81 -98 -186 -155q7 -140 56.5 -253t150.5 -163q2 -2 -1.5 -5.5t-7.5 -6.5l-4 -2 q-3 1 -9 2.5t-23 10t-33.5 20t-38.5 34.5t-40.5 50.5t-36 70.5t-28.5 94q-15 64 -18 129q-80 -37 -150 -37q-2 -29 -2 -74zM154 469q93 17 139 39q-6 146 30.5 256t104.5 131q75 22 145 -18q23 128 -32 186q-16 16 -44.5 19t-70 -19.5t-84 -71.5t-89 -153.5t-81.5 -249.5 q-3 -10 -9 -39.5t-9 -53.5t0 -26zM279 1262l122 180h52l118 -180h-59l-84 131h-2l-84 -131h-63zM326 526q109 61 168 148q51 76 75 174q-27 21 -60 26t-59.5 -1t-50.5 -19q-29 -14 -51.5 -111.5t-21.5 -216.5z" />
<glyph unicode="&#xd5;" horiz-adv-x="851" d="M-53 455l2 24q41 -8 92 -8q15 140 44 249.5t62 177.5t75.5 114.5t79.5 67t79.5 28.5t69.5 6t55 -8q66 -19 87.5 -87.5t6.5 -160.5q101 -80 133 -264q46 -270 -60 -489q-75 -156 -198 -227q-125 -72 -234 -20q-132 63 -180 282q-26 121 -22 280v18q0 1 1 4t1 4 q-20 0 -94 9zM143 366q0 -45 3 -119t17.5 -140.5t37.5 -125.5t66.5 -89t101.5 -17q60 13 109 57t80.5 106t55 139.5t31.5 157.5t11.5 160t-5.5 148q-11 122 -59 180q-25 -109 -78 -172q-81 -98 -186 -155q7 -140 56.5 -253t150.5 -163q2 -2 -1.5 -5.5t-7.5 -6.5l-4 -2 q-3 1 -9 2.5t-23 10t-33.5 20t-38.5 34.5t-40.5 50.5t-36 70.5t-28.5 94q-15 64 -18 129q-80 -37 -150 -37q-2 -29 -2 -74zM154 469q93 17 139 39q-6 146 30.5 256t104.5 131q75 22 145 -18q23 128 -32 186q-16 16 -44.5 19t-70 -19.5t-84 -71.5t-89 -153.5t-81.5 -249.5 q-3 -10 -9 -39.5t-9 -53.5t0 -26zM274 1243q-1 53 20.5 84t57.5 31q20 0 80 -29q33 -20 55 -20q35 0 35 53h45q0 -111 -78 -111q-25 0 -73 27q-52 25 -62 25q-30 0 -37 -60h-43zM326 526q109 61 168 148q51 76 75 174q-27 21 -60 26t-59.5 -1t-50.5 -19 q-29 -14 -51.5 -111.5t-21.5 -216.5z" />
<glyph unicode="&#xd6;" horiz-adv-x="851" d="M-53 455l2 24q41 -8 92 -8q15 140 44 249.5t62 177.5t75.5 114.5t79.5 67t79.5 28.5t69.5 6t55 -8q66 -19 87.5 -87.5t6.5 -160.5q101 -80 133 -264q46 -270 -60 -489q-75 -156 -198 -227q-125 -72 -234 -20q-132 63 -180 282q-26 121 -22 280v18q0 1 1 4t1 4 q-20 0 -94 9zM143 366q0 -45 3 -119t17.5 -140.5t37.5 -125.5t66.5 -89t101.5 -17q60 13 109 57t80.5 106t55 139.5t31.5 157.5t11.5 160t-5.5 148q-11 122 -59 180q-25 -109 -78 -172q-81 -98 -186 -155q7 -140 56.5 -253t150.5 -163q2 -2 -1.5 -5.5t-7.5 -6.5l-4 -2 q-3 1 -9 2.5t-23 10t-33.5 20t-38.5 34.5t-40.5 50.5t-36 70.5t-28.5 94q-15 64 -18 129q-80 -37 -150 -37q-2 -29 -2 -74zM154 469q93 17 139 39q-6 146 30.5 256t104.5 131q75 22 145 -18q23 128 -32 186q-16 16 -44.5 19t-70 -19.5t-84 -71.5t-89 -153.5t-81.5 -249.5 q-3 -10 -9 -39.5t-9 -53.5t0 -26zM295 1303q0 23 17 41t40 18q24 0 41 -17.5t17 -41.5t-16.5 -42t-41.5 -18h-2q-25 0 -40 17.5t-15 42.5zM326 526q109 61 168 148q51 76 75 174q-27 21 -60 26t-59.5 -1t-50.5 -19q-29 -14 -51.5 -111.5t-21.5 -216.5zM469 1303 q0 24 16.5 41.5t40.5 17.5t40 -17.5t16 -41.5t-15.5 -42t-40.5 -18h-4q-24 0 -38.5 18t-14.5 42z" />
<glyph unicode="&#xd8;" horiz-adv-x="851" d="M-53 455l2 24q41 -8 92 -8q15 140 44 249.5t62 177.5t75.5 114.5t79.5 67t79.5 28.5t69.5 6t55 -8q66 -19 87.5 -87.5t6.5 -160.5q101 -80 133 -264q46 -270 -60 -489q-75 -156 -198 -227q-125 -72 -234 -20q-132 63 -180 282q-26 121 -22 280v18q0 1 1 4t1 4 q-20 0 -94 9zM143 366q0 -45 3 -119t17.5 -140.5t37.5 -125.5t66.5 -89t101.5 -17q60 13 109 57t80.5 106t55 139.5t31.5 157.5t11.5 160t-5.5 148q-11 122 -59 180q-25 -109 -78 -172q-81 -98 -186 -155q7 -140 56.5 -253t150.5 -163q2 -2 -1.5 -5.5t-7.5 -6.5l-4 -2 q-3 1 -9 2.5t-23 10t-33.5 20t-38.5 34.5t-40.5 50.5t-36 70.5t-28.5 94q-15 64 -18 129q-80 -37 -150 -37q-2 -29 -2 -74zM154 -274l522 1146h78l-527 -1146h-73zM154 469q93 17 139 39q-6 146 30.5 256t104.5 131q75 22 145 -18q23 128 -32 186q-16 16 -44.5 19t-70 -19.5 t-84 -71.5t-89 -153.5t-81.5 -249.5q-3 -10 -9 -39.5t-9 -53.5t0 -26zM326 526q109 61 168 148q51 76 75 174q-27 21 -60 26t-59.5 -1t-50.5 -19q-29 -14 -51.5 -111.5t-21.5 -216.5z" />
<glyph unicode="&#xd9;" horiz-adv-x="991" d="M-70 549q8 91 35 172t62.5 136.5t75.5 99.5t77 68.5t63 37.5t38 12q8 0 14 -6q43 -13 74 -49q-43 -291 -58 -641q0 -9 -2 -58t-2 -75.5v-79.5t3.5 -86t9 -78.5t17 -73t27 -53.5t39 -36.5t52.5 -6.5q103 28 225 324q-15 166 0 374q25 261 84 517v4q24 27 69 41 q33 11 30 -6q0 -3 -1 -5q-54 -396 -65 -708q-13 -402 67 -520l-22 -27q-63 29 -111 121q-29 58 -45 149q-21 -52 -45 -98.5t-56.5 -93.5t-72 -74t-78.5 -25q-54 3 -74 13q-69 25 -114 129q-62 133 -62 372q0 104 11 211q18 223 81 514q-8 0 -12 -2q-64 -31 -98 -57 q-175 -135 -205 -428q-28 -270 73 -318q32 -16 62 -6v-20q-8 -2 -21.5 -3t-46 11.5t-56 42t-38 103.5t-4.5 182zM391 1311h92l117 -181h-49z" />
<glyph unicode="&#xda;" horiz-adv-x="991" d="M-70 549q8 91 35 172t62.5 136.5t75.5 99.5t77 68.5t63 37.5t38 12q8 0 14 -6q43 -13 74 -49q-43 -291 -58 -641q0 -9 -2 -58t-2 -75.5v-79.5t3.5 -86t9 -78.5t17 -73t27 -53.5t39 -36.5t52.5 -6.5q103 28 225 324q-15 166 0 374q25 261 84 517v4q24 27 69 41 q33 11 30 -6q0 -3 -1 -5q-54 -396 -65 -708q-13 -402 67 -520l-22 -27q-63 29 -111 121q-29 58 -45 149q-21 -52 -45 -98.5t-56.5 -93.5t-72 -74t-78.5 -25q-54 3 -74 13q-69 25 -114 129q-62 133 -62 372q0 104 11 211q18 223 81 514q-8 0 -12 -2q-64 -31 -98 -57 q-175 -135 -205 -428q-28 -270 73 -318q32 -16 62 -6v-20q-8 -2 -21.5 -3t-46 11.5t-56 42t-38 103.5t-4.5 182zM391 1130l117 181h92l-162 -181h-47z" />
<glyph unicode="&#xdb;" horiz-adv-x="991" d="M-70 549q8 91 35 172t62.5 136.5t75.5 99.5t77 68.5t63 37.5t38 12q8 0 14 -6q43 -13 74 -49q-43 -291 -58 -641q0 -9 -2 -58t-2 -75.5v-79.5t3.5 -86t9 -78.5t17 -73t27 -53.5t39 -36.5t52.5 -6.5q103 28 225 324q-15 166 0 374q25 261 84 517v4q24 27 69 41 q33 11 30 -6q0 -3 -1 -5q-54 -396 -65 -708q-13 -402 67 -520l-22 -27q-63 29 -111 121q-29 58 -45 149q-21 -52 -45 -98.5t-56.5 -93.5t-72 -74t-78.5 -25q-54 3 -74 13q-69 25 -114 129q-62 133 -62 372q0 104 11 211q18 223 81 514q-8 0 -12 -2q-64 -31 -98 -57 q-175 -135 -205 -428q-28 -270 73 -318q32 -16 62 -6v-20q-8 -2 -21.5 -3t-46 11.5t-56 42t-38 103.5t-4.5 182zM348 1262l123 180h51l119 -180h-59l-84 131h-2l-84 -131h-64z" />
<glyph unicode="&#xdc;" horiz-adv-x="991" d="M-70 549q8 91 35 172t62.5 136.5t75.5 99.5t77 68.5t63 37.5t38 12q8 0 14 -6q43 -13 74 -49q-43 -291 -58 -641q0 -9 -2 -58t-2 -75.5v-79.5t3.5 -86t9 -78.5t17 -73t27 -53.5t39 -36.5t52.5 -6.5q103 28 225 324q-15 166 0 374q25 261 84 517v4q24 27 69 41 q33 11 30 -6q0 -3 -1 -5q-54 -396 -65 -708q-13 -402 67 -520l-22 -27q-63 29 -111 121q-29 58 -45 149q-21 -52 -45 -98.5t-56.5 -93.5t-72 -74t-78.5 -25q-54 3 -74 13q-69 25 -114 129q-62 133 -62 372q0 104 11 211q18 223 81 514q-8 0 -12 -2q-64 -31 -98 -57 q-175 -135 -205 -428q-28 -270 73 -318q32 -16 62 -6v-20q-8 -2 -21.5 -3t-46 11.5t-56 42t-38 103.5t-4.5 182zM352 1227q0 23 17.5 41t40.5 18q24 0 40.5 -17.5t16.5 -41.5t-16 -42t-41 -18h-2q-25 0 -40.5 18t-15.5 42zM526 1227q0 24 17 41.5t41 17.5t39.5 -17.5 t15.5 -41.5q0 -25 -15 -42.5t-40 -17.5h-4q-24 0 -39 18t-15 42z" />
<glyph unicode="&#xdd;" horiz-adv-x="798" d="M-299 727l16 14q0 -4 1.5 -12t8 -28.5t16 -38t28.5 -36t43 -28t62 -8.5t83 18q87 32 152 88q-5 44 9.5 133t50.5 177t83 100q28 7 42.5 -37t8.5 -106q-6 -49 -35 -112.5t-84 -117.5q13 -81 58 -143q29 -40 70.5 -55.5t87.5 1.5t81 68q25 203 56.5 299.5t97.5 140.5 q52 34 101 43t82.5 -2.5t58 -28.5t37.5 -32.5t10 -15.5l-23 -15q-2 7 -14 21q-14 20 -57.5 39t-86.5 -2q-13 -7 -24 -29.5t-21 -64t-17.5 -83t-16.5 -108.5t-15 -116.5t-15 -131t-15 -129.5l-7 -27q1 -1 1 -3t1 -3q-13 -99 -31.5 -179.5t-48 -154t-68 -122t-94 -74.5 t-122.5 -21q-85 7 -130 69t-39 150t58 169q21 33 53.5 53t63.5 25.5t59 6t45 -2.5l17 -3l-6 -20q-7 2 -18 4t-42.5 2t-59.5 -8t-60 -34t-52 -69q-42 -89 -20 -190q20 -88 76 -113q55 -25 122 31q28 23 52.5 93.5t45.5 184.5t33.5 199t28.5 213q-92 -82 -169.5 -74.5 t-129 58.5t-63.5 117q-12 -7 -31 -19.5t-26.5 -17t-26.5 -13.5t-47 -20q-78 -28 -131 -25.5t-83.5 27.5t-46 53.5t-19.5 52.5zM178 791q0 -40 6 -31q7 11 30 44.5t30 45.5t19.5 38.5t16.5 51.5t5 57q0 21 -4 46t-7 28q-23 30 -55 -54q-13 -34 -26 -81q-14 -52 -15 -145z M295 1130l117 181h92l-162 -181h-47z" />
<glyph unicode="&#xdf;" horiz-adv-x="669" d="M106 -182v792q0 197 89 279q66 57 163 57q84 0 143.5 -56t59.5 -155q0 -31 -12.5 -55.5t-30.5 -38.5t-40 -28.5t-40 -26t-30.5 -31t-12.5 -43.5q0 -30 17 -58.5t42.5 -50.5t55.5 -47.5t55.5 -49.5t42.5 -56.5t17 -67.5q0 -84 -79 -141t-181 -57q-74 0 -158 43l16 53 q92 -45 146 -45q36 0 58 10t31.5 32.5t12 42t2.5 52.5q0 44 -21.5 89.5t-48 78.5t-48 77t-21.5 85q0 34 21 64t45.5 49t45.5 48t21 62q0 85 -27 126.5t-92 41.5q-92 0 -136 -68.5t-44 -218.5v-788h-62z" />
<glyph unicode="&#xe0;" horiz-adv-x="620" d="M-4.5 288q8.5 55 29 105.5t61 92.5t94.5 65q74 29 121.5 28.5t71.5 -22.5t34 -48t11 -47v-22h-12v5t-1 12t-3 18t-6 20.5t-9.5 20.5t-14 17.5t-19.5 12.5t-26.5 4.5t-33.5 -5.5q-74 -23 -134 -149q-60 -124 -62 -242q-2 -116 61 -128q3 -1 6 -1q95 -10 168 159 q0 44 10 201v35q59 -15 76 -25q35 -21 35 -90q-39 -238 -42 -310q-3 -93 25 -104q29 -10 63 28t62 99t51.5 123t36.5 107l13 45l14 -8q-5 -17 -13 -45t-33 -99t-50 -126t-58.5 -99.5t-62.5 -44.5q-120 0 -127 260q-66 -124 -154 -127q-49 -1 -88 22.5t-60.5 64.5t-32 91.5 t-2 105.5zM205 901h92l117 -180h-49z" />
<glyph unicode="&#xe1;" horiz-adv-x="620" d="M-4.5 288q8.5 55 29 105.5t61 92.5t94.5 65q74 29 121.5 28.5t71.5 -22.5t34 -48t11 -47v-22h-12v5t-1 12t-3 18t-6 20.5t-9.5 20.5t-14 17.5t-19.5 12.5t-26.5 4.5t-33.5 -5.5q-74 -23 -134 -149q-60 -124 -62 -242q-2 -116 61 -128q3 -1 6 -1q95 -10 168 159 q0 44 10 201v35q59 -15 76 -25q35 -21 35 -90q-39 -238 -42 -310q-3 -93 25 -104q29 -10 63 28t62 99t51.5 123t36.5 107l13 45l14 -8q-5 -17 -13 -45t-33 -99t-50 -126t-58.5 -99.5t-62.5 -44.5q-120 0 -127 260q-66 -124 -154 -127q-49 -1 -88 22.5t-60.5 64.5t-32 91.5 t-2 105.5zM205 721l117 180h92l-162 -180h-47z" />
<glyph unicode="&#xe2;" horiz-adv-x="620" d="M-4.5 288q8.5 55 29 105.5t61 92.5t94.5 65q74 29 121.5 28.5t71.5 -22.5t34 -48t11 -47v-22h-12v5t-1 12t-3 18t-6 20.5t-9.5 20.5t-14 17.5t-19.5 12.5t-26.5 4.5t-33.5 -5.5q-74 -23 -134 -149q-60 -124 -62 -242q-2 -116 61 -128q3 -1 6 -1q95 -10 168 159 q0 44 10 201v35q59 -15 76 -25q35 -21 35 -90q-39 -238 -42 -310q-3 -93 25 -104q29 -10 63 28t62 99t51.5 123t36.5 107l13 45l14 -8q-5 -17 -13 -45t-33 -99t-50 -126t-58.5 -99.5t-62.5 -44.5q-120 0 -127 260q-66 -124 -154 -127q-49 -1 -88 22.5t-60.5 64.5t-32 91.5 t-2 105.5zM164 852l123 180h51l119 -180h-60l-84 131h-2l-84 -131h-63z" />
<glyph unicode="&#xe3;" horiz-adv-x="620" d="M-4.5 288q8.5 55 29 105.5t61 92.5t94.5 65q74 29 121.5 28.5t71.5 -22.5t34 -48t11 -47v-22h-12v5t-1 12t-3 18t-6 20.5t-9.5 20.5t-14 17.5t-19.5 12.5t-26.5 4.5t-33.5 -5.5q-74 -23 -134 -149q-60 -124 -62 -242q-2 -116 61 -128q3 -1 6 -1q95 -10 168 159 q0 44 10 201v35q59 -15 76 -25q35 -21 35 -90q-39 -238 -42 -310q-3 -93 25 -104q29 -10 63 28t62 99t51.5 123t36.5 107l13 45l14 -8q-5 -17 -13 -45t-33 -99t-50 -126t-58.5 -99.5t-62.5 -44.5q-120 0 -127 260q-66 -124 -154 -127q-49 -1 -88 22.5t-60.5 64.5t-32 91.5 t-2 105.5zM164 750q-1 53 20.5 83.5t57.5 30.5q22 0 80 -28q35 -21 55 -21q35 0 35 53h45q0 -110 -78 -110q-28 0 -74 26q-7 4 -19 10l-17 8.5t-12 4.5t-13 2q-30 0 -37 -59h-43z" />
<glyph unicode="&#xe4;" horiz-adv-x="620" d="M-4.5 288q8.5 55 29 105.5t61 92.5t94.5 65q74 29 121.5 28.5t71.5 -22.5t34 -48t11 -47v-22h-12v5t-1 12t-3 18t-6 20.5t-9.5 20.5t-14 17.5t-19.5 12.5t-26.5 4.5t-33.5 -5.5q-74 -23 -134 -149q-60 -124 -62 -242q-2 -116 61 -128q3 -1 6 -1q95 -10 168 159 q0 44 10 201v35q59 -15 76 -25q35 -21 35 -90q-39 -238 -42 -310q-3 -93 25 -104q29 -10 63 28t62 99t51.5 123t36.5 107l13 45l14 -8q-5 -17 -13 -45t-33 -99t-50 -126t-58.5 -99.5t-62.5 -44.5q-120 0 -127 260q-66 -124 -154 -127q-49 -1 -88 22.5t-60.5 64.5t-32 91.5 t-2 105.5zM166 817q0 24 17 42t40 18q24 0 41 -18t17 -42t-16.5 -41.5t-41.5 -17.5h-2q-25 0 -40 17.5t-15 41.5zM340 817q0 24 16.5 42t40.5 18t40 -18t16 -42t-15.5 -41.5t-40.5 -17.5h-4q-24 0 -38.5 17.5t-14.5 41.5z" />
<glyph unicode="&#xe5;" horiz-adv-x="620" d="M-4.5 288q8.5 55 29 105.5t61 92.5t94.5 65q74 29 121.5 28.5t71.5 -22.5t34 -48t11 -47v-22h-12v5t-1 12t-3 18t-6 20.5t-9.5 20.5t-14 17.5t-19.5 12.5t-26.5 4.5t-33.5 -5.5q-74 -23 -134 -149q-60 -124 -62 -242q-2 -116 61 -128q3 -1 6 -1q95 -10 168 159 q0 44 10 201v35q59 -15 76 -25q35 -21 35 -90q-39 -238 -42 -310q-3 -93 25 -104q29 -10 63 28t62 99t51.5 123t36.5 107l13 45l14 -8q-5 -17 -13 -45t-33 -99t-50 -126t-58.5 -99.5t-62.5 -44.5q-120 0 -127 260q-66 -124 -154 -127q-49 -1 -88 22.5t-60.5 64.5t-32 91.5 t-2 105.5zM188 817q0 51 35 86t88 35h2q50 0 83.5 -34.5t33.5 -86.5q0 -48 -36 -81.5t-83 -33.5q-53 0 -88 33.5t-35 81.5zM240 817q0 -29 20.5 -52.5t48.5 -23.5q32 0 52 23t20 57q0 33 -20 54.5t-52 21.5h-2q-30 0 -48.5 -23t-18.5 -57z" />
<glyph unicode="&#xe6;" horiz-adv-x="1040" d="M-4.5 288q8.5 55 29 105.5t61 92.5t94.5 65q74 29 121.5 28.5t71.5 -22.5t34 -48t11 -47v-22h-12v5t-1 12t-3 18t-6 20.5t-9.5 20.5t-14 17.5t-19.5 12.5t-26.5 4.5t-33.5 -5.5q-74 -23 -134 -149q-60 -124 -62 -242q-2 -116 61 -128q3 -1 6 -1q95 -10 168 159 q0 44 10 201v35q59 -15 76 -25q35 -21 35 -90q-39 -238 -42 -310q-3 -93 25 -104q1 0 2 -1t2 -1l-12 -14q-89 28 -96 256q-66 -124 -154 -127q-49 -1 -88 22.5t-60.5 64.5t-32 91.5t-2 105.5zM358 10q-18 126 13 236q29 114 96 168q53 41 123 41q115 0 111 -63 q-2 -52 -79 -118q-58 -51 -112 -67q-22 -68 -34.5 -133.5t-12.5 -123t21 -93t63 -35.5q38 0 70 19t53.5 46.5t41 66.5t32 73.5t27.5 74t26 60.5v2l20 -4q-11 -23 -27 -66t-28.5 -78t-34 -77t-45.5 -70.5t-60.5 -49t-80.5 -22.5q-65 3 -117.5 63t-65.5 150zM518 229 q47 13 105 75q63 68 51 103q-4 12 -19 17q-28 9 -66 -48t-71 -147z" />
<glyph unicode="&#xe7;" horiz-adv-x="526" d="M6 143q-19 128 12 236q29 113 97 168q53 41 123 41q50 0 84 -17q34 -14 52.5 -46.5t20.5 -58.5l2 -26v-2l-14 2q0 3 -1 12.5t-6 27.5t-13.5 33t-25 26.5t-38.5 11.5q-40 0 -95 -111q-68 -135 -88 -280q-23 -170 49 -200q14 -5 30 -5q55 1 113 38t105.5 95.5t80.5 108.5 t57 98v2l20 -4q-19 -40 -43 -81.5t-62.5 -93t-79 -91t-93.5 -67.5t-105 -30q-84 13 -126 65.5t-56 147.5zM45 -295l16 47q26 -18 72 -18q28 0 44.5 10.5t15.5 34.5q0 52 -101 59l66 109h49l-47 -72q37 -6 62.5 -30.5t25.5 -59.5q0 -51 -34 -74.5t-89 -23.5q-39 0 -80 18z " />
<glyph unicode="&#xe8;" horiz-adv-x="419" d="M6 143q-19 128 12 236q29 113 97 168q53 41 123 41q115 0 111 -63q-2 -52 -79 -118q-58 -51 -112 -67q-22 -68 -34.5 -133.5t-12.5 -123t21 -93t63 -35.5q38 0 70 19t53 46.5t41 66.5t32 73.5t27 74t26 60.5v2l21 -4q-11 -23 -27 -66t-28.5 -78t-34.5 -77t-46 -70.5 t-60.5 -49t-80.5 -22.5q-65 3 -117 63t-65 150zM104 901h93l116 -180h-49zM166 362q47 13 105 75q63 68 51 103q-4 12 -19 17q-28 9 -66 -48t-71 -147z" />
<glyph unicode="&#xe9;" horiz-adv-x="419" d="M6 143q-19 128 12 236q29 113 97 168q53 41 123 41q115 0 111 -63q-2 -52 -79 -118q-58 -51 -112 -67q-22 -68 -34.5 -133.5t-12.5 -123t21 -93t63 -35.5q38 0 70 19t53 46.5t41 66.5t32 73.5t27 74t26 60.5v2l21 -4q-11 -23 -27 -66t-28.5 -78t-34.5 -77t-46 -70.5 t-60.5 -49t-80.5 -22.5q-65 3 -117 63t-65 150zM106 721l117 180h92l-161 -180h-48zM166 362q47 13 105 75q63 68 51 103q-4 12 -19 17q-28 9 -66 -48t-71 -147z" />
<glyph unicode="&#xea;" horiz-adv-x="419" d="M6 143q-19 128 12 236q29 113 97 168q53 41 123 41q115 0 111 -63q-2 -52 -79 -118q-58 -51 -112 -67q-22 -68 -34.5 -133.5t-12.5 -123t21 -93t63 -35.5q38 0 70 19t53 46.5t41 66.5t32 73.5t27 74t26 60.5v2l21 -4q-11 -23 -27 -66t-28.5 -78t-34.5 -77t-46 -70.5 t-60.5 -49t-80.5 -22.5q-65 3 -117 63t-65 150zM63 852l123 180h52l118 -180h-59l-84 131h-2l-84 -131h-64zM166 362q47 13 105 75q63 68 51 103q-4 12 -19 17q-28 9 -66 -48t-71 -147z" />
<glyph unicode="&#xeb;" horiz-adv-x="419" d="M6 143q-19 128 12 236q29 113 97 168q53 41 123 41q115 0 111 -63q-2 -52 -79 -118q-58 -51 -112 -67q-22 -68 -34.5 -133.5t-12.5 -123t21 -93t63 -35.5q38 0 70 19t53 46.5t41 66.5t32 73.5t27 74t26 60.5v2l21 -4q-11 -23 -27 -66t-28.5 -78t-34.5 -77t-46 -70.5 t-60.5 -49t-80.5 -22.5q-65 3 -117 63t-65 150zM66 817q0 24 17 42t40 18q24 0 40.5 -18t16.5 -42t-16 -41.5t-41 -17.5h-2q-25 0 -40 17.5t-15 41.5zM166 362q47 13 105 75q63 68 51 103q-4 12 -19 17q-28 9 -66 -48t-71 -147zM240 817q0 24 16.5 42t40.5 18t39.5 -18 t15.5 -42t-15 -41.5t-40 -17.5h-4q-24 0 -38.5 17.5t-14.5 41.5z" />
<glyph unicode="&#xec;" horiz-adv-x="335" d="M0.5 385.5q1.5 103.5 7.5 142.5q5 0 13.5 -0.5t30.5 -3.5t38 -8.5t29 -17.5t12 -29q0 -7 -4.5 -81.5t-7.5 -137t-0.5 -132t12.5 -95.5q9 -35 26 -52.5t31 -19.5q42 -6 86.5 76t68.5 167l24 85l26 -11q-4 -13 -10.5 -35t-27 -78.5t-41.5 -100.5t-50.5 -81.5t-56.5 -40.5 q-18 -2 -39 2t-49 22.5t-50.5 49.5t-41 90t-23.5 137q-5 49 -3.5 152.5zM8 787.5q12 30.5 51 37.5q65 11 97.5 -38t7.5 -95q-14 -25 -34.5 -42.5t-33.5 -21.5l-14 -5q-1 2 0.5 9.5t-8 22.5t-29.5 25q-24 14 -36.5 45.5t-0.5 62zM63 901h93l116 -180h-49z" />
<glyph unicode="&#xed;" horiz-adv-x="335" d="M0.5 385.5q1.5 103.5 7.5 142.5q5 0 13.5 -0.5t30.5 -3.5t38 -8.5t29 -17.5t12 -29q0 -7 -4.5 -81.5t-7.5 -137t-0.5 -132t12.5 -95.5q9 -35 26 -52.5t31 -19.5q42 -6 86.5 76t68.5 167l24 85l26 -11q-4 -13 -10.5 -35t-27 -78.5t-41.5 -100.5t-50.5 -81.5t-56.5 -40.5 q-18 -2 -39 2t-49 22.5t-50.5 49.5t-41 90t-23.5 137q-5 49 -3.5 152.5zM8 787.5q12 30.5 51 37.5q65 11 97.5 -38t7.5 -95q-14 -25 -34.5 -42.5t-33.5 -21.5l-14 -5q-1 2 0.5 9.5t-8 22.5t-29.5 25q-24 14 -36.5 45.5t-0.5 62zM63 721l117 180h92l-161 -180h-48z" />
<glyph unicode="&#xee;" horiz-adv-x="335" d="M0.5 385.5q1.5 103.5 7.5 142.5q5 0 13.5 -0.5t30.5 -3.5t38 -8.5t29 -17.5t12 -29q0 -7 -4.5 -81.5t-7.5 -137t-0.5 -132t12.5 -95.5q9 -35 26 -52.5t31 -19.5q42 -6 86.5 76t68.5 167l24 85l26 -11q-4 -13 -10.5 -35t-27 -78.5t-41.5 -100.5t-50.5 -81.5t-56.5 -40.5 q-18 -2 -39 2t-49 22.5t-50.5 49.5t-41 90t-23.5 137q-5 49 -3.5 152.5zM8 787.5q12 30.5 51 37.5q65 11 97.5 -38t7.5 -95q-14 -25 -34.5 -42.5t-33.5 -21.5l-14 -5q-1 2 0.5 9.5t-8 22.5t-29.5 25q-24 14 -36.5 45.5t-0.5 62zM23 852l122 180h52l118 -180h-59l-84 131h-2 l-84 -131h-63z" />
<glyph unicode="&#xef;" horiz-adv-x="335" d="M0.5 385.5q1.5 103.5 7.5 142.5q5 0 13.5 -0.5t30.5 -3.5t38 -8.5t29 -17.5t12 -29q0 -7 -4.5 -81.5t-7.5 -137t-0.5 -132t12.5 -95.5q9 -35 26 -52.5t31 -19.5q42 -6 86.5 76t68.5 167l24 85l26 -11q-4 -13 -10.5 -35t-27 -78.5t-41.5 -100.5t-50.5 -81.5t-56.5 -40.5 q-18 -2 -39 2t-49 22.5t-50.5 49.5t-41 90t-23.5 137q-5 49 -3.5 152.5zM8 787.5q12 30.5 51 37.5q65 11 97.5 -38t7.5 -95q-14 -25 -34.5 -42.5t-33.5 -21.5l-14 -5q-1 2 0.5 9.5t-8 22.5t-29.5 25q-24 14 -36.5 45.5t-0.5 62zM25 817q0 24 17 42t40 18q24 0 40.5 -18 t16.5 -42t-16 -41.5t-41 -17.5h-2q-25 0 -40 17.5t-15 41.5zM199 817q0 24 16.5 42t40.5 18t39.5 -18t15.5 -42t-15 -41.5t-40 -17.5h-4q-24 0 -38.5 17.5t-14.5 41.5z" />
<glyph unicode="&#xf0;" d="M59 281q0 108 65 184t179 76q135 0 219 -111l4 -2q-22 172 -114 270l-6 7l-80 -50l-35 56l61 39q-53 36 -127 49q-59 9 -96 6v57q42 3 115 -10q88 -21 155 -74l60 37l35 -55l-43 -27q139 -146 139 -397q0 -167 -72 -260.5t-186 -93.5q-121 0 -197 88t-76 211zM184 279 q0 -58 5.5 -99t19.5 -76t42.5 -53t70.5 -18q22 0 39.5 4t31 8.5t23.5 17t16.5 20.5t11 29.5t7 33.5t3.5 41.5t1 45v53.5v21q0 37 -4.5 64t-18 55.5t-43.5 43.5t-76 15q-33 0 -56.5 -10t-37.5 -26t-22 -43.5t-10.5 -56.5t-2.5 -70z" />
<glyph unicode="&#xf1;" horiz-adv-x="675" d="M4 348q8 70 45 90q22 13 42.5 15t32 -2.5t13.5 -12.5v-4q-32 -268 -8 -420q24 294 160 478q99 137 189 126q55 -8 81 -67q18 -43 8 -88q-6 -23 -22 -78.5t-29 -107.5t-22 -103q-28 -116 -24 -180t15 -85t27 -24q24 -5 53 35t54 101t47 122.5t34 105.5l13 44l18 -6 q-4 -16 -12 -43.5t-31.5 -97.5t-46 -124.5t-53 -101.5t-56.5 -51q-18 -4 -37.5 1t-44.5 25t-39.5 61t-23 110t3.5 172q2 35 9 73.5t15 71t16.5 64t15 55.5t10.5 43t3 29.5t-9 11.5q-59 6 -138 -95t-123 -253q-40 -138 -49 -283v-6l-18 -8q-4 0 -8 -2q-29 -4 -49.5 19 t-30.5 48q-47 123 -31 342zM193 750q-1 53 20 83.5t57 30.5q22 0 80 -28q35 -21 56 -21q34 0 34 53h45q0 -110 -77 -110q-28 0 -74 26q-52 25 -62 25q-29 0 -36 -59h-43z" />
<glyph unicode="&#xf2;" horiz-adv-x="577" d="M6 143q-19 128 12 236q29 113 97 168q53 41 123 41q50 0 84 -17q25 -10 40.5 -44t19 -70t5.5 -68.5t0 -40.5v-2v-2h-27v2v1q11 147 -30 192q-24 24 -64 6q-44 -22 -78 -100.5t-51 -172.5q-19 -100 -17.5 -190.5t23.5 -136.5h2v-2q0 -2 2 -2q13 -26 29 -31q37 -21 84 35 q29 29 57 90v2q16 37 17 41q35 81 35 141q0 15 -2 23q-58 51 -52 88q3 20 17 20q7 0 18 -8.5t17 -17.5q15 -21 18 -68q28 -28 76 -35q82 -10 160 49l16 -14q-33 -26 -81 -44t-95 -11q-44 7 -74 26q0 -35 -6 -73q-7 -34 -22.5 -76.5t-39.5 -87t-58 -75.5t-71 -34h-2 q-59 0 -106 62q-58 77 -76 200zM184 901h92l117 -180h-49zM338 326l4.5 -9t8.5 -15.5t11 -16.5q-9 31 -24 41z" />
<glyph unicode="&#xf3;" horiz-adv-x="577" d="M6 143q-19 128 12 236q29 113 97 168q53 41 123 41q50 0 84 -17q25 -10 40.5 -44t19 -70t5.5 -68.5t0 -40.5v-2v-2h-27v2v1q11 147 -30 192q-24 24 -64 6q-44 -22 -78 -100.5t-51 -172.5q-19 -100 -17.5 -190.5t23.5 -136.5h2v-2q0 -2 2 -2q13 -26 29 -31q37 -21 84 35 q29 29 57 90v2q16 37 17 41q35 81 35 141q0 15 -2 23q-58 51 -52 88q3 20 17 20q7 0 18 -8.5t17 -17.5q15 -21 18 -68q28 -28 76 -35q82 -10 160 49l16 -14q-33 -26 -81 -44t-95 -11q-44 7 -74 26q0 -35 -6 -73q-7 -34 -22.5 -76.5t-39.5 -87t-58 -75.5t-71 -34h-2 q-59 0 -106 62q-58 77 -76 200zM184 721l117 180h92l-162 -180h-47zM338 326l4.5 -9t8.5 -15.5t11 -16.5q-9 31 -24 41z" />
<glyph unicode="&#xf4;" horiz-adv-x="577" d="M6 143q-19 128 12 236q29 113 97 168q53 41 123 41q50 0 84 -17q25 -10 40.5 -44t19 -70t5.5 -68.5t0 -40.5v-2v-2h-27v2v1q11 147 -30 192q-24 24 -64 6q-44 -22 -78 -100.5t-51 -172.5q-19 -100 -17.5 -190.5t23.5 -136.5h2v-2q0 -2 2 -2q13 -26 29 -31q37 -21 84 35 q29 29 57 90v2q16 37 17 41q35 81 35 141q0 15 -2 23q-58 51 -52 88q3 20 17 20q7 0 18 -8.5t17 -17.5q15 -21 18 -68q28 -28 76 -35q82 -10 160 49l16 -14q-33 -26 -81 -44t-95 -11q-44 7 -74 26q0 -35 -6 -73q-7 -34 -22.5 -76.5t-39.5 -87t-58 -75.5t-71 -34h-2 q-59 0 -106 62q-58 77 -76 200zM141 852l123 180h51l119 -180h-59l-84 131h-2l-84 -131h-64zM338 326l4.5 -9t8.5 -15.5t11 -16.5q-9 31 -24 41z" />
<glyph unicode="&#xf5;" horiz-adv-x="577" d="M6 143q-19 128 12 236q29 113 97 168q53 41 123 41q50 0 84 -17q25 -10 40.5 -44t19 -70t5.5 -68.5t0 -40.5v-2v-2h-27v2v1q11 147 -30 192q-24 24 -64 6q-44 -22 -78 -100.5t-51 -172.5q-19 -100 -17.5 -190.5t23.5 -136.5h2v-2q0 -2 2 -2q13 -26 29 -31q37 -21 84 35 q29 29 57 90v2q16 37 17 41q35 81 35 141q0 15 -2 23q-58 51 -52 88q3 20 17 20q7 0 18 -8.5t17 -17.5q15 -21 18 -68q28 -28 76 -35q82 -10 160 49l16 -14q-33 -26 -81 -44t-95 -11q-44 7 -74 26q0 -35 -6 -73q-7 -34 -22.5 -76.5t-39.5 -87t-58 -75.5t-71 -34h-2 q-59 0 -106 62q-58 77 -76 200zM143 750q-1 53 20.5 83.5t57.5 30.5q22 0 80 -28q35 -21 55 -21q35 0 35 53h45q0 -110 -78 -110q-27 0 -73 26q-52 25 -62 25q-30 0 -37 -59h-43zM338 326l4.5 -9t8.5 -15.5t11 -16.5q-9 31 -24 41z" />
<glyph unicode="&#xf6;" horiz-adv-x="577" d="M6 143q-19 128 12 236q29 113 97 168q53 41 123 41q50 0 84 -17q25 -10 40.5 -44t19 -70t5.5 -68.5t0 -40.5v-2v-2h-27v2v1q11 147 -30 192q-24 24 -64 6q-44 -22 -78 -100.5t-51 -172.5q-19 -100 -17.5 -190.5t23.5 -136.5h2v-2q0 -2 2 -2q13 -26 29 -31q37 -21 84 35 q29 29 57 90v2q16 37 17 41q35 81 35 141q0 15 -2 23q-58 51 -52 88q3 20 17 20q7 0 18 -8.5t17 -17.5q15 -21 18 -68q28 -28 76 -35q82 -10 160 49l16 -14q-33 -26 -81 -44t-95 -11q-44 7 -74 26q0 -35 -6 -73q-7 -34 -22.5 -76.5t-39.5 -87t-58 -75.5t-71 -34h-2 q-59 0 -106 62q-58 77 -76 200zM145 817q0 23 17.5 41.5t40.5 18.5q24 0 40.5 -18t16.5 -42t-16 -41.5t-41 -17.5h-2q-25 0 -40.5 17.5t-15.5 41.5zM319 817q0 24 17 42t41 18t39.5 -18t15.5 -42t-15 -41.5t-40 -17.5h-4q-24 0 -39 17.5t-15 41.5zM338 326l4.5 -9t8.5 -15.5 t11 -16.5q-9 31 -24 41z" />
<glyph unicode="&#xf8;" horiz-adv-x="577" d="M-31 -266l418 950h64l-422 -950h-60zM6 143q-19 128 12 236q29 113 97 168q53 41 123 41q50 0 84 -17q25 -10 40.5 -44t19 -70t5.5 -68.5t0 -40.5v-2v-2h-27v2v1q11 147 -30 192q-24 24 -64 6q-44 -22 -78 -100.5t-51 -172.5q-19 -100 -17.5 -190.5t23.5 -136.5h2v-2 q0 -2 2 -2q13 -26 29 -31q37 -21 84 35q29 29 57 90v2q16 37 17 41q35 81 35 141q0 15 -2 23q-58 51 -52 88q3 20 17 20q7 0 18 -8.5t17 -17.5q15 -21 18 -68q28 -28 76 -35q82 -10 160 49l16 -14q-33 -26 -81 -44t-95 -11q-44 7 -74 26q0 -35 -6 -73q-7 -34 -22.5 -76.5 t-39.5 -87t-58 -75.5t-71 -34h-2q-59 0 -106 62q-58 77 -76 200zM338 326l4.5 -9t8.5 -15.5t11 -16.5q-9 31 -24 41z" />
<glyph unicode="&#xf9;" horiz-adv-x="630" d="M4 365q8 70 45 90q34 17 56.5 16t29.5 -12q-21 -88 -29 -217q-8 -128 2.5 -198.5t24.5 -76.5l14 -6q22 -5 58 27q55 57 108 209l52 155q7 38 43 174l32 107q48 -7 72.5 -53.5t13.5 -98.5q-3 -15 -31.5 -118.5t-39.5 -172.5q-16 -68 -21.5 -121t-3.5 -82.5t9.5 -49.5 t15.5 -27t16 -8q41 -8 92 93.5t82 207.5l31 106l14 -6q-4 -16 -12 -43.5t-31 -97.5t-45.5 -124.5t-53 -101.5t-56.5 -51q-12 -2 -25 -0.5t-30 9t-31 23t-28.5 41t-21.5 64t-10.5 91.5t4.5 123q-77 -210 -137 -261q-78 -72 -152 2q0 3 -2 5l-2 2l-2 2v2q-6 8 -20 35 q-47 123 -31 342zM211 901h92l117 -180h-49z" />
<glyph unicode="&#xfa;" horiz-adv-x="630" d="M4 365q8 70 45 90q34 17 56.5 16t29.5 -12q-21 -88 -29 -217q-8 -128 2.5 -198.5t24.5 -76.5l14 -6q22 -5 58 27q55 57 108 209l52 155q7 38 43 174l32 107q48 -7 72.5 -53.5t13.5 -98.5q-3 -15 -31.5 -118.5t-39.5 -172.5q-16 -68 -21.5 -121t-3.5 -82.5t9.5 -49.5 t15.5 -27t16 -8q41 -8 92 93.5t82 207.5l31 106l14 -6q-4 -16 -12 -43.5t-31 -97.5t-45.5 -124.5t-53 -101.5t-56.5 -51q-12 -2 -25 -0.5t-30 9t-31 23t-28.5 41t-21.5 64t-10.5 91.5t4.5 123q-77 -210 -137 -261q-78 -72 -152 2q0 3 -2 5l-2 2l-2 2v2q-6 8 -20 35 q-47 123 -31 342zM211 721l117 180h92l-162 -180h-47z" />
<glyph unicode="&#xfb;" horiz-adv-x="630" d="M4 365q8 70 45 90q34 17 56.5 16t29.5 -12q-21 -88 -29 -217q-8 -128 2.5 -198.5t24.5 -76.5l14 -6q22 -5 58 27q55 57 108 209l52 155q7 38 43 174l32 107q48 -7 72.5 -53.5t13.5 -98.5q-3 -15 -31.5 -118.5t-39.5 -172.5q-16 -68 -21.5 -121t-3.5 -82.5t9.5 -49.5 t15.5 -27t16 -8q41 -8 92 93.5t82 207.5l31 106l14 -6q-4 -16 -12 -43.5t-31 -97.5t-45.5 -124.5t-53 -101.5t-56.5 -51q-12 -2 -25 -0.5t-30 9t-31 23t-28.5 41t-21.5 64t-10.5 91.5t4.5 123q-77 -210 -137 -261q-78 -72 -152 2q0 3 -2 5l-2 2l-2 2v2q-6 8 -20 35 q-47 123 -31 342zM168 852l123 180h51l119 -180h-60l-84 131h-2l-84 -131h-63z" />
<glyph unicode="&#xfc;" horiz-adv-x="630" d="M4 365q8 70 45 90q34 17 56.5 16t29.5 -12q-21 -88 -29 -217q-8 -128 2.5 -198.5t24.5 -76.5l14 -6q22 -5 58 27q55 57 108 209l52 155q7 38 43 174l32 107q48 -7 72.5 -53.5t13.5 -98.5q-3 -15 -31.5 -118.5t-39.5 -172.5q-16 -68 -21.5 -121t-3.5 -82.5t9.5 -49.5 t15.5 -27t16 -8q41 -8 92 93.5t82 207.5l31 106l14 -6q-4 -16 -12 -43.5t-31 -97.5t-45.5 -124.5t-53 -101.5t-56.5 -51q-12 -2 -25 -0.5t-30 9t-31 23t-28.5 41t-21.5 64t-10.5 91.5t4.5 123q-77 -210 -137 -261q-78 -72 -152 2q0 3 -2 5l-2 2l-2 2v2q-6 8 -20 35 q-47 123 -31 342zM172 817q0 24 17 42t40 18q24 0 41 -18t17 -42t-16.5 -41.5t-41.5 -17.5h-2q-25 0 -40 17.5t-15 41.5zM346 817q0 24 16.5 42t40.5 18t40 -18t16 -42t-15.5 -41.5t-40.5 -17.5h-4q-24 0 -38.5 17.5t-14.5 41.5z" />
<glyph unicode="&#xfd;" horiz-adv-x="684" d="M-152 -934q-6 40 13.5 93.5t61.5 116.5t68.5 98.5t69.5 88.5q49 60 277 304q18 147 24 307q-83 -229 -153 -238q-18 -2 -39 2t-49 22.5t-50.5 49.5t-41 90t-23.5 137q-5 49 -3.5 152.5t7.5 142.5q5 0 13.5 -0.5t30.5 -3.5t38 -8.5t29 -17.5t12 -29q0 -7 -4.5 -82 t-7.5 -137.5t-0.5 -132t12.5 -95.5q16 -61 57 -67q30 -4 62.5 38t57 106.5t38 107t19.5 67.5q3 71 4 144.5t0.5 119t-1.5 85.5t-1 42v4q4 0 6 -2q50 -8 80 -24q6 -3 11.5 -12.5t8.5 -26t5.5 -30.5t4 -37t2 -34.5t1.5 -34t1 -24.5q5 -243 -12 -432q57 60 104 128.5 t73.5 121.5t45 100t25 70t6.5 26l19 -12q0 -3 -6.5 -27.5t-26.5 -74t-48.5 -105.5t-80 -128.5t-113.5 -137.5q-17 -168 -49 -338q-56 -271 -205 -426q-58 -61 -124 -95t-128 -34q-50 0 -86 25q-32 19 -35 57zM-119 -946q20 -33 60 -33h2q57 0 127.5 52t115.5 139 q103 189 150 509q-255 -261 -373 -436t-82 -231zM238 721l116 180h92l-161 -180h-47z" />
<glyph unicode="&#xff;" horiz-adv-x="684" d="M-152 -934q-6 40 13.5 93.5t61.5 116.5t68.5 98.5t69.5 88.5q49 60 277 304q18 147 24 307q-83 -229 -153 -238q-18 -2 -39 2t-49 22.5t-50.5 49.5t-41 90t-23.5 137q-5 49 -3.5 152.5t7.5 142.5q5 0 13.5 -0.5t30.5 -3.5t38 -8.5t29 -17.5t12 -29q0 -7 -4.5 -82 t-7.5 -137.5t-0.5 -132t12.5 -95.5q16 -61 57 -67q30 -4 62.5 38t57 106.5t38 107t19.5 67.5q3 71 4 144.5t0.5 119t-1.5 85.5t-1 42v4q4 0 6 -2q50 -8 80 -24q6 -3 11.5 -12.5t8.5 -26t5.5 -30.5t4 -37t2 -34.5t1.5 -34t1 -24.5q5 -243 -12 -432q57 60 104 128.5 t73.5 121.5t45 100t25 70t6.5 26l19 -12q0 -3 -6.5 -27.5t-26.5 -74t-48.5 -105.5t-80 -128.5t-113.5 -137.5q-17 -168 -49 -338q-56 -271 -205 -426q-58 -61 -124 -95t-128 -34q-50 0 -86 25q-32 19 -35 57zM-119 -946q20 -33 60 -33h2q57 0 127.5 52t115.5 139 q103 189 150 509q-255 -261 -373 -436t-82 -231zM199 817q0 24 17 42t40 18q24 0 40.5 -18t16.5 -42t-16 -41.5t-41 -17.5h-2q-25 0 -40 17.5t-15 41.5zM373 817q0 24 16.5 42t40.5 18t39.5 -18t15.5 -42t-15 -41.5t-40 -17.5h-4q-24 0 -38.5 17.5t-14.5 41.5z" />
<glyph unicode="&#x153;" horiz-adv-x="997" d="M6 143q-19 128 12 236q29 113 97 168q53 41 123 41q50 0 84 -17q25 -10 40.5 -44t19 -70t5.5 -68.5t0 -40.5v-2v-2h-27v2v1q11 147 -30 192q-24 24 -64 6q-44 -22 -78 -100.5t-51 -172.5q-19 -100 -17.5 -190.5t23.5 -136.5h2v-2q0 -2 2 -2q13 -26 29 -31q37 -21 84 35 q29 29 57 90v2q16 37 17 41q35 81 35 141q0 15 -2 23q-58 51 -52 88q3 20 17 20q7 0 18 -8.5t17 -17.5q15 -21 18 -68q27 -27 61 -33l-4 -18q-33 7 -55 22q0 -35 -6 -73q-7 -34 -22.5 -76.5t-39.5 -87t-58 -75.5t-71 -34h-2q-59 0 -106 62q-58 77 -76 200zM338 326l4.5 -9 t8.5 -15.5t11 -16.5q-9 31 -24 41zM389 143q-19 128 12 236q29 113 97 168q53 41 123 41q115 0 111 -63q-2 -52 -79 -118q-58 -51 -112 -67q-22 -68 -34.5 -133.5t-12.5 -123t21 -93t63 -35.5q38 0 70 19t53 46.5t41 66.5t32 73.5t27 74t26 60.5v2l21 -4q-11 -23 -27 -66 t-28.5 -78t-34.5 -77t-46 -70.5t-60.5 -49t-80.5 -22.5q-65 3 -117 63t-65 150zM549 362q47 13 105 75q63 68 51 103q-4 12 -19 17q-28 9 -66 -48t-71 -147z" />
<glyph unicode="&#x178;" horiz-adv-x="798" d="M-299 727l16 14q0 -4 1.5 -12t8 -28.5t16 -38t28.5 -36t43 -28t62 -8.5t83 18q87 32 152 88q-5 44 9.5 133t50.5 177t83 100q28 7 42.5 -37t8.5 -106q-6 -49 -35 -112.5t-84 -117.5q13 -81 58 -143q29 -40 70.5 -55.5t87.5 1.5t81 68q25 203 56.5 299.5t97.5 140.5 q52 34 101 43t82.5 -2.5t58 -28.5t37.5 -32.5t10 -15.5l-23 -15q-2 7 -14 21q-14 20 -57.5 39t-86.5 -2q-13 -7 -24 -29.5t-21 -64t-17.5 -83t-16.5 -108.5t-15 -116.5t-15 -131t-15 -129.5l-7 -27q1 -1 1 -3t1 -3q-13 -99 -31.5 -179.5t-48 -154t-68 -122t-94 -74.5 t-122.5 -21q-85 7 -130 69t-39 150t58 169q21 33 53.5 53t63.5 25.5t59 6t45 -2.5l17 -3l-6 -20q-7 2 -18 4t-42.5 2t-59.5 -8t-60 -34t-52 -69q-42 -89 -20 -190q20 -88 76 -113q55 -25 122 31q28 23 52.5 93.5t45.5 184.5t33.5 199t28.5 213q-92 -82 -169.5 -74.5 t-129 58.5t-63.5 117q-12 -7 -31 -19.5t-26.5 -17t-26.5 -13.5t-47 -20q-78 -28 -131 -25.5t-83.5 27.5t-46 53.5t-19.5 52.5zM178 791q0 -40 6 -31q7 11 30 44.5t30 45.5t19.5 38.5t16.5 51.5t5 57q0 21 -4 46t-7 28q-23 30 -55 -54q-13 -34 -26 -81q-14 -52 -15 -145z M336 1217q0 23 17 41t40 18q24 0 41 -17.5t17 -41.5t-16.5 -42t-41.5 -18h-2q-25 0 -40 17.5t-15 42.5zM510 1217q0 24 16.5 41.5t40.5 17.5t40 -17.5t16 -41.5t-15.5 -42t-40.5 -18h-4q-24 0 -38.5 18t-14.5 42z" />
<glyph unicode="&#x2c6;" horiz-adv-x="393" d="M51 852l123 180h51l119 -180h-59l-84 131h-2l-84 -131h-64z" />
<glyph unicode="&#x2dc;" horiz-adv-x="393" d="M51 750q-1 53 20.5 83.5t57.5 30.5q22 0 80 -28q35 -21 55 -21q35 0 35 53h45q0 -110 -78 -110q-27 0 -73 26q-52 25 -62 25q-30 0 -37 -59h-43z" />
<glyph unicode="&#x2000;" horiz-adv-x="862" />
<glyph unicode="&#x2001;" horiz-adv-x="1724" />
<glyph unicode="&#x2002;" horiz-adv-x="862" />
<glyph unicode="&#x2003;" horiz-adv-x="1724" />
<glyph unicode="&#x2004;" horiz-adv-x="574" />
<glyph unicode="&#x2005;" horiz-adv-x="431" />
<glyph unicode="&#x2006;" horiz-adv-x="287" />
<glyph unicode="&#x2007;" horiz-adv-x="287" />
<glyph unicode="&#x2008;" horiz-adv-x="215" />
<glyph unicode="&#x2009;" horiz-adv-x="344" />
<glyph unicode="&#x200a;" horiz-adv-x="95" />
<glyph unicode="&#x2010;" horiz-adv-x="249" d="M25 213v37h200v-37h-200z" />
<glyph unicode="&#x2011;" horiz-adv-x="249" d="M25 213v37h200v-37h-200z" />
<glyph unicode="&#x2012;" horiz-adv-x="249" d="M25 213v37h200v-37h-200z" />
<glyph unicode="&#x2013;" horiz-adv-x="1073" d="M25 213v37h1024v-37h-1024z" />
<glyph unicode="&#x2014;" horiz-adv-x="2097" d="M25 213v37h2048v-37h-2048z" />
<glyph unicode="&#x201a;" horiz-adv-x="227" d="M29 -166q17 40 38.5 128t30.5 151l78 14q-17 -66 -50 -158t-50 -129z" />
<glyph unicode="&#x201e;" horiz-adv-x="382" d="M29 -166q17 40 38.5 128t30.5 151l78 14q-17 -66 -50 -158t-50 -129zM186 -166q16 43 37.5 131.5t30.5 147.5l78 14q-17 -68 -50.5 -161t-50.5 -126z" />
<glyph unicode="&#x2026;" horiz-adv-x="1310" d="M168 45q0 25 14 41t37 16q24 0 38.5 -16t14.5 -41t-14.5 -42t-38.5 -17h-2q-23 0 -37 17t-12 42zM602 45q0 25 16 41t39 16t37.5 -16t14.5 -41t-15 -42t-39 -17h-2q-22 0 -36.5 17t-14.5 42zM1038 45q0 25 15.5 41t40.5 16q23 0 37 -16t14 -41t-14.5 -42t-38.5 -17 q-23 0 -38.5 17t-15.5 42z" />
<glyph unicode="&#x202f;" horiz-adv-x="344" />
<glyph unicode="&#x205f;" horiz-adv-x="431" />
<glyph unicode="&#x20ac;" d="M16 340v49h78v19q0 46 2 69h-80v49h86q24 156 119 248q98 92 234 92q90 0 159 -43l-20 -49q-59 41 -145 41q-31 0 -54.5 -6.5t-39.5 -17t-28 -29t-18.5 -36t-11.5 -45t-7 -50t-6 -56.5t-8 -59l279 10v-49l-287 -10q-4 -40 -4 -64v-24l289 10v-49l-285 -10 q10 -138 17 -171q18 -85 82 -109q32 -11 77 -11q76 0 166 49l17 -45q-75 -57 -191 -57q-140 0 -233 96q-87 90 -109 258h-78z" />
<glyph unicode="&#x25fc;" horiz-adv-x="583" d="M0 0v584h584v-584h-584z" />
</font>
</defs>
</svg>
