<?xml version="1.0" standalone="no"?>
<!DOCTYPE svg PUBLIC "-//W3C//DTD SVG 1.1//EN" "http://www.w3.org/Graphics/SVG/1.1/DTD/svg11.dtd" >
<svg>
<metadata>
Created by FontForge 20090622 at Thu Apr 14 12:13:50 2016
 By deploy user
Copyright (c) 2016 by moriztype. All rights reserved.
</metadata>
<defs>
<font id="BriskwonderingBoll" horiz-adv-x="171" >
  <font-face 
    font-family="Brisk wondering Boll"
    font-weight="400"
    font-stretch="normal"
    units-per-em="1000"
    panose-1="2 0 5 6 3 0 0 2 0 3"
    ascent="800"
    descent="-200"
    x-height="353"
    cap-height="956"
    bbox="-1166.86 -505 1326.36 998"
    underline-thickness="50"
    underline-position="-50"
    unicode-range="U+000D-U+FB02"
  />
<missing-glyph horiz-adv-x="215" 
 />
    <glyph glyph-name="a_a" unicode="aa" horiz-adv-x="340" 
d="M262 347l1 4h6q2 -1 5 -1q13 -2 11 -24q-2 -16 -2 -49q2 -30 4 -45l5 -22q1 -7 5 -15l5 -8q4 14 16.5 47.5t16.5 46.5q1 3 1 5l3 11l1 3l10 -1q15 -5 9 -25q-29 -104 -48 -111q-1 0 -3 -1h-1h-5q-8 0 -16 6q-7 7 -12 17q-3 8 -6 19q-4 13 -5 24l-3 22v9l-2 -2l-9 -14
l-15 -18l-16 -14l-17 -10q-9 -3 -17 -3l-8 2q-5 2 -6 3q-19 -72 -33 -78q-1 0 -3 -1h-1h-5q-9 0 -16 7q-8 12 -11 22l-6 24q-4 17 -5 30l-3 28v12q-1 -1 -1 -2l-1 -1l-9 -18l-15 -22l-16 -18l-16 -13q-12 -4 -17 -4l-8 3q-5 2 -7 5q-15 12 -17 39q-2 28 9 57q6 18 10 25
q8 16 13 23q7 12 16 19q7 8 15 13q8 4 12 5h11q9 -2 14 -8q4 -4 4 -7q1 -4 1 -9q-1 -9 -6 -17l-3 -3l-3 3q-5 7 -9 9q-7 0 -11 -2q-2 -1 -4.5 -4t-3.5 -5q-4 -4 -10 -14l-10 -19l-8 -20q-5 -13 -8 -30.5t2 -29.5q1 0 1 -1h1q3 0 8 3q2 1 5 3.5t5 3.5q1 1 5.5 6.5t6.5 8.5
l13 19q14 25 22 53q8 31 11 60l1 5h6q2 -1 5 -1q12 -4 10 -31q-2 -20 -2 -62q2 -38 4 -57l5 -27q1 -9 5 -19l5 -11q4 18 24 85q0 19 9 40q6 14 10 20q8 12 13 18q8 10 16 15q6 6 16 10q4 2 12 4h11q10 -2 14 -6t4 -6q1 -3 1 -7q-1 -7 -6 -13l-3 -3l-3 3q-4 5 -9 7
q-7 0 -11 -2q-2 0 -3 -1.5l-2 -3t-3 -2.5q-4 -3 -10 -11q-8 -10 -11 -15l-8 -16q-5 -10 -8 -23.5t2 -23.5q1 0 1 -1h1q2 0 8 2q2 1 5 3t5 3q9 6 13 12l13 15q14 20 22 42q8 25 11 47z" />
    <glyph glyph-name="b_b" unicode="bb" horiz-adv-x="315" 
d="M92 220q-6 -18 -15 -22q-12 -6 -23 -4q-13 3 -21 13q-10 11 -20 38q-8 29 -14 62q-6 40 -8 74q-3 41 -3 87q0 9 0.5 26.5t0.5 26.5q-8 0 -13 1q-10 1 -15.5 5t-6 7t-0.5 9v2l-1 5l5 -1q1 0 13.5 -1.5t18.5 -1.5l1 29l-12 -3l-18 -4q-41 -8 -68 -9q-37 -2 -69 1
q-10 1 -15.5 5t-6 7t-0.5 9v2l-1 5l5 -1q40 -4 76 -3q28 0 74 8l20 5q8 1 17 5q11 147 44 243q31 94 76 106q20 3 32 2q14 -1 27 -8q9 -6 20 -20q8 -15 11 -30t3 -33v-12q26 54 59 63q20 3 32 2q14 -1 27 -8q9 -6 20 -20q8 -15 11 -30t3 -33t-3 -38q-11 -60 -42 -114
q-28 -53 -71 -87q-14 -11 -34 -22q-11 -7 -39 -17l-3 -57q-1 -20 -1 -59q0 -44 3 -85q4 -49 8 -72q5 -34 12 -56q8 -23 16 -31q2 -3 6 -5q5 0 7 1q3 2 8 16q4 12 6 33q-7 5 -10 11q-8 10 -11 16q-1 2 -3 5.5t-3.5 6.5t-2.5 6l-7 17q-2 13 0 17q2 9 9 10q10 3 20 1
q9 -3 16 -10q5 -5 9 -12q4 -9 5 -17q0 -1 3 -17v-28q13 -10 33 13t28 50q18 -6 5 -33q-11 -22 -31 -39t-38 -13q0 -5 -9 -33q-6 -18 -15 -22q-12 -6 -23 -4q-13 3 -21 13q-10 11 -20 38q-9 28 -13 53q-11 -8 -23 -10q-15 -3 -28 3q0 -5 -9 -33zM181 861q0 20 -2 29
q-3 10 -8 21q-5 7 -12 12q-7 4 -17 6q-10 0 -23 -3q-34 -8 -62 -92q-28 -87 -39 -223l29 13q20 12 27 18q40 32 66 80q28 50 38 106q3 18 3 33zM333 823q0 20 -2 29q-3 10 -8 21q-5 7 -12 12q-7 4 -17 6q-10 0 -23 -3q-34 -8 -62 -92q-28 -87 -39 -223l29 13q20 12 27 18
q40 32 66 80q28 50 38 106q3 18 3 33zM143 343q-3 41 -3 87q0 10 0.5 28t0.5 28l2 51l-12 -3l-18 -4q-41 -8 -68 -9q-10 -1 -32 -1v-52q0 -44 3 -85q4 -49 8 -72q5 -34 12 -56q8 -23 16 -31q2 -3 6 -5q5 0 7 1q3 2 8 16q4 12 6 33q-7 5 -10 11q-8 10 -11 16l-9 18l-7 17
q-2 13 0 17q2 9 9 10q10 3 20 1q9 -3 16 -10q5 -5 9 -12q4 -9 5 -17q0 -1 3 -17v-19v-4q8 -7 21 -5q11 2 23 15q-4 34 -5 53zM34 546q28 0 74 8l20 5q8 1 17 5q6 84 21 155q-4 -6 -5 -9q-28 -53 -71 -87q-14 -11 -34 -22q-11 -7 -39 -17l-2 -39q13 0 19 1zM85 286l2 9
q5 22 -13 43q-3 4 -6 6q-6 3 -9 -1q-1 -3 0 -7q1 -2 5 -16q1 -2 4 -7.5t5 -8.5l3 -5q2 -2 4 -6zM237 248l2 9q5 22 -13 43q-3 4 -6 6q-6 3 -9 -1q-1 -3 0 -7q1 -3 5 -16q1 -2 4 -7.5t5 -8.5l3 -5q2 -2 4 -6z" />
    <glyph glyph-name="c_c" unicode="cc" horiz-adv-x="227" 
d="M230 300q8 -1 8 -10t-3 -14q-23 -34 -65 -64q-31 -21 -48 -4q-12 11 -14 38q-1 9 0 19h-1q-32 -24 -48 -31q-29 -14 -49 1q-12 9 -14 30q-2 24 7 46q4 12 7 17q3 8 9 15v-1q4 7 12 14q8 6 13 8q10 3 17 2q8 -1 16 -6q13 -10 5 -22q-4 -4 -6 -5v-1l-3 -2l-3 3q-6 6 -9 7
q-5 2 -8 0q-4 -2 -7 -4t-7 -8l-7 -11l-6 -14q-6 -17 -6 -32q0 -13 5 -16q8 -7 28 4q13 6 33 21t27 19l2 6q3 14 7 22q4 11 9 19v-1q2 7 11 18q1 0 5.5 4t7.5 6q12 4 17 2q8 -2 15 -7q13 -14 5 -28q-4 -6 -6 -7v-1l-3 -3l-3 4q-6 8 -8 9q-5 2 -8 0q-5 -2 -7 -5q-4 -4 -7 -10
l-7 -14l-6 -18q-5 -17 -5 -41q0 -17 4 -21q10 -10 28 2q9 7 19 16.5t23.5 24z" />
    <glyph glyph-name="d_d" unicode="dd" horiz-adv-x="548" 
d="M113 357q3 42 11 97q7 58 16 98q-17 0 -49 2q-47 5 -57 7q-18 3 -25 8q-8 7 -5 18l1 3l4 -1q24 -5 72 -11q35 -3 64 -2l5 20q1 9 5 23q30 112 69 180q40 71 90 100q12 8 33 14q17 6 35 6q9 0 21 -2q7 -2 19 -8q15 -8 22 -21q9 -13 12 -32q3 -18 2 -36q-4 -26 -8 -41
q-10 -37 -35 -79q-26 -40 -57 -70q-16 -14 -40 -30q24 -4 36 -5q35 -3 64 -2l5 22q1 9 5 25q30 121 69 194q39 77 90 109q14 10 33 15q17 6 35 6q9 0 21 -2q7 -2 19 -8q16 -10 22 -23q9 -15 12 -35t2 -39q-4 -28 -8 -44q-10 -41 -35 -86q-26 -44 -57 -75t-67 -49
q-36 -19 -83 -29l-22 -3q-14 -2 -21 -2q-16 -88 -23 -171q-9 -88 -7 -172q0 -68 8 -122q8 -49 20 -69l3 -4q1 -1 2 -1h1q4 2 6 4q9 12 10 14l12 21q20 39 37 90q18 55 41 137l1 4l3 -1q12 0 16 -8q2 -6 -2 -24q-14 -49 -39 -125q-18 -51 -34 -84l-14 -25q-1 -1 -6 -7.5
t-8 -9.5q-7 -8 -18 -11q-10 -1 -19 3l-7 6l-6 8q-15 25 -23 76q-9 65 -9 127v21q-9 -9 -33 -37q-18 -18 -27 -23l-7 -4l-8 -2q-10 -2 -18 0q-8 1 -15 7q-4 2 -8 8l-13 -36q-19 -49 -34 -77l-14 -24q-2 -2 -6.5 -7.5t-7.5 -7.5q-8 -8 -18 -10q-9 -1 -19 2l-7 6l-6 7
q-16 23 -23 71q-9 59 -9 117v19q-9 -8 -33 -34q-20 -18 -27 -21l-7 -4l-8 -2q-11 -2 -18 0q-8 1 -15 7q-6 4 -11 12q-4 5 -6 17q-1 8 0 18q0 8 3 19q7 30 21 53q15 26 33 37q26 20 71 0zM384 359l2 -3q3 45 11 105q7 64 16 106q-17 0 -49 2q-38 4 -57 8q-12 1 -21 5
q-35 -16 -78 -24l-22 -2q-14 -2 -21 -2q-16 -81 -23 -158q-9 -82 -7 -159q0 -62 8 -113q8 -46 20 -64l3 -3q1 -1 2 -1h1l6 3q0 1 4 5.5t6 7.5l12 20q19 34 37 83l24 73l3 11q7 33 21 57q15 28 33 40q7 6 17 9q6 3 18 5q8 0 12 -1l11 -3q8 -4 11 -7zM439 594q43 1 82 15
t65 35t39 33.5t19 21.5q16 20 29 45q21 38 30 75q6 25 7 39q1 13 -1 35q-3 13 -9 26q-6 10 -16 17q-8 4 -13 5q-10 2 -16 2q-30 0 -57 -18q-46 -29 -84 -102q-37 -71 -65 -188l-6 -22q-2 -12 -4 -19zM166 577q51 0 98 20q76 38 107 77q14 16 29 41q21 36 30 70q6 23 7 36
q1 12 -1 32q-3 13 -9 24q-5 9 -16 16q-8 4 -13 4q-10 2 -16 2q-31 0 -57 -16q-46 -28 -84 -95q-37 -66 -65 -173l-6 -21q-2 -12 -4 -17zM283 222q1 -3 2.5 -7t8.5 -10.5t17 3.5q12 8 42 41q6 10 29 46v5q0 11 -3 20q-5 16 -21 20.5t-29 -5.5q-29 -19 -46 -99v-14zM10 233
q15 -54 99 68q0 14 -3 23q-4 10 -7 14l-4 4q-20 5 -39 -4q-13 -9 -26 -30q-14 -24 -18 -45q-2 -12 -2 -17v-13z" />
    <glyph glyph-name="e_e" unicode="ee" horiz-adv-x="236" 
d="M99 255l17 45q2 12 4 16q5 19 14 32q6 10 9 13q3 5 9 9q4 4 8 4q3 1 10 1q6 -2 8 -5q4 -1 7 -6q4 -9 5 -12q2 -4 4 -14q1 -18 0 -38q-3 -19 -11 -38q-9 -22 -17 -31q-12 -16 -18 -21q3 -14 9 -22q7 -10 14 -14l5 -4q1 0 3 -0.5t3 -0.5q2 0 5 7q7 11 13 25q6 9 17 38
l20 61q21 -5 18 -28q0 -1 -0.5 -3.5t-0.5 -3.5l-17 -46q-2 -4 -6.5 -15t-7.5 -17q-11 -24 -20 -34q-12 -12 -23 -12q-10 3 -11 3q-2 0 -13 6q-14 12 -19 21q-7 9 -15 33q-4 14 -6 27l-11 -22q-10 -20 -20 -30q-11 -11 -22 -11q-10 3 -11 3q-4 1 -12 5q-13 9 -19 19
q-7 9 -14 29q-6 20 -7 32q-1 11 -1 34q2 19 6 33t13 28q4 7 9 12q3 4 9 8q4 3 8 3q3 1 9 1q6 -2 8 -4q4 -1 7 -6q4 -6 5 -10q2 -5 4 -13q1 -15 0 -33q-3 -16 -11 -34t-16 -27q-14 -16 -18 -19q3 -12 9 -19q6 -9 13 -13l5 -3q1 0 3 -0.5t3 -0.5q2 0 5 6q7 9 13 22q6 10 16 34
zM169 332q0 6 -3 9q0 1 -2 5l-4 -4l-5 -9q-4 -7 -10 -25q-4 -20 -5 -31v-22q0 -10 1 -15l8 13q5 7 11 20q2 6 5 17.5t4 14.5q2 14 0 27zM52 337q0 4 -2 8q0 2 -2 4l-4 -3l-5 -8q-4 -6 -10 -22q-4 -18 -5 -28v-19q0 -9 1 -13q1 1 2.5 3t3 4.5t2.5 3.5q5 7 11 18q4 8 8 28
q2 13 0 24z" />
    <glyph glyph-name="f_f" unicode="ff" horiz-adv-x="268" 
d="M-53 487q-8 8 -6 17.5t7 12.5q16 8 49 11q7 126 41 222q44 123 119 141q24 6 43 -2q20 -7 35 -27q0 -2 1 -2q26 24 55 31q24 6 43 -2q20 -7 35 -27q4 -5 9 -17l5 -19q2 -14 2 -20l-2 -21q-5 -25 -18 -46q-17 -20 -37 -31q-12 -4 -15 -4q-7 -2 -12 0q-5 3 -7 8l-3 7v3l4 1
q26 6 42 23q16 18 21 43q3 8 1 17q1 5 -1 16q0 2 -3 14l-7 13q-10 12 -22 17q-13 4 -29 1h-1q-27 -7 -50 -32l3 -9q2 -14 2 -20l-2 -21q-5 -25 -18 -46q-17 -20 -37 -31q-2 -1 -5.5 -2.5t-4.5 -1.5q-19 -74 -27 -171h35q38 0 53 0.5t40.5 2.5t37.5 7.5t17 14.5q9 -4 8 -15
t-6 -14q-27 -18 -151 -20h-36q-3 -42 -3 -88q0 -84 6 -168q5 -79 17 -173l12 -67q4 -24 11 -61q39 0 74 -11q31 -10 63 -37q18 -17 35 -42q16 -24 24 -51q10 -27 11 -49q4 -25 1 -48q-5 -36 -19 -54q-16 -21 -38 -24q-35 -4 -70 35q-31 36 -60 115q-16 47 -22 66
q-10 34 -19 75q-39 -7 -57 -11q-38 -13 -67 -26l-3 -1l-2 4q-4 7 -1 16q3 8 20 14q18 8 56 19q24 6 49 9q-7 32 -11 59l-11 67q-12 84 -18 174q-6 92 -5 170q0 44 3 88q-110 -4 -111 -4q-2 -28 -2 -84q0 -84 6 -168q5 -79 17 -173l12 -67q3 -19 16 -80q-5 0 -12 -4.5
t-11 -4.5q-14 62 -18 86l-11 67q-12 84 -18 174q-6 92 -5 170q0 26 2 82q-36 -5 -49 -16zM160 712l-3 7v3l4 1h3q2 9 8 27q21 58 46 90l-4 9q-10 12 -22 17q-13 4 -29 1h-1q-67 -19 -102 -131q-31 -90 -39 -206q23 1 63.5 2t48.5 1q8 99 27 178v1zM371 -197q-6 20 -21 46
q-15 22 -32 36q-24 21 -53 32q-25 9 -62 11l18 -70q9 -31 21 -64q28 -73 53 -103q26 -33 51 -30q12 1 22 16t13 39q1 6 1 43q-2 18 -11 44zM194 738l9 8q16 18 21 43q3 8 1 17v2q-17 -29 -31 -70z" />
    <glyph glyph-name="g_g" unicode="gg" horiz-adv-x="402" 
d="M97 364l3 -2l1 1q0 1 1 3v1q1 2 7 8q4 2 6 1q3 -1 6 -4l3 -7l2 -6v-1q0 -2 0.5 -6.5t0.5 -7.5q1 -6 1 -20q1 -21 0 -49q0 -9 -0.5 -28t-0.5 -29q-5 -83 -7 -108q-3 -50 -9 -97q8 0 32 -4q18 -3 37 -11q18 -6 23 -12q6 -6 2 -15q13 9 30 15q27 11 58 14l10 93q4 52 6 103
q1 18 1 49q0 6 0.5 15.5t0.5 14.5l-1 -1q-6 -10 -10 -14q-9 -12 -26 -23q-13 -9 -29 -12q-6 -2 -15 -2q-8 0 -13 3q-5 1 -11 7q-4 5 -5 11q-1 3 -1 11l3 11q5 14 15 29q20 23 25 27q2 2 12 10l14 6q8 2 12 2q8 0 13 -1l10 -5l3 -2l1 1v1l1 2q1 2 7 8q4 2 6 1t7 -4l3 -7l2 -5
v-1q0 -2 0.5 -6.5t0.5 -6.5q1 -6 1 -19q1 -21 0 -47q0 -8 -0.5 -26t-0.5 -28q-5 -84 -7 -103q-6 -64 -10 -92q6 0 18 -1.5t15 -1.5q18 -3 38 -11q19 -6 24 -11q7 -7 0 -19l-2 -4l-3 2q-32 13 -50 17q-22 6 -44 6q-19 -136 -51 -214q-35 -79 -81 -87q-20 -4 -38 4
q-18 7 -27 26q-13 19 -15 52q-2 31 6 67q9 33 28 70q20 35 45 57q5 5 15 13q-25 11 -46 17q-22 6 -43 6q-19 -147 -50 -225q-33 -82 -78 -92q-20 -4 -37 4q-18 9 -27 28q-12 22 -14 55q-2 32 6 70q9 38 27 74q21 38 44 60q23 23 52 36q30 12 56 15q4 30 10 98q4 56 6 108
q1 19 1 52q0 6 0.5 16t0.5 15l-1 -1q-6 -10 -10 -14q-9 -12 -25 -25q-14 -9 -28 -12q-6 -2 -15 -2q-7 0 -12 3q-5 1 -11 7q-4 6 -5 12q-1 3 -1 11l3 12q5 16 15 30q12 17 24 29q2 2 12 10q2 2 13 7q8 2 12 2q8 0 12 -1q6 -2 10 -6zM38 -223q28 78 45 211q-24 -3 -44 -13
q-21 -10 -44 -31q-21 -21 -39 -54q-16 -30 -24 -68q-8 -32 -6 -61q2 -31 11 -47q7 -12 15 -16q10 -5 22 -2q36 7 64 81zM243 -224q29 74 46 201q-23 -3 -45 -13q-21 -9 -45 -29q-21 -19 -40 -51q-16 -27 -25 -65q-8 -30 -6 -58q2 -29 11 -44q7 -12 16 -16q8 -4 22 -2
q38 7 66 77zM89 327l-2 8q0 2 -2 6q-1 3 -3 3q-2 2 -3 2h-3q-3 0 -5 -1l-8 -4l-8 -6l-20 -25q-9 -14 -12 -24l-2 -7v-4l1 -1q1 -1 5 -1q5 0 8 1q7 1 19 9q10 7 20 19q6 8 8 12zM296 298l-2 8q0 3 -3 6q-1 3 -3 3l-1 1h-2h-3q-3 0 -5 -1l-8 -3l-8 -6l-21 -24q-9 -12 -12 -23
l-2 -6v-4l1 -1q1 -1 5 -1q5 0 8 1q6 1 20 9q9 5 20 18q5 5 8 11z" />
    <glyph glyph-name="h_h" unicode="hh" horiz-adv-x="428" 
d="M122 593q37 1 76 14l10 3l8 3q4 58 8 88q8 56 14 83q17 85 52 132q38 50 93 39q6 -1 12 -5q7 -3 11 -9q8 -8 15 -25q6 -15 9 -34q2 -24 1 -40q0 -17 -5 -42q-8 -36 -27 -72q-20 -34 -46 -58q-24 -23 -55 -44q-37 -22 -58 -31q-6 -90 -4 -186q0 -38 3 -146q1 -11 1 -35
l7 21q9 26 18 46q9 24 18 42q5 9 9 15q7 7 10 9q8 4 10 4q5 2 10 0q6 -2 8 -4q2 -1 7 -6q5 -7 8 -15q4 -9 5 -19q2 -7 0 -58q-5 -144 4 -145q6 0 27 52l36 97l10 31l1 2h4q14 -4 14 -16q0 -5 -6 -25l-19.5 -54.5t-21 -51.5t-25.5 -46t-22 -14q-11 1 -18 17t-8.5 46.5
t-1.5 51t1 56.5q2 48 1 53q-2 10 -4 14l-4 8l-2 1q-2 -1 -5 -5q-2 -2 -6 -10q-12 -23 -33 -84q-25 -69 -39 -69q-9 0 -14 12q-3 11 -3 31q0 2 -0.5 6.5t-0.5 7.5q-11 -29 -19 -47.5t-19.5 -42.5t-22 -35.5t-19.5 -10.5q-11 1 -18 16t-8.5 43.5t-1.5 47.5t1 53q2 45 1 49
q-2 10 -4 13l-4 8l-2 1q-3 -1 -5 -5q-3 -3 -6 -9q-11 -21 -33 -79q-24 -64 -38 -64q-9 0 -14 11q-3 10 -3 29q0 3 -0.5 8.5t-0.5 9.5q0 16 -1 26q-3 102 -3 134q-2 80 3 168h-1q-3 0 -7 -2q-33 -10 -68 -13q-36 -4 -72 0q-6 0 -14 3q-7 2 -10 5q-4 6 -3 11q0 2 1 4l1 3l3 -1
q38 -6 79 -3q33 1 75 13l10 3l8 3q4 54 8 82q8 54 14 78q17 81 51 123q38 47 92 37q6 -1 12 -5q6 -3 11 -8q9 -9 15 -24q6 -14 9 -32q2 -22 1 -37q0 -16 -5 -39q-7 -33 -27 -68q-20 -32 -45 -54q-27 -24 -53 -40q12 -1 39 1zM47 572l-23 -10q-6 -84 -4 -174q0 -37 3 -136
q1 -10 1 -33l3 9l4 11q9 25 18 43q7 20 17 39q3 6 9 14q7 7 10 8q8 4 10 4q5 2 10 0q6 -2 8 -4q3 -1 7 -5q5 -7 8 -14q4 -9 5 -18q2 -6 0 -54q-5 -135 4 -136q5 0 26 49l36 91l14 39q-2 62 -2 111q-2 85 3 179h-1q-3 0 -7 -2q-37 -11 -69 -14q-36 -5 -72 0q-7 0 -15 3h-3z
M288 650q28 19 48 38q26 24 41 53q17 30 25 65q4 26 4 37q1 14 -1 36q-4 18 -7 27q-5 13 -10 18l-5 4q-4 2 -5 2q-41 10 -71 -33q-26 -39 -44 -118q-6 -24 -14 -78q-6 -48 -8 -78q32 16 47 27zM71 614q28 18 48 35q27 24 40 50q17 26 25 60q4 26 4 35q1 12 -1 34
q-3 16 -7 25q-5 12 -10 17l-5 3q-4 2 -5 2q-40 10 -70 -31q-27 -37 -43 -110q-6 -21 -14 -73q-6 -45 -8 -73q33 17 46 26z" />
    <glyph glyph-name="i_i" unicode="ii" horiz-adv-x="163" 
d="M24 270q2 -26 3 -27q1 0 2 1l9 7q10 10 16 18l17 24q0 20 3 56v6l1 11l4 -1q9 0 12.5 -1t5.5 -5.5t2 -13.5q-3 -57 -1 -104q2 -30 3 -31q8 3 21.5 21.5t26.5 41.5t16 27q19 -4 3 -33q-49 -86 -77 -76q-15 5 -19 60l-4 -4l-13 -14q-9 -9 -20 -13q-7 -4 -18 0
q-27 10 -17 129v6l1 11l4 -1q9 0 12.5 -1t5.5 -5.5t2 -13.5q-2 -44 -1 -75zM26 417q3 -7 2 -15q0 -9 -3 -15q-5 -8 -11 -8q-6 1 -9 9q-3 7 -2 15q0 7 4 15q3 8 10 8q6 -2 9 -9zM100 417q3 -7 2 -15q0 -9 -3 -15q-5 -8 -11 -8q-6 1 -9 9q-3 7 -2 15q0 7 4 15q3 8 10 8
q6 -2 9 -9z" />
    <glyph glyph-name="j_j" unicode="jj" horiz-adv-x="178" 
d="M-166 -208q4 23 14 51q7 19 22 47q22 40 57 70q32 26 68 33q2 36 4 110q0 76 1 113v70l2 65v3q16 1 20.5 -2.5t3.5 -14.5q0 -9 -0.5 -29t-0.5 -30v-63l-2 -111q-1 -16 -2 -45.5t-2 -54t-2 -45.5q32 24 67 31q2 36 4 110q0 76 1 113v70l2 65v3q16 1 20.5 -2.5t3.5 -14.5
q0 -9 -0.5 -29t-0.5 -30v-63l-2 -111q0 -54 -3 -108q13 1 39 -3q19 -4 44 -14q16 -8 18 -16q2 -7 -2 -16l-2 -3l-4 1q-21 14 -50 21q-21 7 -44 5q-8 -135 -32 -208q-30 -96 -91 -109q-25 -6 -42 8q-7 5 -11 12q-18 -13 -36 -17q-25 -6 -42 8q-15 11 -23 42q-3 18 -3 41t6 47
zM53 -230q21 72 29 194q-27 -7 -53 -29l-14 -13q-9 -93 -28 -159q-12 -42 -36 -73l6 -10q9 -8 22 -5q48 10 74 95zM-77 -211q4 23 14 51q7 19 22 47q12 22 31 44l3 36q-27 -7 -53 -29q-28 -26 -48 -60q-13 -22 -20 -44q-10 -28 -14 -47q-5 -25 -5 -42q0 -21 3 -36
q3 -17 12 -26q9 -8 22 -5q18 5 32 17l-2 6q-3 18 -3 41t6 47zM-36 -227q13 47 21 109l-4 -7q-13 -22 -20 -44q-10 -28 -14 -47q-5 -25 -5 -42q0 -14 1 -20q12 21 21 51zM112 415q3 -6 3 -15v-1q0 -9 -3 -15q-5 -8 -10 -8q-7 0 -10 8q-3 6 -3 15t3 15q5 8 10 8q6 0 10 -7z
M23 418q3 -6 3 -15v-1q0 -9 -3 -15q-5 -8 -10 -8q-7 0 -10 8q-3 6 -3 15t3 15q5 8 10 8q7 0 10 -7z" />
    <glyph glyph-name="l_l" unicode="ll" horiz-adv-x="310" 
d="M374 931q5 -9 8 -18l-3 -1v-1l3 2q8 -24 8 -57q-2 -35 -10 -74q-1 -5 -9 -38q-8 -24 -13 -35q-16 -42 -45 -79q-30 -36 -63 -55q-8 -6 -26 -14q-12 -5 -26 -10q-2 -15 -3.5 -32t-3 -38t-2.5 -32q-3 -35 -7 -110q-3 -60 -3 -115q-2 -61 1 -100q2 -54 5 -75q3 -29 9 -39v-1
q24 -4 59 91q16 43 52 170l7 28l1 2q19 3 19 -14q0 -2 -3 -22q-30 -114 -56 -180q-20 -50 -41 -77t-43 -22q-5 0 -10 3q-3 3 -8 11q-7 16 -10 45q-4 31 -6 79q-2 62 -1 101v18q-20 -63 -39 -104q-43 -98 -85 -90q-6 0 -10 3l-8 10q-7 14 -10 41q-4 28 -6 71q-2 56 -1 92
q0 49 3 105q4 67 7 97q0 4 3.5 37.5l5.5 51.5q-15 -3 -35 -1q-23 0 -42 4q-1 0 -4 0.5t-5 0.5l-9 3q-16 4 -21 12q-4 5 0 14l1 4l4 -1q11 -5 20 -6q11 -4 19 -5q19 -4 40 -4q13 0 35 2q21 153 54 246q32 91 74 104q7 3 17 3t16 -1q5 -1 15 -5l13 -8q7 -6 12 -14q5 -6 8 -16
l-3 -1v-1l3 2q3 -9 7 -31q30 87 69 102q7 3 17 3t16 -1q7 -1 15 -6q8 -4 13 -9q7 -7 11 -15zM58 566l-18 -6q-3 -16 -10 -92q-3 -29 -7 -99q-3 -55 -3 -104q-2 -56 1 -91q2 -49 5 -68q3 -26 9 -35v-1q24 -4 60 82q18 44 53 154l7 26l1 1q0 1 0.5 3.5t0.5 4.5q4 73 7 107
q0 4 3.5 41l5.5 57q-15 -3 -35 -1q-22 0 -41 4q-6 2 -9 2l-9 3q-16 4 -21 12zM365 855q0 31 -6 50q-4 10 -6 13q-2 4 -8 10l-7 6l-8 3h-10q-4 0 -10 -2q-31 -10 -61 -102q-27 -90 -47 -254l15 6q10 4 20 11q32 18 56 50q25 30 42 72l12 33l9 36q7 32 9 68zM209 835
q0 25 -7 46q-5 10 -6 11q-3 6 -8 9l-7 6l-8 2h-10q-7 0 -10 -1q-33 -10 -62 -93q-27 -80 -47 -229l15 5q14 6 20 10q31 17 57 45q25 27 42 65l12 30l9 33q5 21 10 61zM156 632q-28 -31 -64 -50q-1 -1 -7 -4q4 -2 17 -4q22 -5 39 -5q19 0 35 3q10 76 16 112q-12 -25 -36 -52z
" />
    <glyph glyph-name="m_m" unicode="mm" horiz-adv-x="516" 
d="M279 272l4 13q4 20 11 36q4 12 11 23q6 6 10 7q4 3 10 1t9 -4q1 -1 2 -2.5l2 -3t2 -3.5q4 -6 7 -23q3 -13 3 -32v-41q0 -20 1 -30v-14q14 31 32 77l16 39q5 12 13 28q8 12 16 17q8 6 16 1q16 -10 12 -116q-4 -104 2 -120q0 1 2 3l7 13q2 3 4.5 10l3.5 10q11 27 20 58
q14 52 18 72l1 3h3h1l2 -1q7 -2 10 -8q4 -5 4 -15v-2l-1 -2q-2 -8 -2 -9l-3 -10q-6 -27 -15 -53q-6 -23 -14 -42l-10 -22l-9 -16q-6 -9 -14 -14q-10 -4 -16 0q-2 0 -4 2l-4 3q-15 16 -11 141l2 61q0 15 -1 20v-1l-13 -29l-13 -31q-25 -60 -30 -70q-17 -36 -28 -39
q-7 -3 -12 1q-4 2 -8 11v2q-2 24 -2 36v56q-1 7 -1 20q0 38 -3 38t-15 -42q0 -1 -9 -34l-9 -30q-7 -20 -8 -21q-3 -9 -7 -13q-2 -3 -8 -5q-5 0 -9 4h-1l-3 -13q-6 -27 -14 -51l-10 -27l-9 -19q-6 -12 -13 -17q-9 -5 -16 0q-2 0 -4 2l-4 4q-15 20 -11 171l2 75q0 18 -1 24v-1
l-13 -35l-13 -38q-26 -75 -30 -85q-17 -44 -28 -48q-7 -3 -12 1t-7 14v2q-2 30 -2 44v68q-1 9 -1 24q0 46 -3 47q-3 0 -15 -51q0 -3 -9 -42l-9 -36q-7 -24 -8 -26q-3 -11 -7 -16q-3 -4 -8 -6q-5 0 -9 5l-3 3l1 1q-2 6 -2 28q-1 16 1 56q0 7 0.5 19.5t0.5 17.5v30l1 5h11
q7 0 10 -4.5t3 -20.5q0 -15 -1 -21l4 14q4 25 11 44q5 16 11 28q7 7 10 8q5 5 10 1l8 -4q1 -1 3 -4.5t3 -6.5q3 -7 7 -28q3 -17 3 -39v-50q0 -25 1 -37v-17q16 44 32 94l16 47q1 3 13 35q10 16 16 20q8 8 16 1q16 -12 12 -141q-4 -126 2 -146q0 2 2 4l7 16l7 24q12 35 20 71
q12 50 20 94l1 19q15 0 19.5 -3.5t4.5 -16.5t-1 -19z" />
    <glyph glyph-name="n_n" unicode="nn" horiz-adv-x="342" 
d="M23 282l14 28q15 30 24 40q13 15 22 15q12 1 17 -9t5 -24q1 -16 -3 -67q-5 -66 -4 -82q2 -17 4 -25q2 -7 4 -7q7 0 26 46l17.5 47.5t13.5 36.5l8 25q24 -7 24 -22q0 -2 -0.5 -6t-0.5 -5l3 6l11 25q14 31 24 45q13 16 22 16q12 2 17 -10t5 -27q1 -17 -3 -74q-5 -73 -4 -91
q2 -20 4 -28t4 -8q7 0 26 51q7 18 18.5 54.5t12.5 39.5l7 25l1 3l4 -1h1q9 -3 13 -12q2 -7 0 -15l-1 -1l-2 -6q-49 -162 -79 -163q-16 -1 -26 17q-6 14 -8 43q0 29 1 45l3 49q4 56 4 72q-1 2 -1 7l-3 -5l-18 -36l-26 -64q-11 -31 -14 -47q0 -5 -4 -9q-5 -3 -10 -2t-8.5 7.5
t-1.5 11.5q0 17 1 29v1q-36 -92 -60 -92q-16 -1 -26 15q-6 13 -8 38q0 27 1 41l3 44q4 50 4 65q-1 1 -1 6l-3 -5l-18 -32l-26 -57q-12 -29 -14 -43q0 -4 -4 -8q-8 -6 -15.5 0.5t-4.5 15.5q0 15 1 26q3 66 3 71l1 3q12 0 16 -3q8 -2 8 -14q0 -2 -0.5 -5.5t-0.5 -4.5z" />
    <glyph glyph-name="o_o" unicode="oo" horiz-adv-x="294" 
d="M247 339q4 -12 3 -34v-5h53l-1 -5q-2 -11 -7 -15q-6 -5 -18 -5h-32l-4 -17q-3 -8 -8 -17q-9 -15 -18 -19q-12 -7 -24 -7q-16 0 -27 11q-11 10 -16 29q-3 7 -3 17l-2 -2q-7 -7 -17 -7h-31l-4 -21q-2 -8 -8 -22q-9 -19 -18 -24q-13 -9 -23 -9q-17 0 -26 14q-11 12 -16 37
q-3 9 -3 22v24q3 19 4 24q2 11 6 23q8 22 20 37q14 14 30 19q17 3 21 -7q4 -9 3 -18q10 -1 15 -17q4 -15 3 -44v-6h46q2 10 4 15q1 9 6 18q8 17 21 29q12 11 30 15q17 3 22 -5t3 -14q10 -1 16 -14zM23 246q3 -15 8 -21t11 -6q7 0 11 4q5 5 9 14q4 10 5 15l4 15l-8 3
q-5 1 -9 5q-14 9 -14 26q-1 14 6 32l6 12l6 9l-4 -2q-3 -2 -5 -4q-13 -9 -21 -31q-2 -4 -4 -18q-3 -7 -3 -18v-19q0 -6 2 -16zM172 261q3 -11 8 -16t11 -5q7 0 11 3q6 5 10 11q4 8 5 12l4 12l-8 2q-6 2 -10 4q-14 8 -14 21q-1 10 6 25l6 9q1 1 2 2.5t2.5 2.5t2.5 2
q-6 -2 -10 -4q-13 -7 -21 -25q-2 -4 -4 -14q-3 -6 -3 -14v-15q0 -5 2 -13zM75 298v6q2 19 1 23v5l-2 -3q-3 -1 -4 -5l-3 -6q-3 -6 -3 -11q0 -4 1 -4l6 -4q2 0 4 -1zM225 302v5q2 15 1 18v4l-2 -2q-3 -1 -4 -4l-3 -5q-3 -4 -3 -9q0 -3 1 -3l6 -3q2 0 4 -1z" />
    <glyph glyph-name="p_p" unicode="pp" horiz-adv-x="426" 
d="M162 313q2 -14 0 -29q-1 -12 -5 -31q-8 -34 -27 -62q-19 -27 -43 -40l-12 -6q-4 -1 -13 -1q-10 2 -14 4q-2 1 -14 8l-9 10q-4 4 -8 12l-5 -78q-4 -61 -7 -87q16 0 39 -5q26 -7 44 -17q15 -7 17 -17q2 -5 -3 -15l-2 -3l-4 2q-21 14 -49 23q-24 6 -45 6q-15 -133 -42 -207
q-35 -93 -95 -103l-1 -1v1q-26 -3 -41 10q-15 15 -20 43q-3 16 -1 41q2 26 8 47q7 28 16 50q13 28 25 46q25 41 60 67q34 24 69 30l9 110l6 112q2 23 4 71l5 64v4h13q12 -2 11 -19q-3 -23 -3 -45q-1 -7 -1 -20q11 28 26 49q16 21 30 30l13 6q10 2 14 2q11 0 19 -4
q10 -3 16 -11q8 -7 13 -20q3 -9 7 -27zM-61 -208q25 67 39 192q-31 -8 -55 -26q-28 -21 -51 -57q-11 -17 -23 -43q-8 -21 -15 -46q-5 -20 -7 -43q-2 -22 1 -35q3 -18 12 -27q8 -7 21 -6q47 8 78 91zM31 208q1 -5 7 -17l6 -9q3 -4 7 -7q2 -2 6 -4t7 -2t5 1q2 0 6 2
q21 12 35 34q16 25 23 53q2 9 4 27q2 13 0 24q-1 8 -5 20q-4 10 -8 13q-4 4 -7 5q-6 2 -10 2t-7 -1q-6 -3 -7 -4q-11 -6 -24 -24t-23 -44l-11 -31q-7 -18 -7 -23v-1q0 -5 3 -14zM375 295q2 -14 0 -29q-1 -12 -5 -31q-8 -34 -27 -62q-19 -27 -43 -40l-12 -6q-4 -1 -13 -1
q-10 2 -14 4q-2 1 -14 8l-9 10q-4 4 -8 12l-5 -78q-4 -61 -7 -87q16 0 39 -5q26 -7 44 -17q15 -7 17 -17q2 -5 -3 -15l-2 -3l-4 2q-21 14 -49 23q-24 6 -45 6q-15 -133 -42 -207q-35 -93 -95 -103l-1 -1v1q-26 -3 -41 10q-15 15 -20 43q-3 16 -1 41q2 26 8 47q7 28 16 50
q13 28 25 46q25 41 60 67q34 24 69 30l9 110l6 112q2 23 4 71l5 64v4h13q12 -2 11 -19q-3 -23 -3 -45q-1 -7 -1 -20q11 28 26 49q16 21 30 30l13 6q10 2 14 2q11 0 19 -4q10 -3 16 -11q8 -7 13 -20q3 -9 7 -27zM152 -226q25 67 39 192q-31 -8 -55 -26q-28 -21 -51 -57
q-11 -17 -23 -43q-8 -20 -15 -46q-5 -20 -7 -43q-2 -22 1 -35q3 -18 12 -27q7 -7 21 -6q47 8 78 91zM244 190q1 -5 7 -17l6 -9q3 -4 7 -7q2 -2 6 -4t7 -2t5 1q2 0 6 2q21 12 35 34q16 25 23 53q2 9 4 27q2 13 0 24q-1 8 -5 20q-4 10 -8 13q-4 4 -7 5q-6 2 -10 2t-7 -1
q-6 -3 -7 -4q-11 -6 -24 -24t-23 -44l-11 -31q-7 -18 -7 -23v-1q0 -5 3 -14z" />
    <glyph glyph-name="q_q" unicode="qq" horiz-adv-x="480" 
d="M267 280q7 -8 25 -5q19 7 52 26q-5 42 -25 53q-6 2 -10 2l-12 -3q-8 -4 -13 -9q-1 -1 -4.5 -5t-5.5 -7q-10 -14 -13 -29q-2 -14 6 -23zM259 41q-17 -6 -41 -22l-3 -2l-6 6q-2 4 -2 8q0 6 4 10l9 8q39 18 41 19q22 6 33 8q14 67 35 123q13 39 36 88q-41 -29 -71 -34
q-31 -8 -47 13q-13 15 -10 37q2 21 16 42q10 12 16 17q2 2 17 12q14 6 23 6t21 -5q14 -8 24 -23q6 -11 11 -36l17 13q3 3 11 9t11 9l12 11l8 8q4 3 10 3q4 0 8 -4q1 -3 0 -7l-1 -5v-3l-2 -2q-34 -28 -66 -102q-32 -72 -53 -170q22 -3 39 -13q21 -13 34 -32q13 -16 21 -38
q8 -20 13 -47q3 -14 5 -46q0 -25 -3 -46q-8 -47 -27 -73q-22 -31 -54 -26q-12 1 -21 6t-18 14q-12 15 -22 41q-5 19 -9 59q-3 26 -1 66q5 59 7 77l3 19q0 2 3 14q-18 -4 -31 -10zM328 -210q5 -5 11 -8q8 -4 12 -4q18 -3 33 20q15 21 20 59q3 21 3 42q0 16 -4 44
q-5 23 -12 41q-9 20 -18 34q-15 18 -27 24q-16 9 -31 10l-3 -17l-3 -21q-7 -42 -8 -74q-2 -38 1 -64q2 -31 9 -52q5 -19 17 -34zM25 248q7 -10 26 -5q21 8 52 27q-5 45 -25 57q-6 2 -10 2t-12 -4t-13 -9q-8 -8 -11 -13q-10 -14 -13 -31q-2 -15 6 -24zM17 -6q-21 -10 -41 -24
l-3 -2l-6 6q-2 6 -2 9q0 6 4 11l9 8q28 15 41 20q15 6 34 9q14 69 35 131q16 49 37 93q-44 -31 -72 -36q-33 -8 -48 14q-13 16 -10 39q1 22 16 45q13 15 16 18q6 6 18 13q14 6 23 6t21 -5q14 -8 24 -25q7 -15 12 -38l17 14q2 2 10 8.5t12 10.5l12 12l8 8q5 4 10 4q4 0 9 -5
q1 -3 0 -7l-1 -6v-3l-2 -2q-35 -29 -67 -108q-32 -75 -54 -181q20 -3 39 -14q21 -12 35 -34q13 -17 21 -40q8 -21 13 -50q3 -15 5 -49q0 -26 -3 -49q-8 -50 -27 -78q-23 -32 -55 -28q-9 1 -21 7q-10 6 -18 15q-12 15 -22 43q-7 24 -10 63q-3 28 -1 70q4 56 8 82l3 20
q0 3 3 15q-18 -4 -32 -10zM87 -273q4 -6 11 -9q8 -4 12 -4q20 -3 34 21q15 23 20 63q3 22 3 45q0 16 -4 46q-5 25 -12 44t-18 36q-13 18 -28 26q-16 9 -31 10l-3 -18l-3 -22q-7 -45 -8 -79q-2 -40 1 -68q2 -33 9 -55q6 -22 17 -36z" />
    <glyph glyph-name="s_s" unicode="ss" horiz-adv-x="418" 
d="M280 311q3 4 5 12q0 3 -1 4q0 1 -0.5 2.5t-0.5 2.5l-3 4l-4 3q-4 3 -10 3q-8 0 -13 -2q-6 -2 -8 -4q-1 0 -2.5 -1t-2.5 -2t-2 -1l-4 -5l-2 -6v-9l3 -11q5 -13 18 -33q10 -13 36 -41l20 -22q2 -3 7 -9t7 -9q7 10 21 28l29 31l44 52l2 2h2q5 -2 7 -4t4 -7t0 -9
q-2 -5 -6 -11l-18 -20l-17 -19l-30 -34q-17 -20 -23 -31q13 -25 15 -33q6 -17 4 -32q0 -7 -4 -17q-3 -6 -11 -14q-8 -5 -15 -5q-7 -1 -16 4q-8 4 -14 15q-5 10 -5 24q0 17 4 30q4 14 12 28q-2 2 -7 9.5t-8 11.5l-22 24q-28 28 -37 41l-20 -24l-19 -22l-33 -40
q-17 -20 -26 -36q15 -29 17 -38q6 -21 4 -38q0 -8 -4 -20q-3 -7 -12 -16q-9 -6 -17 -6q-9 -1 -18 5q-9 4 -15 17q-6 11 -6 28q0 21 5 35q5 19 13 33l-8 11.5t-9 13.5l-24 28q-25 26 -43 51q-15 22 -24 46q-2 8 -4 20q0 12 1 17q2 10 4 16l10 13q5 5 13 10l14 7q13 6 27 4
q17 -5 23 -9l10 -9q1 -1 3.5 -5t3.5 -6q2 -2 4 -12q2 -7 0 -13q0 -9 -3 -18t-10 -16q-15 -18 -28 -7l-6 7l-1 1l-2 3l3 3q11 6 15 15q3 5 5 14q0 4 -1 5q0 1 -0.5 2.5t-0.5 3.5l-3 4l-5 4q-5 3 -11 3q-9 0 -14 -2q-7 -2 -9 -5l-8 -4l-4 -6l-2 -7v-11l3 -13q4 -15 20 -38
q17 -23 40 -48l22 -26l16 -21q7 12 23 33l32 36l43 53q-6 13 -7 16q-2 7 -4 17q0 10 1 15q2 8 4 13l9 11q1 2 11 9l13 6q12 4 24 3q13 -2 21 -7l9 -8l6 -9q2 -3 4 -11q2 -5 0 -11q0 -7 -3 -15t-9 -14q-13 -16 -25 -6q-4 4 -5 6l-1 1l-2 3l3 2q9 6 13 13zM127 80l-7 20
l-5 -15q-2 -9 -2 -24q0 -6 2 -14q2 -5 5 -7h4l4 6q2 2 2 9q2 11 -3 25zM330 123l-7 17l-4 -13q-2 -7 -2 -20q0 -6 2 -12q1 -3 4 -6h4l4 5q1 2 1 8q1 8 -2 21z" />
    <glyph glyph-name="t_t" unicode="tt" horiz-adv-x="268" 
d="M-162 629q-8 8 -6 17.5t7 12.5q40 24 166 24q11 211 50 262q11 15 19 14q5 0 15 -10l2 -4l-3 -2q-48 -34 -57 -260h108q11 211 50 262q11 15 19 14q5 0 15 -10l2 -4l-3 -2q-48 -34 -57 -260q80 4 89 20q9 -4 8 -15t-6 -14q-15 -10 -92 -14q-4 -113 -2 -251
q-6 -131 -1 -246t28 -146l4 -4h1q20 16 38 101q12 50 37 182l1 4h4q12 -2 15 -7q3 -8 -1 -24q-17 -105 -35 -176q-20 -82 -44 -100q-8 -8 -20 -6q-11 3 -20 15q-28 36 -33 166l-17 -75q-20 -82 -44 -100q-8 -8 -20 -6q-11 3 -20 15q-14 19 -22 56t-10.5 102.5t-2.5 111.5
t2 138q0 191 2 249q-134 4 -166 -30zM136 410q0 194 2 249h-108q-2 -59 -2 -250q-6 -131 -1 -246t28 -146l4 -4h1q20 16 38 101q8 32 36 179q0 37 2 117z" />
    <glyph glyph-name="u_u" unicode="uu" horiz-adv-x="342" 
d="M243 285q8 25 21 71q1 6 5 10q4 3 11 1q7 -1 9 -15q0 -5 -2 -29q0 -8 -2 -39t-3 -49q-2 -56 0 -77q2 -32 7 -32q4 0 17 40q8 21 27 88l11 40l2 6h8q6 -2 8 -5q4 -4 4 -9q0 -6 -1 -10q-4 -16 -7 -24l-2 -7q-15 -57 -31 -96q-20 -48 -37 -48q-21 1 -28 45q-5 30 -3 90
q0 3 0.5 9t0.5 10l-2 -4l-10 -21q-11 -18 -25 -26q-13 -6 -26 -2t-20 22l-3 11l-20 -46q-18 -39 -36 -39q-21 0 -28 36q-5 26 -3 74q0 2 0.5 7t0.5 8q-2 -2 -2 -3l-10 -17q-11 -15 -25 -21q-10 -5 -25 -2q-14 4 -20 18q-4 10 -6 34q0 18 3 39l6 41l1 2l2 1q11 3 17 -3
q4 -4 3 -17q-4 -18 -5 -33q-2 -22 -2 -30q0 -15 3 -24q2 -8 5 -8q5 -2 9 0q7 5 12 14q10 13 19 34q10 25 21 58q1 4 5 8q4 3 11 1q7 -1 9 -12q0 -4 -2 -24q0 -7 -2 -32t-3 -40q-2 -46 0 -63q2 -26 7 -26q4 0 17 33q5 10 26 72l11 32q0 1 0.5 3t0.5 3l6 51l1 2l2 1
q11 3 17 -3q4 -6 3 -21q-4 -25 -5 -41q-2 -26 -2 -36q0 -18 3 -30q2 -10 5 -10q5 -2 9 1q6 4 13 16q9 15 19 42z" />
    <glyph glyph-name="v_v" unicode="vv" horiz-adv-x="372" 
d="M15 221q-3 -36 1 -49q5 3 15 11q11 11 19 24q6 6 22 32q10 16 19 38q11 24 17 47q4 20 6 39q-6 1 -16 3q-12 4 -17 7q-16 7 -26 19q-8 8 -16 24q-4 11 -4 24q2 12 8 17q4 5 13 7q7 2 15 -1q29 -8 48 -30q17 -20 20 -50q15 0 39 8q20 5 50 21l4 2l2 -4l-4 -1v-1l4 2
q5 -10 3 -15q-3 -7 -19 -12q-23 -11 -43 -15q-19 -6 -35 -6q-1 -17 -7 -42q-4 -17 -18 -51q-6 -13 -20 -39q-7 -13 -23 -35q-16 -20 -24 -27q-9 -9 -21 -15q-12 -5 -19 -2q-8 1 -13 10q-8 14 -5 59q1 24 8 73l3 23v4h4q13 -1 17 -4.5t2 -13.5q0 -2 -0.5 -5t-0.5 -4l-1 -3
q-7 -65 -7 -69zM98 421q-15 17 -36 22h-1q-1 -1 -1 -7t3 -13q3 -10 13 -19q8 -8 18 -12l11 -6q1 0 3.5 -0.5t4.5 -0.5q-3 21 -15 36zM16 168h1l-1 1v-1zM201 233q-3 -42 1 -58q5 3 14 13q10 12 19 28q8 11 22 39q10 20 18 44q11 29 17 56q4 22 6 46q-10 2 -16 4q-8 3 -17 8
q-15 9 -25 22q-9 12 -16 29q-4 12 -4 28q2 15 8 21q5 6 13 8q7 2 15 -1q30 -11 47 -36q16 -25 19 -59q17 0 38 9q23 8 49 25l4 2l2 -4l-4 -1v-1l4 2q5 -12 3 -18q-3 -7 -18 -14q-22 -12 -42 -18q-18 -7 -35 -7q-1 -19 -7 -50q-5 -27 -17 -60q-6 -16 -20 -46q-4 -9 -22 -42
q-13 -20 -24 -32q-10 -12 -21 -17q-10 -6 -18 -3t-13 12q-8 17 -5 70q1 30 8 86l3 28v4h4q12 -1 16 -5t3 -16q0 -1 -0.5 -5t-0.5 -6l-1 -3q-7 -79 -7 -82zM282 470q-14 19 -35 26h-1q-1 -1 -1 -8t3 -16q3 -11 12 -22q9 -10 18 -15l11 -6q4 -2 8 -2q-3 25 -15 43zM202 171h1
l-1 1v-1z" />
    <glyph glyph-name="w_w" unicode="ww" horiz-adv-x="634" 
d="M16 231q-1 -15 -1 -43q2 -18 4 -23q1 -6 4 -6q17 0 49 97l7 19q5 9 13 9q6 0 9 -3q4 -3 4 -9v-15q3 -80 6 -98q6 -61 16 -61h3q10 0 22 14q13 13 26 37q15 24 26 57q12 30 18 63l6 39q1 11 1 33q-12 2 -25 9l-22 15q-15 15 -22 33q-6 18 0 30q5 10 8 12q7 7 12 8
q10 4 17 4q10 0 15 -2q14 -5 24 -16q10 -13 12 -28q2 -8 4 -24q2 -14 2 -22h6h10q25 2 47 10q29 10 45 21l4 2l2 -4l-4 -1v-1l4 2q3 -10 3 -12q0 -8 -14 -15q-15 -8 -33 -13q5 -2 8 -9q3 -8 1 -28q-4 -28 -5 -51q-1 -18 -1 -52q2 -21 4 -27q2 -8 4 -8q16 1 48 116l7 23
q5 11 13 11q6 0 9 -4q4 -3 4 -10v-19q4 -104 5 -117q6 -72 16 -73h3q9 1 22 17q15 18 26 45q15 32 25 67q12 35 18 76l6 46q1 14 1 40q-11 2 -25 11q-12 7 -21 18q-15 17 -22 39q-6 21 0 36q4 10 8 14q5 6 12 10q10 4 16 4q10 0 15 -2q12 -4 24 -19q9 -15 12 -33q2 -9 4 -29
q2 -18 2 -27h6q6 0 9 1q26 2 47 11q25 10 44 25l4 3l2 -5l-4 -1v-1l4 2q4 -11 3 -14q0 -10 -14 -18q-19 -11 -42 -19q-18 -6 -42 -8q-3 -1 -11 -1h-6q0 -27 -2 -40q-1 -23 -6 -47q-6 -42 -18 -79q-10 -38 -26 -71q-15 -34 -33 -53q-19 -20 -34 -23h-11q-22 4 -33 69
q-6 44 -8 88q-8 -27 -18 -46q-17 -37 -38 -38q-17 -1 -25 17t-8 42q-2 33 5 106q0 3 0.5 9t0.5 10q1 5 1 11q-12 -3 -38 -5h-18q0 -23 -2 -34q-2 -19 -6 -39q-6 -34 -18 -66q-10 -31 -26 -60q-15 -26 -34 -44q-20 -18 -34 -19h-11q-23 3 -34 57q-6 37 -8 74q-9 -25 -18 -38
q-17 -31 -39 -32q-16 -1 -25 14q-8 14 -8 35q-2 28 5 89q0 2 0.5 7.5t0.5 8.5q1 5 1 11l1 4h3q13 0 18 -9q3 -6 1 -24q-4 -22 -5 -43zM538 418l-2 22l-3 26q-2 11 -8 22q-7 9 -12 10q-2 1 -6 1t-6 -1l-4 -4q-2 -2 -4 -6q-3 -10 1 -23q6 -16 17 -28q7 -8 14 -12q5 -4 13 -7z
M229 363l-2 18l-3 22q-2 8 -8 18q-6 7 -12 9q-2 1 -6 1t-6 -1l-4 -3q-3 -2 -5 -6q-3 -8 1 -19q11 -17 18 -23q8 -8 14 -10q2 -2 13 -6z" />
    <glyph glyph-name="y_y" unicode="yy" horiz-adv-x="358" 
d="M5 352q15 1 19 -6.5t1 -25t-3 -20.5q-7 -51 -7 -73q6 6 18 25q16 26 27 48q17 29 22 36q14 18 22 17q8 0 12 -6q3 -5 3 -14v-41q0 -144 -7 -229q0 -8 -2 -22q0 -10 -1 -16q19 4 46 4q23 0 56 -5q17 -3 22 -8q6 -4 2 -15l-2 -4l-3 1q-34 7 -66 7q-11 1 -57 -2
q-16 -128 -47 -194q-41 -85 -108 -82q-20 1 -35 16q-14 13 -19 38q-2 11 -2 34q2 19 6 37q6 21 16 41q17 28 23 37q28 36 63 58q32 22 78 34q3 9 3 18q2 16 2 24q4 63 6 125q1 39 1 103v17l-10 -19l-17 -28.5t-19 -30.5q-21 -29 -37 -32q-7 -1 -13 3q-4 4 -6 14q-3 11 -1 36
l6 50l5 46v4h3zM39 -178q28 65 40 175q-35 -10 -63 -29q-33 -22 -54 -51q-12 -17 -21 -33q-9 -19 -13 -36q-4 -18 -6 -33q0 -21 2 -29q3 -18 11 -27q7 -9 18 -9q53 -4 86 72zM186 352q15 1 19 -7t1 -28t-3 -23q-7 -56 -7 -81q6 7 18 28q16 29 27 53q15 30 22 41q12 19 21 18
q8 0 12 -6q3 -6 3 -16v-45q0 -160 -7 -255q0 -8 -2 -24q0 -11 -1 -18q19 4 46 4q23 0 56 -5q16 -3 22 -9q5 -5 2 -17l-2 -4l-3 1q-38 8 -66 8q-21 1 -57 -3q-15 -139 -46 -215q-41 -95 -108 -91q-22 2 -35 18q-13 15 -18 42q-2 12 -2 38q2 20 6 41q6 23 15 45q14 28 23 41
q26 40 63 65q35 26 78 37q2 14 2 21q2 18 2 26q4 71 6 139q1 44 1 115v18l-10 -21q-27 -52 -35 -65q-21 -33 -37 -36q-8 -2 -13 4q-5 4 -6 15q-3 12 -1 40l6 56l5 51v4h3zM220 -237q28 72 40 195q-36 -12 -63 -33q-32 -24 -54 -56q-10 -15 -21 -37q-8 -19 -13 -40
q-5 -20 -6 -37q0 -23 2 -32q3 -19 11 -30q8 -10 18 -10q53 -4 86 80z" />
    <glyph glyph-name="z_z" unicode="&#x7a;&#x7a;" horiz-adv-x="444" 
d="M5 342q10 15 25 24q8 7 24 13q16 4 25 4q13 0 25 -6q10 -5 13 -18t-5 -33q-6 -16 -31 -47q9 1 24 1q23 -3 39 -15q18 -11 30 -31q17 -29 24 -63q8 -35 8 -84v-24l26 2q11 0 31 -2q11 -1 16 -5t5.5 -7t0.5 -8q0 -1 -1 -6l-4 1q-30 4 -41 4q-14 1 -34 -2q-1 -29 -8 -64
q-5 -34 -15 -65q-17 -60 -45 -103q-27 -42 -59 -49q-17 -6 -31 -1q-14 4 -23 15q-12 16 -15 35q-2 18 1 49q7 31 17 55q9 22 28 52q30 41 58 61q33 24 67 32q1 19 1 30q-2 49 -8 79q-8 36 -22 58q-9 16 -22 24q-14 9 -27 9q-15 1 -35 -6q-13 -6 -19 -12q-6 -4 -9 -4
q-4 -1 -10 3q-10 6 0 18q16 16 34 39q16 20 24 36q7 15 5 24q-1 3 -4 4q-4 2 -9 2q-8 0 -17 -3q-8 -3 -16 -8q-17 -12 -22 -26t0 -30l1 -4l-3 -1q-3 -1 -8 -1q-6 0 -10 3t-7 9q-2 6 -1 11q0 15 9 31zM171 -23q2 14 7 56q-29 -10 -52 -28q-28 -21 -48 -52q-13 -17 -27 -48
q-12 -37 -15 -51q-4 -27 -1 -41q2 -18 10 -28q8 -6 10 -6q7 -2 14 1q26 6 48 41q23 33 41 95q10 40 13 61zM217 336q10 18 24 28q11 10 23 14q13 5 24 5q14 0 24 -7t13 -20q3 -15 -5 -38q-7 -20 -30 -53q17 2 23 1q22 -3 38 -16q16 -12 29 -36q16 -30 23 -71q8 -39 8 -95
v-27l25 3q10 0 30 -2q21 -4 21 -23q0 -1 -1 -7l-4 1q-23 5 -39 5q-15 1 -33 -2q-1 -33 -8 -73q-4 -33 -14 -73q-17 -71 -44 -117q-25 -46 -57 -55q-16 -6 -30 -1q-12 4 -22 17q-11 16 -14 40q-3 20 1 55q5 33 16 62q11 31 27 59q26 43 56 68q31 27 65 37q1 21 1 33
q-2 56 -8 90q-8 38 -21 65q-9 17 -22 27q-11 10 -26 11q-13 1 -33 -7q-11 -6 -19 -14q-6 -4 -8 -4q-4 -1 -10 3q-10 7 0 20q15 18 33 44q15 23 23 41q7 16 5 27q-2 4 -4 5q-4 2 -9 2q-8 0 -16 -4q-10 -4 -16 -9q-15 -12 -21 -29q-5 -15 0 -34l1 -4l-3 -1q-3 -1 -8 -1t-9 3
t-7 10q-2 7 -1 13q0 16 9 34zM377 -76q3 19 7 64q-29 -11 -50 -32q-27 -23 -47 -59q-13 -19 -26 -54q-10 -34 -14 -58q-3 -30 -1 -46q2 -21 9 -31q6 -6 10 -7q7 -2 14 1q24 7 46 46q23 40 39 108q10 43 13 68z" />
    <glyph glyph-name="a_r" unicode="ar" horiz-adv-x="334" 
d="M257 259q-9 -45 -14 -88q-3 -43 5 -48l2 4q1 -1 3 4q1 1 1 2q8 9 15 24q13 22 50 106l2 4l13 31l2 2h2q17 -1 15 -17q-1 -5 -9 -26l-2 -4l-24 -55q-18 -38 -27 -53q-12 -23 -25 -34q-16 -13 -28 -6q-9 5 -13 18.5t-2.5 37t4 42t7.5 48.5q1 8 2 12q8 42 10 58q2 31 2 32
q-20 -5 -31 -5q-16 -52 -40 -116t-36 -69q-1 0 -3 -1h-1h-5q-8 0 -16 6q-7 7 -12 17q-3 8 -6 19q-4 13 -5 24l-3 22v9l-2 -2l-9 -14l-15 -18l-16 -14l-17 -10q-9 -3 -17 -3l-8 2q-4 2 -7 4q-15 10 -17 31q-2 22 9 45q6 14 10 20q8 12 13 18q8 10 16 15q6 6 16 10q4 2 12 4
h11q10 -2 14 -6t4 -6q1 -3 1 -7q-1 -7 -6 -13l-3 -3l-3 3q-4 5 -9 7q-7 0 -11 -2q-2 0 -3 -1.5l-2 -3t-3 -2.5q-4 -3 -10 -11q-8 -10 -11 -15l-8 -16q-5 -10 -8 -23.5t2 -23.5q1 0 1 -1h1q2 0 8 2q2 1 5 3t5 3q9 6 13 12l13 15q14 20 22 42q8 25 11 47l1 4h6q2 -1 5 -1
q13 -2 11 -24q-2 -16 -2 -49q2 -30 4 -45l5 -22q1 -7 5 -15l5 -8q24 51 57 156q1 3 1 5v2l-10 6q-11 9 -11 26q0 15 9 36q4 11 13 26q10 14 14 17l5 4q4 2 5 2q6 2 8 2l7 -2q1 0 3 -2l3 -3q7 -5 6 -19.5t-4.5 -25.5t-9.5 -26.5t-7 -21.5q10 1 29 6q6 1 11 -2q4 -4 7 -11
q4 -18 -11 -103zM197 375l2 5l3 12q2 6 6.5 21l6.5 22l-3 -5q-4 -5 -11 -22q-7 -16 -7 -23q-2 -7 2 -9q0 -1 1 -1z" />
    <glyph glyph-name="b_r" unicode="br" horiz-adv-x="316" 
d="M239 259q-9 -45 -14 -88q-3 -43 5 -48q18 23 32.5 51t31.5 70.5t22 53.5l2 2h2q17 -1 15 -17q-1 -5 -9 -26l-2 -4l-24 -55q-18 -38 -27 -53q-12 -23 -25 -34q-16 -13 -28 -6q-9 5 -13 18.5t-2.5 37t4 42t7.5 48.5q1 8 2 12q8 42 10 58q2 31 2 32q-17 -5 -36 -5
q-6 -16 -12.5 -30t-19 -34.5t-28.5 -29t-33 -1.5q-6 -46 -24 -55q-12 -6 -23 -4q-13 3 -21 13q-10 11 -20 38q-8 29 -14 62q-6 40 -8 74q-3 41 -3 87q0 10 0.5 28t0.5 28l2 51l-12 -3l-18 -4q-41 -8 -68 -9q-37 -2 -69 1q-10 1 -15.5 5t-6 7t-0.5 9v2l-1 5l5 -1q40 -4 76 -3
q28 0 74 8l20 5q8 1 17 5q11 147 44 243q31 94 76 106q20 3 32 2q14 -1 27 -8q9 -6 20 -20q8 -15 11 -30t3 -33q0 -19 -3 -38q-11 -60 -42 -114q-28 -53 -71 -87q-14 -11 -34 -22q-11 -7 -39 -17l-3 -57q-1 -20 -1 -59q0 -44 3 -85q4 -49 8 -72q5 -34 12 -56q11 -30 22 -36
q5 0 7 1q11 7 14 49q-7 5 -10 11q-8 10 -11 16l-9 18l-7 17q-2 13 0 17q2 9 9 10q10 3 20 1q9 -3 16 -10q11 -11 15.5 -34t1.5 -40q30 -18 61 61q1 3 3 8t3 7l-9 5q-11 9 -11 26q0 15 9 36q4 11 13 26q10 14 14 17l5 4q4 2 5 2q6 2 8 2l7 -2q1 0 3 -2l3 -3q7 -5 6 -19.5
t-4.5 -25.5t-9.5 -26.5t-7 -21.5q10 1 29 6q6 1 11 -2q4 -4 7 -11q4 -18 -11 -103zM181 861q0 20 -2 29q-3 10 -8 21q-5 7 -12 12q-7 4 -17 6q-10 0 -23 -3q-34 -8 -62 -92q-28 -87 -39 -223l29 13q20 12 27 18q40 32 66 80q28 50 38 106q3 18 3 33zM85 286q7 25 -11 51
q-9 13 -15 6q-1 -3 0 -7q3 -16 26 -50zM179 375q1 5 3 10.5t2 6.5q2 6 6.5 21l6.5 22l-3 -5q-4 -5 -11 -22q-3 -7 -6 -18t2 -15z" />
    <glyph glyph-name="c_r" unicode="cr" horiz-adv-x="275" 
d="M198 259q-9 -45 -14 -88q-3 -43 5 -48l2 4q1 -1 3 4q1 1 1 2q7 9 15 24q13 22 50 106l2 4l13 31l2 2h2q17 -1 15 -17q-1 -5 -9 -26l-2 -4l-24 -55q-18 -38 -27 -53q-12 -23 -25 -34q-16 -13 -28 -6q-9 5 -13 18.5t-2.5 37t4 42t7.5 48.5q1 8 2 12q8 42 10 58q2 31 2 32
q-20 -5 -35 -5q-19 -44 -47.5 -74.5t-47.5 -39.5q-29 -14 -49 1q-12 9 -14 30q-2 24 7 46q4 12 7 17q3 8 9 15v-1q4 7 12 14q8 6 13 8q10 3 17 2q8 -1 16 -6q13 -10 5 -22q-4 -4 -6 -5v-1l-3 -2l-3 3q-6 6 -9 7q-5 2 -8 0q-4 -2 -7 -4t-7 -8l-7 -11l-6 -14q-6 -17 -6 -32
q0 -13 5 -16q8 -7 28 4q14 6 39 35t37 57q-1 0 -8 5q-11 9 -11 26q0 15 9 36q4 11 13 26q10 14 14 17l5 4q4 2 5 2q6 2 8 2l7 -2q1 0 3 -2l3 -3q5 -6 6 -15t-1.5 -20.5t-6 -21l-8 -21t-5.5 -15.5q10 1 29 6q6 1 11 -2q4 -4 7 -11q4 -18 -11 -103zM138 375q11 24 18 60l-3 -5
q-4 -5 -11 -22q-3 -7 -6 -18t2 -15z" />
    <glyph glyph-name="d_r" unicode="dr" horiz-adv-x="438" 
d="M361 259q-9 -45 -14 -88q-3 -43 5 -48l2 4q1 -1 3 4q1 1 1 2q8 9 15 24q13 22 50 106l2 4l13 31l2 2h2q17 -1 15 -17q-1 -5 -9 -26l-2 -4l-24 -55q-18 -38 -27 -53q-12 -23 -25 -34q-16 -13 -28 -6q-9 5 -13 18.5t-2.5 37t4 42t7.5 48.5q1 8 2 12q8 42 10 58q2 31 2 32
q-20 -5 -31 -5q-8 -30 -68 -206q-18 -51 -34 -84l-14 -25q-1 -1 -6 -7.5t-8 -9.5q-7 -8 -18 -11q-10 -1 -19 3l-7 6l-6 8q-15 25 -23 76q-9 65 -9 127v21q-9 -9 -33 -37q-18 -18 -27 -23l-7 -4l-8 -2q-10 -2 -18 0q-8 1 -15 7q-5 3 -11 13q-4 7 -6 19q-1 9 0 19q0 9 3 21
q7 33 21 57q15 28 33 40q7 6 17 9q6 3 18 5q8 0 12 -1l11 -3q8 -4 11 -7l2 -3q3 45 11 105q7 64 16 106q-17 0 -49 2q-38 4 -57 8q-19 3 -25 9q-8 7 -5 19l1 3l4 -1q36 -7 72 -12q35 -3 64 -2l5 22q1 9 5 25q30 121 69 194q39 77 90 109q14 10 33 15q16 6 35 6q9 0 21 -2
q7 -2 19 -8q16 -10 22 -23q9 -15 12 -35t2 -39q-4 -28 -8 -44q-10 -41 -35 -86q-26 -44 -57 -75t-67 -49q-36 -19 -83 -29l-22 -3q-14 -2 -21 -2q-16 -88 -23 -171q-9 -88 -7 -172q0 -68 8 -122q8 -49 20 -69l3 -4q1 -1 2 -1h1q4 2 6 4q9 12 10 14l12 21q20 39 37 90l63 191
q-8 2 -12 6q-11 9 -11 26q0 15 9 36q4 11 13 26q10 14 14 17l5 4q4 2 5 2q6 2 8 2l7 -2q1 0 3 -2l3 -3q7 -5 6 -19.5t-4.5 -25.5t-9.5 -26.5t-7 -21.5q10 1 29 6q6 1 11 -2q4 -4 7 -11q4 -18 -11 -103zM165 594q43 1 82 15t65 35t39 33.5t19 21.5q16 20 29 45q21 38 30 75
q6 25 7 39q1 13 -1 35q-3 13 -9 26q-6 10 -16 17q-8 4 -13 5q-10 2 -16 2q-30 0 -57 -18q-46 -29 -84 -102q-37 -71 -65 -188l-6 -22q-2 -12 -4 -19zM9 222q1 -3 2.5 -7t8.5 -10.5t17 3.5q13 9 21 19l21 22q6 10 29 46v5q0 11 -3 20q-3 10 -7 15l-4 5l-5 3l-5 2h-6
q-5 0 -11 -3q-8 -4 -12 -7q-12 -8 -26 -32q-14 -26 -18 -49q-2 -12 -2 -18v-14zM301 375l2 5l3 12q2 6 6.5 21l6.5 22l-3 -5q-4 -5 -11 -22q-7 -16 -7 -23q-2 -7 2 -9q0 -1 1 -1z" />
    <glyph glyph-name="e_r" unicode="er" horiz-adv-x="279" 
d="M202 259q-9 -45 -14 -88q-3 -43 5 -48l2 4q1 -1 3 4q1 1 1 2q7 9 15 24q13 22 50 106l2 4l13 31l2 2h2q17 -1 15 -17q-1 -5 -9 -26l-2 -4l-24 -55q-18 -38 -27 -53q-12 -23 -25 -34q-16 -13 -28 -6q-9 5 -13 18.5t-2.5 37t4 42t7.5 48.5q1 8 2 12q8 42 10 58q2 31 2 32
q-18 -5 -36 -5q-3 -8 -3 -12l-36 -99q-7 -16 -13 -28q-10 -20 -20 -30q-11 -11 -22 -11q-10 3 -11 3q-4 1 -12 5q-13 9 -19 19q-7 9 -14 29q-6 20 -7 32q-1 11 -1 34q2 19 6 33t13 28q4 7 9 12q3 4 9 8q4 3 8 3q3 1 9 1q6 -2 8 -4q4 -1 7 -6q4 -6 5 -10q2 -5 4 -13
q1 -15 0 -33q-3 -16 -11 -34t-16 -27q-14 -16 -18 -19q3 -12 9 -19q6 -9 13 -13l5 -3q1 0 3 -0.5t3 -0.5q2 0 5 6q7 9 13 22q6 10 16 34l36 95l-10 6q-11 9 -11 26q0 15 9 36q4 11 13 26q10 14 14 17l5 4q4 2 5 2q6 2 8 2l7 -2q1 0 3 -2l3 -3q7 -5 6 -19.5t-4.5 -25.5
t-9.5 -26.5t-7 -21.5q10 1 29 6q6 1 11 -2q4 -4 7 -11q4 -18 -11 -103zM52 337q0 4 -2 8q0 2 -2 4l-4 -3l-5 -8q-4 -6 -10 -22q-4 -18 -5 -28v-19q0 -9 1 -13q1 1 2.5 3t3 4.5t2.5 3.5q5 7 11 18q4 8 8 28q2 13 0 24zM142 375l2 5l3 12q2 6 6.5 21l6.5 22l-3 -5
q-4 -5 -11 -22q-7 -16 -7 -23q-2 -7 2 -9q0 -1 1 -1z" />
    <glyph glyph-name="f_r" unicode="fr" horiz-adv-x="298" 
d="M221 259q-9 -45 -14 -88q-3 -43 5 -48l2 4q1 -1 3 4q1 1 1 2q8 9 15 24q13 22 50 106l2 4l13 31l2 2h2q17 -1 15 -17q-1 -5 -9 -26l-2 -4l-24 -55q-18 -38 -27 -53q-12 -23 -25 -34q-16 -13 -28 -6q-9 5 -13 18.5t-2.5 37t4 42t7.5 48.5q1 8 2 12q8 42 10 58q2 31 2 32
q-17 -5 -36 -5q-16 -50 -25 -70q-6 -15 -15 -24q-10 -5 -23 2l2 4q22 41 37 91q-4 1 -8 5q-11 9 -11 26q0 15 9 36q4 11 13 26q10 14 14 17l5 4q4 2 5 2q6 2 8 2l7 -2q1 0 3 -2l3 -3q7 -5 6 -19.5t-4.5 -25.5t-9.5 -26.5t-7 -21.5q10 1 29 6q6 1 11 -2q4 -4 7 -11
q4 -18 -11 -103zM161 375l2 5l3 12q2 6 6.5 21l6.5 22l-3 -5q-4 -5 -11 -22q-7 -16 -7 -23q-2 -7 2 -9q0 -1 1 -1zM-125 479q-8 8 -6 17.5t7 12.5q35 20 123 24q9 128 39 217q44 123 119 141q24 6 43 -2q20 -7 35 -27q4 -5 9 -17l5 -19q2 -14 2 -20l-2 -21q-5 -25 -18 -46
q-17 -20 -37 -31q-12 -4 -15 -4q-7 -2 -12 0q-4 3 -7 8l-3 7v3l4 1q26 6 42 23q16 18 21 43q3 8 1 17q1 5 -1 16q0 2 -3 14l-7 13q-10 12 -22 17q-13 4 -29 1h-1q-67 -19 -102 -131q-27 -81 -37 -203h35q38 0 53 0.5t40.5 2.5t37.5 7.5t17 14.5q9 -4 8 -15t-6 -14
q-27 -18 -151 -20h-36q-3 -42 -3 -88q0 -84 6 -168q5 -79 17 -173l12 -67q4 -24 11 -61q39 0 74 -11q31 -10 63 -37q18 -17 35 -42q16 -24 24 -51q10 -27 11 -49q4 -25 1 -48q-5 -36 -19 -54q-16 -21 -38 -24q-35 -4 -70 35q-31 36 -60 115q-17 47 -22 66q-10 34 -19 75
q-39 -7 -57 -11q-38 -13 -67 -26l-3 -1l-2 4q-4 7 -1 16q3 8 20 14q18 8 56 19q24 6 49 9q-7 32 -11 59l-11 67q-12 84 -18 174q-6 92 -5 170q0 44 3 88q-95 -2 -122 -30zM237 -197q-6 20 -21 46q-15 22 -32 36q-24 21 -53 32q-25 9 -62 11l18 -70q9 -31 21 -64
q28 -73 53 -103q26 -33 51 -30q12 1 22 16t13 39q1 6 1 43q-2 18 -11 44z" />
    <glyph glyph-name="g_r" unicode="gr" horiz-adv-x="365" 
d="M288 259q-9 -45 -14 -88q-3 -43 5 -48l2 4q1 -1 3 4q1 1 1 2q7 9 15 24q13 22 50 106l2 4l13 31l2 2h2q17 -1 15 -17q-1 -5 -9 -26l-2 -4l-24 -55q-18 -38 -27 -53q-12 -23 -25 -34q-16 -13 -28 -6q-9 5 -13 18.5t-2.5 37t4 42t7.5 48.5q1 8 2 12q8 42 10 58q2 31 2 32
q-17 -5 -36 -5q-17 -50 -25 -69q-6 -15 -15 -24q-9 -5 -23 2l2 4q21 42 37 90q-4 1 -8 5q-11 9 -11 26q0 15 9 36q4 11 13 26q10 14 14 17l5 4q4 2 5 2q6 2 8 2l7 -2q1 0 3 -2l3 -3q7 -5 6 -19.5t-4.5 -25.5t-9.5 -26.5t-7 -21.5q10 1 29 6q6 1 11 -2q4 -4 7 -11
q4 -18 -11 -103zM228 375l2 5l3 12q2 6 6.5 21l6.5 22l-3 -5q-4 -5 -11 -22q-7 -16 -7 -23q-2 -7 2 -9q0 -1 1 -1zM97 364l3 -2l1 1q0 1 1 3v1q1 2 7 8q4 2 6 1q3 -1 6 -4l3 -7l2 -6v-1q0 -2 0.5 -6.5t0.5 -7.5q1 -6 1 -20q1 -21 0 -49q0 -9 -0.5 -28t-0.5 -29
q-5 -83 -7 -108q-3 -50 -9 -97q8 0 32 -4q18 -3 37 -11q18 -6 23 -12q7 -7 0 -20l-2 -4l-3 2q-26 12 -48 18t-43 6q-19 -147 -50 -225q-33 -82 -78 -92q-20 -4 -37 4q-18 9 -27 28q-12 22 -14 55q-2 32 6 70q9 38 27 74q21 38 44 60q23 23 52 36q30 12 56 15q4 30 10 98
q4 56 6 108q1 19 1 52q0 6 0.5 16t0.5 15l-1 -1q-6 -10 -10 -14q-9 -12 -25 -25q-14 -9 -28 -12q-6 -2 -15 -2q-7 0 -12 3q-5 1 -11 7q-4 6 -5 12q-1 3 -1 11l3 12q5 16 15 30q12 17 24 29q2 2 12 10q2 2 13 7q8 2 12 2q8 0 12 -1q6 -2 10 -6zM38 -223q28 78 45 211
q-24 -3 -44 -13q-21 -10 -44 -31q-21 -21 -39 -54q-16 -30 -24 -68q-8 -32 -6 -61q2 -31 11 -47q7 -12 15 -16q10 -5 22 -2q36 7 64 81zM89 327l-2 8q0 2 -2 6q-1 3 -3 3q-2 2 -3 2h-3q-3 0 -5 -1l-8 -4l-8 -6l-20 -25q-9 -14 -12 -24l-2 -7v-4l1 -1q1 -1 5 -1q5 0 8 1
q7 1 19 9q10 7 20 19q6 8 8 12z" />
    <glyph glyph-name="h_r" unicode="hr" horiz-adv-x="378" 
d="M301 259q-9 -45 -14 -88q-3 -43 5 -48l2 4q1 -1 3 4q1 1 1 2q8 9 15 24q13 22 50 106l2 4l13 31l2 2h2q17 -1 15 -17q-1 -5 -9 -26l-2 -4l-24 -55q-18 -38 -27 -53q-12 -23 -25 -34q-16 -13 -28 -6q-9 5 -13 18.5t-2.5 37t4 42t7.5 48.5q1 8 2 12q8 42 10 58q2 31 2 32
q-17 -5 -36 -5l-16.5 -48.5t-13.5 -40.5l-19.5 -54.5t-21 -51.5t-25.5 -46t-22 -14q-11 1 -18 17t-8.5 46.5t-1.5 51t1 56.5q2 48 1 53q-2 10 -4 14l-4 8l-2 1q-2 -1 -5 -5q-2 -2 -6 -10q-12 -23 -33 -84q-25 -69 -39 -69q-9 0 -14 12q-3 10 -3 31q0 3 -0.5 9t-0.5 10
q0 17 -1 28q-3 108 -3 144q-2 85 3 179h-1q-3 0 -7 -2q-37 -11 -69 -14q-36 -5 -72 0q-7 0 -15 3q-5 1 -10 6q-4 6 -3 11q0 3 1 5l1 3l3 -1q39 -6 80 -3q37 1 76 14l10 3l8 3q4 58 8 88q8 56 14 83q17 85 52 132q38 50 93 39q6 -1 12 -5q7 -3 11 -9q8 -8 15 -25q6 -15 9 -34
q2 -24 1 -40q0 -17 -5 -42q-8 -36 -27 -72q-20 -34 -46 -58q-24 -23 -55 -44q-37 -22 -58 -31q-6 -90 -4 -186q0 -38 3 -146q1 -11 1 -35l7 21q9 26 18 46q9 24 18 42q5 9 9 15q7 7 10 9q8 4 10 4q5 2 10 0q6 -2 8 -4q2 -1 7 -6q5 -7 8 -15q4 -9 5 -19q2 -7 0 -58
q-5 -144 4 -145q6 0 27 52l36 97l29 84q-4 1 -8 5q-11 9 -11 26q0 15 9 36q4 11 13 26q10 14 14 17l5 4q4 2 5 2q6 2 8 2l7 -2q1 0 3 -2l3 -3q7 -5 6 -19.5t-4.5 -25.5t-9.5 -26.5t-7 -21.5q10 1 29 6q6 1 11 -2q4 -4 7 -11q4 -18 -11 -103zM74 650q28 19 48 38q26 24 41 53
q17 30 25 65q4 26 4 37q1 14 -1 36q-4 18 -7 27q-5 13 -10 18l-5 4q-4 2 -5 2q-41 10 -71 -33q-26 -39 -44 -118q-6 -24 -14 -78q-6 -48 -8 -78q32 16 47 27zM241 375l2 5l3 12q2 6 6.5 21l6.5 22l-3 -5q-4 -5 -11 -22q-7 -16 -7 -23q-2 -7 2 -9q0 -1 1 -1z" />
    <glyph glyph-name="i_r" unicode="ir" horiz-adv-x="238" 
d="M161 259q-9 -45 -14 -88q-3 -43 5 -48l2 4q1 -1 3 4q1 1 1 2q8 9 15 24q13 22 50 106l2 4l13 31l2 2h2q17 -1 15 -17q-1 -5 -9 -26l-2 -4l-24 -55q-18 -38 -27 -53q-12 -23 -25 -34q-16 -13 -28 -6q-9 5 -13 18.5t-2.5 37t4 42t7.5 48.5q1 8 2 12q8 42 10 58q2 31 2 32
q-19 -5 -37 -5q-35 -87 -60 -115q-9 -9 -20 -13q-7 -4 -18 0q-27 10 -17 129v6l1 11l4 -1q9 0 12.5 -1t5.5 -5.5t2 -13.5q-2 -44 -1 -75q2 -26 3 -27q1 0 2 1l9 7q25 25 54 100q-4 1 -8 5q-11 9 -11 26q0 15 9 36q4 11 13 26q10 14 14 17l5 4q4 2 5 2q6 2 8 2l7 -2q1 0 3 -2
l3 -3q7 -5 6 -19.5t-4.5 -25.5t-9.5 -26.5t-7 -21.5q10 1 29 6q6 1 11 -2q4 -4 7 -11q4 -18 -11 -103zM26 417q3 -7 2 -15q0 -9 -3 -15q-5 -8 -11 -8q-6 1 -9 9q-3 7 -2 15q0 7 4 15q3 8 10 8q6 -2 9 -9zM101 375l2 5l3 12q2 6 6.5 21l6.5 22l-3 -5q-4 -5 -11 -22
q-7 -16 -7 -23q-2 -7 2 -9q0 -1 1 -1z" />
    <glyph glyph-name="j_r" unicode="jr" horiz-adv-x="253" 
d="M-166 -211q4 23 14 51q7 19 22 47q22 40 57 70q32 26 68 33q2 36 4 110q0 76 1 113v70l2 65v3q16 1 20.5 -2.5t3.5 -14.5q0 -9 -0.5 -29t-0.5 -30v-63l-2 -111q0 -54 -3 -108q13 1 39 -3q19 -4 44 -14q16 -8 18 -16q2 -7 -2 -16l-2 -3l-4 1q-21 14 -50 21q-21 7 -44 5
q-8 -135 -32 -208q-30 -96 -91 -109q-25 -6 -42 8q-15 11 -23 42q-3 18 -3 41t6 47zM-36 -230q21 72 29 194q-27 -7 -53 -29q-28 -25 -48 -60q-13 -22 -20 -44q-10 -28 -14 -47q-5 -25 -5 -42q0 -21 3 -36q3 -17 12 -26q9 -8 22 -5q48 10 74 95zM67 256l2 4q23 45 37 92
q-6 3 -7 4q-11 9 -11 26q0 15 9 36q4 11 13 26q10 14 14 17l5 4q4 2 5 2q6 2 8 2l7 -2q1 0 3 -2l3 -3q7 -5 6 -19.5t-4.5 -25.5t-9.5 -26.5t-7 -21.5q10 1 29 6q6 1 11 -2q4 -4 7 -11q4 -18 -11 -103q-9 -45 -14 -88q-3 -43 5 -48l2 4q1 -1 3 4q1 1 1 2q7 9 15 24
q13 22 50 106l2 4l13 31l2 2h2q17 -1 15 -17q-1 -5 -9 -26l-2 -4l-24 -55q-18 -38 -27 -53q-12 -23 -25 -34q-16 -13 -28 -6q-9 5 -13 18.5t-2.5 37t4 42t7.5 48.5q1 8 2 12q8 42 10 58q2 31 2 32q-19 -5 -37 -5q-16 -50 -25 -70q-6 -15 -15 -24q-10 -5 -23 2zM23 415
q3 -6 3 -15v-1q0 -9 -3 -15q-5 -8 -10 -8q-7 0 -10 8q-3 6 -3 15t3 15q5 8 10 8q7 0 10 -7zM116 375l2 5l3 12q2 6 6.5 21l6.5 22l-3 -5q-4 -5 -11 -22q-7 -16 -7 -23q-2 -7 2 -9q0 -1 1 -1z" />
    <glyph glyph-name="k_r" unicode="kr" horiz-adv-x="365" 
d="M288 259q-9 -45 -14 -88q-3 -43 5 -48l2 4q1 -1 3 4q1 1 1 2q7 9 15 24q13 22 50 106l2 4l13 31l2 2h2q17 -1 15 -17q-1 -5 -9 -26l-2 -4l-24 -55q-18 -38 -27 -53q-12 -23 -25 -34q-16 -13 -28 -6q-9 5 -13 18.5t-2.5 37t4 42t7.5 48.5q1 8 2 12q8 42 10 58q2 31 2 32
q-22 -5 -34 -5l-53 -134q-11 -24 -23 -44q-13 -23 -27 -38q-14 -14 -25 -14q-10 -1 -19 8t-16.5 26.5t-11 28t-8.5 29.5l-3 13q-6 17 14 58q10 20 26 46q-18 -10 -30 -35q-17 -34 -31 -103q-8 -44 -13 -108q-4 -45 -6 -134v-30q0 -38 1 -54q0 -10 0.5 -24t0.5 -19l1 -12
q-14 -1 -26 7v4q-6 166 0 369q5 184 19 336l2 21q0 5 2 15q-22 -5 -60 -5q-36 0 -71 7q-13 4 -15 6q-5 2 -8 7q-2 6 -1 9q0 2 2 6l2 3l3 -1q42 -10 80 -12q43 -2 70 6q15 119 34 193q21 80 47 116q17 25 41 42q22 16 47 21q14 2 22 1q14 -2 20 -5q9 -4 18 -11q6 -6 13 -18
q10 -18 10 -43q1 -23 -8 -56q-21 -76 -61 -136q-39 -59 -90 -92q-11 -7 -35 -19q-22 -10 -34 -14l-3 -19l-2 -24q-7 -75 -12 -157q0 -4 -2.5 -55.5t-3.5 -77.5q13 52 31 82q31 49 74 41q12 -3 12 -9q1 -4 -6 -13q-1 -1 -12.5 -18.5t-18.5 -30.5q-23 -43 -19 -54q0 -3 3 -12
q21 -76 29 -75q5 0 12 9q9 10 21 30l24 49l48 120q-3 1 -9 5q-11 9 -11 26q0 15 9 36q4 11 13 26q10 14 14 17l5 4q4 2 5 2q6 2 8 2l7 -2q1 0 3 -2l3 -3q7 -5 6 -19.5t-4.5 -25.5t-9.5 -26.5t-7 -21.5q10 1 29 6q6 1 11 -2q4 -4 7 -11q4 -18 -11 -103zM47 593l25 10
q16 8 28 16q48 31 84 85q38 58 57 129q8 29 8 47q-2 22 -8 34q-2 4 -8 10q-3 3 -11 7q-6 3 -13 3q-5 1 -15 -1q-18 -3 -38 -17q-19 -14 -34 -35q-24 -34 -43 -108q-20 -78 -32 -180zM228 375l2 5l3 12q2 6 6.5 21l6.5 22l-3 -5q-4 -5 -11 -22q-7 -16 -7 -23q-2 -7 2 -9
q0 -1 1 -1z" />
    <glyph glyph-name="l_r" unicode="lr" horiz-adv-x="319" 
d="M242 259q-9 -45 -14 -88q-3 -43 5 -48l2 4q1 -1 3 4q1 1 1 2q7 9 15 24q13 22 50 106l2 4l13 31l2 2h2q17 -1 15 -17q-1 -5 -9 -26l-2 -4l-24 -55q-18 -38 -27 -53q-12 -23 -25 -34q-16 -13 -28 -6q-9 5 -13 18.5t-2.5 37t4 42t7.5 48.5q1 8 2 12q8 42 10 58q2 31 2 32
q-17 -5 -36 -5q-3 -13 -13 -48t-10 -36q-30 -114 -56 -180q-20 -50 -41 -77t-43 -22q-6 0 -10 3t-8 11q-7 16 -10 45q-4 31 -6 79q-2 62 -1 101q0 56 3 117q4 73 7 107q0 4 3.5 41l5.5 57q-15 -3 -35 -1q-22 0 -41 4q-6 2 -9 2l-9 3q-16 4 -21 13q-3 6 0 16l1 4l4 -1
q9 -4 20 -7q11 -4 19 -5q22 -5 39 -5q19 0 35 3q22 175 53 272q32 101 73 115q7 3 17 3t16 -1q8 -1 15 -6q8 -4 13 -9q7 -7 11 -15q5 -9 8 -18l-3 -1v-1l3 2q8 -24 8 -57q-2 -35 -10 -74q-1 -5 -9 -38q-8 -24 -13 -35q-16 -42 -45 -79q-30 -36 -63 -55q-8 -6 -26 -14
q-12 -5 -26 -10q-2 -15 -3.5 -32t-3 -38t-2.5 -32q-3 -35 -7 -110q-3 -60 -3 -115q-2 -61 1 -100q2 -54 5 -75q3 -29 9 -39v-1q24 -4 59 91q16 43 52 170l23 81q-4 1 -8 5q-11 9 -11 26q0 15 9 36q4 11 13 26q10 14 14 17l5 4q4 2 5 2q6 2 8 2l7 -2q1 0 3 -2l3 -3
q7 -5 6 -19.5t-4.5 -25.5t-9.5 -26.5t-7 -21.5q10 1 29 6q6 1 11 -2q4 -4 7 -11q4 -18 -11 -103zM210 855q0 31 -6 50q-4 10 -6 13q-2 4 -8 10l-7 6l-8 3h-10q-4 0 -10 -2q-31 -10 -61 -102q-27 -90 -47 -254l15 6q10 4 20 11q32 18 56 50q26 30 42 72l12 33l9 36q7 32 9 68
zM182 375l2 5l3 12q2 6 6.5 21l6.5 22l-3 -5q-4 -5 -11 -22q-7 -16 -7 -23q-2 -7 2 -9q0 -1 1 -1z" />
    <glyph glyph-name="m_r" unicode="mr" horiz-adv-x="422" 
d="M345 259q-9 -45 -14 -88q-3 -43 5 -48l2 4q1 -1 3 4q1 1 1 2q8 9 15 24q13 22 50 106l2 4l13 31l2 2h2q17 -1 15 -17q-1 -5 -9 -26l-2 -4l-24 -55q-18 -38 -27 -53q-12 -23 -25 -34q-16 -13 -28 -6q-9 5 -13 18.5t-2.5 37t4 42t7.5 48.5q1 8 2 12q8 42 10 58q2 31 2 32
q-22 -5 -33 -5q0 -3 -13 -42l-12 -40q-2 -8 -2 -9l-3 -10q-10 -43 -32 -95l-10 -22l-9 -16q-6 -9 -14 -14q-10 -4 -16 0q-2 0 -4 2l-4 3q-15 16 -11 141l2 61q0 15 -1 20v-1l-13 -29l-13 -31q-25 -60 -30 -70q-17 -36 -28 -39q-7 -3 -12 1q-4 2 -8 11v2q-2 24 -2 36v56
q-1 7 -1 20q0 38 -3 38t-15 -42q0 -1 -9 -34l-9 -30q-7 -20 -8 -21q-3 -9 -7 -13q-2 -3 -8 -5q-5 0 -9 4l-3 2l1 1q-2 5 -2 23q-1 13 1 46q0 6 0.5 16.5t0.5 14.5v24l1 4h11q7 0 10 -3.5t3 -16.5t-1 -19l4 13q4 20 11 36q4 12 11 23q6 6 10 7q4 3 10 1t9 -4q1 -1 2 -2.5
l2 -3t2 -3.5q4 -6 7 -23q3 -13 3 -32v-41q0 -20 1 -30v-14q14 31 32 77l16 39q5 12 13 28q8 12 16 17q8 6 16 1q16 -10 12 -116q-4 -104 2 -120q0 1 2 3l7 13q2 3 4.5 10l3.5 10q18 44 61 189l-10 6q-11 9 -11 26q0 15 9 36q4 11 13 26q10 14 14 17l5 4q4 2 5 2q6 2 8 2
l7 -2q1 0 3 -2l3 -3q7 -5 6 -19.5t-4.5 -25.5t-9.5 -26.5t-7 -21.5q10 1 29 6q6 1 11 -2q4 -4 7 -11q4 -18 -11 -103zM285 375l2 5l3 12q2 6 6.5 21l6.5 22l-3 -5q-4 -5 -11 -22q-7 -16 -7 -23q-2 -7 2 -9q0 -1 1 -1z" />
    <glyph glyph-name="n_r" unicode="nr" horiz-adv-x="335" 
d="M258 259q-9 -45 -14 -88q-3 -43 5 -48l2 4q1 -1 3 4q1 1 1 2q7 9 15 24q13 22 50 106l2 4l13 31l2 2h2q17 -1 15 -17q-1 -5 -9 -26l-2 -4l-24 -55q-18 -38 -27 -53q-12 -23 -25 -34q-16 -13 -28 -6q-9 5 -13 18.5t-2.5 37t4 42t7.5 48.5q1 8 2 12q8 42 10 58q2 31 2 32
q-19 -5 -37 -5l-24 -77l-2 -6q-49 -162 -79 -163q-16 -1 -26 17q-6 14 -8 43q0 29 1 45l3 49q4 56 4 72q-1 2 -1 7l-3 -5l-18 -36l-26 -64q-11 -31 -14 -47q0 -5 -4 -9q-5 -3 -10 -2h-4v1q-1 0 -2 3l-3 5l-2 3v2q0 1 1 2v3q0 17 1 29q3 75 3 79l1 4q12 0 16 -3q8 -3 8 -16
q0 -2 -0.5 -6t-0.5 -5l3 6l11 25q14 31 24 45q13 16 22 16q12 2 17 -10t5 -27q1 -17 -3 -74q-5 -73 -4 -91q2 -20 4 -28t4 -8q7 0 26 51q5 13 16 47l23 71t15 45l3 10q-4 1 -8 5q-11 9 -11 26q0 15 9 36q4 11 13 26q10 14 14 17l5 4q4 2 5 2q6 2 8 2l7 -2q1 0 3 -2l3 -3
q7 -5 6 -19.5t-4.5 -25.5t-9.5 -26.5t-7 -21.5q10 1 29 6q6 1 11 -2q4 -4 7 -11q4 -18 -11 -103zM198 375l2 5l3 12q2 6 6.5 21l6.5 22l-3 -5q-4 -5 -11 -22q-7 -16 -7 -23q-2 -7 2 -9q0 -1 1 -1z" />
    <glyph glyph-name="o_r" unicode="or" horiz-adv-x="311" 
d="M234 259q-9 -45 -14 -88q-3 -43 5 -48l2 4q1 -1 3 4q1 1 1 2q7 9 15 24q13 22 50 106l2 4l13 31l2 2h2q17 -1 15 -17q-1 -5 -9 -26l-2 -4l-24 -55q-18 -38 -27 -53q-12 -23 -25 -34q-16 -13 -28 -6q-9 5 -13 18.5t-2.5 37t4 42t7.5 48.5q1 8 2 12q8 42 10 58q2 31 2 32
q-20 -5 -33 -5q-16 -64 -94 -73l-4 -17q-3 -8 -8 -17q-9 -15 -18 -19q-12 -7 -24 -7q-16 0 -27 11q-11 10 -16 29q-3 7 -3 17v19q2 14 4 19q2 9 6 18q8 17 21 29q12 11 30 15q17 3 22 -5t3 -14q10 -1 16 -14q5 -9 5 -39q0 -3 13.5 0.5t29 17t19.5 33.5q-21 18 -21 31
q0 15 9 36q4 11 13 26q10 14 14 17l5 4q4 2 5 2q6 2 8 2l7 -2q1 0 3 -2l3 -3q7 -5 6 -19.5t-4.5 -25.5t-9.5 -26.5t-7 -21.5q10 1 29 6q6 1 11 -2q4 -4 7 -11q4 -18 -11 -103zM25 261q3 -11 8 -16t11 -5t11 3q6 5 10 11q4 8 5 12l4 12l-8 2q-6 2 -10 4q-14 8 -14 21
q-1 10 6 25l6 9q1 1 2 2.5t2.5 2.5t2.5 2q-6 -2 -10 -4q-13 -7 -21 -25q-2 -4 -4 -14q-3 -6 -3 -14v-15q0 -5 2 -13zM174 375l2 5l3 12q2 6 6.5 21l6.5 22l-3 -5q-4 -5 -11 -22q-7 -16 -7 -23q-2 -7 2 -9q0 -1 1 -1zM78 302v5q2 15 1 18v4l-2 -2q-3 -1 -4 -4l-3 -5
q-3 -4 -3 -9q0 -3 1 -3l6 -3q2 0 4 -1z" />
    <glyph glyph-name="p_r" unicode="pr" horiz-adv-x="377" 
d="M162 295q2 -14 0 -29q-1 -12 -5 -31q-8 -34 -27 -62q-19 -27 -43 -40l-12 -6q-4 -1 -13 -1q-10 2 -14 4q-2 1 -14 8l-9 10q-4 4 -8 12l-5 -78q-4 -61 -7 -87q16 0 39 -5q26 -7 44 -17q15 -7 17 -17q2 -5 -3 -15l-2 -3l-4 2q-21 14 -49 23q-24 6 -45 6q-15 -133 -42 -207
q-35 -93 -95 -103l-1 -1v1q-26 -3 -41 10q-15 15 -20 43q-3 16 -1 41q2 26 8 47q7 28 16 50q13 28 25 46q25 41 60 67q34 24 69 30l9 110l6 112q2 23 4 71l5 64v4h13q12 -2 11 -19q-3 -23 -3 -45q-1 -7 -1 -20q11 28 26 49q16 21 30 30l13 6q10 2 14 2q11 0 19 -4
q10 -3 16 -11q8 -7 13 -20q3 -9 7 -27zM-61 -226q25 67 39 192q-31 -8 -55 -26q-28 -21 -51 -57q-11 -17 -23 -43q-8 -20 -15 -46q-5 -20 -7 -43q-2 -22 1 -35q3 -18 12 -27q8 -7 21 -6q47 8 78 91zM193 255l2 4q23 45 37 92q-3 1 -9 5q-11 9 -11 26q0 15 9 36q4 11 13 26
q10 14 14 17l5 4q4 2 5 2q6 2 8 2l7 -2q1 0 3 -2l3 -3q7 -5 6 -19.5t-4.5 -25.5t-9.5 -26.5t-7 -21.5q10 1 29 6q6 1 11 -2q4 -4 7 -11q4 -18 -11 -103q-9 -45 -14 -88q-3 -43 5 -48l2 4q1 -1 3 4q1 1 1 2q7 9 15 24q13 22 50 106l2 4l13 31l2 2h2q17 -1 15 -17
q-1 -5 -9 -26l-2 -4l-24 -55q-18 -38 -27 -53q-12 -23 -25 -34q-16 -13 -28 -6q-9 5 -13 18.5t-2.5 37t4 42t7.5 48.5q1 8 2 12q8 42 10 58q2 31 2 32q-18 -5 -35 -5q-17 -54 -25 -71q-6 -15 -15 -24q-10 -5 -23 2zM31 190q1 -5 7 -17l6 -9q3 -4 7 -7q2 -2 6 -4t7 -2t5 1
q2 0 6 2q21 12 35 34q16 25 23 53q2 9 4 27q2 13 0 24q-1 8 -5 20q-4 10 -8 13q-4 4 -7 5q-6 2 -10 2t-7 -1q-6 -3 -7 -4q-11 -6 -24 -24t-23 -44l-11 -31q-7 -18 -7 -23v-1q0 -5 3 -14zM240 375l2 5l3 12q2 6 6.5 21l6.5 22l-3 -5q-4 -5 -11 -22q-7 -16 -7 -23q-2 -7 2 -9
q0 -1 1 -1z" />
    <glyph glyph-name="q_r" unicode="qr" horiz-adv-x="404" 
d="M17 -6q-21 -10 -41 -24l-3 -2l-6 6q-2 6 -2 9q0 6 4 11l9 8q28 15 41 20q15 6 34 9q14 69 35 131q16 49 37 93q-44 -31 -72 -36q-33 -8 -48 14q-13 16 -10 39q1 22 16 45q13 15 16 18q6 6 18 13q14 6 23 6t21 -5q14 -8 24 -25q7 -15 12 -38l17 14q2 2 10 8.5t12 10.5
l12 12l8 8q5 4 10 4q4 0 9 -5q1 -3 0 -7l-1 -6v-3l-2 -2q-35 -29 -67 -108q-32 -75 -54 -181q20 -3 39 -14q21 -12 35 -34q13 -17 21 -40q8 -21 13 -50q3 -15 5 -49q0 -26 -3 -49q-8 -50 -27 -78q-23 -32 -55 -28q-9 1 -21 7q-10 6 -18 15q-12 15 -22 43q-7 24 -10 63
q-3 28 -1 70q4 56 8 82l3 20q0 3 3 15q-18 -4 -32 -10zM87 -273q4 -6 11 -9q8 -4 12 -4q20 -3 34 21q15 23 20 63q3 22 3 45q0 16 -4 46q-5 25 -12 44t-18 36q-13 18 -28 26q-16 9 -31 10l-3 -18l-3 -22q-7 -45 -8 -79q-2 -40 1 -68q2 -33 9 -55q6 -22 17 -36zM218 254l2 4
q21 41 38 93q-4 1 -8 5q-11 9 -11 26q0 15 9 36q4 11 13 26q10 14 14 17l5 4q4 2 5 2q6 2 8 2l7 -2q1 0 3 -2l3 -3q7 -5 6 -19.5t-4.5 -25.5t-9.5 -26.5t-7 -21.5q10 1 29 6q6 1 11 -2q4 -4 7 -11q4 -18 -11 -103q-9 -45 -14 -88q-3 -43 5 -48l2 4q1 -1 3 4q1 1 1 2
q8 9 15 24q13 22 50 106l2 4l13 31l2 2h2q17 -1 15 -17q-1 -5 -9 -26l-2 -4l-24 -55q-18 -38 -27 -53q-12 -23 -25 -34q-16 -13 -28 -6q-9 5 -13 18.5t-2.5 37t4 42t7.5 48.5q1 8 2 12q8 42 10 58q2 31 2 32q-18 -5 -36 -5q-22 -63 -26 -72q-6 -15 -15 -24q-9 -5 -23 2z
M25 248q7 -10 26 -5q21 8 52 27q-5 45 -25 57q-6 2 -10 2t-12 -4t-13 -9q-8 -8 -11 -13q-10 -14 -13 -31q-2 -15 6 -24zM267 375l2 5l3 12q2 6 6.5 21l6.5 22l-3 -5q-4 -5 -11 -22q-7 -16 -7 -23q-2 -7 2 -9q0 -1 1 -1z" />
    <glyph glyph-name="r_r" unicode="rr" horiz-adv-x="328" 
d="M251 259q-9 -45 -14 -88q-3 -43 5 -48l2 4q1 -1 3 4q1 1 1 2q8 9 15 24q13 22 50 106l2 4l13 31l2 2h2q17 -1 15 -17q-1 -5 -9 -26l-2 -4l-24 -55q-18 -38 -27 -53q-12 -23 -25 -34q-16 -13 -28 -6q-9 5 -13 18.5t-2.5 37t4 42t7.5 48.5q1 8 2 12q8 42 10 58q2 31 2 32
q-22 -5 -34 -5q-3 -9 -18 -48.5t-16 -42.5l-2 -4l-24 -55q-18 -38 -27 -53q-12 -23 -25 -34q-16 -13 -28 -6q-9 5 -13 18.5t-2.5 37t4 42t7.5 48.5q1 8 2 12q8 42 10 58q2 31 2 32q-20 -5 -40 -5q-17 0 -28 8q-11 9 -11 26q0 15 9 36q4 11 13 26q10 14 14 17l5 4q4 2 5 2
q6 2 8 2l7 -2q1 0 3 -2l3 -3q7 -5 6 -19.5t-4.5 -25.5t-9.5 -26.5t-7 -21.5q10 1 29 6q6 1 11 -2q4 -4 7 -11q4 -18 -11 -103q-9 -45 -14 -88q-3 -43 5 -48l2 4q1 -1 3 4q1 1 1 2q8 9 15 24q13 22 50 106l2 4l33 83l-10 6q-11 9 -11 26q0 15 9 36q4 11 13 26q10 14 14 17
l5 4q4 2 5 2q6 2 8 2l7 -2q1 0 3 -2l3 -3q7 -5 6 -19.5t-4.5 -25.5t-9.5 -26.5t-7 -21.5q10 1 29 6q6 1 11 -2q4 -4 7 -11q4 -18 -11 -103zM27 375l2 5l3 12q2 6 6.5 21l6.5 22l-3 -5q-4 -5 -11 -22q-7 -16 -7 -23q-2 -7 2 -9q0 -1 1 -1zM191 375l2 5l3 12q2 6 6.5 21
l6.5 22l-3 -5q-4 -5 -11 -22q-7 -16 -7 -23q-2 -7 2 -9q0 -1 1 -1z" />
    <glyph glyph-name="s_r" unicode="sr" horiz-adv-x="373" 
d="M296 259q-9 -45 -14 -88q-3 -43 5 -48l2 4q1 -1 3 4q1 1 1 2q7 9 15 24q13 22 50 106l2 4l13 31l2 2h2q17 -1 15 -17q-1 -5 -9 -26l-2 -4l-24 -55q-18 -38 -27 -53q-12 -23 -25 -34q-16 -13 -28 -6q-9 5 -13 18.5t-2.5 37t4 42t7.5 48.5q1 8 2 12q8 42 10 58q2 31 2 32
q-17 -5 -35 -5q-19 -36 -63 -96.5t-60 -86.5q13 -25 15 -33q6 -17 4 -32q0 -7 -4 -17q-3 -6 -11 -14q-8 -5 -15 -5q-7 -1 -16 4q-8 4 -14 15q-5 10 -5 24q0 17 4 30q4 14 12 28q-1 2 -6.5 9.5l-8.5 11.5l-22 24q-22 22 -39 44q-15 22 -21 39q-2 7 -4 17q0 10 1 15q2 8 4 13
l9 11q1 2 11 9l13 6q12 4 24 3q13 -2 21 -7l9 -8l6 -9q2 -3 4 -11q2 -5 0 -11q0 -7 -3 -15t-9 -14q-13 -16 -25 -6q-4 4 -5 6l-1 1l-2 3l3 2q9 6 13 13q3 4 5 12q0 3 -1 4q0 1 -0.5 2.5t-0.5 2.5l-3 4l-4 3q-5 3 -10 3q-8 0 -13 -2q-6 -2 -8 -4q-2 -1 -4 -2.5t-3 -1.5l-4 -5
l-2 -6v-9l3 -11q4 -13 18 -33q10 -13 36 -41l20 -22q2 -3 7 -9t7 -9l44 60l50.5 70t18.5 34q-4 1 -8 5q-11 9 -11 26q0 15 9 36q4 11 13 26q10 14 14 17l5 4q4 2 5 2q6 2 8 2l7 -2q1 0 3 -2l3 -3q6 -2 4.5 -18t-4.5 -27t-8.5 -27.5t-6.5 -20.5q10 1 29 6q6 1 11 -2
q4 -4 7 -11q4 -18 -11 -103zM121 123l-7 17l-4 -13q-2 -7 -2 -20q0 -6 2 -12q1 -3 4 -6h4l4 5q1 2 1 8q1 8 -2 21zM236 375q8 18 18 60l-3 -5q-4 -5 -11 -22q-12 -25 -4 -33z" />
    <glyph glyph-name="t_r" unicode="tr" horiz-adv-x="298" 
d="M221 259q-9 -45 -14 -88q-3 -43 5 -48l2 4q1 -1 3 4q1 1 1 2q8 9 15 24q13 22 50 106l2 4l13 31l2 2h2q17 -1 15 -17q-1 -5 -9 -26l-2 -4l-24 -55q-18 -38 -27 -53q-12 -23 -25 -34q-16 -13 -28 -6q-9 5 -13 18.5t-2.5 37t4 42t7.5 48.5q1 8 2 12q8 42 10 58q2 31 2 32
q-17 -5 -36 -5q0 -3 -2 -13q-12 -71 -55 -242q-20 -82 -44 -100q-8 -8 -20 -6q-11 3 -20 15q-14 19 -22 56t-10.5 102.5t-2.5 111.5t2 138q0 191 2 249q-134 4 -166 -30q-8 8 -6 17.5t7 12.5q40 24 166 24q11 211 50 262q11 15 19 14q5 0 15 -10l2 -4l-3 -2
q-48 -34 -57 -260q33 0 49 0.5t38.5 2.5t34 7.5t16.5 14.5q9 -4 8 -15t-6 -14q-28 -18 -141 -20q-2 -59 -2 -250q-6 -131 -1 -246t28 -146l4 -4h1q20 16 38 101q42 176 55 237q-5 1 -9 5q-11 9 -11 26q0 15 9 36q4 11 13 26q10 14 14 17l5 4q4 2 5 2q6 2 8 2l7 -2q1 0 3 -2
l3 -3q7 -5 6 -19.5t-4.5 -25.5t-9.5 -26.5t-7 -21.5q10 1 29 6q6 1 11 -2q4 -4 7 -11q4 -18 -11 -103zM161 375l2 5l3 12q2 6 6.5 21l6.5 22l-3 -5q-4 -5 -11 -22q-7 -16 -7 -23q-2 -7 2 -9q0 -1 1 -1z" />
    <glyph glyph-name="u_r" unicode="ur" horiz-adv-x="335" 
d="M258 259q-9 -45 -14 -88q-3 -43 5 -48l2 4q1 -1 3 4q1 1 1 2q7 9 15 24q13 22 50 106l2 4l13 31l2 2h2q17 -1 15 -17q-1 -5 -9 -26l-2 -4l-24 -55q-18 -38 -27 -53q-12 -23 -25 -34q-16 -13 -28 -6q-9 5 -13 18.5t-2.5 37t4 42t7.5 48.5q1 8 2 12q8 42 10 58q2 31 2 32
q-20 -5 -32 -5q-27 -111 -63 -199q-20 -48 -37 -48q-21 1 -28 45q-5 30 -3 90q0 3 0.5 9t0.5 10l-2 -4q-1 -4 -10 -21q-11 -18 -25 -26q-13 -6 -26 -2t-20 22q-4 12 -6 42q0 22 3 47l6 51l1 2l2 1q11 3 17 -3q4 -6 3 -21q-4 -25 -5 -41q-2 -26 -2 -36q0 -18 3 -30
q2 -10 5 -10q5 -2 9 1q6 4 13 16q9 15 19 42q8 25 21 71q1 6 5 10q4 3 11 1q7 -1 9 -15q0 -5 -2 -29q0 -8 -2 -39t-3 -49q-2 -56 0 -77q2 -32 7 -32q4 0 17 40q31 86 58 184l-12 6q-11 9 -11 26q0 15 9 36q4 11 13 26q10 14 14 17l5 4q4 2 5 2q6 2 8 2l7 -2q1 0 3 -2l3 -3
q7 -5 6 -19.5t-4.5 -25.5t-9.5 -26.5t-7 -21.5q10 1 29 6q6 1 11 -2q4 -4 7 -11q4 -18 -11 -103zM198 375l2 5l3 12q2 6 6.5 21l6.5 22l-3 -5q-4 -5 -11 -22q-7 -16 -7 -23q-2 -7 2 -9q0 -1 1 -1z" />
    <glyph glyph-name="v_r" unicode="vr" horiz-adv-x="350" 
d="M273 259q-9 -45 -14 -88q-3 -43 5 -48l2 4q1 -1 3 4q1 1 1 2q8 9 15 24q13 22 50 106l2 4l13 31l2 2h2q17 -1 15 -17q-1 -5 -9 -26l-2 -4l-24 -55q-18 -38 -27 -53q-12 -23 -25 -34q-16 -13 -28 -6q-9 5 -13 18.5t-2.5 37t4 42t7.5 48.5q1 8 2 12q8 42 10 58q2 31 2 32
q-17 -5 -36 -5q-17 -54 -25 -71q-6 -15 -15 -24q-10 -5 -23 2l2 4q23 45 37 92q-4 1 -8 5q-11 9 -11 26q0 15 7 32q-4 -1 -20 -7q-18 -7 -35 -7q-1 -19 -7 -50q-5 -27 -17 -60q-6 -16 -20 -46q-4 -9 -22 -42q-13 -20 -24 -32q-10 -12 -21 -17q-10 -6 -18 -3t-13 12
q-8 17 -5 70q1 30 8 86l3 28v4h4q12 -1 16 -5t3 -16q0 -1 -0.5 -5t-0.5 -6l-1 -3q-7 -79 -7 -82q-3 -42 1 -58q5 3 14 13q10 12 19 28q8 11 22 39q10 20 18 44q11 29 17 56q4 22 6 46q-10 2 -16 4q-8 3 -17 8q-15 9 -25 22q-9 12 -16 29q-4 12 -4 28q2 15 8 21q5 6 13 8
q7 2 15 -1q30 -11 47 -36q16 -25 19 -59q17 0 38 9q23 8 38 18l9 9l5 4q4 2 5 2q6 2 8 2l7 -2q1 0 3 -2l3 -3q7 -5 6 -19.5t-4.5 -25.5t-9.5 -26.5t-7 -21.5q10 1 29 6q6 1 11 -2q4 -4 7 -11q4 -18 -11 -103zM96 470q-14 19 -35 26h-1q-1 -1 -1 -8t3 -16q3 -11 12 -22
q9 -10 18 -15l11 -6q4 -2 8 -2q-3 25 -15 43zM213 375l2 5l3 12q2 6 6.5 21l6.5 22l-3 -5q-4 -5 -11 -22q-7 -16 -7 -23q-2 -7 2 -9q0 -1 1 -1zM16 171h1l-1 1v-1z" />
    <glyph glyph-name="w_r" unicode="wr" horiz-adv-x="494" 
d="M22 261q-1 -18 -1 -52q2 -21 4 -27q2 -8 4 -8q16 1 48 116l7 23q5 11 13 11q6 0 9 -4q4 -3 4 -10v-19q4 -104 5 -117q6 -72 16 -73h3q9 1 22 17q15 18 26 45q15 32 25 67q12 35 18 76l6 46q1 14 1 40q-11 2 -25 11q-12 7 -21 18q-15 17 -22 39q-6 21 0 36q4 10 8 14
q5 6 12 10q10 4 16 4q10 0 15 -2q12 -4 24 -19q9 -15 12 -33q2 -9 4 -29q2 -18 2 -27h6q6 0 9 1q26 2 47 11q20 8 30 15l2 3q10 14 14 17l5 4q4 2 5 2q6 2 8 2l7 -2q1 0 3 -2l3 -3q7 -5 6 -19.5t-4.5 -25.5t-9.5 -26.5t-7 -21.5q10 1 29 6q6 1 11 -2q4 -4 7 -11
q4 -18 -11 -103q-9 -45 -14 -88q-3 -43 5 -48l2 4q1 -1 3 4q1 1 1 2q8 9 15 24q13 22 50 106l2 4l13 31l2 2h2q17 -1 15 -17q-1 -5 -9 -26l-2 -4l-24 -55q-18 -38 -27 -53q-12 -23 -25 -34q-16 -13 -28 -6q-9 5 -13 18.5t-2.5 37t4 42t7.5 48.5q1 8 2 12q8 42 10 58
q2 31 2 32q-19 -5 -37 -5q-16 -50 -25 -70q-6 -15 -15 -24q-9 -5 -23 2l2 4q23 45 37 92q-6 3 -7 4q-11 9 -11 26q0 11 4 22l-17 -6q-18 -6 -42 -8q-3 -1 -11 -1h-6q0 -27 -2 -40q-1 -23 -6 -47q-6 -42 -18 -79q-10 -38 -26 -71q-15 -34 -33 -53q-19 -20 -34 -23h-11
q-22 4 -33 69q-6 44 -8 88q-8 -27 -18 -46q-17 -37 -38 -38q-17 -1 -25 17t-8 42q-2 33 5 106q0 3 0.5 9t0.5 10q1 6 1 14l1 4h3q13 0 18 -11q3 -8 1 -28q-4 -28 -5 -51zM232 418l-2 22l-3 26q-2 11 -8 22q-7 9 -12 10q-2 1 -6 1t-6 -1l-4 -4q-2 -2 -4 -6q-3 -10 1 -23
q6 -16 17 -28q7 -8 14 -12q5 -4 13 -7zM357 375l2 5l3 12q2 6 6.5 21l6.5 22l-3 -5q-4 -5 -11 -22q-7 -16 -7 -23q-2 -7 2 -9q0 -1 1 -1z" />
    <glyph glyph-name="x_r" unicode="xr" horiz-adv-x="421" 
d="M344 259q-9 -45 -14 -88q-3 -43 5 -48l2 4q1 -1 3 4q1 1 1 2q7 9 15 24q13 22 50 106l2 4l13 31l2 2h2q17 -1 15 -17q-1 -5 -9 -26l-2 -4l-24 -55q-18 -38 -27 -53q-12 -23 -25 -34q-16 -13 -28 -6q-9 5 -13 18.5t-2.5 37t4 42t7.5 48.5q1 8 2 12q8 42 10 58q2 31 2 32
q-17 -5 -34 -5q-6 -28 -28.5 -89t-35.5 -90q-22 -44 -43 -47q-25 -7 -51 22q-17 17 -46 64q-16 -17 -34 -31q-22 -17 -46 -30q-15 -7 -22 -3q-4 2 -11 15l4 2q32 14 54 31q19 14 42 39q-8 13 -12 22q-14 26 -27 47q-5 9 -15.5 25.5t-12.5 20.5l-3 4l4 2q8 7 15 6t16 -16
q5 -8 23 -39l22 -38l5 -9q1 -2 1 -3q16 23 31 64q12 40 13 72q-19 5 -33 16q-16 12 -28 31q-1 0 -1 1q-7 13 -10 22q-3 12 -3 22t4 22q4 10 13 15h1v1q13 7 25 6q11 -3 24 -12q8 -8 14 -20q6 -10 11 -28q5 -12 6 -27q2 -18 2 -27q15 0 35 5t42 19l5 2l1 -5q2 -13 0 -18
q-5 -9 -20 -14q-21 -9 -35 -11q-14 -3 -28 -3q-3 -44 -16 -82q-17 -44 -39 -74q24 -44 41 -64q21 -23 34 -20h1q12 2 39.5 73t46.5 132q-5 1 -9 5q-11 9 -11 26q0 15 9 36q4 11 13 26q10 14 14 17l5 4q4 2 5 2q6 2 8 2l7 -2q1 0 3 -2l3 -3q7 -5 6 -19.5t-4.5 -25.5
t-9.5 -26.5t-7 -21.5q10 1 29 6q6 1 11 -2q4 -4 7 -11q4 -18 -11 -103zM144 415l-2 21q-1 10 -5 23q-3 10 -8 21q-4 8 -10 14q-5 5 -10 5q-4 1 -9 -2q-2 -1 -4 -5q-2 -6 -2 -11t2 -15q3 -10 7 -16v-1h1q9 -15 20 -23q10 -8 20 -11zM284 375l2 5l3 12q2 6 6.5 21l6.5 22
l-3 -5q-4 -5 -11 -22q-7 -16 -7 -23q-2 -7 2 -9q0 -1 1 -1z" />
    <glyph glyph-name="y_r" unicode="yr" horiz-adv-x="343" 
d="M266 259q-9 -45 -14 -88q-3 -43 5 -48l2 4q1 -1 3 4q1 1 1 2q7 9 15 24q13 22 50 106l2 4l13 31l2 2h2q17 -1 15 -17q-1 -5 -9 -26l-2 -4l-24 -55q-18 -38 -27 -53q-12 -23 -25 -34q-16 -13 -28 -6q-9 5 -13 18.5t-2.5 37t4 42t7.5 48.5q1 8 2 12q8 42 10 58q2 31 2 32
q-17 -5 -35 -5q-16 -50 -25 -70q-6 -15 -15 -24q-10 -5 -23 2l2 4q20 40 37 91q-5 1 -9 5q-11 9 -11 26q0 15 9 36q4 11 13 26q10 14 14 17l5 4q4 2 5 2q6 2 8 2l7 -2q1 0 3 -2l3 -3q7 -5 6 -19.5t-4.5 -25.5t-9.5 -26.5t-7 -21.5q10 1 29 6q6 1 11 -2q4 -4 7 -11
q4 -18 -11 -103zM206 375l2 5l3 12q2 6 6.5 21l6.5 22l-3 -5q-4 -5 -11 -22q-7 -16 -7 -23q-2 -7 2 -9q0 -1 1 -1zM7 352q15 1 19 -7t1 -28t-3 -23q-7 -56 -7 -81q6 7 18 28q16 29 27 53q15 30 22 41q12 19 21 18q7 0 12 -6q3 -6 3 -16v-45q0 -160 -7 -255q0 -8 -2 -24
q0 -11 -1 -18q19 4 46 4q23 0 56 -5q16 -3 22 -9q5 -5 2 -17l-2 -4l-3 1q-38 8 -66 8q-21 1 -57 -3q-15 -139 -46 -215q-41 -95 -108 -91q-22 2 -35 18q-13 15 -18 42q-2 12 -2 38q2 20 6 41q6 23 15 45q14 28 23 41q26 40 63 65q35 26 78 37q2 14 2 21q2 18 2 26
q4 71 6 139q1 44 1 115v18l-10 -21l-35 -65q-21 -33 -37 -36q-7 -2 -13 4q-4 4 -6 15q-3 12 -1 40l6 56l5 51v4h3zM41 -237q28 72 40 195q-36 -12 -63 -33q-32 -24 -54 -56q-10 -15 -21 -37q-8 -19 -13 -40q-5 -20 -6 -37q0 -23 2 -32q3 -19 11 -30q8 -10 18 -10
q53 -4 86 80z" />
    <glyph glyph-name="z_r" unicode="&#x7a;r" horiz-adv-x="396" 
d="M8 336q10 18 24 28q11 10 23 14q13 5 24 5q14 0 24 -7t13 -20q3 -15 -5 -38q-7 -20 -30 -53q17 2 23 1q22 -3 38 -16q16 -12 29 -36q16 -30 23 -71q8 -39 8 -95v-27l25 3q10 0 30 -2q21 -4 21 -23q0 -1 -1 -7l-4 1q-23 5 -39 5q-15 1 -33 -2q-1 -33 -8 -73
q-4 -33 -14 -73q-17 -71 -44 -117q-25 -46 -57 -55q-16 -6 -30 -1q-12 4 -22 17q-11 16 -14 40q-2 20 1 55q5 33 16 62q11 31 27 59q26 43 56 68q31 27 65 37q1 21 1 33q-2 56 -8 90q-8 38 -21 65q-9 17 -22 27q-11 10 -26 11q-13 1 -33 -7q-11 -6 -19 -14q-6 -4 -8 -4
q-4 -1 -10 3q-10 7 0 20q15 18 33 44q15 23 23 41q7 16 5 27q-2 4 -4 5q-4 2 -9 2q-8 0 -16 -4q-10 -4 -16 -9q-15 -12 -21 -29q-5 -15 0 -34l1 -4l-3 -1q-3 -1 -8 -1q-4 0 -9 3q-4 3 -7 10q-2 7 -1 13q0 16 9 34zM168 -76q3 19 7 64q-29 -11 -50 -32q-27 -23 -47 -59
q-13 -19 -26 -54q-10 -34 -14 -58q-4 -30 -1 -46q2 -21 9 -31q6 -6 10 -7q7 -2 14 1q24 7 46 46q23 40 39 108q10 43 13 68zM214 257l2 4q22 44 36 89l-10 6q-11 9 -11 26q0 15 9 36q4 11 13 26q10 14 14 17l5 4q4 2 5 2q6 2 8 2l7 -2q1 0 3 -2l3 -3q7 -5 6 -19.5
t-4.5 -25.5t-9.5 -26.5t-7 -21.5q10 1 29 6q6 1 11 -2q4 -4 7 -11q4 -18 -11 -103q-9 -45 -14 -88q-3 -43 5 -48l2 4q1 -1 3 4q1 1 1 2q8 9 15 24q13 22 50 106l2 4l13 31l2 2h2q17 -1 15 -17q-1 -5 -9 -26l-2 -4l-24 -55q-18 -38 -27 -53q-12 -23 -25 -34q-16 -13 -28 -6
q-9 5 -13 18.5t-2.5 37t4 42t7.5 48.5q1 8 2 12q8 42 10 58q2 31 2 32q-22 -5 -33 -5q-17 -50 -25 -69q-6 -15 -15 -24q-9 -5 -23 2zM259 375l2 5l3 12q2 6 6.5 21l6.5 22l-3 -5q-4 -5 -11 -22q-7 -16 -7 -23q-2 -7 2 -9q0 -1 1 -1z" />
    <glyph glyph-name="a_x" unicode="ax" horiz-adv-x="427" 
d="M242 303l22 -38l5 -9q1 -2 1 -3q16 23 31 64q12 40 13 72q-19 5 -33 16q-16 12 -28 31q-1 0 -1 1q-7 13 -10 22q-3 12 -3 22t4 22q4 10 13 15h1v1q13 7 25 6q11 -3 24 -12q8 -8 14 -20q6 -10 11 -28q5 -12 6 -27q2 -18 2 -27q15 0 35 5t42 19l5 2l1 -5q2 -13 0 -18
q-5 -9 -20 -14q-21 -9 -35 -11q-14 -3 -28 -3q-3 -44 -16 -82q-17 -44 -39 -74q24 -44 41 -64q21 -23 34 -20h1q19 3 56 124l1 1l3 12l2 4l3 -1q2 0 3 -1q7 -1 11 -9q1 -7 0 -15q0 -2 -2 -8q-19 -59 -30 -84q-22 -44 -43 -47q-25 -7 -51 22q-17 17 -46 64q-16 -17 -34 -31
q-22 -17 -46 -30q-15 -7 -22 -3q-4 2 -11 15l4 2q32 14 54 31q19 14 42 39q-8 13 -12 22q-14 26 -27 47l-12 19q-42 -148 -62 -156q-1 0 -3 -1h-1h-5q-8 0 -16 6q-7 7 -12 17q-3 8 -6 19q-4 13 -5 24l-3 22v9l-2 -2l-9 -14l-15 -18l-16 -14l-17 -10q-9 -3 -17 -3l-8 2
q-4 2 -7 4q-15 10 -17 31q-2 22 9 45q6 14 10 20q8 12 13 18q8 10 16 15q6 6 16 10q4 2 12 4h11q10 -2 14 -6t4 -6q1 -3 1 -7q-1 -7 -6 -13l-3 -3l-3 3q-4 5 -9 7q-7 0 -11 -2q-2 0 -3 -1.5l-2 -3t-3 -2.5q-4 -3 -10 -11q-8 -10 -11 -15l-8 -16q-5 -10 -8 -23.5t2 -23.5
q1 0 1 -1h1q2 0 8 2q2 1 5 3t5 3q9 6 13 12l13 15q14 20 22 42q8 25 11 47l1 4h6q2 -1 5 -1q13 -2 11 -24q-2 -16 -2 -49q2 -30 4 -45l5 -22q1 -7 5 -15l5 -8q4 14 24.5 73l24.5 71q1 3 1 5l3 11v1l-1 2l4 2q8 7 15 6t16 -16q5 -8 23 -39zM314 415l-2 21q-1 10 -5 23
q-3 10 -8 21q-4 8 -10 14q-5 5 -10 5q-4 1 -9 -2q-2 -1 -4 -5q-2 -6 -2 -11t2 -15q3 -10 7 -16v-1h1q9 -15 20 -23q10 -8 20 -11z" />
    <glyph glyph-name="b_x" unicode="bx" horiz-adv-x="409" 
d="M224 303l22 -38l5 -9q1 -2 1 -3q16 23 31 64q12 40 13 72q-19 5 -33 16q-16 12 -28 31q-1 0 -1 1q-7 13 -10 22q-3 12 -3 22t4 22q4 10 13 15h1v1q13 7 25 6q11 -3 24 -12q8 -8 14 -20q6 -10 11 -28q5 -12 6 -27q2 -18 2 -27q15 0 35 5t42 19l5 2l1 -5q2 -13 0 -18
q-5 -9 -20 -14q-21 -9 -35 -11q-14 -3 -28 -3q-3 -44 -16 -82q-17 -44 -39 -74q24 -44 41 -64q21 -23 34 -20h1q19 3 56 124l1 1l3 12l2 4l3 -1q2 0 3 -1q7 -1 11 -9q1 -7 0 -15q0 -2 -2 -8q-19 -59 -30 -84q-22 -44 -43 -47q-25 -7 -51 22q-17 17 -46 64q-16 -17 -34 -31
q-22 -17 -46 -30q-15 -7 -22 -3q-4 2 -11 15l4 2q32 14 54 31q19 14 42 39q-8 13 -12 22q-14 26 -27 47l-17 27q-15 -44 -33.5 -60t-45.5 -14q0 -5 -9 -33q-6 -18 -15 -22q-12 -6 -23 -4q-13 3 -21 13q-10 11 -20 38q-8 29 -14 62q-6 40 -8 74q-3 41 -3 87q0 10 0.5 28
t0.5 28l2 51l-12 -3l-18 -4q-41 -8 -68 -9q-37 -2 -69 1q-10 1 -15.5 5t-6 7t-0.5 9v2l-1 5l5 -1q40 -4 76 -3q28 0 74 8l20 5q8 1 17 5q11 147 44 243q31 94 76 106q20 3 32 2q14 -1 27 -8q9 -6 20 -20q8 -15 11 -30t3 -33q0 -19 -3 -38q-11 -60 -42 -114q-28 -53 -71 -87
q-14 -11 -34 -22q-11 -7 -39 -17l-3 -57q-1 -20 -1 -59q0 -44 3 -85q4 -49 8 -72q5 -34 12 -56q8 -23 16 -31q2 -3 6 -5q5 0 7 1q3 2 8 16q4 12 6 33q-7 5 -10 11q-8 10 -11 16l-9 18l-7 17q-2 13 0 17q2 9 9 10q10 3 20 1q9 -3 16 -10q5 -5 9 -12q4 -9 5 -17q0 -1 3 -17
v-19v-4q17 -7 29 5.5t21.5 36.5t11.5 27v1q11 9 18.5 8t16.5 -16q5 -8 23 -39zM181 861q0 20 -2 29q-3 10 -8 21q-5 7 -12 12q-7 4 -17 6q-10 0 -23 -3q-34 -8 -62 -92q-28 -87 -39 -223l29 13q20 12 27 18q40 32 66 80q28 50 38 106q3 18 3 33zM296 415l-2 21q-1 10 -5 23
q-3 10 -8 21q-4 8 -10 14q-5 5 -10 5q-4 1 -9 -2q-2 -1 -4 -5q-2 -6 -2 -11t2 -15q3 -10 7 -16v-1h1q9 -15 20 -23q10 -8 20 -11zM85 286l2 9q5 22 -13 43q-3 4 -6 6q-6 3 -9 -1q-1 -3 0 -7q1 -2 5 -16q1 -2 4 -7.5t5 -8.5l3 -5q2 -2 4 -6z" />
    <glyph glyph-name="c_x" unicode="cx" horiz-adv-x="368" 
d="M183 303l22 -38l5 -9q1 -2 1 -3q16 23 31 64q12 40 13 72q-19 5 -33 16q-16 12 -28 31q-1 0 -1 1q-7 13 -10 22q-3 12 -3 22t4 22q4 10 13 15h1v1q13 7 25 6q11 -3 24 -12q8 -8 14 -20q6 -10 11 -28q4 -12 6 -27q2 -18 2 -27q15 0 35 5t42 19l5 2l1 -5q2 -13 0 -18
q-5 -9 -20 -14q-21 -9 -35 -11q-13 -3 -28 -3q-3 -44 -16 -82q-17 -44 -39 -74q24 -44 41 -64q21 -23 34 -20h1q19 3 56 124l1 1l3 12l2 4l3 -1q2 0 3 -1q7 -1 11 -9q1 -7 0 -15q0 -2 -2 -8q-19 -59 -30 -84q-22 -44 -43 -47q-25 -7 -51 22q-17 17 -46 64q-16 -17 -34 -31
q-22 -17 -46 -30q-15 -7 -22 -3q-4 2 -11 15l4 2q32 14 54 31q19 14 42 39q-8 13 -12 22q-14 26 -27 47l-19 31q-3 -4 -10 -14.5l-12 -18.5t-14 -19l-16 -19t-17 -15.5t-19 -11t-19 -3.5t-20 5q-12 7 -14 30q-2 24 7 46q4 12 7 17q3 8 9 15v-1q4 7 12 14q8 6 13 8q10 3 17 2
q8 -1 16 -6q13 -10 5 -22q-4 -4 -6 -5v-1l-3 -2l-3 3q-6 6 -9 7q-5 2 -8 0q-4 -2 -7 -4t-7 -8l-7 -11l-6 -14q-6 -17 -6 -32q0 -13 5 -16q8 -7 28 4q12 6 25 21.5t29.5 42t17.5 27.5l4 2q8 7 15 6t16 -16q5 -8 23 -39zM255 415l-2 21q-1 10 -5 23q-2 10 -8 21q-4 8 -10 14
q-5 5 -10 5q-4 1 -9 -2q-2 -1 -4 -5q-2 -6 -2 -11t2 -15q3 -10 7 -16v-1h1q9 -15 20 -23q10 -8 20 -11z" />
    <glyph glyph-name="d_x" unicode="dx" horiz-adv-x="531" 
d="M346 303l22 -38l5 -9q1 -2 1 -3q16 23 31 64q12 40 13 72q-19 5 -33 16q-16 12 -28 31q-1 0 -1 1q-7 13 -10 22q-3 12 -3 22t4 22q4 10 13 15h1v1q13 7 25 6q11 -3 24 -12q8 -8 14 -20q6 -10 11 -28q5 -12 6 -27q2 -18 2 -27q15 0 35 5t42 19l5 2l1 -5q2 -13 0 -18
q-5 -9 -20 -14q-21 -9 -35 -11q-14 -3 -28 -3q-3 -44 -16 -82q-17 -44 -39 -74q24 -44 41 -64q21 -23 34 -20h1q19 3 56 124l1 1l3 12l2 4l3 -1q2 0 3 -1q7 -1 11 -9q1 -7 0 -15q0 -2 -2 -8q-19 -59 -30 -84q-22 -44 -43 -47q-25 -7 -51 22q-17 17 -46 64q-16 -17 -34 -31
q-22 -17 -46 -30q-15 -7 -22 -3q-2 1 -3 3t-1.5 6t-2.5 7l4 2q25 11 50 30q19 14 42 39q-8 13 -12 22q-14 26 -27 47l-14 23q0 -1 -0.5 -3t-0.5 -3q-38 -135 -51 -175q-18 -51 -34 -84l-14 -25q-1 -1 -6 -7.5t-8 -9.5q-7 -8 -18 -11q-10 -1 -19 3l-7 6l-6 8q-15 25 -23 76
q-9 65 -9 127v21q-9 -9 -33 -37q-18 -18 -27 -23l-7 -4l-8 -2q-10 -2 -18 0q-8 1 -15 7q-5 3 -11 13q-4 7 -6 19q-1 9 0 19q0 9 3 21q7 33 21 57q15 28 33 40q7 6 17 9q6 3 18 5q8 0 12 -1l11 -3q8 -4 11 -7l2 -3q3 45 11 105q7 64 16 106q-17 0 -49 2q-38 4 -57 8
q-19 3 -25 9q-8 7 -5 19l1 3l4 -1q36 -7 72 -12q35 -3 64 -2l5 22q1 9 5 25q30 121 69 194q39 77 90 109q14 10 33 15q16 6 35 6q9 0 21 -2q7 -2 19 -8q16 -10 22 -23q9 -15 12 -35t2 -39q-4 -28 -8 -44q-10 -41 -35 -86q-26 -44 -57 -75t-67 -49q-36 -19 -83 -29l-22 -3
q-14 -2 -21 -2q-16 -88 -23 -171q-9 -88 -7 -172q0 -68 8 -122q8 -49 20 -69l3 -4q1 -1 2 -1h1q4 2 6 4q9 12 10 14l12 21q20 39 37 90q8 23 53 187l1 4l1 -1v1l4 2q8 7 15 6t16 -16q5 -8 23 -39zM165 594q43 1 82 15t65 35t39 33.5t19 21.5q16 20 29 45q21 38 30 75
q6 25 7 39q1 13 -1 35q-3 13 -9 26q-6 10 -16 17q-8 4 -13 5q-10 2 -16 2q-30 0 -57 -18q-46 -29 -84 -102q-37 -71 -65 -188l-6 -22q-2 -12 -4 -19zM9 222q1 -3 2.5 -7t8.5 -10.5t17 3.5q13 9 21 19l21 22q6 10 29 46v5q0 11 -3 20q-3 10 -7 15l-4 5l-5 3l-5 2h-6
q-5 0 -11 -3q-8 -4 -12 -7q-12 -8 -26 -32q-14 -26 -18 -49q-2 -12 -2 -18v-14zM418 415l-2 21q-1 10 -5 23q-3 10 -8 21q-4 8 -10 14q-5 5 -10 5q-4 1 -9 -2q-2 -1 -4 -5q-2 -6 -2 -11t2 -15q3 -10 7 -16v-1h1q9 -15 20 -23q10 -8 20 -11z" />
    <glyph glyph-name="e_x" unicode="ex" horiz-adv-x="372" 
d="M99 255l30 92v2v1l4 2q8 7 15 6t16 -16q5 -8 23 -39l22 -38l5 -9q1 -2 1 -3q16 23 31 64q12 40 13 72q-19 5 -33 16q-16 12 -28 31q-1 0 -1 1q-7 13 -10 22q-3 12 -3 22t4 22q4 10 13 15h1v1q13 7 25 6q11 -3 24 -12q8 -8 14 -20q6 -10 11 -28q4 -12 6 -27q2 -18 2 -27
q15 0 35 5t42 19l5 2l1 -5q2 -13 0 -18q-5 -9 -20 -14q-21 -9 -35 -11q-13 -3 -28 -3q-3 -44 -16 -82q-17 -44 -39 -74q24 -44 41 -64q21 -23 34 -20h1q19 3 56 124l1 1l3 12l2 4l3 -1q2 0 3 -1q7 -1 11 -9q1 -7 0 -15q0 -2 -2 -8q-19 -59 -30 -84q-22 -44 -43 -47
q-25 -7 -51 22q-17 17 -46 64q-16 -17 -34 -31q-22 -17 -46 -30q-15 -7 -22 -3q-4 2 -11 15l4 2q32 14 54 31q19 14 42 39q-8 13 -12 22q-14 26 -27 47l-14 22v-3l-28 -82q-7 -16 -13 -28q-10 -20 -20 -30q-11 -11 -22 -11q-10 3 -11 3q-4 1 -12 5q-13 9 -19 19q-7 9 -14 29
q-6 20 -7 32q-1 11 -1 34q2 19 6 33t13 28q4 7 9 12q3 4 9 8q4 3 8 3q3 1 9 1q6 -2 8 -4q4 -1 7 -6q4 -6 5 -10q2 -5 4 -13q1 -15 0 -33q-3 -16 -11 -34t-16 -27q-14 -16 -18 -19q3 -12 9 -19q6 -9 13 -13l5 -3q1 0 3 -0.5t3 -0.5q2 0 5 6q7 9 13 22q6 10 16 34zM259 415
l-2 21q-1 10 -5 23q-2 10 -8 21q-4 8 -10 14q-5 5 -10 5q-4 1 -9 -2q-2 -1 -4 -5q-2 -6 -2 -11t2 -15q3 -10 7 -16v-1h1q9 -15 20 -23q10 -8 20 -11zM52 337q0 4 -2 8q0 2 -2 4l-4 -3l-5 -8q-4 -6 -10 -22q-4 -18 -5 -28v-19q0 -9 1 -13q1 1 2.5 3t3 4.5t2.5 3.5q5 7 11 18
q4 8 8 28q2 13 0 24z" />
    <glyph glyph-name="h_x" unicode="hx" horiz-adv-x="471" 
d="M286 303l22 -38l5 -9q1 -2 1 -3q16 23 31 64q12 40 13 72q-19 5 -33 16q-16 12 -28 31q-1 0 -1 1q-7 13 -10 22q-3 12 -3 22t4 22q4 10 13 15h1v1q13 7 25 6q11 -3 24 -12q8 -8 14 -20q6 -10 11 -28q5 -12 6 -27q2 -18 2 -27q15 0 35 5t42 19l5 2l1 -5q2 -13 0 -18
q-5 -9 -20 -14q-21 -9 -35 -11q-13 -3 -28 -3q-3 -44 -16 -82q-17 -44 -39 -74q24 -44 41 -64q21 -23 34 -20h1q19 3 56 124l1 1l3 12l2 4l3 -1q2 0 3 -1q7 -1 11 -9q1 -7 0 -15q0 -2 -2 -8q-19 -59 -30 -84q-22 -44 -43 -47q-25 -7 -51 22q-17 17 -46 64q-16 -17 -34 -31
q-22 -17 -46 -30q-15 -7 -22 -3q-4 2 -11 15l4 2q32 14 54 31q19 14 42 39q-8 13 -12 22q-14 26 -27 47l-14 22q-3 -11 -10.5 -35.5t-8.5 -27.5l-19.5 -54.5t-21 -51.5t-25.5 -46t-22 -14q-11 1 -18 17t-8.5 46.5t-1.5 51t1 56.5q2 48 1 53q-2 10 -4 14l-4 8l-2 1
q-2 -1 -5 -5q-2 -2 -6 -10q-12 -23 -33 -84q-25 -69 -39 -69q-9 0 -14 12q-3 10 -3 31q0 3 -0.5 9t-0.5 10q0 17 -1 28q-3 108 -3 144q-2 85 3 179h-1q-3 0 -7 -2q-37 -11 -69 -14q-36 -5 -72 0q-7 0 -15 3q-5 1 -10 6q-4 6 -3 11q0 3 1 5l1 3l3 -1q39 -6 80 -3q37 1 76 14
l10 3l8 3q4 58 8 88q8 56 14 83q17 85 52 132q38 50 93 39q6 -1 12 -5q7 -3 11 -9q8 -8 15 -25q6 -15 9 -34q2 -24 1 -40q0 -17 -5 -42q-8 -36 -27 -72q-20 -34 -46 -58q-24 -23 -55 -44q-37 -22 -58 -31q-6 -90 -4 -186q0 -38 3 -146q1 -11 1 -35l7 21q9 26 18 46
q9 24 18 42q5 9 9 15q7 7 10 9q8 4 10 4q5 2 10 0q6 -2 8 -4q2 -1 7 -6q5 -7 8 -15q4 -9 5 -19q2 -7 0 -58q-5 -144 4 -145q6 0 27 52l36 97l26 81l3 4q8 7 15 6t16 -16q5 -8 23 -39zM74 650q28 19 48 38q26 24 41 53q17 30 25 65q4 26 4 37q1 14 -1 36q-4 18 -7 27
q-5 13 -10 18l-5 4q-4 2 -5 2q-41 10 -71 -33q-26 -39 -44 -118q-6 -24 -14 -78q-6 -48 -8 -78q32 16 47 27zM358 415l-2 21q-1 10 -5 23q-3 10 -8 21q-4 8 -10 14q-5 5 -10 5q-4 1 -9 -2q-2 -1 -4 -5q-2 -6 -2 -11t2 -15q3 -10 7 -16v-1h1q9 -15 20 -23q10 -8 20 -11z" />
    <glyph glyph-name="i_x" unicode="ix" horiz-adv-x="331" 
d="M146 303l22 -38l5 -9q1 -2 1 -3q16 23 31 64q12 40 13 72q-19 5 -33 16q-16 12 -28 31q-1 0 -1 1q-7 13 -10 22q-3 12 -3 22t4 22q4 10 13 15h1v1q13 7 25 6q11 -3 24 -12q8 -8 14 -20q6 -10 11 -28q5 -12 6 -27q2 -18 2 -27q15 0 35 5t42 19l5 2l1 -5q2 -13 0 -18
q-5 -9 -20 -14q-21 -9 -35 -11q-13 -3 -28 -3q-3 -44 -16 -82q-17 -44 -39 -74q24 -44 41 -64q21 -23 34 -20h1q19 3 56 124l1 1l3 12l2 4l3 -1q2 0 3 -1q7 -1 11 -9q1 -7 0 -15q0 -2 -2 -8q-19 -59 -30 -84q-22 -44 -43 -47q-25 -7 -51 22q-17 17 -46 64q-16 -17 -34 -31
q-22 -17 -46 -30q-15 -7 -22 -3q-4 2 -11 15l4 2q32 14 54 31q19 14 42 39q-8 13 -12 22q-14 26 -27 47l-19 30q-1 -13 -17.5 -48t-31.5 -49q-11 -11 -16 -13q-7 -4 -18 0q-27 10 -17 129v6l1 11l4 -1q9 0 12.5 -1t5.5 -5.5t2 -13.5q-2 -44 -1 -75q2 -26 3 -27q1 0 2 1
q31 27 56 101l7 7q8 7 15 6t16 -16q5 -8 23 -39zM218 415l-2 21q-1 10 -5 23q-3 10 -8 21q-4 8 -10 14q-5 5 -10 5q-4 1 -9 -2q-2 -1 -4 -5q-2 -6 -2 -11t2 -15q3 -10 7 -16v-1h1q9 -15 20 -23q10 -8 20 -11zM26 417q3 -7 2 -15q0 -9 -3 -15q-5 -8 -11 -8q-6 1 -9 9
q-3 7 -2 15q0 7 4 15q3 8 10 8q6 -2 9 -9z" />
    <glyph glyph-name="k_x" unicode="kx" horiz-adv-x="458" 
d="M273 303l22 -38l5 -9q1 -2 1 -3q16 23 31 64q12 40 13 72q-19 5 -33 16q-16 12 -28 31q-1 0 -1 1q-7 13 -10 22q-3 12 -3 22t4 22q4 10 13 15h1v1q13 7 25 6q11 -3 24 -12q8 -8 14 -20q6 -10 11 -28q4 -12 6 -27q2 -18 2 -27q15 0 35 5t42 19l5 2l1 -5q2 -13 0 -18
q-5 -9 -20 -14q-21 -9 -35 -11q-13 -3 -28 -3q-3 -44 -16 -82q-17 -44 -39 -74q24 -44 41 -64q21 -23 34 -20h1q19 3 56 124l1 1l3 12l2 4l3 -1q2 0 3 -1q7 -1 11 -9q1 -7 0 -15q0 -2 -2 -8q-19 -59 -30 -84q-22 -44 -43 -47q-25 -7 -51 22q-17 17 -46 64q-16 -17 -34 -31
q-22 -17 -46 -30q-15 -7 -22 -3q-4 2 -11 15l4 2q32 14 54 31q19 14 42 39q-8 13 -12 22q-14 26 -27 47l-15 24v-2l-20.5 -56.5t-21 -57t-19.5 -39.5t-28 -37q-14 -14 -25 -14q-10 -1 -19 8t-16.5 26.5t-11 28t-8.5 29.5l-3 13q-6 17 14 58q10 20 26 46q-18 -10 -30 -35
q-17 -34 -31 -103q-8 -44 -13 -108q-4 -45 -6 -134v-30q0 -38 1 -54q0 -10 0.5 -24t0.5 -19l1 -12q-14 -1 -26 7v4q-6 166 0 369q5 184 19 336l2 21q0 5 2 15q-22 -5 -60 -5q-36 0 -71 7q-13 4 -15 6q-5 2 -8 7q-2 6 -1 9q0 2 2 6l2 3l3 -1q42 -10 80 -12q43 -2 70 6
q15 119 34 193q21 80 47 116q17 25 41 42q22 16 47 21q14 2 22 1q14 -2 20 -5q9 -4 18 -11q6 -6 13 -18q10 -18 10 -43q1 -23 -8 -56q-21 -76 -61 -136q-39 -59 -90 -92q-11 -7 -35 -19q-22 -10 -34 -14l-3 -19l-2 -24q-7 -75 -12 -157q0 -4 -2.5 -55.5t-3.5 -77.5
q13 52 31 82q31 49 74 41q12 -3 12 -9q1 -4 -6 -13q-1 -1 -12.5 -18.5t-18.5 -30.5q-23 -43 -19 -54q0 -3 3 -12q21 -76 29 -75q1 0 12 9q7 6 19 25.5t32 65.5t36 103l1 3v1l4 2q8 7 15 6t16 -16q5 -8 23 -39zM47 593l25 10q16 8 28 16q48 31 84 85q38 58 57 129q8 29 8 47
q-2 22 -8 34q-2 4 -8 10q-3 3 -11 7q-6 3 -13 3q-5 1 -15 -1q-18 -3 -38 -17q-19 -14 -34 -35q-24 -34 -43 -108q-20 -78 -32 -180zM345 415l-2 21q-1 10 -5 23q-2 10 -8 21q-4 8 -10 14q-5 5 -10 5q-4 1 -9 -2q-2 -1 -4 -5q-2 -6 -2 -11t2 -15q3 -10 7 -16v-1h1
q9 -15 20 -23q10 -8 20 -11z" />
    <glyph glyph-name="l_x" unicode="lx" horiz-adv-x="412" 
d="M219 931q5 -9 8 -18l-3 -1v-1l3 2q8 -24 8 -57q-2 -35 -10 -74q-1 -5 -9 -38q-8 -24 -13 -35q-16 -42 -45 -79q-30 -36 -63 -55q-8 -6 -26 -14q-12 -5 -26 -10q-2 -15 -3.5 -32t-3 -38t-2.5 -32q-3 -35 -7 -110q-3 -60 -3 -115q-2 -61 1 -100q2 -54 5 -75q3 -29 9 -39v-1
q24 -4 59 91q9 25 21.5 67t26.5 94t16 60l7 28v1q11 9 18.5 8t16.5 -16q5 -8 23 -39l22 -38l5 -9q1 -2 1 -3q16 23 31 64q12 40 13 72q-19 5 -33 16q-16 12 -28 31q-1 0 -1 1q-7 13 -10 22q-3 12 -3 22t4 22q4 10 13 15h1v1q13 7 25 6q11 -3 24 -12q8 -8 14 -20
q6 -10 11 -28q4 -12 6 -27q2 -18 2 -27q15 0 35 5t42 19l5 2l1 -5q2 -13 0 -18q-5 -9 -20 -14q-21 -9 -35 -11q-13 -3 -28 -3q-3 -44 -16 -82q-17 -44 -39 -74q24 -44 41 -64q21 -23 34 -20h1q19 3 56 124l1 1l3 12l2 4l3 -1q2 0 3 -1q7 -1 11 -9q1 -7 0 -15q0 -2 -2 -8
q-19 -59 -30 -84q-22 -44 -43 -47q-25 -7 -51 22q-17 17 -46 64q-16 -17 -34 -31q-22 -17 -33 -23q-15 -7 -22 -3q-4 2 -11 15l4 2q22 10 41 24t42 39q-8 13 -12 22q-14 26 -27 47q-8 14 -13 21q0 -1 -0.5 -3t-0.5 -3q-47 -177 -68 -231q-20 -50 -41 -77t-43 -22q-6 0 -10 3
t-8 11q-7 16 -10 45q-4 31 -6 79q-2 62 -1 101q0 56 3 117q4 73 7 107q0 4 3.5 41l5.5 57q-15 -3 -35 -1q-22 0 -41 4q-6 2 -9 2l-9 3q-16 4 -21 13q-3 6 0 16l1 4l4 -1q9 -4 20 -7q11 -4 19 -5q22 -5 39 -5q19 0 35 3q22 175 53 272q32 101 73 115q7 3 17 3t16 -1
q8 -1 15 -6q8 -4 13 -9q7 -7 11 -15zM210 855q0 31 -6 50q-4 10 -6 13q-2 4 -8 10l-7 6l-8 3h-10q-4 0 -10 -2q-31 -10 -61 -102q-27 -90 -47 -254l15 6q10 4 20 11q32 18 56 50q26 30 42 72l12 33l9 36q7 32 9 68zM299 415l-2 21q-1 10 -5 23q-2 10 -8 21q-4 8 -10 14
q-5 5 -10 5q-4 1 -9 -2q-2 -1 -4 -5q-2 -6 -2 -11t2 -15q3 -10 7 -16v-1h1q9 -15 20 -23q10 -8 20 -11z" />
    <glyph glyph-name="m_x" unicode="mx" horiz-adv-x="515" 
d="M330 303l22 -38l5 -9q1 -2 1 -3q16 23 31 64q12 40 13 72q-19 5 -33 16q-16 12 -28 31q-1 0 -1 1q-7 13 -10 22q-3 12 -3 22t4 22q4 10 13 15h1v1q13 7 25 6q11 -3 24 -12q8 -8 14 -20q6 -10 11 -28q5 -12 6 -27q2 -18 2 -27q15 0 35 5t42 19l5 2l1 -5q2 -13 0 -18
q-5 -9 -20 -14q-21 -9 -35 -11q-13 -3 -28 -3q-3 -44 -16 -82q-17 -44 -39 -74q24 -44 41 -64q21 -23 34 -20h1q19 3 56 124l1 1l3 12l2 4l3 -1q2 0 3 -1q7 -1 11 -9q1 -7 0 -15q0 -2 -2 -8q-19 -59 -30 -84q-22 -44 -43 -47q-25 -7 -51 22q-17 17 -46 64q-16 -17 -34 -31
q-22 -17 -46 -30q-15 -7 -22 -3q-5 2 -10 12q-2 -2 -2 -4l-10 -22l-9 -16q-6 -9 -14 -14q-10 -4 -16 0q-2 0 -4 2l-4 3q-15 16 -11 141l2 61q0 15 -1 20v-1l-13 -29l-13 -31q-25 -60 -30 -70q-17 -36 -28 -39q-7 -3 -12 1q-4 2 -8 11v2q-2 24 -2 36v56q-1 7 -1 20
q0 38 -3 38t-15 -42q0 -1 -9 -34l-9 -30q-7 -20 -8 -21q-3 -9 -7 -13q-2 -3 -8 -5q-5 0 -9 4l-3 2l1 1q-2 5 -2 23q-1 13 1 46q0 6 0.5 16.5t0.5 14.5v24l1 4h11q7 0 10 -3.5t3 -16.5t-1 -19l4 13q4 20 11 36q4 12 11 23q6 6 10 7q4 3 10 1t9 -4q1 -1 2 -2.5l2 -3t2 -3.5
q4 -6 7 -23q3 -13 3 -32v-41q0 -20 1 -30v-14q14 31 32 77l16 39q5 12 13 28q8 12 16 17q8 6 16 1q16 -10 12 -116q-4 -104 2 -120q0 1 2 3l7 13q2 3 4.5 10l3.5 10q11 27 20 58q2 8 10.5 38.5l15.5 56t9 34.5v1v1q11 9 18.5 8t16.5 -16q5 -8 23 -39zM270 247
q-6 -27 -15 -53q-4 -17 -11 -34l2 1q32 14 54 31q19 14 42 39q-8 13 -12 22q-14 26 -27 47l-12 20q0 -2 -21 -73zM402 415l-2 21q-1 10 -5 23q-3 10 -8 21q-4 8 -10 14q-5 5 -10 5q-4 1 -9 -2q-2 -1 -4 -5q-2 -6 -2 -11t2 -15q3 -10 7 -16v-1h1q9 -15 20 -23q10 -8 20 -11z
" />
    <glyph glyph-name="n_x" unicode="nx" horiz-adv-x="428" 
d="M243 303l22 -38l5 -9q1 -2 1 -3q16 23 31 64q12 40 13 72q-19 5 -33 16q-16 12 -28 31q-1 0 -1 1q-7 13 -10 22q-3 12 -3 22t4 22q4 10 13 15h1v1q13 7 25 6q11 -3 24 -12q8 -8 14 -20q6 -10 11 -28q4 -12 6 -27q2 -18 2 -27q15 0 35 5t42 19l5 2l1 -5q2 -13 0 -18
q-5 -9 -20 -14q-21 -9 -35 -11q-14 -3 -28 -3q-3 -44 -16 -82q-17 -44 -39 -74q24 -44 41 -64q21 -23 34 -20h1q19 3 56 124l1 1l3 12l2 4l3 -1q2 0 3 -1q7 -1 11 -9q1 -7 0 -15q0 -2 -2 -8q-19 -59 -30 -84q-22 -44 -43 -47q-25 -7 -51 22q-17 17 -46 64q-16 -17 -34 -31
q-22 -17 -46 -30q-15 -7 -22 -3q-4 2 -11 15l4 2q32 14 54 31q19 14 42 39q-8 13 -12 22q-14 26 -27 47l-13 22l-2 -6q-2 -6 -9 -30l-11.5 -39t-12.5 -39t-14.5 -40t-14.5 -32.5t-16 -24.5t-16 -9q-16 -1 -26 17q-6 14 -8 43q0 29 1 45l3 49q4 56 4 72q-1 2 -1 7l-3 -5
l-18 -36l-26 -64q-11 -31 -14 -47q0 -5 -4 -9q-5 -3 -10 -2h-4v1q-1 0 -2 3l-3 5l-2 3v2q0 1 1 2v3q0 17 1 29q3 75 3 79l1 4q12 0 16 -3q8 -3 8 -16q0 -2 -0.5 -6t-0.5 -5l3 6l11 25q14 31 24 45q13 16 22 16q12 2 17 -10t5 -27q1 -17 -3 -74q-5 -73 -4 -91q2 -20 4 -28
t4 -8q7 0 26 51q6 17 24.5 77t21.5 68l7 25l1 3q11 8 18 7t16 -16q5 -8 23 -39zM315 415l-2 21q-1 10 -5 23q-2 10 -8 21q-4 8 -10 14q-5 5 -10 5q-4 1 -9 -2q-2 -1 -4 -5q-2 -6 -2 -11t2 -15q3 -10 7 -16v-1h1q9 -15 20 -23q10 -8 20 -11z" />
    <glyph glyph-name="o_x" unicode="ox" horiz-adv-x="404" 
d="M219 303l22 -38l5 -9q1 -2 1 -3q16 23 31 64q12 40 13 72q-19 5 -33 16q-16 12 -28 31q-1 0 -1 1q-7 13 -10 22q-3 12 -3 22t4 22q4 10 13 15h1v1q13 7 25 6q11 -3 24 -12q8 -8 14 -20q6 -10 11 -28q4 -12 6 -27q2 -18 2 -27q15 0 35 5t42 19l5 2l1 -5q2 -13 0 -18
q-5 -9 -20 -14q-21 -9 -35 -11q-13 -3 -28 -3q-3 -44 -16 -82q-17 -44 -39 -74q24 -44 41 -64q21 -23 34 -20h1q19 3 56 124l1 1l3 12l2 4l3 -1q2 0 3 -1q7 -1 11 -9q1 -7 0 -15q0 -2 -2 -8q-19 -59 -30 -84q-22 -44 -43 -47q-25 -7 -51 22q-17 17 -46 64q-16 -17 -34 -31
q-22 -17 -46 -30q-15 -7 -22 -3q-4 2 -11 15l4 2q32 14 54 31q19 14 42 39q-8 13 -12 22q-14 26 -27 47l-14 24q-45 -49 -80 -49l-4 -17q-3 -8 -8 -17q-9 -15 -18 -19q-12 -7 -24 -7q-16 0 -27 11q-11 10 -16 29q-3 7 -3 17v19q2 14 4 19q2 9 6 18q8 17 21 29q12 11 30 15
q17 3 22 -5t3 -14q10 -1 16 -14q4 -12 3 -34v-5q20 2 37.5 19t20.5 31l4 2q8 7 15 6t16 -16q5 -8 23 -39zM25 261q3 -11 8 -16t11 -5t11 3q6 5 10 11q4 8 5 12l4 12l-8 2q-6 2 -10 4q-14 8 -14 21q-1 10 6 25l6 9q1 1 2 2.5t2.5 2.5t2.5 2q-6 -2 -10 -4q-13 -7 -21 -25
q-2 -4 -4 -14q-3 -6 -3 -14v-15q0 -5 2 -13zM291 415l-2 21q-1 10 -5 23q-2 10 -8 21q-4 8 -10 14q-5 5 -10 5q-4 1 -9 -2q-2 -1 -4 -5q-2 -6 -2 -11t2 -15q3 -10 7 -16v-1h1q9 -15 20 -23q10 -8 20 -11zM78 302v5q2 15 1 18v4l-2 -2q-3 -1 -4 -4l-3 -5q-3 -4 -3 -9
q0 -3 1 -3l6 -3q2 0 4 -1z" />
    <glyph glyph-name="r_x" unicode="rx" horiz-adv-x="421" 
d="M236 303l22 -38l5 -9q1 -2 1 -3q16 23 31 64q12 40 13 72q-19 5 -33 16q-16 12 -28 31q-1 0 -1 1q-7 13 -10 22q-3 12 -3 22t4 22q4 10 13 15h1v1q13 7 25 6q11 -3 24 -12q8 -8 14 -20q6 -10 11 -28q5 -12 6 -27q2 -18 2 -27q15 0 35 5t42 19l5 2l1 -5q2 -13 0 -18
q-5 -9 -20 -14q-21 -9 -35 -11q-13 -3 -28 -3q-3 -44 -16 -82q-17 -44 -39 -74q24 -44 41 -64q21 -23 34 -20h1q19 3 56 124l1 1l3 12l2 4l3 -1q2 0 3 -1q7 -1 11 -9q1 -7 0 -15q0 -2 -2 -8q-19 -59 -30 -84q-22 -44 -43 -47q-25 -7 -51 22q-17 17 -46 64q-16 -17 -34 -31
q-22 -17 -46 -30q-15 -7 -22 -3q-4 2 -11 15l4 2q32 14 54 31q19 14 42 39q-8 13 -12 22q-14 26 -27 47q-8 14 -13 21q-13 -42 -22 -64l-2 -4l-24 -55q-18 -38 -27 -53q-12 -23 -25 -34q-16 -13 -28 -6q-9 5 -13 18.5t-2.5 37t4 42t7.5 48.5q1 8 2 12q8 42 10 58q2 31 2 32
q-20 -5 -40 -5q-17 0 -28 8q-11 9 -11 26q0 15 9 36q4 11 13 26q10 14 14 17l5 4q4 2 5 2q6 2 8 2l7 -2q1 0 3 -2l3 -3q7 -5 6 -19.5t-4.5 -25.5t-9.5 -26.5t-7 -21.5q10 1 29 6q6 1 11 -2q4 -4 7 -11q4 -18 -11 -103q-9 -45 -14 -88q-3 -43 5 -48l2 4q1 -1 3 4q1 1 1 2
q8 9 15 24q13 22 50 106l2 4l29 80l2 5q8 7 15 6t16 -16q5 -8 23 -39zM308 415l-2 21q-1 10 -5 23q-3 10 -8 21q-4 8 -10 14q-5 5 -10 5q-4 1 -9 -2q-2 -1 -4 -5q-2 -6 -2 -11t2 -15q3 -10 7 -16v-1h1q9 -15 20 -23q10 -8 20 -11zM27 375l2 5l3 12q2 6 6.5 21l6.5 22l-3 -5
q-4 -5 -11 -22q-7 -16 -7 -23q-2 -7 2 -9q0 -1 1 -1z" />
    <glyph glyph-name="s_x" unicode="sx" horiz-adv-x="466" 
d="M281 303l22 -38l5 -9q1 -2 1 -3q16 23 31 64q12 40 13 72q-19 5 -33 16q-16 12 -28 31q-1 0 -1 1q-7 13 -10 22q-3 12 -3 22t4 22q4 10 13 15h1v1q13 7 25 6q11 -3 24 -12q8 -8 14 -20q6 -10 11 -28q4 -12 6 -27q2 -18 2 -27q15 0 35 5t42 19l5 2l1 -5q2 -13 0 -18
q-5 -9 -20 -14q-21 -9 -35 -11q-13 -3 -28 -3q-3 -44 -16 -82q-17 -44 -39 -74q24 -44 41 -64q21 -23 34 -20h1q19 3 56 124l1 1l3 12l2 4l3 -1q2 0 3 -1q7 -1 11 -9q1 -7 0 -15q0 -2 -2 -8q-19 -59 -30 -84q-22 -44 -43 -47q-25 -7 -51 22q-17 17 -46 64q-16 -17 -34 -31
q-22 -17 -46 -30q-15 -7 -22 -3q-4 2 -11 15l4 2q32 14 54 31q19 14 42 39q-8 13 -12 22q-14 26 -27 47l-4 7l-1 -1l-50 -57l-17 -19l-30 -34q-16 -20 -23 -31q13 -25 15 -33q6 -17 4 -32q0 -7 -4 -17q-3 -6 -11 -14q-8 -5 -15 -5q-7 -1 -16 4q-8 4 -14 15q-5 10 -5 24
q0 17 4 30q4 14 12 28q-1 2 -6.5 9.5l-8.5 11.5l-22 24q-22 22 -39 44q-15 22 -21 39q-2 7 -4 17q0 10 1 15q2 8 4 13l9 11q1 2 11 9l13 6q12 4 24 3q13 -2 21 -7l9 -8l6 -9q2 -3 4 -11q2 -5 0 -11q0 -7 -3 -15t-9 -14q-13 -16 -25 -6q-4 4 -5 6l-1 1l-2 3l3 2q9 6 13 13
q3 4 5 12q0 3 -1 4q0 1 -0.5 2.5t-0.5 2.5l-3 4l-4 3q-5 3 -10 3q-8 0 -13 -2q-6 -2 -8 -4q-2 -1 -4 -2.5t-3 -1.5l-4 -5l-2 -6v-9l3 -11q4 -13 18 -33q10 -13 36 -41l20 -22q2 -3 7 -9t7 -9q7 10 21 28l29 31l71 83q10 11 17 10.5t16 -15.5zM353 415l-2 21q-1 10 -5 23
q-2 10 -8 21q-4 8 -10 14q-5 5 -10 5q-4 1 -9 -2q-2 -1 -4 -5q-2 -6 -2 -11t2 -15q3 -10 7 -16v-1h1q9 -15 20 -23q10 -8 20 -11zM121 123l-7 17l-4 -13q-2 -7 -2 -20q0 -6 2 -12q1 -3 4 -6h4l4 5q1 2 1 8q1 8 -2 21z" />
    <glyph glyph-name="t_x" unicode="tx" horiz-adv-x="391" 
d="M-162 629q-8 8 -6 17.5t7 12.5q40 24 166 24q11 211 50 262q11 15 19 14q5 0 15 -10l2 -4l-3 -2q-48 -34 -57 -260q33 0 49 0.5t38.5 2.5t34 7.5t16.5 14.5q9 -4 8 -15t-6 -14q-28 -18 -141 -20q-2 -59 -2 -250q-6 -131 -1 -246t28 -146l4 -4h1q20 16 38 101
q13 54 47 234l1 4q13 7 20.5 6t16.5 -16q5 -8 23 -39l22 -38l5 -9q1 -2 1 -3q16 23 31 64q12 40 13 72q-19 5 -33 16q-16 12 -28 31q-1 0 -1 1q-7 13 -10 22q-3 12 -3 22t4 22q4 10 13 15h1v1q13 7 25 6q11 -3 24 -12q8 -8 14 -20q6 -10 11 -28q5 -12 6 -27q2 -18 2 -27
q15 0 35 5t42 19l5 2l1 -5q2 -13 0 -18q-5 -9 -20 -14q-21 -9 -35 -11q-14 -3 -28 -3q-3 -44 -16 -82q-17 -44 -39 -74q24 -44 41 -64q21 -23 34 -20h1q19 3 56 124l1 1l3 12l2 4l3 -1q2 0 3 -1q7 -1 11 -9q1 -7 0 -15q0 -2 -2 -8q-19 -59 -30 -84q-22 -44 -43 -47
q-25 -7 -51 22q-17 17 -46 64q-36 -41 -57 -51q-15 -7 -22 -3q-4 2 -11 15l4 2q29 13 73 60q-8 13 -12 22q-14 26 -27 47l-14 24l-1 -1v-2q-23 -140 -45 -228q-20 -82 -44 -100q-8 -8 -20 -6q-11 3 -20 15q-14 19 -22 56t-10.5 102.5t-2.5 111.5t2 138q0 191 2 249
q-134 4 -166 -30zM278 415l-2 21q-1 10 -5 23q-3 10 -8 21q-4 8 -10 14q-5 5 -10 5q-4 1 -9 -2q-2 -1 -4 -5q-2 -6 -2 -11t2 -15q3 -10 7 -16v-1h1q9 -15 20 -23q10 -8 20 -11z" />
    <glyph glyph-name="u_x" unicode="ux" horiz-adv-x="428" 
d="M243 303l22 -38l5 -9q1 -2 1 -3q16 23 31 64q12 40 13 72q-19 5 -33 16q-16 12 -28 31q-1 0 -1 1q-7 13 -10 22q-3 12 -3 22t4 22q4 10 13 15h1v1q13 7 25 6q11 -3 24 -12q8 -8 14 -20q6 -10 11 -28q4 -12 6 -27q2 -18 2 -27q15 0 35 5t42 19l5 2l1 -5q2 -13 0 -18
q-5 -9 -20 -14q-21 -9 -35 -11q-14 -3 -28 -3q-3 -44 -16 -82q-17 -44 -39 -74q24 -44 41 -64q21 -23 34 -20h1q19 3 56 124l1 1l3 12l2 4l3 -1q2 0 3 -1q7 -1 11 -9q1 -7 0 -15q0 -2 -2 -8q-19 -59 -30 -84q-22 -44 -43 -47q-25 -7 -51 22q-17 17 -46 64q-16 -17 -34 -31
q-22 -17 -46 -30q-15 -7 -22 -3q-5 1 -10 11l-2 -6q-20 -48 -37 -48q-21 1 -28 45q-5 30 -3 90q0 3 0.5 9t0.5 10l-2 -4q-1 -4 -10 -21q-11 -18 -25 -26q-13 -6 -26 -2t-20 22q-4 12 -6 42q0 22 3 47l6 51l1 2l2 1q11 3 17 -3q4 -6 3 -21q-4 -25 -5 -41q-2 -26 -2 -36
q0 -18 3 -30q2 -10 5 -10q5 -2 9 1q6 4 13 16q9 15 19 42q8 25 21 71q1 6 5 10q4 3 11 1q7 -1 9 -15q0 -5 -2 -29q0 -8 -2 -39t-3 -49q-2 -56 0 -77q2 -32 7 -32q4 0 17 40q7 21 27 88l23 92l1 3q11 9 18 8.5t16 -15.5q5 -8 23 -39zM204 320l-17 -68l-2 -7q-14 -50 -26 -84
q32 14 54 31q19 14 42 39q-8 13 -12 22q-14 26 -27 47zM315 415l-2 21q-1 10 -5 23q-2 10 -8 21q-4 8 -10 14q-5 5 -10 5q-4 1 -9 -2q-2 -1 -4 -5q-2 -6 -2 -11t2 -15q3 -10 7 -16v-1h1q9 -15 20 -23q10 -8 20 -11z" />
    <glyph glyph-name="x_x" unicode="xx" horiz-adv-x="514" 
d="M329 303l22 -38l5 -9q1 -2 1 -3q16 23 31 64q12 40 13 72q-19 5 -33 16q-16 12 -28 31q-1 0 -1 1q-7 13 -10 22q-3 12 -3 22t4 22q4 10 13 15h1v1q13 7 25 6q11 -3 24 -12q8 -8 14 -20q6 -10 11 -28q4 -12 6 -27q2 -18 2 -27q15 0 35 5t42 19l5 2l1 -5q2 -13 0 -18
q-5 -9 -20 -14q-21 -9 -35 -11q-14 -3 -28 -3q-3 -44 -16 -82q-17 -44 -39 -74q24 -44 41 -64q21 -23 34 -20h1q19 3 56 124l1 1l3 12l2 4l3 -1q2 0 3 -1q7 -1 11 -9q1 -7 0 -15q0 -2 -2 -8q-19 -59 -30 -84q-22 -44 -43 -47q-25 -7 -51 22q-17 17 -46 64q-16 -17 -34 -31
q-22 -17 -46 -30q-15 -7 -22 -3q-4 2 -11 15l4 2q32 14 54 31q19 14 42 39q-8 13 -12 22q-14 26 -27 47q-8 14 -13 21q0 -1 -1 -3q-39 -123 -51 -149q-22 -44 -43 -47q-25 -7 -51 22q-17 17 -46 64q-16 -17 -34 -31q-22 -17 -46 -30q-15 -7 -22 -3q-4 2 -11 15l4 2
q32 14 54 31q19 14 42 39q-8 13 -12 22q-14 26 -27 47q-5 9 -15.5 25.5t-12.5 20.5l-3 4l4 2q8 7 15 6t16 -16q5 -8 23 -39l22 -38l5 -9q1 -2 1 -3q16 23 31 64q12 40 13 72q-19 5 -33 16q-16 12 -28 31q-1 0 -1 1q-7 13 -10 22q-3 12 -3 22t4 22q4 10 13 15h1v1q13 7 25 6
q11 -3 24 -12q8 -8 14 -20q6 -10 11 -28q5 -12 6 -27q2 -18 2 -27q15 0 35 5t42 19l5 2l1 -5q2 -13 0 -18q-5 -9 -20 -14q-21 -9 -35 -11q-14 -3 -28 -3q-3 -44 -16 -82q-17 -44 -39 -74q24 -44 41 -64q21 -23 34 -20h1q20 3 77 189l4 13q11 10 18.5 9.5t16.5 -15.5
q5 -8 23 -39zM401 415l-2 21q-1 10 -5 23q-2 10 -8 21q-4 8 -10 14q-5 5 -10 5q-4 1 -9 -2q-2 -1 -4 -5q-2 -6 -2 -11t2 -15q3 -10 7 -16v-1h1q9 -15 20 -23q10 -8 20 -11zM144 415l-2 21q-1 10 -5 23q-3 10 -8 21q-4 8 -10 14q-5 5 -10 5q-4 1 -9 -2q-2 -1 -4 -5
q-2 -6 -2 -11t2 -15q3 -10 7 -16v-1h1q9 -15 20 -23q10 -8 20 -11z" />
    <glyph glyph-name="a_r_r" unicode="arr" horiz-adv-x="498" 
d="M255 137q34 23 102 213q-9 2 -13 6q-11 9 -11 26q0 15 9 36q4 11 13 26q10 14 14 17l5 4q4 2 5 2q6 2 8 2l7 -2q1 0 3 -2l3 -3q7 -5 6 -19.5t-4.5 -25.5t-9.5 -26.5t-7 -21.5q10 1 29 6q6 1 11 -2q4 -4 7 -11q4 -18 -11 -103q-9 -45 -14 -88q-3 -43 5 -48l2 4q1 -1 3 4
q1 1 1 2q8 9 15 24q14 24 65 141l2 2h2q15 -1 13 -17q-3 -17 -25 -67t-35 -71q-12 -23 -25 -34q-16 -13 -28 -6q-9 5 -13 18.5t-2.5 37t4 42t7.5 48.5q1 8 2 12q1 6 6.5 30t6 31t-0.5 29q-20 -5 -32 -5q-11 -44 -51.5 -131.5t-62.5 -105.5q-16 -13 -28 -6q-10 6 -13.5 24
t-1 44.5t6.5 51l9 54t7 42.5q2 31 2 32q-20 -5 -31 -5l-1 -1v-2q-13 -46 -38 -111.5t-37 -70.5q-1 0 -3 -1h-1h-5q-8 0 -16 6q-7 7 -12 17q-3 8 -6 19q-4 13 -5 24l-3 22v9l-2 -2l-9 -14l-15 -18l-16 -14l-17 -10q-9 -3 -17 -3l-8 2q-4 2 -7 4q-15 10 -17 31q-2 22 9 45
q6 14 10 20q8 12 13 18q8 10 16 15q6 6 16 10q4 2 12 4h11q10 -2 14 -6t4 -6q1 -3 1 -7q-1 -7 -6 -13l-3 -3l-3 3q-4 5 -9 7q-7 0 -11 -2q-2 0 -3 -1.5l-2 -3t-3 -2.5q-4 -3 -10 -11q-8 -10 -11 -15l-8 -16q-5 -10 -8 -23.5t2 -23.5q1 0 1 -1h1q2 0 8 2q2 1 5 3t5 3
q9 6 13 12l13 15q14 20 22 42q8 25 11 47l1 4h6q2 -1 5 -1q13 -2 11 -24q-2 -16 -2 -49q2 -30 4 -45l5 -22q1 -7 5 -15l5 -8q19 39 59 163q-10 5 -11 6q-11 9 -11 26q0 15 9 36q4 11 13 26q10 14 14 17l5 4q4 2 5 2q6 2 8 2l7 -2q1 0 3 -2l3 -3q7 -5 6 -19.5t-4.5 -25.5
t-9.5 -26.5t-7 -21.5q10 1 29 6q2 1 5.5 -0.5t5.5 -1.5q20 -1 0 -148q-11 -88 -6 -88zM361 375l2 5l3 12q2 6 6.5 21l6.5 22l-3 -5q-4 -5 -11 -22q-7 -16 -7 -23q-2 -7 2 -9q0 -1 1 -1zM197 375l2 5l3 12q2 6 6.5 21l6.5 22l-3 -5q-4 -5 -11 -22q-7 -16 -7 -23q-2 -7 2 -9
q0 -1 1 -1z" />
    <glyph glyph-name="d_b" unicode="db" horiz-adv-x="426" 
d="M366 220q-6 -18 -15 -22q-12 -6 -23 -4q-13 3 -21 13q-10 11 -20 38q-8 27 -14 59q-2 -11 -7 -29t-6 -24q-5 -26 -23 -74l-13 -23q-6 -10 -10 -15q-4 -6 -16 -11q-9 -3 -18 1l-8 4l-6 7q-17 19 -28 62q-16 47 -23 105l-2 18q-14 -19 -27 -33q-18 -21 -22 -23l-7 -4l-7 -1
q-9 -2 -18 -2q-10 2 -13 4q-5 2 -13 10q-7 9 -8 17q-2 10 -1 14q-2 8 0 19q3 25 16 51q10 25 26 37q4 4 16 9q9 4 17 5q3 2 11 0l11 -1q8 -4 11 -4l2 -3q-2 47 1 91v48q-7 0 -10 1q-10 1 -15.5 5t-6 7t-0.5 9v2l-1 5l5 -1l29 -3l2 16q-28 -2 -45 -2q-36 0 -55 2q-17 0 -25 5
t-6 15l1 3l3 -1q24 -2 69 -2q43 0 60 2l4 19q0 13 3 22q14 101 46 170q28 67 75 100q16 11 29 15q15 7 33 9h21q3 0 6 -1t6.5 -2t6.5 -2q12 -8 19 -15q13 11 25 14q20 3 32 2q14 -1 27 -8q9 -6 20 -20q8 -15 11 -30t3 -33q0 -19 -3 -38q-11 -60 -42 -114q-28 -53 -71 -87
q-14 -11 -34 -22q-11 -7 -39 -17l-3 -57q-1 -20 -1 -59q0 -44 3 -85q4 -49 8 -72q5 -34 12 -56q8 -23 16 -31q2 -3 6 -5q5 0 7 1q3 2 8 16q4 12 6 33q-7 5 -10 11q-8 10 -11 16l-9 18l-7 17q-2 13 0 17q2 9 9 10q10 3 20 1q9 -3 16 -10q5 -5 9 -12q4 -9 5 -17q0 -1 3 -17
v-19v-4q8 -7 21 -5q15 3 27 21l3 4l7 -7q12 -12 -3 -26q-16 -16 -30 -17q-15 -3 -28 3q0 -5 -9 -33zM130 458q0 -86 11 -148q6 -56 18 -102q9 -31 25 -56l3 -2q1 -1 2 -1h2l5 3q4 6 8 13l10 20q22 59 26 78q7 26 25 118q-3 41 -3 87q0 10 0.5 28t0.5 28l2 51l-12 -3l-18 -4
q-41 -8 -68 -9q-11 -1 -35 -1q-3 -55 -2 -100zM133 625q79 7 143 61q12 91 35 159q15 49 38 78q-6 7 -15 12l-12 4q-1 0 -9 0.5t-8 -0.5q-32 -4 -51 -20q-42 -27 -71 -93q-29 -68 -42 -165l-4 -20q0 -11 -4 -16zM455 861q0 20 -2 29q-3 10 -8 21q-5 7 -12 12q-7 4 -17 6
q-10 0 -23 -3q-10 -3 -17 -9l4 -11q5 -17 5 -32q0 -18 -3 -40q-4 -31 -25 -74q-24 -46 -47 -70l-11 -12q-3 -24 -7 -67l29 13q20 12 27 18q40 32 66 80q28 50 38 106q3 18 3 33zM21 297q1 -3 3 -6t9.5 -8t16.5 4l18 18l18 20q1 4 9 18t13 25v4q0 7 -4 17l-8 13l-10 6l-5 1
h-6q-7 -3 -9 -5q-8 -3 -11 -7q-13 -10 -22 -29q-12 -26 -13 -45v-16q0 -1 0.5 -5t0.5 -5zM272 656l-19 -12q-25 -16 -76 -32l-22 -5l-18 -3l-3 -21q15 0 22 1q28 0 74 8l20 5q8 1 17 5q1 18 5 54zM304 713l15 18q5 7 12.5 22.5t10.5 20.5q15 36 21 64q4 24 3 35q0 12 -4 28
q-17 -22 -31 -67q-16 -52 -27 -121zM359 286l2 9q5 22 -13 43q-3 4 -6 6q-6 3 -9 -1q-1 -3 0 -7q1 -3 5 -16q1 -2 4 -7.5t5 -8.5l3 -5q2 -2 4 -6z" />
    <glyph glyph-name="t_b" unicode="tb" horiz-adv-x="286" 
d="M-162 629q-8 8 -6 17.5t7 12.5q40 24 166 24q11 211 50 262q11 15 19 14q5 0 15 -10l2 -4l-3 -2q-48 -34 -57 -260q58 0 106 4q13 89 33 158q27 93 77 106q20 3 32 2q14 -1 27 -8q9 -6 20 -20q8 -15 11 -30t3 -33q0 -19 -3 -38q-11 -60 -42 -114q-28 -53 -71 -87
q-14 -11 -34 -22q-11 -7 -39 -17l-3 -57q-1 -20 -1 -59q0 -44 3 -85q4 -49 8 -72q5 -34 12 -56q8 -23 16 -31q2 -3 6 -5q5 0 7 1q3 2 8 16q4 12 6 33q-7 5 -10 11q-8 10 -11 16l-9 18l-7 17q-2 13 0 17q2 9 9 10q10 3 20 1q9 -3 16 -10q5 -5 9 -12q4 -9 5 -17q0 -1 3 -17
v-19v-4q8 -7 21 -5q15 3 27 21l3 4l7 -7q12 -12 -3 -26q-16 -16 -30 -17q-15 -3 -28 3q0 -5 -9 -33q-6 -18 -15 -22q-12 -6 -23 -4q-13 3 -21 13q-10 12 -18 32q-15 -89 -30 -146q-20 -82 -44 -100q-8 -8 -20 -6q-11 3 -20 15q-14 19 -22 56t-10.5 102.5t-2.5 111.5t2 138
q0 191 2 249q-134 4 -166 -30zM133 307q-6 40 -8 74q-3 41 -3 87q0 37 1 56q3 64 11 140q-62 -5 -104 -5q-2 -59 -2 -250q-6 -131 -1 -246t28 -146l4 -4h1q20 16 38 101q13 53 37 181q-2 8 -2 12zM315 861q0 20 -2 29q-3 10 -8 21q-5 7 -12 12q-7 4 -17 6q-10 0 -23 -3
q-34 -8 -62 -92q-18 -56 -31 -144q61 7 69 23q9 -4 8 -15t-6 -14q-17 -11 -74 -18q-4 -35 -5 -55l29 13q20 12 27 18q40 32 66 80q28 50 38 106q3 18 3 33zM219 286l2 9q5 22 -13 43q-3 4 -6 6q-6 3 -9 -1q-1 -3 0 -7q1 -3 5 -16q1 -2 4 -7.5t5 -8.5l3 -5q2 -2 4 -6z" />
    <glyph glyph-name="d_h" unicode="dh" horiz-adv-x="488" 
d="M443 955q6 -1 12 -5q7 -3 11 -9q8 -8 15 -25q6 -15 9 -34q2 -24 1 -40q0 -17 -5 -42q-8 -36 -27 -72q-20 -34 -46 -58q-24 -23 -55 -44q-37 -22 -58 -31q-6 -90 -4 -186q0 -38 3 -146q1 -11 1 -35l7 21q9 26 18 46q9 24 18 42q5 9 9 15q7 7 10 9q8 4 10 4q5 2 10 0
q6 -2 8 -4q2 -1 7 -6q5 -7 8 -15q4 -9 5 -19q2 -7 0 -58q-5 -144 4 -145q6 0 27 52l36 97l10 31l1 2h4q14 -4 14 -16q0 -5 -6 -25l-19.5 -54.5t-21 -51.5t-25.5 -46t-22 -14q-11 1 -18 17t-8.5 46.5t-1.5 51t1 56.5q2 48 1 53q-2 10 -4 14l-4 8l-2 1q-2 -1 -5 -5
q-2 -2 -6 -10q-12 -23 -33 -84q-25 -69 -39 -69q-9 0 -14 12q-3 11 -3 31q0 3 -0.5 9t-0.5 10q0 16 -1 27q-20 -70 -25 -90q-11 -42 -27 -79l-12 -24q-1 -1 -5 -7t-7 -9q-6 -7 -16 -11q-10 -3 -18 2l-7 4l-7 8q-17 22 -27 67q-13 63 -17 116l-2 19q-9 -10 -28 -36
q-15 -17 -24 -22l-7 -5l-8 -2q-8 -3 -17 -1q-6 0 -14 5q-8 4 -12 12q-4 4 -6 16q-2 6 -2 18t2 19q1 27 16 54q12 26 29 38q8 7 15 10q13 4 17 5q6 2 12 0l10 -2l12 -5l1 -3q-1 30 3 96q5 73 11 116l-4 2q-5 1 -10 6q-4 6 -3 11q0 3 1 5l1 3l3 -1q10 -2 15 -2l4 26
q22 117 53 182q34 73 78 105q15 11 31 17q22 6 34 7q23 3 46 1q-2 -2 -2 -3q35 36 82 26zM125 398q-4 -74 5 -157q4 -55 15 -111q10 -42 24 -63l3 -3q1 -1 2 -1l1 1l6 3q3 4 8 14l11 19q18 47 29 86q3 10 12 44l17.5 65.5t12.5 52.5v58q-2 85 3 179h-1q-3 0 -7 -2
q-37 -11 -69 -14q-24 -4 -56 -2q-11 -73 -16 -169zM182 593q37 1 76 14l10 3l8 3q4 58 8 88q8 56 14 83q13 69 44 120q-71 7 -122.5 -80t-74.5 -232q12 -1 37 1zM348 650q28 19 48 38q26 24 41 53q17 30 25 65q4 26 4 37q1 14 -1 36q-4 18 -7 27q-5 13 -10 18l-5 4
q-4 2 -5 2q-41 10 -71 -33q-26 -39 -44 -118q-6 -24 -14 -78q-6 -48 -8 -78q32 16 47 27zM11 229q1 -3 2.5 -6.5t8.5 -9t16 4.5q11 6 19 18l19 22l24 44v5q-2 15 -4 17q-2 6 -8 14l-4 4l-5 2l-4 2l-6 -1q-5 0 -11 -3l-11 -7q-10 -8 -22 -31q-13 -25 -14 -46q0 -2 -0.5 -8
t-0.5 -8q0 -3 0.5 -7.5t0.5 -5.5z" />
    <glyph glyph-name="d_t" unicode="dt" horiz-adv-x="487" 
d="M86 336l2 -3q-3 55 -2 102q-1 46 2 103q-17 -2 -49 -4q-31 -2 -56 1q-19 0 -26 5q-9 7 -8 18l1 3l4 -1q38 -3 72 -3q33 2 64 6l2 22q0 10 2 24q13 116 44 195q29 79 74 114q15 14 31 18q12 7 34 11h20q9 -1 20 -5q17 -8 25 -19q10 -15 16 -33q6 -19 7 -36q0 -18 -3 -44
q-4 -40 -23 -85q-11 -25 -22 -43q15 1 44 1q11 211 50 262q11 15 19 14q5 0 15 -10l2 -4l-3 -2q-48 -34 -57 -260q33 0 49 0.5t38.5 2.5t34 7.5t16.5 14.5q9 -4 8 -15t-6 -14q-28 -18 -141 -20q-2 -59 -2 -250q-6 -131 -1 -246t28 -146l4 -4h1q20 16 38 101q12 50 37 182
l1 4h4q12 -2 15 -7q3 -8 -1 -24q-17 -105 -35 -176q-20 -82 -44 -100q-8 -8 -20 -6q-11 3 -20 15q-33 44 -35 258q-26 -53 -74 -132t-74 -110q-6 -7 -16 -12q-10 -3 -19 0l-8 6l-7 6q-18 22 -31 70q-16 54 -25 120l-3 20q-9 -11 -28 -39q-14 -17 -24 -25l-6 -5l-8 -3
q-12 -3 -17 -2q-8 0 -16 5q-5 2 -12 11q-6 6 -9 17q-2 12 -2 18q-2 9 0 20q3 34 14 58q12 29 27 41q6 7 15 11q6 4 18 8h12l11 -1zM302 659l-9 -13q-32 -37 -61 -55q-37 -25 -77 -38l-22 -5q-15 -4 -20 -5q-5 -92 -1 -166q1 -74 14 -165q9 -70 24 -116q13 -46 27 -63l4 -3
q1 -1 2 -1h1q3 2 5 5q18 24 89.5 144.5t77.5 140.5l2 91q0 191 2 249h-58zM194 629q-8 8 -6 17.5t7 12.5q31 19 97 22l7 11q13 21 23 47q16 39 20 75q2 26 2 38q-2 18 -6 33q-3 11 -12 25q-9 9 -18 13q-5 2 -13 4h-15q-29 -4 -55 -24q-41 -33 -69 -108t-41 -188l-3 -21
q0 -13 -1 -19q92 13 162 90q-59 -7 -79 -28zM4 193q0 -1 1 -3t3.5 -5.5t5.5 -5.5t8 -1.5t10 5.5q11 9 19 21l18 23q5 13 23 47l-1 5q-1 10 -5 19l-9 14l-5 4l-5 3l-5 1l-6 -1q-3 0 -11 -4q-8 -6 -11 -9q-11 -10 -21 -34t-11 -49v-17q0 -7 2 -13z" />
    <glyph glyph-name="l_h" unicode="lh" horiz-adv-x="373" 
d="M216 907q6 -10 8 -17l-3 -1v-1l3 2q8 -24 8 -56q-2 -33 -8 -60l7 8q36 41 89 32l12 -4q8 -4 11 -8q8 -8 14 -20q6 -14 9 -29q1 -9 1 -33q0 -14 -5 -34q-7 -29 -26 -60q-22 -31 -44 -48q-30 -23 -53 -36q-31 -16 -56 -26q-6 -75 -4 -154q0 -33 3 -120q1 -10 1 -29l3 7
l4 10q13 31 17 38l17 35q4 7 9 12l10 8q1 0 3 1q4 2 6 2q5 2 10 0q6 -2 7 -3q2 -1 4 -3t3 -2q6 -8 8 -13q4 -7 5 -16q2 -5 0 -47q-5 -120 4 -120q6 0 25 43l35 80l21 54l1 2h3q14 -3 14 -13q0 -5 -17 -50q-11 -27 -19 -45t-20.5 -43t-23.5 -37.5t-21 -11.5q-7 1 -12.5 7
t-8.5 19t-4.5 24t-1.5 30.5v30t1 30.5q2 40 1 44q-2 8 -4 12l-4 6l-2 1q-4 -2 -5 -4l-6 -8q-15 -26 -31 -70q-22 -49 -31 -55q-3 -2 -7 -2q-8 0 -13 10q-3 9 -3 26q0 1 -0.5 4.5t-0.5 5.5q-22 -78 -43 -131q-43 -105 -83 -97q-5 0 -10 3q-3 3 -8 11q-7 17 -10 44
q-4 29 -6 77q-2 60 -1 99q0 54 3 114q4 71 7 104l5 59q-9 0 -13 2q-3 1 -9 5q-4 6 -3 9q0 3 1 4l1 3l3 -1l22 -3q0 6 2 18q-15 -3 -35 -1q-23 0 -40 4q-6 2 -9 2l-9 2q-16 4 -21 13q-3 6 0 16l1 4l4 -1q9 -4 20 -7l18 -5q22 -5 39 -5q19 0 35 3q22 169 52 265q32 99 73 113
q7 3 17 3q9 0 15 -1q7 -1 15 -6q8 -4 13 -9q7 -7 11 -15zM155 360q-2 70 3 148h-1q-3 0 -7 -2q-35 -10 -66 -11q-26 -3 -47 -2l-4 -56q-3 -34 -7 -107q-3 -58 -3 -112q-2 -61 1 -98q2 -53 5 -73q3 -27 9 -38v-1q23 -4 58 89q14 35 52 165l7 28l1 2q-1 20 -1 68zM207 833
q0 29 -6 49q-4 10 -6 13q-1 2 -8 9l-7 6l-8 3h-9q-4 0 -10 -2q-31 -9 -61 -99q-28 -92 -46 -248l14 6l20 10q31 18 56 49q24 28 41 70l12 33l9 35q7 30 9 66zM229 562q29 17 46 31q24 18 40 44q17 25 24 54q4 20 4 30q0 21 -1 30q-4 16 -7 22q-5 11 -10 15l-5 3l-4 2
q-39 8 -69 -27q-24 -31 -42 -98q-8 -26 -13 -64q-6 -42 -8 -65q37 17 45 23zM70 514q37 2 73 12l9 2l8 3q4 48 8 73q1 13 5 34l-17 -24q-28 -34 -63 -54q-8 -6 -26 -14q-16 -7 -25 -9l-3 -24q20 0 31 1z" />
    <glyph glyph-name="g_j" unicode="gj" horiz-adv-x="290" 
d="M97 364l3 -2l1 1q0 1 1 3v1q1 2 7 8q4 2 6 1q3 -1 6 -4l3 -7l2 -6v-1q0 -2 0.5 -6.5t0.5 -7.5q1 -6 1 -20q1 -21 0 -49q0 -9 -0.5 -28t-0.5 -29q-5 -83 -7 -108q-3 -50 -9 -97q8 0 32 -4l17 -4q20 8 36 12q2 36 4 110q0 76 1 113v70l2 65v3q16 1 20.5 -2.5t3.5 -14.5
q0 -9 -0.5 -29t-0.5 -30v-63l-2 -111q0 -54 -3 -108q13 1 39 -3q19 -4 44 -14q16 -8 18 -16q2 -7 -2 -16l-2 -3l-4 1q-21 14 -50 21q-21 7 -44 5q-8 -135 -32 -208q-30 -96 -91 -109q-25 -6 -42 8q-14 11 -20 32q-25 -40 -56 -47q-20 -4 -37 4q-18 9 -27 28q-12 22 -14 55
q-2 32 6 70q9 38 27 74q21 38 44 60q23 23 52 36q30 12 56 15q4 30 10 98q4 56 6 108q1 19 1 52q0 6 0.5 16t0.5 15l-1 -1q-6 -10 -10 -14q-9 -12 -25 -25q-14 -9 -28 -12q-6 -2 -15 -2q-7 0 -12 3q-5 1 -11 7q-4 6 -5 12q-1 3 -1 11l3 12q5 16 15 30q12 17 24 29q2 2 12 10
q2 2 13 7q8 2 12 2q8 0 12 -1q6 -2 10 -6zM35 -184q4 23 14 51q7 19 22 47l1 1v2q8 43 11 71q-24 -3 -44 -13q-21 -10 -44 -31q-21 -21 -39 -54q-16 -30 -24 -68q-8 -32 -6 -61q2 -31 11 -47q7 -12 15 -16q10 -5 22 -2q28 5 55 60v13q0 23 6 47zM165 -203q19 69 27 170
q-12 6 -29 11q-8 -4 -22 -16q-25 -21 -47 -58q-17 -88 -37 -141l-3 -7q0 -12 3 -23q3 -17 12 -26q9 -8 22 -5q48 10 74 95zM89 327l-2 8q0 2 -2 6q-1 3 -3 3q-2 2 -3 2h-3q-3 0 -5 -1l-8 -4l-8 -6l-20 -25q-9 -14 -12 -24l-2 -7v-4l1 -1q1 -1 5 -1q5 0 8 1q7 1 19 9
q10 7 20 19q6 8 8 12zM224 442q3 -6 3 -15v-1q0 -9 -3 -15q-5 -8 -10 -8q-7 0 -10 8q-3 6 -3 15t3 15q5 8 10 8q6 0 10 -7zM128 -16l2 3q-8 1 -23 1q-2 -9 -4 -29q16 18 25 25z" />
    <glyph glyph-name="z_j" unicode="&#x7a;j" horiz-adv-x="321" 
d="M8 336q10 18 24 28q11 10 23 14q13 5 24 5q14 0 24 -7t13 -20q3 -15 -5 -38q-7 -20 -30 -53q17 2 23 1q22 -3 38 -16q16 -12 29 -36q16 -30 23 -71q8 -39 8 -95v-27l25 3q2 33 4 101q0 76 1 113v70l2 65v3q16 1 20.5 -2.5t3.5 -14.5q0 -9 -0.5 -29t-0.5 -30v-63l-2 -111
q0 -52 -3 -104h5l12 -4l22 -3q19 -4 44 -14q16 -8 18 -16q2 -7 -2 -16l-2 -3l-4 1q-21 14 -50 21q-12 4 -18 5v-1l-3 1q-12 2 -23 0q-8 -135 -32 -208q-30 -96 -91 -109q-24 -4 -40 6q-2 -1 -10 -4q-16 -6 -30 -1q-12 4 -22 17q-11 16 -14 40q-2 20 1 55q5 33 16 62
q11 31 27 59q26 43 56 68q31 27 65 37q1 21 1 33q-2 56 -8 90q-8 38 -21 65q-9 17 -22 27q-11 10 -26 11q-13 1 -33 -7q-11 -6 -19 -14q-6 -4 -8 -4q-4 -1 -10 3q-10 7 0 20q15 18 33 44q15 23 23 41q7 16 5 27q-2 4 -4 5q-4 2 -9 2q-8 0 -16 -4q-10 -4 -16 -9
q-15 -12 -21 -29q-5 -15 0 -34l1 -4l-3 -1q-3 -1 -8 -1q-4 0 -9 3q-4 3 -7 10q-2 7 -1 13q0 16 9 34zM168 -76l4 37v-1q-28 -26 -48 -60q-13 -22 -20 -44q-10 -28 -14 -47q-5 -25 -5 -42q0 -21 3 -36q2 -10 4 -15q11 11 24 32q23 40 39 108q10 43 13 68zM196 -205
q21 72 29 194q-13 -3 -25 -9q-4 -38 -7 -57q-4 -33 -14 -73q-17 -71 -44 -117q-12 -19 -24 -33q5 -2 11 0q48 10 74 95zM66 -186q4 23 14 51q7 19 22 47q20 37 53 67q-19 -10 -30 -23q-27 -23 -47 -59q-13 -19 -26 -54q-10 -34 -14 -58q-4 -30 -1 -46q2 -21 9 -31
q6 -6 10 -7q7 -2 14 1l1 1q-6 14 -8 23q-3 18 -3 41t6 47zM255 440q3 -6 3 -15v-1q0 -9 -3 -15q-5 -8 -10 -8q-7 0 -10 8q-3 6 -3 15t3 15q5 8 10 8q7 0 10 -7z" />
    <glyph glyph-name="g_p" unicode="gp" horiz-adv-x="414" 
d="M97 364l3 -2l1 1q0 1 1 3v1q1 2 7 8q4 2 6 1q3 -1 6 -4l3 -7l2 -6v-1q0 -2 0.5 -6.5t0.5 -7.5q1 -6 1 -20q1 -21 0 -49q0 -9 -0.5 -28t-0.5 -29q-5 -83 -7 -108q-3 -50 -9 -97q8 0 32 -4q2 0 4 -1q15 7 34 10l9 110l6 112q2 23 4 71l5 64v4h13q12 -2 11 -19
q-3 -22 -3 -45q-1 -7 -1 -20q11 28 26 49q16 21 30 30l13 6q10 2 14 2q11 0 19 -4q10 -3 16 -11q8 -7 13 -20q3 -9 7 -27q2 -14 0 -29q-1 -12 -5 -31q-8 -34 -27 -62q-19 -27 -43 -40l-12 -6q-4 -1 -13 -1q-10 2 -14 4q-2 1 -14 8l-9 10q-4 4 -8 12l-5 -78q-4 -61 -7 -87
q16 0 39 -5q26 -7 44 -17q15 -7 17 -17q2 -5 -3 -15l-2 -3l-4 2q-21 14 -49 23q-24 6 -45 6q-1 -1 -1 -3v-4q1 0 1 -1q7 -7 0 -20l-2 -4l-2 1q-15 -111 -38 -176q-35 -93 -95 -103l-1 -1v1q-26 -3 -41 10l-4 4q-20 -21 -41 -27q-20 -4 -37 4q-18 9 -27 28q-12 22 -14 55
q-2 32 6 70q9 38 27 74q21 38 44 60q23 23 52 36q30 12 56 15q4 30 10 98q4 56 6 108q1 19 1 52q0 6 0.5 16t0.5 15l-1 -1q-6 -10 -10 -14q-9 -12 -25 -25q-14 -9 -28 -12q-6 -2 -15 -2q-7 0 -12 3q-5 1 -11 7q-4 6 -5 12q-1 3 -1 11l3 12q5 16 15 30q12 17 24 29q2 2 12 10
q2 2 13 7q8 2 12 2q8 0 12 -1q6 -2 10 -6zM4 -263q-3 16 -1 41q2 26 8 47q7 28 16 50q13 28 25 46q14 23 27 37q2 20 4 30q-24 -3 -44 -13q-21 -10 -44 -31q-21 -21 -39 -54q-16 -30 -24 -68q-8 -32 -6 -61q2 -31 11 -47q7 -12 15 -16q10 -5 22 -2q19 4 34 24q-2 7 -4 17z
M140 -201q24 65 37 174q-13 6 -26 9q-18 -10 -27 -17q-12 -9 -23 -20q-19 -118 -44 -182q-9 -21 -21 -43q1 -2 5 -6q7 -8 21 -6q47 8 78 91zM232 215q1 -5 7 -17l6 -9q3 -4 7 -7q2 -2 6 -4t7 -2t5 1q2 0 6 2q21 12 35 34q16 25 23 53q2 9 4 27q2 13 0 24q-1 8 -5 20
q-4 10 -8 13q-4 4 -7 5q-6 2 -10 2t-7 -1q-6 -3 -7 -4q-11 -6 -24 -24t-23 -44l-11 -31q-7 -18 -7 -23v-1q0 -5 3 -14zM89 327l-2 8q0 2 -2 6q-1 3 -3 3q-2 2 -3 2h-3q-3 0 -5 -1l-8 -4l-8 -6l-20 -25q-9 -14 -12 -24l-2 -7v-4l1 -1q1 -1 5 -1q5 0 8 1q7 1 19 9q10 7 20 19
q6 8 8 12zM27 -248l11 25q17 45 32 127q-11 -18 -20 -39q-8 -20 -15 -46q-5 -20 -7 -43q-1 -8 -1 -24zM112 -12h-5l-1 -2v-2q2 2 6 4z" />
    <glyph glyph-name="t_h" unicode="th" horiz-adv-x="348" 
d="M-162 629q-8 8 -6 17.5t7 12.5q40 24 166 24q11 211 50 262q11 15 19 14q5 0 15 -10l2 -4l-3 -2q-48 -34 -57 -260q12 0 51 -1.5t59 -0.5l3 20q8 56 14 83q17 85 52 132q38 50 93 39q6 -1 12 -5q7 -3 11 -9q8 -8 15 -25q6 -15 9 -34q2 -24 1 -40q0 -17 -5 -42
q-8 -36 -27 -72q-20 -34 -46 -58q-24 -23 -55 -44q-37 -22 -58 -31q-6 -90 -4 -186q0 -38 3 -146q1 -11 1 -35l7 21q9 26 18 46q9 24 18 42q5 9 9 15q7 7 10 9q8 4 10 4q5 2 10 0q6 -2 8 -4q2 -1 7 -6q5 -7 8 -15q4 -9 5 -19q2 -7 0 -58q-5 -144 4 -145q6 0 27 52l36 97
l10 31l1 2h4q14 -4 14 -16q0 -5 -6 -25l-19.5 -54.5t-21 -51.5t-25.5 -46t-22 -14q-11 1 -18 17t-8.5 46.5t-1.5 51t1 56.5q2 48 1 53q-2 10 -4 14l-4 8l-2 1q-2 -1 -5 -5q-2 -2 -6 -10q-12 -23 -33 -84q-25 -69 -39 -69q-9 0 -14 12q-16 -76 -20 -91q-20 -82 -44 -100
q-8 -8 -20 -6q-11 3 -20 15q-14 19 -22 56t-10.5 102.5t-2.5 111.5t2 138q0 192 2 249q-134 4 -166 -30zM55 17l4 -4h1q20 16 38 101q5 22 35 173q-2 66 -2 119q-1 65 2 156q0 23 6 95q-19 0 -57 1t-52 1q-4 -188 -2 -250q-6 -131 -1 -246t28 -146zM208 650q28 19 48 38
q26 24 41 53q17 30 25 65q4 26 4 37q1 14 -1 36q-4 18 -7 27q-5 13 -10 18l-5 4q-4 2 -5 2q-41 10 -71 -33q-26 -39 -44 -118q-6 -24 -14 -78l-3 -19q43 3 49 16q9 -4 8 -15t-6 -14q-13 -9 -53 -11l-3 -35q32 16 47 27z" />
    <glyph glyph-name="T_h" unicode="Th" horiz-adv-x="805" 
d="M499 593q37 1 76 14l10 3l8 3q4 58 8 88q8 56 14 83q17 85 52 132q4 6 14 16h-38q-41 1 -123 1q-24 1 -70 1h-64q-4 -112 -16 -318.5t-16 -298.5q-3 -58 -10 -206q30 -26 51 -64q19 -34 31 -88q4 -25 6 -51q3 -24 1 -53q-2 -30 -4 -47l-9 -43q-10 -33 -20 -48
q-13 -21 -26 -22q-18 -4 -29 13q-11 14 -17 46q-10 49 -12 142q-1 79 2 204q-32 24 -74 35l1 4q2 9 11 13q19 8 63 -21q7 145 10 195q3 70 11 210l13 216q6 138 7 183q-110 0 -161 -1q-89 0 -156 -4h-11.5t-10.5 0.5t-8.5 2.5t-5.5 7.5t-2 13.5q90 5 176 6h180v38
q6 0 10.5 -1t7 -3.5t4.5 -4t2.5 -6.5t0.5 -6.5v-8v-8.5q22 0 66.5 -0.5t67.5 -0.5q138 -2 213 -2q13 0 18 -1q1 0 4 -0.5t5 -0.5q6 -1 12 -5q7 -3 11 -9q8 -8 15 -25q6 -15 9 -34q2 -24 1 -40q0 -17 -5 -42q-7 -36 -27 -72q-20 -34 -46 -58q-24 -23 -55 -44q-37 -22 -58 -31
q-6 -90 -4 -186q0 -38 3 -146q1 -11 1 -35l7 21q9 26 18 46q9 24 18 42q4 9 9 15q7 7 10 9q8 4 10 4q5 2 10 0q6 -2 8 -4q1 -1 7 -6q5 -7 8 -15q4 -9 5 -19q2 -7 0 -58q-5 -144 4 -145q6 0 27 52l36 97l10 31l1 2h4q14 -4 14 -16q0 -5 -6 -25l-19.5 -54.5t-21 -51.5
t-25.5 -46t-22 -14q-11 1 -18 17t-8.5 46.5t-1.5 51t1 56.5q2 48 1 53q-2 10 -4 14l-4 8l-2 1q-3 -1 -5 -5q-2 -2 -6 -10q-12 -23 -33 -84q-25 -69 -39 -69q-10 0 -14 12q-3 10 -3 31q0 3 -0.5 9t-0.5 10q0 17 -1 28q-3 108 -3 144q-2 85 3 179h-1q-3 0 -7 -2
q-37 -11 -69 -14q-36 -5 -72 0q-8 0 -15 3q-5 1 -10 6q-4 6 -3 11q0 3 1 5l1 3l3 -1q39 -6 80 -3zM665 650q28 19 48 38q26 24 41 53q17 30 25 65q4 26 4 37q1 14 -1 36q-4 18 -7 27q-5 13 -10 18l-5 4q-4 2 -5 2q-10 2 -13 2h-4q-32 -1 -54 -35q-26 -39 -44 -118
q-6 -24 -14 -78q-6 -48 -8 -78q32 16 47 27zM342 -108q2 -92 11 -133q5 -22 9 -32q5 -7 7 -7q6 0 12 14q8 15 14 38q3 8 9 40q2 14 4 44q0 33 -1 50q-1 24 -6 48q-11 46 -25 73q-14 28 -33 50q-3 -119 -1 -185z" />
    <glyph glyph-name=".notdef" horiz-adv-x="215" 
 />
    <glyph glyph-name=".null" horiz-adv-x="0" 
 />
    <glyph glyph-name="nonmarkingreturn" horiz-adv-x="333" 
 />
    <glyph glyph-name="NULL" horiz-adv-x="0" 
 />
    <glyph glyph-name="NULL" horiz-adv-x="0" 
 />
    <glyph glyph-name="CR" unicode="&#xd;" horiz-adv-x="215" 
 />
    <glyph glyph-name="space" unicode=" " horiz-adv-x="215" 
 />
    <glyph glyph-name="exclam" unicode="!" horiz-adv-x="153" 
d="M150 956l-5 -1q-63 -60 -68 -333q-1 -79 4 -349q0 -40 -24 -41q-1 0 -1 19l1 19q-7 334 -1 433q10 179 54 245q15 23 40 8zM71 204q14 0 19 -28q1 -13 -4 -22t-13 -9q-8 -1 -14 7t-7 20q2 30 19 32z" />
    <glyph glyph-name="quotedbl" unicode="&#x22;" horiz-adv-x="129" 
d="M59 878q-8 -20 -17 -13l2.5 7.5t3 8.5l3.5 9t2.5 8.5t1 6.5t-1 5t-3.5 2q-11 -4 -13 13q-4 23 12 31q3 2 7 2q9 0 12.5 -10.5t1 -25.5t-5 -25.5t-5.5 -18.5zM113 878q-8 -20 -17 -13l2.5 7.5t3 8.5l3.5 9t2.5 8.5t1 6.5t-1 5t-3.5 2q-11 -4 -13 13q-4 23 12 31q3 2 7 2
q9 0 12.5 -10.5t1 -25.5t-5 -25.5t-5.5 -18.5z" />
    <glyph glyph-name="numbersign" unicode="#" horiz-adv-x="622" 
d="M459 954h-5q-54 -30 -102 -156t-100 -332l40 -4q60 -6 121 -6q48 194 93 318.5t97 170.5q22 18 41 -2h-5q-54 -30 -102 -156t-99 -331q90 0 101 17q9 -4 7 -15t-8 -14q-21 -11 -106 -11l-38 -162l-27 -118q108 -2 120 17q9 -4 7 -15t-8 -14q-20 -11 -125 -11
q-82 -342 -150 -450q-3 -5 -13 -7.5t-18 3.5q68 94 156 454q-65 2 -98 6l-62 6q-81 -343 -150 -451q-3 -5 -13 -7.5t-18 3.5q68 94 156 456q-74 2 -98 -20q-6 8 -3.5 17t8.5 12q31 16 99 14q21 91 28 119l38 160q-90 5 -118 -19q-6 8 -3.5 17t8.5 12q36 18 118 13
q48 194 93 318.5t97 169.5q22 18 41 -2zM290 439l-43 4q-24 -96 -38 -161l-27 -118q17 -1 58 -5q62 -5 101 -6l29 121l38 159q-80 2 -118 6z" />
    <glyph glyph-name="dollar" unicode="$" horiz-adv-x="548" 
d="M317 -26l4 -1q-15 -8 -29 3q-20 -2 -32 -1q-50 0 -92 13q-61 21 -92 64q-32 45 -31 105q2 43 17 85q27 80 85 142q44 49 100 76l2 41v4q-68 111 -92 208q-24 93 5 154q16 35 48 57q11 4 23 11l-8 28q6 3 13.5 -1t8.5 -8l4 -13q3 1 35 7q37 3 75 -7t66 -31q24 -18 35 -43
q11 -23 7 -48q-4 -13 -10 -13h-12l-2 2l1 3q9 23 0 44q-5 19 -31 40q-28 20 -59 28q-34 8 -68 5q-11 -1 -33 -5q23 -103 13 -412l1 -1l10 -17q3 -6 9 -16q39 9 65 8q33 0 65 -13q14 -6 15 -12q2 -6 -3 -14q-34 17 -67 20q-32 3 -66 -8q32 -58 56 -114q28 -67 39 -108
q24 -88 18 -142q-10 -86 -80 -110q-3 -1 -9 -2.5t-9 -2.5zM162 372q-53 -56 -82 -136q-15 -42 -15 -79q-2 -54 26 -94q32 -41 83 -56q35 -12 86 -14q4 0 11.5 0.5t10.5 0.5q-28 54 -34 163t-1 282q-50 -27 -85 -67zM335 337q-22 52 -57 115q-4 0 -12 -4q-7 -138 -0.5 -269.5
t34.5 -182.5q16 4 23 6q63 21 68 98q4 55 -17 131q-15 50 -39 106zM237 917l-16 -9q-27 -18 -42 -48q-25 -57 -3 -144q18 -75 74 -175q8 280 -13 376zM270 470l-3 5q0 -1 -0.5 -3t-0.5 -4z" />
    <glyph glyph-name="percent" unicode="%" horiz-adv-x="454" 
d="M325 -19q-70 0 -76 132q0 30 5.5 64t23.5 68t45 36q19 0 33 -15.5t20 -40t8.5 -44.5t2.5 -38q1 -17 -1.5 -42t-8.5 -53t-19.5 -47.5t-32.5 -19.5zM325 8q22 4 31 48t9 86q0 108 -41 112q-27 -6 -40 -52.5t-13 -88.5q0 -39 16 -74t38 -31zM417 942h-4q-29 -16 -56.5 -66
t-55 -140.5t-45 -159.5l-46.5 -192q-44 -190 -78.5 -309.5t-73.5 -180.5q-3 -5 -11 -7t-15 3q28 38 58 125.5t49 161.5t51 210l44 183.5t42.5 153.5t52.5 142t54 78q18 15 34 -2zM147 571q-70 0 -76 132q0 30 5.5 64t23.5 68t45 36q19 0 33 -15.5t20 -40t8.5 -44.5t2.5 -38
q1 -17 -1.5 -42t-8.5 -53t-19.5 -47.5t-32.5 -19.5zM147 598q22 4 31 48t9 86q0 108 -41 112q-27 -6 -40 -52.5t-13 -88.5q0 -39 16 -74t38 -31z" />
    <glyph glyph-name="ampersand" unicode="&#x26;" horiz-adv-x="549" 
d="M379 287q11 6 17.5 -4.5t7.5 -22.5q9 -78 4 -145q27 -71 38 -134.5t6 -123.5t-37.5 -108t-91.5 -78q-7 -3 -17.5 1t-10.5 14q206 87 104 392q-18 -120 -88 -182q-62 -53 -139 -38.5t-109 85.5q-19 41 -20 86t10 84t34.5 85t45.5 79.5l51.5 78t44.5 69.5q-12 22 -43 74.5
t-46 81.5q-34 66 -42.5 126t2 102t35.5 76q45 62 121 66t117 -60q22 -37 22.5 -90t-11.5 -97.5t-41 -106.5t-45.5 -91.5l-45.5 -78.5q88 -149 137 -264q1 55 -10 124zM301 -85q69 61 83 204q-89 188 -144 283q-13 -22 -42.5 -67.5l-48.5 -76t-41 -75.5t-31.5 -80t-9 -75.5
t17.5 -74.5q31 -62 98 -73t118 35zM239 454q20 34 34 60.5l35 68.5t33 77.5t21.5 74.5t7 73.5t-16.5 60.5q-34 57 -101 50.5t-100 -57.5q-20 -31 -27 -66t0.5 -75t15.5 -70.5t30.5 -74.5t33.5 -63z" />
    <glyph glyph-name="quotesingle" unicode="'" horiz-adv-x="73" 
d="M59 878q-8 -20 -17 -13l2.5 7.5t3 8.5l3.5 9t2.5 8.5t1 6.5t-1 5t-3.5 2q-11 -4 -13 13q-4 23 12 31q3 2 7 2q9 0 12.5 -10.5t1 -25.5t-5 -25.5t-5.5 -18.5z" />
    <glyph glyph-name="parenleft" unicode="(" horiz-adv-x="318" 
d="M335 945q-97 -27 -165 -172q-77 -164 -92 -413q-16 -240 36 -436q50 -191 147 -235q-6 -9 -22 -8t-23 6q-86 59 -133 233q-51 190 -35 441q15 250 93 419q63 134 151 172q11 4 26 4t17 -11z" />
    <glyph glyph-name="parenright" unicode=")" horiz-adv-x="283" 
d="M-67 -314q97 27 165 172q77 164 92 413q16 240 -36 436q-50 191 -147 235q6 9 22 8t23 -6q86 -59 133 -233q51 -190 35 -441q-15 -250 -93 -419q-63 -134 -151 -172q-11 -4 -26 -4t-17 11z" />
    <glyph glyph-name="asterisk" unicode="*" horiz-adv-x="386" 
d="M166 793q7 7 16.5 4.5t12.5 -7.5q23 -39 21 -147l42 29.5l32 24.5t26 26.5t6 21.5q9 4 14.5 -6t2.5 -17q-14 -33 -113 -100l-8 -5l37 -36.5t30 -26.5t31 -20.5t22 -1.5q5 -8 -4.5 -15.5t-15.5 -5.5q-33 7 -104 76q-2 -115 23 -127q-4 -9 -15 -8t-14 7q-19 30 -17 140
q-93 -67 -99 -105q-9 1 -13 10.5t-2 15.5q18 41 105 100q-90 92 -134 91q-1 9 7.5 15t14.5 4q43 -10 123 -88q2 121 -27 151z" />
    <glyph glyph-name="plus" unicode="+" horiz-adv-x="460" 
d="M199 399q8 6 17 4t12 -8q23 -40 17 -156q50 -6 92.5 -5t52.5 17q9 -4 7 -15t-8 -14q-29 -16 -145 -6v-2q-4 -52 -1.5 -96.5t19.5 -53.5q-4 -9 -15 -7.5t-14 7.5q-18 29 -12 150v5q-136 14 -168 -15q-6 8 -3.5 17t8.5 12q39 20 164 8q6 127 -23 158z" />
    <glyph glyph-name="comma" unicode="," horiz-adv-x="79" 
d="M63 107q-8 -24 -19 -15q1 2 4.5 11.5l5.5 15t3.5 13t0.5 11t-5 3.5q-13 -5 -15 15q-4 25 12 35q5 3 10 3q11 0 14.5 -12t0.5 -29.5t-6 -30t-6 -20.5z" />
    <glyph glyph-name="hyphen" unicode="-" horiz-adv-x="455" 
d="M35 212q-6 8 -3.5 17t8.5 12q41 21 182 7q51 -7 95.5 -6t54.5 17q9 -4 7 -15t-8 -14q-31 -17 -151 -5q-53 8 -108.5 7t-76.5 -20z" />
    <glyph glyph-name="period" unicode="." horiz-adv-x="92" 
d="M49 205q14 0 19 -28q1 -13 -4 -22t-13 -9q-8 -1 -14 7t-7 20q2 30 19 32z" />
    <glyph glyph-name="slash" unicode="/" horiz-adv-x="460" 
d="M459 953h-5q-24 -13 -47 -45.5t-45.5 -88t-40 -107.5t-40 -136.5t-36 -141l-36.5 -153.5q-52 -228 -94 -372.5t-89 -218.5q-3 -5 -13 -7.5t-18 3.5q34 46 70 150.5t59 195l61 252.5q34 146 53.5 221.5t51.5 184.5t63 172t65 93q22 18 41 -2z" />
    <glyph glyph-name="zero" unicode="0" horiz-adv-x="374" 
d="M29 -11q-11 43 -12 50q-23 14 -15 39l9 -8q-13 66 -17 138q-7 74 -7 166q0 108 10 199q9 94 27 169q23 91 53 142q32 54 72 70q15 7 28 4.5t23 -5.5t18.5 -14t14.5 -20t11.5 -23t8.5 -24.5l7 -24.5q31 -119 31 -283q0 -59 -7 -145q-6 -70 -18 -132q-14 -67 -33 -123
q-21 -54 -45 -87q-31 -42 -69 -54q-37 -11 -76 5q6 -26 10 -37l12 -37q-6 0 -10 -1.5t-8 2t-5.5 5t-4 7t-3.5 7.5t-3 8t-2 7zM18 202q6 -86 19 -147q39 -19 71 -10q35 9 61 46q23 32 42 82q20 55 32 119q10 52 17 129q6 72 6 143q0 84 -5.5 150.5t-17.5 120.5t-33.5 80
t-51.5 17q-35 -13 -63 -62q-28 -52 -48 -133q-18 -74 -27 -167q-9 -94 -9 -196q0 -95 7 -172z" />
    <glyph glyph-name="one" unicode="1" horiz-adv-x="270" 
d="M164 406q-11 -229 -49 -335q35 -7 71 -29q20 -13 7 -35q-47 34 -87 42q-13 -27 -29 -44q-19 -19 -40 -22q-15 -3 -22 10q-8 14 3 37q5 9 15 19q24 24 60 24q38 100 47 330q6 145 2 384q0 60 -1 84v44l-36 -67.5t-43 -75.5q-14 -25 -26 -40q-11 -14 -30 2q15 13 37 51
q9 15 42 76q21 40 37 65q17 30 30 30q16 0 13 -22q-2 -19 1 -146q2 -284 -2 -382zM81 48q-10 -2 -17 -6q-11 -4 -20.5 -15t-9.5 -21q31 8 47 42z" />
    <glyph glyph-name="two" unicode="2" horiz-adv-x="425" 
d="M362 932q-14 0 -31 -10q-50 -28 -89 -108.5t-47 -144.5q-13 -97 20 -203q-13 -5 -20 0t-8 11q-27 99 -15 195q13 105 70 190q13 20 25 33q12 15 27 28q39 33 66 33q10 -2 17.5 -8.5t11 -18t5.5 -22t1.5 -27t-1 -25t-2.5 -24t-2 -16.5q-15 -118 -61 -282
q-32 -114 -71 -225q-44 -118 -72 -180q89 -15 198 -72q21 -10 9 -31q-132 69 -217 81q-2 -3 -10.5 -19l-11.5 -21.5t-11.5 -18.5t-14 -19.5l-13.5 -16.5t-16.5 -16.5t-18.5 -11.5q-32 -18 -58 1t-24 54q2 26 19 47.5t41 32.5q20 10 48 13q24 5 56 0q35 77 73 181
q41 117 71 227q47 173 61 272q15 104 -5 121zM135 80q7 11 15 29q-26 2 -42 -1q-22 -3 -40 -11q-44 -21 -47 -61q0 -24 15 -33t35 2q13 7 32 27q23 30 32 48z" />
    <glyph glyph-name="three" unicode="3" horiz-adv-x="305" 
d="M-57 -22q47 -4 85 13q60 29 97 101q31 57 46 129.5t1 146.5t-63 111q-31 -21 -76 -21q-23 0 -28 17t13 30q24 13 51 11q17 -1 38 -11q33 32 49 69q16 35 26 89q6 37 10 87q3 57 -7 101q-10 45 -31 66q-11 11 -25 12t-24 -9q-17 -15 -27 -52q-3 -10 -5 -31t-3 -37v-17
q-24 -7 -24 21q1 38 10 73q11 40 34 61q41 35 81 -5q24 -24 36 -74q11 -47 8 -110q-4 -51 -10 -91q-11 -56 -27 -93q-16 -41 -49 -72q53 -44 65.5 -124.5t-3 -153.5t-45.5 -134q-12 -23 -31 -48q-35 -44 -77 -64q-37 -16 -75 -16q-5 0 -8.5 0.5t-7.5 6.5t-4 18zM64 485
q8 1 17 5q-9 3 -17 3q-16 0 -38 -12q25 0 38 4z" />
    <glyph glyph-name="four" unicode="4" horiz-adv-x="317" 
d="M220 418q3 -16 -2 -36q-7 -23 -26 -46q-5 -59 -2 -156q5 -102 17 -223q-20 -6 -25 18q-10 98 -14 192q-4 90 -1 149q-27 -18 -66 -22q-43 -5 -97 6q-8 2 -10 11t1 20q5 25 23 88q14 48 22.5 80t22 87.5t21 99t14 93.5t5 93.5t-9.5 77.5q24 8 28 -16q5 -30 5 -69.5
t-2 -71.5t-12 -84l-15 -77t-19.5 -83t-18 -69.5t-18.5 -66.5q-3 -8 -14 -51l-10 -41q46 -9 88 -2q39 6 64 27q0 3 1.5 13.5l2 14t2 12.5t3 14l3.5 11.5t5 11.5t7 10q10 7 17 1.5t10 -16.5zM194 366q17 30 10 47q-4 6 -6 -2q-5 -33 -4 -45z" />
    <glyph glyph-name="five" unicode="5" horiz-adv-x="302" 
d="M161 939q-32 -3 -90 -13q-3 -49 -21 -137q-13 -65 -25 -110q63 -3 107 -39q46 -39 65 -108q11 -36 14 -87q3 -48 -3 -98q-4 -49 -18 -97q-12 -48 -30 -93q-41 -97 -94 -145q-47 -43 -94 -42q-3 0 -6.5 1.5t-6.5 8t-1 16.5q49 -10 96 35q47 46 84 135q17 40 30 90
q10 36 17 93q5 58 3 94q-3 47 -13 82q-19 66 -61 99q-41 33 -104 32h-15q0 1 6.5 27.5l14 57t15 67.5t12.5 71.5t5 56.5v10q5 1 37 7q120 19 157 -5q19 -13 -10 -26v4q-2 17 -71 13z" />
    <glyph glyph-name="six" unicode="6" horiz-adv-x="341" 
d="M321 796l4 23q2 23 -1 42q-4 21 -9 35q-13 28 -38 35.5t-51 -4.5q-21 -10 -43 -32q-27 -28 -54 -78q-27 -53 -46 -115q-19 -61 -33 -131q-18 -90 -22 -173q47 19 86 3q41 -15 71 -70q21 -42 31 -88q9 -43 11.5 -89.5t-7 -96.5t-34.5 -75q-21 -21 -44 -18q-35 2 -64 41.5
t-42 78.5t-20 75q-22 115 -9 270q6 71 20 146t34 134q23 71 48 119q26 52 57 83q25 26 51 38q38 17 71 4t48 -48q16 -36 12 -87q0 -23 -27 -22zM42 146q19 -93 62 -135q21 -20 38 -23q15 -2 27 10q23 23 31 71.5t4.5 90t-11.5 78.5q-12 50 -29 82q-24 46 -61 59
q-35 13 -77 -8q-5 -130 16 -225z" />
    <glyph glyph-name="seven" unicode="7" horiz-adv-x="395" 
d="M211 762q1 4 6.5 22.5l7.5 25.5t8 25t10.5 27l11.5 23.5t13.5 23t15.5 17.5t18 15q19 11 43 14t42.5 -3.5t26.5 -23t-5 -44.5q-24 -53 -70 -89q-47 -36 -109 -52q-27 -101 -55 -248q-13 -68 -47 -272l-40 -228q-4 -18 -26 -13l21 119l21 125l21 122t27 151q28 148 52 237
q-130 -22 -245 15q-20 7 -14 29q127 -48 266 -18zM327 815q44 35 61 79q12 32 -21 38t-53 -11q-6 -5 -12 -11t-12 -15l-10 -15.5t-9.5 -18.5t-8 -18t-7.5 -20l-6.5 -18t-6.5 -19.5t-5 -16.5q53 16 90 46z" />
    <glyph glyph-name="eight" unicode="8" horiz-adv-x="377" 
d="M54 308q21 44 53 79q-38 90 -52 133q-25 70 -37 125.5t-6.5 121.5t36.5 120q18 29 41 47q34 27 77.5 21t67.5 -42q20 -27 35 -78q12 -42 18 -95q6 -54 6 -117q0 -117 -20 -237q-12 -82 -38 -170q-9 -32 -21 -61q19 -102 -47 -153q-59 -39 -106 -3q-48 33 -54 110
q-3 45 10 101q13 55 37 98zM250 390q18 119 20 233q0 61 -6 114q-7 57 -17 92q-12 43 -31 69q-21 30 -53.5 34.5t-59.5 -17.5q-19 -15 -35 -40q-24 -39 -31 -89t-3 -93t21 -100t30.5 -91.5l35.5 -86.5q8 -18 11 -26q58 -142 72 -194q29 87 46 195zM72 294q-22 -45 -32 -89
q-12 -48 -10 -93q7 -67 44 -94q18 -13 39.5 -12.5t38.5 14.5q54 42 36 139q-11 59 -71 204q-25 -31 -45 -69z" />
    <glyph glyph-name="nine" unicode="9" horiz-adv-x="380" 
d="M227 259q9 36 20 100q17 116 14 229q-26 -29 -50 -39q-40 -16 -81 0.5t-67 50.5q-36 41 -50 99.5t-5 113.5q9 61 45 105q13 15 25 24q15 10 30 15q45 13 79 -21q63 -62 88 -226q23 -168 -5 -355q-12 -67 -21 -102q-12 -49 -29 -93.5t-44 -90t-67.5 -73t-87.5 -26.5
q-8 0 -15 6t-4 19q40 -6 74.5 10.5t57.5 44.5t43 69t30.5 73t19.5 67zM252 704q-21 157 -81 215q-29 24 -56 16q-35 -13 -56 -48.5t-28 -77.5q-9 -50 5 -103.5t45 -91.5q26 -32 60 -44q36 -10 61 1q18 6 38 25t19 35l-1 13q-1 12 -3 30.5t-3 29.5z" />
    <glyph glyph-name="colon" unicode=":" horiz-adv-x="132" 
d="M62 205q16 0 19 -28q2 -13 -3.5 -22t-13.5 -9q-8 -1 -14 7t-7 20q2 30 19 32zM61 359q16 0 19 -28q2 -13 -3.5 -22t-13.5 -9q-8 -1 -14 7t-7 20q2 30 19 32z" />
    <glyph glyph-name="semicolon" unicode=";" horiz-adv-x="105" 
d="M63 108q3 8 6 20.5t6 30t-0.5 29.5t-14.5 12q-19 0 -22 -27q-3 -25 10 -27q2 0 5 1q4 0 5 -3.5t-0.5 -11t-3.5 -13l-5.5 -15t-4.5 -11.5q11 -9 19 15zM59 361q16 0 19 -28q2 -13 -3.5 -22t-13.5 -9q-8 -1 -14 7t-7 20q2 30 19 32z" />
    <glyph glyph-name="less" unicode="&#x3c;" horiz-adv-x="376" 
d="M59 255q20 -2 49.5 13.5t50.5 32l58 47.5q91 78 127 82q7 1 15 -7.5t2 -16.5q-16 7 -42 -9t-72 -53l-16 -13q-133 -112 -162 -97q24 -32 138 -92q106 -54 124 -86q4 -6 -1 -16.5t-15 -8.5q1 18 -25 36.5t-79 47.5q-10 5 -15 8q-44 23 -63.5 34t-47 31.5t-38.5 39.5
q-3 5 0 15t12 12z" />
    <glyph glyph-name="equal" unicode="=" horiz-adv-x="462" 
d="M67 155q-6 8 -3.5 17t8.5 12q41 21 182 7q51 -7 95.5 -6t54.5 17q9 -4 7 -15t-8 -14q-31 -17 -151 -5q-53 8 -108.5 7t-76.5 -20zM71 274q-6 8 -3.5 17t8.5 12q41 21 182 7q51 -7 95.5 -6t54.5 17q9 -4 7 -15t-8 -14q-31 -17 -151 -5q-53 8 -108.5 7t-76.5 -20z" />
    <glyph glyph-name="greater" unicode="&#x3e;" horiz-adv-x="363" 
d="M300 204q-20 2 -49.5 -13.5t-50.5 -32l-58 -47.5q-91 -78 -127 -82q-7 -1 -15 7.5t-2 16.5q16 -7 42 9t72 53l16 13q133 112 162 97q-24 32 -138 92q-106 54 -124 86q-4 6 1 16.5t15 8.5q-1 -18 25 -36.5t79 -47.5q10 -5 15 -8q44 -23 63.5 -34t47 -31.5t38.5 -39.5
q3 -5 0 -15t-12 -12z" />
    <glyph glyph-name="question" unicode="?" horiz-adv-x="317" 
d="M113 750q-17 -5 -17 16q3 112 48 164q42 34 79 20t52 -58q10 -30 11 -67.5t-1.5 -62.5t-17 -76t-20 -67l-26.5 -76q-70 -187 -69 -285q0 -5 -5 -11t-13 -4q-3 45 8.5 103.5t22.5 92t37 106.5l26 73t21 69t15 70t2.5 64.5t-10.5 64.5q-12 39 -40.5 49.5t-56.5 -15.5
q-46 -51 -46 -170zM147 201q16 0 19 -28q2 -13 -3.5 -22t-13.5 -9q-8 -1 -14 7t-7 20q2 30 19 32z" />
    <glyph glyph-name="at" unicode="@" horiz-adv-x="561" 
d="M358 347l1 4h6q2 -1 5 -1q13 -2 11 -24q-2 -16 -2 -49q4 -63 14 -82l5 -8q5 6 9.5 14.5t8.5 19.5t7 21.5t6.5 26t6 25.5t5.5 27.5t4 26.5t4 27l4 24q10 78 10 142q0 49 -6 98t-22 105t-50.5 88t-83.5 26q-42 -6 -81 -46q-39 -45 -67 -118q-27 -73 -39 -152
q-22 -127 -12 -259q6 -48 11 -77.5t19.5 -68.5t35.5 -66q34 -44 79 -53.5t86 9.5t73 59q23 28 41 90q15 -4 18.5 -11t-0.5 -22q-6 -29 -36 -69q-59 -78 -145.5 -82.5t-139.5 70.5q-56 79 -68 221q-13 126 11 262q12 74 40 156q32 80 74 125q45 46 97 52h2.5t5 0.5t8.5 0.5
q83 0 130 -90q45 -91 45 -248q0 -73 -9 -143q-31 -204 -73 -235q-14 -3 -25 5q-7 7 -12 17q-3 8 -6 19q-4 13 -8 55q-1 -2 -7 -10.5t-9 -12l-10.5 -12.5t-11.5 -11t-13 -8.5t-15.5 -5t-17.5 0.5q-4 2 -7 4q-15 10 -17 31q-2 22 9 45q6 14 10 20q8 12 13 18q8 10 16 15
q6 6 16 10q4 2 12 4h11q10 -2 14 -6t4 -6q1 -3 1 -7q-1 -7 -6 -13l-3 -3l-3 3q-4 5 -9 7q-7 0 -11 -2q-2 0 -3 -1.5l-2 -3t-3 -2.5q-4 -3 -10 -11q-8 -10 -11 -15l-8 -16q-5 -10 -8 -23.5t2 -23.5q1 0 1 -1h1q2 0 8 2q2 1 5 3t5 3q9 6 13 12l13 15q14 20 22 42q8 25 11 47z
" />
    <glyph glyph-name="A" unicode="A" horiz-adv-x="370" 
d="M-14 -136l11 192l9 199l6 134l6 127q-37 19 -84 38q-49 16 -96 26l-4 1l1 3q1 13 11 16q8 3 27 -2q33 -7 80 -24q40 -16 66 -30q12 199 27 289q19 122 52 122q79 3 116 -121q31 -102 36 -296q1 -37 1 -114q0 -39 -2 -115q32 -65 51 -136q19 -78 24 -155q5 -63 2 -112
q-3 -61 -12 -110q-8 -46 -18 -77q-11 -33 -22 -48q-9 -9 -14 -10q-8 -3 -16 2q-28 15 -33 147q-2 74 6 298q3 64 7 193q-31 61 -80 116q-44 47 -102 84q-2 -42 -5.5 -126.5t-5.5 -120.5v-1q-8 -207 -18 -367q-2 -19 -6 -23q-5 -6 -18 -3l-3 1v3zM66 817q-12 -97 -22 -286
q53 -32 105 -82q44 -46 75 -97q2 58 2 87q0 34 -2 98q-3 182 -31 282q-16 55 -38.5 83.5t-55.5 27.5q-18 0 -33 -113zM246 186l-3 -79q-8 -220 -7 -290q2 -112 18 -130q7 8 19 42q8 25 16 72q10 49 11 106q3 55 -1 110q-5 71 -20 131q-11 48 -32 103q0 -44 -1 -65zM-162 583
v-3l1 3h-1z" />
    <glyph glyph-name="B" unicode="B" horiz-adv-x="474" 
d="M56 902q30 25 67 40q20 8 48 11q24 1 48 -3q21 -4 45 -17q18 -11 38 -31q27 -30 42 -75q15 -48 15 -100q0 -72 -15 -136t-41 -106q-6 -10 -20 -28q-9 -11 -20 -20l6 -5l9 -8q32 -35 54 -93q23 -60 32 -132q8 -66 5 -129q-3 -66 -15 -126q-9 -40 -19 -67q-14 -36 -22 -53
l15 -5q15 -5 19 -7q18 -6 24 -12q6 -8 0 -21l-2 -3l-4 1l-34 14q-27 10 -31 11q-6 -11 -20 -31q-7 -9 -24 -26q-21 -20 -44 -31q-24 -11 -49 -14q-24 -3 -42 2q-19 6 -29 19q-8 10 -10 24q-2 13 4 26q4 13 15 25q11 13 25 21q31 18 73 21q40 5 88 -7q13 23 24 53
q10 29 18 65q12 58 15 122q2 65 -6 125q-8 68 -29 125q-21 54 -50 85q-5 6 -9 9l-7 6q-23 -14 -41 -19q-22 -6 -46 -6q-14 0 -22 3t-11 9q-5 7 -3 17q2 9 9 18q3 4 15 12q7 6 19 9q18 6 41 3q21 -3 38 -14q10 7 20 19q7 8 19 26q25 40 38 100q14 62 14 129q0 49 -13 91
q-14 43 -37 67q-17 17 -32 25q-18 10 -38 15q-16 4 -40 2q-22 -2 -41 -9q-38 -14 -69 -44t-53 -73l-1 -3l-3 1q-13 3 -13 14q-1 9 9 25q25 40 54 64zM102 -4v-119q0 -17 -4 -21t-17 -5h-4v145q-2 493 13 758v3h4q12 2 16 -2q5 -5 5 -20q-13 -226 -13 -739zM259 -215
q3 5 9 13t7 9q-43 9 -74 6q-35 -3 -62 -18q-14 -10 -18 -15q-7 -7 -11 -17q-3 -8 -2 -15q0 -7 4 -11q6 -8 18 -11q14 -4 30 -1q22 3 41 12q21 11 37 26zM190 426q12 2 27 10q-10 4 -20 6q-15 2 -27 -3q-5 -1 -13 -5q-7 -5 -9 -8q0 -1 -2 -2l-1 -2h1q1 -1 6 -1h4q17 0 34 5z
" />
    <glyph glyph-name="C" unicode="C" horiz-adv-x="421" 
d="M273 867q-9 23 -22 38q-12 12 -29 18q-16 4 -39 4q-28 -1 -53 -37q-26 -37 -48 -110q-21 -75 -35 -170q-15 -100 -21 -214q-5 -124 -1 -223q3 -100 16 -204q19 -137 53 -219q34 -77 76 -84q19 -3 44 33t59 117q34 83 74 209q40 131 68 256q26 -2 20 -26
q-30 -130 -67 -246q-32 -109 -71 -202q-35 -87 -68 -128q-34 -44 -63 -38q-54 9 -92 94q-39 86 -58 230q-12 87 -17 207q-3 125 2 226q6 109 20 216q17 106 37 173q24 81 55 122q32 43 69 43q25 1 49 -5q24 -9 39 -25q12 -12 23 -36q8 -19 13 -52q3 -17 -1 -24q-5 -6 -21 -9
q-3 39 -11 66z" />
    <glyph glyph-name="D" unicode="D" horiz-adv-x="440" 
d="M175 780q-4 0 -5 -1q-35 -30 -49 -288q-7 -120 -12 -484v-1q0 -87 -1 -125l7 -2q15 -5 39 -5q33 1 64 43q30 43 57 125q19 64 33 147q14 86 20 173q6 89 3 177q-3 80 -14 158q-18 109 -48 163q-31 58 -70 65h-1q-25 3 -48 -22q-26 -25 -52 -80q-23 -46 -42 -113
q-18 -59 -31 -135q-2 -11 -3 -19.5t-2 -11.5q-27 -1 -21 35q15 78 33 138q16 59 43 117q29 62 61 91q32 31 66 25h1q51 -9 86 -74q36 -66 53 -175q11 -67 14 -161q3 -89 -3 -180q-4 -88 -20 -175q-15 -89 -34 -150q-28 -90 -64 -137q-38 -48 -80 -49q-24 -1 -47 5
q-2 -48 -2 -66q0 -11 -4 -17t-8 -7.5t-14 -2.5v5l3 99q-6 4 -16 14q-13 13 -22 33t-13 48q-7 34 21 40v-4q3 -36 11 -62q14 -40 18 -37q1 0 1 2q0 17 0.5 53t0.5 55q2 169 3.5 255t8 227t21 215.5t36.5 93.5q14 13 35 5q13 -4 12.5 -14.5t-11.5 -20.5q-6 6 -14 12z" />
    <glyph glyph-name="E" unicode="E" horiz-adv-x="381" 
d="M109 -319l20 44q44 102 78 154q60 92 133 119q19 6 26 4q8 -3 15 -20l-5 -1q-33 -5 -64.5 -27.5t-52.5 -47t-44.5 -65.5t-34.5 -63.5t-28 -62.5q-21 -46 -23 -50q-13 -22 -22 -25q-25 -6 -43 15t-28 61q-39 144 -24 598q8 250 33 575l-32 3q-54 2 -91 -9l-4 -1l-1 4
q-2 10 2 16q7 9 23 11q40 6 85 3l20 -2q0 4 1.5 19.5t1.5 23.5q15 -1 20 -4.5t5 -13.5q-2 -14 -2 -27l48 -6q55 -7 87.5 -10.5t85.5 -2t100 11.5q1 -19 -3 -23t-22 -7q-90 -15 -251 6l-48 6q-21 -285 -29 -456h167q13 -1 17 -5t4 -17v-4h-188q-24 -525 20 -683q7 -29 19 -46
q9 -14 20 -11q1 0 9 16z" />
    <glyph glyph-name="F" unicode="F" horiz-adv-x="425" 
d="M430 932h48q22 0 28 -3q11 -5 12 -23h-4q-35 0 -203.5 1t-201.5 0q-13 -128 -24 -334l-3 -54h25q19 0 57.5 -0.5t56.5 -0.5q14 0 39.5 -0.5t38.5 -0.5q-1 -16 -6 -20q-4 -5 -22 -5h-51q-22 0 -69 0.5t-70 0.5q-7 -159 -8 -290q36 -34 66 -90q29 -57 46 -130q8 -34 11 -61
q4 -30 6 -60q2 -29 0 -55q-2 -28 -7 -47q-8 -36 -23 -54q-16 -19 -38 -19q-28 3 -45 41q-16 35 -26 108q-7 57 -12 137q-4 112 -4 181v19v18q-38 31 -87 34q0 19 11 23q15 6 38 -3.5t39 -22.5q2 154 7 271q-33 0 -69 -2q-3 16 2 21q4 4 21 6q6 0 22 0.5t26 0.5q2 48 4 73
q11 197 22 315q-63 0 -97 -2q-3 18 2 22q3 3 22 5q7 0 33 0.5t43 0.5l3 28q10 -1 14 -1.5t7.5 -4.5t2.5 -13q-1 -3 -1 -9q50 0 162 -0.5t156 -0.5zM73 167v-13q0 -107 4 -180q3 -72 11 -135q10 -69 21 -95q8 -21 19.5 -28t26.5 9q11 16 15 40q4 19 6 44q1 16 1 52
q-1 28 -6 58q-6 41 -11 59q-14 62 -39 113q-20 42 -48 76z" />
    <glyph glyph-name="G" unicode="G" horiz-adv-x="445" 
d="M404 816q-16 47 -50 75q-24 19 -53 27q-30 9 -66 7q-62 -6 -110 -78q-50 -76 -76 -210q-12 -60 -18 -123q-7 -62 -7 -131q0 -74 5 -124q4 -52 16 -110q16 -79 40 -118q24 -40 52 -41q53 -3 92 41q40 44 61 133l4 15l3 16q5 28 9 77t7 69q14 0 18 -1.5t4 -8.5v-6
q0 -3 -3 -87v-79v-88q-1 -15 -1 -45q3 3 4 3q13 8 20 5q8 -3 9 -16v-3q-7 -2 -18 -9q-8 -5 -16 -16q-5 -145 -21 -227q-22 -108 -64 -108q-28 0 -39 32q-6 25 -2 52q2 19 6 38q2 9 11 43q16 52 38 97q23 48 46 80q0 13 0.5 38.5t0.5 39.5v50q-22 -72 -61 -115
q-45 -49 -109 -46q-39 1 -69 49t-47 131q-11 49 -16 113q-6 64 -5 126q0 66 6 134q6 67 18 125q30 145 83 222q55 80 128 86q39 3 74 -7q38 -12 62 -33q32 -25 50 -66q19 -41 24 -95q1 -16 -6 -23q-6 -5 -14 -5h-4l-1 4q0 47 -15 91zM286 -233q12 65 17 183q-16 -30 -28 -57
q-16 -38 -29 -80l-11 -41q-5 -20 -6 -36q-1 -10 -1 -29q2 -11 5 -18q1 -4 5 -6q2 -2 7 -2q26 0 41 86z" />
    <glyph glyph-name="H" unicode="H" horiz-adv-x="381" 
d="M53 647q-1 -69 -5 -220q0 -4 -0.5 -11.5t-0.5 -10.5q36 -28 72 -62q69 -69 121 -150q1 82 5 236l7 235q4 102 6 183q3 70 1 105v4q18 1 22 -2t4 -19q0 -55 -7 -272q-5 -138 -8 -249q-1 -30 -2.5 -83.5t-2.5 -97t-1 -81.5q42 -78 63 -164q21 -81 21 -170q-2 -42 -4 -61
q-4 -27 -11 -53q-6 -24 -15 -37q-9 -15 -19 -19q-7 -2 -13 0q-5 1 -10 8q-22 26 -32 170q-7 116 -5 319q-53 95 -135 177q-30 28 -58 51q-8 -360 -8 -503v-4q0 -12 -3 -14q-3 -3 -23 -3v4q0 74 4 270q2 133 6 270q-49 37 -112 74l-3 1l1 4q7 12 13 13q9 0 22 -8
q49 -30 80 -54q5 219 9 440v4q15 1 20 -4t5 -20q-2 -134 -4 -196zM269 -180q7 -108 21 -136q5 -8 8 -1q4 7 11 28q7 34 9 50q4 23 4 57q2 69 -16 148q-15 67 -42 127q-2 -173 5 -273z" />
    <glyph glyph-name="I" unicode="I" horiz-adv-x="149" 
d="M56 753q-1 -26 -5 -119t-6 -147q-6 -138 -9 -288q2 -4 4 -6l5 -7q26 -39 49 -99q23 -56 35 -116q13 -56 16 -114q2 -60 -6 -97q-6 -34 -19 -56q-11 -21 -31 -36q-14 -8 -24 -5q-13 5 -19 17q-23 33 -33 185q-6 117 -3 326q-24 35 -54 57q-32 22 -64 27q6 18 13 20
q8 3 25 -4q23 -9 45 -26q16 -13 36 -34q3 138 9 268q4 121 11 255l5 113q0 11 1.5 41.5t1.5 43.5v4q20 0 24 -4q2 -4 1 -14v-8q-7 -166 -8 -177zM39 -139q6 -134 28 -167q3 -4 5 -5q2 0 3 1q13 9 24 27q11 27 15 48q8 43 5 92q-3 52 -15 109q-10 53 -31 107q-21 52 -39 81
q-2 -185 5 -293z" />
    <glyph glyph-name="J" unicode="J" horiz-adv-x="361" 
d="M125 -248q43 72 71 193q-61 1 -112 -21q-52 -20 -95 -65q-20 -22 -34 -48q-13 -22 -20 -50q-6 -24 -3 -43q3 -21 13 -32q11 -15 32 -19q18 -4 49 2q57 13 99 83zM255 827q5 -37 10 -112q4 -74 5 -129q5 -168 -7 -338q-13 -158 -37 -278q20 -2 31 -4q8 -1 37 -8
q17 -6 21 -12q4 -5 2 -17l-1 -4q-30 9 -52 13q-22 5 -44 7q-29 -130 -77 -209q-47 -78 -111 -92q-36 -7 -63 -1q-28 6 -44 27q-13 16 -18 43q-3 24 3 53q5 25 22 57q15 27 38 53q44 47 106 73q56 23 125 22q24 113 36 276q12 150 8 338q-2 70 -6 128q-3 63 -9 111
q-3 29 -10 68q-4 17 -8 30l-166 -104l-3 -3l-2 4q-6 11 -3 18t18 17l150 95q5 3 11 3q6 -2 10 -6q9 -9 15 -39q6 -27 13 -80z" />
    <glyph glyph-name="K" unicode="K" horiz-adv-x="355" 
d="M39 799q0 -46 -2 -180l-4 -251l11 -9q14 -14 21 -31q24 35 58 118l73 186l32 82l30 74t31 71t27 53.5t27 42.5t23 17q12 4 23 -2.5t14 -18.5q1 -3 1 -5.5t-0.5 -4t-2 -3.5t-2 -3t-3 -2.5t-3.5 -2l-4 -2t-4 -1.5q-6 15 -8 19q-2 2 -3 2q-20 -6 -66 -106q-18 -41 -88 -219
q-52 -136 -77 -194q-42 -95 -69 -128l25 -90q55 -213 93 -320q68 -188 125 -211q23 -9 47 13q28 26 53 91l2 4l4 -2q12 -7 13 -14t-6 -23q-29 -61 -60 -84q-31 -22 -62 -8q-24 10 -48.5 40t-47.5 82t-40.5 96.5t-39 117.5t-31 108.5l-27.5 103.5q-5 16 -11.5 42t-9.5 35
q-2 -2 -4 -2q-7 -3 -17 -3q0 -48 -1 -129t-1.5 -145.5t-0.5 -116.5q0 -17 -3 -20.5t-16 -4.5h-6v4q0 108 2 372q0 8 0.5 24.5t0.5 24.5q-17 14 -23 30q-8 22 -2 39q3 11 11 17q7 5 15 5l3 243l3 198q1 56 1 134q17 1 21 -1t4 -12q2 -29 -1 -140zM46 305q-7 19 -13 28
q0 -5 -0.5 -15t-0.5 -15q7 -3 14 2zM8 351q-16 0 -8 -29q1 -5 7 -11q0 9 0.5 20t0.5 14.5v5.5z" />
    <glyph glyph-name="L" unicode="L" horiz-adv-x="341" 
d="M57 917q10 -22 16 -61q4 -23 6 -49t3 -60t1.5 -60.5t-1 -72t-2.5 -71t-4 -80.5t-4 -77.5t-5 -85.5t-5 -82q-16 -272 -18 -356q-3 -159 27 -159q8 0 19 10q17 16 39 50q23 34 41 75q18 35 46 102q24 56 67 176q39 114 57 180l1 3h3q9 0 14 -5q6 -5 2 -23q-16 -55 -57 -175
q-34 -97 -63 -166q-21 -53 -47 -104q-22 -46 -42 -77q-27 -41 -49 -59q-32 -24 -52 -9t-24 50.5t-6.5 71t0.5 52.5q0 91 16 365q16 246 19 373q6 173 -8 259q-6 40 -17 62q-9 20 -22 18l-4 -1l-1 4q-3 18 4 22q7 5 24 -5q15 -11 26 -35z" />
    <glyph glyph-name="M" unicode="M" horiz-adv-x="701" 
d="M-27 -147q9 9 15 31q14 44 19 158q2 67 2 227v165q2 107 5 156q10 135 34 202q31 82 87 78q75 -4 110 -201q21 -120 27 -320q11 95 23 161q14 91 35 181q31 127 69 193q39 68 83 69q63 3 94 -71q27 -66 32 -187q3 -72 -2 -208q-1 -33 -14 -228q0 -6 -4 -62.5t-5 -85.5
q-6 -95 -7 -135q27 -14 51 -38q27 -28 44 -60q15 -29 23 -52q10 -30 14 -53q4 -36 3 -51q-2 -24 -9 -40q-8 -20 -24 -30t-38 -7q-53 6 -74 97q-17 75 -14 217q-15 6 -35 8q-18 2 -38 -3l-4 -1l-1 4q-2 10 1 15q4 7 21 10q21 0 31 -1q6 -1 25 -5q1 62 6 130l9 144
q21 300 16 434q-5 115 -27 172q-25 65 -74 62q-32 -1 -66 -61q-33 -63 -62 -182q-28 -122 -50 -280q-25 -190 -33 -341q-1 -9 -1 -22q0 -4 -0.5 -9.5t-0.5 -7.5q-1 -15 -5 -19t-13 -3h-8v4q0 2 0.5 10.5t0.5 14.5l2 35q9 270 -7 459q-24 315 -105 320q-22 1 -38 -17t-28 -53
q-21 -64 -29 -187q-6 -98 -6 -320q2 -144 -2 -229q-3 -110 -19 -163q-8 -25 -17 -36q-9 -15 -24 -18q-16 -4 -21 2q-3 4 1 20l1 4l4 -1q9 -3 17 5zM587 -248q17 -77 56 -83q11 -1 22 4q10 7 14 19q5 12 7 33q2 20 -3 44q-5 29 -13 49q-7 21 -21 48q-15 28 -36 51
q-15 16 -38 31q-2 -128 12 -196z" />
    <glyph glyph-name="N" unicode="N" horiz-adv-x="457" 
d="M51 936l-3 -153q-2 -155 -4 -224v-21q23 155 60 257q56 151 140 152q64 0 94 -92q25 -80 27 -228q1 -150 -20 -433q-2 -43 -8 -119l-6 -109q32 -27 52 -56q23 -33 34 -71q7 -22 8 -39q3 -19 3 -38q-2 -24 -4 -34q-3 -17 -9 -29q-9 -19 -22 -29t-30 -9q-40 3 -53 88
q-10 66 -5 205q-29 20 -56 32q-37 15 -68 21l-5 1l2 4q3 13 10 15q8 3 24 -2q22 -6 54 -19q34 -17 40 -21l6 98l8 113q9 134 14 222q6 117 5 208q-2 142 -22 214q-12 40 -30 61t-43 20q-98 -1 -154 -259q-41 -192 -53 -484l-3 -130l-3 -114q0 -14 -4.5 -17t-20.5 -2v3
q0 10 -0.5 35.5t1 87t4.5 124.5l4 206l4 189l4 237q2 124 2 155v4h10q16 0 16 -20zM333 -242q8 -70 32 -71q6 -1 14 5q7 5 13 18q3 8 7 24q3 12 3 28q0 23 -2 35q-1 15 -8 35q-11 34 -27 58q-17 25 -36 43q-3 -122 4 -175z" />
    <glyph glyph-name="O" unicode="O" horiz-adv-x="506" 
d="M172 819q-12 3 -24 -6q-22 -16 -44 -69t-39 -133q-16 -70 -26 -169q-10 -97 -10 -178q0 -170 34.5 -282t106.5 -116h4q4 0 12 1q42 7 79 58q37 53 65 147q25 83 39 191q14 99 14 218q0 53 -3 106q-6 64 -11 96q-8 52 -21 95q-15 48 -32 76q-18 32 -37 50q-40 37 -92 19
q-26 -10 -50 -28q-30 -24 -52 -60q-21 -31 -33 -77l-3 -15l-3 -16l-1 -4q-13 3 -17 11q-4 11 -2 22q0 2 0.5 4t0.5 4q13 49 36 85q22 36 59 66q29 23 58 32q62 24 115 -23q26 -24 44 -58q19 -34 33 -80q13 -40 23 -99q8 -60 10 -99q4 -45 4 -107q0 -109 -14 -221
q-13 -103 -40 -196q-31 -101 -72 -157q-43 -58 -94 -65h-5q-4 -1 -10 -1q-81 0 -126 112q-44 112 -44 311q0 92 9 180q9 96 27 172q17 85 42 140q24 57 51 77q18 14 35 13q18 0 36 -15q12 -12 11 -21q-1 -6 -13 -16l-2 4q-15 18 -28 21zM149 814l-1 -1z" />
    <glyph glyph-name="P" unicode="P" horiz-adv-x="527" 
d="M132 938q30 14 64 19q36 6 72 -1q2 0 17 -3q12 -2 17 -4q82 -24 123 -99q43 -77 38 -189q-1 -64 -21 -137q-18 -72 -51 -133q-33 -64 -78 -114q-46 -48 -93 -69q-59 -28 -120 -16q-18 4 -28 8l-6 -193q46 -36 70 -82q27 -50 32 -110q2 -25 0 -46q-9 -72 -38 -107
q-12 -12 -24 -15q-13 -3 -26 4q-23 14 -33 111q-8 76 -6 230q-38 26 -76 34q0 20 19 20q22 0 58 -24q1 52 5 188q-39 20 -64 43q-11 10 -13 21q-1 6 5 16l2 4l4 -3q34 -36 67 -53q2 63 8 199q12 289 14 411q-16 -29 -25 -59l-6 -25q-4 -15 -5 -27l-1 -4l-4 1q-10 2 -15 8
q-4 7 -1 25q2 10 4 15q2 10 4 14q14 52 43 87q4 6 7 8v55h11q9 0 12 -2q3 -3 3 -17v-11q14 12 35 22zM82 436q-4 -64 -10 -209q5 -2 22 -7q58 -16 115 11q43 19 86 64q38 41 73 107q31 60 50 128q17 68 20 132q3 106 -34 173q-37 69 -109 89q-5 2 -15 4q-48 8 -80 4
q-32 -5 -57 -17q-26 -13 -46 -33q-1 -85 -15 -446zM70 -233q6 -85 23 -93q2 -2 8 -2q4 1 10 7q7 7 14 21q7 17 11 31q5 18 6 40q2 19 0 42q-3 51 -25 94q-18 37 -51 67q-2 -131 4 -207z" />
    <glyph glyph-name="Q" unicode="Q" horiz-adv-x="495" 
d="M179 825q-17 2 -33 -14.5t-21.5 -28t-14.5 -33.5q-22 -53 -39 -133q-17 -82 -26 -169t-9 -177q0 -170 34.5 -282t105.5 -116q17 1 21 1q-26 45 -37 70q-8 24 11 35q1 1 2 1q21 -52 48 -97q26 14 50 48q37 52 66 147q25 83 39 192q14 110 14 217q0 61 -4 106q-3 57 -10 96
q-8 52 -21 95q-14 42 -32 76q-17 32 -38 50q-40 37 -91 19q-26 -10 -50 -28q-29 -23 -53 -59q-35 -61 -39 -113q-24 5 -18 41q11 45 36 85q25 41 58 66q27 21 59 33q67 23 114 -24q24 -21 44 -57q22 -40 34 -81q15 -53 22 -99q5 -32 11 -98q3 -52 3 -108q0 -120 -14 -221
q-15 -113 -40 -195q-30 -102 -72 -158q-25 -33 -54 -51q25 -41 40 -68q22 -48 30 -91q3 -18 -1 -25t-21 -10v5q-2 33 -14 68t-24 56l-33 55q-12 -5 -32 -5q-81 0 -125 112q-45 115 -45 312q0 80 10 180q9 91 26 171q19 86 42 141t51 77q17 13 36 13q18 -1 35 -16
q13 -11 11 -21q-1 -7 -12 -15q-18 20 -30 25z" />
    <glyph glyph-name="R" unicode="R" horiz-adv-x="456" 
d="M409 -278l11 22q8 -2 12 -11t-1 -23q-22 -42 -45 -58q-26 -20 -53 -5q-30 15 -46 107q-12 67 -23 199q-10 109 -17 158q-9 76 -23 130q-11 -4 -33 -6t-38 2l-11 2q-11 -288 -2 -391q-12 -1 -19 6t-8 14l-1 8q0 2 -0.5 8t-0.5 9q-4 120 6 357l-8 6q-27 19 -27 49
q0 11 2 16q3 12 14 23t23 15q0 18 1 28v1q13 334 11 463v5q18 -4 22 -15q4 -8 4 -29q0 -80 -11 -425q-1 -9 -1 -25q15 0 37 -8q36 -16 55 -79q32 17 59 50q30 36 53 85q14 29 25 66q12 36 18 72q8 38 9 75q2 40 -1 71q-10 101 -58 162q-46 60 -126 75q-16 2 -26 2
q-12 2 -25 0q-32 -3 -56 -14q-28 -11 -47 -28q-23 -20 -38 -48q-15 -25 -21 -61q-4 -22 -4 -35q0 -25 2 -42h-6q-8 0 -14 8q-9 11 -6 52q0 8 2 22q7 39 24 69q18 32 45 54q24 21 53 33q31 12 63 15q10 1 30 1q14 0 28 -3q89 -16 142 -83q53 -68 63 -177q4 -42 1 -75
q-2 -39 -9 -78q-4 -27 -18 -74q-13 -40 -27 -70q-28 -58 -59 -93q-30 -36 -67 -56q14 -54 24 -135q7 -49 17 -160q15 -149 22 -191q13 -84 33 -95q14 -7 31 6q15 14 34 47zM158 262q18 -3 32 -2q19 2 27 5q-17 54 -43 66q-10 4 -28 6l-3 -71q6 -3 15 -4zM119 329
q-17 -33 -1 -49q0 8 0.5 24t0.5 25z" />
    <glyph glyph-name="S" unicode="S" horiz-adv-x="530" 
d="M493 833q-10 28 -41 54q-35 26 -78 37q-44 13 -89 8q-48 -3 -88 -28q-36 -24 -54 -65q-34 -75 -5 -196q31 -123 122 -279l13 -23l6 -11.5t6 -10.5q47 13 86 12q42 0 84 -18q17 -7 20 -16t-4 -20q-42 23 -88 28q-42 4 -86 -10q41 -78 73 -156q34 -82 51 -147
q31 -114 24 -192q-12 -116 -106 -149q-42 -16 -91 -13q-66 0 -121 19q-80 28 -120 86q-43 59 -41 142q2 56 22 116q37 110 112 192q71 81 161 117l-11 19l-12 22q-94 161 -125 289q-31 127 6 209q22 48 64 76q45 28 100 33q47 4 98 -9q47 -13 86 -42q34 -26 47 -57
q14 -31 8 -66q-4 -16 -13 -19q-3 -1 -15 2l-4 2l2 4q12 31 1 60zM346 130q-35 81 -74 157q-85 -34 -153 -110q-71 -80 -107 -184q-20 -58 -20 -108q-2 -74 35 -127q38 -53 108 -77q50 -17 113 -18q50 0 82 12q83 29 90 134q6 67 -23 177q-20 70 -51 144z" />
    <glyph glyph-name="T" unicode="T" horiz-adv-x="591" 
d="M119 920h180v38q6 0 10.5 -1t7 -3.5t4.5 -4t2.5 -6.5t0.5 -6.5v-8v-8.5q22 0 66.5 -0.5t67.5 -0.5q138 -2 213 -2q20 0 26 -3q8 -5 9 -18l1 -4h-126q-41 1 -123 1q-24 1 -70 1h-64q-4 -112 -16 -318.5t-16 -298.5q-3 -58 -10 -206q30 -26 51 -64q19 -34 31 -88
q4 -25 6 -51q3 -24 1 -53q-2 -30 -4 -47l-9 -43q-10 -33 -20 -48q-13 -21 -26 -22q-18 -4 -29 13q-11 14 -17 46q-10 49 -12 142q-1 79 2 204q-32 24 -74 35l1 4q2 9 11 13q19 8 63 -21q7 145 10 195q3 70 11 210l13 216q6 138 7 183q-110 0 -161 -1q-89 0 -156 -4h-11.5
t-10.5 0.5t-8.5 2.5t-5.5 7.5t-2 13.5q90 5 176 6zM280 -148q2 -92 11 -133q5 -22 9 -32q5 -7 7 -7q6 0 12 14q8 15 14 38q3 7 9 40q2 14 4 44q0 33 -1 50q-1 24 -6 48q-11 46 -25 73q-14 28 -33 50q-3 -119 -1 -185z" />
    <glyph glyph-name="U" unicode="U" horiz-adv-x="515" 
d="M43 896l-3 -41q-15 -243 -15 -394q-2 -266 33 -420q22 -94 58 -138q40 -48 94 -35q52 13 91 114q32 86 54 243q17 127 26 298q7 139 7 276q15 3 20.5 -5.5t5.5 -25.5q0 -4 -0.5 -37t-0.5 -79l-3 -320v-119q0 -280 -3 -511q0 -19 -6 -28t-20 -7q0 86 2 285.5t2 303.5
q-26 -194 -63 -288q-43 -111 -106 -125q-70 -16 -117 39q-41 50 -65 153q-35 146 -35 425q1 152 16 397l5 98q10 0 14 -1t7.5 -7t2.5 -18q0 -5 -0.5 -16t-0.5 -17z" />
    <glyph glyph-name="V" unicode="V" horiz-adv-x="448" 
d="M267 131v-1q-22 -139 -34 -194q-16 -80 -34 -86q-8 -3 -17 4q-7 6 -12 22q-33 103 -58 282q-16 116 -38 333q-24 223 -35 297q-22 129 -47 145q18 30 35 -4q23 -42 41 -168q13 -90 31 -268q22 -216 38 -330q26 -183 58 -280q3 9 16 66q7 34 31 185q50 320 93 490
q39 150 84 234q53 99 117 103q14 2 21.5 -6t4.5 -22q-63 16 -115 -76q-45 -76 -87 -239q-38 -149 -93 -487z" />
    <glyph glyph-name="W" unicode="W" horiz-adv-x="585" 
d="M27 535q0 -126 4 -242q5 -156 18 -237q6 -43 14 -71q4 -11 7.5 -17t6.5 -5q40 5 76 114q19 60 46 191q10 50 13 59q8 26 18 27q10 0 14 -12q5 -11 6 -32q9 -130 21 -221q11 -85 26 -142q13 -48 26 -66q12 -16 24 -13q42 14 84 228q43 212 48 436q1 62 -2 132
q-5 67 -14 109q-9 51 -26 90q-15 33 -37 52q-20 17 -47 17q-27 -2 -63 -21q-14 20 11 33q25 17 67 13q28 -5 48 -22q26 -21 43 -60q18 -36 29 -97q9 -43 14 -112q5 -63 3 -135q-4 -225 -52 -447q-49 -225 -99 -240q-26 -8 -46 16q-20 23 -36 81q-15 56 -26 144
q-12 86 -20 190q-26 -137 -52 -212q-41 -119 -93 -125q-21 -4 -37 30q-11 24 -21 84q-12 84 -17 240q-2 70 -5 243v62q-1 17 -1 40l-1 5l5 -1q13 0 17 -6q5 -6 5 -25q0 -8 0.5 -33.5t0.5 -41.5z" />
    <glyph glyph-name="X" unicode="X" horiz-adv-x="512" 
d="M248 493l40 -144q51 132 81 262q35 152 55 349q14 3 18.5 -7.5t3.5 -28.5q-18 -176 -55 -330q-32 -133 -83 -265q-7 -16 -8 -20q54 -182 112 -313q117 -261 268 -327l4 -2q-7 -13 -14 -14q-11 -2 -21 3l-7 3q-147 81 -260 342q-48 111 -98 272q-36 -82 -84 -173
q-49 -91 -132 -229q-8 -13 -18 -20q-11 -6 -23 2l2 3q91 151 142 243q61 115 102 212l-50 176l-33 119.5t-31.5 103.5t-34 94.5t-33.5 67.5t-38.5 50t-40.5 16q9 35 40 15q29 -16 54.5 -54.5t52 -112.5t42.5 -128.5z" />
    <glyph glyph-name="Y" unicode="Y" horiz-adv-x="477" 
d="M75 793q-3 -50 -18 -201q-33 -309 -21 -413q6 -50 20 -73q16 -25 40 -22q29 4 58 36q30 32 62 97q28 54 65 159q29 90 60 210q2 8 6 11q5 5 11 3q10 -3 13 -59q2 -75 1 -141q-1 -38 -5 -143q-4 -93 -7 -138q2 1 5.5 2t5.5 2q10 4 16 5q4 1 10 1q9 1 16 -4q5 -3 8 -18
l-4 -1q-16 0 -31 -5q-12 -4 -27 -11q0 -12 -2 -34l-3 -36q-11 -174 -32 -273q-9 -46 -21 -71t-26 -24q-16 1 -28 23q-12 23 -18 55q-5 24 -6 52q-1 18 -1 57q2 33 6 64q3 20 13 60q14 49 39 87q22 35 54 56q6 98 8 147q2 44 4 148l2 83v26q-18 -68 -48 -157
q-33 -92 -61 -148q-33 -68 -69 -105q-35 -37 -71 -41q-39 -4 -61 28q-21 31 -27 89q-8 62 -1 193q5 78 21 226q16 152 20 226q5 101 -12 123l-3 4l4 2q12 7 18 4q9 -4 13 -22q10 -46 4 -139zM329 22l2 29q0 14 1 21q-20 -17 -36 -44q-19 -30 -30 -72q-9 -28 -12 -57
q-4 -20 -6 -61q-2 -28 0 -54l6 -50q7 -29 12 -42q6 -14 11 -14q6 -1 12.5 21.5t12.5 62.5q15 89 27 260z" />
    <glyph glyph-name="Z" unicode="Z" horiz-adv-x="518" 
d="M103 927q49 -8 122 -8q69 2 126 10q61 10 101 25q6 3 11 0q5 -2 7 -8q8 -19 -40 -180q-37 -126 -94 -291q70 -7 121 -7h2v-2q-2 -11 -5 -14q-4 -6 -21 -6q-38 2 -104 8q-1 -4 -7 -20q-39 -109 -89 -232q-50 -119 -80 -178q39 -14 75 -47t69 -90q10 -15 8 -25
q0 -9 -11 -15l-3 -2q-35 68 -72 106q-37 37 -78 50q-14 -28 -50 -88q-26 -38 -45 -55q-20 -19 -38 -20q-22 -2 -37 19t-17 44q0 29 15 56q8 15 23 30q14 14 31 24q20 11 39 17q21 5 66 2q37 74 80 179q23 55 95 247q-59 7 -102 7h-3l1 2q2 12 9 16q8 3 25 2q26 -1 78 -5
q55 158 88 270q40 129 47 177q-46 -15 -97 -22q-60 -9 -124 -9q-50 -1 -100 5q-47 5 -82 15q-20 6 -26 12q-7 7 -3 26l4 -2q32 -15 85 -23zM70 -73q26 40 45 79q-34 11 -79 -17q-15 -8 -26 -20q-9 -8 -19 -24q-11 -22 -11 -41q2 -22 14 -34q6 -7 14 -6q10 3 21 13
q16 14 41 50z" />
    <glyph glyph-name="bracketleft" unicode="[" horiz-adv-x="298" 
d="M59 -327q-8 8 -3 19q11 125 -9 489q-1 23 -2 35q-9 155 -12.5 228t-4.5 189t10.5 184.5t35.5 107.5q3 6 8 10q41 21 182 7l31 -3q3 -11 -6.5 -16.5t-26.5 -3.5q-126 12 -166 -2q-30 -48 -39 -170.5t-4.5 -229.5t16.5 -297q24 -357 13 -511q43 12 164 0l37 -3
q-1 -15 -8.5 -18.5t-30.5 -1.5q-53 8 -108.5 7t-76.5 -20z" />
    <glyph glyph-name="backslash" unicode="\" horiz-adv-x="477" 
d="M469 -319h5q-19 -20 -41 -2q-34 30 -65 93t-63 172t-51.5 184.5t-53.5 221.5l-61 252.5t-59 195t-70 150.5q8 6 18 3.5t13 -7.5q47 -74 89 -218.5t94 -372.5l36.5 -153.5t36 -141t40 -136.5t40 -107.5t45.5 -88t47 -45.5z" />
    <glyph glyph-name="bracketright" unicode="]" horiz-adv-x="286" 
d="M221 956q8 -8 3 -19q-11 -125 9 -489q1 -23 2 -35q9 -155 12.5 -228t4.5 -189t-10.5 -184.5t-35.5 -107.5q-3 -6 -8 -10q-41 -21 -182 -7l-31 3q-3 11 6.5 16.5t26.5 3.5q126 -12 166 2q30 48 39 170.5t4.5 229.5t-16.5 297q-24 357 -13 511q-43 -12 -164 0l-37 3
q1 15 8.5 18.5t30.5 1.5q53 -8 108.5 -7t76.5 20z" />
    <glyph glyph-name="asciicircum" unicode="^" horiz-adv-x="448" 
d="M240 854q-1 -20 15.5 -48.5t34 -49l49.5 -56.5q28 -30 42 -46.5t28.5 -39t16.5 -38.5q1 -7 -7 -15.5t-16 -2.5q7 16 -11.5 43.5t-56.5 70.5q-8 9 -12 13q-117 127 -103 158q-31 -25 -87 -141q-50 -108 -81 -128q-6 -4 -16.5 0.5t-9.5 14.5q12 0 26.5 17t25 35.5
t28.5 54.5l8 16q19 42 30.5 64t31 49.5t37.5 39.5q4 3 14.5 0.5t12.5 -11.5z" />
    <glyph glyph-name="underscore" unicode="_" horiz-adv-x="544" 
d="M52 42q-6 8 -3.5 17t8.5 12q41 21 182 7q237 -20 252 3q9 -4 7 -15t-8 -14q-34 -18 -253 3q-53 8 -108.5 7t-76.5 -20z" />
    <glyph glyph-name="grave" unicode="`" horiz-adv-x="110" 
d="M76 874q-14 7 -35 31.5t-38 30.5q2 9 12.5 12t14.5 -1q9 -5 31.5 -31.5t39.5 -27.5q3 -9 -8 -13.5t-17 -0.5z" />
    <glyph glyph-name="a" unicode="a" horiz-adv-x="170" 
d="M92 347l1 4h6q2 -1 5 -1q13 -2 11 -24q-2 -16 -2 -49q2 -30 4 -45l5 -22q1 -7 5 -15l5 -8q4 14 16.5 47.5t16.5 46.5q1 3 1 5l3 11l1 3l10 -1q15 -5 9 -25q-29 -104 -48 -111q-1 0 -3 -1h-1h-5q-8 0 -16 6q-7 7 -12 17q-3 8 -6 19q-4 13 -5 24l-3 22v9l-2 -2l-9 -14
l-15 -18l-16 -14l-17 -10q-9 -3 -17 -3l-8 2q-4 2 -7 4q-15 10 -17 31q-2 22 9 45q6 14 10 20q8 12 13 18q8 10 16 15q6 6 16 10q4 2 12 4h11q10 -2 14 -6t4 -6q1 -3 1 -7q-1 -7 -6 -13l-3 -3l-3 3q-4 5 -9 7q-7 0 -11 -2q-2 0 -3 -1.5l-2 -3t-3 -2.5q-4 -3 -10 -11
q-8 -10 -11 -15l-8 -16q-5 -10 -8 -23.5t2 -23.5q1 0 1 -1h1q2 0 8 2q2 1 5 3t5 3q9 6 13 12l13 15q14 20 22 42q8 25 11 47z" />
    <glyph glyph-name="b" unicode="b" horiz-adv-x="152" 
d="M92 220q-6 -18 -15 -22q-12 -6 -23 -4q-13 3 -21 13q-10 11 -20 38q-8 29 -14 62q-6 40 -8 74q-3 41 -3 87q0 10 0.5 28t0.5 28l2 51l-12 -3l-18 -4q-41 -8 -68 -9q-37 -2 -69 1q-10 1 -15.5 5t-6 7t-0.5 9v2l-1 5l5 -1q40 -4 76 -3q28 0 74 8l20 5q8 1 17 5
q11 147 44 243q31 94 76 106q20 3 32 2q14 -1 27 -8q9 -6 20 -20q8 -15 11 -30t3 -33q0 -19 -3 -38q-11 -60 -42 -114q-28 -53 -71 -87q-14 -11 -34 -22q-11 -7 -39 -17l-3 -57q-1 -20 -1 -59q0 -44 3 -85q4 -49 8 -72q5 -34 12 -56q8 -23 16 -31q2 -3 6 -5q5 0 7 1
q3 2 8 16q4 12 6 33q-7 5 -10 11q-8 10 -11 16l-9 18l-7 17q-2 13 0 17q2 9 9 10q10 3 20 1q9 -3 16 -10q5 -5 9 -12q4 -9 5 -17q0 -1 3 -17v-19v-4q8 -7 21 -5q15 3 27 21l3 4l7 -7q12 -12 -3 -26q-16 -16 -30 -17q-15 -3 -28 3q0 -5 -9 -33zM181 861q0 20 -2 29
q-3 10 -8 21q-5 7 -12 12q-7 4 -17 6q-10 0 -23 -3q-34 -8 -62 -92q-28 -87 -39 -223l29 13q20 12 27 18q40 32 66 80q28 50 38 106q3 18 3 33zM85 286l2 9q5 22 -13 43q-3 4 -6 6q-6 3 -9 -1q-1 -3 0 -7q1 -2 5 -16q1 -2 4 -7.5t5 -8.5l3 -5q2 -2 4 -6z" />
    <glyph glyph-name="c" unicode="c" horiz-adv-x="111" 
d="M116 299l4 -3q3 -6 3 -9q0 -7 -3 -10q-4 -6 -8 -9l-5 -3q-32 -24 -48 -31q-29 -14 -49 1q-12 9 -14 30q-2 24 7 46q4 12 7 17q3 8 9 15v-1q4 7 12 14q8 6 13 8q10 3 17 2q8 -1 16 -6q13 -10 5 -22q-4 -4 -6 -5v-1l-3 -2l-3 3q-6 6 -9 7q-5 2 -8 0q-4 -2 -7 -4t-7 -8
l-7 -11l-6 -14q-6 -17 -6 -32q0 -13 5 -16q8 -7 28 4q15 7 39 26q2 1 5.5 4t4.5 3l10 7l2 1z" />
    <glyph glyph-name="d" unicode="d" horiz-adv-x="274" 
d="M110 359l2 -3q3 45 11 105q7 64 16 106q-17 0 -49 2q-38 4 -57 8q-19 3 -25 9q-8 7 -5 19l1 3l4 -1q36 -7 72 -12q35 -3 64 -2l5 22q1 9 5 25q30 121 69 194q39 77 90 109q14 10 33 15q16 6 35 6q9 0 21 -2q7 -2 19 -8q16 -10 22 -23q9 -15 12 -35t2 -39q-4 -28 -8 -44
q-10 -41 -35 -86q-26 -44 -57 -75t-67 -49q-36 -19 -83 -29l-22 -3q-14 -2 -21 -2q-16 -88 -23 -171q-9 -88 -7 -172q0 -68 8 -122q8 -49 20 -69l3 -4q1 -1 2 -1h1q4 2 6 4q9 12 10 14l12 21q20 39 37 90q18 55 41 137l1 4l3 -1q12 0 16 -8q2 -6 -2 -24q-14 -49 -39 -125
q-18 -51 -34 -84l-14 -25q-1 -1 -6 -7.5t-8 -9.5q-7 -8 -18 -11q-10 -1 -19 3l-7 6l-6 8q-15 25 -23 76q-9 65 -9 127v21q-9 -9 -33 -37q-18 -18 -27 -23l-7 -4l-8 -2q-10 -2 -18 0q-8 1 -15 7q-5 3 -11 13q-4 7 -6 19q-1 9 0 19q0 9 3 21q7 33 21 57q15 28 33 40q7 6 17 9
q6 3 18 5q8 0 12 -1l11 -3q8 -4 11 -7zM165 594q43 1 82 15t65 35t39 33.5t19 21.5q16 20 29 45q21 38 30 75q6 25 7 39q1 13 -1 35q-3 13 -9 26q-6 10 -16 17q-8 4 -13 5q-10 2 -16 2q-30 0 -57 -18q-46 -29 -84 -102q-37 -71 -65 -188l-6 -22q-2 -12 -4 -19zM9 222
q1 -3 2.5 -7t8.5 -10.5t17 3.5q13 9 21 19l21 22q6 10 29 46v5q0 11 -3 20q-3 10 -7 15l-4 5l-5 3l-5 2h-6q-5 0 -11 -3q-8 -4 -12 -7q-12 -8 -26 -32q-14 -26 -18 -49q-2 -12 -2 -18v-14z" />
    <glyph glyph-name="e" unicode="e" horiz-adv-x="115" 
d="M99 255l15 42l1 3h3q1 -1 3 -1q8 -3 10 -10q3 -6 1 -14q0 -1 -0.5 -3t-0.5 -3l-13 -32q-7 -16 -13 -28q-10 -20 -20 -30q-11 -11 -22 -11q-10 3 -11 3q-4 1 -12 5q-13 9 -19 19q-7 9 -14 29q-6 20 -7 32q-1 11 -1 34q2 19 6 33t13 28q4 7 9 12q3 4 9 8q4 3 8 3q3 1 9 1
q6 -2 8 -4q4 -1 7 -6q4 -6 5 -10q2 -5 4 -13q1 -15 0 -33q-3 -16 -11 -34t-16 -27q-14 -16 -18 -19q3 -12 9 -19q6 -9 13 -13l5 -3q1 0 3 -0.5t3 -0.5q2 0 5 6q7 9 13 22q6 10 16 34zM52 337q0 4 -2 8q0 2 -2 4l-4 -3l-5 -8q-4 -6 -10 -22q-4 -18 -5 -28v-19q0 -9 1 -13
q1 1 2.5 3t3 4.5t2.5 3.5q5 7 11 18q4 8 8 28q2 13 0 24z" />
    <glyph glyph-name="f" unicode="f" horiz-adv-x="134" 
d="M-125 479q-8 8 -6 17.5t7 12.5q35 20 123 24q9 128 39 217q44 123 119 141q24 6 43 -2q20 -7 35 -27q4 -5 9 -17l5 -19q2 -14 2 -20l-2 -21q-5 -25 -18 -46q-17 -20 -37 -31q-12 -4 -15 -4q-7 -2 -12 0q-4 3 -7 8l-3 7v3l4 1q26 6 42 23q16 18 21 43q3 8 1 17q1 5 -1 16
q0 2 -3 14l-7 13q-10 12 -22 17q-13 4 -29 1h-1q-67 -19 -102 -131q-27 -81 -37 -203h35q38 0 53 0.5t40.5 2.5t37.5 7.5t17 14.5q9 -4 8 -15t-6 -14q-27 -18 -151 -20h-36q-3 -42 -3 -88q0 -84 6 -168q5 -79 17 -173l12 -67q4 -24 11 -61q39 0 74 -11q31 -10 63 -37
q18 -17 35 -42q16 -24 24 -51q10 -27 11 -49q4 -25 1 -48q-5 -36 -19 -54q-16 -21 -38 -24q-35 -4 -70 35q-31 36 -60 115q-17 47 -22 66q-10 34 -19 75q-39 -7 -57 -11q-38 -13 -67 -26l-3 -1l-2 4q-4 7 -1 16q3 8 20 14q18 8 56 19q24 6 49 9q-7 32 -11 59l-11 67
q-12 84 -18 174q-6 92 -5 170q0 44 3 88q-95 -2 -122 -30zM237 -197q-6 20 -21 46q-15 22 -32 36q-24 21 -53 32q-25 9 -62 11l18 -70q9 -31 21 -64q28 -73 53 -103q26 -33 51 -30q12 1 22 16t13 39q1 6 1 43q-2 18 -11 44z" />
    <glyph glyph-name="g" unicode="g" horiz-adv-x="201" 
d="M97 364l3 -2l1 1q0 1 1 3v1q1 2 7 8q4 2 6 1q3 -1 6 -4l3 -7l2 -6v-1q0 -2 0.5 -6.5t0.5 -7.5q1 -6 1 -20q1 -21 0 -49q0 -9 -0.5 -28t-0.5 -29q-5 -83 -7 -108q-3 -50 -9 -97q8 0 32 -4q18 -3 37 -11q18 -6 23 -12q7 -7 0 -20l-2 -4l-3 2q-26 12 -48 18t-43 6
q-19 -147 -50 -225q-33 -82 -78 -92q-20 -4 -37 4q-18 9 -27 28q-12 22 -14 55q-2 32 6 70q9 38 27 74q21 38 44 60q23 23 52 36q30 12 56 15q4 30 10 98q4 56 6 108q1 19 1 52q0 6 0.5 16t0.5 15l-1 -1q-6 -10 -10 -14q-9 -12 -25 -25q-14 -9 -28 -12q-6 -2 -15 -2
q-7 0 -12 3q-5 1 -11 7q-4 6 -5 12q-1 3 -1 11l3 12q5 16 15 30q12 17 24 29q2 2 12 10q2 2 13 7q8 2 12 2q8 0 12 -1q6 -2 10 -6zM38 -223q28 78 45 211q-24 -3 -44 -13q-21 -10 -44 -31q-21 -21 -39 -54q-16 -30 -24 -68q-8 -32 -6 -61q2 -31 11 -47q7 -12 15 -16
q10 -5 22 -2q36 7 64 81zM89 327l-2 8q0 2 -2 6q-1 3 -3 3q-2 2 -3 2h-3q-3 0 -5 -1l-8 -4l-8 -6l-20 -25q-9 -14 -12 -24l-2 -7v-4l1 -1q1 -1 5 -1q5 0 8 1q7 1 19 9q10 7 20 19q6 8 8 12z" />
    <glyph glyph-name="h" unicode="h" horiz-adv-x="214" 
d="M-92 593q37 1 76 14l10 3l8 3q4 58 8 88q8 56 14 83q17 85 52 132q38 50 93 39q6 -1 12 -5q7 -3 11 -9q8 -8 15 -25q6 -15 9 -34q2 -24 1 -40q0 -17 -5 -42q-8 -36 -27 -72q-20 -34 -46 -58q-24 -23 -55 -44q-37 -22 -58 -31q-6 -90 -4 -186q0 -38 3 -146q1 -11 1 -35
l3 9l4 12q9 26 18 46q9 24 18 42q5 9 9 15q7 7 10 9q8 4 10 4q5 2 10 0q6 -2 8 -4q2 -1 7 -6q5 -7 8 -15q4 -9 5 -19q2 -7 0 -58q-5 -144 4 -145q6 0 27 52l36 97l10 31l1 2h3h1q14 -4 14 -16q0 -5 -6 -25l-19.5 -54.5t-21 -51.5t-25.5 -46t-22 -14q-11 1 -18 17t-8.5 46.5
t-1.5 51t1 56.5q2 48 1 53q-2 10 -4 14l-4 8l-2 1q-2 -1 -5 -5q-2 -2 -6 -10q-12 -23 -33 -84q-25 -69 -39 -69q-9 0 -14 12q-3 10 -3 31q0 3 -0.5 9t-0.5 10q0 17 -1 28q-3 108 -3 144q-2 85 3 179h-1q-3 0 -7 -2q-37 -11 -69 -14q-36 -5 -72 0q-7 0 -15 3q-5 1 -10 6
q-4 6 -3 11q0 3 1 5l1 3l3 -1q39 -6 80 -3zM74 650q28 19 48 38q26 24 41 53q17 30 25 65q4 26 4 37q1 14 -1 36q-4 18 -7 27q-5 13 -10 18l-5 4q-4 2 -5 2q-41 10 -71 -33q-26 -39 -44 -118q-6 -24 -14 -78q-6 -48 -8 -78q32 16 47 27z" />
    <glyph glyph-name="i" unicode="i" horiz-adv-x="74" 
d="M24 270q2 -26 3 -27q1 0 2 1l9 7q10 10 16 18l19 27l3 4l3 -3q1 0 2 -1q15 -11 2 -29q-5 -8 -15 -20l-13 -14q-9 -9 -20 -13q-7 -4 -18 0q-27 10 -17 129v6l1 11l4 -1q9 0 12.5 -1t5.5 -5.5t2 -13.5q-2 -44 -1 -75zM26 417q3 -7 2 -15q0 -9 -3 -15q-5 -8 -11 -8
q-6 1 -9 9q-3 7 -2 15q0 7 4 15q3 8 10 8q6 -2 9 -9zM26 417l-3 -2v1z" />
    <glyph glyph-name="j" unicode="j" horiz-adv-x="89" 
d="M-166 -211q4 23 14 51q7 19 22 47q22 40 57 70q32 26 68 33q2 36 4 110q0 76 1 113v70l2 65v3q16 1 20.5 -2.5t3.5 -14.5q0 -9 -0.5 -29t-0.5 -30v-63l-2 -111q0 -54 -3 -108q13 1 39 -3q19 -4 44 -14q16 -8 18 -16q2 -7 -2 -16l-2 -3l-4 1q-21 14 -50 21q-21 7 -44 5
q-8 -135 -32 -208q-30 -96 -91 -109q-25 -6 -42 8q-15 11 -23 42q-3 18 -3 41t6 47zM-36 -230q21 72 29 194q-27 -7 -53 -29q-28 -25 -48 -60q-13 -22 -20 -44q-10 -28 -14 -47q-5 -25 -5 -42q0 -21 3 -36q3 -17 12 -26q9 -8 22 -5q48 10 74 95zM23 415q3 -6 3 -15v-1
q0 -9 -3 -15q-5 -8 -10 -8q-7 0 -10 8q-3 6 -3 15t3 15q5 8 10 8q7 0 10 -7z" />
    <glyph glyph-name="k" unicode="k" horiz-adv-x="201" 
d="M-49 580q43 -2 70 6q15 119 34 193q21 80 47 116q17 25 41 42q22 16 47 21q14 2 22 1q14 -2 20 -5q9 -4 18 -11q6 -6 13 -18q10 -18 10 -43q1 -23 -8 -56q-21 -76 -61 -136q-39 -59 -90 -92q-11 -7 -35 -19q-22 -10 -34 -14l-3 -19l-2 -24q-7 -75 -12 -157
q0 -4 -2.5 -55.5t-3.5 -77.5q13 52 31 82q31 49 74 41q12 -3 12 -9q1 -4 -6 -13q-1 -1 -12.5 -18.5t-18.5 -30.5q-23 -43 -19 -54q0 -3 3 -12q21 -76 29 -75q5 0 12 9q9 10 21 30l24 49l30 66l1 3h2q11 0 15 -5q5 -6 -1 -22l-27 -59q-11 -24 -23 -44q-13 -23 -27 -38
q-14 -14 -25 -14q-10 -1 -19 8t-16.5 26.5t-11 28t-8.5 29.5l-3 13q-6 17 14 58q10 20 26 46q-18 -10 -30 -35q-17 -34 -31 -103q-8 -44 -13 -108q-4 -45 -6 -134v-30q0 -38 1 -54q0 -10 0.5 -24t0.5 -19l1 -12q-14 -1 -26 7v4q-6 166 0 369q5 184 19 336l2 21q0 5 2 15
q-22 -5 -60 -5q-36 0 -71 7q-13 4 -15 6q-5 2 -8 7q-2 6 -1 9q0 2 2 6l2 3l3 -1q42 -10 80 -12zM47 593l25 10q16 8 28 16q48 31 84 85q38 58 57 129q8 29 8 47q-2 22 -8 34q-2 4 -8 10q-3 3 -11 7q-6 3 -13 3q-5 1 -15 -1q-18 -3 -38 -17q-19 -14 -34 -35q-24 -34 -43 -108
q-20 -78 -32 -180z" />
    <glyph glyph-name="l" unicode="l" horiz-adv-x="155" 
d="M219 931q5 -9 8 -18l-3 -1v-1l3 2q8 -24 8 -57q-2 -35 -10 -74q-1 -5 -9 -38q-8 -24 -13 -35q-16 -42 -45 -79q-30 -36 -63 -55q-8 -6 -26 -14q-12 -5 -26 -10q-2 -15 -3.5 -32t-3 -38t-2.5 -32q-3 -35 -7 -110q-3 -60 -3 -115q-2 -61 1 -100q2 -54 5 -75q3 -29 9 -39v-1
q24 -4 59 91q16 43 52 170l7 28l1 2q19 3 19 -14q0 -2 -3 -22q-30 -114 -56 -180q-20 -50 -41 -77t-43 -22q-6 0 -10 3t-8 11q-7 16 -10 45q-4 31 -6 79q-2 62 -1 101q0 56 3 117q4 73 7 107q0 4 3.5 41l5.5 57q-15 -3 -35 -1q-22 0 -41 4q-6 2 -9 2l-9 3q-16 4 -21 13
q-3 6 0 16l1 4l4 -1q9 -4 20 -7q11 -4 19 -5q22 -5 39 -5q19 0 35 3q22 175 53 272q32 101 73 115q7 3 17 3t16 -1q8 -1 15 -6q8 -4 13 -9q7 -7 11 -15zM210 855q0 31 -6 50q-4 10 -6 13q-2 4 -8 10l-7 6l-8 3h-10q-4 0 -10 -2q-31 -10 -61 -102q-27 -90 -47 -254l15 6
q10 4 20 11q32 18 56 50q26 30 42 72l12 33l9 36q7 32 9 68zM225 782h-3h3z" />
    <glyph glyph-name="m" unicode="m" horiz-adv-x="258" 
d="M21 272l4 13q4 20 11 36q4 12 11 23q6 6 10 7q4 3 10 1t9 -4q1 -1 2 -2.5l2 -3t2 -3.5q4 -6 7 -23q3 -13 3 -32v-41q0 -20 1 -30v-14q14 31 32 77l16 39q5 12 13 28q8 12 16 17q8 6 16 1q16 -10 12 -116q-4 -104 2 -120q0 1 2 3l7 13q2 3 4.5 10l3.5 10q11 27 20 58
q14 52 18 72l1 3h3h1l2 -1q7 -2 10 -8q4 -5 4 -15v-2l-1 -2q-2 -8 -2 -9l-3 -10q-6 -27 -15 -53q-6 -23 -14 -42l-10 -22l-9 -16q-6 -9 -14 -14q-10 -4 -16 0q-2 0 -4 2l-4 3q-15 16 -11 141l2 61q0 15 -1 20v-1l-13 -29l-13 -31q-25 -60 -30 -70q-17 -36 -28 -39
q-7 -3 -12 1q-4 2 -8 11v1v1q-2 24 -2 36v56q-1 7 -1 20q0 38 -3 38t-15 -42q0 -1 -9 -34l-9 -30q-7 -20 -8 -21q-3 -9 -7 -13q-2 -3 -8 -5q-5 0 -9 4l-3 2l1 1q-2 5 -2 23q-1 13 1 46q0 6 0.5 16.5t0.5 14.5v24l1 4h11q7 0 10 -3.5t3 -16.5t-1 -19zM70 170v-1v1z" />
    <glyph glyph-name="n" unicode="n" 
d="M23 273l3 6l11 25q14 31 24 45q13 16 22 16q12 2 17 -10t5 -27q1 -17 -3 -74q-5 -73 -4 -91q2 -20 4 -28t4 -8q7 0 26 51q7 18 18.5 54.5t12.5 39.5l7 25l1 3l4 -1h1q9 -3 13 -12q1 -7 0 -15l-1 -1l-2 -6q-49 -162 -79 -163q-16 -1 -26 17q-6 14 -8 43q0 29 1 45l3 49
q4 56 4 72q-1 2 -1 7l-3 -5l-18 -36l-26 -64q-11 -31 -14 -47q0 -5 -4 -9q-5 -3 -10 -2h-4v1q-1 0 -2 3l-3 5l-2 3v2q0 1 1 2v3q0 17 1 29q3 75 3 79l1 4q12 0 16 -3q8 -3 8 -16q0 -2 -0.5 -6t-0.5 -5z" />
    <glyph glyph-name="o" unicode="o" horiz-adv-x="147" 
d="M100 339q4 -12 3 -34v-5h53l-1 -5q-2 -11 -7 -15q-6 -5 -18 -5h-32l-4 -17q-3 -8 -8 -17q-9 -15 -18 -19q-12 -7 -24 -7q-16 0 -27 11q-11 10 -16 29q-3 7 -3 17v19q2 14 4 19q2 9 6 18q8 17 21 29q12 11 30 15q17 3 22 -5t3 -14q10 -1 16 -14zM25 261q3 -11 8 -16t11 -5
t11 3q6 5 10 11q4 8 5 12l4 12l-8 2q-6 2 -10 4q-14 8 -14 21q-1 10 6 25l6 9q1 1 2 2.5t2.5 2.5t2.5 2q-6 -2 -10 -4q-13 -7 -21 -25q-2 -4 -4 -14q-3 -6 -3 -14v-15q0 -5 2 -13zM78 302v5q2 15 1 18v4l-2 -2q-3 -1 -4 -4l-3 -5q-3 -4 -3 -9q0 -3 1 -3l6 -3q2 0 4 -1z" />
    <glyph glyph-name="p" unicode="p" horiz-adv-x="213" 
d="M162 295q2 -14 0 -29q-1 -12 -5 -31q-8 -34 -27 -62q-19 -27 -43 -40l-12 -6q-4 -1 -13 -1q-10 2 -14 4q-2 1 -14 8l-9 10q-4 4 -8 12l-5 -78q-4 -61 -7 -87q16 0 39 -5q26 -7 44 -17q15 -7 17 -17q2 -5 -3 -15l-2 -3l-4 2q-21 14 -49 23q-24 6 -45 6q-15 -133 -42 -207
q-35 -93 -95 -103l-1 -1v1q-26 -3 -41 10q-15 15 -20 43q-3 16 -1 41q2 26 8 47q7 28 16 50q13 28 25 46q25 41 60 67q34 24 69 30l9 110l6 112q2 23 4 71l5 64v4h13q12 -2 11 -19q-3 -23 -3 -45q-1 -7 -1 -20q11 28 26 49q16 21 30 30l13 6q10 2 14 2q11 0 19 -4
q10 -3 16 -11q8 -7 13 -20q3 -9 7 -27zM-61 -226q25 67 39 192q-31 -8 -55 -26q-28 -21 -51 -57q-11 -17 -23 -43q-8 -20 -15 -46q-5 -20 -7 -43q-2 -22 1 -35q3 -18 12 -27q8 -7 21 -6q47 8 78 91zM31 190q1 -5 7 -17l6 -9q3 -4 7 -7q2 -2 6 -4t7 -2t5 1q2 0 6 2
q21 12 35 34q16 25 23 53q2 9 4 27q2 13 0 24q-1 8 -5 20q-4 10 -8 13q-4 4 -7 5q-6 2 -10 2t-7 -1q-6 -3 -7 -4q-11 -6 -24 -24t-23 -44l-11 -31q-7 -18 -7 -23v-1q0 -5 3 -14z" />
    <glyph glyph-name="q" unicode="q" horiz-adv-x="240" 
d="M25 248q7 -10 26 -5q21 8 52 27q-5 45 -25 57q-6 2 -10 2t-12 -4t-13 -9q-8 -8 -11 -13q-10 -14 -13 -31q-2 -15 6 -24zM17 -6q-21 -10 -41 -24l-3 -2l-6 6q-2 6 -2 9q0 6 4 11l9 8q28 15 41 20q15 6 34 9q14 69 35 131q16 49 37 93q-44 -31 -72 -36q-33 -8 -48 14
q-13 16 -10 39q1 22 16 45q13 15 16 18q6 6 18 13q14 6 23 6t21 -5q14 -8 24 -25q7 -15 12 -38l17 14q2 2 10 8.5t12 10.5l12 12l8 8q5 4 10 4q4 0 9 -5q1 -3 0 -7l-1 -6v-3l-2 -2q-35 -29 -67 -108q-32 -75 -54 -181q20 -3 39 -14q21 -12 35 -34q13 -17 21 -40
q8 -21 13 -50q3 -15 5 -49q0 -26 -3 -49q-8 -50 -27 -78q-23 -32 -55 -28q-9 1 -21 7q-10 6 -18 15q-12 15 -22 43q-7 24 -10 63q-3 28 -1 70q4 56 8 82l3 20q0 3 3 15q-18 -4 -32 -10zM87 -273q4 -6 11 -9q8 -4 12 -4q20 -3 34 21q15 23 20 63q3 22 3 45q0 16 -4 46
q-5 25 -12 44t-18 36q-13 18 -28 26q-16 9 -31 10l-3 -18l-3 -22q-7 -45 -8 -79q-2 -40 1 -68q2 -33 9 -55q6 -22 17 -36z" />
    <glyph glyph-name="r" unicode="r" horiz-adv-x="164" 
d="M87 259q-9 -45 -14 -88q-3 -43 5 -48l2 4q1 -1 3 4q1 1 1 2q8 9 15 24q13 22 50 106l2 4l13 31l2 2h2q17 -1 15 -17q-1 -5 -9 -26l-2 -4l-24 -55q-18 -38 -27 -53q-12 -23 -25 -34q-16 -13 -28 -6q-9 5 -13 18.5t-2.5 37t4 42t7.5 48.5q1 8 2 12q8 42 10 58q2 31 2 32
q-20 -5 -40 -5q-17 0 -28 8q-11 9 -11 26q0 15 9 36q4 11 13 26q10 14 14 17l5 4q4 2 5 2q6 2 8 2l7 -2q1 0 3 -2l3 -3q7 -5 6 -19.5t-4.5 -25.5t-9.5 -26.5t-7 -21.5q10 1 29 6q6 1 11 -2q4 -4 7 -11q4 -18 -11 -103zM27 375l2 5l3 12q2 6 6.5 21l6.5 22l-3 -5
q-4 -5 -11 -22q-7 -16 -7 -23q-2 -7 2 -9q0 -1 1 -1z" />
    <glyph glyph-name="s" unicode="s" horiz-adv-x="209" 
d="M71 311q3 4 5 12q0 3 -1 4q0 1 -0.5 2.5t-0.5 2.5l-3 4l-4 3q-5 3 -10 3q-8 0 -13 -2q-6 -2 -8 -4q-2 -1 -4 -2.5t-3 -1.5l-4 -5l-2 -6v-9l3 -11q4 -13 18 -33q10 -13 36 -41l20 -22q2 -3 7 -9t7 -9q7 10 21 28l29 31l44 52l2 2h2q4 -2 7 -4t4 -7t0 -9q-2 -5 -6 -11
l-18 -20l-17 -19l-30 -34q-16 -20 -23 -31q13 -25 15 -33q6 -17 4 -32q0 -7 -4 -17q-3 -6 -11 -14q-8 -5 -15 -5q-7 -1 -16 4q-8 4 -14 15q-5 10 -5 24q0 17 4 30q4 14 12 28q-1 2 -6.5 9.5l-8.5 11.5l-22 24q-22 22 -39 44q-15 22 -21 39q-2 7 -4 17q0 10 1 15q2 8 4 13
l9 11q1 2 11 9l13 6q12 4 24 3q13 -2 21 -7l9 -8l6 -9q2 -3 4 -11q2 -5 0 -11q0 -7 -3 -15t-9 -14q-13 -16 -25 -6q-4 4 -5 6l-1 1l-2 3l3 2q9 6 13 13zM121 123l-7 17l-4 -13q-2 -7 -2 -20q0 -6 2 -12q1 -3 4 -6h4l4 5q1 2 1 8q1 8 -2 21z" />
    <glyph glyph-name="t" unicode="t" horiz-adv-x="134" 
d="M-162 629q-8 8 -6 17.5t7 12.5q40 24 166 24q11 211 50 262q11 15 19 14q5 0 15 -10l2 -4l-3 -2q-48 -34 -57 -260q33 0 49 0.5t38.5 2.5t34 7.5t16.5 14.5q9 -4 8 -15t-6 -14q-28 -18 -141 -20q-2 -59 -2 -250q-6 -131 -1 -246t28 -146l4 -4h1q20 16 38 101
q12 50 37 182l1 4h4q12 -2 15 -7q3 -8 -1 -24q-17 -105 -35 -176q-20 -82 -44 -100q-8 -8 -20 -6q-11 3 -20 15q-14 19 -22 56t-10.5 102.5t-2.5 111.5t2 138q0 191 2 249q-134 4 -166 -30z" />
    <glyph glyph-name="u" unicode="u" 
d="M72 285q8 25 21 71q1 6 5 10q4 3 11 1q7 -1 9 -15q0 -5 -2 -29q0 -8 -2 -39t-3 -49q-2 -56 0 -77q2 -32 7 -32q4 0 17 40q7 21 27 88l11 40l2 6h8q6 -2 8 -5q4 -4 4 -9q0 -6 -1 -10q-4 -16 -7 -24l-2 -7q-15 -57 -31 -96q-20 -48 -37 -48q-21 1 -28 45q-5 30 -3 90
q0 3 0.5 9t0.5 10l-2 -4q-1 -4 -10 -21q-11 -18 -25 -26q-13 -6 -26 -2t-20 22q-4 12 -6 42q0 22 3 47l6 51l1 2l2 1q11 3 17 -3q4 -6 3 -21q-4 -25 -5 -41q-2 -26 -2 -36q0 -18 3 -30q2 -10 5 -10q5 -2 9 1q6 4 13 16q9 15 19 42zM4 224l4 1z" />
    <glyph glyph-name="v" unicode="v" horiz-adv-x="186" 
d="M15 233q-3 -42 1 -58q5 3 14 13q10 12 19 28q8 11 22 39q10 20 18 44q11 29 17 56q4 22 6 46q-10 2 -16 4q-8 3 -17 8q-15 9 -25 22q-9 12 -16 29q-4 12 -4 28q2 15 8 21q5 6 13 8q7 2 15 -1q30 -11 47 -36q16 -25 19 -59q17 0 38 9q23 8 49 25l4 2l2 -4l-4 -1v-1l4 2
q5 -12 3 -18q-3 -7 -18 -14q-22 -12 -42 -18q-18 -7 -35 -7q-1 -19 -7 -50q-5 -27 -17 -60q-6 -16 -20 -46q-4 -9 -22 -42q-13 -20 -24 -32q-10 -12 -21 -17q-10 -6 -18 -3t-13 12q-8 17 -5 70q1 30 8 86l3 28v4h4q12 -1 16 -5t3 -16q0 -1 -0.5 -5t-0.5 -6l-1 -3
q-7 -79 -7 -82zM96 470q-14 19 -35 26h-1q-1 -1 -1 -8t3 -16q3 -11 12 -22q9 -10 18 -15l11 -6q4 -2 8 -2q-3 25 -15 43zM16 171h1l-1 1v-1z" />
    <glyph glyph-name="w" unicode="w" horiz-adv-x="330" 
d="M22 261q-1 -18 -1 -52q2 -21 4 -27q2 -8 4 -8q16 1 48 116l7 23q5 11 13 11q6 0 9 -4q4 -3 4 -10v-19q4 -104 5 -117q6 -72 16 -73h1h2q9 1 22 17q15 18 26 45q15 32 25 67q12 35 18 76l6 46q1 14 1 40q-11 2 -25 11q-12 7 -21 18q-15 17 -22 39q-6 21 0 36q4 10 8 14
q5 6 12 10q10 4 16 4q10 0 15 -2q12 -4 24 -19q9 -15 12 -33q2 -9 4 -29q2 -18 2 -27h6q6 0 9 1q26 2 47 11q25 10 44 25l4 3l2 -5l-4 -1v-1l4 2q4 -11 3 -14q0 -10 -14 -18q-19 -11 -42 -19q-18 -6 -42 -8q-3 -1 -11 -1h-6q0 -27 -2 -40q-1 -23 -6 -47q-6 -42 -18 -79
q-10 -38 -26 -71q-15 -34 -33 -53q-19 -20 -34 -23h-11q-22 4 -33 69q-6 44 -8 88q-8 -27 -18 -46q-17 -37 -38 -38q-17 -1 -25 17t-8 42q-2 33 5 106q0 3 0.5 9t0.5 10q1 6 1 14l1 4h3q13 0 18 -11q3 -8 1 -28q-4 -28 -5 -51zM232 418l-2 22l-3 26q-2 11 -8 22q-7 9 -12 10
q-2 1 -6 1t-6 -1l-4 -4q-2 -2 -4 -6q-3 -10 1 -23q6 -16 17 -28q7 -8 14 -12q5 -4 13 -7z" />
    <glyph glyph-name="x" unicode="x" horiz-adv-x="257" 
d="M72 303l22 -38l5 -9q1 -2 1 -3q16 23 31 64q12 40 13 72q-19 5 -33 16q-16 12 -28 31q-1 0 -1 1q-7 13 -10 22q-3 12 -3 22t4 22q4 10 13 15h1v1q13 7 25 6q11 -3 24 -12q8 -8 14 -20q6 -10 11 -28q5 -12 6 -27q2 -18 2 -27q15 0 35 5t42 19l5 2l1 -5q2 -13 0 -18
q-5 -9 -20 -14q-21 -9 -35 -11q-14 -3 -28 -3q-3 -44 -16 -82q-17 -44 -39 -74q24 -44 41 -64q21 -23 34 -20h1q19 3 56 124l1 1l3 12l2 4l3 -1q2 0 3 -1q7 -1 11 -9q1 -7 0 -15q0 -2 -2 -8q-19 -59 -30 -84q-22 -44 -43 -47q-25 -7 -51 22q-17 17 -46 64q-16 -17 -34 -31
q-22 -17 -46 -30q-15 -7 -22 -3q-4 2 -11 15l4 2q32 14 54 31q19 14 42 39q-8 13 -12 22q-14 26 -27 47q-5 9 -15.5 25.5t-12.5 20.5l-3 4l4 2q8 7 15 6t16 -16q5 -8 23 -39zM144 415l-2 21q-1 10 -5 23q-3 10 -8 21q-4 8 -10 14q-5 5 -10 5q-4 1 -9 -2q-2 -1 -4 -5
q-2 -6 -2 -11t2 -15q3 -10 7 -16v-1h1q9 -15 20 -23q10 -8 20 -11z" />
    <glyph glyph-name="y" unicode="y" horiz-adv-x="179" 
d="M7 352q15 1 19 -7t1 -28t-3 -23q-7 -56 -7 -81q6 7 18 28q16 29 27 53q15 30 22 41q12 19 21 18q7 0 12 -6q3 -6 3 -16v-45q0 -160 -7 -255q0 -8 -2 -24q0 -11 -1 -18q19 4 46 4q23 0 56 -5q16 -3 22 -9q5 -5 2 -17l-2 -4l-3 1q-38 8 -66 8q-21 1 -57 -3
q-15 -139 -46 -215q-41 -95 -108 -91q-22 2 -35 18q-13 15 -18 42q-2 12 -2 38q2 20 6 41q6 23 15 45q14 28 23 41q26 40 63 65q35 26 78 37q2 14 2 21q2 18 2 26q4 71 6 139q1 44 1 115v18l-10 -21l-35 -65q-21 -33 -37 -36q-7 -2 -13 4q-4 4 -6 15q-3 12 -1 40l6 56l5 51
v4h3zM41 -237q28 72 40 195q-36 -12 -63 -33q-32 -24 -54 -56q-10 -15 -21 -37q-8 -19 -13 -40q-5 -20 -6 -37q0 -23 2 -32q3 -19 11 -30q8 -10 18 -10q53 -4 86 80z" />
    <glyph glyph-name="z" unicode="z" horiz-adv-x="232" 
d="M8 336q10 18 24 28q11 10 23 14q13 5 24 5q14 0 24 -7t13 -20q3 -15 -5 -38q-7 -20 -30 -53q17 2 23 1q22 -3 38 -16q16 -12 29 -36q16 -30 23 -71q8 -39 8 -95v-27l25 3q10 0 30 -2q21 -4 21 -23q0 -1 -1 -7l-4 1q-23 5 -39 5q-15 1 -33 -2q-1 -33 -8 -73
q-4 -33 -14 -73q-17 -71 -44 -117q-25 -46 -57 -55q-16 -6 -30 -1q-12 4 -22 17q-11 16 -14 40q-2 20 1 55q5 33 16 62q11 31 27 59q26 43 56 68q31 27 65 37q1 21 1 33q-2 56 -8 90q-8 38 -21 65q-9 17 -22 27q-11 10 -26 11q-13 1 -33 -7q-11 -6 -19 -14q-6 -4 -8 -4
q-4 -1 -10 3q-10 7 0 20q15 18 33 44q15 23 23 41q7 16 5 27q-2 4 -4 5q-4 2 -9 2q-8 0 -16 -4q-10 -4 -16 -9q-15 -12 -21 -29q-5 -15 0 -34l1 -4l-3 -1q-3 -1 -8 -1q-4 0 -9 3q-4 3 -7 10q-2 7 -1 13q0 16 9 34zM168 -76q3 19 7 64q-29 -11 -50 -32q-27 -23 -47 -59
q-13 -19 -26 -54q-10 -34 -14 -58q-4 -30 -1 -46q2 -21 9 -31q6 -6 10 -7q7 -2 14 1q24 7 46 46q23 40 39 108q10 43 13 68z" />
    <glyph glyph-name="braceleft" unicode="{" horiz-adv-x="332" 
d="M89 328q42 -10 53 -73q4 -22 5.5 -53t1 -53.5l-1.5 -64.5t-1 -61q-4 -182 10 -256q12 -66 55 -69q35 -3 59 34q20 31 14 69q12 2 18 -5.5t5 -14.5q-8 -62 -46 -90t-76.5 -7.5t-49.5 79.5q-14 71 -10 260q4 167 -5 229q-18 68 -68 57l-7 23q42 17 60 48t16 66t-3 77
q-3 63 -4 99.5t1.5 99t11 101.5t28 77t48.5 54q62 24 96.5 -15.5t33.5 -100.5q1 -5 -6 -12t-18 -6q8 31 -5 65.5t-37 49t-57 -3.5q-39 -25 -57 -97.5t-16 -151.5l4 -158q1 -40 3.5 -75.5t-11 -69t-44.5 -51.5z" />
    <glyph glyph-name="bar" unicode="|" horiz-adv-x="216" 
d="M199 -384l5 -1q-25 -15 -40 8q-33 49 -47.5 164.5t-12 251.5l5.5 292q9 185 3.5 368t-35.5 259q9 5 18.5 -0.5t10.5 -11.5q27 -83 31.5 -262t-4.5 -356q-3 -100 -4 -157.5t-1.5 -145.5t3.5 -142.5t11.5 -114t21.5 -96.5t34 -56z" />
    <glyph glyph-name="braceright" unicode="}" horiz-adv-x="338" 
d="M247 300q-42 10 -53 73q-4 22 -5.5 53t-1 53.5l1.5 64.5t1 61q4 182 -10 256q-12 66 -55 69q-35 3 -59 -34q-20 -31 -14 -69q-12 -2 -18 5.5t-5 14.5q8 62 46 90t76.5 7.5t49.5 -79.5q14 -71 10 -260q-4 -167 5 -229q18 -68 68 -57l7 -23q-42 -17 -60 -48t-16 -66t3 -77
q3 -63 4 -99.5t-1.5 -99t-11 -101.5t-28 -77t-48.5 -54q-62 -24 -96.5 15.5t-33.5 100.5q-1 5 6 12t18 6q-8 -31 5 -65.5t37 -49t57 3.5q39 25 57 97.5t16 151.5l-4 158q-1 40 -3.5 75.5t11 69t44.5 51.5z" />
    <glyph glyph-name="asciitilde" unicode="~" horiz-adv-x="631" 
d="M72 204q-10 -5 -18 1.5t-8 13.5q-2 37 22 73.5t59 50.5q16 7 36.5 7t39 -4t44 -14t43.5 -19l46 -23q5 -3 24 -13t27 -13.5l25 -11.5t27.5 -10.5t25 -5t26.5 -0.5t23 7q37 17 48 59t-8 79q10 6 18.5 -1t10.5 -15q12 -46 -4 -84.5t-57 -59.5q-18 -9 -38.5 -10t-43.5 6.5
t-39 14.5t-40.5 20.5t-33.5 17.5l-44 21.5t-39.5 17t-43 14t-34 3t-33.5 -5.5q-33 -15 -50 -48.5t-11 -67.5z" />
    <glyph glyph-name="exclamdown" unicode="&#xa1;" horiz-adv-x="75" 
d="M24 270q2 -26 3 -27q1 0 2 1l9 7q10 10 16 18l19 27l3 4l3 -3q1 0 2 -1q15 -11 2 -29q-5 -8 -15 -20l-13 -14q-9 -9 -20 -13q-7 -4 -18 0q-27 10 -17 129v6l1 11l4 -1q9 0 12.5 -1t5.5 -5.5t2 -13.5q-2 -44 -1 -75zM23 415l3 2q3 -7 2 -15q0 -9 -3 -15q-5 -8 -11 -8
q-6 1 -9 9q-3 7 -2 15q0 7 4 15q3 8 10 8q6 -2 9 -9l-3 -1v-1z" />
    <glyph glyph-name="cent" unicode="&#xa2;" horiz-adv-x="111" 
d="M126 -383l5 -1q-25 -15 -40 8q-43 64 -53 215t-4 388q-15 0 -24 8q-12 9 -14 30q-2 24 7 46q4 12 7 17q3 8 9 15v-1q4 7 12 14q2 1 6 5q9 178 3 351t-35 247q9 5 18.5 -0.5t10.5 -11.5q42 -128 28 -581q3 0 5.5 -1t5 -2.5t4.5 -2.5q13 -10 5 -22q-4 -4 -6 -5v-1l-3 -2
l-3 3q-6 6 -9 7v-11q-2 -46 -2 -67q18 11 33 23q2 1 5.5 4t4.5 3l10 7l2 1l2 -1l4 -3q3 -6 3 -9q0 -7 -3 -10q-4 -6 -8 -9l-5 -3q-32 -24 -48 -31h-1q-6 -258 6 -414t62 -203zM32 317l-6 -14q-6 -17 -6 -32q0 -13 5 -16q3 -3 9 -3l3 72z" />
    <glyph glyph-name="sterling" unicode="&#xa3;" horiz-adv-x="341" 
d="M-80 191q-6 8 -3.5 17t8.5 12q33 17 114 13q12 192 16 331q7 191 -9 287q-6 40 -17 62q-9 20 -22 18l-4 -1l-1 4q-3 18 4 22q7 5 24 -5q15 -11 26 -35q10 -22 16 -61q22 -140 -8 -624l43 -4q51 -7 95.5 -6t54.5 17q9 -4 7 -15t-8 -14q-31 -17 -151 -5l-42 4
q0 -3 -0.5 -9.5t-0.5 -9.5q-16 -272 -18 -356q-3 -159 27 -159q8 0 19 10q17 16 39 50q23 34 41 75q18 35 46 102q24 56 67 176q39 114 57 180l1 3h3q9 0 14 -5q6 -5 2 -23q-16 -55 -57 -175q-34 -97 -63 -166q-21 -53 -47 -104q-22 -46 -42 -77q-27 -41 -49 -59
q-32 -24 -52 -9t-24 50.5t-6.5 71t0.5 52.5q0 91 16 365q0 3 0.5 9t0.5 10q-88 5 -117 -19z" />
    <glyph glyph-name="yen" unicode="&#xa5;" horiz-adv-x="477" 
d="M126 -190q-6 8 -3.5 17t8.5 12q29 16 91 14q2 32 6 60q4 24 7 36q-79 4 -105 -20q-6 8 -3.5 17t8.5 12q34 17 105 14l1 1q14 49 39 87q22 35 54 56q6 98 8 147q2 44 4 148l2 83v26q-18 -68 -48 -157q-33 -92 -61 -148q-33 -68 -69 -105q-35 -37 -71 -41q-39 -4 -61 28
q-21 31 -27 89q-8 62 -1 193q5 78 21 226q16 152 20 226q5 101 -12 123l-3 4l4 2q12 7 18 4q9 -4 13 -22q10 -46 4 -139q-3 -50 -18 -201q-33 -309 -21 -413q6 -50 20 -73q16 -25 40 -22q29 4 58 36q30 32 62 97q28 54 65 159q29 90 60 210q2 8 6 11q5 5 11 3q10 -3 13 -59
q2 -75 1 -141q-1 -38 -5 -143q-4 -93 -7 -138q2 1 5.5 2t5.5 2q10 4 16 5q4 1 10 1q9 1 16 -4q5 -3 8 -18l-4 -1q-16 0 -31 -5q-12 -4 -27 -11q0 -12 -2 -34l-3 -36l-5 -68q42 -4 75.5 -2t42.5 16q9 -4 7 -15t-8 -14q-29 -15 -119 -8q-4 -39 -11 -95q45 -5 81.5 -3t45.5 16
q9 -4 7 -15t-8 -14q-31 -16 -129 -7q-4 -31 -11 -64q-9 -46 -21 -71t-26 -24q-16 1 -28 23q-12 23 -18 55q-5 24 -6 52q-1 12 -1 38q-72 2 -96 -20zM254 -91q-4 -18 -6 -57q2 0 64 -6q4 33 10 95q-2 0 -4 0.5t-3 0.5l-55 6q-4 -20 -6 -39zM248 -206l6 -50q7 -29 12 -42
q6 -14 11 -14q6 -1 12.5 21.5t12.5 62.5l7 51q-58 6 -62 6q0 -24 1 -35zM329 32l2 29q0 14 1 21q-20 -17 -36 -44q-17 -26 -29 -68q16 -1 50 -5h7z" />
    <glyph glyph-name="brokenbar" unicode="&#xa6;" horiz-adv-x="182" 
d="M59 799q8 7 17 4.5t12 -8.5q23 -42 13 -182q-14 -237 11 -251q-4 -10 -15 -8t-14 8q-19 33 -5 253q12 151 -19 184zM70 245q8 7 17 4.5t12 -8.5q23 -42 13 -182q-14 -237 11 -251q-4 -10 -15 -8t-14 8q-19 33 -5 253q12 151 -19 184z" />
    <glyph glyph-name="dieresis" unicode="&#xa8;" horiz-adv-x="149" 
d="M40 937q14 0 19 -28q1 -13 -4 -22t-13 -9q-8 -1 -14 7t-7 20q2 30 19 32zM114 937q14 0 19 -28q1 -13 -4 -22t-13 -9q-8 -1 -14 7t-7 20q2 30 19 32z" />
    <glyph glyph-name="guillemotleft" unicode="&#xab;" horiz-adv-x="562" 
d="M232 318q20 -2 49.5 13.5t50.5 32l58 47.5q91 78 127 82q7 1 15 -7.5t2 -16.5q-16 7 -42 -9t-72 -53l-16 -13q-133 -112 -162 -97q24 -32 138 -92q106 -54 124 -86q4 -6 -1 -16.5t-15 -8.5q1 18 -25 36.5t-79 47.5q-10 5 -15 8q-44 23 -63.5 34t-47 31.5t-38.5 39.5
q-3 5 0 15t12 12zM114 317q20 -2 49.5 13.5t50.5 32l58 47.5q91 78 127 82q7 1 15 -7.5t2 -16.5q-16 7 -42 -9t-72 -53l-16 -13q-133 -112 -162 -97q24 -32 138 -92q106 -54 124 -86q4 -6 -1 -16.5t-15 -8.5q1 18 -25 36.5t-79 47.5q-10 5 -15 8q-44 23 -63.5 34t-47 31.5
t-38.5 39.5q-3 5 0 15t12 12z" />
    <glyph glyph-name="logicalnot" unicode="&#xac;" horiz-adv-x="833" 
d="M525 277q-14 -14 -26 5q-23 40 -19 147q-44 -15 -167 -4q-63 8 -128 5t-89 -25q-15 15 5 25q30 17 94 18.5t121 -5.5q60 -7 111.5 -5t62.5 21q13 -7 9 -17q-6 -131 26 -165z" />
    <glyph glyph-name="plusminus" unicode="&#xb1;" horiz-adv-x="435" 
d="M219 476q7 6 16.5 3.5t13.5 -7.5q24 -42 16 -160q50 -6 92 -5t52 17q9 -4 7 -15t-8 -14q-32 -17 -144 -6q-4 -51 -1 -95t20 -53q-4 -9 -15 -7.5t-14 7.5q-19 30 -13 150v1q-137 14 -169 -15q-6 8 -3.5 17t8.5 12q42 22 165 8q8 130 -23 162zM78 62q-6 8 -3.5 17t8.5 12
q41 21 182 7q51 -7 95.5 -6t54.5 17q9 -4 7 -15t-8 -14q-31 -17 -151 -5q-53 8 -108.5 7t-76.5 -20z" />
    <glyph glyph-name="acute" unicode="&#xb4;" horiz-adv-x="109" 
d="M76 947q6 4 17 -0.5t8 -13.5q-17 -1 -39.5 -27.5t-31.5 -31.5q-4 -4 -14.5 -1t-12.5 12q17 6 38 30.5t35 31.5z" />
    <glyph glyph-name="periodcentered" unicode="&#xb7;" horiz-adv-x="122" 
d="M61 332q14 0 19 -28q1 -13 -4 -22t-13 -9q-8 -1 -14 7t-7 20q2 30 19 32z" />
    <glyph glyph-name="cedilla" unicode="&#xb8;" horiz-adv-x="193" 
d="M64 -46q0 24 8 44q13 -1 15.5 -11t-2.5 -28q7 7 43.5 3t52.5 7q13 -17 -8 -65t-45 -62q-14 -4 -47.5 -0.5t-47.5 -4.5q-5 8 0 16.5t12 10.5q10 3 43.5 0t37.5 7q8 8 13.5 19t10 26t7.5 22q-8 -1 -35.5 1t-34.5 -2q-9 -3 -17.5 2t-5.5 15z" />
    <glyph glyph-name="guillemotright" unicode="&#xbb;" horiz-adv-x="486" 
d="M352 278q-20 2 -49.5 -13.5t-50.5 -32l-58 -47.5q-91 -78 -127 -82q-7 -1 -15 7.5t-2 16.5q16 -7 42 9t72 53l16 13q133 112 162 97q-24 32 -138 92q-106 54 -124 86q-4 6 1 16.5t15 8.5q-1 -18 25 -36.5t79 -47.5q10 -5 15 -8q44 -23 63.5 -34t47 -31.5t38.5 -39.5
q3 -5 0 -15t-12 -12zM470 279q-20 2 -49.5 -13.5t-50.5 -32l-58 -47.5q-91 -78 -127 -82q-7 -1 -15 7.5t-2 16.5q16 -7 42 9t72 53l16 13q133 112 162 97q-24 32 -138 92q-106 54 -124 86q-4 6 1 16.5t15 8.5q-1 -18 25 -36.5t79 -47.5q10 -5 15 -8q44 -23 63.5 -34
t47 -31.5t38.5 -39.5q3 -5 0 -15t-12 -12z" />
    <glyph glyph-name="questiondown" unicode="&#xbf;" horiz-adv-x="292" 
d="M267 308q0 -124 -47 -180q-29 -27 -58 -16t-41 52q-9 32 -10.5 68t2.5 68t15 74.5t21 73t27 77.5q25 72 37 111t23.5 99.5t8.5 108.5q-8 2 -13 -4.5t-5 -11.5q1 -102 -70 -301q-53 -157 -63 -221q-13 -85 8 -148q15 -47 52.5 -61.5t80.5 21.5q46 53 49 173q0 22 -17 17z
M233 886q-16 0 -19 28q-2 13 3.5 22t13.5 9q8 1 14 -7t7 -20q-2 -30 -19 -32z" />
    <glyph glyph-name="Agrave" unicode="&#xc0;" horiz-adv-x="370" 
d="M-9 -164l11 181l9 186l6 126l7 120q-39 18 -87 35q-42 14 -99 25l-4 1l1 2q2 14 11 15q7 2 28 -1q43 -9 82 -23q34 -11 69 -28q12 188 27 271q21 115 54 115q81 3 120 -114q32 -95 37 -278q1 -34 1 -107q0 -36 -2 -108q32 -57 53 -128q19 -72 24 -145q6 -55 3 -105
q-5 -62 -13 -104q-7 -42 -18 -72q-13 -33 -23 -45q-8 -7 -15 -9q-8 -3 -16 2q-29 14 -34 138q-2 69 6 279q3 61 7 182q-31 57 -82 109q-44 43 -106 79q-2 -39 -5.5 -118t-5.5 -114v-1q-9 -206 -19 -345q-2 -18 -6 -22q-5 -5 -18 -2h-3v3zM73 731q-11 -80 -23 -268
q56 -31 109 -77q47 -46 77 -91q2 54 2 81q0 32 -2 92q-3 173 -32 265q-16 51 -39.5 78t-57.5 26q-20 0 -34 -106zM259 139l-3 -75q-8 -206 -7 -272q2 -106 18 -122q9 10 20 39q8 23 16 68q10 43 12 100q3 51 -1 103q-5 63 -21 123q-9 39 -33 97q0 -42 -1 -61zM-162 512v-3
l1 3h-1zM165 886q-14 7 -35 31.5t-38 30.5q2 9 12.5 12t14.5 -1q9 -5 31.5 -31.5t39.5 -27.5q3 -9 -8 -13.5t-17 -0.5z" />
    <glyph glyph-name="Aacute" unicode="&#xc1;" horiz-adv-x="370" 
d="M-10 -149l11 181l9 186l6 126l6 120q-36 17 -86 35q-44 14 -98 25l-4 1l1 2q2 14 11 15q7 2 28 -1q41 -9 82 -23q36 -13 67 -28q15 195 28 271q21 115 54 115q80 3 119 -114q32 -99 37 -278q1 -34 1 -107q0 -36 -2 -108q35 -65 52 -128q19 -69 25 -145q5 -59 2 -105
q-3 -51 -13 -104q-8 -42 -18 -72t-23 -45q-7 -7 -14 -9q-8 -3 -17 2q-28 14 -33 138q-2 69 6 279q3 61 7 182q-35 61 -82 109q-44 42 -105 79q-2 -39 -5.5 -117.5t-5.5 -114.5v-1q-9 -206 -19 -345q-2 -18 -6 -22q-5 -5 -18 -2h-3v3zM72 746q-14 -103 -23 -268
q56 -31 108 -77q43 -42 77 -91q2 54 2 81q0 32 -2 92q-3 173 -32 265q-16 51 -39.5 78t-56.5 26q-20 0 -34 -106zM256 154l-3 -75q-8 -206 -7 -272q2 -106 19 -122q7 8 19 39q6 17 17 68q10 46 11 100q3 51 -1 103q-5 70 -21 123q-11 45 -32 97q0 -42 -2 -61zM-162 527v-3
l1 3h-1zM278 951q6 4 17 -0.5t8 -13.5q-17 -1 -39.5 -27.5t-31.5 -31.5q-4 -4 -14.5 -1t-12.5 12q17 6 38 30.5t35 31.5z" />
    <glyph glyph-name="Acircumflex" unicode="&#xc2;" horiz-adv-x="370" 
d="M-13 -165l11 181l9 186l6 126l6 120q-37 18 -84 35q-39 13 -97 25l-4 1l1 2q2 14 11 15q7 2 27 -1q40 -8 81 -23q33 -11 66 -28q12 188 27 271q19 115 52 115q80 3 117 -114q31 -96 36 -278q1 -34 1 -107q0 -36 -2 -108q33 -61 51 -128q19 -72 24 -145q5 -59 2 -105
q-3 -58 -12 -104q-8 -42 -18 -72q-11 -32 -22 -45q-7 -7 -14 -9q-8 -3 -16 2q-28 14 -33 138q-2 69 6 279q3 61 7 182q-32 58 -80 109q-44 43 -103 79q-2 -39 -5.5 -118t-5.5 -114v-1q-8 -193 -18 -345q-2 -18 -6 -22q-5 -5 -18 -2h-3v3zM67 730q-12 -90 -22 -268
q52 -30 106 -77q44 -44 75 -91q2 54 2 81q0 32 -2 92q-3 172 -31 265q-16 52 -39 78.5t-56 25.5q-19 0 -33 -106zM248 138l-3 -75q-8 -206 -7 -272q2 -106 18 -122q7 8 19 39q8 23 16 68q10 46 11 100q3 51 -1 103q-5 68 -20 123q-11 45 -32 97q0 -42 -1 -61zM-162 511v-3
l1 3h-1zM113 957q14 11 23 0q12 -7 32.5 -30.5t37.5 -29.5q-2 -9 -12.5 -12t-14.5 1q-11 6 -27.5 27t-26.5 27q-10 -6 -27 -27t-27 -27q-4 -4 -14.5 -1t-12.5 12q16 6 36.5 29.5t32.5 30.5z" />
    <glyph glyph-name="Atilde" unicode="&#xc3;" horiz-adv-x="370" 
d="M-9 -151l11 179l9 185l6 125l7 118q-31 14 -87 36q-47 14 -99 24l-4 1l1 3q2 13 11 14q7 2 28 -1q43 -9 82 -23q43 -14 69 -28q12 185 27 269q21 114 54 114q81 3 120 -113q32 -95 37 -275q1 -35 1 -106q0 -37 -2 -107q32 -56 53 -127q19 -72 24 -144q6 -56 3 -104
q-5 -61 -13 -103q-7 -42 -18 -72q-13 -33 -23 -44q-9 -9 -15 -9q-7 -2 -16 1q-29 15 -34 137q-2 68 6 278q3 57 7 179q-32 58 -82 108q-46 44 -106 78q-2 -40 -5.5 -119t-5.5 -111v-1q-9 -205 -19 -341q-2 -18 -6 -22q-5 -5 -18 -2l-3 1v2zM73 736q-11 -80 -23 -266
q55 -29 109 -76q46 -43 77 -90q2 54 2 81q0 31 -2 91q-3 170 -32 262q-32 104 -97 104q-19 0 -34 -106zM259 149l-3 -73q-8 -206 -7 -270q2 -105 18 -121q9 9 20 39q8 21 16 67q10 43 12 98q3 52 -1 103q-5 61 -21 122q-10 38 -33 96q0 -41 -1 -61zM-162 519v-3l1 3h-1z
M306 907q-25 -13 -56.5 -9.5t-56 15t-55 16.5t-55.5 -5q-35 -16 -54 -56q-27 3 -11 28q24 37 59 51q32 13 75.5 1.5t73.5 -23.5t72 4q28 12 41 41q4 1 8 -3.5t5.5 -11t-4.5 -14.5q-17 -21 -42 -34z" />
    <glyph glyph-name="Adieresis" unicode="&#xc4;" horiz-adv-x="370" 
d="M-1 32l-11 -181v-3h3q13 -3 18 2q4 4 6 22q10 152 18 345v1l12 232q62 -38 103 -79q50 -53 81 -109q-4 -121 -7 -182q-8 -210 -6 -279q5 -124 33 -138q9 -5 17 -2q7 2 14 9q11 13 22 45q10 30 18 72q10 43 13 104q3 46 -2 105q-4 68 -25 145q-18 67 -51 128q2 72 2 108
q0 73 -1 107q-5 179 -37 278q-37 117 -118 114q-33 0 -52 -115q-16 -82 -28 -271q-34 17 -67 28q-41 15 -81 23q-20 3 -27 1q-9 -1 -11 -15l-1 -2l4 -1q58 -12 97 -25q51 -19 85 -35l-6 -120l-6 -126zM69 746q14 106 33 106q33 1 56.5 -25.5t39.5 -78.5q28 -93 31 -265
q2 -60 2 -92q0 -27 -2 -81q-31 48 -76 91q-49 44 -106 77q10 178 22 268zM251 154q2 19 2 61q21 -52 32 -97q15 -55 20 -123q4 -52 1 -103q-1 -54 -11 -100q-8 -45 -16 -68q-12 -31 -19 -39q-17 16 -19 122q-1 66 7 272zM-162 524v3h1zM124 964q14 0 19 -28q1 -13 -4 -22
t-13 -9q-8 -1 -14 7t-7 20q2 30 19 32zM198 964q14 0 19 -28q1 -13 -4 -22t-13 -9q-8 -1 -14 7t-7 20q2 30 19 32z" />
    <glyph glyph-name="Aring" unicode="&#xc5;" horiz-adv-x="370" 
d="M-17 -149l11 181l9 186l6 126l6 120q-40 19 -83 35q-41 14 -94 25l-4 1l1 2q2 14 11 15q7 2 27 -1q37 -8 78 -23q33 -12 65 -28q10 181 26 271q8 48 18 78q0 19 4 28q19 41 69 57q27 6 32 4.5t8 -9.5q-24 1 -48 -12.5t-35 -30.5h3q57 1 92 -63q13 20 15.5 41.5t-11 36
t-42.5 10.5q9 9 26 14q23 2 35 -18.5t8 -50t-22 -51.5q6 -12 13 -33q30 -97 35 -278q1 -34 1 -107q0 -36 -2 -108q31 -57 50 -128q20 -74 23 -145q5 -59 2 -105q-3 -65 -11 -104q-7 -42 -18 -72q-11 -32 -22 -45q-6 -7 -13 -9q-8 -3 -16 2q-27 14 -32 138q-2 69 6 279
q4 88 6 182q-29 55 -78 109q-39 41 -100 79l-11 -232v-1q-10 -240 -17 -345q-2 -18 -6 -22q-5 -5 -18 -2h-3v3zM62 746q-12 -90 -22 -268q56 -33 103 -77q46 -47 73 -91q2 54 2 81q0 32 -2 92q-2 170 -30 265q-10 29 -11 30q-8 -6 -22 -9q-61 -12 -83 31q-5 -27 -8 -54z
M238 154l-3 -75q-8 -206 -7 -272q2 -106 18 -122q8 10 18 39q8 23 16 68q10 46 11 100q3 51 -1 103q-5 68 -20 123q-9 43 -31 97q0 -42 -1 -61zM149 784q10 1 19 9q-28 59 -74 59q-6 0 -13 -13q2 -25 21 -42.5t47 -12.5zM-162 527v-3l1 3h-1z" />
    <glyph glyph-name="AE" unicode="&#xc6;" horiz-adv-x="751" 
d="M283 -318l20 44q44 102 78 154q60 92 133 119q19 6 26 4q8 -3 15 -20l-5 -1q-33 -5 -64.5 -27.5t-52.5 -47t-44.5 -65.5t-34.5 -63.5t-28 -62.5q-21 -46 -23 -50q-13 -22 -22 -25q-25 -6 -43 15t-28 61q-39 144 -24 598l-42 54q-44 47 -102 84q-2 -42 -5.5 -126.5
t-5.5 -120.5v-1q-8 -207 -18 -367q-2 -19 -6 -23q-5 -6 -18 -3l-3 1v3l11 192l9 199l6 134l6 127q-37 19 -84 38q-49 16 -96 26l-4 1l1 3q1 13 11 16q8 3 27 -2q33 -7 80 -24q40 -16 66 -30q12 199 27 289q19 119 51 122q5 4 19 7q40 6 85 3l20 -2q0 4 1.5 19.5t1.5 23.5
q15 -1 20 -4.5t5 -13.5q-2 -14 -2 -27l48 -6q55 -7 87.5 -10.5t85.5 -2t100 11.5q1 -19 -3 -23t-22 -7q-90 -15 -251 6l-48 6q-3 -60 -14 -216t-15 -240h167q13 -1 17 -5t4 -17v-4h-188q-24 -525 20 -683q7 -29 19 -46q9 -14 20 -11q1 0 9 16zM99 882q-18 0 -33 -113
q-12 -97 -22 -286q53 -32 105 -82q20 -22 38 -44q8 221 26 458q-15 31 -50 49.5t-64 17.5zM216 853l3 37l-32 3h-25q31 -14 54 -40zM-162 535v-3l1 3h-1z" />
    <glyph glyph-name="Ccedilla" unicode="&#xc7;" horiz-adv-x="421" 
d="M206 -250v1q-26 -30 -51 -25q-51 7 -86 82q-37 77 -54 202q-11 79 -16 182q-3 110 2 199q7 108 19 189q15 92 34 152q22 71 51 107q30 38 65 38q20 1 45 -4q22 -9 37 -22q12 -12 21 -32q7 -13 12 -45q3 -16 -1 -21q-4 -7 -19 -8q-3 35 -11 58q-6 18 -20 33q-9 9 -27 16
q-17 3 -36 3q-27 -2 -50 -32q-25 -34 -45 -97q-20 -66 -32 -149q-13 -79 -20 -188q-4 -91 -1 -196q3 -82 15 -179q17 -119 50 -193q30 -67 70 -73q20 -3 41 29q25 32 55 102q33 73 69 184q39 121 64 225q24 -2 18 -23q-29 -119 -62 -216q-33 -101 -66 -178q-27 -59 -47 -89
q2 -9 -3 -27q7 7 43.5 3t52.5 7q13 -17 -8 -65t-45 -62q-14 -4 -47.5 -0.5t-47.5 -4.5q-5 8 0 16.5t12 10.5q10 3 43.5 0t37.5 7q8 8 13.5 19t10 26t7.5 22q-8 -1 -35.5 1t-34.5 -2q-9 -3 -17.5 2t-5.5 15z" />
    <glyph glyph-name="Egrave" unicode="&#xc8;" horiz-adv-x="381" 
d="M113 -322l20 41q47 99 80 145q62 86 135 112q20 6 27 4q8 -3 15 -19l-5 -1q-34 -5 -65.5 -26t-53 -44t-46 -61.5t-35 -60l-28.5 -58.5q-19 -40 -24 -47q-13 -22 -22 -23q-27 -6 -44 14q-17 19 -28 57q-40 134 -25 562q7 217 34 541l-33 3q-55 2 -92 -9l-5 -1l-1 4
q-2 9 2 15q9 9 24 10q41 6 87 3l20 -2q0 4 1.5 18.5t1.5 22.5q15 -1 20 -4t5 -13q-2 -14 -2 -26l49 -5q174 -23 278 -1q1 -18 -3 -22q-3 -3 -22 -6q-91 -14 -256 5l-49 6q-21 -265 -29 -429h170q12 -1 16.5 -4.5t4.5 -15.5v-4h-191q-24 -497 20 -642q7 -28 20 -44
q10 -13 20 -10q1 0 9 15zM238 884q-14 7 -35 31.5t-38 30.5q2 9 12.5 12t14.5 -1q9 -5 31.5 -31.5t39.5 -27.5q3 -9 -8 -13.5t-17 -0.5z" />
    <glyph glyph-name="Eacute" unicode="&#xc9;" horiz-adv-x="381" 
d="M113 -322l20 41q47 99 80 145q62 86 135 112q20 6 27 4q8 -3 15 -19l-5 -1q-34 -5 -65.5 -26t-53 -44t-46 -61.5t-35 -60l-28.5 -58.5q-19 -40 -24 -47q-13 -22 -22 -23q-27 -6 -44 14q-17 19 -28 57q-40 134 -25 562q7 217 34 541l-33 3q-55 2 -92 -9l-5 -1l-1 4
q-2 9 2 15q9 9 24 10q41 6 87 3l20 -2q0 4 1.5 18.5t1.5 22.5q15 -1 20 -4t5 -13q-2 -14 -2 -26l49 -5q174 -23 278 -1q1 -18 -3 -22q-3 -3 -22 -6q-91 -14 -256 5l-49 6q-21 -265 -29 -429h170q12 -1 16.5 -4.5t4.5 -15.5v-4h-191q-24 -497 20 -642q7 -28 20 -44
q10 -13 20 -10q1 0 9 15zM244 954q6 4 17 -0.5t8 -13.5q-17 -1 -39.5 -27.5t-31.5 -31.5q-4 -4 -14.5 -1t-12.5 12q17 6 38 30.5t35 31.5z" />
    <glyph glyph-name="Ecircumflex" unicode="&#xca;" horiz-adv-x="381" 
d="M111 -322l20 41q42 94 78 145q62 86 134 112q19 6 26 4q8 -3 15 -19l-5 -1q-33 -5 -64.5 -25.5t-53 -44t-45 -61.5t-34.5 -60.5l-28 -58.5q-20 -42 -23 -47q-13 -22 -22 -23q-27 -6 -44 14q-17 19 -28 57q-39 135 -24 562q8 237 33 541l-32 3q-54 2 -91 -9l-5 -1l-1 4
q-2 9 2 15q9 9 24 10q40 6 85 3l20 -2q0 4 1.5 18.5t1.5 22.5q15 -1 20 -4t5 -13q-2 -14 -2 -26l49 -5q170 -23 274 -1q1 -18 -3 -22q-3 -3 -22 -6q-90 -14 -252 5l-49 6q-21 -265 -29 -429h168q12 -1 16.5 -4.5t4.5 -15.5v-4h-189q-24 -494 20 -642q7 -28 20 -44
q10 -13 20 -10q1 0 9 15zM227 952q14 11 23 0q12 -7 32.5 -30.5t37.5 -29.5q-2 -9 -12.5 -12t-14.5 1q-11 6 -27.5 27t-26.5 27q-10 -6 -27 -27t-27 -27q-4 -4 -14.5 -1t-12.5 12q16 6 36.5 29.5t32.5 30.5z" />
    <glyph glyph-name="Edieresis" unicode="&#xcb;" horiz-adv-x="381" 
d="M107 -322q-8 -15 -9 -15q-10 -3 -20 10q-11 19 -18 44q-44 148 -20 642h187v4q0 12 -4.5 15.5t-16.5 4.5h-166q8 164 29 429l47 -6q161 -19 250 -5q19 3 22 6q4 4 3 22q-103 -22 -272 1l-47 5q0 12 2 26q0 10 -5 13t-20 4q0 -8 -1.5 -22.5t-1.5 -18.5l-20 2q-45 3 -85 -3
q-17 -1 -22 -10q-4 -6 -2 -15l1 -4l3 1q37 11 91 9l32 -3q-25 -304 -33 -541q-15 -427 24 -562q11 -38 28 -57q17 -20 42 -14q9 1 22 23q3 5 23 47l28 59t33.5 60t44.5 61.5t52.5 43.5t64.5 26l5 1q-7 16 -15 19q-7 2 -26 -4q-74 -27 -132 -112q-36 -51 -78 -145zM166 958
q14 0 19 -28q1 -13 -4 -22t-13 -9q-8 -1 -14 7t-7 20q2 30 19 32zM240 958q14 0 19 -28q1 -13 -4 -22t-13 -9q-8 -1 -14 7t-7 20q2 30 19 32z" />
    <glyph glyph-name="Igrave" unicode="&#xcc;" horiz-adv-x="149" 
d="M56 671q-1 -27 -5 -113.5t-6 -136.5q-6 -131 -9 -271q2 -4 4 -6l5 -6q26 -37 49 -93q23 -55 34 -109q13 -53 16 -107q2 -56 -6 -92q-6 -30 -18 -52t-31 -34q-14 -8 -24 -5q-12 5 -19 16q-23 32 -33 174q-6 111 -3 306q-24 33 -54 54q-34 21 -64 25q6 16 13 19q8 3 25 -4
q20 -6 45 -24q13 -9 36 -32q3 129 9 252q4 113 11 240l5 106q0 10 1.5 38.5t1.5 41.5v3q19 0 24 -3q3 -4 1 -13v-8q-8 -159 -8 -166zM39 -168q6 -125 28 -157q3 -3 5 -4q2 0 3 1q13 7 24 25q11 25 15 45q8 41 5 87q-3 48 -15 102q-10 50 -31 101q-21 47 -39 76
q-2 -174 5 -276zM82 884q-14 7 -35 31.5t-38 30.5q2 9 12.5 12t14.5 -1q9 -5 31.5 -31.5t39.5 -27.5q3 -9 -8 -13.5t-17 -0.5z" />
    <glyph glyph-name="Iacute" unicode="&#xcd;" horiz-adv-x="149" 
d="M59 675q-1 -27 -5 -113.5t-6 -136.5q-6 -131 -9 -271q2 -4 4 -6l5 -6q28 -40 50 -93q21 -49 36 -109q13 -53 16 -107q2 -56 -6 -92q-7 -32 -20 -52q-12 -22 -31 -34q-14 -8 -25 -5q-12 5 -19 16q-24 33 -34 174q-6 111 -3 306q-24 34 -55 54q-34 21 -65 25q6 17 13 19
q8 3 26 -4q19 -6 46 -24q13 -9 36 -32q3 129 9 252q2 65 12 240l5 106q0 10 1.5 38.5t1.5 41.5v3q20 0 24 -3q3 -4 1 -13v-8q-8 -159 -8 -166zM42 -164q6 -125 28 -157q3 -3 5 -4q2 0 3 1q13 7 25 25q11 25 15 45q8 41 5 87q-3 48 -15 102q-11 53 -32 101q-21 47 -39 76
q-2 -174 5 -276zM90 958q6 4 17 -0.5t8 -13.5q-17 -1 -39.5 -27.5t-31.5 -31.5q-4 -4 -14.5 -1t-12.5 12q17 6 38 30.5t35 31.5z" />
    <glyph glyph-name="Icircumflex" unicode="&#xce;" horiz-adv-x="149" 
d="M56 663q-1 -26 -5 -112t-6 -136q-6 -130 -9 -269q2 -4 4 -6l5 -6q26 -37 49 -93q21 -47 36 -108q13 -51 16 -107q2 -55 -6 -90q-6 -31 -20 -52q-12 -22 -31 -34q-12 -7 -24 -5q-12 5 -19 16q-23 32 -33 173q-6 110 -3 304q-24 33 -54 54q-31 20 -64 25q6 17 13 18
q7 3 25 -3q25 -9 45 -25q16 -11 36 -31q3 129 9 250q4 112 11 238l5 105q0 10 1.5 38.5t1.5 41.5v4q20 0 24 -4q3 -4 1 -13v-8q-7 -154 -8 -165zM39 -170q6 -124 28 -156q3 -3 5 -4q2 0 3 1q13 7 24 25q11 25 15 45q8 40 5 85q-3 50 -15 102q-10 48 -31 100q-21 47 -39 76
q-2 -173 5 -274zM61 953q14 11 23 0q12 -7 32.5 -30.5t37.5 -29.5q-2 -9 -12.5 -12t-14.5 1q-11 6 -27.5 27t-26.5 27q-10 -6 -27 -27t-27 -27q-4 -4 -14.5 -1t-12.5 12q16 6 36.5 29.5t32.5 30.5z" />
    <glyph glyph-name="Idieresis" unicode="&#xcf;" horiz-adv-x="149" 
d="M56 674q0 7 8 166v8q2 9 -1 13q-5 3 -24 3v-3q0 -13 -1.5 -41.5t-1.5 -38.5l-5 -106q-7 -127 -11 -240q-6 -123 -9 -252q-23 23 -36 32q-25 18 -45 24q-17 7 -25 4q-7 -3 -13 -19q30 -4 64 -25q30 -21 54 -54q-3 -195 3 -306q10 -142 33 -174q7 -11 19 -16q10 -3 24 5
q19 12 31 34q13 20 20 52q8 36 6 92q-3 54 -16 107q-15 60 -36 109q-23 56 -49 93l-5 6q-2 2 -4 6q3 140 9 271q2 50 6 136.5t5 113.5zM39 -165q-7 102 -5 276q18 -29 39 -76q21 -51 31 -101q12 -54 15 -102q3 -46 -5 -87q-4 -20 -15 -45q-11 -18 -24 -25q-1 -1 -3 -1
q-2 1 -5 4q-22 32 -28 157zM27 957q14 0 19 -28q1 -13 -4 -22t-13 -9q-8 -1 -14 7t-7 20q2 30 19 32zM101 957q14 0 19 -28q1 -13 -4 -22t-13 -9q-8 -1 -14 7t-7 20q2 30 19 32z" />
    <glyph glyph-name="Eth" unicode="&#xd0;" horiz-adv-x="440" 
d="M-80 269q-6 8 -3.5 17t8.5 12q40 21 163 9q11 446 65 491q14 13 35 5q13 -4 12.5 -14.5t-11.5 -20.5q-6 6 -14 12q-4 0 -5 -1q-35 -30 -49 -288q-4 -61 -8 -187q50 -6 92 -5t52 17q9 -4 7 -15t-8 -14q-31 -17 -143 -6q-2 -82 -4 -274v-1q0 -87 -1 -125l7 -2q15 -5 39 -5
q33 1 64 43q30 43 57 125q19 64 33 147q14 86 20 173q6 89 3 177q-3 80 -14 158q-18 109 -48 163q-31 58 -70 65h-1q-25 3 -48 -22q-26 -25 -52 -80q-23 -46 -42 -113q-18 -59 -31 -135q-2 -11 -3 -19.5t-2 -11.5q-27 -1 -21 35q15 78 33 138q16 59 43 117q29 62 61 91
q32 31 66 25h1q51 -9 86 -74q36 -66 53 -175q11 -67 14 -161q3 -89 -3 -180q-4 -88 -20 -175q-15 -89 -34 -150q-28 -90 -64 -137q-38 -48 -80 -49q-24 -1 -47 5q-2 -48 -2 -66q0 -11 -4 -17t-8 -7.5t-14 -2.5v5l3 99q-6 4 -16 14q-13 13 -22 33t-13 48q-7 34 21 40v-4
q3 -36 11 -62q14 -40 18 -37q1 0 1 2q0 17 0.5 53t0.5 55q0 11 1 116t2 161q-134 14 -167 -15z" />
    <glyph glyph-name="Ntilde" unicode="&#xd1;" horiz-adv-x="457" 
d="M50 847l-3 -142q-2 -145 -4 -208v-20q22 142 59 239q55 141 137 142q63 0 93 -86q24 -76 26 -212q1 -140 -20 -403q-1 -38 -7 -110l-6 -102q30 -24 51 -52q22 -31 33 -66q7 -20 8 -36q3 -18 3 -35q-2 -24 -4 -32q-3 -15 -9 -27q-8 -16 -21 -27q-14 -9 -30 -8
q-39 3 -52 82q-10 61 -5 190q-30 20 -55 30q-39 14 -66 20h-5l2 4q3 12 9 14q8 3 24 -2q12 -3 53 -17q33 -16 39 -20l6 91l8 105q9 124 14 207q6 109 5 193q-2 133 -22 199q-12 37 -29.5 56.5t-42.5 18.5q-95 -1 -151 -240q-40 -181 -52 -450l-3 -121l-3 -106
q0 -13 -4.5 -16t-19.5 -2v3q0 9 -0.5 32.5t1 80.5t4.5 116l4 192l4 176l4 220q2 116 2 144v4h9q16 0 16 -19zM327 -248q8 -65 31 -66q6 -1 14 5q6 4 13 16q2 4 6 23q3 11 3 26q0 21 -2 32q-2 19 -7 33q-11 32 -27 54q-18 26 -35 40q-3 -113 4 -163zM362 909
q-25 -13 -56.5 -9.5t-56 15t-55 16.5t-55.5 -5q-35 -16 -54 -56q-27 3 -11 28q24 37 59 51q32 13 75.5 1.5t73.5 -23.5t72 4q28 12 41 41q4 1 8 -3.5t5.5 -11t-4.5 -14.5q-17 -21 -42 -34z" />
    <glyph glyph-name="Ograve" unicode="&#xd2;" horiz-adv-x="506" 
d="M172 744q-11 3 -24 -5q-21 -14 -44 -64q-22 -48 -39 -123q-16 -65 -26 -156q-10 -88 -10 -164q0 -157 34.5 -260.5t106.5 -107.5h4q4 0 12 1q43 7 79 54q37 48 65 135q25 77 39 177q14 91 14 201q0 50 -3 98q-6 57 -11 89q-8 49 -21 87q-15 44 -32 71q-18 30 -37 46
q-39 34 -92 17q-24 -7 -50 -26q-29 -20 -52 -55q-21 -28 -33 -71l-3 -14l-3 -15l-1 -3q-13 1 -17 10q-5 9 -2 20q0 2 0.5 4t0.5 3q13 46 36 79q21 32 59 61q29 21 58 29q62 22 115 -21q26 -23 44 -53q20 -34 33 -74q13 -38 23 -92q8 -54 10 -91q4 -41 4 -99q0 -100 -14 -204
q-13 -93 -40 -181q-31 -94 -72 -145q-43 -53 -94 -60h-5q-4 -1 -10 -1q-80 0 -126 104q-44 104 -44 287q0 85 9 166q10 89 27 159q17 78 42 129q24 52 51 71q17 14 35 12q19 0 36 -14q12 -11 11 -19q-1 -4 -13 -15l-2 4q-15 16 -28 19zM149 740l-1 -1zM262 897
q-14 7 -35 31.5t-38 30.5q2 9 12.5 12t14.5 -1q9 -5 31.5 -31.5t39.5 -27.5q3 -9 -8 -13.5t-17 -0.5z" />
    <glyph glyph-name="Oacute" unicode="&#xd3;" horiz-adv-x="506" 
d="M174 723q-11 3 -25 -5q-21 -14 -44 -64q-22 -48 -39 -123q-18 -72 -27 -156q-10 -88 -10 -164q0 -157 35 -260.5t108 -107.5h4q4 0 12 1q42 7 80 54q37 48 65 135q27 83 40 177q14 91 14 201q0 50 -3 98q-6 57 -11 89q-8 51 -22 87q-15 44 -32 71q-18 30 -37 46
q-40 34 -93 17q-23 -7 -51 -26q-29 -20 -52 -55q-21 -28 -33 -71l-4 -14l-3 -15l-1 -3q-13 1 -17 10q-5 9 -2 20q0 2 0.5 4t0.5 3q14 47 37 79q21 32 59 61q28 21 59 29q62 23 116 -21q26 -23 44 -53q22 -38 34 -74q13 -38 23 -92q8 -54 10 -91q4 -41 4 -99q0 -100 -14 -204
q-13 -93 -40 -181q-33 -95 -73 -145q-43 -53 -95 -60q-1 0 -2.5 -0.5t-5 -0.5h-7.5q-81 0 -128 104q-44 104 -44 287q0 85 9 166q10 89 27 159q19 80 43 129q24 52 51 71q17 14 36 12q19 0 36 -14q12 -11 11 -19q-1 -5 -13 -15l-2 4q-15 16 -28 19zM150 719l-1 -1zM254 955
q6 4 17 -0.5t8 -13.5q-17 -1 -39.5 -27.5t-31.5 -31.5q-4 -4 -14.5 -1t-12.5 12q17 6 38 30.5t35 31.5z" />
    <glyph glyph-name="Ocircumflex" unicode="&#xd4;" horiz-adv-x="506" 
d="M170 744q-12 3 -23 -5q-21 -14 -44 -64q-22 -48 -39 -123q-14 -58 -25 -156q-10 -88 -10 -164q0 -157 34 -260.5t105 -107.5h4q4 0 12 1q44 7 78 54q37 48 65 135q23 71 38 177q14 91 14 201q0 50 -3 98q-6 57 -11 89q-7 46 -20 87q-15 44 -32 71q-18 30 -37 46
q-38 34 -91 17q-25 -8 -49 -26q-29 -20 -52 -55q-21 -28 -33 -71l-2 -14l-3 -15l-1 -3q-13 1 -17 10q-5 9 -2 20q0 2 0.5 4t0.5 3q13 44 35 79q21 32 59 61q30 22 57 29q61 22 114 -21q26 -23 44 -53t32 -74q13 -38 23 -92q8 -54 10 -91q4 -41 4 -99q0 -100 -14 -204
q-13 -93 -40 -181q-29 -92 -71 -145q-43 -53 -93 -60h-5q-4 -1 -10 -1q-80 0 -124 104t-44 287q0 85 9 166q10 89 27 159q15 76 41 129q24 52 51 71q16 13 34 12q19 0 36 -14q12 -11 11 -19q-1 -4 -13 -15l-2 4q-15 16 -28 19zM148 740l-1 -1zM207 955q14 11 23 0
q12 -7 32.5 -30.5t37.5 -29.5q-2 -9 -12.5 -12t-14.5 1q-11 6 -27.5 27t-26.5 27q-10 -6 -27 -27t-27 -27q-4 -4 -14.5 -1t-12.5 12q16 6 36.5 29.5t32.5 30.5z" />
    <glyph glyph-name="Otilde" unicode="&#xd5;" horiz-adv-x="506" 
d="M172 744q-11 3 -24 -5q-21 -14 -44 -64q-22 -48 -39 -123q-16 -65 -26 -156q-10 -88 -10 -164q0 -157 34.5 -260.5t106.5 -107.5h4q4 0 12 1q43 7 79 54q37 48 65 135q25 77 39 177q14 91 14 201q0 50 -3 98q-6 57 -11 89q-8 49 -21 87q-15 44 -32 71q-18 30 -37 46
q-39 34 -92 17q-24 -7 -50 -26q-29 -20 -52 -55q-21 -28 -33 -71l-3 -14l-3 -15l-1 -3q-13 1 -17 10q-5 9 -2 20q0 2 0.5 4t0.5 3q13 46 36 79q21 32 59 61q29 21 58 29q62 22 115 -21q26 -23 44 -53q20 -34 33 -74q13 -38 23 -92q8 -54 10 -91q4 -41 4 -99q0 -100 -14 -204
q-13 -93 -40 -181q-31 -94 -72 -145q-43 -53 -94 -60h-5q-4 -1 -10 -1q-80 0 -126 104q-44 104 -44 287q0 85 9 166q10 89 27 159q17 78 42 129q24 52 51 71q17 14 35 12q19 0 36 -14q12 -11 11 -19q-1 -4 -13 -15l-2 4q-15 16 -28 19zM149 740l-1 -1zM345 907
q-25 -13 -56.5 -9.5t-56 15t-55 16.5t-55.5 -5q-35 -16 -54 -56q-27 3 -11 28q24 37 59 51q32 13 75.5 1.5t73.5 -23.5t72 4q28 12 41 41q4 1 8 -3.5t5.5 -11t-4.5 -14.5q-17 -21 -42 -34z" />
    <glyph glyph-name="Odieresis" unicode="&#xd6;" horiz-adv-x="506" 
d="M173 744q13 -3 28 -19l2 -4q12 11 13 15q1 8 -11 19q-17 14 -36 14q-18 2 -35 -12q-29 -20 -52 -71q-25 -51 -42 -129q-17 -70 -27 -159q-9 -81 -9 -166q0 -183 44 -287q46 -104 127 -104q6 0 11 1h4q51 7 94 60q42 50 73 145q27 88 40 181q14 104 14 204q0 58 -4 99
q-2 37 -10 91q-10 54 -23 92q-13 40 -33 74q-18 31 -45 53q-53 43 -115 21q-29 -8 -58 -29q-38 -28 -60 -61q-23 -33 -36 -79q0 -1 -0.5 -3t-0.5 -4q-3 -11 2 -20q4 -9 17 -10l1 3l3 15l3 14q12 43 33 71q22 34 53 55q26 19 50 26q53 17 92 -17q21 -18 38 -46q17 -27 32 -71
q13 -38 21 -87q5 -32 11 -89q3 -48 3 -98q0 -110 -14 -201q-14 -100 -39 -177q-28 -84 -66 -135q-36 -47 -79 -54q-8 -1 -12 -1h-4q-73 4 -107.5 107.5t-34.5 260.5q0 76 10 164q10 91 26 156q18 77 40 123q23 50 44 64q13 8 24 5zM150 740l-1 -1zM204 964q14 0 19 -28
q1 -13 -4 -22t-13 -9q-8 -1 -14 7t-7 20q2 30 19 32zM278 964q14 0 19 -28q1 -13 -4 -22t-13 -9q-8 -1 -14 7t-7 20q2 30 19 32z" />
    <glyph glyph-name="multiply" unicode="&#xd7;" horiz-adv-x="374" 
d="M104 429q1 9 11 13t15 1q43 -19 114 -130l4 4q30 24 41 33.5t30 27.5t25 30t3 22q9 3 16 -6.5t5 -15.5q-11 -33 -105 -109l-7 -5l27.5 -40t23 -29.5t25 -23.5t20.5 -5q3 -9 -7 -14.5t-16 -3.5q-33 14 -90 102q-97 -78 -99 -120q-9 1 -14 10t-3 15q12 38 103 115
q-36 56 -65 90t-57 39z" />
    <glyph glyph-name="Oslash" unicode="&#xd8;" horiz-adv-x="506" 
d="M432 946h-5q-49 -27 -100 -150l4 -6q19 -35 32 -75q11 -31 22 -93q8 -56 10 -93q4 -43 4 -101q0 -101 -14 -207q-14 -103 -39 -184q-29 -94 -70 -147q-42 -55 -92 -61l-4 -1h-10q-54 0 -90 47q-42 -129 -81 -192q-3 -5 -13 -7.5t-18 3.5q44 60 94 223q-8 12 -15 31
q-43 106 -43 292q0 85 9 169q10 96 26 161q18 83 41 132q25 55 50 72q17 13 34 12q16 0 35 -14q12 -12 11 -20q-1 -5 -13 -15l-2 4q-16 18 -27 20q-12 3 -23 -5l-1 -1q-20 -15 -43 -65q-22 -53 -38 -125q-15 -66 -25 -158t-10 -167q0 -192 44 -291q24 85 86 343
q89 380 142 515q-14 21 -28 33q-38 36 -90 18q-24 -8 -48 -26q-28 -21 -51 -56q-20 -28 -32 -73l-3 -14l-3 -15l-1 -3q-13 1 -17 10q-4 11 -2 21q0 1 0.5 3t0.5 4q12 43 35 80q21 33 58 62q29 21 57 30q60 23 112 -22l23 -25q38 91 80 129q22 18 41 -2zM166 -149h4q4 0 11 1
q42 7 77 55q35 46 64 138q24 80 38 179q14 92 14 204q0 50 -3 100q-6 60 -11 90q-8 49 -21 89q-13 39 -24 59q-47 -130 -133 -492q-57 -248 -94 -371q32 -49 78 -52z" />
    <glyph glyph-name="Ugrave" unicode="&#xd9;" horiz-adv-x="515" 
d="M43 896l-3 -41q-15 -243 -15 -394q-2 -266 33 -420q22 -94 58 -138q40 -48 94 -35q52 13 91 114q32 86 54 243q17 127 26 298q7 139 7 276q15 3 20.5 -5.5t5.5 -25.5q0 -4 -0.5 -37t-0.5 -79l-3 -320v-119q0 -280 -3 -511q0 -19 -6 -28t-20 -7q0 86 2 285.5t2 303.5
q-26 -194 -63 -288q-43 -111 -106 -125q-70 -16 -117 39q-41 50 -65 153q-35 146 -35 425q1 152 16 397l5 98q10 0 14 -1t7.5 -7t2.5 -18q0 -5 -0.5 -16t-0.5 -17zM291 862q-14 7 -35 31.5t-38 30.5q2 9 12.5 12t14.5 -1q9 -5 31.5 -31.5t39.5 -27.5q3 -9 -8 -13.5t-17 -0.5
z" />
    <glyph glyph-name="Uacute" unicode="&#xda;" horiz-adv-x="515" 
d="M43 896l-3 -41q-15 -243 -15 -394q-2 -266 33 -420q22 -94 58 -138q40 -48 94 -35q52 13 91 114q32 86 54 243q17 127 26 298q7 139 7 276q15 3 20.5 -5.5t5.5 -25.5q0 -4 -0.5 -37t-0.5 -79l-3 -320v-119q0 -280 -3 -511q0 -19 -6 -28t-20 -7q0 86 2 285.5t2 303.5
q-26 -194 -63 -288q-43 -111 -106 -125q-70 -16 -117 39q-41 50 -65 153q-35 146 -35 425q1 152 16 397l5 98q10 0 14 -1t7.5 -7t2.5 -18q0 -5 -0.5 -16t-0.5 -17zM290 954q6 4 17 -0.5t8 -13.5q-17 -1 -39.5 -27.5t-31.5 -31.5q-4 -4 -14.5 -1t-12.5 12q17 6 38 30.5
t35 31.5z" />
    <glyph glyph-name="Ucircumflex" unicode="&#xdb;" horiz-adv-x="515" 
d="M43 896l-3 -41q-15 -243 -15 -394q-2 -266 33 -420q22 -94 58 -138q40 -48 94 -35q52 13 91 114q32 86 54 243q17 127 26 298q7 139 7 276q15 3 20.5 -5.5t5.5 -25.5q0 -4 -0.5 -37t-0.5 -79l-3 -320v-119q0 -280 -3 -511q0 -19 -6 -28t-20 -7q0 86 2 285.5t2 303.5
q-26 -194 -63 -288q-43 -111 -106 -125q-70 -16 -117 39q-41 50 -65 153q-35 146 -35 425q1 152 16 397l5 98q10 0 14 -1t7.5 -7t2.5 -18q0 -5 -0.5 -16t-0.5 -17zM253 961q14 11 23 0q12 -7 32.5 -30.5t37.5 -29.5q-2 -9 -12.5 -12t-14.5 1q-11 6 -27.5 27t-26.5 27
q-10 -6 -27 -27t-27 -27q-4 -4 -14.5 -1t-12.5 12q16 6 36.5 29.5t32.5 30.5z" />
    <glyph glyph-name="Udieresis" unicode="&#xdc;" horiz-adv-x="515" 
d="M43 896l-3 -41q-15 -243 -15 -394q-2 -266 33 -420q22 -94 58 -138q40 -48 94 -35q52 13 91 114q32 86 54 243q17 127 26 298q7 139 7 276q15 3 20.5 -5.5t5.5 -25.5q0 -4 -0.5 -37t-0.5 -79l-3 -320v-119q0 -280 -3 -511q0 -19 -6 -28t-20 -7q0 86 2 285.5t2 303.5
q-26 -194 -63 -288q-43 -111 -106 -125q-70 -16 -117 39q-41 50 -65 153q-35 146 -35 425q1 152 16 397l5 98q10 0 14 -1t7.5 -7t2.5 -18q0 -5 -0.5 -16t-0.5 -17zM215 952q14 0 19 -28q1 -13 -4 -22t-13 -9q-8 -1 -14 7t-7 20q2 30 19 32zM289 952q14 0 19 -28
q1 -13 -4 -22t-13 -9q-8 -1 -14 7t-7 20q2 30 19 32z" />
    </font>
</defs>
</svg>
