<?xml version="1.0" standalone="no"?>
<!DOCTYPE svg PUBLIC "-//W3C//DTD SVG 1.1//EN" "http://www.w3.org/Graphics/SVG/1.1/DTD/svg11.dtd" >
<svg>
<metadata>
Created by FontForge 20090622 at Wed Mar 23 13:47:02 2016
 By deploy user
Copyright (c) 2016 by . All rights reserved.
</metadata>
<defs>
<font id="Willsheringsans" horiz-adv-x="241" >
  <font-face 
    font-family="Will shering sans"
    font-weight="400"
    font-stretch="normal"
    units-per-em="1000"
    panose-1="2 0 5 8 0 0 0 2 0 3"
    ascent="750"
    descent="-250"
    x-height="752"
    cap-height="766"
    bbox="7 -158.143 457.8 913"
    underline-thickness="50"
    underline-position="-50"
    unicode-range="U+000D-U+2026"
  />
<missing-glyph horiz-adv-x="180" 
 />
    <glyph glyph-name=".notdef" horiz-adv-x="180" 
 />
    <glyph glyph-name=".null" horiz-adv-x="0" 
 />
    <glyph glyph-name="nonmarkingreturn" horiz-adv-x="333" 
 />
    <glyph glyph-name="NULL" horiz-adv-x="0" 
 />
    <glyph glyph-name="NULL" horiz-adv-x="0" 
 />
    <glyph glyph-name="CR" unicode="&#xd;" horiz-adv-x="180" 
 />
    <glyph glyph-name="space" unicode=" " horiz-adv-x="180" 
 />
    <glyph glyph-name="exclam" unicode="!" horiz-adv-x="109" 
d="M86 775q6 0 12 -20q-7 -55 -0.5 -304.5t6.5 -315.5q0 -34 -6 -42h-2l-8 4q1 3 -2 179.5t-4.5 324.5t4.5 174zM86 16q2 7 13 8t15 -6q0 -10 -7 -15t-14 -1.5t-7 14.5z" />
    <glyph glyph-name="numbersign" unicode="#" horiz-adv-x="440" 
d="M322 486q2 74 5 159t3 110q8 -2 11 -2q0 -33 -2 -118.5t-3 -146.5q11 -1 35 0t39.5 1t15.5 -3q0 -6 -6 -13q-22 3 -85 0q0 -29 -2.5 -96t-1.5 -101q78 0 92 1h1q7 3 5 -2q0 -2 -3 -6q-71 -5 -95 -4q1 -169 0 -236v-5q0 -22 -12 -23v266q-12 0 -129 2q-1 -56 2.5 -146.5
t3.5 -124.5h-7q-11 0 -11 268q-77 -5 -91 -5l-5 6v2q0 1 96 8l4 196q-76 0 -95 -2q-12 3 -7 19q16 -1 50 -2t52 -2q4 132 4 261q-3 17 14 18q-1 -39 -1.5 -95.5t-1.5 -100l-2 -83.5h127zM194 473q0 -33 -1.5 -96.5t-1.5 -97.5q88 0 128 -2q0 29 2 94.5t2 101.5h-129z" />
    <glyph glyph-name="dollar" unicode="$" horiz-adv-x="205" 
d="M134 804q11 -2 16 -7q-2 -10 -2 -29q20 -9 36 -29l10 -22q-2 -26 -8 -25q-7 0 -12 35q-12 15 -27 24q-1 -39 -2 -164.5t-2 -183.5q38 -156 51 -238q12 -63 -10.5 -117t-65.5 -40q-5 -24 -12 -29l-5 11l3 24q-13 8 -31 29q-10 13 -22 87q0 28 10 35q5 0 8 -8v-2
q0 -15 -6 -15q18 -93 42 -107l1 -1q16 133 18 385q-18 67 -19 71q-22 87 -32 223q0 65 49 65l10 -3q0 11 2 31zM175 59q24 81 -33 297q-5 -242 -20 -331q40 -13 53 34zM89 713q0 -77 36 -236q0 173 6 280q-18 5 -30 -5.5t-12 -38.5z" />
    <glyph glyph-name="percent" unicode="%" horiz-adv-x="242" 
d="M215 755q9 -3 14 -10q-7 -17 -48 -207.5t-86 -365t-69 -184.5l-2 12q47 124 106 394t85 361zM86 427q-6 -43 -15 -60q-7 -10 -20 -10q-14 0 -20 33v6q0 34 20 55q21 21 32 -13q2 -5 3 -11zM39 394q8 -44 23.5 -23t14.5 53v4q0 18 -10 18h-6q-10 0 -16 -19.5t-6 -32.5z
M232 264q-6 -43 -15 -60q-7 -10 -20 -10q-14 0 -20 33v6q0 34 20 55q21 21 32 -13q2 -5 3 -11zM185 231q8 -44 23.5 -23t14.5 53v4q0 18 -10 18h-6q-10 0 -16 -19.5t-6 -32.5z" />
    <glyph glyph-name="ampersand" unicode="&#x26;" horiz-adv-x="286" 
d="M168 749q61 0 61 -107q0 -11 -53 -168q0 -8 -22 -58l85 -274q22 31 28 45q10 0 10 -14q0 -3 -30 -49l10 -29.5t11.5 -37.5t4.5 -32v-4q0 -4 -2 -4q-8 0 -32 95l-53 -63q-47 -44 -79 -44q-40 0 -58 69q-5 22 -3 50.5t3 47t8.5 44l12.5 42.5t15.5 41.5t18 40.5l19 41
l19.5 43q-27 91 -27 141q1 6 0.5 32t1 48.5t6 48t16 40.5t29.5 15zM148 401q1 6 -3 0q-24 -32 -56 -126q-65 -191 -3 -244q10 -10 25 -14q19 -6 65 44q11 12 30 35t27 32q-17 47 -44 139.5t-41 133.5zM168 735q-43 0 -43 -162q0 -41 27 -135q10 43 58 174q3 14 4 31.5
t-0.5 40t-11.5 37t-28 14.5h-6z" />
    <glyph glyph-name="parenleft" unicode="(" horiz-adv-x="125" 
d="M79 761q-51 -342 -8 -623q14 -92 30 -124v-12q0 -4 -4 -4q-21 0 -36 66t-21 161.5t-8.5 162t-2.5 104.5q0 58 11.5 138.5t32.5 128.5q-2 0 -0.5 1t6.5 1z" />
    <glyph glyph-name="parenright" unicode=")" horiz-adv-x="97" 
d="M32 763l7 -2h-1q21 -48 32.5 -128.5t11.5 -138.5q0 -38 -2.5 -104.5t-8.5 -162t-21 -161.5t-36 -66q-4 0 -4 4v12q16 32 30 124q43 281 -8 623z" />
    <glyph glyph-name="asterisk" unicode="*" horiz-adv-x="233" 
d="M176 579h2q6 0 6 -14q-32 -54 -32 -75q6 0 15.5 0.5t21.5 0.5t32 -1q8 -1 5.5 -10t-7.5 -13q-7 3 -22.5 5t-32 0.5t-18.5 -9.5l43 -66v-6q0 -2 -13 -13q-7 0 -40 69q-4 0 -19.5 -40.5t-23.5 -40.5h-2q-6 0 -6 6v4q2 7 6.5 18.5t13.5 32.5l17 40l-26 1q-26 0 -27 -1
q-13 3 -18.5 12t10.5 15q7 -4 14.5 -5.5t18.5 -1t16 0.5q-28 50 -47 75q0 12 6 12h4q21 -21 57 -85h4q2 10 19.5 49.5t22.5 39.5z" />
    <glyph glyph-name="plus" unicode="+" horiz-adv-x="194" 
d="M125 389l2 -10q0 -3 1 -24t1 -42q7 -1 19.5 0.5t33.5 1.5l4 -7q-2 -3 -5.5 -5.5t-10 -3t-10.5 -0.5h-14.5h-15.5v-60q-4 0 -7 -2.5t-10 1.5q2 21 2 62q-15 0 -28.5 -0.5t-21.5 -1t-10 -0.5l-1 14l60 1q0 2 -0.5 21t-0.5 45q0 10 12 10z" />
    <glyph glyph-name="comma" unicode="," horiz-adv-x="68" 
d="M42 46q19 0 19 -53q0 -22 -9.5 -46.5t-25.5 -34.5q-3 0 -6 8q5 0 14 21.5t12 40t-4 21.5l-14 -2q0 1 -6 10q3 35 20 35z" />
    <glyph glyph-name="hyphen" unicode="-" horiz-adv-x="233" 
d="M60 314h164q3 -3 1 -8t-6 -5q-133 0 -162 -1q-10 8 -2 14h5z" />
    <glyph glyph-name="period" unicode="." horiz-adv-x="49" 
d="M33 43q17 0 15 -18q-1 -19 -18 -23q-2 -1 -5 -1q-7 0 -10 26q0 13 18 16z" />
    <glyph glyph-name="slash" unicode="/" horiz-adv-x="221" 
d="M198 767q9 -3 14 -10q-7 -17 -48 -207.5t-86 -365t-69 -184.5l-2 12q47 124 106 394t85 361z" />
    <glyph glyph-name="zero" unicode="0" horiz-adv-x="341" 
d="M143 320v59q0 258 30 340q33 91 103 27q33 -43 47 -187.5t2 -300.5t-49 -226q-19 -36 -63 -36q-34 14 -48 56q-18 59 -22 135t0 133zM177 684q-17 -105 -18 -328.5t26 -315.5q21 -30 38 -30q50 0 76 179q28 189 10 381q-18 185 -69 189h-5q-48 -7 -58 -75z" />
    <glyph glyph-name="one" unicode="1" horiz-adv-x="226" 
d="M191 773q13 -8 14 -8q-2 -148 1 -405t3 -342q-3 -20 -6 -20h-2q-3 0 -6 6q0 16 -3 120t-3 139q0 54 1 149t1 172t-2 146h-4q-4 -27 -24.5 -79t-21.5 -54q-6 -6 -15 -6l-2 6q27 84 69 176z" />
    <glyph glyph-name="two" unicode="2" horiz-adv-x="283" 
d="M138 661q8 72 49 98q35 22 59 -11q12 -19 17 -51q9 -66 -50 -326t-93 -356q6 -6 71.5 -0.5t69.5 -7.5l-8 -8h-123q-27 0 -27 8q10 42 47.5 172.5t58.5 244.5l3 14l7 34t8.5 45.5l9 52.5t7.5 53.5t4.5 49.5t-0.5 39t-7 24q-19 24 -37 18t-31 -26t-17 -43q-3 -39 -10 -39
h-4q-4 0 -4 4v11z" />
    <glyph glyph-name="three" unicode="3" horiz-adv-x="301" 
d="M177 779q41 -3 63 -35q23 -31 26 -77t-6 -88q-5 -43 -14 -66t-30 -54q32 0 54 -64.5t22 -109.5v-4q0 -101 -40 -214q-27 -67 -75 -67q-37 0 -54 30.5t-17 74.5q3 10 12 10q4 0 9 -8v-16q4 -67 44 -77q63 0 93 146q0 11 5 49.5t5 71.5q0 62 -10 83q-9 34 -24 53
q-35 32 -47 32l-38 -4q-4 8 -4 10q3 0 7 4t10 6t25 -2q33 21 50.5 88.5t5.5 133t-54 78.5l-4 2q-28 0 -42 -33h-8q0 8 -4 12q15 35 40 35z" />
    <glyph glyph-name="four" unicode="4" horiz-adv-x="250" 
d="M209 762q23 -3 23 -23q0 -61 -3.5 -239t-4.5 -285.5t2 -197.5l4 -10l-17 -10l-2 12q-4 46 -4 100t2 119.5t2 98.5v2q-40 0 -97 4q-8 4 -8 12q29 86 61.5 235t41.5 182zM211 727q-9 -71 -87 -378q8 0 38.5 -3.5t48.5 -2.5l6 366q0 17 -1 18h-5z" />
    <glyph glyph-name="five" unicode="5" horiz-adv-x="337" 
d="M286 771l2 -4v-2q0 -17 -119 -17q-4 -54 -3.5 -83t3 -86.5t2.5 -91.5h2q58 0 95 -36t49.5 -92t11 -119t-16.5 -121t-38 -95q-46 -46 -95 2q0 1 -10 18v2q0 3 8 6h6q6 -21 24 -34q19 -6 33.5 -2t27.5 28q45 85 45 184q0 125 -31 185q-14 24 -39.5 43t-51.5 19
q-18 -3 -34 -16l-4 12q0 -1 0.5 9t0.5 29v43t-0.5 53t-0.5 55.5v55v47.5q4 0 4 2q91 0 129 6z" />
    <glyph glyph-name="six" unicode="6" horiz-adv-x="364" 
d="M279 750h4q7 0 7 -10q-30 -36 -52.5 -83t-37 -104t-23 -101t-17.5 -109q81 69 142 5q50 -53 57 -153q7 -108 -45 -164q-24 -27 -59 -34q-34 -7 -58 21t-34.5 73t-15 99.5t-3.5 95t4 65.5q43 302 131 399zM158 280q0 -39 2.5 -74.5t11 -90t31.5 -83.5t57 -22q17 4 32 18
q38 34 50.5 100.5t-7.5 127.5q-13 45 -37 76.5t-52 31.5q-52 0 -76 -31q-7 -18 -12 -53z" />
    <glyph glyph-name="seven" unicode="7" horiz-adv-x="271" 
d="M142 765q30 -1 58.5 -0.5t47.5 1.5t18 1q-10 -102 -32.5 -294l-39.5 -329.5t-16 -137.5h-6l-6 2q0 20 22 205l42 359t17 177h-120q-9 0 -12 6q0 7 27 10z" />
    <glyph glyph-name="eight" unicode="8" horiz-adv-x="312" 
d="M229 771q62 0 62 -160q0 -107 -58 -221l19.5 -58t17 -53l13 -43t12.5 -45.5t8 -41.5t7 -48q0 -80 -45 -99q-38 -14 -73 13t-34 64q2 133 59 309q0 6 -43 189q-7 39 -9.5 62t3 56t24.5 58q21 18 37 18zM223 370q-51 -156 -51 -291q0 -31 20 -49t48 -18q30 0 43 22t11 51.5
t-3 58.5q-1 28 -56 201l-8 25h-4zM226 755q-25 -5 -37 -32t-13 -59q0 -37 8.5 -79t22.5 -92.5t20 -77.5q52 98 52 202q0 56 -12.5 99.5t-40.5 38.5z" />
    <glyph glyph-name="nine" unicode="9" horiz-adv-x="270" 
d="M259 771h2q4 -38 0.5 -191.5t-10 -361t-6.5 -210.5l-4 -4q-12 3 -12 6q0 16 8 193.5t8 215.5q-30 -10 -32 -10q-57 0 -73.5 73t5.5 155.5t64 111.5q16 13 46 20q2 2 4 2zM249 753q-49 0 -81 -80q-34 -83 -22 -166q16 -84 71 -87q28 8 28 21q0 34 2 110.5l3.5 134.5
t0.5 67h-2z" />
    <glyph glyph-name="colon" unicode=":" horiz-adv-x="73" 
d="M50 42h4q8 0 10.5 -10.5t-2 -21t-12.5 -10.5q-10 0 -13 5.5t-5 20.5q0 13 18 16zM50 405h4q7 0 9.5 -11.5t-1.5 -22.5t-12 -11q-15 0 -18 26q0 16 18 19z" />
    <glyph glyph-name="semicolon" unicode=";" horiz-adv-x="87" 
d="M63 43q18 0 18 -47q0 -26 -18 -71q-3 -10 -17 -16q-3 0 -6 6v2q7 -1 15.5 20.5t10.5 40.5t-3 22l-13 -2q-11 13 -4.5 29t17.5 16zM59 401h4q5 0 7.5 -10.5t-0.5 -22t-11 -12.5q-19 0 -19 26q0 16 19 19z" />
    <glyph glyph-name="less" unicode="&#x3c;" horiz-adv-x="239" 
d="M208 93q-21 29 -84.5 109.5t-76.5 95.5v4l78 80q78 79 98 89l6 -9q-11 -8 -84 -83.5l-78 -80.5q16 -22 55.5 -72l69.5 -87.5t30 -39.5q-5 -9 -14 -6z" />
    <glyph glyph-name="equal" unicode="=" horiz-adv-x="325" 
d="M63 366h255q3 -3 1 -8t-6 -5q-224 0 -253 -1q-10 8 -2 14h5zM63 245h255q3 -3 1 -8t-6 -5q-224 0 -253 -1q-10 8 -2 14h5z" />
    <glyph glyph-name="greater" unicode="&#x3e;" horiz-adv-x="236" 
d="M66 504q21 -29 84.5 -109.5t76.5 -95.5v-4l-78 -79q-78 -80 -98 -90l-6 9q11 8 84 83.5l78 80.5q-16 22 -55.5 72l-69.5 87.5t-30 39.5q5 9 14 6z" />
    <glyph glyph-name="question" unicode="?" horiz-adv-x="200" 
d="M196 644q-5 -61 -43 -204t-38 -218v-79q-3 -6 -12 -6l-2 4v26q-8 48 3 116t37 166.5t34 140.5q25 151 -46 166q-12 0 -21.5 -3t-16 -10.5t-11.5 -14t-8 -19t-5 -19.5t-2.5 -22.5t-0.5 -20.5v-20.5v-16.5v-2q-2 -4 -8 -6q-2 0 -5 7.5t-4.5 15.5t1.5 13q0 98 48 128
q48 20 76.5 -19.5t23.5 -102.5zM107 29q10 -3 10 -22q0 -3 -6 -6h-6q-1 0 -9 6v8q0 10 11 14z" />
    <glyph glyph-name="at" unicode="@" horiz-adv-x="300" 
d="M171 745q62 -5 93 -89.5t27.5 -178t-29.5 -132.5q-8 -16 -21.5 -19.5t-27.5 7.5q-46 -30 -74 35q-25 60 -15 131q11 66 47 64q22 -1 30.5 -37.5t7 -79t4.5 -78t23 -35.5q20 15 32 61t11.5 103t-10.5 111t-36 89.5t-62 33.5q-81 -7 -95 -129q2 -3 -4.5 -124.5t-0.5 -257
t37 -177.5q51 -68 82 -5q27 54 22 141q-1 23 -5 40l10 6q17 -40 2 -125q-17 -96 -57 -107q-28 -8 -62 38q-23 31 -34 99t-12 121t1.5 141.5t2.5 101.5v42.5t2 43.5t6 48t12 41.5t20 38.5t30.5 24t42.5 13zM201 345q0 2 -1 61.5t-7 102t-20 42.5q-36 0 -37 -76
q-1 -73 24 -120q20 -37 41 -10z" />
    <glyph glyph-name="A" unicode="A" horiz-adv-x="297" 
d="M205 748q1 -49 9.5 -127.5t17 -143.5t30 -215.5l34.5 -244.5q-9 -16 -18 17q-8 32 -31 232q-10 87 -17 109q-47 0 -71 -6v-2q-7 -86 -39 -344q0 -17 -10 -26q-6 -5 -10 4l76 655l7 39t7 30t7.5 19t7.5 4zM196 701q-3 -27 -10 -81.5t-13.5 -113t-11.5 -123.5q23 9 69 11
q-33 224 -34 307z" />
    <glyph glyph-name="B" unicode="B" horiz-adv-x="240" 
d="M128 788q54 -13 80 -62.5t22.5 -108t-24.5 -115.5t-54 -86q61 -59 79 -133q24 -103 -14 -186q-16 -36 -46 -61t-61 -29q4 45 5 99.5t1 141.5t1 151q0 80 -2.5 146t-6.5 130t-5 89q0 24 25 24zM136 403h-2q-4 -70 -4 -197t-2 -183q52 32 77.5 85.5t23 110.5t-27.5 109
q-15 30 -34 52.5t-31 22.5zM119 772q1 -19 8 -143.5t7 -205.5q37 28 58.5 87t22 116.5t-24 101.5t-71.5 44z" />
    <glyph glyph-name="C" unicode="C" horiz-adv-x="263" 
d="M254 740q0 -13 -7 -13t-6 12q0 3 1 7q-18 25 -40 25q-20 1 -36 -14.5t-23 -42.5q-14 -56 -17.5 -176t-1 -190.5t5.5 -113.5q12 -216 58 -216q40 0 64 67q8 -8 8 -14q-12 -44 -44 -61q-30 -20 -55 4.5t-34 76.5q-17 103 -20 236.5t0 234.5q1 110 13 149q20 69 77 71
q24 1 40.5 -10.5t16.5 -31.5z" />
    <glyph glyph-name="D" unicode="D" horiz-adv-x="272" 
d="M124 763l17 11q25 -15 50 -66q53 -112 70.5 -261.5t-13.5 -279.5q-12 -46 -33 -83q-13 -35 -56 -67q-40 -24 -45 -2q0 98 4.5 344.5t5.5 403.5zM142 756q-3 -109 -5.5 -330t-7.5 -398q60 25 90 109.5t29.5 187.5t-19.5 205.5t-51 168.5q-16 33 -36 57z" />
    <glyph glyph-name="E" unicode="E" horiz-adv-x="239" 
d="M113 777q9 0 23 0.5t30.5 0.5t41.5 -1q22 -3 19 -20q-48 2 -98 2q0 -50 -5 -174.5t-3 -196.5l75 2q3 0 6 -8q0 -3 -4 -4.5t-13.5 -1.5h-17h-23h-24.5q0 -39 4 -180t7 -176h96q3 0 4.5 -1t1 -3.5t-2 -4.5t-2.5 -4t-1 -3q-11 3 -51 0.5t-51 -2.5q-19 0 -19 114
q-12 508 7 661z" />
    <glyph glyph-name="F" unicode="F" horiz-adv-x="224" 
d="M145 784q51 -4 71 -2q9 -2 10.5 -5t-1 -6t-5.5 -6l-4 -3l-71 6v-326q5 -4 21 -2.5t33 0t17 -9.5v-2q-3 -6 -13 -6q-4 0 -9.5 0.5t-18.5 1.5t-32 2q3 -41 1.5 -194t-1.5 -191q3 -38 -4 -38q-4 0 -12 8q7 230 2 421q2 57 -1 156t-3 131q0 5 -0.5 15t-0.5 18t1 16t6 12.5
t14 3.5z" />
    <glyph glyph-name="G" unicode="G" horiz-adv-x="271" 
d="M220 784l4 -10q0 -2 -6.5 -3.5t-19.5 -4t-22 -4.5q-32 -9 -39 -44q-15 -54 -19.5 -128t-3 -121.5t9 -142.5t8.5 -118q14 -161 41 -190q18 -20 38 0q22 23 30 60.5t7.5 92t0.5 67.5q-7 1 -13 1t-18 -0.5t-24 -0.5q-3 0 -8 12q0 3 8 3.5t29.5 -0.5t35.5 -1q6 -6 6 -12
q-2 -16 -4 -74.5t-10 -98.5t-29 -56q-72 -59 -97 96q0 5 -11 95q-52 430 26 566q56 16 80 16z" />
    <glyph glyph-name="H" unicode="H" 
d="M98 782l18 -6q-7 -273 -4 -344q0 -3 42 -3.5t55 1.5q-2 32 3.5 170.5t4.5 171.5q0 2 3 3.5t7.5 1.5t7.5 -3q-8 -157 -10 -348q-2 -265 10 -425l-12 -4l-8 22q2 5 2 39q-6 186 -6 354h-97q0 -121 3 -266.5t7 -142.5l-10 -8q-16 24 -16 437v350z" />
    <glyph glyph-name="I" unicode="I" horiz-adv-x="139" 
d="M123 756q-2 -198 -4 -492q0 -12 1 -54t1 -80q0 -19 2 -61t2 -64q-3 -8 -14 -2q0 33 -2 72t-2 53q-9 335 5 634q5 12 9 4q3 -4 2 -10z" />
    <glyph glyph-name="J" unicode="J" 
d="M207 776q3 9 5 10q3 0 8 -8q-5 -106 0 -197q19 -332 9 -449q-11 -133 -54 -133h-4q-59 0 -67 129q-1 7 -1 20q-1 6 -1 9q15 0 18 -12q-1 -39 10 -87.5t41 -48.5q16 -1 26 27t13.5 74.5t4.5 102.5t-1 116.5t-4 110.5t-4.5 90.5t-2.5 50.5q0 150 4 195z" />
    <glyph glyph-name="K" unicode="K" horiz-adv-x="264" 
d="M118 715q-4 24 6 34q7 7 10 -10q1 -8 1 -20q2 -62 -4 -315h2q66 117 117 352q15 0 15 -10q-103 -361 -124 -361q22 -64 53 -185t48 -175q10 -24 2 -22q-11 3 -22 41l-4 16q-17 51 -25 79t-21.5 80t-34.5 124h-2q2 -23 2 -119q0 -32 1 -105.5t1 -121.5q-1 -7 -7.5 -5
t-10.5 7q4 126 -0.5 368.5t-2.5 347.5z" />
    <glyph glyph-name="L" unicode="L" 
d="M99 759q16 3 16 -2q0 -646 2 -739q40 -2 111 4q3 -11 -4.5 -15.5t-23.5 -4.5q-33 0 -54 -0.5t-29.5 -1t-11.5 -0.5q-5 261 -4 334q0 30 -1 81t-1 73v271z" />
    <glyph glyph-name="M" unicode="M" horiz-adv-x="284" 
d="M93 768q5 0 14 -27q4 -15 29.5 -71.5t37.5 -74.5q6 -1 19.5 26.5t34.5 75.5t33 71q4 -3 6 -6.5t2.5 -6t0 -9.5t-0.5 -11q-14 -278 8 -722l-10 -6q-9 44 -12.5 131t-4 222t-1.5 161q0 85 2.5 147t2.5 64l-22.5 -50.5t-29 -61t-28.5 -42.5h-2q-12 15 -43 82.5t-32 69.5
q2 -37 1.5 -104.5t0.5 -98.5q0 -72 3.5 -162.5t10.5 -213t8 -152.5q-8 -1 -11 4t-5 20q0 45 -5 124t-5 115q-8 92 -8 305q0 27 -2 156v31q0 14 8 14z" />
    <glyph glyph-name="N" unicode="N" horiz-adv-x="310" 
d="M108 745q8 9 14.5 10.5t11.5 -5.5t9 -15.5t10 -24.5q69 -136 135 -247q0 47 -2 143t-2 147q0 8 2.5 10t6 -0.5t6 -5t3.5 -4.5v-26q14 -725 -14 -725h-2q-2 0 -2.5 14.5t0 50.5t1.5 80.5t2 122.5t1 159q-112 180 -164 311h-2q2 -45 5.5 -367.5t2.5 -356.5q0 -12 -5 -12
q-8 4 -11 18q0 430 -6 723z" />
    <glyph glyph-name="O" unicode="O" horiz-adv-x="289" 
d="M110 656q5 63 26.5 95t46 28.5t46.5 -36t28 -83.5q57 -460 -29 -628q-19 -36 -53 -36h-10q-39 16 -51 71q-10 45 -15.5 102t-7.5 99.5t1 112.5t4.5 96.5t7.5 100t6 78.5zM129 683q-21 -150 -21.5 -325.5t29.5 -317.5q7 -30 38 -30q14 0 26 9t20 28t13.5 36t10 46t6.5 45
t4 45t3 35q0 22 1 95t0.5 111.5t-4.5 98t-13 105.5q-10 51 -34 79t-47.5 13.5t-31.5 -73.5z" />
    <glyph glyph-name="P" unicode="P" horiz-adv-x="261" 
d="M119 286q0 34 0.5 97.5t0.5 117t-1 103.5q-2 125 10 174q27 0 53 -15.5t39 -45.5q18 -43 29 -104.5t10 -129t-32 -122t-92 -71.5v-251q-2 -34 -6 -34t-12 8q1 29 1 273zM140 764q0 -292 -4 -453h2q38 11 58 29.5t35 57.5q9 23 11 81.5t-4.5 122.5t-32 113t-65.5 49z" />
    <glyph glyph-name="Q" unicode="Q" horiz-adv-x="311" 
d="M145 726q17 36 47.5 37.5t56.5 -27.5t31 -74q7 -46 13.5 -125t11.5 -191.5t-8 -203t-46 -114.5q2 -8 9 -27.5t9.5 -29.5t6.5 -30.5t0 -29.5q-6 8 -11 17t-9 21t-6 20l-6 23.5t-5 21.5h-2q-42 -14 -71 10.5t-42.5 77t-20.5 113.5t-5.5 128.5t4 112.5t6.5 76q12 145 37 194
zM266 655q-11 79 -52 92q-34 12 -60 -33q-20 -36 -22 -93q0 -3 -4.5 -46t-8 -96.5t-6 -122t2.5 -129.5t16.5 -111.5t37 -75.5t63.5 -14q-40 84 -40 132q0 3 6 6q4 -2 13 -27.5t18 -56.5t13 -40q34 25 43 149t1.5 245t-21.5 221z" />
    <glyph glyph-name="R" unicode="R" horiz-adv-x="305" 
d="M138 767q46 -9 63 -26q44 -46 59.5 -129t-9 -162.5t-87.5 -109.5v-2q31 -63 79 -185t59 -147q-18 -3 -18 6q-94 236 -134 322l-20 -2q0 -22 8 -326h-16v2q0 43 -3.5 153.5t-2.5 178.5q0 14 2 167t4 240q0 20 16 20zM140 751q0 -31 0.5 -83.5t0 -77t-1 -65.5t-3 -82
t-6.5 -93q64 2 96 78t22 167.5t-55 136.5q-19 19 -53 19z" />
    <glyph glyph-name="S" unicode="S" horiz-adv-x="218" 
d="M124 759q42 -10 62 -37l10 -22q-3 -27 -10 -25q-7 3 -10 35q-9 12 -23 21t-28 11.5t-24 -9t-10 -37.5q0 -91 43 -267q6 -25 21 -81t23 -88.5t15 -80.5t7 -89q0 -70 -38 -90q-22 -10 -43.5 -3t-38 28t-26.5 44.5t-8 46t17 32.5q5 0 7.5 -6t0.5 -12.5t-6 -6.5
q-5 -46 19.5 -80.5t59.5 -34.5q59 0 34 164q-7 45 -17.5 94t-17.5 76t-20.5 73.5t-15.5 55.5q-22 87 -32 223q0 65 49 65z" />
    <glyph glyph-name="T" unicode="T" horiz-adv-x="302" 
d="M97 777h2q25 -5 56 -5.5t68 1t60 0.5q19 -3 19 -10q-2 -9 -43 -9t-54 3q11 -244 6 -749q-17 -4 -17 8q0 592 -8 741q-95 0 -95 10v4q0 3 6 6z" />
    <glyph glyph-name="U" unicode="U" horiz-adv-x="309" 
d="M124 773q-3 -165 4 -573q2 -132 35 -172q21 -24 53.5 -19t47.5 31q33 54 24 338q-8 270 -16 383q-3 15 6 15t10 -11q15 -332 15 -417q0 -23 0.5 -72t0.5 -71t-2 -56t-7 -58t-14 -46q-18 -46 -65.5 -50.5t-71.5 33.5q-28 33 -30 171q-7 328 -7 572q0 8 17 2z" />
    <glyph glyph-name="V" unicode="V" horiz-adv-x="316" 
d="M303 769l10 -8q-10 -94 -49 -366t-48 -342q-4 -32 -21 -52q-16 -19 -20 17q-1 4 -1 8q-9 132 -38 366.5t-39 356.5q0 9 1.5 11t6.5 1q4 -1 14.5 -79t21 -172t11.5 -101q20 -140 40 -388q28 160 56.5 378t54.5 370z" />
    <glyph glyph-name="W" unicode="W" horiz-adv-x="350" 
d="M107 750l6 2q15 0 39 -457q14 -256 19 -256q37 135 52 272l10 10q38 -170 75 -263q2 411 26 684q2 1 5 2l4.5 1.5t2.5 0.5q-2 -54 -7.5 -183t-8 -197.5t-5 -171t-1.5 -187.5l-8 -4q-32 82 -63 184q-19 52 -20 81h-2q-6 -32 -21 -104t-20 -100q-15 -63 -22 -63h-2l-14 6
q-3 46 -18 318t-27 425z" />
    <glyph glyph-name="X" unicode="X" horiz-adv-x="303" 
d="M285 752q7 0 10 -6q-43 -114 -87 -346q8 -47 33 -141.5t36 -140.5q6 -18 13.5 -54.5t12.5 -54.5v-4q-21 -11 -24 41q-4 26 -38.5 162t-34.5 155q0 4 -4 4q-7 -48 -34 -186t-39 -182l-6 -2l-8 8q24 76 81 389q-45 208 -73 354l6 2h4q1 0 33 -156t34 -156h6v2
q14 143 79 312z" />
    <glyph glyph-name="Y" unicode="Y" horiz-adv-x="287" 
d="M101 759l4 2h2q8 0 26 -60t38.5 -139t26.5 -97h2q32 165 63 255l3.5 14.5t4.5 17.5t4 7q6 -1 7 -4.5t1 -19.5q-54 -153 -73 -300q-5 -46 -4 -158q1 -41 -2.5 -112.5t-3.5 -101.5q0 -8 0.5 -15t1.5 -18l2 -22l-2 -6h-4q-8 0 -12 4q3 9 3 18.5t-1.5 19.5t-1.5 13
q0 32 2.5 109.5t1.5 118.5q0 19 0.5 59.5t-0.5 92.5q-15 82 -89 322z" />
    <glyph glyph-name="Z" unicode="Z" horiz-adv-x="292" 
d="M111 765q5 -1 24 -2.5t52.5 -2.5t75.5 1q1 0 2 -3t1.5 -7t2.5 -6l-11.5 -62.5t-14.5 -86.5t-14 -84q-28 -160 -55 -279q-17 -75 -52 -217q-1 -3 25 -3.5t68 -0.5h60q12 -4 12 -12q-42 -10 -178 0q-4 4 -4 16q0 1 2.5 12t12 47l24.5 91l16.5 72t23.5 110t25 136
q3 19 14 76.5t18.5 100.5t11.5 84q-9 2 -41.5 0t-69.5 0t-37 9q0 5 6 11z" />
    <glyph glyph-name="bracketleft" unicode="[" horiz-adv-x="175" 
d="M162 769q4 -11 -4 -18q-87 0 -95 -8q0 -71 -0.5 -224t-0.5 -281t1 -230q66 -4 90 -4q12 0 4 -8q-5 -6 -12 -6q-52 0 -97 2q-4 14 -4 24q-3 10 -1.5 274t1.5 442q0 27 18 27z" />
    <glyph glyph-name="backslash" unicode="\" horiz-adv-x="156" 
d="M11 774l18 9q9 -22 55.5 -380.5t53.5 -388.5l1 -6q0 -5 -4.5 -7.5t-10 -1.5t-7.5 5q-26 177 -53 385t-53 385z" />
    <glyph glyph-name="bracketright" unicode="]" horiz-adv-x="170" 
d="M141 0l-100 -10q-3 11 4 18q87 0 95 8q0 71 0.5 224t0.5 281t-1 230q-66 4 -90 4q-12 0 -4 8q5 6 12 6q52 0 97 -2q4 -14 4 -24q3 -10 1.5 -274t-1.5 -442q0 -27 -18 -27z" />
    <glyph glyph-name="underscore" unicode="_" horiz-adv-x="470" 
d="M47 -28h409q3 -3 1 -8t-6 -5q-378 0 -407 -1q-10 8 -2 14h5z" />
    <glyph glyph-name="a" unicode="a" horiz-adv-x="308" 
d="M205 748q1 -49 9.5 -127.5t17 -143.5t30 -215.5l34.5 -244.5q-9 -16 -18 17q-8 32 -31 232q-10 87 -17 109q-47 0 -71 -6v-2q-7 -86 -39 -344q0 -17 -10 -26q-6 -5 -10 4l76 655l7 39t7 30t7.5 19t7.5 4zM196 701q-3 -27 -10 -81.5t-13.5 -113t-11.5 -123.5q23 9 69 11
q-33 224 -34 307z" />
    <glyph glyph-name="b" unicode="b" horiz-adv-x="249" 
d="M128 788q54 -13 80 -62.5t22.5 -108t-24.5 -115.5t-54 -86q61 -59 79 -133q24 -103 -14 -186q-16 -36 -46 -61t-61 -29q4 45 5 99.5t1 141.5t1 151q0 80 -2.5 146t-6.5 130t-5 89q0 24 25 24zM136 403h-2q-4 -70 -4 -197t-2 -183q52 32 77.5 85.5t23 110.5t-27.5 109
q-15 30 -34 52.5t-31 22.5zM119 772q1 -19 8 -143.5t7 -205.5q37 28 58.5 87t22 116.5t-24 101.5t-71.5 44z" />
    <glyph glyph-name="c" unicode="c" horiz-adv-x="269" 
d="M254 740q0 -13 -7 -13t-6 12q0 3 1 7q-18 25 -40 25q-20 1 -36 -14.5t-23 -42.5q-14 -56 -17.5 -176t-1 -190.5t5.5 -113.5q12 -216 58 -216q40 0 64 67q8 -8 8 -14q-12 -44 -44 -61q-30 -20 -55 4.5t-34 76.5q-17 103 -20 236.5t0 234.5q1 110 13 149q20 69 77 71
q24 1 40.5 -10.5t16.5 -31.5z" />
    <glyph glyph-name="d" unicode="d" horiz-adv-x="275" 
d="M124 763l17 11q25 -15 50 -66q53 -112 70.5 -261.5t-13.5 -279.5q-12 -46 -33 -83q-13 -35 -56 -67q-40 -24 -45 -2q0 98 4.5 344.5t5.5 403.5zM142 756q-3 -109 -5.5 -330t-7.5 -398q60 25 90 109.5t29.5 187.5t-19.5 205.5t-51 168.5q-16 33 -36 57z" />
    <glyph glyph-name="e" unicode="e" 
d="M113 777q9 0 23 0.5t30.5 0.5t41.5 -1q22 -3 19 -20q-48 2 -98 2q0 -50 -5 -174.5t-3 -196.5l75 2q3 0 6 -8q0 -3 -4 -4.5t-13.5 -1.5h-17h-23h-24.5q0 -39 4 -180t7 -176h96q3 0 4.5 -1t1 -3.5t-2 -4.5t-2.5 -4t-1 -3q-11 3 -51 0.5t-51 -2.5q-19 0 -19 114
q-12 508 7 661z" />
    <glyph glyph-name="f" unicode="f" horiz-adv-x="239" 
d="M145 784q51 -4 71 -2q9 -2 10.5 -5t-1 -6t-5.5 -6l-4 -3l-71 6v-326q5 -4 21 -2.5t33 0t17 -9.5v-2q-3 -6 -13 -6q-4 0 -9.5 0.5t-18.5 1.5t-32 2q3 -41 1.5 -194t-1.5 -191q3 -38 -4 -38q-4 0 -12 8q7 230 2 421q2 57 -1 156t-3 131q0 5 -0.5 15t-0.5 18t1 16t6 12.5
t14 3.5z" />
    <glyph glyph-name="g" unicode="g" horiz-adv-x="269" 
d="M220 784l4 -10q0 -2 -6.5 -3.5t-19.5 -4t-22 -4.5q-32 -9 -39 -44q-15 -54 -19.5 -128t-3 -121.5t9 -142.5t8.5 -118q14 -161 41 -190q18 -20 38 0q22 23 30 60.5t7.5 92t0.5 67.5q-7 1 -13 1t-18 -0.5t-24 -0.5q-3 0 -8 12q0 3 8 3.5t29.5 -0.5t35.5 -1q6 -6 6 -12
q-2 -16 -4 -74.5t-10 -98.5t-29 -56q-72 -59 -97 96q0 5 -11 95q-52 430 26 566q56 16 80 16z" />
    <glyph glyph-name="h" unicode="h" horiz-adv-x="244" 
d="M98 782l18 -6q-7 -273 -4 -344q0 -3 42 -3.5t55 1.5q-2 32 3.5 170.5t4.5 171.5q0 2 3 3.5t7.5 1.5t7.5 -3q-8 -157 -10 -348q-2 -265 10 -425l-12 -4l-8 22q2 5 2 39q-6 186 -6 354h-97q0 -121 3 -266.5t7 -142.5l-10 -8q-16 24 -16 437v350z" />
    <glyph glyph-name="i" unicode="i" horiz-adv-x="137" 
d="M123 756q-2 -198 -4 -492q0 -12 1 -54t1 -80q0 -19 2 -61t2 -64q-3 -8 -14 -2q0 33 -2 72t-2 53q-9 335 5 634q5 12 9 4q3 -4 2 -10z" />
    <glyph glyph-name="j" unicode="j" 
d="M207 776q3 9 5 10q3 0 8 -8q-5 -106 0 -197q19 -332 9 -449q-11 -133 -54 -133h-4q-59 0 -67 129q-1 7 -1 20q-1 6 -1 9q15 0 18 -12q-1 -39 10 -87.5t41 -48.5q16 -1 26 27t13.5 74.5t4.5 102.5t-1 116.5t-4 110.5t-4.5 90.5t-2.5 50.5q0 150 4 195z" />
    <glyph glyph-name="k" unicode="k" horiz-adv-x="272" 
d="M118 715q-4 24 6 34q7 7 10 -10q1 -8 1 -20q2 -62 -4 -315h2q66 117 117 352q15 0 15 -10q-103 -361 -124 -361q22 -64 53 -185t48 -175q10 -24 2 -22q-11 3 -22 41l-4 16q-17 51 -25 79t-21.5 80t-34.5 124h-2q2 -23 2 -119q0 -32 1 -105.5t1 -121.5q-1 -7 -7.5 -5
t-10.5 7q4 126 -0.5 368.5t-2.5 347.5z" />
    <glyph glyph-name="l" unicode="l" horiz-adv-x="236" 
d="M99 759q16 3 16 -2q0 -646 2 -739q40 -2 111 4q3 -11 -4.5 -15.5t-23.5 -4.5q-33 0 -54 -0.5t-29.5 -1t-11.5 -0.5q-5 261 -4 334q0 30 -1 81t-1 73v271z" />
    <glyph glyph-name="m" unicode="m" horiz-adv-x="294" 
d="M93 768q5 0 14 -27q4 -15 29.5 -71.5t37.5 -74.5q6 -1 19.5 26.5t34.5 75.5t33 71q4 -3 6 -6.5t2.5 -6t0 -9.5t-0.5 -11q-14 -278 8 -722l-10 -6q-9 44 -12.5 131t-4 222t-1.5 161q0 85 2.5 147t2.5 64l-22.5 -50.5t-29 -61t-28.5 -42.5h-2q-12 15 -43 82.5t-32 69.5
q2 -37 1.5 -104.5t0.5 -98.5q0 -72 3.5 -162.5t10.5 -213t8 -152.5q-8 -1 -11 4t-5 20q0 45 -5 124t-5 115q-8 92 -8 305q0 27 -2 156v31q0 14 8 14z" />
    <glyph glyph-name="n" unicode="n" horiz-adv-x="325" 
d="M108 745q8 9 14.5 10.5t11.5 -5.5t9 -15.5t10 -24.5q69 -136 135 -247q0 47 -2 143t-2 147q0 8 2.5 10t6 -0.5t6 -5t3.5 -4.5v-26q14 -725 -14 -725h-2q-2 0 -2.5 14.5t0 50.5t1.5 80.5t2 122.5t1 159q-112 180 -164 311h-2q2 -45 5.5 -367.5t2.5 -356.5q0 -12 -5 -12
q-8 4 -11 18q0 430 -6 723z" />
    <glyph glyph-name="o" unicode="o" horiz-adv-x="292" 
d="M110 656q5 63 26.5 95t46 28.5t46.5 -36t28 -83.5q57 -460 -29 -628q-19 -36 -53 -36h-10q-39 16 -51 71q-10 45 -15.5 102t-7.5 99.5t1 112.5t4.5 96.5t7.5 100t6 78.5zM129 683q-21 -150 -21.5 -325.5t29.5 -317.5q7 -30 38 -30q14 0 26 9t20 28t13.5 36t10 46t6.5 45
t4 45t3 35q0 22 1 95t0.5 111.5t-4.5 98t-13 105.5q-10 51 -34 79t-47.5 13.5t-31.5 -73.5z" />
    <glyph glyph-name="p" unicode="p" horiz-adv-x="274" 
d="M119 286q0 34 0.5 97.5t0.5 117t-1 103.5q-2 125 10 174q27 0 53 -15.5t39 -45.5q18 -43 29 -104.5t10 -129t-32 -122t-92 -71.5v-251q-2 -34 -6 -34t-12 8q1 29 1 273zM140 764q0 -292 -4 -453h2q38 11 58 29.5t35 57.5q9 23 11 81.5t-4.5 122.5t-32 113t-65.5 49z" />
    <glyph glyph-name="q" unicode="q" horiz-adv-x="318" 
d="M145 726q17 36 47.5 37.5t56.5 -27.5t31 -74q7 -46 13.5 -125t11.5 -191.5t-8 -203t-46 -114.5q2 -8 9 -27.5t9.5 -29.5t6.5 -30.5t0 -29.5q-6 8 -11 17t-9 21t-6 20l-6 23.5t-5 21.5h-2q-42 -14 -71 10.5t-42.5 77t-20.5 113.5t-5.5 128.5t4 112.5t6.5 76q12 145 37 194
zM266 655q-11 79 -52 92q-34 12 -60 -33q-20 -36 -22 -93q0 -3 -4.5 -46t-8 -96.5t-6 -122t2.5 -129.5t16.5 -111.5t37 -75.5t63.5 -14q-40 84 -40 132q0 3 6 6q4 -2 13 -27.5t18 -56.5t13 -40q34 25 43 149t1.5 245t-21.5 221z" />
    <glyph glyph-name="r" unicode="r" horiz-adv-x="312" 
d="M138 767q46 -9 63 -26q44 -46 59.5 -129t-9 -162.5t-87.5 -109.5v-2q31 -63 79 -185t59 -147q-18 -3 -18 6q-94 236 -134 322l-20 -2q0 -22 8 -326h-16v2q0 43 -3.5 153.5t-2.5 178.5q0 14 2 167t4 240q0 20 16 20zM140 751q0 -31 0.5 -83.5t0 -77t-1 -65.5t-3 -82
t-6.5 -93q64 2 96 78t22 167.5t-55 136.5q-19 19 -53 19z" />
    <glyph glyph-name="s" unicode="s" horiz-adv-x="213" 
d="M124 759q42 -10 62 -37l10 -22q-3 -27 -10 -25q-7 3 -10 35q-9 12 -23 21t-28 11.5t-24 -9t-10 -37.5q0 -91 43 -267q6 -25 21 -81t23 -88.5t15 -80.5t7 -89q0 -70 -38 -90q-22 -10 -43.5 -3t-38 28t-26.5 44.5t-8 46t17 32.5q5 0 7.5 -6t0.5 -12.5t-6 -6.5
q-5 -46 19.5 -80.5t59.5 -34.5q59 0 34 164q-7 45 -17.5 94t-17.5 76t-20.5 73.5t-15.5 55.5q-22 87 -32 223q0 65 49 65z" />
    <glyph glyph-name="t" unicode="t" horiz-adv-x="313" 
d="M97 777h2q25 -5 56 -5.5t68 1t60 0.5q19 -3 19 -10q-2 -9 -43 -9t-54 3q11 -244 6 -749q-17 -4 -17 8q0 592 -8 741q-95 0 -95 10v4q0 3 6 6z" />
    <glyph glyph-name="u" unicode="u" horiz-adv-x="318" 
d="M124 773q-3 -165 4 -573q2 -132 35 -172q21 -24 53.5 -19t47.5 31q33 54 24 338q-8 270 -16 383q-3 15 6 15t10 -11q15 -332 15 -417q0 -23 0.5 -72t0.5 -71t-2 -56t-7 -58t-14 -46q-18 -46 -65.5 -50.5t-71.5 33.5q-28 33 -30 171q-7 328 -7 572q0 8 17 2z" />
    <glyph glyph-name="v" unicode="v" horiz-adv-x="323" 
d="M303 769l10 -8q-10 -94 -49 -366t-48 -342q-4 -32 -21 -52q-16 -19 -20 17q-1 4 -1 8q-9 132 -38 366.5t-39 356.5q0 9 1.5 11t6.5 1q4 -1 14.5 -79t21 -172t11.5 -101q20 -140 40 -388q28 160 56.5 378t54.5 370z" />
    <glyph glyph-name="w" unicode="w" horiz-adv-x="348" 
d="M107 750l6 2q15 0 39 -457q14 -256 19 -256q37 135 52 272l10 10q38 -170 75 -263q2 411 26 684q2 1 5 2l4.5 1.5t2.5 0.5q-2 -54 -7.5 -183t-8 -197.5t-5 -171t-1.5 -187.5l-8 -4q-32 82 -63 184q-19 52 -20 81h-2q-6 -32 -21 -104t-20 -100q-15 -63 -22 -63h-2l-14 6
q-3 46 -18 318t-27 425z" />
    <glyph glyph-name="x" unicode="x" horiz-adv-x="312" 
d="M285 752q7 0 10 -6q-43 -114 -87 -346q8 -47 33 -141.5t36 -140.5q6 -18 13.5 -54.5t12.5 -54.5v-4q-21 -11 -24 41q-4 26 -38.5 162t-34.5 155q0 4 -4 4q-7 -48 -34 -186t-39 -182l-6 -2l-8 8q24 76 81 389q-45 208 -73 354l6 2h4q1 0 33 -156t34 -156h6v2
q14 143 79 312z" />
    <glyph glyph-name="y" unicode="y" horiz-adv-x="289" 
d="M101 759l4 2h2q8 0 26 -60t38.5 -139t26.5 -97h2q32 165 63 255l3.5 14.5t4.5 17.5t4 7q6 -1 7 -4.5t1 -19.5q-54 -153 -73 -300q-5 -46 -4 -158q1 -41 -2.5 -112.5t-3.5 -101.5q0 -8 0.5 -15t1.5 -18l2 -22l-2 -6h-4q-8 0 -12 4q3 9 3 18.5t-1.5 19.5t-1.5 13
q0 32 2.5 109.5t1.5 118.5q0 19 0.5 59.5t-0.5 92.5q-15 82 -89 322z" />
    <glyph glyph-name="z" unicode="z" horiz-adv-x="284" 
d="M111 765q5 -1 24 -2.5t52.5 -2.5t75.5 1q1 0 2 -3t1.5 -7t2.5 -6l-11.5 -62.5t-14.5 -86.5t-14 -84q-28 -160 -55 -279q-17 -75 -52 -217q-1 -3 25 -3.5t68 -0.5h60q12 -4 12 -12q-42 -10 -178 0q-4 4 -4 16q0 1 2.5 12t12 47l24.5 91l16.5 72t23.5 110t25 136
q3 19 14 76.5t18.5 100.5t11.5 84q-9 2 -41.5 0t-69.5 0t-37 9q0 5 6 11z" />
    <glyph glyph-name="braceleft" unicode="{" horiz-adv-x="160" 
d="M126 802l4 -6q0 -4 -36 -32q-28 -22 -34.5 -76.5t1.5 -110.5t7.5 -113.5t-17.5 -85.5q21 -25 26 -86t2 -120.5t9 -118t46 -82.5q3 -2 10.5 -6t9.5 -6.5t2 -7.5q-2 0 -2 -2q-40 0 -72 72q-14 31 -16.5 79.5t1.5 91t-1 92t-23 83.5q-2 0 -5 3t-1 8q26 51 18 149
q-10 107 -6.5 157.5t32.5 85.5q27 29 45 32z" />
    <glyph glyph-name="bar" unicode="|" horiz-adv-x="99" 
d="M66 907l20 6q8 -73 -1 -563t-9 -495v-6q0 -5 -3.5 -6.5t-7.5 0.5t-5 6q0 174 3 524.5t3 533.5z" />
    <glyph glyph-name="braceright" unicode="}" horiz-adv-x="153" 
d="M56 796l4 6q18 -3 45 -32q29 -35 32.5 -85.5t-6.5 -157.5q-8 -98 18 -149q2 -5 -1 -8t-5 -3q-18 -34 -23 -83.5t-1 -92t1.5 -91t-16.5 -79.5q-32 -72 -72 -72l-2 2q0 5 2 7.5t9.5 6.5t10.5 6q34 24 46 82.5t9 118t2 120.5t26 86q-17 28 -17.5 85.5t7.5 113.5t1.5 110.5
t-34.5 76.5q-36 28 -36 32z" />
    <glyph glyph-name="asciitilde" unicode="~" horiz-adv-x="196" 
d="M172 337q5 3 8.5 1.5t4 -2t1.5 -4.5t2 -6q-2 -17 -5 -29t-13 -25t-25 -11q-11 1 -31 27.5t-26 31.5q-15 10 -23 -8.5t-8 -37.5q0 -11 -8 -14q-7 -1 -8 10q0 26 12.5 49t36.5 10q11 -6 23 -23.5t22.5 -28t20.5 -5.5q3 2 5.5 4.5t4 6t2.5 6.5t2 7.5t1.5 7.5t0.5 8.5v8v8.5
v8z" />
    <glyph glyph-name="dieresis" unicode="&#xa8;" horiz-adv-x="833" 
 />
    <glyph glyph-name="acute" unicode="&#xb4;" horiz-adv-x="92" 
d="M65 803q19 0 19 -53q0 -22 -9.5 -46.5t-25.5 -34.5q-3 0 -6 8q5 0 14 21.5t12 40t-4 21.5l-14 -2q0 1 -6 10q3 35 20 35z" />
    <glyph glyph-name="hungarumlaut" unicode="&#x2dd;" horiz-adv-x="833" 
d="M65 803q19 0 19 -53q0 -22 -9.5 -46.5t-25.5 -34.5q-3 0 -6 8q5 0 14 21.5t12 40t-4 21.5l-14 -2q0 1 -6 10q3 35 20 35zM144 803q19 0 19 -53q0 -22 -9.5 -46.5t-25.5 -34.5q-3 0 -6 8q5 0 14 21.5t12 40t-4 21.5l-14 -2q0 1 -6 10q3 35 20 35z" />
    <glyph glyph-name="quoteleft" unicode="&#x2018;" horiz-adv-x="103" 
d="M68 702q-19 0 -19 53q0 22 9.5 46.5t25.5 34.5q3 0 6 -8q-5 0 -14 -21.5t-12 -40t4 -21.5l14 2q0 -1 6 -10q-3 -35 -20 -35z" />
    <glyph glyph-name="quoteright" unicode="&#x2019;" horiz-adv-x="97" 
d="M65 799q19 0 19 -53q0 -22 -9.5 -46.5t-25.5 -34.5q-3 0 -6 8q5 0 14 21.5t12 40t-4 21.5l-14 -2q0 1 -6 10q3 35 20 35z" />
    <glyph glyph-name="quotesinglbase" unicode="&#x201a;" horiz-adv-x="833" 
 />
    <glyph glyph-name="quotedblleft" unicode="&#x201c;" horiz-adv-x="180" 
d="M145 706q-19 0 -19 53q0 22 9.5 46.5t25.5 34.5q3 0 6 -8q-5 0 -14 -21.5t-12 -40t4 -21.5l14 2q0 -1 6 -10q-3 -35 -20 -35zM66 706q-19 0 -19 53q0 22 9.5 46.5t25.5 34.5q3 0 6 -8q-5 0 -14 -21.5t-12 -40t4 -21.5l14 2q0 -1 6 -10q-3 -35 -20 -35z" />
    <glyph glyph-name="quotedblright" unicode="&#x201d;" horiz-adv-x="176" 
d="M65 802q19 0 19 -53q0 -22 -9.5 -46.5t-25.5 -34.5q-3 0 -6 8q5 0 14 21.5t12 40t-4 21.5l-14 -2q0 1 -6 10q3 35 20 35zM144 802q19 0 19 -53q0 -22 -9.5 -46.5t-25.5 -34.5q-3 0 -6 8q5 0 14 21.5t12 40t-4 21.5l-14 -2q0 1 -6 10q3 35 20 35z" />
    <glyph glyph-name="quotedblbase" unicode="&#x201e;" horiz-adv-x="169" 
d="M58 53q19 0 19 -53q0 -22 -9.5 -46.5t-25.5 -34.5q-3 0 -6 8q5 0 14 21.5t12 40t-4 21.5l-14 -2q0 1 -6 10q3 35 20 35zM137 53q19 0 19 -53q0 -22 -9.5 -46.5t-25.5 -34.5q-3 0 -6 8q5 0 14 21.5t12 40t-4 21.5l-14 -2q0 1 -6 10q3 35 20 35z" />
    <glyph glyph-name="ellipsis" unicode="&#x2026;" horiz-adv-x="147" 
d="M33 43q17 0 15 -18q-1 -19 -18 -23q-2 -1 -5 -1q-7 0 -10 26q0 13 18 16zM82 43q17 0 15 -18q-1 -19 -18 -23q-2 -1 -5 -1q-7 0 -10 26q0 13 18 16zM131 43q17 0 15 -18q-1 -19 -18 -23q-2 -1 -5 -1q-7 0 -10 26q0 13 18 16z" />
  </font>
</defs>
</svg>
