<?xml version="1.0" standalone="no"?>
<!DOCTYPE svg PUBLIC "-//W3C//DTD SVG 1.1//EN" "http://www.w3.org/Graphics/SVG/1.1/DTD/svg11.dtd" >
<svg xmlns="http://www.w3.org/2000/svg">
<metadata></metadata>
<defs>
<font id="graciasregular" horiz-adv-x="1116" >
<font-face units-per-em="2048" ascent="1536" descent="-512" />
<missing-glyph horiz-adv-x="489" />
<glyph horiz-adv-x="0" />
<glyph horiz-adv-x="682" />
<glyph horiz-adv-x="0" />
<glyph horiz-adv-x="0" />
<glyph unicode="&#xd;" horiz-adv-x="489" />
<glyph unicode=" "  horiz-adv-x="489" />
<glyph unicode="&#x09;" horiz-adv-x="489" />
<glyph unicode="&#xa0;" horiz-adv-x="489" />
<glyph unicode="!" horiz-adv-x="567" d="M61 342q0 48 23 68q22 22 59 14q10 -2 20.5 -6t22.5 -10t19 -9q87 -27 139 -82q20 -24 31 -45q19 -32 22 -67q7 -112 -32 -125q-38 -15 -54 -29q-5 -4 -22 -19.5t-27 -21.5q-47 -21 -94 19q-53 45 -84 149q-26 86 -23 164zM129 848q16 190 94 432q4 15 21 58t20 67 q4 34 23 45q12 7 32 4q53 -10 89.5 -44.5t72.5 -92.5q23 -36 19 -92l-3 -51t-3 -50q-5 -120 -58 -266q-20 -59 -51 -119q-11 -19 -35.5 -56.5t-36.5 -57.5q-9 -16 -18 -34t-20 -39.5t-17 -33.5q-10 -15 -12 -16q-3 -2 -21 -2q-13 3 -28 14q-8 6 -14 15.5t-8 15.5t-6 19 t-5 18q-19 55 -25 86q-19 93 -10 180z" />
<glyph unicode="&#x22;" horiz-adv-x="985" d="M63 1253q-10 21 19 25q27 5 65 12q85 14 152 -8q17 -5 31 -12t27.5 -19.5t21.5 -19.5t21 -27t16.5 -25t18 -30.5t16.5 -28.5q23 -46 4 -89.5t-59.5 -76.5t-91 -52t-89.5 -17q8 0 55 59q5 6 11.5 14.5t15.5 22.5t14 26.5t5 24t-9 17.5q-53 31 -125 2q-48 -23 -63 12 q-12 27 -26.5 92.5t-29.5 97.5zM564.5 1238.5q-0.5 14.5 3 23.5t10.5 12q20 12 118.5 -7.5t122.5 -37.5q44 -33 68 -101q9 -36 12 -69q3 -23 2.5 -36t-1.5 -18t-9.5 -22t-13.5 -29q-50 -84 -240 -129q-6 25 18 45q49 49 68 84q45 89 35 99q-29 29 -39 34q-32 13 -48 3 t-33.5 -23t-29.5 -8q-6 2 -10 11t-6.5 21.5t-3.5 14.5q0 1 -4 16t-6.5 26t-6.5 29.5t-5 32.5t-1.5 28.5z" />
<glyph unicode="#" horiz-adv-x="911" d="M83 227.5q0 39.5 1 71.5q3 39 24.5 104.5t26.5 92.5q0 3 0.5 5t0 4t-0.5 3.5t-1 3t-1.5 2.5t-2 3t-2.5 3l-3.5 3.5t-3.5 4.5q-1 1 -5 4t-6 5t-3.5 6t-0.5 8t4 6.5t6.5 3.5t8.5 2t8 2q27 4 43 13q4 3 23 51q7 10 17.5 31.5t19 37t22 32.5t27 25.5t33.5 8t42 -13.5 q24 -16 41.5 -41t18.5 -52q0 -9 -2.5 -40t-5.5 -31q69 0 102 -2q7 0 35 69q24 49 41 62q8 7 19.5 8t18.5 -0.5t23 -7.5q17 -4 49 -31q22 -18 26 -46t-1 -52q12 -8 41 -8q23 0 41 -9q16 -8 14 -18q0 -13 -14 -16q-25 -6 -47 -9q-35 -6 -43 -16q-4 -6 -6.5 -18t-5 -26.5 t-3.5 -19.5l-2 -14q-2 -13 -3 -22t1 -11q4 0 17.5 2.5t29.5 5t21 3.5q50 4 72 4q2 0 -3.5 -9.5t-17.5 -22.5t-29 -26t-43.5 -22t-56.5 -8q-6 0 -16.5 -6t-12.5 -7q-4 -2 -7 -10.5t-4.5 -16.5t-3 -19t-1.5 -13q-1 -2 -2 -7q-7 -25 -13 -42.5t-18 -45.5t-28 -40.5t-33 -7.5 q-61 20 -100 108q-2 4 -6.5 29.5t-12.5 40t-22 10.5q-3 -1 -35 -7t-47 -16q-5 -3 -13 -26.5t-10 -26.5q-3 -5 -23.5 -45t-39 -63t-39.5 -29q-11 -3 -29 1t-25 11q-30 11 -47 50.5t-17 79zM360 369q8 1 24 2t24 2q22 0 28 22q14 49 29 84q8 15 -2 25q-12 -2 -37 -7.5 t-37 -7.5q-1 -7 -29 -120z" />
<glyph unicode="$" horiz-adv-x="684" d="M68.5 433.5q15.5 58.5 60.5 103.5q28 28 55 30q15 1 19.5 -9.5t1.5 -21t-8 -22.5q-1 -3 -5 -14t-5.5 -14.5t-5 -14.5t-4 -15t-3 -15t-1 -15t0.5 -16q0 -18 19 -41l30 -33q6 3 9.5 7.5t4 7.5t-0.5 11v7q0 35 14 63q17 34 41 12q31 -21 35 -75q2 -34 7.5 -39t37.5 -2 q20 20 23.5 43.5t-1.5 50.5q-4 25 -11.5 50t-22 63t-17.5 47q-10 30 -30 85.5t-27 77.5q-14 40 -26 80.5t-30 107t-22 81.5q-21 76 -4.5 156t65.5 143q15 24 39 39q29 16 60 2q4 -2 12 -9t16 -11.5t15 -2.5q12 12 6 55q0 28 2 33q4 18 22 21q16 0 23 -15q14 -17 10 -49 q-1 -18 -1.5 -34t6 -32.5t20.5 -27.5q6 -4 20.5 -10t20.5 -10q10 -8 28 -35q28 -47 33 -86q8 -55 -11 -98.5t-61 -94.5q-15 -18 -30 -33q-3 -22 -3 -36.5t8 -36t14.5 -35t17.5 -34t16 -32.5q39 -87 55 -159q36 -160 -41 -267q-39 -54 -101.5 -91.5t-125.5 -37.5q-4 0 -12 -4 q-1 -4 -0.5 -17t1.5 -32.5t1 -21.5q4 -48 -4 -82q-6 -38 -39 -23q-30 10 -33 39q-2 15 -8.5 52.5t-7.5 58.5q0 2 -0.5 8.5t-1 8.5t-2 7t-3.5 7t-6 4t-10 2q-8 1 -16.5 3.5t-20 10t-15.5 10.5t-18 14l-14 11q-35 25 -55 73q-21 60 -5.5 118.5zM436 1042q-7 -15 6.5 -42 t28.5 -42v3q5 12 18 32.5t15 24.5q3 5 18 35q8 24 8 39q4 23 -2 41q-9 22 -24 10q-6 -4 -10.5 -13t-7.5 -20.5t-5 -15.5q-8 -20 -20 -27q0 -2 -2 -2q-1 -1 -6 -4.5t-7.5 -5t-5.5 -5.5t-4 -8z" />
<glyph unicode="%" horiz-adv-x="1034" d="M82 1090q-5 50 20 114q5 11 12.5 22t13 18.5t18 20t16.5 16l20 17.5t17 15q11 10 23.5 16.5t28 10t25 4.5t29.5 2t27 2q28 3 46 -0.5t42 -18.5q9 -6 31 -16t32 -19q15 -13 27 -94q2 -20 -6 -57q-10 -55 -49 -101q-20 -25 -82 -57q-6 -3 -34 -17.5t-42 -20.5t-37 -6.5 t-39 11.5q-8 6 -34.5 18t-36.5 23q-19 11 -50 47q-9 8 -12.5 26.5t-5.5 23.5zM203 102q-64 348 168 717q64 100 211 295q12 18 36.5 53t36.5 52q10 15 27 48t27 48q19 30 49 33q26 2 67 -27q30 -22 47 -35.5t37.5 -37.5t28.5 -48q12 -40 6 -74q-4 -25 -19 -70.5t-18 -54.5 q-27 -91 -65 -184q-98 -235 -207 -395q-76 -110 -160 -191q-79 -76 -205 -155q-33 -19 -49 -8q-13 7 -18 34zM240 1094q6 -30 30 -13q33 21 68 56q16 20 22 32q2 13 2 18t-2.5 18t-3.5 18t-2 7.5t-3.5 4t-6.5 0.5q-6 0 -25 -29q-38 -38 -45 -47q-39 -51 -34 -65zM573 153.5 q-4 78.5 41 139.5q35 53 99.5 80.5t113.5 5.5q47 -20 62 -86q11 -49 -4 -131q-11 -71 -39 -111q-34 -47 -98.5 -50.5t-108.5 30.5q-62 44 -66 122.5zM704 100.5q-1 -32.5 3 -34.5q52 11 79 34q58 49 50 168q-1 10 -7 14t-14.5 2.5t-16 -5t-12.5 -7.5q-33 -27 -53 -59 q-21 -40 -26 -74q-2 -6 -3 -38.5z" />
<glyph unicode="&#x26;" horiz-adv-x="1171" d="M82.5 292.5q6.5 68.5 44.5 127.5q45 70 122.5 115t158.5 45q30 0 34.5 5.5t1.5 35.5q-26 236 2 378q12 58 20 91t31.5 83t53.5 74q88 119 213 103q82 -9 134 -62.5t58 -136.5q2 -37 -4.5 -79t-14 -67.5t-25 -77t-23.5 -69.5q-11 -31 -47 -31q-43 -3 -62 27q-10 15 2 39 q51 94 54 203q0 88 -18 107q-12 13 -32 3q-62 -27 -75 -84q-27 -110 26 -288q10 -65 45 -188.5t45 -186.5q5 -31 26 -33.5t49 15t60 34t59 23t46 -18.5q23 -35 13 -57.5t-42 -45t-67 -38.5t-62.5 -39t-27.5 -47q0 -13 0.5 -52t0 -57t-2.5 -49t-8 -57t-15 -51 q-19 -53 -86 -66t-130.5 15.5t-76.5 80.5q-5 23 -24 29t-39 0q-16 -2 -52.5 -13t-58.5 -12q-71 0 -127 19q-106 34 -156 123q-30 62 -23.5 130.5zM240.5 273q-14.5 -68 7.5 -121q8 -12 31 -31q1 0 3.5 -1t4.5 -1h4l4 -2q78 -9 192 55q27 13 21 47q-20 88 -39 195 q-13 53 -59 61q-5 -3 -16.5 -3.5t-16.5 -4.5q-14 -15 -41.5 -45.5t-40.5 -46.5q-40 -34 -54.5 -102z" />
<glyph unicode="'" horiz-adv-x="614" d="M102 1307q-1 7 1 11.5t6.5 6.5t8.5 3.5t11 2.5t10 2q52 18 70 21q74 7 137 -23q56 -27 92 -82q21 -29 39 -78q5 -19 15 -38q33 -82 -11 -154q-9 -16 -23.5 -30.5t-24 -21.5t-33 -21.5t-29.5 -18.5q-5 -4 -18 -13t-18.5 -12.5t-17 -10t-19 -9t-19 -4t-23.5 -0.5 q6 -1 15.5 11.5t19.5 30t12 19.5q37 58 51 100q5 29 -2 37q-7 7 -24 11q-5 1 -19 4t-22 4q-20 7 -37 4q-9 -1 -24 -11t-25 -12q-31 -6 -41 25q-9 27 -15.5 54.5t-15 73t-10.5 54.5q-2 8 -9 30.5t-8 33.5z" />
<glyph unicode="(" horiz-adv-x="1083" d="M102 471q4 253 115 408q13 17 21 32q3 4 8 12t9.5 15t8.5 12q57 87 159 155.5t218 113.5q100 42 174 32q60 -9 111 -45q1 0 8 -4.5t11.5 -7.5t13 -8.5t14 -10t12.5 -11t11 -12t6.5 -11.5t1.5 -11q0 -1 -1 -2t-2 -2.5t-2 -3.5q-5 -8 -16.5 -8t-22 4.5t-24.5 11t-18 7.5 q-114 38 -246 -39q-72 -42 -134 -102t-94 -128q-6 -14 -18 -37t-14 -26q-130 -227 -121 -490q2 -52 9 -94.5t23.5 -86t49 -76t78.5 -50.5q90 -35 217 -10q6 1 25.5 5.5t32.5 6.5t28 -1t22 -13q12 -22 3 -37.5t-29 -24.5q-1 -1 -3.5 -2t-3.5 -2q-44 -21 -86 -24q-24 0 -39 -6 q-42 -11 -67 -11q-43 0 -90 17q-135 18 -240 112q-13 12 -20 25q-102 202 -99 428z" />
<glyph unicode=")" horiz-adv-x="1140" d="M102 10q0 2 1 4.5t1 3.5q6 9 18 9t23 -4t25 -11t18 -8q117 -36 246 39q71 41 132.5 101.5t92.5 127.5q12 28 35 66q130 227 121 487q-3 53 -10 95t-23.5 86.5t-48.5 77.5t-78 51q-90 35 -217 10q-4 -1 -19.5 -5t-25.5 -5.5t-24 -2.5t-24 2t-17 11q-11 21 -1.5 37.5 t29.5 25.5q1 0 3 1t3 1q39 22 87 25q23 0 38 6q34 12 68 12q37 0 90 -16q135 -18 240 -115q14 -14 20 -24q102 -208 99 -428q-4 -253 -115 -408q-10 -12 -21 -31q-12 -22 -26 -38q-57 -88 -159 -157t-218 -114q-99 -41 -174 -31q-57 6 -111 43q-82 46 -78 76z" />
<glyph unicode="*" horiz-adv-x="974" d="M109 801q4 8 20 8q5 -2 8 -0.5t8 6.5t7 6q14 12 47 4q85 -13 159 -8q-6 7 -18 20t-18 20.5t-11 20.5t-4 27q1 3 2 12.5t6 12.5q18 7 27 -2q2 -2 11.5 -6.5t11.5 -10.5q7 -1 13 -4.5t13.5 -11t9.5 -8.5q12 -12 19 -6q3 2 5 6t3 10t1 10.5t-0.5 10.5t-0.5 8q0 21 -4 61 q-1 8 -6 34t-4 40q0 13 11.5 23t23.5 8q25 0 36 -11q2 -1 12.5 -6t14 -6.5t12.5 -6t13 -7t11.5 -7t11.5 -8.5t10 -9t10 -11l8 -12q20 -36 18 -58q-2 -12 1 -23t8.5 -23.5t7.5 -20.5l12 -6q13 9 37.5 28.5t36.5 28.5q1 1 5.5 5t7 5.5t7 1.5t8.5 -4q17 -14 2 -37 q-13 -24 -39 -57q-11 -16 -12 -21q-3 -10 2.5 -15.5t17 -6.5t23 -1t24 1.5t15.5 1.5q9 1 28.5 -1t28.5 -1v-2q19 -4 27 2q6 6 19 9t14 3q12 4 16 -2q3 -9 -4 -16q-11 -17 -29 -31l-10.5 -10.5t-11.5 -16.5q-80 -69 -158 -77q-9 0 -14 -5q-2 -1 -2 -4.5t1 -7.5l1 -4q1 2 3 0 t5.5 -7t5.5 -7q6 -6 16 -19t15 -18q20 -17 -4 -27q-4 -4 -4 -6q-5 -8 -17.5 -4.5t-20.5 8.5t-20 14t-16 11q-23 12 -27 10q-5 -1 -21.5 4t-21.5 -4q-4 -4 -5.5 -11.5t-0.5 -14.5t0 -15q0 -13 -12 -22q1 -25 -4.5 -72.5t-5.5 -67.5q-1 0 -7 -2t-8 -4q-4 -18 -14 -24 q-4 1 -12 -2t-13.5 -2t-9.5 10q-3 8 -16 22.5t-17 20.5q-16 31 -20 51q-4 16 -6 46.5t-6 45.5q-16 24 -31 6q-7 -9 -39.5 -32t-40.5 -23q-7 0 -10 6q-10 12 -12 27.5t6 27.5q4 7 12 26t15.5 31t17.5 21q1 6 5.5 16t6.5 15q-9 -6 -22 -7.5t-20 -1t-24.5 5t-19.5 5.5 q-25 0 -35 6q-6 2 -14.5 13t-9.5 12q-12 17 -43 24q-18 2 -43 27q-14 11 -2 39z" />
<glyph unicode="+" horiz-adv-x="1140" d="M102 562q1 3 0 9q4 13 29 13q30 3 89.5 9t88.5 9q4 0 13 1t14 1.5t12.5 3t13.5 6.5q2 113 76 283q18 40 60 25q8 -3 31 -7.5t36 -11.5q26 -13 40.5 -27t15.5 -38q0 -13 8 -29q49 -79 49 -215q41 -2 121.5 -5t120.5 -5q35 0 51 -4q43 -7 43 -48q0 -36 -45 -40 q-98 -5 -117 -5q-18 0 -56.5 1t-58.5 1q-34 3 -59 -14q-2 -6 -13 -37.5t-14 -40.5t-13 -35.5t-16 -39.5t-16 -34t-20.5 -38t-22.5 -33q-5 -6 -20 -41q-13 -28 -26 -32.5t-42 6.5q-32 14 -37 26q-9 18 -30 52.5t-35 63t-21 56.5q-2 2 -2 12q-10 20 -12 43.5t-0.5 52t0.5 44.5 q-7 14 -18 17t-31 1q-67 -12 -162 25q-1 1 -7.5 3.5t-7.5 3.5t-6 5t-4 7z" />
<glyph unicode="," horiz-adv-x="575" d="M102 155q0 50 35 93q31 42 84 74q36 20 70 0q88 -59 129 -119q15 -9 29 -37t16 -31q41 -61 0 -123q-3 -4 -11.5 -18t-12 -19.5t-11.5 -17t-14.5 -18t-15.5 -14t-19 -13.5q-44 -31 -74 -27q11 38 14.5 53.5t4 45.5t-8.5 55q-8 -1 -15 -4.5t-15.5 -10t-10.5 -8.5 q-26 -19 -46.5 -19t-45.5 19q-3 2 -9.5 7t-10.5 8t-9.5 7.5t-10 10t-7.5 12.5q-35 44 -35 94z" />
<glyph unicode="-" d="M102 465q-1 13 4 22q2 13 37 13q30 0 88 1t86 1q229 30 441 14q42 3 71 -6h11q44 0 57 -8q20 0 25 -8q49 0 77 -9q25 -11 26.5 -22.5t-21.5 -22.5q-10 -5 -35 -20q-16 -9 -34.5 -14.5t-51 -12t-39.5 -8.5q-12 -4 -25.5 -6t-31.5 -3.5t-27 -2.5q-87 -15 -105 -19 q-155 -28 -272 -20q-12 3 -21 6q-90 -5 -161 49q-13 5 -49 31q-8 0 -11 6q-22 7 -22 18q-16 8 -17 21z" />
<glyph unicode="." horiz-adv-x="524" d="M105.5 203q12.5 48 54.5 76q15 10 88 43q11 8 22 -7q12 -7 38 -22.5t38 -22.5q21 -10 29 -18q24 -15 24 -47q0 -13 2 -17q5 -8 8 -15t2.5 -14.5t-0.5 -12.5t-4.5 -13.5t-6 -12t-7.5 -12.5l-8 -12l-4 -4q-5 -3 -10 -18q-6 -40 -18 -50q-10 -8 -27 -8q-72 -42 -146 15 q-47 35 -63 78q-24 46 -11.5 94z" />
<glyph unicode="/" horiz-adv-x="1060" d="M102 153q0 25 7 61.5t22 66.5q31 58 55 135q16 48 44.5 100t49.5 83t62 89q24 34 72 97t65 85q53 81 107 142q33 42 96 116q13 21 45.5 75.5t50.5 82.5q28 41 50 44.5t63 -25.5q21 -12 27 -25q81 -70 36 -150q-5 -10 -12 -46t-24 -50q-25 -56 -33 -78q-36 -91 -60 -124 q-20 -28 -47 -48q0 -2 0.5 -6t0.5 -7.5t-1 -6.5q-13 -21 -38 -80.5t-48 -87.5q-46 -56 -88 -139q-52 -93 -84 -129q-12 -12 -22 -35q-59 -132 -146 -207q-78 -66 -133 -72q-41 -27 -106 -2q-1 2 -3 3.5t-3.5 2.5t-0.5 2q0 20 -2 64t-2 69z" />
<glyph unicode="0" horiz-adv-x="792" d="M43 535q-13 258 43 475q50 194 156 303q16 15 46 37t70 46t70.5 29.5t48.5 -12.5q16 -23 19.5 -61t-0.5 -70q-3 -30 2.5 -44.5t25.5 -20.5q68 -19 119 -93.5t76 -162.5q44 -160 -4 -334q-2 -14 -10 -37q-12 -41 -26.5 -118.5t-31.5 -140t-45 -108.5q-25 -40 -82 -104 q-7 -9 -19.5 -26.5t-23.5 -29.5t-24 -20q-69 -49 -140 -31q-50 15 -102 70q-90 108 -84 119q-75 138 -84 334zM291 201q-9 -59 16 -70q13 -6 29 6q4 1 16 13q194 188 262 536q0 33 9 49v15q0 17 -5 52.5t-4 55.5q0 5 -1 14.5t-1 14.5q-8 11 -12 47q-11 8 -23.5 13t-20.5 7 t-24.5 -0.5t-20.5 -3t-24.5 -6.5t-21.5 -6q-14 -10 -24 -29.5t-14 -34.5t-8.5 -44t-6.5 -37q-6 -33 -19.5 -98.5t-19.5 -98.5q-15 -75 -43.5 -211t-38.5 -184z" />
<glyph unicode="1" horiz-adv-x="524" d="M41 1038q-1 27 12 49q12 19 38 55.5t40.5 58.5t32 56.5t26.5 67.5q0 1 3.5 18t8 27t11.5 14q9 5 24 -2.5t21 -7.5q41 0 115 -28q50 -21 63 -89q8 -12 11 -25.5t3.5 -37.5t0.5 -27q15 -231 10 -385q-1 -12 -2 -35.5t-2 -35.5q-2 -34 -8.5 -76t-11.5 -67t-16.5 -78.5 t-14.5 -69.5q-17 -103 -21 -144q-1 -9 0 -26.5t0.5 -28.5t-5 -24.5t-13.5 -22.5q-8 -7 -26.5 -17t-21.5 -12q-13 -7 -25 -16t-24.5 -21.5t-19.5 -20t-21.5 -25t-19.5 -23.5q-16 -21 -27 -28.5t-24.5 -3.5t-28.5 26q-30 44 -46.5 100t-22.5 102.5t-2.5 117.5t8.5 110.5 t16.5 117.5t15.5 105q1 10 29 199q1 6 7.5 33.5t10.5 47.5t3.5 43t-9.5 33q-8 -16 -14 -24q-15 -24 -35 -30t-33 9q-15 14 -16 41z" />
<glyph unicode="2" horiz-adv-x="739" d="M41 147q-1 24 3.5 70t4.5 66q9 18 10 22q47 201 195 496q33 65 89 185.5t79 168.5q22 49 8 72q-12 24 -43 24q-21 0 -49 -14q-106 -53 -166 -193q-8 -19 -33 -57q-17 -26 -23 -26.5t-28 24.5q-3 3 -8.5 7.5t-7.5 6.5h-2q-22 54 18 125q8 16 23 54.5t26 58.5q31 54 81 93 t108 54q89 22 177 -15.5t138 -117.5q35 -51 47 -118q16 -79 2 -183q-42 -304 -180 -514q-108 -160 -135 -215q-14 -28 -31 -28q-19 -32 -17.5 -39.5t27.5 -14.5q27 -2 79.5 -7t78.5 -7q8 2 16.5 2.5t18.5 -1t16 -3t18 -5.5t17 -5q23 -6 29 -35q2 -16 -21 -43q-6 -9 -16 -12 q-44 -15 -98.5 -18t-134.5 1t-103 4q-39 -1 -72.5 4.5t-66.5 19t-53 42.5t-21 71z" />
<glyph unicode="3" horiz-adv-x="747" d="M40.5 111.5q0.5 7.5 4.5 22.5t2 24q5 1 33.5 5t35 4.5t32 4.5t33.5 6.5t30.5 7t33 8.5t29.5 10.5t32 13t29 15.5t30 19q67 48 79 100q9 40 -12 81t-59 65q-20 12 -60.5 25.5t-76 26t-68.5 31t-47 50.5t-2 76q10 35 28 64.5t32.5 45.5t46 45.5t46.5 44.5q96 102 140 219 q21 60 0 86q-20 27 -88 23q-13 -1 -56 -9.5t-64.5 -10t-53.5 5.5q-32 12 -34 44.5t27 49.5q78 44 167.5 62.5t170.5 2.5q75 -14 133 -64.5t70 -121.5q2 -4 2 -12q1 -36 1 -44.5t-6 -44t-7 -44.5q-2 -15 -3.5 -41t-4.5 -47t-9 -39q-12 -34 -51 -66t-77.5 -54t-69.5 -57 t-31 -77q0 -18 7.5 -34.5t15.5 -25.5t24 -25t23 -24q62 -66 82 -137q24 -81 -4 -166t-93 -145q-92 -83 -227 -103q-63 -10 -105 10t-102 74q-9 12 -8.5 19.5z" />
<glyph unicode="4" horiz-adv-x="796" d="M61 750q0 19 3.5 40.5t7 39t11.5 42.5t12.5 38.5t16.5 41t16 37.5t17.5 40t16.5 36q13 30 147 309q14 26 45 8q27 -12 21 -51q-5 -46 -18.5 -94.5t-38 -117t-31.5 -91.5q-26 -79 -33 -113q-3 -11 -16.5 -52t-14.5 -60q-1 -15 -0.5 -22.5t6.5 -12t19 7.5q19 14 80 66 q4 7 9 13.5t12.5 14t10.5 11.5q29 34 52 118q22 77 59 158q47 102 86 119q24 10 47 -6l25 -25q9 -7 20 -12t27.5 -10.5t23.5 -8.5q32 -14 45 -47q7 -18 7.5 -41.5t-3.5 -45.5t-12 -48.5t-15.5 -47t-15.5 -43.5t-12 -34q-68 -228 -100 -350q-34 -115 -74 -276q-3 -13 -10 -47 t-11 -51.5t-12.5 -44t-20 -48.5t-26.5 -41q-20 -24 -32 -24q-9 -6 -23 -13q-36 -12 -52 0.5t-22 61.5q-32 226 -22 387q2 24 11 84.5t9 93.5q0 8 -4 16q-4 4 -10 2.5t-8 -2.5t-7.5 -5t-7.5 -5q-49 -34 -122 -27q-32 1 -61.5 45t-27.5 87z" />
<glyph unicode="5" horiz-adv-x="675" d="M41 957.5q0 21.5 6 38t16 41t13 36.5q42 154 47 176q29 167 66 171q13 1 26 -21q11 -20 25.5 -32t27 -17.5t30.5 -6t31 1.5t35 6t35 5q150 20 152 -53q0 -23 -46.5 -47t-82.5 -35q-44 -15 -172 -19q-25 0 -27 -18q-6 -25 -6.5 -72t-1.5 -59q0 -15 16 -15q15 0 23 2 q75 27 166 -6q112 -42 147 -86q9 -11 16 -27.5t11.5 -39.5t7 -37.5t5 -42.5t3.5 -33q2 -2 2 -8q15 -126 11 -197q-10 -212 -113 -358q-57 -75 -156 -150q-49 -35 -75 -43q-58 -17 -118.5 28.5t-87.5 118.5t1 128h2q19 11 25 6q3 -3 5 -8q2 -6 5 -10.5t7 -7t7 -4.5t8.5 -2.5 t7.5 -0.5h8.5h8.5q14 24 53.5 46t54.5 44l2 -2q-4 4 7 44.5t26 87t16 52.5q29 116 43 220q4 33 0 51q-3 20 -10.5 29t-17.5 6.5t-19.5 -8.5t-22 -15t-20.5 -12q-40 -18 -84 -12q-46 8 -75.5 41t-59.5 88q-10 16 -10 37.5z" />
<glyph unicode="6" horiz-adv-x="747" d="M42 393.5q-6 61.5 2.5 137.5t21.5 136t38 139.5t43.5 130.5t47.5 126q16 43 24 63q6 14 24.5 66t32.5 85.5t31 63.5q22 43 58 48q20 2 41 -16t30 -21q44 -13 96 -80q67 -92 3 -311q-4 -12 -15.5 -47t-18.5 -59.5t-12 -47.5q-23 -90 -8 -129q4 -7 9 -10t13 -4t11 -2 q23 -6 62.5 -30t48.5 -28q69 -37 73 -174q3 -126 -30 -209q-33 -89 -105.5 -150t-159.5 -67q-80 -6 -153.5 33.5t-122.5 109.5q-38 55 -58.5 120t-26.5 126.5zM397 324q0 -82 14 -136q10 -38 25 -24q3 3 10.5 9t10.5 9q35 57 41 66q78 114 20 258q-2 4 -6.5 12.5t-7 15.5 t-2.5 15h2l-2 2q-12 9 -20.5 10.5t-14.5 -6t-9.5 -15.5t-9 -23.5t-8.5 -22.5q-37 -77 -43 -170z" />
<glyph unicode="7" horiz-adv-x="667" d="M45 1354q16 32 33 22q26 -15 61 -18.5t82.5 0t63.5 2.5q5 0 36 -4.5t56 -4t33 10.5q32 38 67 0q14 -9 32.5 -37t25.5 -35q5 -6 20.5 -22.5t24.5 -28.5t16 -27l6 -12q33 -81 23 -182q-6 -48 -20.5 -97t-39 -115.5t-33.5 -94.5q-22 -67 -52 -199.5t-48 -192.5 q-45 -136 -115 -227q-12 -15 -20.5 -25.5t-24.5 -28t-29 -25.5t-27.5 -12.5t-25.5 5.5t-18 33q-29 101 -29 201q-3 228 76 532q65 267 121 408q8 24 8 59q-222 -59 -299 68q-15 22 -4 47z" />
<glyph unicode="8" horiz-adv-x="706" d="M51 285q-28 100 19 217q19 47 86 153q6 9 29 58.5t22 50.5q-50 77 -77.5 141t-27.5 133q-3 92 37 201q41 126 117 143q25 6 54 -2.5t48 -19.5t48 -31q64 -44 107 -81t75 -83q69 -103 69 -239q0 -31 -2 -45q-8 -94 -49 -190.5t-104 -149.5q-2 -2 -8 -2q-8 -34 10 -68 q2 -4 10.5 -20t11 -20.5t8.5 -17.5t8.5 -20t6 -18.5t5.5 -22.5t3 -24q13 -98 -22 -176q-28 -69 -90.5 -110.5t-129.5 -31.5q-86 12 -178 127q-70 85 -86 148zM239.5 928q-2.5 -19 0.5 -28.5t14 -14.5q8 -11 12 0v2q13 26 39.5 77t40.5 76q32 64 26.5 121t-48.5 92 q-41 -7 -62 -75q-20 -72 -20 -226q0 -5 -2.5 -24zM254 219q8 -62 61 -94q79 44 109 174q6 26 8 59t1.5 59t0.5 58q-2 0 -6 -1t-6.5 -1.5t-5.5 -3t-4 -6.5q-5 -18 -25 -24t-25 -11q-13 -12 -24.5 -26.5t-28.5 -37.5t-22 -30q-41 -53 -33 -115zM264 887h2v-2z" />
<glyph unicode="9" horiz-adv-x="727" d="M46 111.5q-13 25.5 5 48.5q31 40 66 43q23 0 35 14.5t22 46.5q66 171 117 365l12 30q-2 15 10 39q2 2 2 9q0 -5 -4 -5q-1 8 0 15.5t-1 15.5t-7 12q0 -2 -2 -2v-2q-12 -6 -37 -10q-30 -6 -57 8t-46 37.5t-36.5 59t-27.5 63t-19 59.5q-23 77 24 175.5t113 158.5 q57 52 137 82.5t146 16.5q12 -3 25.5 -15t21.5 -22.5t21.5 -30t17.5 -25.5q52 -69 71 -137q10 -21 16.5 -46t9 -42.5t5 -48t4.5 -45.5q9 -100 -18 -199q-16 -68 -82 -217q-18 -39 -53 -117.5t-52 -117.5q-68 -152 -114 -217q-89 -113 -176 -103q-17 2 -47.5 17.5t-59.5 38 t-42 48zM166.5 923q-1.5 -7 1.5 -10q6 -20 25 -30q29 -13 55.5 -13t47.5 10.5t40 29.5t33 43.5t26.5 53t22 57.5t17.5 58t14 52q3 11 4 16q9 32 2 42.5t-31 4.5q-30 -8 -87.5 -50.5t-62.5 -45.5q-44 -60 -69 -123q-3 -7 -10 -31t-13 -35l-2 -4q-1 -2 -5 -8t-5.5 -8t-3 -9z " />
<glyph unicode=":" horiz-adv-x="518" d="M105.5 295q12.5 48 54.5 76q15 10 88 43q11 8 22 -6q14 -8 40 -24t36 -22q6 -1 29 -18q24 -15 24 -47q0 -12 2 -16q5 -8 8 -15t2.5 -15t-0.5 -12.5t-4.5 -13.5l-6 -12t-8 -13t-7.5 -12l-4 -4q-5 -3 -10 -18q-6 -39 -18 -49q-11 -8 -27 -8q-73 -42 -146 14q-47 35 -63 78 q-24 46 -11.5 94zM105.5 725q12.5 48 54.5 76q15 10 88 43q11 8 22 -6q1 -1 76 -45q4 -1 8.5 -3t7.5 -4.5t7 -6t6 -5.5q24 -15 24 -47q0 -12 2 -16q5 -8 8 -15t2.5 -15t-0.5 -12.5t-4.5 -13.5l-6 -12t-8 -13t-7.5 -12l-4 -4q-5 -3 -10 -18q-6 -39 -18 -49q-11 -8 -27 -8 q-73 -42 -146 14q-47 35 -63 78q-24 46 -11.5 94z" />
<glyph unicode=";" horiz-adv-x="542" d="M103 241q0 46 32 87q27 37 76 67q34 19 65 0q89 -61 119 -110q10 -5 17 -14.5t14.5 -25.5t11.5 -22q38 -55 0 -114q-4 -6 -15.5 -25t-18 -28t-18.5 -21t-26 -19q-36 -28 -67 -24q1 4 5 19.5t5.5 21t4 19t2.5 21v19t-2.5 21.5t-6.5 20q-7 0 -13.5 -3.5t-13.5 -9t-10 -7.5 q-25 -17 -44 -17t-42 17q-31 23 -43 41q-32 41 -32 87zM105.5 729q12.5 48 54.5 76q32 21 88 43q11 8 22 -6q1 -1 76 -45q7 -1 29 -19q24 -15 24 -47q0 -12 2 -16q5 -7 7.5 -13.5t3.5 -12t-0.5 -12.5t-2 -10.5t-5 -11l-6 -10t-7 -10.5t-6.5 -10q-1 -1 -2 -3.5t-2 -3.5 q-5 -3 -10 -18q-6 -39 -17 -48q-11 -8 -28 -7q-72 -45 -146 12q-47 35 -63 78q-24 46 -11.5 94z" />
<glyph unicode="=" horiz-adv-x="985" d="M104 666q1 7 5 10t14.5 3.5t11.5 0.5h141q100 21 195 27q42 3 186 -11l93 -18q6 -1 26.5 -3t34.5 -5t25 -8q43 -26 4 -54q-17 -14 -31 -22q-15 -14 -40 -24.5t-38 -13.5t-45 -9q-108 -24 -133 -31q-137 -41 -240 -23q-28 4 -75 23q-53 24 -91 65q-21 21 -36 45 q-10 17 -7 48zM203 336q5 10 22 10q178 3 396 -4q98 0 147 -2h12h12h11t11.5 -0.5t10 -1t11 -1.5t10.5 -2.5t10.5 -3t10 -4t10.5 -5.5q6 -3 8 -5q9 -6 12 -16q8 -17 -2 -27q-4 -6 -21 -10q-35 -9 -78.5 -11.5t-66.5 -2t-83 4.5t-71 5q-140 8 -210 10h-40t-49 1.5t-37.5 11 t-31.5 28.5q-8 17 -4 25z" />
<glyph unicode="?" horiz-adv-x="870" d="M103.5 1064q-6.5 21 13.5 44q92 110 252 205q158 91 282 28q55 -29 88 -75.5t42 -103t5.5 -111.5t-18.5 -115q-54 -218 -211 -477q-26 -43 -115 -64q-66 -16 -98 -8q-51 12 -78 64q-9 18 -12.5 36.5t-5 29.5t4.5 32.5t8 27.5t14 33t14 31q11 26 45 96q52 100 115 183 q50 72 124 149q29 30 39.5 42t23.5 39.5t13 55.5q0 30 -16 33q-3 0 -21 -6q-109 -62 -149 -90q-6 -4 -16 -15t-19 -17.5t-20 -8.5q-8 -13 -43 -35q-35 -23 -50 -45q-44 -64 -147 -16q-24 9 -41 23t-23.5 35zM211 207q-4 51 0 76q25 114 170 28q36 -23 71.5 -53.5t55.5 -54.5 q29 -39 9 -105t-64 -88q-17 -10 -47 -10q-44 0 -76.5 14t-71.5 45q-11 8 -19.5 20t-13 21t-7.5 26t-3.5 25.5t-2 29t-1.5 26.5z" />
<glyph unicode="@" horiz-adv-x="1302" d="M103 355q0 18 4 43.5t6 39.5t10 43t11 39t13 43t13 41q43 139 184 262q139 117 254 129q106 11 301 -45q138 -42 227 -125q76 -71 99 -166q20 -92 -10.5 -186t-102.5 -166l-31.5 -35t-35 -37.5t-34.5 -28.5t-44 -24q-79 -30 -148 13q-41 23 -69.5 71.5t-30.5 95.5 q0 23 -23 23q-31 -23 -72 -21t-71 27q-30 24 -42.5 64.5t-6.5 79.5q11 70 84 116q6 3 19.5 13t24 15t23.5 7q37 6 70 -14q23 -13 25.5 -41t-17.5 -47q-13 -9 -22 0q-28 28 -67 -2.5t-58 -69.5q-8 -15 -12 -29.5t-3.5 -29t11 -19t32.5 1.5q82 24 144 99q34 46 47 86 q1 4 3 14.5t4.5 18.5t6.5 12q9 8 21.5 5.5t21.5 -9.5q28 -25 49 -52q18 -20 45 -55q41 -48 27 -92q-3 -9 -7.5 -17t-13.5 -18.5t-12 -14.5t-16 -17l-14 -13q-15 -15 -39 -47q-8 -8 -17 -14q-3 -2 -11 -4t-9 -3q-6 -6 -6 -18q-6 -34 -2 -40t36 -7q51 11 136 76 q50 34 81.5 103t38.5 138q17 150 -51 221q-48 51 -137 68q-154 31 -246 -14q-3 -1 -23.5 -8t-31.5 -15q-12 -10 -23 -22t-22.5 -28.5t-18 -25.5t-20 -30.5t-16.5 -26.5q-49 -87 -70 -158q-11 -34 -16 -57q-25 -91 -35 -160q-30 -148 10 -258q11 -27 22.5 -34t38.5 -3 q12 2 39.5 6.5t42 7.5t37 8t41 12.5t35.5 17.5q39 22 70 53q3 2 14 16t22 24.5t17 8.5q5 -2 16.5 -4t20.5 -5.5t14 -10.5q13 -13 13.5 -32t-6 -35.5t-17.5 -31.5q-15 -20 -49 -39q-113 -73 -228 -82q-104 -6 -219 60q-6 3 -32.5 18.5t-36.5 22.5t-30 20t-34 25.5t-26 25.5 q-64 73 -82 166q-5 22 -6.5 45.5t-1.5 41.5z" />
<glyph unicode="A" horiz-adv-x="882" d="M6 92q-7 65 -7 131q0 71 8 142q15 138 50 315q68 345 160 586q1 3 59 139q2 4 7.5 16.5t11 21.5t12.5 13q9 4 13 4h2q4 0 13 -3t15 -3q82 0 154 -33t110 -98q14 -23 19.5 -56t7 -79t2.5 -60q8 -99 21 -219q3 -39 12 -113q10 -76 15 -136q4 -43 4 -82q0 -16 -1 -31 q0 -24 25 -27q3 0 43 2q22 1 43 1h33q36 -2 47 -13q5 -5 5 -9q0 -3 -3 -7q-10 -28 -90 -35q-4 0 -18 -0.5t-21 -1.5t-16 -5.5t-13 -13.5q-5 -6 -2 -24.5t2 -24.5q0 -3 -4 -12.5t-7.5 -17.5t-3.5 -9q24 -79 31 -164q4 -54 9 -75q8 -31 8 -52q0 -11 -2 -20q-7 -41 -39 -51 q-17 -6 -47 2q-23 8 -40.5 23t-27.5 29t-19 39.5t-12.5 39.5t-9.5 46t-8 42q-1 7 -8.5 42.5t-10 52.5t-3 44.5t5.5 46.5q5 19 -4.5 30.5t-30.5 8.5q-25 -2 -123 -31q-4 -3 -7 -8t-6 -12t-5 -10q-10 -13 -18.5 -33.5t-16.5 -50t-11 -37.5q-27 -77 -65 -148 q-28 -52 -41.5 -75.5t-42 -61t-57.5 -61.5q-15 -14 -34 -16h-6q-15 0 -28 10q-10 10 -14 30q-19 73 -25 162zM20 330zM356 582q0 -10 5.5 -15.5t21.5 -15.5q1 -1 7 -3t8 -3t6.5 -4t6.5 -5t3.5 -6t1.5 -8q0 -21 -6 -39q20 -1 36 -1q92 0 89 42q-3 24 -4.5 98t-10.5 113 q-4 22 -29 54t-32 47q-3 13 -8 18q-5 4 -9 5h-2q-3 1 -7 -1q-5 -2 -9.5 -6.5t-9.5 -11.5t-8.5 -12.5t-8 -14t-7 -13t-6 -11t-3.5 -7.5q-6 -11 -10.5 -23t-7 -27t-4.5 -24.5t-2.5 -27.5t-0.5 -25v-28v-25v-20z" />
<glyph unicode="B" horiz-adv-x="872" d="M2 991q5 164 25 357q1 11 1 37t1.5 41.5t6.5 35.5t18 33.5t34 20.5q14 4 29 4q51 0 110 -47q43 -34 60 -64q9 -16 12.5 -52.5t15.5 -49.5q109 53 117 57q95 31 150 31q63 0 119 -29t81 -82q17 -35 17 -75q0 -67 -49 -146q-25 -37 -59 -74t-59.5 -60.5t-70.5 -62.5 q16 -3 63 -9.5t69 -11.5t54.5 -21.5t55.5 -43.5q66 -77 69 -196v-6q0 -77 -27.5 -151t-80.5 -128q-48 -49 -114 -75q-68 -26 -134 -26h-5q-64 0 -132 11q-13 3 -20 -5.5t-13 -25.5q-79 -165 -176 -235q-21 -16 -40 -16q-26 0 -44 32q-17 33 -28 77.5t-15 76.5t-8.5 87.5 t-7.5 78.5q-27 277 -27 561q0 75 2 151zM370 1246q-3 -7 -3 -16q0 -10 4 -24q10 -34 17.5 -103.5t17.5 -105.5q2 -7 11 -26.5t11 -32.5q7 19 28 36.5t50.5 36t40.5 27.5q14 13 29.5 28t36 38.5t34.5 45.5t26.5 48t11.5 47.5t-11 42.5q-15 24 -43 33q-32 11 -69 11 q-26 0 -52 -5q-66 -13 -111 -49q-23 -18 -29 -32zM376 326q0 -14 3 -22q3 -7 7 -8q1 0 1 1q177 30 254 109q39 39 61 94q20 46 22 102v10q0 51 -17 99q-10 33 -43.5 53.5t-73.5 23.5h-12q-68 0 -148 -30q-7 -4 -10.5 -7t-5 -7.5t-1.5 -7.5t0.5 -11t0.5 -14q-2 -44 -12 -126 t-13 -118l-2 -15q-2 -14 -3.5 -27.5t-4 -33t-3 -35.5t-0.5 -30z" />
<glyph unicode="C" horiz-adv-x="847" d="M1 348q-1 25 -1 48q0 26 2 48q4 42 12 103q84 546 373 835q56 56 109 69q19 5 40 5q39 0 87 -16q38 -16 104 -35q66 -26 92 -82q15 -32 15 -67q0 -27 -9 -56q0 -145 -96 -250q-14 -10 -30 -10t-23 12q-3 6 -3.5 12t2 13t5 12t7.5 12t7 11q2 26 20 64t32 66q14 27 13 59 q0 39 -28 71q-12 14 -23 19.5t-21.5 3t-18.5 -7.5t-17 -17.5t-15 -21.5t-14 -23.5t-12 -20.5q-42 -68 -86 -164q-77 -181 -106 -358q-20 -128 -20 -247q0 -47 3 -93q1 -14 2 -61.5t4.5 -80t12.5 -59.5q18 -48 61 -57q5 -1 9 -1q38 0 92 50q5 5 21 22t32.5 34.5t39.5 40.5 t43 39.5t42 30.5t37 15.5t28 -6.5q15 -15 15 -34q0 -15 -10 -35q-22 -42 -70.5 -86.5t-95 -77t-68.5 -41.5q-76 -32 -166 -34h-13q-83 0 -159 23q-82 25 -148.5 84t-91.5 142q-14 44 -17 98zM729 950h2h-2z" />
<glyph unicode="D" horiz-adv-x="985" d="M0 1312q2 38 14 62q17 36 74 40q12 1 24 1q44 0 88 -13q56 -17 81 -40q68 -49 120 -166q30 -89 30 -111q0 -4 -1 -6q57 93 118 152.5t148 95.5q25 10 51.5 10.5t54.5 -10.5q56 -21 91 -67q51 -71 68 -175q12 -64 12 -163q0 -193 -70.5 -360.5t-214.5 -272.5 q-89 -64 -162 -64h-10q-24 1 -49 7.5t-38.5 9.5t-32 -1.5t-38.5 -25.5t-49 -63q-10 -14 -36 -38.5t-63.5 -47t-73.5 -30.5q-8 -2 -16 -2q-26 0 -48 20q-29 26 -37 91q-12 89 -12 222q-2 132 -7.5 396t-7.5 396q0 15 -5 65q-4 38 -4 70q1 9 1 18zM432 461q-2 -18 -1 -36 q1 -23 3 -47q4 -44 30 -71q24 -24 64 -24h9q57 5 114 77q44 54 70 107q72 130 86 266q11 91 15 145q3 32 3 73q0 29 -1 61q-3 80 -19 143q-20 83 -72 98q-11 3 -21 3q-36 0 -69 -33q-12 -12 -24 -30t-20 -31.5t-20.5 -37.5t-17.5 -32q-33 -62 -52 -162t-33 -217t-30 -178 q-10 -34 -14 -74z" />
<glyph unicode="E" horiz-adv-x="903" d="M0 320q4 84 43 161q55 108 164 195q11 8 43 21.5t45 27.5q9 10 12.5 16.5t0.5 12t-7 9t-14 9.5t-15 10q-52 46 -69 125q-10 45 -10 89q0 34 6 67q24 133 143 266q69 84 141 115q42 18 91 18q72 0 159 -39h3q30 0 69 -39q61 -54 72 -122q11 -26 13 -68q1 -12 0 -23 q0 -29 -4 -59q-6 -42 -28 -74.5t-55 -38.5q-14 -3 -28 3.5t-17 19.5q0 12 2 18q17 70 17 132q0 46 -9 88q-1 2 -2.5 9.5t-2.5 11t-3.5 8.5t-7 7.5t-11.5 3.5q-8 2 -21.5 -9.5t-12.5 -20.5q1 -6 1 -14q0 -32 -26 -76q-68 -107 -88 -150q-36 -76 -36 -186q0 -18 1 -37 q75 -32 78 -45q2 -6 -0.5 -11.5t-6 -7.5t-12 -6.5t-10.5 -5.5q-56 -34 -110 -88q-129 -136 -162 -289q-5 -24 -5 -45q0 -32 11 -59q8 -16 34 -49t34 -54q2 -7 5.5 -21t6 -21t10.5 -14.5t21 -10.5q9 -2 18 -1q48 0 109 42q45 31 114 112q-1 9 -1 18q-1 44 33 79q28 30 61 30 q14 0 30 -6q0 -5 8 -17t9 -18q6 -17 2 -43q-3 -45 -33 -83q-37 -52 -117 -95q-59 -32 -128.5 -56t-149.5 -36q-47 -7 -91 -6q-31 0 -59 3q-70 8 -132 47t-95 108q-31 69 -31 143q-1 9 0 19z" />
<glyph unicode="F" horiz-adv-x="993" d="M2 1258q-2 6 -2 13q0 13 8 23q4 9 14.5 17.5t18.5 13t24 12t19 9.5q92 48 197 73q118 29 242 29q80 0 163 -12q80 -11 113 -58q56 -79 65 -84q19 -11 19 -57q-1 -39 -9 -75q-8 -40 -20 -88.5t-14 -57.5q0 -3 -1.5 -24t-3 -44t-4.5 -47.5t-8.5 -41t-11.5 -17.5q21 0 73 -1 t85 -1q17 -14 17 -25q0 -20 -62 -28q-13 -2 -37 -4q-21 -2 -27 -3q-10 -1 -30 -8t-29 -8q-8 -1 -17.5 -11.5t-19 -29t-18 -37.5t-17 -43.5t-13.5 -40.5t-11 -35.5t-7 -21.5q-41 -132 -53 -260q-10 -94 -14 -111q-19 -68 -88 -111q2 -4 2 -14q-2 -39 -10 -45q-4 -3 -15 -4 q-12 0 -31 4q-64 13 -108.5 53t-65.5 90.5t-29 115.5q-6 50 -6 94v28q2 57 13 117q10 61 39 151q3 9 15 32.5t20 44t6 34.5q0 2 -29 40q-24 33 -24 49q0 14 20 14h1q7 0 15 -1q4 -1 21 -5t26 -3q2 5 23 53v2q11 44 10 52v6q0 19 16 59q19 46 42.5 95t41.5 98q15 40 16 74 q0 7 -1 14q-4 39 -39 53q-32 13 -75 13q-40 1 -90 -11q-103 -24 -181 -66q-18 -9 -43.5 -25t-45.5 -24.5t-46 -11.5q-24 -1 -29 19zM307 195h2l-2 2v-2z" />
<glyph unicode="G" horiz-adv-x="901" d="M0 395v32q0 229 78 447q85 234 246 418q63 70 112 99q35 19 95.5 22t72.5 6q27 5 53 5q101 0 189 -72q16 -12 22.5 -18.5t15 -19.5t11.5 -28q1 -7 1 -14q0 -39 -24 -78q-1 -2 -10 -15.5t-11.5 -16.5t-10.5 -13.5t-12 -13.5t-13 -10t-16 -8.5t-17.5 -3.5t-21.5 -1 q2 16 19 61q14 38 14 61v7q-3 18 -30 46t-44 28q-6 0 -21.5 1.5t-25 1.5t-21 -4.5t-18.5 -13.5q-7 -11 -9.5 -39t-2.5 -30q-6 -26 -25 -74q-10 -21 -23.5 -42.5t-32.5 -49.5t-28 -41q-73 -114 -96 -340q-14 -136 -47 -303q-2 -13 -13.5 -49.5t-18.5 -63.5t-3 -57.5t24 -46.5 q13 -10 31 -10q40 0 103 51q24 20 49.5 53.5t44.5 72.5q15 29 15 56q0 10 -2 19q-7 37 -48 55q-23 11 -39 31q-6 6 -6 10.5t2 7t7 6.5t7 6q11 13 38 14h7q25 0 59 -6q39 -6 44 -6q46 -3 85 -3q51 0 89 5q5 1 9 1q20 0 20 -15q0 -18 -26 -54q-9 -11 -24 -31q-11 -13 -12 -15 q-49 -70 -74 -158q-14 -61 -14 -113v-18q0 -14 1 -24t2 -15.5t4.5 -19.5t6.5 -25q6 -26 24.5 -41.5t43.5 -17.5q35 16 45 -6t-15 -44q-16 -15 -40 -20q-11 -3 -22 -3q-19 0 -39 7q-32 12 -59 37t-43.5 43.5t-31.5 38.5q-4 6 -17 37.5t-22 38.5q-18 6 -24.5 6t-24 -7.5 t-23.5 -9.5q-73 -18 -146 -18h-21q-97 3 -176 37.5t-113 109.5q-29 60 -33 168z" />
<glyph unicode="H" horiz-adv-x="980" d="M0 300v22q0 31 2 52q2 28 5.5 78.5t4.5 71.5q13 234 41 439t70 391q1 7 4.5 33.5t7 39.5t14.5 28.5t29 19.5q8 2 17 2q22 0 57 -11q95 -31 139 -73q27 -26 41 -64q13 -35 13 -79v-6q-1 -48 -5.5 -82.5t-13.5 -83.5q-3 -14 -4 -21q-4 -21 -15.5 -70t-16.5 -85 q-3 -20 -3 -39q0 -16 2 -32q3 -29 7.5 -33.5t33.5 -4.5q34 0 160 12l2 4q14 26 21 98.5t12 89.5q5 19 13 66t17 87.5t22.5 84.5t36.5 73.5t52 37.5q16 4 32 4q49 0 107 -35q5 -22 20 -86.5t23 -109t13 -87.5q4 -32 4 -51q6 -73 7 -147q0 -109 -14 -222q0 -281 -194 -589 q-12 -23 -27 -31q-14 -8 -29 -8q-8 0 -16 2q-24 7 -39 28q-12 14 -23.5 39.5t-16.5 41t-16.5 53.5t-12.5 40q-33 89 -39 195v18q1 41 7 107q8 80 9 100q2 24 0.5 45.5t-6.5 36t-21.5 13.5t-44.5 -21q-8 -6 -33.5 -23.5t-37.5 -26.5t-27 -26.5t-22 -36.5q-8 -23 -8 -62 q1 -1 1 -5q0 -9 -1 -17q0 -32 -1 -53q-12 -127 -75 -244q-45 -92 -82 -127q-32 -28 -65 -28q-9 0 -17 2q-36 8 -62 51q-21 30 -34 67t-19 69t-6 78z" />
<glyph unicode="I" horiz-adv-x="438" d="M0 26q0 13 3 38.5t3 39.5q2 42 6 127t6 127q9 182 35 478q16 179 43 413q1 10 3 34.5t4 41t5.5 40.5t10 40t16 31.5t24.5 23.5q13 7 30 6h4q62 -3 117 -70.5t81 -144.5q34 -100 37 -229q2 -33 2 -96v-60q0 -227 -27 -370q-30 -158 -98 -275q-4 -6 -59.5 -85.5 t-69.5 -125.5q-7 -28 -49 -28q-6 -1 -21.5 0t-27 -1t-21.5 -10h-6q-18 0 -30 5q-13 6 -17 21.5t-4 28.5z" />
<glyph unicode="J" horiz-adv-x="755" d="M4 264q6 35 15.5 56.5t28.5 36.5t37 22.5t56 19.5q30 8 41 -14q4 -5 3 -12t-3 -10.5t-6 -9.5l-6 -9q-47 -75 -47 -134q0 -11 2 -22q8 -36 33.5 -64.5t58.5 -35.5q31 24 47.5 82.5t24.5 147.5t10 100q12 63 37 191.5t37 191.5q10 53 30.5 159.5t30.5 159.5q1 10 9 38.5 t16 59.5t14.5 63.5t6 58t-10.5 34.5q-5 10 -29 10q-12 0 -96 -9q-56 -6 -102 -6q-22 0 -42 1q-61 5 -81 31q17 5 49 9.5t41 6.5q65 11 114 16q33 3 72 3h40q63 -3 110 -18t92.5 -49.5t75.5 -88.5q32 -57 35 -115q1 -11 1 -23q0 -23 -4 -49q-6 -39 -13.5 -65t-23.5 -75 t-22 -70q-56 -194 -80 -396q-2 -15 -5.5 -54.5t-6 -60t-7 -52t-10 -58.5t-12.5 -53q-47 -160 -159 -227q-60 -35 -131 -35q-23 0 -47 4q-99 15 -160 84q-41 45 -58 107q-10 37 -10 74q0 24 4 48z" />
<glyph unicode="K" horiz-adv-x="724" d="M1 147q3 111 3 127q6 234 25 506q11 180 34 400q4 33 12.5 99t12.5 99q7 57 16 70q12 17 50 29q14 0 26.5 -1t21.5 -2t20 -6t16.5 -7t17.5 -11l16 -12t19 -15l20 -16q58 -50 80 -156q14 -71 14 -132q0 -65 -16 -120q28 17 59.5 54t62 71t60.5 47q49 21 117 21 q20 0 20 -13q0 -7 -6 -18q-5 -10 -15 -24.5t-17 -25t-6 -13.5v-6q0 -28 -46 -56q-39 -27 -75.5 -65.5t-59.5 -70t-57 -81.5q-17 -28 -27 -47t-17 -49t-1 -57q2 -2 8.5 -9.5t9.5 -9.5q24 -17 54 -97t32 -83q57 -103 133 -176q20 -16 25 -31q6 -20 -10.5 -31t-42.5 -12.5 t-51 0.5t-37 6q-27 9 -47.5 28.5t-40.5 47t-35 41.5q-21 19 -34 21.5t-19 -11.5t-8.5 -29t-4.5 -40t-4 -37q-28 -126 -125 -217q-20 -19 -46 -36q-28 -17 -58 -28q-14 -5 -25 -5q-15 0 -27 8q-22 14 -26 54q-2 9 -2 49q0 30 1 78z" />
<glyph unicode="L" horiz-adv-x="581" d="M0 221q2 29 3 89.5t3 90.5q24 264 49 392q6 36 28.5 180t43 235t53.5 174q16 47 43 54q8 2 16 2q25 0 52 -23q43 -33 72.5 -77t46 -86t22.5 -100q5 -53 5 -93q-1 -3 -1 -7q0 -44 -9 -109t-17 -104t-21.5 -104.5t-19.5 -95.5q-34 -176 -39 -254q-3 -57 -3 -96q0 -19 1 -33 q0 -1 -1.5 -27.5t-1 -47.5t4.5 -25q3 -3 9 -9.5t9 -9.5q2 -2 5 -2q13 0 54 30q51 38 60 52q10 14 12 16q13 9 19 0q1 1 6.5 4t7 3.5t6 2.5t6.5 2.5t6 0.5t6 -1.5t5 -4.5t6 -7q3 -8 8 -8q15 -8 15 -19q0 -8 -7 -18q-31 -38 -129 -127q-84 -75 -187 -75h-7q-108 3 -185 90 q-56 62 -56 131q0 7 1 14z" />
<glyph unicode="M" horiz-adv-x="1273" d="M4 424q23 258 76 596q8 57 26.5 165t22.5 130q2 10 5.5 40t7.5 55t12 52t23 42.5t36 15.5q24 0 41.5 -4.5t33.5 -17.5t23.5 -21t24 -31t22.5 -31q88 -110 95 -205q2 -24 -0.5 -49t-7.5 -59t-7 -49q-6 -50 -6 -85q0 -50 12 -69q3 5 10.5 15.5t10.5 15.5q0 36 35 88 q99 153 164 172q11 3 21 3q27 -1 49 -23q30 -32 38 -72q6 -37 6 -80t-3 -71.5t-11 -80.5t-10 -73q-13 -93 -13 -134q15 27 59 113t66.5 125.5t65 99t86.5 99.5q2 4 10 12q26 12 49 12q10 0 20 -2q32 -8 55.5 -27t42.5 -54t32 -72.5t22 -81.5q20 -106 20 -189q0 -14 -1 -28 q-13 -276 -158 -646q-8 -20 -8 -79h2q7 4 30 21.5t43.5 30.5t32.5 11q18 -4 25.5 -24t-0.5 -37q-11 -28 -48 -64.5t-69 -56.5q-50 -28 -96 -28q-11 0 -21 1q-62 9 -108 68q-59 80 -59 229v19q8 175 61 403q9 37 30 101.5t35.5 120.5t16.5 104q-18 -8 -31 -39q-8 -14 -25 -44 t-26.5 -48t-22 -45t-20.5 -52q-7 -23 -41 -61q-27 -30 -65 -30q-5 1 -10 1q-44 4 -66 45q-34 60 -34 198q0 18 1 38q0 64 12 125q2 9 9.5 33.5t8.5 34.5t-3 32q-19 -3 -35.5 -25t-26 -45t-20 -54.5t-15.5 -41.5q-16 -33 -47.5 -99t-48.5 -99q-6 -12 -19.5 -37t-21.5 -40.5 t-17.5 -37.5t-15.5 -41q-7 -24 -9 -74t-9 -74q-19 -74 -66 -149q-71 -102 -149 -102h-4q-45 0 -83.5 31.5t-56.5 78.5q-20 49 -20 130q0 35 4 75zM393 1331h2q0 2 -2 2v-2z" />
<glyph unicode="N" horiz-adv-x="942" d="M4 500q2 35 10 99.5t9 78.5q7 58 47 346q14 114 43 281q2 16 3.5 55.5t7 69t19.5 51.5q17 28 45 28q8 0 17 -2q40 -10 75 -36t54 -52q65 -87 76 -252v-7q0 -49 -27 -136l-4 -12q-4 -11 -1 -15.5t15 -5.5q0 9 3.5 17t10.5 17t9 13q27 46 39 65.5t38 55t52.5 58.5t58.5 40 q20 10 42 10q29 0 62 -17q58 -30 99.5 -83.5t50.5 -99.5q3 -13 3 -35q0 -29 -5 -74q-11 -77 -30.5 -221.5t-28.5 -206.5q-2 -16 -9 -59.5t-10 -75t-2 -59.5q0 -36 -1 -106.5t-1 -106.5q4 -7 8 -21q25 4 45 41q9 36 26.5 49t59.5 15q9 0 25 -12q-8 -66 -46.5 -113t-87.5 -64 q-34 -12 -69 -12q-15 0 -31 2q-52 8 -86 43q-92 94 -92 259v24q6 196 33 389q16 108 43 242q1 8 9 32t12 45t0 31q-12 18 -25 8.5t-20 -30.5q-22 -50 -84.5 -145.5t-85.5 -151.5q-21 -49 -43 -145t-27 -115q-8 -29 -27 -43t-45 -25.5t-41 -28.5q-4 -5 -21.5 -27.5 t-29.5 -31.5q-31 -25 -66 -25q-12 0 -24 3q-50 11 -72 57q-13 17 -13 61q0 28 5 66z" />
<glyph unicode="O" horiz-adv-x="882" d="M45 197q-44 121 -44 274q0 172 56 383q54 197 127 356q31 66 119 226q20 41 47 63q26 20 61 20q20 0 42 -6q41 -12 70 -49.5t30 -81.5q1 -13 -4 -32.5t-8 -32.5t3.5 -26t26.5 -19q5 -2 40 -11.5t53 -17.5q92 -45 143 -137q50 -86 57 -211q2 -19 2 -38t-2 -38 q-6 -104 -55 -291q-2 -10 -14 -59t-17 -69t-16 -56t-23 -63q-27 -62 -48 -102t-55 -87.5t-78 -78.5t-99 -46q-46 -14 -93 -14l-163 43q-105 55 -158 201zM262 653q-3 -18 -3 -40q0 -46 13 -107q55 -265 113 -387q29 -21 45 -21h3q17 2 40 31q99 132 127 215q11 34 48.5 133 t57 168t25.5 139q2 26 2 51q-1 77 -19 151q-24 98 -85 169h-2q-18 4 -31 4q-14 0 -24 -5q-18 -9 -31 -46q-5 -16 -21 -44t-22 -42q-13 -30 -13 -65q1 -31 11 -67q22 -76 79 -110l10 -5t11 -7q6 -4 6 -12t-6 -13q-27 -17 -49 -17q-9 0 -17 3q-93 31 -157 127q-17 -9 -26 -44 t-19 -46q-7 -9 -21 -26t-20.5 -26t-14 -25.5t-10.5 -35.5z" />
<glyph unicode="P" horiz-adv-x="823" d="M0 346v71q0 200 14 384q14 177 43 379q8 52 35 188q14 87 29 113q21 35 73 37q6 0 12 1q44 0 73 -16q74 -38 92 -112q50 -28 50 -95q0 -52 -30 -129q30 41 50 67t53.5 59.5t66.5 52.5q42 26 96 27q6 0 11 -1q61 -3 98 -41q33 -33 43 -92q4 -20 4 -33q2 -19 1 -39 q0 -71 -22 -142q-30 -90 -90 -159q-87 -106 -231 -147q-11 -3 -36 -5t-44.5 -5.5t-28.5 -12.5q-10 -10 -16 -61q-25 -132 -25 -273q0 -28 1 -57q3 -75 3 -126q0 -26 -1 -46q-1 -57 -20 -77.5t-83 -51.5q-30 -47 -87 -47h-7q-30 0 -61 19.5t-46 46.5q-5 11 -7 25.5t-2.5 35 t-0.5 27.5q-8 163 -10 235zM422 803q2 -4 8 -10q2 2 2 4q12 6 35.5 15t34.5 15t22.5 15.5t20 18.5t18.5 23.5t16 24t15.5 27t13.5 25.5l13.5 27t11.5 24q57 125 57 223v16q0 2 -0.5 8t-1 8.5l-1.5 7.5t-2.5 8t-3 6.5t-4.5 6t-7 4.5q-6 4 -12 4h-5h-4q-4 0 -10 -3.5 t-8.5 -5.5t-8.5 -7t-8 -6q-52 -35 -83.5 -88.5t-57.5 -130.5q-13 -37 -37 -147q-17 -78 -17 -102q0 -10 3 -11z" />
<glyph unicode="Q" horiz-adv-x="1058" d="M0 579q1 79 13 160.5t29.5 150t39.5 124.5q58 150 147 270q56 74 99 117q34 34 51 41q4 2 32.5 3.5t30.5 4.5q8 8 15 -6q6 -13 -2 -21h-2q-4 3 -17.5 -16t-17.5 -27q-2 -4 -14.5 -20t-14.5 -25q-7 -29 -12 -35q11 -7 18 0q9 3 13 15q5 6 16 18.5t16 18.5q9 13 31 39 q40 47 78 61q32 11 67 11q29 0 60 -7q87 -22 140.5 -77t96.5 -148q63 -21 78 -109q12 -62 12 -131q0 -192 -94 -444q-2 -6 -13.5 -38t-17 -45.5t-18 -41.5t-22.5 -44.5t-24.5 -35t-29.5 -29.5q-14 -11 -17 -28.5t4 -38t16.5 -39t20.5 -39t15 -29.5q25 -65 66 -94 q25 -18 52 -18q15 0 30 6q5 3 15 13.5t20 17t20 2.5q14 -4 25 -9l8 -8q4 -10 4 -19q0 -45 -96 -87q-53 -23 -107 -23l-63 8q-42 11 -76 33.5t-61 60t-42.5 64t-39.5 76.5q-20 12 -35 4q-79 -42 -158 -42q-47 0 -94 15q-81 9 -140 49.5t-90.5 100t-46.5 135.5q-15 69 -15 141 q0 7 1 14zM182 623q2 -2 2 -33q0 -70 6 -107q3 -59 27 -123q11 -29 27 -45q13 -17 28 -24q25 -15 48 -15q20 0 38 11q19 13 48 55q4 7 18.5 24.5t19.5 30.5l2 4q0 -1 -45 24t-93.5 53t-55.5 34q-38 30 -49 70q-9 31 -21 41zM319 705q10 -78 87 -105q14 -4 55.5 -19t64.5 -20 q5 25 23 69.5t20 51.5q85 210 88 485q0 58 -30 88q-2 2 -4 2q-20 -23 -58.5 -64t-52.5 -56q-35 -38 -139 -174q-59 -85 -59 -192q0 -32 5 -66z" />
<glyph unicode="R" horiz-adv-x="835" d="M2 172q0 17 -1 32q1 56 5 94q6 48 21 146q22 138 34 224q3 19 13.5 65.5t16 82.5t5.5 67q7 48 24.5 155.5t26.5 165.5q3 19 8 63.5t8.5 72t14 64t25.5 62.5q14 32 47 35q4 0 7 1q18 0 36 -13q89 -50 125 -152q11 -40 26 -47.5t52 10.5q37 17 71 17q36 0 68 -19 q40 -21 66 -60t34 -85q2 -18 2 -37q0 -69 -32 -141q-47 -98 -123 -160q-7 -6 -50.5 -28.5t-78.5 -45t-35 -34.5v-2q1 0 2 1t2 1h2q32 0 72 -132q27 -79 67 -155q90 -180 211 -244q20 5 43 -10q20 -12 20 -23q0 -2 -1 -4q-7 -20 -25 -20q-2 0 -10.5 -1.5t-12.5 -1.5 t-10.5 0.5t-11.5 2.5t-10 6q-15 0 -71 26.5t-67 38.5q-142 158 -217 334q-11 -26 -27.5 -96.5t-39.5 -108.5q-22 -32 -41 -63q-10 -16 -40.5 -68t-49.5 -79q-10 -12 -36.5 -35.5t-43.5 -44.5t-17 -41q-13 -31 -37 -31q-6 0 -12 2q-9 2 -15.5 5.5t-9.5 11t-4.5 12t-2.5 15 t-2 13.5q0 6 -3 9q-16 69 -18 147zM408 856q0 -22 15 -22q21 0 73 46q37 34 51 52q52 69 84 188q8 36 8 60q0 12 -2 20q-7 34 -25 48q-14 11 -31 12q-5 0 -10 -1q-23 -4 -47 -18t-43.5 -33.5t-29.5 -38.5q-15 -28 -24 -57.5t-12.5 -66t-5 -58.5t-1.5 -68v-63z" />
<glyph unicode="S" horiz-adv-x="684" d="M0 123q5 138 199 225q16 8 22 -2q10 -16 -6 -24q-84 -55 -106 -117q-7 -24 -7 -46q0 -40 25 -69q19 -23 51 -29t58 9q15 8 36 34q22 25 28.5 33t19.5 27t17 36t5 38q0 20 -2.5 41.5t-7.5 51.5t-6 40q-11 99 -58 256q-5 16 -20.5 67t-22 72.5t-18.5 66.5t-18.5 74 t-13.5 68t-11 74q-5 44 -5 87q0 76 15 146q1 4 4.5 21t5 24t5.5 23t7 24.5t8 22.5t10 23t12 19t14 17q9 8 19 13t22.5 7t21 2t24 -0.5t21.5 -0.5q105 0 162 -13q63 -16 109.5 -58t52.5 -99q1 -8 0 -16q0 -57 -43 -115q-41 -55 -93 -54q-11 0 -22 2q-30 6 -36 23.5t14 42.5 q3 3 11.5 13t11.5 14l10.5 14t9.5 14.5t8 16t5.5 16.5t2 17.5t-1.5 19.5q-3 22 -19.5 36.5t-37.5 10.5q-18 -4 -27 -16q-29 -31 -29 -115q7 -16 14 -46.5t9 -35.5q65 -214 80 -289q9 -42 57 -127q45 -87 51 -106q22 -66 22 -124q0 -61 -24 -114q-18 -43 -52 -84.5t-68 -70 t-77 -67.5t-69 -71q-55 -68 -145 -85q-29 -6 -58 -6q-59 0 -115 24q-27 7 -41 24q-20 23 -20 70zM92 172q0 1 1 4t1 4q0 -1 -1 -4t-1 -4zM264 1475h2h-2z" />
<glyph unicode="T" horiz-adv-x="1044" d="M2 1319q55 0 315 10q37 2 44.5 8.5t13.5 44.5q2 14 10 37q12 30 42 30q6 0 13 -1q74 -13 113 -74q24 -42 82 -51q39 -7 85 -7h16q40 0 88 2l87 3q119 0 129 -16q2 -3 2 -6q0 -10 -18 -23q-16 -12 -43.5 -20.5t-45.5 -11t-55.5 -5.5t-43.5 -4q-22 -1 -61.5 -12.5 t-61.5 -12.5q-6 0 -11.5 -6t-5.5 -12q2 -13 2 -27q0 -19 -4 -41q-6 -36 -17 -83t-15 -68q-31 -179 -39 -250q-14 -94 -14 -159q0 -29 3 -52q0 -11 14 -82q13 -66 13 -103v-5q-3 -74 -45 -154q-48 -96 -74 -98q-7 0 -10 -9q-3 -4 -11 -14t-12.5 -14.5t-13.5 -9t-20 -3.5 q-1 0 -2 2t-2 3q-6 -16 -18 -23q-11 -8 -19 -8q-1 0 -3 -1q-9 1 -25 3q-20 2 -22 2q-21 1 -29 14t-11 45q-1 8 -1 24.5t-2.5 29.5t-9.5 24l-2 -2q-20 10 -20 33q-7 3 -12 9t-8 15.5t-4.5 18t-2 21t-1 20.5t0 20t0.5 15v30q0 64 6 172q3 113 25 396q3 26 14.5 131t16.5 162 q3 45 -9.5 56.5t-60.5 16.5q-16 3 -45 1q-16 -1 -34 -2q-15 0 -31 1q-36 2 -67.5 6.5t-52.5 21t-20 42.5z" />
<glyph unicode="U" horiz-adv-x="1048" d="M12 328q-6 24 -8 47t0 49t4 43t7.5 49.5t7.5 46.5q6 40 19 126.5t19 133.5q7 51 24 163.5t26 172.5q2 12 3.5 45t4 61.5t8.5 59.5t20 52t35 26q16 3 33 21.5t27 23.5q20 10 41 10t45 -10q51 -22 71 -80q3 -6 9 -28t12 -31q9 -16 27.5 -24.5t34 -11t27.5 -14.5t13 -36 q1 -18 -2 -55.5t-2 -57.5q1 -8 0 -18q0 -39 -12 -105q-32 -169 -64 -317q-4 -22 -18.5 -91t-20 -101t-14 -88t-10.5 -103q-1 -24 -1 -47.5t1 -46.5q0 -29 11 -52t34 -24q21 -2 47 24q25 25 48 50.5t48 58.5t39.5 52.5t42 62t35.5 55t39.5 64.5t36.5 59q18 32 20 59 q3 35 9.5 71t17 76.5t18 68.5t21.5 76t20 69q25 91 54 172q14 47 26 59q3 2 13.5 6t20 6.5t9.5 1.5q12 29 35 6q11 -11 12.5 -32t-2.5 -39.5t-10.5 -44.5t-7.5 -35q-6 -33 -15.5 -95t-13.5 -85q-6 -36 -22 -106t-25.5 -128.5t-9.5 -107.5q-5 -27 -17.5 -86.5t-19.5 -97.5 t-12 -95q-3 -30 -3 -56q0 -22 2 -42q4 -42 21.5 -87.5t48.5 -80.5q4 0 8 -4q6 0 16 -2.5t16 -3t16 3.5q6 0 8 2q14 6 20 0q4 -4 5 -12q0 -3 -1 -7q0 -6 -12 -18q-20 -19 -82 -25q-17 -1 -31 -2q-39 0 -59 11h2q-81 38 -110 107q-27 65 -27 160v13q0 -5 -15 -19.5t-33.5 -30 t-21.5 -19.5q-10 -12 -29.5 -34t-29.5 -34q-80 -73 -170 -102q-53 -18 -111 -18q-17 0 -33 2q-76 6 -137 42q-63 38 -101 102q-38 63 -38 132q0 34 12 88z" />
<glyph unicode="V" horiz-adv-x="1193" d="M0 1378v6q0 19 6 40q6 25 23 38q17 12 31 14q6 1 10 1q8 0 14 -2q10 -4 27.5 -10t31.5 -7q87 -8 172 -76q25 -21 44 -50t28.5 -51t24.5 -62q78 -213 96 -431q4 -37 4 -88q0 -78 -9 -188q-9 -121 -9 -201q0 -40 2 -69q3 -22 20 -13q11 21 25 31q25 41 75.5 121t81 129 t70.5 119.5t70 132.5q68 135 123 276q1 4 31 75t50 129q15 42 15 57q0 6 -2 8q-15 13 -46 13q-19 0 -44 -5q-22 -6 -39 -6q-35 0 -47 26q-11 21 0 44.5t34 37.5q41 29 94 30h4q51 0 91 -24q22 -11 31 -20q27 -25 41 -55q14 -29 14 -66q0 -34 -4 -70q-4 -30 -20.5 -75.5 t-27 -69.5t-32 -69.5t-27.5 -57.5q-100 -222 -264 -479q-22 -34 -69 -103t-82 -123.5t-62 -105.5q-27 -52 -46 -76.5t-54.5 -41t-91.5 -17.5h-6q-28 0 -54 9q-28 10 -49 24.5t-39.5 41t-30.5 48.5t-25 57.5t-19 57t-16.5 59.5t-14.5 53q-66 216 -105 514q-24 205 -39 422 q0 12 -4.5 44.5t-5.5 53.5zM874 1386v3v-3z" />
<glyph unicode="W" horiz-adv-x="1413" d="M0 387q8 308 82 494q14 59 39 177t39 177q2 11 7.5 50t12 75t16 75t24.5 64.5t34 28.5q3 1 6 2.5t7 4t7 3.5q29 7 55 7q30 0 58 -9q52 -17 85 -48t69 -83q6 -7 4.5 -21t-0.5 -18q16 -64 16 -149q0 -80 -14 -179q-10 -89 -41 -209q-1 -4 -7 -27.5t-12.5 -49.5t-14.5 -53 t-15.5 -45t-12.5 -19q20 3 29.5 9.5t18.5 25.5q12 12 58 59.5t78.5 74.5t71.5 46q34 17 58.5 19t41 -10.5t27 -34t17.5 -56.5q11 -45 11 -99q0 -13 -1 -26q-1 -19 -10.5 -57.5t-9.5 -57.5v-262q18 57 70.5 207t76.5 232q66 216 106 469q-8 110 -10 165q-42 6 -73.5 29.5 t-32.5 69.5q-5 10 -4 13t9 10.5t11 13.5q6 16 22.5 19t38 -5t41.5 -17.5t42 -22t30 -15.5q50 -23 79 -38.5t65 -44.5t55 -63q33 -55 33 -151q0 -7 -7 -44t-14 -71.5t-8 -34.5h2q-30 -185 -122 -486t-142 -419q-1 -2 -2 -7.5t-2 -8.5q-4 -18 -37.5 -35.5t-59.5 -24.5 q-21 -6 -46 -6q-30 0 -66 8q-8 2 -37.5 7.5t-40.5 8.5t-35.5 10t-38.5 14t-31.5 18.5t-31.5 25.5q-53 56 -64 164q-4 47 -4 97q0 95 15 196q1 4 5.5 16t4.5 16.5t-2 18.5q-9 -6 -16.5 -22.5t-10.5 -20.5q-23 -25 -76 -90t-95.5 -108.5t-90.5 -73.5q-46 -29 -104 -41 q-38 -8 -75 -8q-19 0 -37 2q-54 6 -90 46q-34 36 -34 96v7z" />
<glyph unicode="X" horiz-adv-x="1007" d="M0 242q0 17 7 23.5t19 10.5t19 13q10 13 40.5 57t49.5 66q2 3 44.5 51t56.5 74q14 19 43.5 54.5t44.5 53.5q4 7 29 35t28 20q-50 119 -121 246q-48 91 -104 213q-19 24 -47 76.5t-33 60.5q-9 14 -12.5 20t-9.5 19.5t-7.5 22t-1 21t5.5 24.5q13 42 66 67q40 17 90 23 q72 11 121 11q39 0 63 -7q18 -5 37 -20t27.5 -24.5t27.5 -33.5q54 -65 90 -149q9 -22 19 -65.5t16 -61.5q5 -15 38 -45.5t42 -12.5q1 1 2 3.5t2 3.5q18 28 62.5 83t64.5 89q48 83 88 104q5 3 19 8q30 9 54 -9q21 -16 21 -43v-7q-1 -3 -1.5 -9.5t-1.5 -10.5t-5 -7 q-37 -27 -70 -65.5t-68.5 -87.5t-59.5 -76q-26 -20 -45 -49q-15 -22 -15 -41q2 -15 14 -42t15 -40q4 -20 4 -50q0 -20 -2 -46v-15q0 -32 6 -68q8 -44 16.5 -67.5t28.5 -77.5q47 -129 96 -258q7 -18 22.5 -56.5t24 -62t16.5 -56.5q6 -26 6 -51v-13q-2 -30 -13 -60 q-29 -33 -47 -41q-14 -5 -28 -5q-23 0 -44 13q-25 14 -48.5 32.5t-46 43t-39 44.5t-38.5 52.5t-33 50t-33 54.5t-30 49q-39 61 -86 154q-10 18 -29 67t-33 70q-2 2 -6 5t-7 6t-5 7q-18 -21 -49 -63t-45 -60q-5 -7 -46 -54.5t-55 -74.5q-33 -66 -123 -151q-21 -21 -35 -10 q-2 2 -5 6t-5 6q-1 4 -15 2.5t-18 -0.5q-9 1 -14.5 10.5t-5.5 20.5zM727 954q1 3 4 8.5t4 8.5q-8 -5 -8 -17z" />
<glyph unicode="Y" horiz-adv-x="1007" d="M0 114q4 10 20 15q33 11 62 43t45 62.5t38 78.5t32 66q3 6 21 39.5t22.5 43t20 39.5t21.5 43t18.5 39.5t19.5 44.5t16 41t16 44q1 1 -15 20t-34 40.5t-20 25.5q-9 21 -16.5 59.5t-12.5 52.5q-57 173 -80 281q-22 106 -27 170q0 55 3 65q1 0 4 7q12 30 18 18q0 2 1 5t1 5 h29q27 0 35 -8q2 0 10 -4q18 -7 33 -25t26.5 -45.5t19.5 -50.5t16.5 -55t12.5 -43q46 -139 74 -266q4 -11 10 -15q9 -3 39 46.5t64 113.5t35 66q83 147 137 264q21 48 62 58q15 4 29 4l53 -12q41 -19 76.5 -54t47.5 -72q14 -41 14 -92q-3 -72 -28 -142q-9 -27 -33 -82 t-33 -83q-27 -96 -57 -168q-67 -174 -156 -322q-64 -109 -158 -231q-56 -71 -111.5 -121t-125.5 -84q-67 -31 -126 -31q-16 0 -32 2q-55 6 -102 43q-8 6 -16.5 16t-14.5 22q-5 8 -5 15q0 4 1 8zM172 1217h2h-2zM207 1454z" />
<glyph unicode="Z" horiz-adv-x="1394" d="M1 116q6 19 30 15q3 0 9 1t9 1q10 6 21 8.5t18.5 2.5t22 -0.5t20.5 -0.5q17 18 38.5 70.5t29.5 65.5q43 83 90 159q90 146 194 281q19 25 -8 33q-25 8 -45 32q-19 26 12 29q33 3 54 3q11 0 18 -1q29 -3 57 16q127 185 191 283q4 7 37.5 51t59.5 84.5t22 53.5 q-7 18 -35 22q-39 4 -112.5 18t-108.5 19q-58 7 -93 22q-35 18 -38 23q-2 5 1 14.5t1 12.5q-4 6 48 6q7 0 15 1q45 0 90 -3q53 -3 60 -4q138 -14 216 -14q18 0 33 1q41 0 64 23q24 25 64 32q8 1 15 1q31 0 58 -23q54 -54 141 -61q7 1 14 1q33 0 56 -12q17 -10 17 -26 q0 -12 -13 -21q-25 -20 -74 -47q-16 -9 -27 -25t-21.5 -39.5t-18.5 -35.5q-51 -73 -84 -113q-9 -10 -27 -29t-26 -28q-94 -102 -138 -160q-3 -5 -13 -21t-17 -24q-18 -21 -4 -31h14q8 -1 42.5 -3t55 -5t44.5 -15t32 -32q4 -19 2.5 -35.5t-16.5 -25.5q-4 -4 -21.5 -2.5 t-21.5 0.5q-7 -2 -23 -12.5t-20 -10.5q-30 -5 -76.5 -8t-74 -5.5t-63.5 -18.5t-65 -46q-27 -27 -50.5 -60.5t-53 -82.5t-41.5 -68q-62 -87 -74 -110q-9 -18 -11 -55q-1 -38 19 -35q4 0 6 2q22 -9 25 -17v-6q-1 -2 62.5 -7t130.5 -9t79 -4q17 -1 61 3q28 2 51 2q15 0 27 -1 q34 -2 58 -13q1 -1 9 -4.5t10.5 -5t7.5 -5.5t7 -9t3 -12q-41 -61 -103 -66q-23 3 -55 3q-39 -1 -93 -5q-98 -8 -126 -8q-156 0 -309 18q-124 13 -283 47q-3 1 -15 2.5t-18.5 3t-16.5 4t-17.5 6.5t-12.5 9q-11 12 -11 25q0 6 2 11z" />
<glyph unicode="a" horiz-adv-x="774" d="M20 350q33 102 101 199q34 52 60 82.5t65 60.5q19 14 49.5 45.5t46.5 44.5q12 9 45 28.5t47 33.5q6 6 17 6q8 -1 25.5 -2.5t26.5 -3.5t23 -6t25 -11.5t20 -19.5q8 -9 26.5 -26t31.5 -31.5t22 -30.5q10 -15 10 -35q0 -88 -198 -264q-9 -8 -40 -34t-41.5 -36.5t-31.5 -32.5 t-35 -43t-26 -47q-4 -13 -21 -34q-17 -27 -14 -52q2 0 10 4q125 99 244 269q21 31 29 37q2 1 7 2t7 2q21 16 61 4q23 -8 33.5 -21.5t10 -31t-2.5 -39.5q-8 -52 -20 -166q-12 -93 -12 -99q1 -13 7 -37.5t7 -39.5q8 0 12 2q3 2 16 8t18 8.5t16 6.5t18.5 5t18 0t20.5 -4 q19 -3 16 -20q2 -3 2 -7q0 -8 -10 -18q-10 -18 -14.5 -25.5t-16.5 -17t-26 -12.5h2q-37 -10 -69 -10q-42 0 -74 16q-58 29 -70 102q-3 4 -5 14t-4 13q-1 1 -2 4.5t-2 5.5q-15 7 -24 4.5t-29 -14.5q-14 -9 -39.5 -31t-48.5 -34.5t-49 -12.5q-11 0 -43 1t-45 2t-39.5 4 t-40.5 9.5t-33.5 16.5t-34 26.5t-26.5 38.5q-29 50 -29 118q0 57 20 126z" />
<glyph unicode="b" horiz-adv-x="751" d="M0 190q2 26 5.5 67.5t4.5 57.5q7 164 17 275q7 108 23.5 308.5t19.5 244.5q1 12 -1.5 38t-3 45t3.5 39q3 20 19 29q12 7 30 7q6 0 13 -1q103 -10 145 -81q15 -2 27 -19.5t24 -50t13 -33.5q13 -35 15 -77q1 -17 1 -33q0 -24 -2 -45q-2 -27 -2.5 -91.5t-3.5 -97.5 q-5 -58 -22 -207q-4 -44 16 -53q10 7 31.5 24t38.5 28.5t34 19.5q22 9 42 9q22 -1 42 -11q39 -20 64 -66q22 -43 22 -87v-11q0 -9 -2.5 -22t-3 -20t3.5 -22q30 2 74 31t68 35q2 0 5 -8.5t5.5 -19t3.5 -11.5q4 -6 4 -11q0 -6 -6 -10q-67 -60 -131 -86q-10 -5 -17.5 -14 t-10.5 -15.5t-7.5 -21.5t-7.5 -22q-17 -44 -29 -71t-33.5 -67.5t-48.5 -68.5t-59 -43q-13 -6 -29 -6q-28 0 -65 18q-22 11 -35 33.5t-10 46.5q2 20 11.5 49t20.5 43q71 82 127 117q7 5 24.5 15.5t24.5 16t17 16t13.5 23t2.5 29.5q-2 66 -16 144q-3 18 -12 30q-7 12 -12.5 16 t-11.5 1t-15 -13q-36 -41 -51 -58.5t-40 -54t-38 -69.5q-6 -20 -17.5 -40.5t-27.5 -45t-23 -37.5q-63 -117 -76 -141q-33 -69 -75 -78q-30 -7 -58 12.5t-39 51.5q-9 24 -12 59q-2 23 -2 42v19zM385 47q2 -20 12 -20q6 0 15 6q35 25 52.5 60.5t33.5 94.5q-50 -23 -74 -57 q-6 -7 -16.5 -30t-20.5 -33q-2 -2 -2 -21z" />
<glyph unicode="c" horiz-adv-x="567" d="M0 296v18q0 44 10 98q12 66 24.5 110.5t33.5 106.5q25 51 120 196q18 26 27 37.5t31 25.5q16 10 33 10q6 0 12 -1q82 -17 149.5 -58.5t94.5 -107.5q9 -23 14 -49q3 -14 3 -30q0 -12 -2 -25q-4 -29 -22 -43q-14 -10 -29 -10t-33 10q-34 20 -52 57q-11 22 -11 40q0 13 5 24 q-40 -77 -46 -93t-16 -50t-16 -50q-5 -19 -26.5 -77.5t-27.5 -92.5q-5 -27 0 -57t20.5 -73t18.5 -54q17 -43 45 -43q17 2 41 22q15 15 47 36t58 28q26 6 37 -8q3 -4 3 -10q0 -32 -89 -111q-77 -69 -146 -72h-13q-55 0 -110 22q-62 26 -104 70q-40 42 -61 98t-23 106z" />
<glyph unicode="d" horiz-adv-x="753" d="M6 343q18 91 80 153q52 54 141 85q48 17 90 17q35 0 64 -12q5 -2 19 -14t22 -11q11 0 17 9t9.5 27.5t4.5 20.5q14 55 35.5 173t37.5 180q32 119 84 119q19 0 41 -15q59 -35 72 -78q5 -19 7 -41q1 -14 0 -31v-27q-1 -36 -1 -42v-59q0 -114 -6 -228q-4 -60 -13.5 -123 t-27 -149t-23.5 -121q-4 -28 -20.5 -82.5t-20.5 -81.5q-2 -11 -4.5 -34t-4.5 -35.5t-10 -29.5t-21 -30q-26 -27 -65 -33q-10 -2 -20 -2q-28 0 -53 13q-48 26 -65 86q0 2 -3 9.5t-5 15t-4.5 18t-4 19t-1.5 16.5t2.5 13.5t7.5 6.5q-86 -21 -123 -21h-3q-39 1 -79 17 q-96 41 -137 133q-24 52 -24 111q-1 28 5 58zM27 358l2 -2v2h-2zM156 236q0 -51 18 -86q15 -22 31 -33q23 -15 41 -15q42 0 106 43q7 5 11.5 8.5t7 9.5t3 9t1.5 13.5t2 15.5q1 12 1 35.5t0.5 38.5t3 34.5t7.5 34.5q2 9 13 29.5t12 27.5t1 13q-1 32 -21 62q-24 35 -60 34h-2 q-49 -3 -96 -57q-80 -93 -80 -217z" />
<glyph unicode="e" horiz-adv-x="626" d="M0 250q-1 8 -1 16q0 74 40 187q48 124 135 278q7 12 21.5 42t28 52.5t28.5 36.5q14 12 28 14q4 1 9 1q9 1 17 -3q10 -4 25 -12t25 -10t18.5 -7.5t17.5 -14.5t14 -13q8 -7 17 -11.5t22 -8.5t18 -6q63 -28 86 -95q12 -34 12 -69q0 -43 -18 -88q-13 -37 -40 -74t-57 -53 q-8 -4 -35 -14t-39.5 -21t-19.5 -33q-26 -84 -26 -137q1 -8 -2 -38.5t-10 -59t-15 -27.5q15 -1 31 3t32.5 13.5t29.5 18t31 24t27 24t26.5 25.5t21.5 21q6 6 17.5 19t19.5 20.5t18.5 14.5t23 6t25.5 -9q9 -5 9 -14q0 -8 -7 -19q-54 -105 -150 -173q-80 -56 -169 -56 q-18 0 -37 2q-96 12 -169 82.5t-79 165.5zM384 534q-1 -4 0 -8q0 -6 1 -10q2 -8 10 -12q2 1 6.5 3t6.5 3q4 2 12 10q36 53 36 111q0 31 -10 65q-3 17 -20 17q-5 -27 -8 -31q0 -9 -7 -29.5t-8 -31.5q-4 -52 -18 -72q1 -5 -1 -15z" />
<glyph unicode="f" horiz-adv-x="702" d="M0 -264q0 55 8 125t14 105.5t24.5 132t21.5 110.5q50 287 112 489q4 16 -8.5 31t-34 30t-28.5 23q-9 10 -7 17q2 6 15 10q18 4 47.5 -7t44.5 -9q42 149 133 307q23 43 80 96q15 15 35 15q10 0 20 -3q33 -13 58 -30q27 -15 8 -45q-16 -22 -47 -109.5t-46 -164.5 q-4 -24 -4 -41q0 -38 23 -44h162q1 0 15.5 -2t21.5 -4l2 -2q16 -10 16 -24q0 -16 -18 -25q-12 -4 -25 -4q-47 -8 -85 -8h-15q-9 0 -26.5 3.5t-31.5 3.5t-24 -7q-2 -30 -5 -126.5t-9 -160.5t-19 -127q-48 -216 -141 -400q-42 -83 -86 -124q-23 -20 -90 -44q-47 -16 -74 -16 q-36 0 -37 29z" />
<glyph unicode="g" horiz-adv-x="727" d="M4 -440q-5 20 -5 41q0 56 39 121q54 89 126 141q25 17 74 33q16 6 22 -5q11 -14 -4 -26q-11 -11 -35 -31q-57 -42 -63 -108q-1 -7 -3 -15t-5.5 -16.5t-4.5 -13.5q-6 -24 -6 -29q-5 -32 15 -39q6 1 9 -0.5t7 4t5 7.5t3.5 9t3.5 9q41 85 92 235q37 117 97 326 q-15 -2 -30 -2q-85 0 -159 57q-80 64 -80 157v13q5 98 99 207q38 42 61 53q20 10 42.5 10t47.5 -10q4 -1 26 -10t42.5 -18.5t19.5 -10.5q8 8 19.5 21.5t17.5 20t19.5 12t31.5 6.5h3q17 0 34 -9q19 -10 28.5 -18.5t29.5 -28.5q47 -54 67 -112q23 -56 29 -119q2 -25 2 -51 q0 -31 -3 -65q-6 -60 -19 -133t-17 -114q-3 -23 -10.5 -49t-20 -61t-16.5 -49q-24 -90 -68 -150q-89 -122 -133 -168q-100 -100 -198 -123q-34 -9 -65 -9q-38 0 -73 13q-34 12 -59.5 38t-34.5 59zM218 338q13 -35 63 -43q15 -4 31 -4q11 0 22 2q37 0 51 14q7 6 11 15.5 t5.5 17t2.5 20.5t2 19q3 13 11 36t11 36q3 25 3 56t-17 55q-15 21 -39 21q-4 0 -8 -1q-20 0 -52 -23q-25 -21 -51.5 -60t-43.5 -82q-9 -24 -9 -45q0 -18 7 -34z" />
<glyph unicode="h" horiz-adv-x="966" d="M-1 89q0 13 4 40.5t5 36.5q3 28 8.5 84.5t8.5 83.5q40 216 90 575q11 91 32 289q5 74 31 96q12 9 24 10h6q10 0 24 -2q17 -4 26 -4q18 -1 31.5 -7t36 -23.5t24.5 -18.5q39 -28 62 -75q23 -48 29 -106q6 -54 6 -96q-1 -4 -1 -8q0 -46 -6 -102q-2 -31 -10 -98 q-6 -68 -10 -120q-2 -33 -3 -64q0 -18 1 -35q-4 -15 -1 -21t9 -5t10 5q52 25 80 27h12q42 0 68 -25q22 -25 22 -75q0 -14 -2 -31q-6 -80 -28 -225t-27 -193q-3 -25 6 -24q7 1 32 27l9 9q139 148 285 260q32 25 63 39q8 5 23 9q3 0 8.5 -11t7.5 -18q0 -6 -4 -14 q-10 -8 -31 -30.5t-36 -31.5q-16 -11 -46 -36.5t-34 -28.5q-78 -59 -137 -140q-25 -32 -34.5 -44t-31 -33t-43.5 -35q-33 -21 -69.5 -21t-67.5 21q-28 21 -34 58q-3 17 -3 34q0 19 4 37q14 119 29 204q3 24 13.5 68.5t12.5 56.5v2q10 50 10 77q0 33 -15 33h-3q-7 -2 -16 -9 q-7 -5 -21 -29q-8 -15 -71.5 -130t-96.5 -175q-4 -7 -18.5 -38.5t-26.5 -47.5q-30 -35 -104 -39q-9 -1 -18 -1q-42 0 -72 24q-17 13 -24.5 32t-7.5 32z" />
<glyph unicode="i" horiz-adv-x="579" d="M0 98q-1 7 -1 16q0 20 5 50q7 42 8 47q7 66 39 274q15 93 37 193q2 7 5 27.5t5.5 28t8.5 19.5t17.5 16.5t29.5 4.5q80 -3 139 -47q34 -25 55 -53.5t27.5 -62.5t7.5 -63v-5q0 -27 -9 -65q-10 -41 -18 -66.5t-24 -69.5q-19 -49 -56 -121l-24 -62q-10 -30 -4 -28h6 q20 18 64.5 47.5t64.5 46.5q5 0 17.5 9t30 22t30.5 20q4 6 15 13t28 16t22 12q5 0 9 2.5t11 9t9 7.5q11 9 23 11t20 -5q5 -5 5 -13q0 -3 -1 -7q-3 -11 -16 -24.5t-34 -29t-24 -18.5q-77 -71 -170 -139q-93 -71 -170 -88q-22 -7 -49 -7q-17 0 -39 4q-52 8 -80 37 q-17 17 -20 41zM168 919q2 32 2 37q-1 18 -1 33q0 46 9 70q2 5 6.5 17t8.5 20t10 14q21 24 61 28q7 1 15 0q31 0 55 -14q27 -16 49 -63q10 -22 18 -44t16 -50.5t8 -53.5t-5 -48t-23 -39.5t-47 -22.5q-14 -3 -29 -3q-43 0 -94 21q-36 14 -47 31q-8 11 -12 29q-2 3 -2 14 q1 9 2 24z" />
<glyph unicode="j" horiz-adv-x="739" d="M0 -483v16q0 65 30 134q33 77 87 134q97 100 202 154q16 45 23 100q4 39 10 56q5 19 8 39t4.5 49t2.5 39q10 117 10 141q4 28 8 84q2 26 4.5 74.5t5.5 87.5t8 73q7 42 29 68q18 23 50 23q5 0 10 -1q44 -4 75 -26t60 -62q62 -83 75 -147q0 -6 3 -12q5 -34 5 -91 q0 -29 -1 -63q-3 -109 -19 -188q-8 -53 -35 -115q-19 -45 -58 -157.5t-76.5 -190t-90.5 -139.5q-36 -43 -61.5 -69.5t-63 -57.5t-78.5 -48.5t-86 -21.5q-11 -1 -21 -1q-30 0 -52 7q-29 13 -47 44t-21 67zM106 -432v-13q0 -47 25 -61q10 -5 18 -5q16 0 30 16q22 26 28 57 q26 108 47 178q9 22 20 65q2 2 2 7q17 40 17 45q-76 -34 -127.5 -117.5t-59.5 -171.5zM415 1012q2 27 11 53q14 38 23 47q24 27 51 27h6q6 0 18.5 -1t18.5 -1h3q33 0 56 -37q6 -10 31 -60q26 -75 31 -108q2 -11 2 -21q0 -42 -32 -72q-27 -26 -66 -26q-15 0 -33 4 q-28 5 -37 14q-11 5 -29 9q-23 5 -37.5 18.5t-13.5 34.5q0 13 -2 53q-2 21 -2 40q0 14 1 26z" />
<glyph unicode="k" horiz-adv-x="593" d="M0 117q2 40 4.5 66t9.5 75t9 70q16 139 40 417q17 193 25 334q0 8 -1 77v15q0 59 7 97q8 43 33 63q27 21 73 25q12 1 24 1q33 -1 65 -9q43 -12 80.5 -36t50.5 -55q9 -23 9 -68q0 -15 -1 -32q-3 -125 -18 -248q-14 -103 -29 -172q-3 -9 -7 -23.5t-8.5 -36.5t-2.5 -36 t12 -12q4 1 10.5 2t9.5 2q12 8 44 26t54.5 32.5t41.5 31.5q4 -1 10.5 1.5t10.5 3t9 -4.5q6 -6 6 -14q1 -3 -1 -9q-4 -14 -10 -24t-20 -24t-24 -22t-24 -19t-19 -15q-79 -75 -108 -109q-21 -21 -33 -38q16 -11 31 -23.5t32 -30t25.5 -26.5t29 -33t25.5 -29q2 -2 14 -15.5 t17.5 -20.5t17 -21.5t16.5 -24.5t10 -23t4 -24.5t-7 -21.5q-7 -10 -16.5 -14.5t-21 -2.5t-23 6t-25.5 13t-25.5 17t-25 20t-21.5 19.5t-18.5 17.5t-12.5 12q-4 5 -52 54q-47 48 -48 48q-9 0 -40 -137q-22 -96 -48 -143q-33 -59 -55 -76q-11 -9 -33.5 -18t-32.5 -15 q-5 -3 -9 -3q-10 0 -17 19q-12 34 -18 69q-5 28 -5 59v16zM328 440q4 0 8 2q-2 0 -4.5 -1t-3.5 -1z" />
<glyph unicode="l" horiz-adv-x="622" d="M0 295q1 27 5.5 60.5t8.5 53.5t13 62.5t12 54.5q44 199 63 428q9 162 9 217q1 34 3.5 61t12.5 58.5t25.5 51.5t43.5 31q18 7 42 7q12 0 26 -2q46 -6 82.5 -41.5t52.5 -83.5q18 -51 19 -116v-15q0 -56 -6 -96q-8 -46 -25 -123.5t-22 -109.5q-49 -282 -62 -508 q-1 -21 -1 -39q0 -44 7 -68q8 -27 27 -47.5t45 -26.5q10 -2 20 -2q35 0 72 29q17 16 47 54.5t53 56.5q6 3 11 8q7 -1 10 -1.5t8 -3t6.5 -7t1.5 -11.5q1 -4 1 -9q0 -19 -11 -36q-73 -121 -213 -164q-55 -19 -107 -19q-66 0 -130 30q-74 36 -114 109q-37 68 -36 145v12z" />
<glyph unicode="m" horiz-adv-x="1009" d="M0 209q0 74 35 221t35 219q3 19 7 76t13.5 96.5t30.5 69.5q27 35 63 35q10 0 22 -4q50 -14 93.5 -48t67.5 -73q46 -72 46 -150q0 -13 -1 -26q-1 -7 -6.5 -21.5t-11 -26.5t-5 -25.5t9.5 -21.5q8 -6 29.5 3.5t46.5 24.5t35 17q20 6 37 6q39 0 67 -28q27 -27 27 -74 q0 -18 -4.5 -58.5t-2.5 -62.5q0 -13 6 -16.5t17 4.5q66 42 76 51q15 12 46 35t46 35q18 13 47 20q17 5 32 5q63 0 69 -96q1 -15 1 -30q0 -75 -28 -161q-5 -15 -10 -25q-20 -44 -21 -57q-4 -34 21 -53q7 -4 16.5 -6.5t22 -4t18.5 -2.5q5 0 13 -4q-3 -12 -15 -28t-24 -23 q-16 -2 -30 -2q-57 0 -98 28q-51 35 -55 113q-1 11 -1 23q-1 37 9 81q12 57 35 103q-76 -79 -165 -94q-22 -4 -42 -4q-49 0 -83 24q-16 11 -26.5 24t-15 33.5t-6 29t-2 38t-0.5 33.5q1 -4 -15 -24t-34.5 -42.5t-21.5 -29.5q-7 -14 -20 -42t-24 -49.5t-24 -39.5 q-54 -72 -123 -88q-22 -6 -92 -6q-57 5 -74 10q-26 11 -42.5 35t-16.5 53z" />
<glyph unicode="n" horiz-adv-x="874" d="M0 160v10q0 33 6 61q8 58 24.5 172t24.5 172q2 11 4.5 41t5.5 47t13 38.5t26 33.5q31 18 67 18q14 0 29 -3q52 -10 87 -43q57 -52 75 -152q4 -28 0 -60q-2 -22 -2 -47v-22q2 -37 15 -53q28 18 91.5 76t108.5 77q26 14 53 14l49 -12q51 -25 54 -88v-11q0 -34 -10 -76 q-12 -49 -31.5 -107.5t-25.5 -85.5q-10 -44 10 -56q18 -8 43 9q15 8 42 23.5t49.5 27t43.5 18.5q32 14 53 4q8 -5 8 -14q1 -24 -65 -73q-88 -67 -129 -83q-45 -16 -80 -16h-8q-52 4 -78 37q-23 28 -23 88q0 18 2 39q2 22 10 74q6 51 8 75q0 8 1 19q0 21 -2 53 q1 -5 -16.5 -32.5t-40 -60t-25.5 -38.5q-37 -61 -88 -115q-99 -116 -220 -116q-15 0 -30 2q-37 5 -68 22.5t-45 46.5q-15 27 -16 66zM541 53z" />
<glyph unicode="o" horiz-adv-x="819" d="M-10 262q5 105 82 234q73 126 114 174q56 67 109 84q25 8 51 8q40 0 82 -20q68 -32 88 -97q4 -12 6 -24t1 -26.5t-1.5 -22.5t-3.5 -26l-4 -24q-2 -7 -0.5 -12.5t1.5 -9t3.5 -6t5.5 -4t7.5 -2t9 -0.5t10 -0.5t10.5 -0.5q53 -6 94 -32q25 -14 47 -43q8 -8 15 -25 q0 -5 3 -16t7 -11q5 0 25 7t38 13t21 3q4 -4 10 -4q5 0 10 -8q2 -6 1.5 -11.5t-1.5 -9.5q-6 -16 -38 -39q-10 -9 -54 -43q-32 -22 -41 -24q-3 -2 -12.5 -4.5t-15.5 -8.5q-21 -18 -53.5 -65.5t-55.5 -67.5q-73 -60 -151 -80q-60 -18 -124 -18q-42 0 -87 8l-4 2h-5 q-93 9 -149 83q-51 68 -51 154v15zM313 83q0 -4 9 -17q11 -1 21 -1q13 -1 24 1q21 2 41.5 12t34.5 17.5t34 26.5t29 28.5t32 34.5t31 34q-36 -6 -67 -6q-63 0 -107 25q-1 0 -3 -1t-3 -1q-21 -23 -41 -77zM479 336q-4 -12 -4 -21q0 -32 47 -32q20 0 60 4q-1 23 -15 62.5 t-16 45.5q-3 1 -9 5t-8 4h-1q-2 0 -7 -3q-39 -39 -47 -65z" />
<glyph unicode="p" horiz-adv-x="712" d="M0 -353.5q0 10.5 2.5 35.5l3.5 35q0 65 12 187q5 47 23.5 172t24.5 194q6 70 6 177t-6 251q0 27 -1.5 51.5t9.5 48.5t35 38q23 14 51 14q33 0 73 -19q15 -8 48.5 -28t52.5 -29q4 -2 14 -6t16 -6.5t13.5 -7t13.5 -9.5q33 -23 33 -73q1 -14 -2.5 -37.5t-4.5 -37t8.5 -26 t33.5 -16.5q19 -2 56 3.5t56 2.5q14 0 29 -6q49 -14 74 -45q35 -41 35 -96q0 -61 -35 -109q-36 -55 -104 -101q-45 -31 -85 -31q-19 0 -36 7q0 -11 -10.5 -33.5t-12.5 -31.5l-18 -99q-23 -103 -48 -188q-18 -68 -49 -156q-27 -78 -41 -90q-5 -3 -8 -8q-30 -27 -80 -34 q-20 -4 -38 -4q-27 0 -50 7l-22 11q-22 11 -45 27.5t-25 29.5q-2 25 -2 35.5zM434 297q8 -10 23 -14t29 -4q20 0 38 7q34 13 51 44q9 12 9 35v9q0 43 -26 75q-15 17 -32.5 17t-36.5 -17q-8 -8 -28 -48q-20 -45 -23 -53q-10 -19 -10 -33q0 -10 6 -18z" />
<glyph unicode="q" horiz-adv-x="905" d="M0 369q2 13 5.5 25.5t9.5 25.5t10 22t13.5 23.5t13.5 20.5t15.5 23t14.5 21q26 43 52 67.5t65 29.5q11 1 23 1q30 0 64 -8q46 -13 76 -38q19 -19 33 -19q7 0 12 2.5t11 8.5t10 8q14 9 44 9q23 0 54 -5q55 -10 82 -47q19 -27 27 -86q3 -32 3 -63q0 -39 -5 -75 q-4 -42 -8 -67q0 -2 -3 -21l-4 -30q29 23 93 63t94 62q9 6 37 29t43 30q24 10 37 0q5 -7 5 -15q0 -4 -1 -8q-4 -20 -15.5 -39.5t-32.5 -38t-36 -30t-42.5 -30t-35.5 -23.5q-7 -7 -56.5 -36t-50.5 -20q1 -4 -8 -30q61 -20 90 -70q24 -43 27 -94q1 -12 1 -24q0 -88 -40 -167 q-4 -7 -15 -27.5t-17 -29.5t-16.5 -23.5t-22 -24.5t-25.5 -18q-50 -29 -115 -32q-40 0 -82 11.5t-65 35.5q-43 46 -47 131q0 118 8 211q6 64 18 129q6 16 3 36.5t-25 16.5q-2 0 -4 -2q-38 -24 -115 -24q-11 0 -23 1q-71 6 -133 39q-1 -1 -4 5q-25 41 -41 112q-7 31 -7 53 q0 7 1 13zM145 328q-1 -14 -1 -26q0 -52 28 -75q18 -16 43 -16q15 0 33 6q21 6 40.5 19t43 33t33.5 28q-2 2 -10 7t-11 7t-8.5 7t-8 10t-3.5 12q-2 8 -3 22.5t-2 18.5q-4 18 -8 27q-2 5 -6 14t-6 14q-3 8 -8.5 31.5t-11.5 34.5q-14 24 -35 26q-2 1 -3 1q-18 0 -32 -21 q-51 -81 -64 -180zM572 -150v-15q0 -14 1 -23q1 -15 3 -34.5t6 -35.5q-2 2 -9 2q9 -3 19 0q2 8 22 43q10 13 17 25q14 23 26 77q2 8 2 16q0 11 -5 21q-7 17 -17 25.5t-29 21.5q-1 2 -10 11q-20 -7 -20 -27q0 -5 -2 -33.5t-2.5 -38.5t-1.5 -35z" />
<glyph unicode="r" horiz-adv-x="649" d="M0 132l2 30v127q0 125 6 254q5 93 19 227q0 4 1 22t2 26t4 20.5t9 21.5q6 12 27 26q13 8 22 8q5 0 10 -3q7 -4 11 0q12 -3 38.5 -6t44.5 -9t35 -20q38 -33 58 -90q8 -21 20 -62t15 -49l2 -6q2 -6 4 -13t5 -15.5t6.5 -16t6.5 -14t6.5 -9.5t5.5 -1q4 4 12.5 9t12.5 9 q5 4 14.5 13.5t14.5 13.5q30 27 61 43q13 7 60 26q5 2 15 6.5t15 6.5q23 7 23 8l2 2q34 9 47 -4l-2 2q3 -22 -15 -49t-47 -50q-32 -27 -50 -43.5t-41 -44t-36 -55.5q-13 -32 -46.5 -103.5t-49.5 -111.5q-19 -47 -27 -66.5t-29.5 -52t-47.5 -51.5q-15 -10 -19.5 -34t-9.5 -31 q-8 -16 -21 -19.5t-38 -3.5q-93 0 -150 57q-6 6 -8 26q-1 12 0 27v22z" />
<glyph unicode="s" horiz-adv-x="550" d="M0 115q1 8 6.5 23.5t5.5 17.5q3 6 8.5 19.5t8.5 19.5q42 92 141 155q33 20 34 44.5t-20 56.5q-10 18 -29.5 52t-29.5 52q-6 10 -27.5 40.5t-29.5 49.5q-16 38 -16 73q0 39 20 75q9 20 26 34t31 20t41 15q79 30 138 30q70 0 112 -42q26 -23 34 -57q4 -17 4 -33 q0 -17 -5 -35q-1 -5 -17 -47q-5 -17 3 -33t26 -36t24 -29q36 -58 48 -123q4 -28 4 -43v-14q0 -77 -31 -144q-7 -17 -25 -47.5t-24 -44.5q-26 -50 -51 -72q-49 -44 -148 -74q-51 -18 -97 -18q-61 0 -112 31q-54 28 -54 72q0 6 1 12zM120 180q-3 -11 -3 -21q0 -22 12 -44 q11 -21 27 -25q3 -1 6 0q13 0 26 14q56 56 62 132q0 32 -10.5 39.5t-36.5 -11.5q-7 -5 -22.5 -14t-22.5 -14q-30 -22 -38 -56zM272 782q1 -2 5 -12.5t6 -15.5q21 -21 26 -25q2 -1 8.5 -7.5t10.5 -9.5q2 -2 8 -5q4 -2 9 -2h3q6 1 10 6q8 7 8 19q0 16 -14 40q-16 32 -47 41 q-10 3 -16 3t-9 -3q-6 -6 -8 -29z" />
<glyph unicode="t" horiz-adv-x="800" d="M0 891q0 5 4 8q4 4 11.5 6.5t15 4t16.5 3t12 2.5q13 3 52.5 3.5t54.5 7.5q12 5 17 16t5.5 31t1.5 24q10 48 48 72q32 22 75 22q19 0 39 -4q63 -17 123 -92q51 -77 55 -77q15 2 52.5 10t58.5 8h7q32 0 122 -8q17 0 25 -8q5 -4 5 -10q0 -8 -9 -19q-15 -19 -35 -25 q-21 -7 -94 -16q-3 0 -34.5 -3t-45.5 -9l-6 -4q-33 -22 -33 -9q0 -6 -2 -10q4 -6 4 -18q-5 -45 -5 -84q0 -17 1 -32q1 -22 1 -47q0 -33 -2 -69q-4 -64 -22 -112q-5 -12 -22 -51t-26.5 -65t-14.5 -54q-3 -17 -6.5 -51.5t-6.5 -51.5q-2 -8 -6 -25t-6 -25t-2 -21.5t4 -26.5 q7 -30 27 -41q29 -16 47 2q3 2 18 27q9 12 20 15t21 -9q9 -16 -12 -53q-25 -55 -80 -80q-36 -18 -79 -18h-5q-46 1 -82 22q-4 2 -21 17t-32.5 29t-17.5 13q-2 0 -17.5 29t-32 70.5t-16.5 66.5q0 18 1 55t1 56q4 140 4 213q1 30 2 88t2 88v86q7 42 -2 57q-4 7 -4 35 q-1 7 -28 6.5t-58 -6.5q-32 -4 -59 4q-29 10 -29 37z" />
<glyph unicode="u" horiz-adv-x="864" d="M0 377q19 152 25 287q4 94 4 143q1 16 -2 38t-3 32.5t8.5 23.5t28.5 25q56 30 109 30h10q32 0 62 -10q4 -1 14.5 -7t19.5 -10.5t13 -4.5q17 4 34 4l30 -3q32 -7 50 -36q16 -27 18.5 -63.5t-2 -59.5t-19 -70.5t-17.5 -58.5q-48 -195 -66 -281q-2 -7 -11.5 -39t-14.5 -55 t-2 -48t20 -34q11 -6 22 -6q46 0 95 96q119 233 135 262q6 10 17.5 35t19.5 38t21 30t30 25.5t39 9.5h3q83 0 83 -194q0 -35 -3 -77q-1 -7 -1 -10q-2 -21 -9 -63.5t-9 -63.5q-2 -26 -15 -53.5t-16 -50.5q0 -31 22 -39h2q20 0 62 37q14 14 40 24.5t44 1.5l6 -6q6 -7 6 -16 q0 -25 -51 -68q-69 -58 -109 -76q-36 -16 -65 -16q-11 0 -21 2q-59 11 -90 90q-41 107 -43 158q-13 -17 -22 -37q-62 -133 -199 -147q-26 -2 -50 -2q-35 0 -64 4q-48 8 -87 41q-27 23 -45.5 58.5t-25.5 63.5t-16.5 76.5t-14.5 69.5z" />
<glyph unicode="v" horiz-adv-x="823" d="M0 700q0 32 18 50q6 5 22.5 7.5t22.5 6.5q8 3 19.5 13.5t15.5 13.5q42 26 99 26q101 -4 151 -39q19 -13 39 -63q27 -66 27 -156v-55q0 -11 -1 -22q-1 -30 1 -51q2 -28 10.5 -62.5t24.5 -51.5q10 4 28 27.5t19 24.5q38 48 51 69q42 73 63 150q36 118 54 291q0 3 3 63.5 t13 99t31 45.5q10 4 20 4q28 -1 49 -33q29 -44 29 -83v-24q1 -20 1 -47q2 -45 1 -58q0 -85 -12 -144q-28 -129 -101 -262q-68 -128 -198 -290l-27.5 -38.5t-39 -50t-34.5 -28.5q-16 -9 -36.5 -13.5t-35 -4.5t-39.5 1.5t-36 1.5h-12q-11 0 -42 18t-40 27q-10 9 -17 25 t-10 28.5t-6.5 34t-5.5 29.5q-12 53 -36.5 161t-37.5 161q-4 20 -17 61t-20.5 75t-7.5 62z" />
<glyph unicode="w" horiz-adv-x="880" d="M0 518q0 26 1 78t1 78v36.5t1 36.5t8 34.5t20 31.5q34 36 94 36q10 0 20 -1q62 -7 118 -45.5t69 -95.5q18 -79 24 -160q10 -83 10 -118q0 -23 -4 -26q13 8 46 37t60 41.5t58 7.5q22 -3 35 -16t17 -27.5t6 -39.5q4 -32 12 -95.5t12 -95.5q2 -16 3 -59t5.5 -77t14.5 -56 q4 -4 4 -7q18 30 35 72q7 26 7 51q0 8 -1 17q37 174 37 313q0 76 -11 141q-3 20 -16 57t-21.5 64t-6.5 56.5t22 46.5q22 15 46 15q5 0 10 -1q29 -4 55 -23q31 -24 40 -63q1 -5 11 -62q14 -99 14 -202q0 -67 -6 -136q-24 -246 -84 -382q-20 -44 -46 -72q-26 -27 -66 -38 q-11 -3 -23 -3q-29 0 -62 20q-69 38 -94 133q-1 6 -4 62.5t-11 100.5t-24 44q-1 0 -19.5 -26t-38.5 -54t-22 -30q-71 -82 -141 -92q-11 -2 -22 -2q-41 1 -85 25q-54 30 -77 79q-15 30 -15 63q-10 17 -13 43.5t-2 63t1 47.5q-2 57 -2 174z" />
<glyph unicode="x" horiz-adv-x="847" d="M2 735q-2 9 -2 18q0 37 35 62q43 31 94 33q19 1 39 1q66 0 139 -15q94 -21 167.5 -69t103.5 -126q0 2 70 52t83 57q41 23 65 23q8 0 15 -3q10 -6 10 -19q0 -8 -4 -20q-13 -45 -98 -115q-1 -1 -9 -7q-84 -64 -84 -79q0 -3 3 -4q15 -9 18 -24h2q5 -13 21 -59.5t26 -71.5 q11 -25 29.5 -72t35 -85t34.5 -71q9 -17 12.5 -35.5t4 -47.5t1.5 -40q4 -24 4 -36v-5q0 -53 -39 -53q-41 0 -125 57q-79 53 -147 117q-65 58 -107 105q-4 4 -21.5 27t-33.5 37.5t-29 13.5q-21 0 -50.5 -23.5t-64 -61t-42.5 -44.5q-14 -14 -27 -19q-19 -9 -49 8v2 q-20 12 -10 29q12 20 38 44.5t48.5 43t41.5 45.5t21 55q2 22 -10.5 45t-35.5 51t-30 38q-20 30 -58.5 91.5t-57.5 92.5q-22 30 -27 57z" />
<glyph unicode="y" horiz-adv-x="796" d="M2 741q-2 6 -2 11q0 17 17 28q22 14 50 13.5t46 -2.5q71 -17 145 -99q24 -25 58.5 -76.5t50.5 -70.5q10 -11 17.5 -17.5t12.5 -6.5t8 1.5t4.5 9.5t2 14t1 18t1.5 18q16 112 24 144q32 123 106 123q20 0 42 -9q69 -26 111.5 -58.5t68.5 -91.5q27 -61 27 -145 q-1 -19 -17 -146q-28 -166 -51 -245q-49 -167 -135 -285q-14 -20 -46 -69.5t-56 -77t-60 -54.5q-61 -42 -92 -57q-28 -13 -58.5 -20t-70 -8t-60.5 -1t-72 3.5t-61 4.5q-14 48 -14 100q0 23 3 46q9 77 46 141q42 72 117.5 125.5t155.5 65.5q30 6 49.5 54t19.5 95.5t-8 75.5 q-16 39 -83 105t-69 69q-85 99 -153 207q-7 12 -40 34.5t-36 32.5zM168 -322q7 -18 43 -32l16 16q29 41 35 84q1 6 1 14q0 16 -3 41q-1 3 -3.5 11t-4.5 13.5t-6 8.5q-6 5 -11 5q-11 0 -20 -19q-27 -53 -43 -96q-6 -19 -6 -33q0 -7 2 -13z" />
<glyph unicode="z" horiz-adv-x="1044" d="M39 41q-1 2 -1 5q0 11 12 19q14 10 32 15t33.5 14.5t15.5 22.5t-4 47.5t-2.5 57t10.5 46.5q9 23 25 44.5t28 33t38.5 33t35.5 29.5q2 2 7.5 9.5t10.5 13.5t9 7q-7 -2 -19 -2q-30 0 -89 15q-96 25 -96 55q0 10 9 18q2 2 6 6.5t6 6.5q3 3 10.5 5t18 3t18.5 1t18.5 -0.5 t12.5 -0.5q17 1 44 0t59 0.5t43 5.5q7 4 14 13.5t14.5 22.5t10.5 17q12 18 45 55q14 15 39 41t41.5 43.5t15.5 16.5q-4 -2 -60 -4h-18q-50 0 -114 8q-74 8 -107 29q-4 5 -11.5 12.5t-10.5 12t-3 13t7 19.5q6 9 18.5 15.5t22 9t29 6t22.5 4.5q39 8 116 12q19 1 42 0 q107 0 297 -11q230 -14 276 -44q13 -8 20 -25q4 -6 5 -19t1 -14q-10 5 -22.5 -7t-27 -36.5t-15.5 -25.5q-42 -48 -80 -84q-60 -52 -94 -76q-8 -5 -24.5 -15.5t-24.5 -15.5q-2 -1 -13.5 -9t-20.5 -13t-13 -4q3 0 29 -2t37 -4t27.5 -10t24.5 -21q16 -26 2 -47.5t-43 -24.5 l-114 -3q-12 0 -11 1q-5 -22 -20.5 -45.5t-39.5 -51.5t-32 -40q-7 -9 -21.5 -32.5t-26.5 -38.5t-27 -27l2 -2q11 -8 42 -8q18 0 42 3q7 0 21.5 1t21.5 1q39 4 80 4q20 0 40 -1q26 -1 45.5 -3.5t50 -9.5t45.5 -24.5t9 -42.5q-2 -10 -8 -14t-18 -5t-15 -2q-10 -2 -24 -2 q-18 -1 -44 3q-46 6 -59 7q-96 0 -143 -2q-156 -10 -291 -32l-27.5 -5.5t-40.5 -7.5q-18 -2 -45 -6q-24 -3 -43 -4h-5q-21 0 -41 3.5t-32.5 13t-15.5 24.5z" />
<glyph unicode="{" horiz-adv-x="759" d="M103.5 708q1.5 17 15.5 21q60 17 110.5 66.5t67.5 109.5q6 19 9 43t4 37t2 46.5t1 39.5q8 107 54 156q26 29 65 40.5t76 2.5q32 -9 64.5 -34.5t35.5 -53.5q3 -23 -17 -34t-46 -9t-47 4q-25 4 -37 -10t-12 -40t3.5 -51t9.5 -53t7 -35q11 -52 7.5 -119.5t-30.5 -113.5 q-21 -38 11 -57q47 -31 80 -74t32 -88q-2 -100 -26 -287q-1 -6 -7 -38t-9.5 -60t-3.5 -58.5t11.5 -47t34.5 -13.5q38 4 54 -10q25 -12 34.5 -26.5t-0.5 -27.5t-39 -22q-73 -24 -151 6q-89 35 -160 123q-80 100 -108 228t4 253q1 3 2 11t2 12q12 46 7.5 57.5t-44.5 34.5 q-4 3 -14.5 8.5t-16.5 9t-13.5 10t-12.5 13.5q-11 13 -9.5 30z" />
<glyph unicode="}" horiz-adv-x="772" d="M102 1228.5q0 21.5 43 35.5q77 21 154 -7q92 -36 158 -122q80 -100 108.5 -228.5t-2.5 -253.5q-1 -4 -2 -11t-2 -11q-13 -46 -8.5 -57.5t45.5 -34.5q4 -3 14.5 -8.5t16.5 -9t13.5 -10t12.5 -13.5q11 -13 9 -30.5t-17 -21.5q-60 -17 -110.5 -67t-67.5 -111q-7 -24 -10 -50 t-4 -62.5t-2 -51.5q-4 -101 -52 -155q-26 -29 -65 -40.5t-78 -2.5q-31 9 -63.5 34t-36.5 52q-2 24 18.5 35.5t45.5 9.5t46 -4q25 -4 38 9.5t13 40.5t-3.5 50.5t-10.5 53t-8 34.5q-11 51 -8 120t30 114q21 38 -10 57q-47 31 -80 74t-32 88q3 71 26 287q1 6 7 37.5t9.5 60 t4 59t-11 47t-35.5 13.5q-38 -4 -52 10q-41 19 -41 40.5z" />
<glyph unicode="~" horiz-adv-x="892" d="M103 407.5q3 25.5 13.5 53.5t18.5 39q40 51 115 55q21 1 43 -1.5t50.5 -7.5t41.5 -7q52 -7 94 -23q9 -3 25.5 -10.5t30.5 -12.5t28 -8q93 -23 178 0q3 0 16.5 4.5t20.5 5.5t17 -3q16 -9 4 -41q-12 -16 -19 -23q-23 -21 -73 -33q-176 -35 -281 6q-4 2 -23.5 11.5 t-31.5 11.5q-47 8 -68 10q-41 4 -65 -6q-14 -5 -37 -20q-58 -35 -84 -31q-17 5 -14 30.5z" />
<glyph unicode="&#xad;" d="M102 465q-1 13 4 22q2 13 37 13q30 0 88 1t86 1q229 30 441 14q42 3 71 -6h11q44 0 57 -8q20 0 25 -8q49 0 77 -9q25 -11 26.5 -22.5t-21.5 -22.5q-10 -5 -35 -20q-16 -9 -34.5 -14.5t-51 -12t-39.5 -8.5q-12 -4 -25.5 -6t-31.5 -3.5t-27 -2.5q-87 -15 -105 -19 q-155 -28 -272 -20q-12 3 -21 6q-90 -5 -161 49q-13 5 -49 31q-8 0 -11 6q-22 7 -22 18q-16 8 -17 21z" />
<glyph unicode="&#x2000;" horiz-adv-x="772" />
<glyph unicode="&#x2001;" horiz-adv-x="1545" />
<glyph unicode="&#x2002;" horiz-adv-x="772" />
<glyph unicode="&#x2003;" horiz-adv-x="1545" />
<glyph unicode="&#x2004;" horiz-adv-x="515" />
<glyph unicode="&#x2005;" horiz-adv-x="386" />
<glyph unicode="&#x2006;" horiz-adv-x="257" />
<glyph unicode="&#x2007;" horiz-adv-x="257" />
<glyph unicode="&#x2008;" horiz-adv-x="193" />
<glyph unicode="&#x2009;" horiz-adv-x="309" />
<glyph unicode="&#x200a;" horiz-adv-x="85" />
<glyph unicode="&#x2010;" d="M102 465q-1 13 4 22q2 13 37 13q30 0 88 1t86 1q229 30 441 14q42 3 71 -6h11q44 0 57 -8q20 0 25 -8q49 0 77 -9q25 -11 26.5 -22.5t-21.5 -22.5q-10 -5 -35 -20q-16 -9 -34.5 -14.5t-51 -12t-39.5 -8.5q-12 -4 -25.5 -6t-31.5 -3.5t-27 -2.5q-87 -15 -105 -19 q-155 -28 -272 -20q-12 3 -21 6q-90 -5 -161 49q-13 5 -49 31q-8 0 -11 6q-22 7 -22 18q-16 8 -17 21z" />
<glyph unicode="&#x2011;" d="M102 465q-1 13 4 22q2 13 37 13q30 0 88 1t86 1q229 30 441 14q42 3 71 -6h11q44 0 57 -8q20 0 25 -8q49 0 77 -9q25 -11 26.5 -22.5t-21.5 -22.5q-10 -5 -35 -20q-16 -9 -34.5 -14.5t-51 -12t-39.5 -8.5q-12 -4 -25.5 -6t-31.5 -3.5t-27 -2.5q-87 -15 -105 -19 q-155 -28 -272 -20q-12 3 -21 6q-90 -5 -161 49q-13 5 -49 31q-8 0 -11 6q-22 7 -22 18q-16 8 -17 21z" />
<glyph unicode="&#x2012;" d="M102 465q-1 13 4 22q2 13 37 13q30 0 88 1t86 1q229 30 441 14q42 3 71 -6h11q44 0 57 -8q20 0 25 -8q49 0 77 -9q25 -11 26.5 -22.5t-21.5 -22.5q-10 -5 -35 -20q-16 -9 -34.5 -14.5t-51 -12t-39.5 -8.5q-12 -4 -25.5 -6t-31.5 -3.5t-27 -2.5q-87 -15 -105 -19 q-155 -28 -272 -20q-12 3 -21 6q-90 -5 -161 49q-13 5 -49 31q-8 0 -11 6q-22 7 -22 18q-16 8 -17 21z" />
<glyph unicode="&#x2013;" horiz-adv-x="1214" d="M101 465q-1 13 5 22q2 13 41 13q33 0 97 1t96 1q253 30 488 14q47 3 79 -6h12q49 0 63 -8q23 0 28 -8q54 0 86 -9q27 -11 29 -22.5t-24 -22.5q-11 -5 -39 -20q-17 -9 -37.5 -14.5t-57 -12t-43.5 -8.5q-14 -4 -29 -6t-34.5 -3.5t-29.5 -2.5q-97 -15 -117 -19 q-172 -28 -301 -20q-14 3 -24 6q-99 -5 -178 49q-14 5 -54 31q-9 0 -13 6q-24 7 -24 18q-18 8 -19 21z" />
<glyph unicode="&#x2014;" horiz-adv-x="2238" d="M101.5 465q-2.5 13 8.5 22q5 13 82 13q67 0 195.5 1t190.5 1q508 30 978 14q93 3 157 -6h25q97 0 126 -8q44 0 55 -8q109 0 171 -9q55 -11 58.5 -22.5t-47.5 -22.5q-22 -5 -77 -20q-36 -9 -77 -14.5t-113 -12t-88 -8.5q-26 -4 -56 -6t-70 -3.5t-60 -2.5 q-193 -15 -233 -19q-343 -28 -603 -20q-26 3 -46 6q-200 -5 -357 49q-29 5 -109 31q-18 0 -24 6q-49 7 -49 18q-35 8 -37.5 21z" />
<glyph unicode="&#x202f;" horiz-adv-x="309" />
<glyph unicode="&#x205f;" horiz-adv-x="386" />
<glyph unicode="&#x25fc;" horiz-adv-x="849" d="M0 0v850h850v-850h-850z" />
</font>
</defs>
</svg>
