<?xml version="1.0" standalone="no"?>
<!DOCTYPE svg PUBLIC "-//W3C//DTD SVG 1.1//EN" "http://www.w3.org/Graphics/SVG/1.1/DTD/svg11.dtd" >
<svg>
<metadata>
Created by FontForge 20090622 at Tue May 10 19:51:12 2016
 By deploy user
Copyright (c) 2016 by Ferdiansyah_ijemrockart. All rights reserved.
</metadata>
<defs>
<font id="HustyBrush" horiz-adv-x="344" >
  <font-face 
    font-family="Husty Brush"
    font-weight="400"
    font-stretch="normal"
    units-per-em="1000"
    panose-1="2 0 5 5 0 0 0 2 0 4"
    ascent="800"
    descent="-200"
    x-height="220"
    cap-height="695"
    bbox="-573 -412.865 1086 843.452"
    underline-thickness="50"
    underline-position="-50"
    unicode-range="U+000D-U+E03C"
  />
<missing-glyph horiz-adv-x="246" 
 />
    <glyph glyph-name=".notdef" horiz-adv-x="246" 
 />
    <glyph glyph-name=".null" horiz-adv-x="0" 
 />
    <glyph glyph-name="nonmarkingreturn" horiz-adv-x="333" 
 />
    <glyph glyph-name="NULL" horiz-adv-x="0" 
 />
    <glyph glyph-name="NULL" horiz-adv-x="0" 
 />
    <glyph glyph-name="CR" unicode="&#xd;" horiz-adv-x="246" 
 />
    <glyph glyph-name="space" unicode=" " horiz-adv-x="246" 
 />
    <glyph glyph-name="exclam" unicode="!" horiz-adv-x="287" 
d="M98 90q-4 -6 -12 -23.5t-16 -24.5l-8 8l-9 9q-2 102 40.5 183.5t122.5 162.5l35 40q0 -1 9.5 -13.5t13.5 -22t1.5 -31.5t-17.5 -48q-7 -12 -28.5 -41t-35.5 -55q-25 -46 -54.5 -86t-41.5 -58zM48 29q16 -10 18 -11.5t7 -2t15 -3.5l7 -39q-33 -28 -65 -11q-24 13 -18 36
q5 20 36 31z" />
    <glyph glyph-name="quotedbl" unicode="&#x22;" horiz-adv-x="182" 
d="M15 590l52 -3q1 -45 6 -88t7 -64l-56 -3l-5.5 15t-3.5 9.5l-2.5 6t-1.5 4.5v6.5v9.5t0.5 15.5t0.5 24.5q0 4 3 67zM107 590l52 -3q1 -45 6 -88t7 -64l-56 -3l-5.5 15t-3.5 9.5l-2.5 6t-1.5 4.5v6.5v9.5t0.5 15.5t0.5 24.5q0 4 3 67z" />
    <glyph glyph-name="numbersign" unicode="#" horiz-adv-x="487" 
d="M240 236q-16 2 -23 -4t-18.5 -30t-23.5 -42h19zM390 174q-43 -11 -62 -17.5l-35 -12.5t-23 -16t-13 -19.5t-19 -33t-28 -46.5q-9 -14 -12 -27.5t-10 -22.5q-28 16 -36.5 39t-4 39.5t15 38.5t11.5 25q-6 -1 -10 -2t-7 -2t-6.5 -4.5l-5.5 -5.5t-6 -8.5t-6.5 -11t-8.5 -14.5
t-10 -18q-8 -15 -16 -33.5t-14 -30t-13 -18.5q-18 10 -28 20t-11.5 23.5t0 24t6.5 30t7 32.5l-32 43q-2 4 -2 8t5.5 6.5t15.5 0.5q8 -1 15 -6t10 -4.5t10 8.5t23 32q26 41 28 47q-35 24 -48 49l76 -9q9 23 59.5 93t68.5 84q27 -14 29.5 -37.5t-10.5 -44.5l-30.5 -51
t-21.5 -48q13 0 23 5t14.5 10t12.5 18t12 18q12 13 16 21q30 43 31 44l10 13t12.5 14t13.5 10q22 -6 29.5 -19.5t1 -31t-15.5 -33t-21.5 -33.5t-15.5 -26h15t14 -0.5t10.5 -2t11 -4.5t8.5 -8q-10 -9 -19 -13.5t-16 -5t-20.5 -2t-24.5 -3.5q-11 -8 -25 -31t-14 -33
q34 11 81.5 16t51.5 6q8 2 18.5 7t21.5 7q-5 -13 -14.5 -20.5t-18 -10t-27 -6t-27.5 -6.5z" />
    <glyph glyph-name="dollar" unicode="$" horiz-adv-x="325" 
d="M172 0q5 0 13 9.5t13 18.5l6 10l-13 45q-8 -14 -16.5 -45t-2.5 -38zM173 347q-5 0 -12 -10t-11 -20t-4 -11l17 -43q6 14 11 44t-1 40zM257 430q4 -4 13.5 -12.5t15.5 -17.5l23 -27q1 -12 -1.5 -23t-2.5 -15t2 -13l7 -14q2 -6 -3.5 -12.5t-19.5 -8t-38 7.5q-9 4 -14 9
l12.5 8t9 6t5 5t1.5 8t-3 12t-7 20q-9 -3 -14.5 -14t-7 -20.5t-3 -25.5t-2.5 -21q-1 -12 -9.5 -38t-7.5 -43q9 -9 22 -20.5l20.5 -18t17.5 -17.5t13.5 -19t8.5 -22.5t3 -29t-3 -38.5q-3 -22 -21 -41q-5 -5 -14 -17l-12.5 -17t-10.5 -13t-6.5 -8.5t-8.5 -6.5t-8 -4t-13 -2.5
t-16.5 -1t-24.5 -1.5q-8 -64 -29 -74q-7 10 -7.5 21.5t2 26t1.5 23.5q-9 6 -34 17.5t-41 25.5t-26 38q-34 75 11 129q5 -18 3 -28.5t2 -24t20 -28.5q36 -36 64 -41q0 23 2.5 44t9.5 55t8 40q-7 9 -29.5 29t-34.5 37q-42 71 -4.5 130t125.5 84q21 63 21 87q12 -1 20.5 -4
t14 -5.5t7.5 -8.5t3.5 -9t0 -12.5t-2.5 -13t-5 -16t-5 -16.5z" />
    <glyph glyph-name="percent" unicode="%" horiz-adv-x="446" 
d="M388 184q-46 -17 -82.5 -60.5t-25.5 -91.5q14 -8 27 -9t22 2t18 12t15 17t13 20q41 65 13 110zM420 422q3 -3 4 -3.5t2.5 -2.5t2 -2.5t1.5 -3.5t1 -4.5t1.5 -6.5t2.5 -9q6 -24 -61 -91q-2 -2 -23.5 -32t-37.5 -46q-33 -31 -41 -46q53 43 107 50q52 8 50 -34
q-2 -32 -4.5 -50.5t-9 -46t-20 -47.5t-34.5 -34q-32 -21 -77 -15t-63 40.5t22 105.5q-103 -109 -156 -188q-4 -6 -7 -18l-4 -14l-3 -3h-18.5t-6 4.5t-9.5 9.5q-8 7 -14.5 8t-14.5 6q4 11 7.5 14t10 3t11.5 2l333 392q21 23 33 41.5t15 20.5zM143 295q51 -3 83 35
q13 15 14.5 50t-15.5 42.5t-63 -45.5q-16 -21 -20 -35.5t1 -46.5zM223 505q15 -4 23.5 -7t14 -11.5t6.5 -12t4 -21t5 -25.5q7 -34 3 -57.5t-23 -49.5t-24.5 -33t-19 -14.5l-23.5 -13.5q-22 -12 -39.5 -10.5t-55.5 13.5q-49 15 -58 70.5t23 99.5q22 32 54 51.5t62 29.5t36 15
z" />
    <glyph glyph-name="ampersand" unicode="&#x26;" horiz-adv-x="619" 
d="M604 353q17 -69 -25 -133q-14 -21 -37 -29t-55.5 -9.5t-36.5 -2.5q-10 -17 -18 -45t-22 -53t-46 -52q-4 -4 -10 -8.5l-8 -6t-6 -5t-4.5 -4t-4 -2.5t-4.5 -3t-5 -3l-7 -3.5t-9 -5t-12 -6.5q-39 -22 -102 -20q-92 0 -145.5 64t-29.5 158q6 24 23 49t28.5 36.5l33.5 32.5
q37 34 84.5 47t54.5 18q-38 71 -2.5 128t105.5 88q52 19 109 19t103 -22.5t46 -57.5q0 -7 -2 -14t-4 -11t-7 -10t-7.5 -8.5t-9.5 -8t-8 -6.5q-17 -14 -27 -20l-9 -7.5t-5.5 -5t-5.5 -3t-12 -2.5l-11.5 11.5t-9.5 10t-6.5 10.5t-2.5 14t2 21q15 0 15 -1l1 -11v-5l-1 1v-8
q2 -20 25 -7q23 15 26 35q2 20 -31 20q-88 1 -154 -65q-30 -30 -34.5 -52.5t5 -32t28.5 -20t22 -12.5l-3 -30q-10 -5 -45.5 -13.5t-72.5 -22.5t-61 -35q-35 -33 -56.5 -81.5t2.5 -91.5q20 -36 60.5 -43t83 10.5t82 58.5t59.5 93q-18 11 -66.5 16t-70.5 -3q-16 -7 -23 -17.5
t-6.5 -20t5.5 -20.5t10.5 -19t11.5 -14l6 -7q-6 -8 -12 -12q-23 -18 -47.5 -6.5t-24.5 44.5q0 56 28.5 84t75.5 30.5t107 -1.5q10 -1 29.5 -4t26.5 -3t18.5 2t20 9.5t18.5 20.5q5 7 16.5 32t24 41.5t28.5 20.5z" />
    <glyph glyph-name="quotesingle" unicode="'" horiz-adv-x="90" 
d="M15 590l52 -3q1 -45 6 -88t7 -64l-56 -3l-5.5 15t-3.5 9.5l-2.5 6t-1.5 4.5v6.5v9.5t0.5 15.5t0.5 24.5q0 4 3 67z" />
    <glyph glyph-name="parenleft" unicode="(" horiz-adv-x="376" 
d="M119 111q-2 -26 3.5 -48t11.5 -32.5t17 -24.5t13 -18q16 -27 20 -40q-71 9 -106 33t-58 89q-30 86 23.5 217.5t124.5 186.5q81 63 141 72q10 4 21 2t13 -2t10.5 -5t12.5 -7q-2 -13 -7 -23.5t-8.5 -15t-14.5 -14.5t-13 -12q-12 -11 -34 -27l-30 -22q-56 -46 -92 -131
q-42 -94 -48 -178z" />
    <glyph glyph-name="parenright" unicode=")" horiz-adv-x="347" 
d="M154 558q52 -7 94 -35.5t64 -66.5q41 -70 12 -217q-5 -28 -36.5 -84.5t-53.5 -86.5q-24 -33 -26 -37t-13.5 -12t-22.5 -17q-7 -6 -9.5 -11t-6.5 -8t-21 -9q-6 -2 -10.5 -4t-7 -3.5t-5.5 -4t-4.5 -4l-5.5 -5.5t-6 -7q-47 3 -56 -2.5t-30 -2.5q1 12 5 16.5t11.5 7t28 19.5
t45.5 47q185 219 162 385q-5 38 -23 62t-36.5 32t-33.5 20t-15 28z" />
    <glyph glyph-name="asterisk" unicode="*" horiz-adv-x="289" 
d="M176 522l102 3q0 -7 -0.5 -13t-3.5 -10t-5 -7t-7.5 -5t-9 -3.5t-11 -2.5t-11 -1t-13 -0.5t-12.5 -0.5q2 -16 12 -27t13 -16.5t-5 -33.5q-16 1 -31 10q-3 2 -8 4q-7 3 -8 6q-1 4 -3 9q-15 36 -30 49q-11 -5 -35 -37.5t-39 -43.5q-23 15 -26.5 22.5t-4.5 37.5q3 3 8.5 7
t7 6t4.5 7t5 13q-14 6 -29.5 6.5t-25.5 8.5q2 2 3 4.5t3.5 3.5t11.5 4l72 3q4 7 10 14t9 14q-5 9 -12.5 18.5t-13 21.5t-12.5 38q22 -3 33.5 -12t19.5 -23t11 -17q13 8 35 30t35 30q19 -8 33 -32q-7 -16 -36.5 -41.5t-35.5 -43.5z" />
    <glyph glyph-name="plus" unicode="+" horiz-adv-x="276" 
d="M158 289q12 -1 33 -4t29 -3q13 -1 19.5 1t13.5 6.5t13 7.5q-4 -24 -15.5 -36t-27.5 -14t-36 -2h-42q-11 -24 -11 -65q-8 -6 -16 -15q-8 -8 -12 -7.5t-28 13.5q-5 2 -8 4l1 75q-49 9 -61 47l72 -3q10 17 24.5 55t15.5 57q37 -17 39 -44q1 -10 -1 -36t-2 -37z" />
    <glyph glyph-name="comma" unicode="," horiz-adv-x="98" 
d="M12 22q3 6 5.5 10t5.5 8l6 8l38 -1q37 -44 5 -77q-2 -2 -3 -2t-3 -1l-1 -1q0 -2 -3 -2q-12 -7 -19 -13.5t-11.5 -8t-21.5 -4.5q4 10 8 13.5t10 6.5t12 9q-3 16 -13 23.5t-15 31.5z" />
    <glyph glyph-name="hyphen" unicode="-" horiz-adv-x="283" 
d="M10 238l3 52q166 4 257 11l3 -56q-18 -6 -44 -9t-40.5 -3t-58 1t-53.5 1q-4 0 -67 3z" />
    <glyph glyph-name="period" unicode="." horiz-adv-x="89" 
d="M17 59q12 8 46 0q2 0 4 -2q21 -7 7 -31q-14 -25 -35 -25q-14 0 -22 17q-13 26 0 41z" />
    <glyph glyph-name="slash" unicode="/" horiz-adv-x="545" 
d="M535 582q-2 -37 -69 -135.5t-117 -158.5q-6 -8 -14.5 -21t-13.5 -20l-31.5 -44t-24.5 -33l-45 -57q-2 -2 -3 -2l-50 -52q-19 -20 -36 -33q-19 -16 -36 -33q-1 -1 -10.5 -14.5t-17 -20t-21 -7t-27.5 13.5q-4 4 -9 14q9 14 14.5 17.5t9.5 2t17.5 9.5t34.5 37l33 36
q25 29 81 108.5t68 95.5l61 77l29.5 35t35.5 44q60 77 95 111l21 18q4 3 8 7q3 3 5 3q5 0 12 2z" />
    <glyph glyph-name="zero" unicode="0" horiz-adv-x="379" 
d="M283 357q34 23 58 -1q1 0 3 -2q2 0 4 -1q10 -6 13 -9q16 -17 -0.5 -83t-34.5 -93q-49 -74 -74 -99q-53 -52 -120 -53q-35 0 -68 24t-44 54q-6 17 -8 32t-2 24.5t5.5 22.5t8.5 18.5t12.5 21.5t13.5 22q44 75 87 105q99 68 150 54l-142 -142q-8 -8 -20.5 -32t-22.5 -55
t-2 -60.5t39 -41.5q34 -13 69.5 6.5t61.5 57.5t45 78t25 72q2 21 2.5 31.5t-7.5 18.5t-14 11t-18 8t-20 11z" />
    <glyph glyph-name="one" unicode="1" horiz-adv-x="301" 
d="M84 201q6 10 25.5 38.5t25.5 41.5q-7 -3 -16.5 -9t-18 -10t-19.5 -6q2 12 4 12q15 2 39 21q8 6 48 38l57 66q4 5 8.5 13t7.5 12q4 -1 9 -2l7.5 -1.5t6 -2l6 -2.5t5 -3l5.5 -4.5t6 -6.5q1 -10 -0.5 -21.5t-6 -25l-8.5 -25t-12.5 -27.5l-13.5 -25.5t-15 -26t-14 -22.5
l-13.5 -21t-10.5 -16q-22 -36 -59 -112.5l-45 -92.5q-30 5 -49 12.5t-25.5 21.5t-7 27.5t9.5 37.5t19.5 42t28.5 51z" />
    <glyph glyph-name="two" unicode="2" horiz-adv-x="370" 
d="M181 279q-9 17 4.5 43.5t39.5 46.5t58 28.5t59 -8.5q17 -11 17.5 -36.5t-7.5 -49t-18 -37.5q-14 -21 -33 -42.5t-28 -30l-39.5 -37t-34.5 -32.5q-6 -6 -23.5 -20.5t-30 -27t-19.5 -24.5q18 -12 40 -14t44.5 5t41 15t37.5 18t27 13q-7 -24 -27 -60q-10 -23 -52 -39
q-37 -14 -57.5 -15t-48 7.5t-48.5 10.5q-3 -5 -5 -10t-2.5 -6t-3 -3t-5 -3t-10.5 -3q-12 5 -15.5 9t-8.5 18q-3 11 -5.5 16t-3.5 5.5t-5 4t-8 9.5q-3 38 25 54q11 7 18.5 8.5t13.5 4t19 16.5q25 26 69.5 64.5t55.5 50.5q1 2 43 38q59 59 51 108q-26 7 -53 -11t-40 -36
t-32 -48z" />
    <glyph glyph-name="three" unicode="3" horiz-adv-x="327" 
d="M145 315q2 37 56 69q56 33 92 21q50 -17 -4 -113q-9 -16 -21 -34l-31 -41q7 -12 22.5 -27t17 -24t-6.5 -35.5t-36 -74.5q-10 -18 -24.5 -32t-22.5 -33q-3 -6 -5 -11q-1 -3 -3 -3q-5 -2 -13 -8q-32 -18 -66.5 -19t-61.5 25t-27 71v8v9.5v9.5t1.5 9t4 5.5t6.5 2t9 -4.5
q4 -3 9.5 -16.5t10 -29.5t6.5 -19q54 -1 91.5 34t41.5 80q-26 21 -30 22q-13 5 -18.5 1.5t-14.5 5.5l-1 1q-1 2 -2 3q-2 0 -2 3q-6 11 -17 24t-15.5 19.5t-1 15t19.5 17.5q3 1 22 14q8 6 45 25.5t55 39.5t26 53q-32 -4 -52.5 -18t-34 -28t-25.5 -17z" />
    <glyph glyph-name="four" unicode="4" horiz-adv-x="284" 
d="M195 277l-116 -97q52 2 77.5 11t31 20t20.5 30t42 34q13 -5 19 -12t4.5 -15t-5 -14.5t-9.5 -15.5t-8 -13l-70 -154l-12 -22.5t-10.5 -21t-9 -14.5t-11.5 -10q-12 10 -15.5 27.5t0.5 40.5t9 41t13 42.5l10 30.5q-25 0 -66.5 -7.5t-57.5 -15.5q-16 18 -19 34.5t3 28.5
t20 30q66 85 146 131q5 3 25 18t36 21.5t29 2.5q2 -29 -24.5 -69.5t-51.5 -61.5z" />
    <glyph glyph-name="five" unicode="5" horiz-adv-x="327" 
d="M126 249q3 1 13.5 6t14 5.5t13 0t21.5 -4.5q29 -11 38.5 -44t3.5 -64t-17 -55q-3 -6 -9.5 -13.5t-15 -15.5t-10.5 -11l-13.5 -15.5t-12.5 -11t-10.5 -7.5t-12.5 -6t-13.5 -4l-17.5 -4l-21 -5q-27 -7 -67 9l4 36q9 0 20.5 -1.5t17 -1.5t15 2t21.5 8q36 18 56 39t31 61
q10 37 3 64l-9 19q-9 -3 -19.5 -8t-19.5 -8q-17 -6 -23 -10.5t-14 -8.5l-34 59q14 41 55 94q9 12 13 19q1 3 8 7l23 18q8 -4 15 -9.5t13 -9.5q17 8 59.5 13.5t71.5 5.5q-6 -26 -37 -34t-65 -12.5t-43 -19.5l-19 -34l-11 -17q-11 -18 -16 -31z" />
    <glyph glyph-name="six" unicode="6" horiz-adv-x="327" 
d="M103 139q-8 -101 46 -97q42 2 93 57q19 19 26 34q16 35 14 52.5t-18 20.5t-31 0.5t-25 -7.5q-17 -7 -37.5 -27t-25.5 -38q-1 -3 -1.5 -5t-1 -3.5t-0.5 -2.5v-3t-1 -4q0 -1 -0.5 -5t-0.5 -5l-2 -9q-5 1 -7 1.5t-4.5 3.5t-7.5 12zM301 228q2 -10 5 -18t3.5 -11.5t0 -11
t-4.5 -22.5q-10 -37 -23 -52q-5 -6 -17 -17.5t-19 -20.5q-14 -18 -41 -34q-55 -36 -115.5 -19t-75.5 78q-11 46 9 96t58 89.5t82.5 70t86.5 42.5t65 2q1 -7 1.5 -10t-1.5 -5.5t-3.5 -3t-6.5 -3t-10 -5.5q-21 -14 -46 -38t-31 -29q-60 -46 -87 -105q15 5 31.5 14t24.5 11.5
t39 5.5t75 -4z" />
    <glyph glyph-name="seven" unicode="7" horiz-adv-x="403" 
d="M127 297l34 53q10 11 23 17.5t29.5 8t28.5 2t33 -1t30 -1.5q16 -1 45 2t43 3q-10 -23 -18 -37.5t-12.5 -20t-13.5 -15l-16 -17.5q-17 -22 -28.5 -33t-22 -18t-17.5 -14q-5 -5 -8.5 -9t-6 -6.5t-10.5 -7.5q-14 -11 -16 -15l-4 -8q33 3 53 11q-11 -23 -28.5 -28.5t-37.5 -8
t-33 -19.5q-4 -6 -11 -12.5t-11 -12.5q-30 -38 -44 -83t-22 -55q-38 2 -57 16t-18.5 35.5t8.5 44t22 47t24 39.5q3 3 4 5q-4 6 -10.5 11.5l-10 8.5t-3.5 9.5t6 16.5q7 -2 16.5 -9t25.5 -9l23 19.5t24 21.5q38 36 87.5 69t58.5 46q-11 1 -30.5 3t-29 2.5t-22.5 -1t-18.5 -7
t-9 -16.5t-2.5 -28q-24 -6 -47 2z" />
    <glyph glyph-name="eight" unicode="8" horiz-adv-x="345" 
d="M175 239q-10 34 -9 72t24 68q41 54 90 37q40 -14 52 -62q9 -41 -10 -85q-15 -36 -33.5 -55.5t-49.5 -32.5q4 -46 -11 -90q-1 -4 -3.5 -10.5t-3 -9t-2.5 -7t-3 -6t-3.5 -4.5t-4.5 -4.5t-6 -3.5l-8 -4t-10 -4q-95 -40 -146 10q-32 31 -27.5 65.5t28 63t62 46.5t74.5 16z
M213 145l-8 -5l-10 -6q-7 -5 -12 -6q-2 12 5 27t6.5 30.5t-17.5 34.5q-19 -20 -37.5 -43t-35.5 -56.5t-9 -52.5q9 -20 36 -26t53 19.5t29 83.5zM278 377q-44 1 -64.5 -30.5t-17 -69t22.5 -60.5q2 -2 2 -3q1 0 3 -2q29 27 48.5 75.5t5.5 89.5z" />
    <glyph glyph-name="nine" unicode="9" horiz-adv-x="351" 
d="M233 260q-1 -52 -25 -73t-76 -24q-40 -3 -74.5 22t-44.5 57q-11 39 21 73q7 8 29.5 21.5t28.5 17.5q79 63 136 61q14 -1 37 -11.5t33 -20.5q35 -29 40.5 -77.5t-9.5 -91t-41 -83.5q-6 -10 -13 -14t-12 -9q-110 -105 -200 -94q3 7 6 10.5t6.5 5t14 5.5t22.5 10
q31 16 64 53t55.5 82t35.5 88.5t5 76t-38 41.5q-6 -7 -47 -38.5t-67 -62t-26 -57.5q42 -42 81 -27q15 6 35 31t23 28z" />
    <glyph glyph-name="colon" unicode=":" horiz-adv-x="89" 
d="M17 211q12 8 46 0q2 0 4 -2q21 -7 7 -31q-14 -25 -35 -25q-14 0 -22 17q-13 26 0 41zM17 59q12 8 46 0q2 0 4 -2q21 -7 7 -31q-14 -25 -35 -25q-14 0 -22 17q-13 26 0 41z" />
    <glyph glyph-name="semicolon" unicode=";" horiz-adv-x="106" 
d="M20 22q3 6 5.5 10t5.5 8l6 8l38 -1q37 -44 5 -77q-2 -2 -3 -2t-3 -1l-1 -1q0 -2 -3 -2q-12 -7 -19 -13.5t-11.5 -8t-21.5 -4.5q4 10 8 13.5t10 6.5t12 9q-3 16 -13 23.5t-15 31.5zM17 211q12 8 46 0q2 0 4 -2q21 -7 7 -31q-14 -25 -35 -25q-14 0 -22 17q-13 26 0 41z" />
    <glyph glyph-name="less" unicode="&#x3c;" horiz-adv-x="238" 
d="M214 456l-138 -179q10 -26 42.5 -65.5t39.5 -66.5q-33 -2 -53 11q-19 13 -30.5 28t-20.5 36.5t-13 27.5q-27 45 -31 56l100 113q67 91 118 113z" />
    <glyph glyph-name="equal" unicode="=" horiz-adv-x="283" 
d="M10 238l3 52q166 4 257 11l3 -56q-18 -6 -44 -9t-40.5 -3t-58 1t-53.5 1q-4 0 -67 3zM10 332l3 52q166 4 257 11l3 -56q-18 -6 -44 -9t-40.5 -3t-58 1t-53.5 1q-4 0 -67 3z" />
    <glyph glyph-name="greater" unicode="&#x3e;" horiz-adv-x="238" 
d="M24 218l138 179q-10 26 -42.5 65.5t-39.5 66.5q33 2 53 -11q19 -13 30.5 -28t20.5 -36.5t13 -27.5q27 -45 31 -56l-100 -113q-67 -91 -118 -113z" />
    <glyph glyph-name="question" unicode="?" horiz-adv-x="308" 
d="M97 365q10 11 18 11.5t20 -7.5q-2 -20 -33 -49q-16 -12 -28 -13q-33 -4 -32 31q1 37 28 70l7 7q19 17 54 30.5t74 16t69 -16.5q10 -6 15.5 -13t7.5 -12t-0.5 -13.5t-4.5 -13.5t-8 -16t-9 -17q-26 -56 -47.5 -86.5t-61.5 -70.5l-32 -32q-18 -19 -27 -32t-11.5 -19
t-7 -24.5t-8.5 -31.5q-2 -6 -3 -14q-3 -6 -4 -6q-4 1 -9 -1q-13 8 -17 18t-3 30q1 45 23 90.5t45.5 73t62.5 67.5q65 68 42 88q-9 8 -35 6q-12 -1 -40 -8q-23 -7 -32 -14.5t-13 -28.5zM48 45q10 -6 13.5 -8.5t6 -3.5t3.5 -0.5t5.5 -0.5t11.5 -3l6 -39q-33 -29 -65 -11
q-24 14 -17 37q6 19 36 29zM97 365q-1 -1 -3 -1t-3.5 -2.5t-3.5 -9.5t-1.5 -8t2.5 0.5t5 -0.5z" />
    <glyph glyph-name="at" unicode="@" horiz-adv-x="653" 
d="M471 -21q-2 -30 -64.5 -48.5t-114.5 -18.5q-57 0 -114 18l-16 5.5t-14.5 6.5l-11 6t-11 7.5t-9 7t-11 9t-11.5 9.5q-4 3 -12 9.5t-10 8.5t-7.5 8t-8.5 11.5l-8 15t-11 23.5q-29 66 -27 121.5t38 120.5q8 14 17 26t23.5 27l17.5 18q21 24 33.5 37t35.5 31t48 28
q104 43 186.5 30.5t166.5 -81.5q43 -36 49 -83q2 -11 4 -18.5t2.5 -10.5t0.5 -10.5t-1 -23.5q-2 -39 12 -60q-9 -14 -21 -46q-18 -53 -67.5 -99t-106 -56t-104.5 46q-5 7 -11 12q-15 -18 -31 -26q-26 -13 -45 -17q-4 3 -22 14t-28.5 19.5t-20.5 29.5t-10 49q0 45 30 103
q6 13 29.5 33.5t42.5 32.5q22 13 51 23t60 13t51 -13.5t19 -54.5q-38 9 -48.5 7t-40.5 -19q-87 -50 -109 -115q-20 -56 -1 -93q35 2 57 30t31 61t29.5 61.5t53.5 32.5q11 -12 9 -35.5t-8.5 -42t-14 -51t-6.5 -61.5l14 -12q31 -3 63 12t50 34q41 43 50.5 70.5t6.5 74.5
q-1 12 1 19t2.5 10t-4 13t-18.5 34q-2 3 -7.5 13t-7 12.5t-6.5 8.5t-10.5 9.5t-14.5 7.5q-74 34 -158 24q-52 -7 -101 -36.5t-82 -70.5q-3 -3 -17 -20.5l-20 -25.5l-19 -25.5t-19 -30l-13 -28.5t-9 -31t0 -29q23 -160 237 -152q16 0 48 12t61 25t33 14z" />
    <glyph glyph-name="A" unicode="A" horiz-adv-x="532" 
d="M420 272q1 2 8 6.5t8 6.5q10 22 7 22q-1 0 -3 -1q-7 -2 -10 1zM270 368q54 -4 123 10.5t121.5 50t42.5 82.5q-82 16 -173 -42q-30 -19 -68.5 -51.5t-45.5 -49.5zM532 123l17 -5q-20 -46 -51.5 -79.5t-64 -46t-62.5 -8.5t-50.5 32.5t-24.5 76.5q-14 -8 -36 -28t-44.5 -33
t-54.5 -17q-89 -11 -133.5 51t4.5 173q21 42 50 81t32 46q-6 7 -26.5 26t-29.5 36q-23 43 6 76q21 25 44 15q4 -2 8 -6q7 -9 5 -22.5t-8.5 -26.5t2 -29.5t36.5 -31.5q8 5 40 37t45 43q46 37 104 57q77 27 163 22q97 -5 93 -59q-1 -24 -24 -56q-49 -68 -222 -98
q-27 -5 -54.5 -5.5t-37 -2t-24 -12.5t-34.5 -38q-38 -51 -74 -118t-28 -105q5 -20 24 -31t42 -5q11 3 21.5 7t21.5 11t18.5 12.5t18.5 15.5t16 14t16 15l13 13q14 14 24 49.5t30 81t59 82.5q18 18 32 20t39 -11q3 -27 -12.5 -53.5t-36.5 -52t-26 -42.5q-25 -97 7 -144
q26 -37 66 -10q33 22 61 83z" />
    <glyph glyph-name="B" unicode="B" horiz-adv-x="769" 
d="M611 253q-11 1 -50 1t-50 8l-62 31q9 3 21 11.5t31 10.5q61 8 65 9q54 10 81.5 34t26 51.5t-17.5 54t-46.5 43.5t-63.5 17q-32 -48 -101 -186t-83 -157l-71 -103q132 -43 256 -1q68 23 80 69q14 51 -16 107zM169 52q-4 1 -14 4t-12.5 3.5t-10 1.5t-11.5 0.5t-10.5 -2.5
t-14.5 -6q9 -29 33.5 -26t39.5 25zM455 -30q-99 0 -194 42q-3 1 -8 4q-29 13 -37 10q-2 -1 -8 -5q-13 -8 -25 -13q-78 -37 -139 -17q-44 14 -37 48q4 23 34 47q33 26 59 30.5t68 -6t60 -12.5q122 192 139 222l138 214q-47 12 -125.5 14.5t-126.5 -7.5q-59 -15 -103 -36
q-39 -17 -64.5 -72.5t0.5 -104.5q28 -49 101 -30q25 6 34.5 32t-7.5 51q-6 9 -18.5 18t-35.5 22t-25 14q22 21 69 0q34 -15 49 -41q15 -25 4 -75q-2 -9 -5.5 -16.5t-7.5 -12.5t-11 -8.5t-12 -5.5t-14 -2.5t-14 -1t-16 1l-14.5 2t-15 2.5t-13.5 2q-32 6 -56 35
q-32 41 -18 104q3 12 2.5 17t0.5 12q9 39 55 69t113 47t119.5 25.5t104.5 12.5q46 4 70 2t44.5 -1t40.5 9q0 -3 2 -3l7 -10.5t4 -3t5 -1t10.5 -2t19.5 -7.5q67 -26 94 -100.5t-5 -138.5q-8 -18 -19.5 -30.5t-21 -19t-32.5 -19.5q2 -5 14.5 -27.5t15.5 -34.5
q23 -81 -5.5 -138t-91.5 -82t-152 -25z" />
    <glyph glyph-name="C" unicode="C" horiz-adv-x="418" 
d="M317 293q62 0 116 60q51 54 43 102q-6 41 -60 49q-40 6 -85.5 -16t-78.5 -55t-55 -64t-24 -45q10 -8 19.5 -13.5t20.5 -8.5l18 -5t21 -3t19 -1h23h23zM447 174l24 -3q-13 -17 -11 -20t1 -6q-1 -2 -4 -2.5t-9 -5.5t-13 -15q-22 -32 -60 -65t-78 -54q-81 -38 -145.5 -25.5
t-105.5 64.5t-41 122q0 53 14.5 100.5t29 74t14.5 28.5q-4 11 -19 34t-23 43q-17 59 -2 107t40 59q26 12 32.5 -20.5t2 -80t5.5 -85.5q10 7 17.5 18.5t28.5 27.5q135 107 285 68q35 -9 41 -12q43 -17 39 -77q-4 -68 -63 -121q-48 -44 -116 -54q-86 -12 -179 23
q-37 -81 -43 -144t14.5 -95.5t54 -45.5t76 -2.5t81.5 40.5q41 31 62.5 56.5t49.5 67.5z" />
    <glyph glyph-name="D" unicode="D" horiz-adv-x="761" 
d="M324 88q8 -7 17 -10q6 -3 21 -4q111 -9 162.5 11.5t91.5 100.5q24 49 28 86t-6 67t-38 84q-15 27 -43 58q-12 -14 -33 -63t-55.5 -118t-75.5 -125zM220 57q-28 36 -74 40q-25 3 -51 -4q-31 -8 -27 -36q4 -27 35 -39q17 -6 38 -3q22 4 46 16.5t33 25.5zM227 299
q23 34 25 58.5t-9 35.5t-25.5 22t-16.5 17q29 2 41.5 -0.5t29.5 -16.5q36 -29 40 -52.5t-24 -61.5q-26 -33 -49 -45t-56 0q-12 4 -35.5 8.5t-37.5 10.5q-9 5 -15 10.5t-8 9t-7 14t-9 17.5q-44 80 37 157q75 70 202 93q144 27 238 -32q3 1 42.5 23t62.5 21
q-2 -19 -31.5 -42.5t-33.5 -29.5q5 -7 17.5 -18.5t27.5 -24t18 -15.5q42 -39 59 -64q35 -51 44 -115.5t-17 -128t-87 -99.5q-68 -41 -140.5 -52t-119 -1t-88 22.5t-47.5 12.5q-7 0 -30.5 -14.5t-52.5 -23.5q-74 -22 -112 0q-15 9 -32.5 30.5t-21.5 38.5q-1 8 1 15.5t5 12.5
t11 11t12 8l15 7.5l13 6.5q23 13 53 13.5t51.5 -5t56 -16.5t47.5 -14q35 32 119 195t114 198l18 25q-37 29 -97 33.5t-120 -13t-112.5 -45.5t-82.5 -65t-24 -69q3 -17 20 -34.5t32 -24.5q9 -4 89 -4z" />
    <glyph glyph-name="E" unicode="E" horiz-adv-x="569" 
d="M569 126h18q-25 -66 -89.5 -109t-143.5 -60q-26 -6 -86 -5t-91 10q-42 13 -57 18.5t-34.5 17.5t-39.5 32q-32 32 -39 66.5t8 66t40 58t60 50.5q26 18 45.5 26.5t48 16.5t49.5 16q-5 5 -17 14.5t-21 24.5q-34 58 -3.5 107t90 81.5t123.5 47.5t96 5q12 -4 20 -8t18 -10.5
t18 -10.5q13 -6 24.5 -8t14 -6t9.5 -23q24 -70 -38 -115q-12 -9 -35.5 -20t-53 -21t-56.5 -6t-39 25q-20 31 -11 58.5t50 18.5q12 -2 13.5 -5t-3 -13.5t-4.5 -20.5q44 -40 101 -13q43 20 52 55q11 43 -47 62q-7 2 -16 4q-47 11 -135 -39q-87 -49 -112 -101q-21 -46 25 -71
q19 -11 37.5 -12t38 1.5t32.5 0.5q-2 -17 -32 -28.5t-70 -20.5t-94 -40t-95 -81q-27 -34 -24 -50q3 -20 32.5 -43t48.5 -29q64 -17 130.5 -17.5t133.5 26.5t110 77z" />
    <glyph glyph-name="F" unicode="F" horiz-adv-x="698" 
d="M889 529q4 36 -14.5 47t-63.5 0q-46 -11 -86 -46q40 -29 83.5 -27t80.5 26zM409 288q5 22 17 44.5t25 32.5q7 5 15 8.5t20 6t18 3l23 2t20 1.5l69 132q-22 8 -56 25.5t-59 29t-55 21t-59 6.5t-55 -20q-63 -40 -58 -92q3 -35 35 -46q22 -7 47 6q22 11 27.5 21t1.5 36
q16 1 38 -13q-10 -47 -23 -61q-7 -8 -18 -13l-16.5 -8t-16 -7.5t-17 -6t-18 -3t-19.5 0.5q-43 6 -65.5 28t-23.5 51t10 63q21 59 76 89t121 27t128 -34l76 -41l26 -12.5t12.5 -3.5t8.5 2t10.5 8.5t22.5 11.5q22 9 60.5 18.5t79.5 13t58 -10.5q36 -28 37.5 -75.5t-46.5 -65.5
q-33 -12 -66.5 -10t-52.5 7.5t-42.5 14t-37.5 10.5q-52 -91 -52 -124q26 -10 54 -8.5t45 6.5t36 12.5t28 8.5q-2 -12 -5.5 -17.5t-17.5 -15t-25 -20.5q-12 -11 -21 -16q-17 -10 -41.5 -11t-34.5 1t-41 9q-10 -14 -28.5 -68t-48.5 -113.5t-73 -100.5q-59 -58 -147 -73
t-169.5 20.5t-116.5 115.5q-43 97 -8 186q19 49 62 68t81.5 9t52.5 -38q4 -8 4 -12.5t-2 -12.5t-3 -15q-1 -11 0 -16.5t-2 -9.5t-13 -9q-13 7 -16.5 26.5t-9.5 35.5t-27 19q-44 6 -66 -29.5t-17.5 -86t29.5 -88.5q30 -48 80.5 -70.5t104 -16.5t106.5 51.5t85 124.5
q2 6 16.5 37t25.5 57t10 32q-1 8 -8.5 9t-17 -3.5t-17 -9.5t-11.5 -8q-5 -5 -9.5 -10t-6.5 -7t-5.5 -5t-8 -4.5t-11.5 -3t-18 -3.5z" />
    <glyph glyph-name="G" unicode="G" horiz-adv-x="540" 
d="M319 112q-31 -9 -42.5 -11.5t-38.5 -7.5t-42 -2t-37 9t-40.5 21.5t-36.5 38.5q-26 33 -38 64t-10 57.5t7.5 45.5t16.5 43t14 35l-6 6q-40 41 -49 59q-17 34 -8 88q5 28 24 54t45 34.5t54 -15.5q-1 -19 -7.5 -39t-11.5 -32.5t-3.5 -35t13.5 -50.5q9 3 27.5 21l42 39.5
t54 43.5t74 37.5t91.5 16.5q61 2 91.5 -21t28 -60.5t-22.5 -82.5q-13 -26 -29.5 -40t-48.5 -31q-38 -20 -69.5 -28.5t-47.5 -9.5t-61 2.5t-71 4.5q-86 -117 6 -212q40 -33 94 -21t65 39q4 11 9 54.5t16 78.5t32 44q35 14 61 -8.5t22 -57.5q-2 -16 -24 -44.5t-24 -62.5
t-18 -139q5 -7 14 -16l10 -10q15 -17 33 -54.5t42.5 -61t72.5 -36.5l22 -4l16 -11q-8 -6 -32.5 -11.5t-61 -1.5t-60.5 25q-26 23 -38.5 39t-20 32.5t-14.5 26.5l-5 7q-3 4 -9 8q-24 -86 -123 -161q-28 -22 -46 -29.5t-54 -6.5q-27 1 -47 3t-40.5 7t-31.5 13.5t-21 22.5
t-8.5 34t6.5 48q16 57 62 83q34 21 106 43.5t114 24.5l19 55l7 11h-9t-4 0q4 -2 -1 -5zM498 567q-51 16 -114 -12t-106 -69t-64 -76l17 -10q86 -37 179 7q101 51 88 160zM281 2q-46 0 -117.5 -23.5t-95.5 -51.5q-13 -15 -15.5 -35.5t12.5 -36.5q32 -22 78 -10t63 35l40 56
q26 35 35 66zM444 250q1 1 2 1h2t2.5 2t2.5 6q1 3 2 7l1 7q-4 -4 -7 1q-8 -8 -8.5 -10t3.5 -14z" />
    <glyph glyph-name="H" unicode="H" horiz-adv-x="1068" 
d="M1066 121h20q-31 -62 -88.5 -107.5t-119.5 -49.5q-45 -2 -71 31t-26 83q0 12 2 23.5t4 18t7 19.5l7 18q3 8 7 20.5l6 18.5t4 14.5t1.5 14.5t-3.5 11l-134 18q-6 -19 -14 -47t-16 -50t-20 -45q-31 -59 -86.5 -118t-108.5 -82q-57 -24 -117 -33.5t-117.5 -2t-105.5 40.5
t-74 89q-27 70 -11.5 124.5t54 86.5t70.5 20l13 -10q-9 -6 -27 -10t-29 -19q-22 -30 -27 -64q-15 -80 41 -136q37 -38 82.5 -47.5t85 0.5t98.5 35q23 10 42.5 24t31.5 24t28.5 33t22 31.5t24 41l22.5 39.5q23 40 53.5 130.5t39.5 143.5q-30 0 -46.5 -0.5t-47.5 -3.5t-50 -11
t-41 -20.5t-35.5 -34.5t-19.5 -52q-8 -36 22 -58q7 -5 13 -8t13 -2.5t10.5 1.5t12.5 4.5t13 4.5q32 12 33.5 43t-13.5 56l-15 25q47 -2 70.5 -33.5t18.5 -70t-31 -61.5l-9 -9l-6.5 -6.5t-5 -3.5t-7 -2.5t-10.5 -0.5q-92 -5 -140 38t-17 131q10 30 29 52t46 35.5t52.5 22
t61 12t59.5 4.5t59 1q9 9 24.5 32t34.5 42t46 33q47 25 83 7q36 -19 13 -65q-15 -31 -58 -66q-13 -11 -39 -19t-35 -13q-11 -6 -18.5 -30.5t-10 -48t-5 -56.5t-3.5 -41q33 0 79 -2q61 -2 75 5.5t34 56.5q4 11 7 17q17 41 55 90.5t69 80t37 29.5q20 -3 25 -27t-8 -41
q-7 -10 -23.5 -29.5t-23.5 -30.5q-17 -28 -38 -77.5t-26 -77.5q40 -3 86 1q-6 -20 -16.5 -31t-18.5 -14t-25 -5t-22 -3l-16 -6q-9 -18 -22 -57.5t-20.5 -83t8.5 -55.5t75 26t87 74z" />
    <glyph glyph-name="I" unicode="I" horiz-adv-x="543" 
d="M585 601l10.5 5t8 3.5t5.5 4t3.5 6t1.5 8.5t0 13q-22 -13 -29 -40zM326 426q25 0 46.5 -11t25.5 -26q2 -8 -0.5 -40.5t-7.5 -44.5q-20 -45 -64.5 -64t-72.5 -4q-9 5 -20.5 10l-17 7.5t-12.5 10t-13 21.5q-27 59 0 119t88 91q43 23 102 42t97 29.5t43 17.5q1 1 11 22
t21 39.5t32.5 34.5t45.5 15q22 -1 33 -27q18 -42 -27 -77q-14 -11 -33 -19l-19.5 -9t-10 -10.5t-4.5 -10t-1.5 -18.5t-1.5 -23q-10 -123 -28 -191l-12.5 -56l-15.5 -67t-15 -52q-25 -72 -81 -143.5t-117 -91.5q-132 -41 -221 33q-63 53 -69.5 131.5t50.5 116.5q2 2 4 3
q8 5 37.5 15.5t40.5 13.5q45 13 51 -32q-7 -10 -13 -15q-8 3 -15 9l-11 9.5t-13.5 3t-24.5 -6.5q-27 -11 -39 -31.5t-10 -44t12.5 -48t28.5 -44.5q51 -58 120 -52q19 2 41.5 18.5t30 25l26.5 30.5q30 34 54 85.5t34.5 83.5t29.5 107.5t24 93.5q3 10 12.5 39t16.5 53.5
t8 39.5q-23 -3 -74 -22.5t-81 -34.5q-45 -21 -71.5 -42t-38.5 -56q-23 -68 17 -97q30 -23 64 -3t34 70q0 33 -12.5 48t-13.5 26z" />
    <glyph glyph-name="J" unicode="J" horiz-adv-x="771" 
d="M151 -154q-7 10 -25 24.5t-29 29.5q-41 58 -56.5 125t4.5 133t77 110q77 61 156 55q82 -6 149 -61q21 -17 48 -64t28 -65q1 -20 -22.5 -71.5t-37.5 -71.5q-21 -30 -36 -45t-42.5 -31t-33.5 -20q22 -13 48.5 -14t50 7t48 21.5t41 26.5t29.5 25q45 43 76.5 121.5t45 153
t33 167.5t39.5 147q-25 -3 -83 -5t-94 -10.5t-67 -33.5q-43 -34 -46.5 -95.5t48.5 -94.5q28 5 55 24.5t34 42.5q7 20 7.5 35t-4.5 24t-10 14.5t-13 10t-10 6.5l-5 3q0 1 -1 2q-1 3 -1 5q17 10 65 -5q2 -2 2 -5t0.5 -9.5t2.5 -12.5q1 -4 7 -15.5t7.5 -17.5t-0.5 -21t-11 -34
q-9 -20 -20 -32.5t-19.5 -17.5t-33.5 -17l-10 -5q-37 -18 -79 -4t-67.5 50.5t-29 88t35.5 107.5q25 37 83.5 59t114 27.5t106.5 9t57 6.5q10 8 26 39.5t37 42.5q50 26 94 -3.5t19 -82.5q-20 -43 -139 -69q-15 -58 -29.5 -159.5l-25.5 -178t-42.5 -164t-81.5 -146.5
q-59 -70 -159 -103t-187 -10l-29 8.5t-20.5 6t-12.5 2t-11.5 -2t-11.5 -8.5q-121 -103 20 -162q10 -4 23.5 -6t21.5 -5q-10 -15 -47 -29.5t-64 -10.5q-59 9 -81.5 60.5t18.5 121.5q22 33 43 49t27 27zM147 100q6 -46 13.5 -69t28.5 -50q23 -30 41.5 -45.5t33 -16t23 2
t22.5 13t21 13.5q33 17 50 30q44 35 46 107.5t-37 130.5t-100 56t-105.5 -49t-36.5 -123zM823 637q9 3 23 7t18.5 6t11.5 8t13 17q-28 -2 -43.5 -9.5t-22.5 -28.5z" />
    <glyph glyph-name="K" unicode="K" horiz-adv-x="947" 
d="M737 301q-12 -10 -70 -28q-16 -5 -23.5 -9t-10 -7t-7 -14t-9.5 -21l-31.5 -55.5t-30 -45t-40.5 -47.5l-11 -11t-14 -13q-54 -46 -90 -59q-7 -3 -17.5 -4.5t-20.5 -5.5q-36 -15 -76 -25t-84 -9.5t-72 15.5q-67 37 -99 99q-13 26 -19.5 56.5t-5 61t19 54.5t50.5 33
q22 8 43 6t28 -22q-15 -5 -24.5 -1t-16.5 0t-11 -22q-17 -73 51.5 -144t170.5 -53q21 4 69.5 48t66.5 69q37 52 109.5 194t85.5 193q-54 -7 -83 -12.5t-71 -18.5t-68 -31q-36 -25 -43 -63t18.5 -64.5t71.5 -20.5q0 1 9.5 25t9.5 35q0 12 -4.5 19t-13 13.5t-12.5 11.5l42 -3
l14 -31q3 -10 4 -22t3 -19q8 -19 7.5 -33.5t-17.5 -33.5q-20 -21 -61 -35.5t-74 -6.5q-48 11 -76.5 53t-25.5 95t38 93q38 42 78.5 55.5t113 14t111.5 6.5q37 5 42.5 8.5t17.5 28.5q2 5 7 16l8 18t8.5 15t10.5 13q24 17 49.5 10.5t41 -31t3.5 -47.5q-10 -10 -23 -16
t-30.5 -12.5t-27.5 -11.5q-9 -69 -60 -228q70 31 171 116q30 26 58 48q22 18 68 68q11 11 17 18q25 27 38.5 48.5t15 31t5.5 17t15 12.5q24 -31 -6.5 -113t-66.5 -114q-26 -23 -70.5 -53.5l-80 -53l-38.5 -24.5q10 -38 9.5 -42t-9.5 -44q-3 -15 -11.5 -50t-13 -57.5
t-8.5 -53t-2.5 -56.5t8.5 -49q14 -44 48.5 -61.5t74.5 13.5q31 28 40 56t12 47.5t22 30.5q-2 -12 -3 -33t-2 -32q-13 -106 -87 -151q-63 -37 -124 -7q-71 35 -80 136q-6 55 10 122q6 26 22 74.5l27.5 85.5t11.5 47zM732 590q25 4 32 12.5t3 32.5q-21 -5 -25.5 -12t-9.5 -33z
" />
    <glyph glyph-name="L" unicode="L" horiz-adv-x="509" 
d="M658 623q-39 -7 -87 -90t-71 -148q32 8 63 33.5t51 52.5q30 40 39.5 69t4.5 83zM85 -67q-38 -34 -12 -75q9 1 29 13t29 21q34 34 42 61q-20 0 -35 0.5t-28.5 -4.5t-24.5 -16zM530 357q-18 -14 -32 -21q-11 -5 -18.5 -10t-14 -15t-9 -16l-10.5 -24.5l-13 -29.5
q-12 -25 -62 -137.5t-56 -130.5l52 -47.5l56 -51.5t47.5 -50.5t45.5 -60t29 -62.5t18 -75q-42 3 -73.5 27.5t-52.5 61t-40.5 74t-48 73.5t-63.5 53q-4 -5 -16.5 -31.5t-31 -53t-41.5 -40.5q-28 -17 -74 -16t-82 20t-46 57t34 96q13 16 25 26t31.5 14.5t29.5 5.5t41 1.5
t44 0.5l119 276q-60 1 -93 9t-57 35t-31.5 62t9.5 77q12 24 44 52t69.5 47t74 25t56.5 -13q-4 -15 -10 -26.5t-16.5 -21.5t-16.5 -15t-23 -16t-24 -16q-22 -15 -39.5 -40t-23.5 -50t15 -40.5t70 -10.5q9 1 15.5 2.5t11.5 4.5t8 4.5t6.5 7t5 8.5l5.5 11l6 12l34 69t36 71.5
t37.5 59.5t51.5 64q39 41 78.5 53t62 -5.5t27 -58t-26.5 -104.5q-15 -31 -27.5 -52.5t-28 -38.5t-24.5 -25t-33 -26t-37 -29z" />
    <glyph glyph-name="M" unicode="M" horiz-adv-x="1014" 
d="M182 336l6.5 16t6 14t6.5 9.5t11 8.5t15.5 4t23.5 3q13 1 22.5 0.5t16.5 -3t15 -8.5l3 -3q47 -45 31.5 -100.5t-79.5 -94.5q-7 -4 -18.5 -12t-18.5 -12t-19.5 -9t-26.5 -8q-118 -21 -157 60q-35 72 9 179q49 117 158 187q33 21 70 35q48 19 105.5 15t97.5 -29
q44 -29 54 -72t0 -98q122 131 184 109q26 -9 37.5 -24t9.5 -37.5t-8.5 -44l-17 -55t-15.5 -59.5q11 10 28.5 36.5t30.5 40.5q40 42 60.5 59t42 30t43.5 31q4 3 13 11t13 10.5t12 6t13.5 2t14 -6.5t17.5 -15q4 -27 -10.5 -81t-39 -119t-28.5 -80l-12 -45.5t-7 -40t0.5 -44
t16 -35.5t33.5 -36q7 -5 13.5 -7.5t10 -3.5t10.5 1t8.5 2.5t10 5t9.5 5.5q6 -28 -18 -45.5t-56 -18t-59 6.5q-49 18 -70.5 75.5t-17.5 120.5t24 116l60 152q-41 -23 -87.5 -75.5t-69.5 -102.5l-26 -55l-7 -19.5l-7.5 -21t-9.5 -20.5q-5 -9 -14 -22.5t-16 -32.5
q-18 -50 -49 -44q-25 5 -33 39q-6 27 7 54q11 25 35.5 96.5t54.5 132.5q13 26 19 39.5t10.5 36t3.5 47.5q-32 8 -68 -15t-66.5 -66.5t-50.5 -78t-36 -68.5l-47.5 -114t-56.5 -123q-10 -12 -32.5 -28.5t-36.5 -20.5q-16 32 3.5 87t47.5 102q44 75 88 174q2 4 13 27.5t15 33.5
t10.5 31.5t7 35.5t-3 31.5t-13.5 32.5q-36 46 -98 39t-129 -50t-108 -100q-30 -42 -49.5 -101.5t2.5 -99.5q12 -22 39.5 -29.5t65.5 5t73 47.5q17 18 30 45.5t0 42.5q-11 13 -24.5 14t-37 -4.5t-37.5 -6.5z" />
    <glyph glyph-name="N" unicode="N" horiz-adv-x="796" 
d="M263 327q-1 0 -23 -3.5t-39.5 -5t-28.5 0.5q-6 7 -2.5 12.5t8 7t17.5 10.5t26 23q15 16 40.5 17t44.5 -16q22 -27 5 -92.5t-43 -83.5q-7 -5 -15.5 -8t-21.5 -14q-18 -13 -40 -19q-86 -20 -138 27t-47 137q4 75 70.5 152t133.5 109q45 21 95.5 27t100.5 -12
q73 -34 95 -139l8 5l3 3l3 3q17 16 37 37t30 30.5t28.5 23t44 25t65.5 26.5q101 38 122 -32q13 -42 -4 -107t-48.5 -130l-64 -126t-50 -107t-6.5 -60q27 -33 68 -21q21 6 38.5 26.5t31.5 26.5q6 -38 -13.5 -64t-50.5 -35t-63.5 -8t-51.5 12q-45 25 -52.5 79.5t18.5 126
t56 131.5t70.5 131.5t50.5 91.5q12 25 -13 22q-45 -4 -133 -60q-61 -40 -74 -64q-8 -16 -12 -22t-4.5 -6t-3.5 -2.5t-9 -10.5q-8 -11 -13 -16.5t-6.5 -6.5t-3.5 -3.5t-5 -9.5q-4 -7 -10 -25.5t-9 -25.5q-9 -19 -36 -85.5t-45 -99.5q-16 -29 -28 -62l-19 -52.5t-12 -24.5
q-7 -6 -9 -6q-4 1 -26 -15q-12 5 -20 11.5t-10 15.5t-2.5 18t4 23l8.5 25.5l11 31.5l12 35q14 45 74.5 167t65.5 152q14 88 -57 103q-66 15 -157 -38q-96 -54 -131 -137q-9 -20 -13 -41q-9 -55 15 -90t78 -39q33 -3 64 16t38.5 46.5t-17.5 57.5z" />
    <glyph glyph-name="O" unicode="O" horiz-adv-x="520" 
d="M419 274q-15 -4 -45 -7t-43 -6q-10 -2 -34.5 -8.5t-39.5 -8.5q-24 1 -31.5 -1t-24 2.5t-22.5 6.5t-27 10t-37 13q-25 -82 21.5 -139t120.5 -53q41 3 63 17t45 53l8.5 13l9 14t8 13.5t8 14.5t6.5 14.5t6.5 16.5t4.5 16.5t3 18.5zM436 365q2 24 -22 69.5t-43 68.5
q-38 50 -137 71q-42 9 -79 -3.5t-58 -39.5t-31 -58t-3 -60.5t30 -45.5q27 46 73 86.5t91 43.5q60 4 71 -28q-4 -2 -6 -5q-1 -1 -6 0t-8 2q-5 1 -9.5 4t-5.5 3q-13 6 -16 6t-19 -5q-24 -10 -71 -65.5t-53 -89.5q14 -6 38 -19t34 -16t33.5 -1t55.5 15q103 38 141 67zM453 494
l44 -89q9 2 27 12.5t23 12.5q22 11 23 20.5t13 19.5q18 -4 20 -23q2 -23 -32 -52q-13 -13 -23 -25q-11 -12 -20 -19t-12.5 -8.5t-6.5 -5.5t-6 -13q-3 -10 -6.5 -38.5t-6.5 -39.5q-15 -62 -52 -129q-15 -27 -25.5 -38.5t-34 -24t-37.5 -21.5l-12 -9.5l-11 -8.5t-12 -7t-19 -6
q-52 -10 -82.5 -11t-65 11.5t-64.5 44.5q-36 38 -46.5 81.5t-4 73t19.5 67.5t15 52q-59 68 -53 132t57.5 111t119.5 54q73 8 153.5 -27.5t116.5 -96.5z" />
    <glyph glyph-name="P" unicode="P" horiz-adv-x="575" 
d="M351 265q-6 10 -17 20.5t-17 20.5q-9 16 -13.5 30.5t-4 28t0.5 31.5q-12 -12 -23.5 -26t-18.5 -21t-13 -11q-45 -28 -90 -28t-80 43q-37 50 -27 105.5t59 102.5q28 26 46.5 36.5t67.5 31.5q57 24 143.5 35.5t139.5 13t150 1.5q102 0 159 -73q54 -69 31 -154
q-29 -102 -157 -158q-68 -31 -159 -43q-41 -6 -65.5 -15.5t-32.5 -16.5t-24 -30.5t-26 -35.5q-8 -10 -47.5 -64.5t-74.5 -96.5t-57 -55q-47 -29 -116 2q-59 26 -77 72q-21 57 47 101q25 16 52 7.5t38 -32.5q-5 -3 -4 -4q-2 1 -8 1q-8 0 -20.5 4.5t-21.5 3.5q-17 -1 -24 -14
t-2 -31q15 -57 80 -49q32 3 106.5 109t99.5 158zM549 585l-4 2l-46 6q-235 11 -328 -71q-52 -45 -36 -93q12 -39 59 -48q24 -5 43 6.5t28 31.5q8 17 9.5 30.5t1 17.5t-9 19.5t-10.5 19.5q25 1 34 -3t15 -22q3 -13 3 -65q59 59 98 48q-3 -11 -22 -23t-23 -33q-10 -60 28 -80
q8 23 21 44.5t31 45t27 38.5zM473 303q180 -3 265 79q57 54 42 114q-15 56 -87 76q-24 6 -54 7q-14 -25 -28 -46.5t-25 -40.5t-30 -55z" />
    <glyph glyph-name="Q" unicode="Q" horiz-adv-x="581" 
d="M6 -59q-6 43 23.5 62t77.5 15l7 6q-102 145 -21 327q10 21 10.5 30.5t-4 12.5t-8.5 20t-3 48q3 62 35 94t95 60q50 23 109 26.5t112 -12t90 -59.5t41 -109q5 -87 -21.5 -177t-81.5 -142l-161 -116q-21 -10 -71 -31t-60 -26q7 -5 44 -35t67.5 -49t61.5 -27
q38 -10 103.5 -10t93.5 13q16 10 17 20.5t-10 21t-24.5 19l-29 18.5t-21.5 15q8 8 29 10q16 2 33 -2q10 -3 15.5 -4t9.5 -4t5 -4.5l5.5 -8.5t7.5 -11t5.5 -6t4 -5t5.5 -13q4 -9 0 -27q-17 -77 -80.5 -107.5t-145.5 -10.5q-40 9 -70 24t-43.5 28t-32.5 33.5t-32 30.5
q-55 46 -86.5 63t-40.5 12t-24 -11.5t-36 -1.5zM154 455q14 5 19.5 8t7 6.5t12 12.5t30.5 22q68 39 114.5 25.5t71 -49t12.5 -56.5l-10 18q-11 28 -30 39t-42 5t-43.5 -17.5t-40.5 -27.5q-10 -8 -21.5 -22t-18.5 -20q18 -13 60 -24q24 -3 30.5 -1t14.5 8.5t15 8.5
q30 -31 16.5 -54.5t-49.5 -28.5q-70 -10 -132 14l-8 -13q-35 -73 -28 -155q3 -25 9 -42t13 -27t20 -12.5t22 -3t27.5 6.5t28 12l32 16.5l32.5 16.5q47 23 70.5 36.5t54 41.5t45.5 63q19 43 28 82.5t9 82t-23.5 76t-70.5 50.5q-44 15 -94 18t-93 -6.5t-69 -38t-21 -71.5z
M108 12l-1 -1z" />
    <glyph glyph-name="R" unicode="R" horiz-adv-x="723" 
d="M495 350q5 -3 12 -6l43 -5q87 -2 123 64q13 21 10.5 41t-9 35t-21 29t-26.5 22.5l-24 16.5q-4 2 -5 3zM717 -104l36 -40q-22 -14 -52 -22q-52 -12 -95 15q-43 29 -69.5 95t-33.5 126.5t-12 135.5t-9 97q-14 -4 -14.5 -4.5t-17.5 -35.5l-165 -223q-17 -16 -54.5 -33
t-80.5 -27t-83 2.5t-55 51.5q-13 34 -0.5 68.5t43.5 47t79 -12.5q-2 -2 -3 -2l-8 -3q-9 -3 -21.5 -2.5t-18.5 -0.5q-24 -4 -33 -30q-7 -20 10.5 -38t55 -17.5t78.5 29.5q15 10 24 17l15.5 12t13.5 13l10 11.5t13.5 17.5t17.5 22q133 168 126 197l-6 13q-7 14 -9 20
q-7 22 -5.5 50t10.5 45l7 10q13 -13 11 -34t14 -70q8 5 30 42t44.5 79t24.5 45q-6 3 -13 6l-31 4q-277 0 -341 -101q-29 -47 -21 -78q4 -16 21.5 -31t31.5 -16q11 -1 30 11.5t29 23.5q2 41 -9 52.5t-12 22.5q18 8 53 -4q7 -44 -13 -123q-12 -49 -78 -61q-86 -16 -128 48
q-39 58 -13 137q31 95 135 143l14 6q66 27 155.5 40.5t163.5 6.5q76 -6 136 -55.5t64 -117.5q5 -72 -54 -131q-18 -19 -39.5 -25.5t-50.5 -8t-46 -5.5q18 -26 50.5 -168t53.5 -185q14 -28 39.5 -47.5t54.5 -10.5z" />
    <glyph glyph-name="S" unicode="S" horiz-adv-x="636" 
d="M487 556q-35 1 -59 -31t-14 -71q4 -15 31.5 -40.5l59 -52.5t61 -68t37 -87t-12.5 -110q-29 -78 -88 -105t-155 -24q-204 7 -279 92q-42 46 -59 122q-10 45 8 90t53.5 76t77 51t83 18.5t66.5 -26.5q32 -32 44 -83t-6.5 -98t-67.5 -62q-46 -14 -80.5 -1t-44.5 51
q-12 32 -0.5 78t43.5 46v-47.5t0.5 -49.5t13 -39.5t37.5 -17.5q43 -2 60.5 45t6.5 104q-3 15 -5 20.5t-4 7t-10 4.5t-16 8q-11 7 -22.5 19.5t-20.5 18.5q-41 -12 -78.5 -37.5t-63.5 -67t-21 -86.5q9 -66 69.5 -105.5t141.5 -41.5q75 -2 159 16q89 20 92 91q0 24 -8.5 48
t-18 40t-31.5 37.5t-32.5 30t-37 28.5t-29.5 23q-35 27 -56 65t-20 86.5t31 93.5q17 25 47 47.5t60 28.5q27 5 79 1t78 -13q38 -12 58 -30t37 -51q11 -22 11 -33t-12 -30q-27 -46 -73 -73t-86 -20.5t-49 48.5q-10 41 22 64l22 2q-2 -5 -9 -17.5t-8 -18.5t0 -24q9 -41 49 -31
q-8 15 -5.5 22t24.5 15l13 -14q-1 -1 0 -2t2 -1q3 3 7.5 7t7 6.5t5.5 8t4 13.5q6 46 -21 56q-11 4 -47.5 -2t-50.5 -18z" />
    <glyph glyph-name="T" unicode="T" horiz-adv-x="635" 
d="M711 601l82 -8q56 0 69 10q-6 2 -21.5 9t-28 11.5t-25.5 5.5q-31 5 -48.5 -0.5t-27.5 -27.5zM359 507l-5 16q30 17 56 8q2 -2 8 -21t7.5 -48t-5.5 -56t-39.5 -44t-87.5 -13q-66 5 -113.5 63t-30.5 131q5 25 28 53t45 44q53 38 119 45.5t112.5 -4.5t102.5 -30.5t73 -21.5
q13 24 36.5 43.5t58 28t72.5 -14.5q10 -6 14.5 -6.5t11.5 -4.5t29 -19q24 -17 42 -23.5t24 -6.5t14 -8.5t20 -32.5q18 -32 -8 -52.5t-68 -28.5q-29 -6 -58 -5.5t-46 3t-51.5 9.5l-48.5 10q-4 -19 -22 -96.5l-32.5 -137t-26.5 -99.5q-9 -29 -50.5 -96.5t-65.5 -86.5
q-34 -29 -62.5 -40.5t-82.5 -18.5q-74 -9 -160 25t-120 90l-35 62q-16 46 -1 86q6 17 12.5 28t15.5 17.5t15 9.5t19.5 7.5l19.5 6.5q36 15 43.5 3.5t-17.5 -40.5q-42 -50 3 -112q43 -58 122 -79q104 -27 174 41q19 19 34 44l11 23t12 23q20 35 63 188t45 181q-31 17 -124 42
q-84 22 -147 -12q-52 -32 -46 -63t32 -54.5t40 -22.5q13 1 23 15t13 31l5 21h-22z" />
    <glyph glyph-name="U" unicode="U" horiz-adv-x="840" 
d="M174 377q20 14 55 23q40 10 77 -9t49.5 -58.5t-14.5 -97.5q-9 -17 -20.5 -42t-15.5 -31.5t-14.5 -19t-23.5 -19.5t-37 -18q-32 -15 -65.5 -15t-61.5 13.5t-52 36.5t-37.5 57t-17.5 73t7.5 85.5t37.5 93.5q39 70 110.5 121.5t152.5 64.5t155 -30q37 -24 51 -71t6 -102.5
t-22 -103t-32 -86.5q-2 -4 -13.5 -24.5t-16 -31.5t-4.5 -30.5t11 -36.5q20 -15 43.5 -11t40.5 14t30 24q43 48 99 146q4 7 16 48t28.5 74.5t37.5 41.5q12 -25 5 -93t-21 -134.5t-17 -130.5t18 -82q13 -12 30 -14t34 16t21 59l29 -3q10 -51 -34.5 -89.5t-102.5 -35t-82 56.5
q-8 18 -9.5 37t1.5 47t3 37q-6 -8 -15.5 -19t-15.5 -19q-25 -32 -65 -50.5t-84 -14.5q-36 4 -56 21.5t-23.5 45.5t-1 56.5t15 64t21 57t20.5 45.5q12 25 43 103q14 35 20 63t4 55.5t-22.5 44t-58.5 20.5q-59 5 -123.5 -44.5t-105 -123.5t-38.5 -136q2 -44 33.5 -66.5t70 -13
t59.5 45.5q40 70 -4 102q-22 16 -56.5 7.5t-52.5 5.5z" />
    <glyph glyph-name="V" unicode="V" horiz-adv-x="732" 
d="M243 370q19 21 59 19.5t60.5 -33.5t-11.5 -113l-7 -15.5l-5.5 -12t-6 -10t-5 -7.5t-5.5 -7t-6 -5.5l-7.5 -5.5t-8 -5.5l-10.5 -6.5t-12 -7q-40 -24 -87 -24t-86.5 20t-67.5 60.5t-31 92.5q-5 72 20.5 122t71.5 96q48 48 104.5 75.5t108 33t98 -7.5t78 -41t45 -72.5
t1.5 -97.5q-15 -64 -36 -118q-5 -12 -10.5 -30.5t-9.5 -30.5q-13 -32 -30 -95t-17 -84q26 -9 54.5 0.5t56.5 35t45 45t38 47.5q28 36 64.5 121t22.5 118q-5 5 -24 13.5t-26.5 21t-4.5 37.5q3 27 20 46.5t41 11.5q9 -8 16 -26.5t13 -42.5t9 -32q25 8 48.5 26.5t38.5 16.5
q0 -8 -4 -15.5t-7 -11t-12.5 -11.5t-10.5 -8q-12 -9 -28.5 -15.5t-22.5 -11.5q-2 -3 -5.5 -43.5t-23.5 -103.5t-61 -122l-38 -53t-39 -46.5t-50.5 -45t-56.5 -29.5q-38 -17 -76 -12.5t-54 34.5q-18 33 3 124.5t49 165t50 117.5q65 137 -20 163q-61 18 -158 -24
q-38 -16 -64 -36q-33 -24 -51 -43.5t-33 -49.5q-34 -77 -16.5 -122.5t56.5 -64.5t77 -9q10 3 27.5 15.5t29.5 17.5l17.5 7.5t9.5 7t7 13.5t1 23q3 76 -64 57q-10 -3 -16 -4t-9 -0.5t-3.5 1.5t-1 3t-1.5 3zM720 479l-5 21q-5 1 -9 1.5t-7 0t-5.5 -2.5l-4.5 -3.5t-3.5 -4
t-2.5 -4t-2 -3.5l-1 -3z" />
    <glyph glyph-name="W" unicode="W" horiz-adv-x="958" 
d="M206 348l-16 6q78 37 119.5 14t42.5 -113q0 -6 3.5 -20.5t3.5 -24t-8.5 -27.5t-28.5 -38q-47 -47 -103 -57q-49 -8 -94 12t-73 60.5t-41 89.5t1 105.5t54 103.5q30 35 85 72t109 55q66 22 138 14q25 -4 62 -20.5t49 -29.5q44 -51 30 -115t-40.5 -115.5t-40.5 -124.5
l-12 -68l-7 -36q-4 -26 2 -32q17 -15 49.5 2.5t55.5 41.5q12 21 6 47t-3.5 77.5t24.5 92.5q52 93 103 76q30 -9 39 -45q6 -24 -5 -38q-6 -7 -9.5 -9.5t-5 -2t-4.5 -3t-8 -13.5q-2 -4 -13 -40q-6 -20 -16 -43t-12.5 -32.5t-1 -32t12.5 -58.5q22 -78 135 -5q49 31 92 126.5
t30 171.5q-25 -1 -54 -5q-22 -3 -27 1t-12 28q-2 7 -3 11q-7 34 -2.5 40.5t36.5 19.5q10 4 18.5 10.5t21.5 10.5q22 -12 33.5 -26t20.5 -40q22 7 48 31q2 2 20 18q4 3 6.5 6t3.5 4.5l2 3t3.5 3l7.5 4.5q11 -20 -20.5 -52t-60.5 -48q11 -80 -17.5 -163.5t-80.5 -140.5
q-63 -72 -130 -84q-59 -11 -87.5 1.5t-62.5 53.5q-13 -4 -33 -25.5t-44 -36.5q-25 -16 -52.5 -22t-55.5 6q-21 13 -29.5 39t-3.5 66.5t9 58.5l14 60q22 92 29 110q7 19 23.5 50l29.5 54.5t21 50.5t4 45t-29 30.5t-71 13.5q-50 1 -105.5 -20.5t-99.5 -57.5t-64.5 -90.5
t-0.5 -111.5q16 -48 57 -67t77.5 -11.5t46.5 28.5q12 26 12.5 56t-13.5 51q-14 19 -29 21.5t-33.5 -4t-27.5 -5.5zM901 403l-5 21q-5 1 -9 1.5t-7 0t-5.5 -2.5l-4.5 -3.5t-3.5 -4t-2.5 -4t-2 -3.5l-1 -3z" />
    <glyph glyph-name="X" unicode="X" horiz-adv-x="611" 
d="M346 34q-30 31 -39 61.5t-11 86.5q-9 -3 -24 -14t-32.5 -26.5t-26.5 -21.5q-63 -45 -100.5 -109.5t-14.5 -128.5q4 -10 7 -16t4.5 -7.5t5 -4t5.5 -4.5q5 -5 7 -2q0 -1 2 -8q-17 -6 -40.5 1.5t-44.5 26t-32 53.5t-3 77q20 110 117 193l26.5 21.5l41.5 33.5l42.5 35t37 33
t17.5 20q3 7 10.5 63t8.5 73q9 87 3 107q-15 43 -95 2q-31 -16 -57 -49q-44 -57 -23 -108q13 -31 37 -30q20 0 33 27q4 8 4.5 13.5t0 8.5t-2 4.5t0 2.5t4 1.5t11.5 2.5q2 -10 4.5 -24.5t-1 -44.5t-19.5 -41q-36 -25 -90 3q-56 29 -69 86q-15 68 50 137l9.5 11.5l7 8.5
t7.5 7.5t13 10.5q29 20 47 28q38 17 58.5 20.5t67.5 -3.5q26 -5 50 -27.5t30 -41.5q12 -30 18 -127q16 16 89 78t94 88l16 14q20 -30 20.5 -41t-16.5 -46q-18 -35 -60 -79l-130 -147q-10 -20 -9 -89q1 -117 51 -117q36 0 94 70q10 12 26.5 42.5t26.5 42.5q15 -22 -33 -149
q-18 -50 -59.5 -84t-87 -36.5t-85.5 32.5z" />
    <glyph glyph-name="Y" unicode="Y" horiz-adv-x="771" 
d="M454 -186q-2 0 -26 2t-38 2.5t-40.5 0.5t-44.5 -3t-39 -8.5t-36 -16t-24 -25.5q-18 -32 5 -62.5t65.5 -35t92.5 25.5q15 10 49 55.5t36 64.5zM231 185q36 1 58.5 36t21.5 75.5t-22 55.5q-13 9 -41.5 9.5t-36.5 2.5q30 28 71.5 24t61.5 -38.5t-2 -102.5q-15 -45 -18 -60
q-1 -5 -2.5 -9.5l-2.5 -7.5t-4 -6t-4 -4.5t-5 -4l-5.5 -3.5t-7.5 -4l-8 -4q-26 -15 -65.5 -22.5t-82.5 -4.5t-78.5 29t-46.5 73q-20 84 20.5 170.5t110.5 142.5q89 70 143 86q91 28 178 -22q46 -27 61.5 -60t10.5 -98q-4 -53 -29.5 -130t-53.5 -130l-10.5 -17.5t-12 -21
t-7.5 -19t-1 -18.5q9 -16 30 -20t41.5 1t35.5 14q49 30 61 83q6 23 17.5 59t15.5 52q2 6 5.5 20t5.5 20l5.5 16t6.5 14.5t8 10.5t11 8t14 3q26 -28 27.5 -98.5t-10.5 -113.5q-4 -19 -8 -56t-7 -52q-4 -23 -36.5 -105t-36.5 -96q51 4 92.5 21.5t60.5 36t34 36t18 18.5
q1 -38 -11 -66.5t-31.5 -45.5t-49.5 -28t-60 -15.5t-69 -6.5q-7 -4 -10 -7t-6.5 -9.5t-7.5 -12.5q-1 -1 -7 -8.5t-10 -11.5q-17 -20 -37 -37q-43 -37 -99.5 -74.5t-87.5 -37.5q-12 0 -18 4t-41 2q-31 -3 -57 15q-59 40 -49 100q10 57 60.5 88t115.5 37q12 1 70 2.5t75 4.5
q10 13 32.5 79t26.5 90q-2 -1 -25.5 -14t-47 -22.5t-57 -8t-59.5 23.5q-28 23 -33 60.5t12 84.5t30 75t36 68q4 7 41 92q10 25 16.5 51t8 56t-13.5 48.5t-48 18.5h-27q-60 0 -132 -54t-108 -104q-20 -28 -33 -68t-5 -82.5t47 -59.5q36 -14 87 -16z" />
    <glyph glyph-name="Z" unicode="Z" horiz-adv-x="740" 
d="M733 528q86 -11 107 35l-33 4q-22 4 -42.5 -9.5t-31.5 -29.5zM170 -38q-10 2 -25.5 7.5t-28.5 8.5t-28 3q-30 -9 -34 -36.5t31 -34.5q18 -3 45 15.5t40 36.5zM889 584q6 -6 10 -21t3.5 -34t-14 -39t-39.5 -31q-20 -9 -43 -10t-40 3l-41.5 10t-40.5 8l-107 -150
q34 -1 98 7q-4 -8 -8.5 -13.5t-7.5 -7.5t-11 -5.5t-12 -6.5q-10 -5 -20.5 -15t-21.5 -13q-31 -8 -39.5 -4t-16.5 -1.5t-37 -39.5q-22 -26 -82 -129.5t-83 -128.5q25 -27 85 -45.5t121 -25.5q63 -7 139 10q69 17 62 43q-4 11 -15.5 12.5t-24 -1.5t-26.5 2q82 32 103 -2
q16 -27 -20 -69q-54 -61 -159 -72q-91 -10 -195 27q-30 11 -72 33.5t-59 29.5q-13 -7 -39.5 -24.5t-44.5 -26.5q-19 -10 -53 -13.5t-57 2.5q-24 7 -42.5 23t-28 36.5t-1.5 47t36 51.5q17 15 47.5 23.5t53.5 1.5q27 -9 58.5 16t58.5 63.5t69.5 90.5t81.5 83q-67 16 -78 27
q7 2 15.5 6.5t17.5 7t21 2.5h21.5h26h21.5l149 179q-29 18 -61.5 30.5t-75.5 17.5t-75 -11q-37 -16 -57.5 -48t-9.5 -61t58 -36q0 23 -7 40q19 -4 23 -7t8 -20q7 -30 -13 -45t-48 -13t-46 15q-42 31 -47 76.5t20 84.5t76.5 64.5t111.5 20.5q43 -3 105.5 -29.5t93.5 -30.5
q14 18 43 36.5t53 22.5q17 3 65.5 -7t63.5 -17z" />
    <glyph glyph-name="bracketleft" unicode="[" horiz-adv-x="406" 
d="M396 433l-3 -21l-84 -2q-2 -3 -18.5 -19.5t-23.5 -27.5q-39 -57 -123 -209t-81 -180q20 -2 67.5 14t71.5 17q-5 -11 -6.5 -13t-8 -3.5t-14.5 -6.5q-54 -30 -113 -30q-17 0 -33.5 15.5t-15.5 36.5q0 14 34.5 103t48.5 120q10 24 33 68q27 49 89 113q6 6 26 23t27 25
q6 -3 10 -4.5t6 -1t3.5 1.5t3.5 2.5t5 2.5l57 -12q5 -1 14 -6t11 -5.5t4.5 0t12.5 -0.5z" />
    <glyph glyph-name="backslash" unicode="\" horiz-adv-x="545" 
d="M10 582q8 -2 12 -2q1 0 5 -3q4 -4 8 -7q50 -43 109 -119q4 -7 7 -10q12 -16 35.5 -44l29.5 -35l61 -77q12 -16 68 -95.5t81 -108.5l33 -36q21 -26 34.5 -37t17.5 -9.5t9.5 -2t14.5 -17.5q-5 -10 -9 -14q-14 -14 -27.5 -13.5t-21 7t-17 20t-10.5 14.5q-16 17 -36 33
q-17 13 -36 33l-50 52q-1 0 -3 2l-45 57q-5 6 -24.5 33l-31.5 44q-5 7 -13.5 20t-14.5 21q-50 60 -117 158.5t-69 135.5z" />
    <glyph glyph-name="bracketright" unicode="]" horiz-adv-x="358" 
d="M170 420q13 12 84 22.5t86 3.5q6 -3 7.5 -14.5t-1.5 -28t-7.5 -34t-10 -35t-9 -27.5t-5.5 -15l-138 -267q-5 -8 -11.5 -25t-10.5 -24l-5 -8.5t-4.5 -5.5t-4 -3t-5.5 -1.5t-6 -0.5t-8 0.5t-10 0.5q-16 1 -32 -3t-24 -6.5t-19.5 1.5t-25.5 18l37 6.5t27.5 4.5t16 4t12 7
t6.5 11q1 3 2 8t2 8q13 36 61.5 121t88 164t39.5 124q-27 -1 -49 -7t-31.5 -10.5t-22 -2.5t-29.5 14z" />
    <glyph glyph-name="asciicircum" unicode="^" horiz-adv-x="233" 
d="M10 534q6 3 12 5.5t9.5 5.5t9.5 10q4 5 13.5 21t16.5 26t18.5 18t23.5 6q21 -4 59 -42q12 -11 25.5 -19t19 -13t6.5 -17q-31 -5 -70 24.5t-48 32.5l-29 -40q-10 -12 -12 -16.5t-2 -11t-5 -16.5z" />
    <glyph glyph-name="underscore" unicode="_" horiz-adv-x="509" 
d="M496 -113l3 -56q-18 -6 -44 -9t-40.5 -3t-58 1t-53.5 1q-34 1 -90 4.5t-81 4.5q-1 0 -20 -0.5t-34 0.5t-33 5.5t-27 16.5t-7 31q17 1 25 -5.5t37 -5.5q9 0 25 1t29.5 1.5t25.5 0.5q191 0 343 12z" />
    <glyph glyph-name="grave" unicode="`" horiz-adv-x="157" 
d="M10 621l23 20q70 -66 114 -104l-23 -25q-10 5 -21.5 14.5t-19.5 17.5l-23 23.5l-23 23.5q-15 15 -27 30z" />
    <glyph glyph-name="a" unicode="a" 
d="M155 33q-7 -3 -19 -13q-32 -23 -63.5 -27t-52 10.5t-31 38.5t-1.5 58t38 68q47 53 118 95q21 12 32 17t26 7.5t25.5 -7.5t19.5 -31l7 -18q1 -2 2 -2q4 0 14 -8l-7 -17q-8 3 -19.5 9.5t-17 9t-15 0t-19.5 -12.5q-44 -44 -84.5 -99t-43.5 -94q37 4 59 22q8 6 12.5 10t6.5 9
t3 8t2 11.5t2 13.5q5 28 25.5 55.5t44.5 32.5q9 -13 11 -26t0.5 -21t-7.5 -23.5t-8 -23.5q-18 -58 13 -62q33 -4 79 49q20 22 37 51l16 -5q-16 -52 -56 -89t-90 -33q-12 1 -20 3t-16.5 10t-10 9.5t-12.5 14.5z" />
    <glyph glyph-name="b" unicode="b" horiz-adv-x="304" 
d="M145 252q43 20 64.5 9.5t22.5 -62.5q1 -43 -7 -69.5t-29 -61.5q-10 -16 -24 -32q11 -28 52 -3q43 27 80 90l17 -5q-17 -52 -57 -89t-90 -33q-23 3 -34 10q-22 -14 -33 -19q-32 -13 -66.5 1t-45.5 39q-23 54 4 132.5t76.5 144t102.5 108.5q11 9 18.5 16.5t9.5 10.5t5 5
t7 3q14 -20 13 -37.5t-13.5 -40.5t-27 -41t-28.5 -39.5t-17 -36.5zM155 141q-14 3 -20 10.5t-10.5 20.5t-10.5 20q-30 -58 -48 -124q-21 -77 17 -69q10 2 26 12q39 25 74 88.5t10 110.5q-21 -5 -31 -23q-5 -9 -6 -15t0 -12t-1 -19z" />
    <glyph glyph-name="c" unicode="c" horiz-adv-x="245" 
d="M74 32q35 -38 90.5 1t80.5 90l16 -5q-24 -72 -78 -104t-120 -14q-38 10 -61 42t-16 71q13 70 87 119q62 41 104 32q47 -9 18 -77q-8 -18 -21 -40q-18 -2 -23 -1t-15 10q5 9 16.5 11.5t19 11.5t7.5 36q-41 2 -90 -75q-23 -35 -26 -66t11 -42z" />
    <glyph glyph-name="d" unicode="d" horiz-adv-x="328" 
d="M142 115q4 18 14.5 57t14.5 58q-25 -7 -70.5 -68t-34.5 -100q27 -14 49.5 9.5t26.5 43.5zM198 -4q-18 2 -26 3.5t-21 6.5t-17 17t-1 31q-22 -21 -54 -24t-56 11.5t-35 43t8 70.5q11 25 48 57t75.5 48.5t64.5 -0.5q49 89 61 104q6 7 13.5 17l11.5 15.5t10 13t9.5 10
l10 7.5t10.5 4.5t11.5 1.5t13.5 -1q0 -9 -7 -26t-17 -38t-13 -30l-6 -18l-13 -33.5l-15.5 -42t-16.5 -48.5l-15.5 -48.5t-14 -47t-9.5 -38t-3.5 -28t5.5 -11.5q21 -5 55 22.5t63 77.5l17 -5q-16 -51 -56.5 -88.5t-90.5 -33.5z" />
    <glyph glyph-name="e" unicode="e" horiz-adv-x="244" 
d="M74 32q34 -38 90 1t80 90l17 -5q-24 -72 -78.5 -104t-119.5 -14q-39 10 -61.5 42t-15.5 71q11 61 71 106.5t109 46.5q33 1 44.5 -27t-11.5 -60l-21.5 -30t-25.5 -33.5t-24.5 -26t-31 -23t-33.5 -8.5q1 -16 11 -26zM64 84q28 0 71 53.5t43 77.5q-39 2 -90 -75
q-20 -32 -24 -56z" />
    <glyph glyph-name="f" unicode="f" horiz-adv-x="270" 
d="M98 24q10 1 13 2.5t3.5 2.5t-0.5 7t-1 11q-11 -10 -15 -23zM143 -4q0 -3 -0.5 -12t-1.5 -17q-2 -11 -7 -28.5t-6 -22.5q-6 -34 -17 -63t-35.5 -50.5t-56.5 -12.5q-35 10 -43.5 23t-10.5 54q-2 48 15 106q11 40 10 46t-7.5 16.5t-6.5 29.5q0 31 32 45q6 2 15 6
q16 6 22 13.5t30 56.5q6 12 10 19q25 49 88 131.5t95 83.5l12 1q-2 -2 2 -5q7 -9 -11.5 -46.5t-45 -82t-30.5 -54.5q-32 -77 -42 -97q-3 -5 -9 -17l-8 -16t-4.5 -13t-1.5 -14t4 -13t10 -16l-1 -19q17 -15 55.5 11.5t71.5 83.5l17 -5q-16 -51 -55.5 -88.5t-88.5 -33.5zM119 1
q-32 -4 -38.5 -12t-24.5 -65l-4 -12t-4 -12.5t-4 -12t-4 -13t-2.5 -12.5t-2 -13.5t-1 -12.5t0 -13.5t1.5 -13.5q62 13 83 192z" />
    <glyph glyph-name="g" unicode="g" horiz-adv-x="347" 
d="M-13 -159q63 -7 91 38q33 55 41 92q-4 0 -19.5 -1.5t-23 -2.5t-21 -3.5t-21.5 -5t-17 -8t-15 -11.5q-22 -24 -26 -44.5t11 -53.5zM207 -2q-8 -43 -48 -109q-11 -16 -40 -43t-42 -34q-11 -5 -68 -15q-57 -8 -69 46t26 100q20 26 54.5 39t61.5 15.5t47.5 20t21.5 55.5
q-6 -4 -20.5 -20t-32.5 -23q-35 -14 -79 7q-24 11 -33.5 32t-3.5 46.5t23 51.5t48.5 49.5t71.5 37.5q50 18 85 4q39 -16 -1 -60l-5 8q-6 8 -7 13q0 1 -2 1q-3 -1 -9 -1q-20 0 -72.5 -55.5t-57.5 -90.5q-3 -26 15 -24q25 2 57 41q2 2 3 4q18 24 25.5 36.5t8.5 16.5t-0.5 13
t-1.5 17l80 4l-22 -153q17 -16 55 11t71 84l17 -5q-16 -52 -56 -89.5t-91 -32.5q-4 0 -10 2z" />
    <glyph glyph-name="h" unicode="h" horiz-adv-x="326" 
d="M196 -4q-51 5 -60 29q-10 24 -4 50t15 41l22.5 36.5t18.5 36.5q-23 -7 -74.5 -58t-77.5 -84l-40 -61q-9 7 -22.5 22t-18.5 20q11 29 16 44t13 33l10.5 23.5t12.5 21.5t13.5 21l19.5 28l26 37q15 21 46.5 76t44.5 73q18 24 23.5 36t8.5 16q16 3 37 -4q3 -9 3.5 -16.5
t-1.5 -14.5t-4 -11t-7.5 -13t-7.5 -13q-16 -29 -32 -64q-7 -16 -31.5 -62.5t-31.5 -68.5q6 4 20.5 15t23.5 17t25.5 14.5t27 8t27.5 -3.5q3 -3 -1.5 -24.5t-12 -50.5t-13.5 -57.5t-5.5 -48t11.5 -18.5q21 2 51.5 29t57.5 72l16 -5q-16 -52 -56 -89.5t-90 -32.5z" />
    <glyph glyph-name="i" unicode="i" horiz-adv-x="156" 
d="M49 219q2 3 3.5 5.5t2 3.5t2.5 1.5t7 2.5q34 -21 33 -37q-1 -4 -35 -100q-27 -74 -14 -72q22 2 52 29t56 71l17 -5q-15 -46 -49 -82t-78 -40q-3 0 -10 -0.5t-10 -0.5q-27 -1 -42 15.5t-9 54.5q10 61 48 116zM77 314l61 -6l-13 -56q-47 -5 -57 4q-10 10 -2 33q1 1 5 11.5
t6 13.5z" />
    <glyph glyph-name="j" unicode="j" horiz-adv-x="234" 
d="M52 214l87 3l-31 -189q17 -16 55.5 11t70.5 84l17 -5q-16 -52 -56 -89.5t-90 -32.5q-5 0 -11 2q-8 -43 -48 -109q-10 -16 -39 -43t-43 -34q-11 -5 -68 -15q-56 -8 -68.5 46t25.5 100q23 30 64 41l73.5 20.5t42.5 37.5q3 7 16.5 74t12.5 68l-5 2q-30 -40 -43 -71l-17 5
l46 80zM-126 -159q65 -7 92 38q31 52 40 92q-1 0 -23 -2t-28.5 -3.5t-23 -4.5t-26 -8.5t-16.5 -13.5q-22 -24 -26 -45t11 -53zM89 314l61 -6l-13 -56q-47 -5 -57 4q-10 10 -2 33q3 11 11 25z" />
    <glyph glyph-name="k" unicode="k" horiz-adv-x="322" 
d="M126 215q2 1 9 5.5t8 5t7.5 4t8 3.5t9 3t10.5 1.5t12 0.5t15 0q48 -3 73 -34q-10 -34 -52.5 -56.5t-94.5 -24.5q8 -66 73 -100q21 -6 55 21.5t63 78.5l17 -5q-14 -43 -45.5 -78t-71.5 -43q-57 -11 -96.5 12t-43 63t25.5 86q13 2 36 3.5t31.5 3t22.5 6t23 13.5t18 25l-2 1
q-2 1 -2 2l-2 1l-1 1l-42 5q-21 -4 -53.5 -29.5t-47.5 -45.5q-8 -10 -14 -18.5t-11.5 -18t-8 -13.5t-7.5 -15t-6 -13.5t-7.5 -17.5t-7.5 -18q-5 -13 -12.5 -22t-11.5 -20q-19 11 -39 27q-1 16 1 33.5t9 38l13 37t20.5 41.5t21.5 38.5t25 40.5l24 36l25.5 37l21.5 31l74 91
q3 -1 5.5 -2l5 -2t3.5 -2t3 -2.5t2.5 -2t2 -3t2 -3.5t2 -4.5t2.5 -5.5q-8 -16 -50 -89.5t-51 -107.5z" />
    <glyph glyph-name="l" unicode="l" horiz-adv-x="207" 
d="M133 233q31 18 69 90t23 87q-8 8 -30.5 -34t-41 -87.5t-20.5 -55.5zM94 -4q-64 -5 -92 25t-13 95l91 186q1 1 8.5 15t9.5 17.5l10 17l11.5 19l11 17t13 17t13 14.5t14 14t14.5 9.5t16 7.5q16 5 31.5 -10.5t17.5 -32.5q3 -34 -16 -73.5t-45 -69.5t-52.5 -64t-33.5 -54
q-1 -4 -8 -21t-12.5 -32.5t-9 -32.5t2 -27.5t19.5 -10.5q22 0 53.5 27.5t58.5 73.5l17 -5q-15 -47 -50 -83t-80 -39z" />
    <glyph glyph-name="m" unicode="m" horiz-adv-x="426" 
d="M214 218l-33 -100q17 7 40.5 26.5t39 33.5t39.5 22t43 -7q1 -15 -25 -95q-22 -75 -2 -76q22 1 53 28t57 73l17 -5q-12 -39 -39 -72t-63 -45q-23 -11 -66 -4t-50 34q-11 43 19 96q-46 -32 -73 -75.5t-47 -58.5q-31 15 -36.5 39t5 45t29 52t23.5 47q-23 -15 -128 -175
q-42 21 -45.5 52t15 58t49.5 68t42 65q6 12 2 14l1 1q4 2 9 5q23 4 44 -23q-1 -15 -9.5 -22t-10.5 -25q11 6 24.5 15.5t21 14t21.5 4t33 -9.5z" />
    <glyph glyph-name="n" unicode="n" horiz-adv-x="300" 
d="M18 -7q-5 4 -16 11t-14.5 10t-6.5 11.5t-2 21.5q5 47 35.5 100.5t67.5 95.5q2 -2 8 -6.5t7.5 -6t7 -6.5t5.5 -7.5t3.5 -10t1.5 -12.5t-1 -16q12 7 30.5 22t29.5 22.5t28 6.5t34 -18q-2 -16 -3 -16q-4 0 -9 -8q-4 -8 -10 -23q-2 -5 -10.5 -22t-16 -33.5t-14 -34.5
t-5.5 -31t11 -18q19 -9 54.5 18t66.5 80l17 -5q-16 -52 -56 -89.5t-90 -32.5q-35 3 -50 17.5t-11.5 36.5t12.5 42.5t21 44.5t15 35q-22 -11 -60.5 -63.5t-62.5 -95.5q-4 -6 -9 -12z" />
    <glyph glyph-name="o" unicode="o" horiz-adv-x="263" 
d="M145 42l-5 -7q-33 -40 -94 -25q-46 11 -66 58.5t10 99.5q54 85 136 105q62 16 89 -17q10 -12 11 -29q1 -11 -10 -50.5t-17 -52.5q-15 -30 -27 -48q16 -7 45 3.5t46 43.5l16 -5q-11 -41 -52 -60t-82 -16zM81 26l10 4q10 4 15 10t16 21q-17 29 -18 47t6 52q0 -1 -10 -13
t-19.5 -26.5t-17 -32t-3.5 -34.5t21 -28zM153 91q20 32 23.5 55.5t-1.5 57.5q-19 -10 -25.5 -51.5t3.5 -61.5z" />
    <glyph glyph-name="p" unicode="p" horiz-adv-x="286" 
d="M121 8q-22 -8 -31 -7t-27 7t-33 6l-22.5 -53.5t-24.5 -64.5q-3 -9 -10.5 -38t-15 -50t-16.5 -33q-13 4 -28 12q-80 44 87 327q9 15 25.5 62t22.5 56l45 -13q0 -11 -7.5 -25.5t-9.5 -30.5q5 5 17.5 21t20.5 25t23 16t32 6q46 -4 55 -42t-12 -83t-55 -74l-4 -3q16 -6 21 -6
q21 -1 53 26t59 74l17 -5q-17 -52 -57 -89.5t-90 -32.5q-21 3 -35 12zM96 52q29 18 58 74q27 51 22 79q-5 29 -51 -23l-69 -122z" />
    <glyph glyph-name="q" unicode="q" horiz-adv-x="304" 
d="M175 -4q-28 5 -54 -39t-47.5 -104t-27.5 -68q-43 14 -52 33q-12 28 -1 65t33 76t24 44q-19 10 -26.5 15t-21.5 16t-19.5 25.5t-6.5 33.5q-3 63 46.5 104.5t115.5 53.5q45 9 72.5 -2.5t6.5 -53.5q-17 3 -17 7q0 2 1 4q3 3 -2 3q-4 1 -13 0q-8 -1 -40 -21.5t-46 -30.5
q-70 -59 -52 -104q20 -50 83 54q17 28 27 50q9 18 12 19h5h7q9 0 12 -3q10 -3 23 -10q0 -11 -2 -16.5t-7.5 -11.5t-9.5 -12l-41 -88q29 -13 37 -12q22 1 53 27.5t57 72.5l17 -5q-16 -52 -56 -89.5t-90 -32.5z" />
    <glyph glyph-name="r" unicode="r" horiz-adv-x="258" 
d="M58 186q-30 -40 -43 -71l-17 5l46 80q-30 33 -19.5 57.5t61.5 48.5q14 -6 18 -10t11 -16q-4 -10 -20 -29.5t-19 -38.5q31 -3 56 4.5t39 3.5q20 -4 32 -11.5t7 -16.5q-3 -5 -23 -26q-77 -82 -76 -114q1 -22 29 -29q21 -5 55.5 22.5t62.5 77.5l17 -5q-16 -52 -56 -89.5
t-90 -32.5q-40 4 -67.5 33t-12.5 64q15 37 38 60.5t27 31.5z" />
    <glyph glyph-name="s" unicode="s" horiz-adv-x="268" 
d="M89 30q-3 7 -6.5 13t-8.5 12t-10 4t-9 -13q-6 -17 6 -23.5t28 7.5zM59 186q-29 -39 -44 -71l-17 5q41 69 47 80q-30 33 -19.5 57.5t61.5 48.5q14 -6 18 -10t11 -16q-3 -7 -9 -15t-11 -13.5t-9 -11t-3 -9t8 -6.5q35 -13 53.5 -53t17.5 -81.5t-17 -65.5q20 -9 55.5 18
t66.5 80l17 -5q-16 -52 -56.5 -89.5t-90.5 -32.5q-3 1 -8 1q-50 -16 -56 -16q-38 0 -54 36.5t22 61.5q22 8 30.5 6t33.5 -14q7 36 -3.5 75t-43.5 40z" />
    <glyph glyph-name="t" unicode="t" horiz-adv-x="192" 
d="M-1 272l11 32q44 -9 48 -9q6 20 38 69q2 4 9 14l10 14.5t7.5 13t7.5 16t4 16.5q35 -2 62 5q0 -42 -2 -60t-5 -25.5t-14.5 -26t-22.5 -41.5l58 6l-8 -42q-26 -7 -80 -7q-34 -52 -60 -125q-38 -106 16 -100q7 1 15 3q51 15 99 98l17 -5q-13 -40 -41 -73t-64 -44
q-71 -22 -107 -3q-31 16 -32.5 54t15 74.5l35.5 77.5t20 55q-13 6 -36 13z" />
    <glyph glyph-name="u" unicode="u" horiz-adv-x="296" 
d="M239 216q-1 -4 -7 -14l-16 -28t-17 -38l-10 -28.5t-11 -35.5t-4.5 -37t13.5 -12q22 2 52.5 28.5t56.5 71.5l17 -5q-23 -75 -83 -108q-79 -44 -105 -37q-24 7 -19 47q-19 -28 -54 -35.5t-59.5 15t-15.5 69.5q7 40 42 92l52 83q32 4 41 -2t-4 -30q-67 -112 -73 -179
q-2 -28 14 -26q20 3 45 38q7 10 10 18q38 90 67 149q2 3 5.5 11t5.5 9.5t7 3.5t14 1q21 -3 36 -21z" />
    <glyph glyph-name="v" unicode="v" horiz-adv-x="228" 
d="M128 106q11 9 20 45.5t9 57.5q-41 -19 -29 -103zM153 73q-11 -24 -26.5 -44t-37 -37t-47 -13t-50.5 33q-18 19 -16 53.5t12.5 64t20.5 62.5t7 49q6 0 18.5 1t17.5 1h13t8.5 -1.5t5 -3t2 -5t0 -7t-2 -10.5t-3.5 -13.5t-4 -17.5l-4 -22q-22 -131 -10 -144q48 22 62 65
q-33 33 -28.5 84.5t41.5 70.5q16 8 24.5 11.5t19 4t15 -8t4.5 -26.5q1 -19 -11 -62t-23 -66q12 -4 35 2.5t32 28.5l17 -5q-8 -28 -35 -38.5t-57 -6.5z" />
    <glyph glyph-name="w" unicode="w" horiz-adv-x="361" 
d="M88 228q-1 -3 -6 -14t-12.5 -30t-12.5 -40q-26 -116 0 -114h2q23 5 50 36q1 30 22 92.5t18 82.5q6 0 18.5 1t17.5 1h13t8.5 -1.5t5 -3t2 -5t0 -7t-2 -10.5t-3.5 -13.5t-4 -17.5l-4 -22q-22 -131 -10 -144q47 21 62 65q-34 33 -29 84.5t43 70.5q15 8 23.5 11.5t19 4
t15.5 -8t5 -26.5q0 -20 -12 -62.5t-23 -65.5q12 -4 35 2.5t32 28.5l17 -5q-8 -28 -34.5 -38.5t-57.5 -6.5q-11 -24 -26.5 -44.5t-36.5 -37t-47 -12.5t-51 33q-6 7 -11 19l-11 -9q-85 -61 -110 -45q-42 27 27 239q2 4 4 10t3 8t3.5 5t7 4t11.5 1q21 2 39 -16zM261 106
q11 9 20 45t10 58q-42 -18 -30 -103z" />
    <glyph glyph-name="x" unicode="x" horiz-adv-x="245" 
d="M13 115l-16 6l33 57q1 1 5 7t5.5 8l5.5 7t7 7t8 4t10 3t11 0q8 -1 13 -4t7.5 -9.5t3.5 -11t2 -15.5t2 -15q11 4 24 17.5t24.5 27.5t13.5 16q19 -11 24.5 -18.5t-2 -23.5t-35.5 -44l-9.5 -9.5l-8.5 -8.5t-6.5 -7.5t-5 -8.5t-2.5 -9t-1 -11.5t1.5 -14.5t2.5 -19t5 -23
q22 0 53 27t57 73l17 -5q-16 -52 -56 -89t-90 -33q-20 3 -30 8q-9 4 -17 17t-14 18q-19 -10 -35 -30.5t-26 -26.5q-12 -7 -18 -3.5t-5 16.5q0 10 17.5 25t38 38.5t26.5 52.5q13 61 13 68q-16 -3 -27 -18t-26 -46z" />
    <glyph glyph-name="y" unicode="y" horiz-adv-x="316" 
d="M174 222q12 2 23.5 -1.5t22.5 -3.5l-31 -189q17 -16 55.5 11t71.5 84l16 -5q-16 -52 -56 -89t-90 -33l-11 2q-9 -46 -48 -108q-10 -16 -39 -43.5t-43 -34.5q-11 -5 -68 -15q-56 -8 -68.5 46.5t25.5 100.5q18 23 47.5 35t54.5 15t48 14.5t31 34.5q-4 -2 -18 -8t-19.5 -8
t-17.5 -5.5t-20 -3.5t-18.5 1.5t-19.5 5.5q-18 9 -22 32.5t11 58.5q17 37 44 72t39 56q5 -1 9.5 -2.5t7.5 -3t6.5 -4.5t5 -4.5l5.5 -5.5t5 -6q-3 -13 -30.5 -69.5t-27.5 -82.5q-1 -29 39 -3q19 13 26 22q17 25 36 81zM-45 -158q65 -7 91 37q33 54 41 93q-4 0 -17 -1.5
t-19 -2t-18 -2.5t-19 -4t-16 -5t-16 -7.5t-12 -9.5q-44 -48 -15 -98z" />
    <glyph glyph-name="z" unicode="z" horiz-adv-x="314" 
d="M127 94h71l-10 -66q17 -16 55 11t71 84l17 -5q-16 -52 -56 -89t-91 -33l-10 2q-9 -46 -48 -108q-11 -17 -39.5 -44t-42.5 -34q-11 -5 -68 -15q-57 -8 -69 46.5t26 100.5q19 24 48.5 36t54 15t47 14t30.5 33q0 1 2 9h-47q0 1 -4.5 5.5t-10.5 9.5t-7 6q3 6 20 29
q53 72 43 89q-5 8 -19 8q-24 0 -45 -28.5t-32 -54.5l-16 6q0 1 19.5 34.5t39 51t44.5 16.5q31 3 55 -12.5t19 -46.5q-6 -40 -47 -70zM-46 -158q64 -7 91 37q33 54 41 93q-2 0 -19.5 -2t-23 -2.5t-20.5 -3t-22.5 -5.5t-16.5 -8t-15 -11q-44 -48 -15 -98z" />
    <glyph glyph-name="braceleft" unicode="{" horiz-adv-x="327" 
d="M10 250q12 20 25.5 31t31.5 20.5t30 19.5t28 37t30.5 55.5t34 59t37.5 47t42 19.5t48 -22q-4 -16 -12 -22.5t-18 -10t-29.5 -33.5t-42.5 -88q-30 -75 -46 -96t-70 -44q8 -14 15.5 -22t11 -10.5t6.5 -15t3.5 -37t0.5 -75.5q0 -80 33.5 -101.5t104.5 9.5q-2 -8 -4.5 -11
t-8 -6.5t-9.5 -6.5q-6 -5 -12 -12t-9 -10q-18 -16 -52.5 -20t-68.5 12.5t-45 53.5q-13 45 4.5 124.5t5.5 98.5q-11 17 -57 28z" />
    <glyph glyph-name="bar" unicode="|" horiz-adv-x="116" 
d="M106 560q-7 -30 -7.5 -34t3.5 -40q3 -33 -9.5 -164.5t-8.5 -152.5q6 -32 9 -100.5t4 -80.5q3 -32 -8 -80t-12 -62h-2q-37 -1 -45 7q-10 10 -16 78v4q-1 6 -1 9q-4 32 -2 117t0 114q-5 89 17 346q4 45 3 51.5t-9 35.5q38 12 84 -48z" />
    <glyph glyph-name="braceright" unicode="}" horiz-adv-x="394" 
d="M370 239l14 -51q-11 -10 -27.5 -14.5t-24.5 -8.5l-21.5 -9t-26.5 -12q-26 -13 -43 -40t-27 -56.5t-22 -59.5t-35.5 -55t-59.5 -36l-23 27q-8 1 -19 1.5t-14.5 1.5t-9.5 2.5t-8.5 5.5t-6 10.5t-6.5 16.5q10 15 33 29q44 26 67.5 53.5t41.5 63.5t36 57q9 12 34 31l35 19
l4 3q-2 2 -2 4q-23 34 -28 67.5t4 56.5t17.5 47.5t12 40t-11.5 34.5q-8 8 -31.5 16t-27.5 33q8 -1 24 -2t21.5 -2t16 -4.5t18 -9t16.5 -15.5q23 -25 30 -54t2 -50l-12.5 -50.5t-8.5 -47.5q0 -29 22 -43q8 -4 47 0z" />
    <glyph glyph-name="asciitilde" unicode="~" horiz-adv-x="423" 
d="M10 147q2 6 3.5 8.5t4 4.5t5.5 4t10.5 8.5t16.5 15.5q51 52 92 66t63 2.5l53 -28t56 -16.5q20 -1 53.5 22t44.5 24q1 -14 -15 -34.5t-53.5 -34t-99.5 11.5q-22 9 -36 12t-30.5 0.5t-31.5 -14.5l-8 -7l-17 -15.5t-18 -18t-14 -16.5t-2 -8l-3 -3q-10 -6 -20 -5.5t-16.5 3
t-19.5 9.5t-18 9z" />
    <glyph glyph-name="exclamdown" unicode="&#xa1;" horiz-adv-x="287" 
d="M189 220q4 6 12 23.5t16 24.5l8 -8l9 -9q2 -102 -40.5 -183.5t-122.5 -162.5l-35 -40q0 1 -9.5 13.5t-13.5 22t-1.5 31.5t17.5 48q7 12 28.5 41t35.5 55q25 46 54.5 86t41.5 58zM239 281q-16 10 -18 11.5t-7 2t-15 3.5l-7 39q33 28 65 11q24 -13 18 -36q-5 -20 -36 -31z
" />
    <glyph glyph-name="cent" unicode="&#xa2;" horiz-adv-x="245" 
d="M171 393q-1 -5 -2 -11q-4 -16 -2 -38q1 -5 1 -8q1 -21 -2 -71q22 -1 32 -12.5t5 -38.5t-29 -67q-10 -1 -19 -1q-3 -39 0 -53q5 -30 6 -63q26 16 49.5 43t34.5 50l16 -5q-28 -86 -99 -115q0 -23 3 -49q2 -25 -6.5 -61t-9.5 -48q-33 -1 -38.5 8t-10.5 68q-3 39 -2 73
q-16 1 -35 6q-38 10 -61 42t-16 71q8 43 41.5 80t75.5 56q5 83 9 114q2 35 1.5 40t-6.5 27q29 10 64 -37zM74 32q9 -11 25 -16v27.5v30.5v24q-1 13 -1 56l-9 -14q-23 -35 -26 -66t11 -42zM179 215q-9 0 -18 -3q-2 -14 -4 -42q22 6 22 45z" />
    <glyph glyph-name="dieresis" unicode="&#xa8;" horiz-adv-x="176" 
d="M17 512q12 8 46 0q2 0 4 -2q21 -7 7 -31q-14 -25 -35 -25q-14 0 -22 17q-13 26 0 41zM104 512q12 8 46 0q2 0 4 -2q21 -7 7 -31q-14 -25 -35 -25q-14 0 -22 17q-13 26 0 41z" />
    <glyph glyph-name="acute" unicode="&#xb4;" horiz-adv-x="157" 
d="M124 641l23 -20q-12 -15 -27 -30l-23 -23.5l-23 -23.5t-19.5 -17.5t-21.5 -14.5l-23 25q44 38 114 104z" />
    <glyph glyph-name="periodcentered" unicode="&#xb7;" horiz-adv-x="89" 
d="M17 273q12 8 46 0q2 0 4 -2q21 -7 7 -31q-14 -25 -35 -25q-14 0 -22 17q-13 26 0 41z" />
    <glyph glyph-name="cedilla" unicode="&#xb8;" horiz-adv-x="141" 
d="M72 5l39 6q-1 0 -13 -25l-10 -19q-12 -20 -15 -26q2 1 7.5 3.5t7.5 3t7.5 0t11.5 -2.5q16 -6 21 -24t2 -35t-9 -30q-2 -5 -11 -14l-8 -8q-5 -6 -9 -10t-7 -6t-8 -4l-7.5 -3t-10.5 -3t-13 -3q-15 -3 -37 5l2 20q5 0 11.5 -1t9.5 -1t8 1.5t12 4.5q36 18 47 54q5 18 2 35
l-5 11q-5 -2 -11 -5t-10 -4q-9 -3 -12.5 -6t-8.5 -5l-18 33q7 21 30 51z" />
    <glyph glyph-name="questiondown" unicode="&#xbf;" horiz-adv-x="308" 
d="M211 28q-10 -11 -18 -11.5t-20 7.5q2 20 33 49q16 12 28 13q33 4 32 -31q-1 -37 -28 -70l-7 -7q-19 -17 -54 -30.5t-74 -16t-69 16.5q-10 6 -15.5 13t-7.5 12t0.5 13.5t4.5 13.5t8 16t9 17q26 56 47.5 86.5t61.5 70.5l32 32q18 19 27 32t11.5 19t7 24.5t8.5 31.5
q2 6 3 14q3 6 4 6q4 -1 9 1q13 -8 17 -18t3 -30q-1 -45 -23 -90.5t-45.5 -73t-62.5 -67.5q-65 -68 -42 -88q9 -8 35 -6q12 1 40 8q23 7 32 14.5t13 28.5zM260 348q-10 6 -13.5 8.5t-6 3.5t-3.5 0.5t-5.5 0.5t-11.5 3l-6 39q33 29 65 11q24 -14 17 -37q-6 -19 -36 -29z
M211 28q1 1 3 1t3.5 2.5t3.5 9.5t1.5 8t-2.5 -0.5t-5 0.5z" />
    <glyph glyph-name="Agrave" unicode="&#xc0;" horiz-adv-x="602" 
d="M420 272q1 2 8 6.5t8 6.5q10 22 7 22q-1 0 -3 -1q-7 -2 -10 1zM270 368q54 -4 123 10.5t121.5 50t42.5 82.5q-82 16 -173 -42q-30 -19 -68.5 -51.5t-45.5 -49.5zM296 93q-14 -8 -36 -28t-44.5 -33t-54.5 -17q-89 -11 -133.5 51t4.5 173q21 42 50 81t32 46q-6 7 -26.5 26
t-29.5 36q-23 43 6 76q21 25 44 15q4 -2 8 -6q7 -9 5 -22.5t-8.5 -26.5t2 -29.5t36.5 -31.5q8 5 40 37t45 43q46 37 104 57q77 27 163 22q97 -5 93 -59q-1 -24 -24 -56q-49 -68 -222 -98q-27 -5 -54.5 -5.5t-37 -2t-24 -12.5t-34.5 -38q-38 -51 -74 -118t-28 -105
q5 -20 24 -31t42 -5q11 3 21.5 7t21.5 11t18.5 12.5t18.5 15.5t16 14t16 15l13 13q14 14 24 49.5t30 81t59 82.5q18 18 32 20t39 -11q3 -27 -12.5 -53.5t-36.5 -52t-26 -42.5q-14 -44 -9 -105t34 -86q20 -1 36 7t29 26t19.5 30.5t17.5 36.5q3 6 15.5 41.5t25.5 65t22 33.5
q5 -8 4.5 -17.5t-2.5 -15.5t-7.5 -16.5t-7.5 -16.5q-17 -55 -21 -64q-19 -48 -50 -82t-64.5 -46t-64.5 -7t-53 35t-26 80zM232 700l23 20q70 -66 114 -104l-23 -25q-10 5 -21.5 14.5t-19.5 17.5l-23 23.5l-23 23.5q-15 15 -27 30z" />
    <glyph glyph-name="Aacute" unicode="&#xc1;" horiz-adv-x="602" 
d="M420 272q1 2 8 6.5t8 6.5q10 22 7 22q-1 0 -3 -1q-7 -2 -10 1zM270 368q54 -4 123 10.5t121.5 50t42.5 82.5q-82 16 -173 -42q-30 -19 -68.5 -51.5t-45.5 -49.5zM296 93q-14 -8 -36 -28t-44.5 -33t-54.5 -17q-89 -11 -133.5 51t4.5 173q21 42 50 81t32 46q-6 7 -26.5 26
t-29.5 36q-23 43 6 76q21 25 44 15q4 -2 8 -6q7 -9 5 -22.5t-8.5 -26.5t2 -29.5t36.5 -31.5q8 5 40 37t45 43q46 37 104 57q77 27 163 22q97 -5 93 -59q-1 -24 -24 -56q-49 -68 -222 -98q-27 -5 -54.5 -5.5t-37 -2t-24 -12.5t-34.5 -38q-38 -51 -74 -118t-28 -105
q5 -20 24 -31t42 -5q11 3 21.5 7t21.5 11t18.5 12.5t18.5 15.5t16 14t16 15l13 13q14 14 24 49.5t30 81t59 82.5q18 18 32 20t39 -11q3 -27 -12.5 -53.5t-36.5 -52t-26 -42.5q-14 -44 -9 -105t34 -86q20 -1 36 7t29 26t19.5 30.5t17.5 36.5q3 6 15.5 41.5t25.5 65t22 33.5
q5 -8 4.5 -17.5t-2.5 -15.5t-7.5 -16.5t-7.5 -16.5q-17 -55 -21 -64q-19 -48 -50 -82t-64.5 -46t-64.5 -7t-53 35t-26 80zM346 702l23 -20q-12 -15 -27 -30l-23 -23.5l-23 -23.5t-19.5 -17.5t-21.5 -14.5l-23 25q44 38 114 104z" />
    <glyph glyph-name="Acircumflex" unicode="&#xc2;" horiz-adv-x="602" 
d="M420 272q1 2 8 6.5t8 6.5q10 22 7 22q-1 0 -3 -1q-7 -2 -10 1zM270 368q54 -4 123 10.5t121.5 50t42.5 82.5q-82 16 -173 -42q-30 -19 -68.5 -51.5t-45.5 -49.5zM296 93q-14 -8 -36 -28t-44.5 -33t-54.5 -17q-89 -11 -133.5 51t4.5 173q21 42 50 81t32 46q-6 7 -26.5 26
t-29.5 36q-23 43 6 76q21 25 44 15q4 -2 8 -6q7 -9 5 -22.5t-8.5 -26.5t2 -29.5t36.5 -31.5q8 5 40 37t45 43q46 37 104 57q77 27 163 22q97 -5 93 -59q-1 -24 -24 -56q-49 -68 -222 -98q-27 -5 -54.5 -5.5t-37 -2t-24 -12.5t-34.5 -38q-38 -51 -74 -118t-28 -105
q5 -20 24 -31t42 -5q11 3 21.5 7t21.5 11t18.5 12.5t18.5 15.5t16 14t16 15l13 13q14 14 24 49.5t30 81t59 82.5q18 18 32 20t39 -11q3 -27 -12.5 -53.5t-36.5 -52t-26 -42.5q-14 -44 -9 -105t34 -86q20 -1 36 7t29 26t19.5 30.5t17.5 36.5q3 6 15.5 41.5t25.5 65t22 33.5
q5 -8 4.5 -17.5t-2.5 -15.5t-7.5 -16.5t-7.5 -16.5q-17 -55 -21 -64q-19 -48 -50 -82t-64.5 -46t-64.5 -7t-53 35t-26 80zM298 734h5q12 -4 21.5 -10.5t15 -12t14 -16.5t13.5 -16l50 -67q-12 -10 -24.5 -4.5t-19 14t-15 21.5t-13.5 17t-8 6t-9 10l-9.5 12.5l-11 14.5
t-6.5 13q-2 -7 -6.5 -13.5t-11.5 -14t-10 -12.5q-5 -7 -6.5 -8.5t-4 -2.5t-6.5 -5q-5 -4 -13.5 -17t-15 -21.5t-19 -14t-24.5 4.5l50 67q5 5 13.5 16t14 16.5t15 12t21.5 10.5z" />
    <glyph glyph-name="Atilde" unicode="&#xc3;" horiz-adv-x="602" 
d="M420 272q1 2 8 6.5t8 6.5q10 22 7 22q-1 0 -3 -1q-7 -2 -10 1zM270 368q54 -4 123 10.5t121.5 50t42.5 82.5q-82 16 -173 -42q-30 -19 -68.5 -51.5t-45.5 -49.5zM296 93q-14 -8 -36 -28t-44.5 -33t-54.5 -17q-89 -11 -133.5 51t4.5 173q21 42 50 81t32 46q-6 7 -26.5 26
t-29.5 36q-23 43 6 76q21 25 44 15q4 -2 8 -6q7 -9 5 -22.5t-8.5 -26.5t2 -29.5t36.5 -31.5q8 5 40 37t45 43q46 37 104 57q77 27 163 22q97 -5 93 -59q-1 -24 -24 -56q-49 -68 -222 -98q-27 -5 -54.5 -5.5t-37 -2t-24 -12.5t-34.5 -38q-38 -51 -74 -118t-28 -105
q5 -20 24 -31t42 -5q11 3 21.5 7t21.5 11t18.5 12.5t18.5 15.5t16 14t16 15l13 13q14 14 24 49.5t30 81t59 82.5q18 18 32 20t39 -11q3 -27 -12.5 -53.5t-36.5 -52t-26 -42.5q-14 -44 -9 -105t34 -86q20 -1 36 7t29 26t19.5 30.5t17.5 36.5q3 6 15.5 41.5t25.5 65t22 33.5
q5 -8 4.5 -17.5t-2.5 -15.5t-7.5 -16.5t-7.5 -16.5q-17 -55 -21 -64q-19 -48 -50 -82t-64.5 -46t-64.5 -7t-53 35t-26 80zM193 594q1 4 2.5 5.5l2.5 2.5t5.5 4.5t10.5 9.5q28 28 50 35.5t33.5 1.5l28.5 -15t30 -9q10 -1 28 11.5t24 12.5q1 -7 -8 -18t-29 -18t-53 6t-52 -1
l-4 -4q-5 -4 -9.5 -8.5l-9.5 -9.5t-7.5 -8.5t-1.5 -4.5l-1 -1q-5 -3 -11 -3t-9.5 1.5t-10 5t-9.5 4.5z" />
    <glyph glyph-name="Adieresis" unicode="&#xc4;" horiz-adv-x="602" 
d="M420 272q1 2 8 6.5t8 6.5q10 22 7 22q-1 0 -3 -1q-7 -2 -10 1zM270 368q54 -4 123 10.5t121.5 50t42.5 82.5q-82 16 -173 -42q-30 -19 -68.5 -51.5t-45.5 -49.5zM296 93q-14 -8 -36 -28t-44.5 -33t-54.5 -17q-89 -11 -133.5 51t4.5 173q21 42 50 81t32 46q-6 7 -26.5 26
t-29.5 36q-23 43 6 76q21 25 44 15q4 -2 8 -6q7 -9 5 -22.5t-8.5 -26.5t2 -29.5t36.5 -31.5q8 5 40 37t45 43q46 37 104 57q77 27 163 22q97 -5 93 -59q-1 -24 -24 -56q-49 -68 -222 -98q-27 -5 -54.5 -5.5t-37 -2t-24 -12.5t-34.5 -38q-38 -51 -74 -118t-28 -105
q5 -20 24 -31t42 -5q11 3 21.5 7t21.5 11t18.5 12.5t18.5 15.5t16 14t16 15l13 13q14 14 24 49.5t30 81t59 82.5q18 18 32 20t39 -11q3 -27 -12.5 -53.5t-36.5 -52t-26 -42.5q-14 -44 -9 -105t34 -86q20 -1 36 7t29 26t19.5 30.5t17.5 36.5q3 6 15.5 41.5t25.5 65t22 33.5
q5 -8 4.5 -17.5t-2.5 -15.5t-7.5 -16.5t-7.5 -16.5q-17 -55 -21 -64q-19 -48 -50 -82t-64.5 -46t-64.5 -7t-53 35t-26 80zM293 659q12 8 46 0q2 0 4 -2q21 -7 7 -31q-14 -25 -35 -25q-14 0 -22 17q-13 26 0 41zM380 659q12 8 46 0q2 0 4 -2q21 -7 7 -31q-14 -25 -35 -25
q-14 0 -22 17q-13 26 0 41z" />
    <glyph glyph-name="Aring" unicode="&#xc5;" horiz-adv-x="602" 
d="M420 272q1 2 8 6.5t8 6.5q10 22 7 22q-1 0 -3 -1q-7 -2 -10 1zM270 368q54 -4 123 10.5t121.5 50t42.5 82.5q-82 16 -173 -42q-30 -19 -68.5 -51.5t-45.5 -49.5zM296 93q-14 -8 -36 -28t-44.5 -33t-54.5 -17q-89 -11 -133.5 51t4.5 173q21 42 50 81t32 46q-6 7 -26.5 26
t-29.5 36q-23 43 6 76q21 25 44 15q4 -2 8 -6q7 -9 5 -22.5t-8.5 -26.5t2 -29.5t36.5 -31.5q8 5 40 37t45 43q46 37 104 57q77 27 163 22q97 -5 93 -59q-1 -24 -24 -56q-49 -68 -222 -98q-27 -5 -54.5 -5.5t-37 -2t-24 -12.5t-34.5 -38q-38 -51 -74 -118t-28 -105
q5 -20 24 -31t42 -5q11 3 21.5 7t21.5 11t18.5 12.5t18.5 15.5t16 14t16 15l13 13q14 14 24 49.5t30 81t59 82.5q18 18 32 20t39 -11q3 -27 -12.5 -53.5t-36.5 -52t-26 -42.5q-14 -44 -9 -105t34 -86q20 -1 36 7t29 26t19.5 30.5t17.5 36.5q3 6 15.5 41.5t25.5 65t22 33.5
q5 -8 4.5 -17.5t-2.5 -15.5t-7.5 -16.5t-7.5 -16.5q-17 -55 -21 -64q-19 -48 -50 -82t-64.5 -46t-64.5 -7t-53 35t-26 80zM442 709l7 3.5t5.5 1t4.5 -1t3 -1.5t2 -1l1 -1q0 -1 1 -1l1 -1q5 -2 5 -3q6 -7 0 -33t-13 -36q-12 -19 -19 -28t-23.5 -20.5t-34.5 -11.5
q-13 0 -26 9.5t-18 21.5q-3 8 -4 14t1 12.5t3 8.5t6 10t6 10q18 30 34 41q40 27 59 21l-55 -55q-5 -5 -12 -19t-7 -32t16 -24q25 -9 49 23t30 62q3 9 0.5 14.5t-4.5 7t-8.5 4.5t-9.5 5z" />
    <glyph glyph-name="AE" unicode="&#xc6;" horiz-adv-x="927" 
d="M831 117q26 21 29.5 38t-5.5 24.5t-26.5 17.5t-21.5 13q59 6 73.5 -17t-10.5 -72q-10 -21 -41 -55q-73 -83 -190 -109q-45 -10 -97 -9.5t-103.5 11.5t-90.5 42t-51 78l-4 12q-12 -8 -34.5 -27.5t-44.5 -32t-53 -16.5q-89 -11 -133.5 51t4.5 173q21 42 50 81t32 46
q-6 7 -26.5 26t-29.5 36q-23 43 6 76q21 25 44 15q4 -2 8 -6q7 -9 5 -22.5t-8.5 -26.5t2 -29.5t36.5 -31.5q8 5 40 37t45 43q46 37 104 57q53 18 119.5 22t112.5 -16q58 38 131 56.5t108 7.5q12 -4 20 -8t18 -10.5t18 -10.5q13 -6 24.5 -8t14 -6t9.5 -23q24 -70 -38 -115
q-12 -9 -35.5 -20t-53 -21t-56.5 -6t-39 25q-20 31 -11 58.5t50 18.5q12 -2 13.5 -5t-3 -13.5t-4.5 -20.5q44 -40 101 -13q43 20 52 55q11 43 -47 62q-7 2 -16 4q-47 11 -135 -39q-87 -49 -112 -101q-21 -46 25 -71q19 -11 37.5 -12t38 1.5t32.5 0.5q-2 -17 -32 -28.5
t-70 -20.5t-94 -40t-95 -81q-27 -34 -24 -50q2 -10 3.5 -16.5t9 -19.5t18.5 -21.5t32.5 -17.5t49.5 -12.5t72 -2.5t98 10q24 9 75 37.5t74 47.5zM290 122q9 87 71 135.5t182 72.5q-5 5 -17 14.5t-21 24.5q-5 7 -11 21q-59 -27 -144 -41q-27 -5 -54.5 -5.5t-37 -2t-24 -12.5
t-34.5 -38q-38 -51 -74 -118t-28 -105q5 -20 24 -31t42 -5q11 3 21.5 7t21.5 11t18.5 12.5t18.5 15.5t16 14t16 15l13 13q1 1 1 2zM270 368q46 -3 109 8.5t110 35.5q-8 53 42 102q-70 4 -147 -45q-30 -19 -68.5 -51.5t-45.5 -49.5z" />
    <glyph glyph-name="Ccedilla" unicode="&#xc7;" horiz-adv-x="523" 
d="M518 258q-1 -11 -17 -39.5t-26 -41.5q-17 -25 -14 -27q2 -1 0 -5q-1 -2 -4 -2.5t-9 -5.5t-13 -15q-22 -32 -60 -65t-78 -54q-3 -2 -9 -4q-2 -3 -4 -8l-1 -5l-10 -19q-13 -20 -15 -26q2 1 7.5 3.5t7.5 3t7.5 0t11.5 -2.5q16 -6 21 -24t2 -35t-9 -30q-2 -5 -10 -14l-9 -8
q-5 -6 -9 -10t-7 -6t-8 -4l-7.5 -3t-10.5 -3t-13 -3q-15 -3 -37 5l2 20q5 0 11.5 -1t9.5 -1t8 1.5t12 4.5q36 18 47 54q5 18 2 35l-5 11l-10 -5t-11 -4q-9 -3 -12.5 -6t-8.5 -5l-18 33q7 21 17 34q-96 -24 -165 32.5t-69 150.5q0 53 14.5 100.5t29 74t14.5 28.5
q-4 11 -19 34t-23 43q-17 59 -2 107t40 59q26 12 32.5 -20.5t2 -80t5.5 -85.5q10 7 17.5 18.5t28.5 27.5q135 107 285 68q35 -9 41 -12q43 -17 39 -77q-4 -68 -63 -121q-48 -44 -116 -54q-86 -12 -179 23q-37 -81 -43 -144t14.5 -95.5t54 -45.5t76 -2.5t81.5 40.5
q22 17 37.5 31t30 31.5t21.5 27.5l23.5 35t25.5 37q7 10 14 22t10 15.5t8 6t13 2.5zM317 293q62 0 116 60q51 54 43 102q-6 41 -60 49q-40 6 -85.5 -16t-78.5 -55t-55 -64t-24 -45q10 -8 19.5 -13.5t20.5 -8.5l18 -5t21 -3t19 -1h23h23z" />
    <glyph glyph-name="Egrave" unicode="&#xc8;" horiz-adv-x="642" 
d="M546 117q26 21 29.5 38t-5.5 24.5t-26.5 17.5t-21.5 13q59 6 73.5 -17t-10.5 -72q-10 -21 -41 -55q-73 -83 -190 -109q-26 -6 -86 -5t-91 10q-42 13 -57 18.5t-34.5 17.5t-39.5 32q-32 32 -39 66.5t8 66t40 58t60 50.5q26 18 45.5 26.5t48 16.5t49.5 16q-5 5 -17 14.5
t-21 24.5q-34 58 -3.5 107t90 81.5t123.5 47.5t96 5q12 -4 20 -8t18 -10.5t18 -10.5q13 -6 24.5 -8t14 -6t9.5 -23q24 -70 -38 -115q-12 -9 -35.5 -20t-53 -21t-56.5 -6t-39 25q-20 31 -11 58.5t50 18.5q12 -2 13.5 -5t-3 -13.5t-4.5 -20.5q44 -40 101 -13q43 20 52 55
q11 43 -47 62q-7 2 -16 4q-47 11 -135 -39q-87 -49 -112 -101q-21 -46 25 -71q19 -11 37.5 -12t38 1.5t32.5 0.5q-2 -17 -32 -28.5t-70 -20.5t-94 -40t-95 -81q-27 -34 -24 -50q3 -20 32.5 -43t48.5 -29q41 -13 99.5 -16.5t102.5 8.5q24 9 75 37.5t74 47.5zM328 754l23 20
q70 -66 114 -104l-23 -25q-10 5 -21.5 14.5t-19.5 17.5l-23 23.5l-23 23.5q-15 15 -27 30z" />
    <glyph glyph-name="Eacute" unicode="&#xc9;" horiz-adv-x="642" 
d="M546 117q26 21 29.5 38t-5.5 24.5t-26.5 17.5t-21.5 13q59 6 73.5 -17t-10.5 -72q-10 -21 -41 -55q-73 -83 -190 -109q-26 -6 -86 -5t-91 10q-42 13 -57 18.5t-34.5 17.5t-39.5 32q-32 32 -39 66.5t8 66t40 58t60 50.5q26 18 45.5 26.5t48 16.5t49.5 16q-5 5 -17 14.5
t-21 24.5q-34 58 -3.5 107t90 81.5t123.5 47.5t96 5q12 -4 20 -8t18 -10.5t18 -10.5q13 -6 24.5 -8t14 -6t9.5 -23q24 -70 -38 -115q-12 -9 -35.5 -20t-53 -21t-56.5 -6t-39 25q-20 31 -11 58.5t50 18.5q12 -2 13.5 -5t-3 -13.5t-4.5 -20.5q44 -40 101 -13q43 20 52 55
q11 43 -47 62q-7 2 -16 4q-47 11 -135 -39q-87 -49 -112 -101q-21 -46 25 -71q19 -11 37.5 -12t38 1.5t32.5 0.5q-2 -17 -32 -28.5t-70 -20.5t-94 -40t-95 -81q-27 -34 -24 -50q3 -20 32.5 -43t48.5 -29q41 -13 99.5 -16.5t102.5 8.5q24 9 75 37.5t74 47.5zM438 769l23 -20
q-12 -15 -27 -30l-23 -23.5l-23 -23.5t-19.5 -17.5t-21.5 -14.5l-23 25q44 38 114 104z" />
    <glyph glyph-name="Ecircumflex" unicode="&#xca;" horiz-adv-x="642" 
d="M546 117q26 21 29.5 38t-5.5 24.5t-26.5 17.5t-21.5 13q59 6 73.5 -17t-10.5 -72q-10 -21 -41 -55q-73 -83 -190 -109q-26 -6 -86 -5t-91 10q-42 13 -57 18.5t-34.5 17.5t-39.5 32q-32 32 -39 66.5t8 66t40 58t60 50.5q26 18 45.5 26.5t48 16.5t49.5 16q-5 5 -17 14.5
t-21 24.5q-34 58 -3.5 107t90 81.5t123.5 47.5t96 5q12 -4 20 -8t18 -10.5t18 -10.5q13 -6 24.5 -8t14 -6t9.5 -23q24 -70 -38 -115q-12 -9 -35.5 -20t-53 -21t-56.5 -6t-39 25q-20 31 -11 58.5t50 18.5q12 -2 13.5 -5t-3 -13.5t-4.5 -20.5q44 -40 101 -13q43 20 52 55
q11 43 -47 62q-7 2 -16 4q-47 11 -135 -39q-87 -49 -112 -101q-21 -46 25 -71q19 -11 37.5 -12t38 1.5t32.5 0.5q-2 -17 -32 -28.5t-70 -20.5t-94 -40t-95 -81q-27 -34 -24 -50q3 -20 32.5 -43t48.5 -29q41 -13 99.5 -16.5t102.5 8.5q24 9 75 37.5t74 47.5zM428 793h5
q12 -4 21.5 -10.5t15 -12t14 -16.5t13.5 -16l50 -67q-12 -10 -24.5 -4.5t-19 14t-15 21.5t-13.5 17q-5 5 -8 6.5t-9 9.5l-9.5 12.5l-11 14.5t-6.5 13q-2 -7 -6.5 -13.5t-11.5 -14t-10 -12.5q-5 -7 -6.5 -8.5t-4 -2.5t-6.5 -5q-5 -4 -13.5 -17t-15 -21.5t-19 -14t-24.5 4.5
l50 67q5 5 13.5 16t14 16.5t15 12t21.5 10.5z" />
    <glyph glyph-name="Edieresis" unicode="&#xcb;" horiz-adv-x="642" 
d="M546 117q26 21 29.5 38t-5.5 24.5t-26.5 17.5t-21.5 13q59 6 73.5 -17t-10.5 -72q-10 -21 -41 -55q-73 -83 -190 -109q-26 -6 -86 -5t-91 10q-42 13 -57 18.5t-34.5 17.5t-39.5 32q-32 32 -39 66.5t8 66t40 58t60 50.5q26 18 45.5 26.5t48 16.5t49.5 16q-5 5 -17 14.5
t-21 24.5q-34 58 -3.5 107t90 81.5t123.5 47.5t96 5q12 -4 20 -8t18 -10.5t18 -10.5q13 -6 24.5 -8t14 -6t9.5 -23q24 -70 -38 -115q-12 -9 -35.5 -20t-53 -21t-56.5 -6t-39 25q-20 31 -11 58.5t50 18.5q12 -2 13.5 -5t-3 -13.5t-4.5 -20.5q44 -40 101 -13q43 20 52 55
q11 43 -47 62q-7 2 -16 4q-47 11 -135 -39q-87 -49 -112 -101q-21 -46 25 -71q19 -11 37.5 -12t38 1.5t32.5 0.5q-2 -17 -32 -28.5t-70 -20.5t-94 -40t-95 -81q-27 -34 -24 -50q3 -20 32.5 -43t48.5 -29q41 -13 99.5 -16.5t102.5 8.5q24 9 75 37.5t74 47.5zM379 712
q12 8 46 0q2 0 4 -2q21 -7 7 -31q-14 -25 -35 -25q-14 0 -22 17q-13 26 0 41zM466 712q12 8 46 0q2 0 4 -2q21 -7 7 -31q-14 -25 -35 -25q-14 0 -22 17q-13 26 0 41z" />
    <glyph glyph-name="Igrave" unicode="&#xcc;" horiz-adv-x="673" 
d="M585 601l10.5 5t8 3.5t5.5 4t3.5 6t1.5 8.5t0 13q-22 -13 -29 -40zM326 426q25 0 46.5 -11t25.5 -26q2 -8 -0.5 -40.5t-7.5 -44.5q-20 -45 -64.5 -64t-72.5 -4q-9 5 -20.5 10l-17 7.5t-12.5 10t-13 21.5q-27 59 0 119t88 91q43 23 102 42t97 29.5t43 17.5q1 1 11 22
t21 39.5t32.5 34.5t45.5 15q22 -1 33 -27q18 -42 -27 -77q-14 -11 -33 -19l-19.5 -9t-10 -10.5t-4.5 -10t-1.5 -18.5t-1.5 -23q-10 -123 -28 -191l-12.5 -56l-15.5 -67t-15 -52q-25 -72 -81 -143.5t-117 -91.5q-132 -41 -221 33q-63 53 -69.5 131.5t50.5 116.5q2 2 4 3
q8 5 37.5 15.5t40.5 13.5q45 13 51 -32q-7 -10 -13 -15q-8 3 -15 9l-11 9.5t-13.5 3t-24.5 -6.5q-27 -11 -39 -31.5t-10 -44t12.5 -48t28.5 -44.5q51 -58 120 -52q19 2 41.5 18.5t30 25l26.5 30.5q30 34 54 85.5t34.5 83.5t29.5 107.5t24 93.5q3 10 12.5 39t16.5 53.5
t8 39.5q-23 -3 -74 -22.5t-81 -34.5q-45 -21 -71.5 -42t-38.5 -56q-23 -68 17 -97q30 -23 64 -3t34 70q0 33 -12.5 48t-13.5 26zM390 770l23 20q70 -66 114 -104l-23 -25q-10 5 -21.5 14.5t-19.5 17.5l-23 23.5l-23 23.5q-15 15 -27 30z" />
    <glyph glyph-name="Iacute" unicode="&#xcd;" horiz-adv-x="673" 
d="M585 601l10.5 5t8 3.5t5.5 4t3.5 6t1.5 8.5t0 13q-22 -13 -29 -40zM326 426q25 0 46.5 -11t25.5 -26q2 -8 -0.5 -40.5t-7.5 -44.5q-20 -45 -64.5 -64t-72.5 -4q-9 5 -20.5 10l-17 7.5t-12.5 10t-13 21.5q-27 59 0 119t88 91q43 23 102 42t97 29.5t43 17.5q1 1 11 22
t21 39.5t32.5 34.5t45.5 15q22 -1 33 -27q18 -42 -27 -77q-14 -11 -33 -19l-19.5 -9t-10 -10.5t-4.5 -10t-1.5 -18.5t-1.5 -23q-10 -123 -28 -191l-12.5 -56l-15.5 -67t-15 -52q-25 -72 -81 -143.5t-117 -91.5q-132 -41 -221 33q-63 53 -69.5 131.5t50.5 116.5q2 2 4 3
q8 5 37.5 15.5t40.5 13.5q45 13 51 -32q-7 -10 -13 -15q-8 3 -15 9l-11 9.5t-13.5 3t-24.5 -6.5q-27 -11 -39 -31.5t-10 -44t12.5 -48t28.5 -44.5q51 -58 120 -52q19 2 41.5 18.5t30 25l26.5 30.5q30 34 54 85.5t34.5 83.5t29.5 107.5t24 93.5q3 10 12.5 39t16.5 53.5
t8 39.5q-23 -3 -74 -22.5t-81 -34.5q-45 -21 -71.5 -42t-38.5 -56q-23 -68 17 -97q30 -23 64 -3t34 70q0 33 -12.5 48t-13.5 26zM470 723l23 -20q-12 -15 -27 -30l-23 -23.5l-23 -23.5t-19.5 -17.5t-21.5 -14.5l-23 25q44 38 114 104z" />
    <glyph glyph-name="Icircumflex" unicode="&#xce;" horiz-adv-x="673" 
d="M585 601l10.5 5t8 3.5t5.5 4t3.5 6t1.5 8.5t0 13q-22 -13 -29 -40zM326 426q25 0 46.5 -11t25.5 -26q2 -8 -0.5 -40.5t-7.5 -44.5q-20 -45 -64.5 -64t-72.5 -4q-9 5 -20.5 10l-17 7.5t-12.5 10t-13 21.5q-27 59 0 119t88 91q43 23 102 42t97 29.5t43 17.5q1 1 11 22
t21 39.5t32.5 34.5t45.5 15q22 -1 33 -27q18 -42 -27 -77q-14 -11 -33 -19l-19.5 -9t-10 -10.5t-4.5 -10t-1.5 -18.5t-1.5 -23q-10 -123 -28 -191l-12.5 -56l-15.5 -67t-15 -52q-25 -72 -81 -143.5t-117 -91.5q-132 -41 -221 33q-63 53 -69.5 131.5t50.5 116.5q2 2 4 3
q8 5 37.5 15.5t40.5 13.5q45 13 51 -32q-7 -10 -13 -15q-8 3 -15 9l-11 9.5t-13.5 3t-24.5 -6.5q-27 -11 -39 -31.5t-10 -44t12.5 -48t28.5 -44.5q51 -58 120 -52q19 2 41.5 18.5t30 25l26.5 30.5q30 34 54 85.5t34.5 83.5t29.5 107.5t24 93.5q3 10 12.5 39t16.5 53.5
t8 39.5q-23 -3 -74 -22.5t-81 -34.5q-45 -21 -71.5 -42t-38.5 -56q-23 -68 17 -97q30 -23 64 -3t34 70q0 33 -12.5 48t-13.5 26zM402 741h5q12 -4 21.5 -10.5t15 -12t14 -16.5t13.5 -16l50 -67q-12 -10 -24.5 -4.5t-19 14t-15 21.5t-13.5 17q-5 5 -8 6.5t-9 9.5l-9.5 12.5
l-11 14.5t-6.5 13q-2 -7 -6.5 -13.5t-11.5 -14t-10 -12.5q-5 -7 -6.5 -8.5t-4 -2.5t-6.5 -5q-5 -4 -13.5 -17t-15 -21.5t-19 -14t-24.5 4.5l50 67q5 5 13.5 16t14 16.5t15 12t21.5 10.5z" />
    <glyph glyph-name="Idieresis" unicode="&#xcf;" horiz-adv-x="673" 
d="M585 601l10.5 5t8 3.5t5.5 4t3.5 6t1.5 8.5t0 13q-22 -13 -29 -40zM326 426q25 0 46.5 -11t25.5 -26q2 -8 -0.5 -40.5t-7.5 -44.5q-20 -45 -64.5 -64t-72.5 -4q-9 5 -20.5 10l-17 7.5t-12.5 10t-13 21.5q-27 59 0 119t88 91q43 23 102 42t97 29.5t43 17.5q1 1 11 22
t21 39.5t32.5 34.5t45.5 15q22 -1 33 -27q18 -42 -27 -77q-14 -11 -33 -19l-19.5 -9t-10 -10.5t-4.5 -10t-1.5 -18.5t-1.5 -23q-10 -123 -28 -191l-12.5 -56l-15.5 -67t-15 -52q-25 -72 -81 -143.5t-117 -91.5q-132 -41 -221 33q-63 53 -69.5 131.5t50.5 116.5q2 2 4 3
q8 5 37.5 15.5t40.5 13.5q45 13 51 -32q-7 -10 -13 -15q-8 3 -15 9l-11 9.5t-13.5 3t-24.5 -6.5q-27 -11 -39 -31.5t-10 -44t12.5 -48t28.5 -44.5q51 -58 120 -52q19 2 41.5 18.5t30 25l26.5 30.5q30 34 54 85.5t34.5 83.5t29.5 107.5t24 93.5q3 10 12.5 39t16.5 53.5
t8 39.5q-23 -3 -74 -22.5t-81 -34.5q-45 -21 -71.5 -42t-38.5 -56q-23 -68 17 -97q30 -23 64 -3t34 70q0 33 -12.5 48t-13.5 26zM351 683q12 8 46 0q2 0 4 -2q21 -7 7 -31q-14 -25 -35 -25q-14 0 -22 17q-13 26 0 41zM438 683q12 8 46 0q2 0 4 -2q21 -7 7 -31
q-14 -25 -35 -25q-14 0 -22 17q-13 26 0 41z" />
    <glyph glyph-name="Eth" unicode="&#xd0;" horiz-adv-x="761" 
d="M279 204l3 52q26 0 88 2l27.5 53.5l30 58l25.5 47.5t28 47.5t23 31.5l18 25q-37 29 -97 33.5t-120 -13t-112.5 -45.5t-82.5 -65t-24 -69q3 -17 20 -34.5t32 -24.5q9 -4 89 -4q23 34 25 58.5t-9 35.5t-25.5 22t-16.5 17q29 2 41.5 -0.5t29.5 -16.5q36 -29 40 -52.5
t-24 -61.5q-26 -33 -49 -45t-56 0q-12 4 -35.5 8.5t-37.5 10.5q-9 5 -15 10.5t-8 9t-7 14t-9 17.5q-44 80 37 157q75 70 202 93q144 27 238 -32q3 1 42.5 23t62.5 21q-2 -19 -31.5 -42.5t-33.5 -29.5q5 -7 17.5 -18.5t27.5 -24t18 -15.5q42 -39 59 -64q35 -51 44 -115.5
t-17 -128t-87 -99.5q-68 -41 -140.5 -52t-119 -1t-88 22.5t-47.5 12.5q-7 0 -30.5 -14.5t-52.5 -23.5q-74 -22 -112 0q-15 9 -32.5 30.5t-21.5 38.5q-1 8 1 15.5t5 12.5t11 11t12 8l15 7.5l13 6.5q23 13 53 13.5t51.5 -5t56 -16.5t47.5 -14q25 23 68 98q-3 0 -60 3zM324 88
q8 -7 17 -10q6 -3 21 -4q111 -9 162.5 11.5t91.5 100.5q24 49 28 86t-6 67t-38 84q-15 27 -43 58q-10 -12 -25 -44.5l-37.5 -83.5t-45.5 -92l90 6l3 -56q-42 -14 -132 -12q-5 -8 -17 -24zM220 57q-28 36 -74 40q-25 3 -51 -4q-31 -8 -27 -36q4 -27 35 -39q17 -6 38 -3
q22 4 46 16.5t33 25.5z" />
    <glyph glyph-name="Ntilde" unicode="&#xd1;" horiz-adv-x="853" 
d="M263 327q-1 0 -23 -3.5t-39.5 -5t-28.5 0.5q-6 7 -2.5 12.5t8 7t17.5 10.5t26 23q15 16 40.5 17t44.5 -16q22 -27 5 -92.5t-43 -83.5q-7 -5 -15.5 -8t-21.5 -14q-18 -13 -40 -19q-86 -20 -138 27t-47 137q4 75 70.5 152t133.5 109q45 21 95.5 27t100.5 -12
q73 -34 95 -139l8 5l3 3l3 3q17 16 37 37t30 30.5t28.5 23t44 25t65.5 26.5q101 38 122 -32q13 -42 -4 -107t-48.5 -130l-64 -126t-50 -107t-6.5 -60q27 -33 68 -21q21 6 26 26.5t19 26.5q6 -38 -10 -64t-42 -35t-54.5 -8t-47.5 12q-45 25 -52.5 79.5t18.5 126t56 131.5
t70.5 131.5t50.5 91.5q12 25 -13 22q-45 -4 -133 -60q-61 -40 -74 -64q-8 -16 -12 -22t-4.5 -6t-3.5 -2.5t-9 -10.5q-8 -11 -13 -16.5t-6.5 -6.5t-3.5 -3.5t-5 -9.5q-4 -7 -10 -25.5t-9 -25.5q-9 -19 -36 -85.5t-45 -99.5q-16 -29 -28 -62l-19 -52.5t-12 -24.5q-7 -6 -9 -6
q-4 1 -26 -15q-12 5 -20 11.5t-10 15.5t-2.5 18t4 23l8.5 25.5l11 31.5l12 35q14 45 74.5 167t65.5 152q14 88 -57 103q-66 15 -157 -38q-96 -54 -131 -137q-9 -20 -13 -41q-9 -55 15 -90t78 -39q33 -3 64 16t38.5 46.5t-17.5 57.5zM501 641q1 4 2.5 5.5l2.5 2.5t5.5 4.5
t10.5 9.5q28 28 50 35.5t33.5 1.5l28.5 -15t30 -9q10 -1 28 11.5t24 12.5q1 -7 -8 -18t-29 -18t-53 6t-52 -1l-4 -4q-5 -4 -9.5 -8.5l-9.5 -9.5t-7.5 -8.5t-1.5 -4.5l-1 -1q-5 -3 -11 -3t-9.5 1.5t-10 5t-9.5 4.5z" />
    <glyph glyph-name="Ograve" unicode="&#xd2;" horiz-adv-x="609" 
d="M419 274q-15 -4 -45 -7t-43 -6q-10 -2 -34.5 -8.5t-39.5 -8.5q-24 1 -31.5 -1t-24 2.5t-22.5 6.5t-27 10t-37 13q-25 -82 21.5 -139t120.5 -53q41 3 63 17t45 53l8.5 13l9 14t8 13.5t8 14.5t6.5 14.5t6.5 16.5t4.5 16.5t3 18.5zM436 365q2 24 -22 69.5t-43 68.5
q-38 50 -137 71q-42 9 -79 -3.5t-58 -39.5t-31 -58t-3 -60.5t30 -45.5q27 46 73 86.5t91 43.5q60 4 71 -28q-4 -2 -6 -5q-1 -1 -6 0t-8 2q-5 1 -9.5 4t-5.5 3q-13 6 -16 6t-19 -5q-24 -10 -71 -65.5t-53 -89.5q14 -6 38 -19t34 -16t33.5 -1t55.5 15q103 38 141 67zM453 494
l44 -89q9 2 27 12.5t23 12.5q22 11 23 20.5t13 19.5q18 -4 20 -23q2 -23 -32 -52q-13 -13 -23 -25q-11 -12 -20 -19t-12.5 -8.5t-6.5 -5.5t-6 -13q-3 -10 -6.5 -38.5t-6.5 -39.5q-15 -62 -52 -129q-15 -27 -25.5 -38.5t-34 -24t-37.5 -21.5l-12 -9.5l-11 -8.5t-12 -7t-19 -6
q-52 -10 -82.5 -11t-65 11.5t-64.5 44.5q-36 38 -46.5 81.5t-4 73t19.5 67.5t15 52q-59 68 -53 132t57.5 111t119.5 54q73 8 153.5 -27.5t116.5 -96.5zM241 764l23 20q70 -66 114 -104l-23 -25q-10 5 -21.5 14.5t-19.5 17.5l-23 23.5l-23 23.5q-15 15 -27 30z" />
    <glyph glyph-name="Oacute" unicode="&#xd3;" horiz-adv-x="609" 
d="M419 274q-15 -4 -45 -7t-43 -6q-10 -2 -34.5 -8.5t-39.5 -8.5q-24 1 -31.5 -1t-24 2.5t-22.5 6.5t-27 10t-37 13q-25 -82 21.5 -139t120.5 -53q41 3 63 17t45 53l8.5 13l9 14t8 13.5t8 14.5t6.5 14.5t6.5 16.5t4.5 16.5t3 18.5zM436 365q2 24 -22 69.5t-43 68.5
q-38 50 -137 71q-42 9 -79 -3.5t-58 -39.5t-31 -58t-3 -60.5t30 -45.5q27 46 73 86.5t91 43.5q60 4 71 -28q-4 -2 -6 -5q-1 -1 -6 0t-8 2q-5 1 -9.5 4t-5.5 3q-13 6 -16 6t-19 -5q-24 -10 -71 -65.5t-53 -89.5q14 -6 38 -19t34 -16t33.5 -1t55.5 15q103 38 141 67zM453 494
l44 -89q9 2 27 12.5t23 12.5q22 11 23 20.5t13 19.5q18 -4 20 -23q2 -23 -32 -52q-13 -13 -23 -25q-11 -12 -20 -19t-12.5 -8.5t-6.5 -5.5t-6 -13q-3 -10 -6.5 -38.5t-6.5 -39.5q-15 -62 -52 -129q-15 -27 -25.5 -38.5t-34 -24t-37.5 -21.5l-12 -9.5l-11 -8.5t-12 -7t-19 -6
q-52 -10 -82.5 -11t-65 11.5t-64.5 44.5q-36 38 -46.5 81.5t-4 73t19.5 67.5t15 52q-59 68 -53 132t57.5 111t119.5 54q73 8 153.5 -27.5t116.5 -96.5zM336 785l23 -20q-12 -15 -27 -30l-23 -23.5l-23 -23.5t-19.5 -17.5t-21.5 -14.5l-23 25q44 38 114 104z" />
    <glyph glyph-name="Ocircumflex" unicode="&#xd4;" horiz-adv-x="609" 
d="M419 274q-15 -4 -45 -7t-43 -6q-10 -2 -34.5 -8.5t-39.5 -8.5q-24 1 -31.5 -1t-24 2.5t-22.5 6.5t-27 10t-37 13q-25 -82 21.5 -139t120.5 -53q41 3 63 17t45 53l8.5 13l9 14t8 13.5t8 14.5t6.5 14.5t6.5 16.5t4.5 16.5t3 18.5zM436 365q2 24 -22 69.5t-43 68.5
q-38 50 -137 71q-42 9 -79 -3.5t-58 -39.5t-31 -58t-3 -60.5t30 -45.5q27 46 73 86.5t91 43.5q60 4 71 -28q-4 -2 -6 -5q-1 -1 -6 0t-8 2q-5 1 -9.5 4t-5.5 3q-13 6 -16 6t-19 -5q-24 -10 -71 -65.5t-53 -89.5q14 -6 38 -19t34 -16t33.5 -1t55.5 15q103 38 141 67zM453 494
l44 -89q9 2 27 12.5t23 12.5q22 11 23 20.5t13 19.5q18 -4 20 -23q2 -23 -32 -52q-13 -13 -23 -25q-11 -12 -20 -19t-12.5 -8.5t-6.5 -5.5t-6 -13q-3 -10 -6.5 -38.5t-6.5 -39.5q-15 -62 -52 -129q-15 -27 -25.5 -38.5t-34 -24t-37.5 -21.5l-12 -9.5l-11 -8.5t-12 -7t-19 -6
q-52 -10 -82.5 -11t-65 11.5t-64.5 44.5q-36 38 -46.5 81.5t-4 73t19.5 67.5t15 52q-59 68 -53 132t57.5 111t119.5 54q73 8 153.5 -27.5t116.5 -96.5zM302 785h5q12 -4 21.5 -10.5t15 -12t14 -16.5t13.5 -16l50 -67q-12 -10 -24.5 -4.5t-19 14t-15 21.5t-13.5 17
q-5 5 -8 6.5t-9 9.5l-9.5 12.5l-11 14.5t-6.5 13q-2 -7 -6.5 -13.5t-11.5 -14t-10 -12.5q-5 -7 -6.5 -8.5t-4 -2.5t-6.5 -5q-5 -4 -13.5 -17t-15 -21.5t-19 -14t-24.5 4.5l50 67q5 5 13.5 16t14 16.5t15 12t21.5 10.5z" />
    <glyph glyph-name="Otilde" unicode="&#xd5;" horiz-adv-x="609" 
d="M419 274q-15 -4 -45 -7t-43 -6q-10 -2 -34.5 -8.5t-39.5 -8.5q-24 1 -31.5 -1t-24 2.5t-22.5 6.5t-27 10t-37 13q-25 -82 21.5 -139t120.5 -53q41 3 63 17t45 53l8.5 13l9 14t8 13.5t8 14.5t6.5 14.5t6.5 16.5t4.5 16.5t3 18.5zM436 365q2 24 -22 69.5t-43 68.5
q-38 50 -137 71q-42 9 -79 -3.5t-58 -39.5t-31 -58t-3 -60.5t30 -45.5q27 46 73 86.5t91 43.5q60 4 71 -28q-4 -2 -6 -5q-1 -1 -6 0t-8 2q-5 1 -9.5 4t-5.5 3q-13 6 -16 6t-19 -5q-24 -10 -71 -65.5t-53 -89.5q14 -6 38 -19t34 -16t33.5 -1t55.5 15q103 38 141 67zM453 494
l44 -89q9 2 27 12.5t23 12.5q22 11 23 20.5t13 19.5q18 -4 20 -23q2 -23 -32 -52q-13 -13 -23 -25q-11 -12 -20 -19t-12.5 -8.5t-6.5 -5.5t-6 -13q-3 -10 -6.5 -38.5t-6.5 -39.5q-15 -62 -52 -129q-15 -27 -25.5 -38.5t-34 -24t-37.5 -21.5l-12 -9.5l-11 -8.5t-12 -7t-19 -6
q-52 -10 -82.5 -11t-65 11.5t-64.5 44.5q-36 38 -46.5 81.5t-4 73t19.5 67.5t15 52q-59 68 -53 132t57.5 111t119.5 54q73 8 153.5 -27.5t116.5 -96.5zM196 654q1 4 2.5 5.5l2.5 2.5t5.5 4.5t10.5 9.5q28 28 50 35.5t33.5 1.5l28.5 -15t30 -9q10 -1 28 11.5t24 12.5
q1 -7 -8 -18t-29 -18t-53 6t-52 -1l-5 -4l-8.5 -8.5l-9.5 -9.5t-7.5 -8.5t-1.5 -4.5l-1 -1q-5 -3 -11 -3t-9.5 1.5t-10 5t-9.5 4.5z" />
    <glyph glyph-name="Odieresis" unicode="&#xd6;" horiz-adv-x="609" 
d="M419 274q-15 -4 -45 -7t-43 -6q-10 -2 -34.5 -8.5t-39.5 -8.5q-24 1 -31.5 -1t-24 2.5t-22.5 6.5t-27 10t-37 13q-25 -82 21.5 -139t120.5 -53q41 3 63 17t45 53l8.5 13l9 14t8 13.5t8 14.5t6.5 14.5t6.5 16.5t4.5 16.5t3 18.5zM436 365q2 24 -22 69.5t-43 68.5
q-38 50 -137 71q-42 9 -79 -3.5t-58 -39.5t-31 -58t-3 -60.5t30 -45.5q27 46 73 86.5t91 43.5q60 4 71 -28q-4 -2 -6 -5q-1 -1 -6 0t-8 2q-5 1 -9.5 4t-5.5 3q-13 6 -16 6t-19 -5q-24 -10 -71 -65.5t-53 -89.5q14 -6 38 -19t34 -16t33.5 -1t55.5 15q103 38 141 67zM453 494
l44 -89q9 2 27 12.5t23 12.5q22 11 23 20.5t13 19.5q18 -4 20 -23q2 -23 -32 -52q-13 -13 -23 -25q-11 -12 -20 -19t-12.5 -8.5t-6.5 -5.5t-6 -13q-3 -10 -6.5 -38.5t-6.5 -39.5q-15 -62 -52 -129q-15 -27 -25.5 -38.5t-34 -24t-37.5 -21.5l-12 -9.5l-11 -8.5t-12 -7t-19 -6
q-52 -10 -82.5 -11t-65 11.5t-64.5 44.5q-36 38 -46.5 81.5t-4 73t19.5 67.5t15 52q-59 68 -53 132t57.5 111t119.5 54q73 8 153.5 -27.5t116.5 -96.5zM222 712q12 8 46 0q2 0 4 -2q21 -7 7 -31q-14 -25 -35 -25q-14 0 -22 17q-13 26 0 41zM309 712q12 8 46 0q2 0 4 -2
q21 -7 7 -31q-14 -25 -35 -25q-14 0 -22 17q-13 26 0 41z" />
    <glyph glyph-name="Oslash" unicode="&#xd8;" horiz-adv-x="609" 
d="M540 600q-3 -34 -71 -138l28 -57q9 2 27 12.5t23 12.5q22 11 23 20.5t13 19.5q18 -4 20 -23q2 -23 -32 -52q-13 -13 -23 -25q-11 -12 -20 -19t-12.5 -8.5t-6.5 -5.5t-6 -13q-3 -10 -6.5 -38.5t-6.5 -39.5q-15 -62 -52 -129q-15 -27 -25.5 -38.5t-34 -24t-37.5 -21.5
l-12 -9.5l-11 -8.5t-12 -7t-19 -6q-53 -13 -98.5 -10.5t-81.5 26.5l-7 -7q-1 -1 -10.5 -14.5t-17 -20t-21 -7t-27.5 13.5q-4 4 -9 14q8 13 13 17t9 2.5t14 5t25 23.5q0 1 -0.5 1t-0.5 1q-36 38 -46.5 81.5t-4 73t19.5 67.5t15 52q-59 68 -53 132t57.5 111t119.5 54
q67 7 142 -23t115 -83q32 39 75 76q4 3 8 7q3 3 5 3q5 0 12 2zM134 319q13 -6 28 -14l23.5 -12.5t20 -8t24.5 -3t30 4.5l13 17l61 77l29.5 35t35.5 44l1 1q-11 19 -29 43q-38 50 -137 71q-42 9 -79 -3.5t-58 -39.5t-31 -58t-3 -60.5t30 -45.5q27 46 73 86.5t91 43.5
q60 4 71 -28q-4 -2 -6 -5q-1 -1 -6 0t-8 2q-5 1 -9.5 4t-5.5 3q-13 6 -16 6t-19 -5q-24 -10 -71 -65.5t-53 -89.5zM419 274q-15 -4 -45 -7t-43 -6q-6 -2 -9 -2q-9 -14 -26 -36t-26 -35l-45 -57q-2 -2 -3 -2l-33 -34q35 -15 68 -12q41 3 63 17t45 53l8.5 13l9 14t8 13.5
t8 14.5t6.5 14.5t6.5 16.5t4.5 16.5t3 18.5zM115 275q-27 -89 30 -150q29 37 84 118q-13 0 -26 2.5t-21 5t-30 11t-37 13.5zM436 365q1 11 -8 38q-27 -38 -54 -72q43 20 62 34z" />
    <glyph glyph-name="Ugrave" unicode="&#xd9;" horiz-adv-x="840" 
d="M174 377q20 14 55 23q40 10 77 -9t49.5 -58.5t-14.5 -97.5q-9 -17 -20.5 -42t-15.5 -31.5t-14.5 -19t-23.5 -19.5t-37 -18q-32 -15 -65.5 -15t-61.5 13.5t-52 36.5t-37.5 57t-17.5 73t7.5 85.5t37.5 93.5q39 70 110.5 121.5t152.5 64.5t155 -30q37 -24 51 -71t6 -102.5
t-22 -103t-32 -86.5q-2 -4 -13.5 -24.5t-16 -31.5t-4.5 -30.5t11 -36.5q20 -15 43.5 -11t40.5 14t30 24q43 48 99 146q4 7 16 48t28.5 74.5t37.5 41.5q12 -25 5 -93t-21 -134.5t-17 -130.5t18 -82q13 -12 30 -14t34 16t21 59l29 -3q10 -51 -34.5 -89.5t-102.5 -35t-82 56.5
q-8 18 -9.5 37t1.5 47t3 37q-6 -8 -15.5 -19t-15.5 -19q-25 -32 -65 -50.5t-84 -14.5q-36 4 -56 21.5t-23.5 45.5t-1 56.5t15 64t21 57t20.5 45.5q12 25 43 103q14 35 20 63t4 55.5t-22.5 44t-58.5 20.5q-59 5 -123.5 -44.5t-105 -123.5t-38.5 -136q2 -44 33.5 -66.5t70 -13
t59.5 45.5q40 70 -4 102q-22 16 -56.5 7.5t-52.5 5.5zM506 675l23 20q70 -66 114 -104l-23 -25q-10 5 -21.5 14.5t-19.5 17.5l-23 23.5l-23 23.5q-15 15 -27 30z" />
    <glyph glyph-name="Uacute" unicode="&#xda;" horiz-adv-x="840" 
d="M174 377q20 14 55 23q40 10 77 -9t49.5 -58.5t-14.5 -97.5q-9 -17 -20.5 -42t-15.5 -31.5t-14.5 -19t-23.5 -19.5t-37 -18q-32 -15 -65.5 -15t-61.5 13.5t-52 36.5t-37.5 57t-17.5 73t7.5 85.5t37.5 93.5q39 70 110.5 121.5t152.5 64.5t155 -30q37 -24 51 -71t6 -102.5
t-22 -103t-32 -86.5q-2 -4 -13.5 -24.5t-16 -31.5t-4.5 -30.5t11 -36.5q20 -15 43.5 -11t40.5 14t30 24q43 48 99 146q4 7 16 48t28.5 74.5t37.5 41.5q12 -25 5 -93t-21 -134.5t-17 -130.5t18 -82q13 -12 30 -14t34 16t21 59l29 -3q10 -51 -34.5 -89.5t-102.5 -35t-82 56.5
q-8 18 -9.5 37t1.5 47t3 37q-6 -8 -15.5 -19t-15.5 -19q-25 -32 -65 -50.5t-84 -14.5q-36 4 -56 21.5t-23.5 45.5t-1 56.5t15 64t21 57t20.5 45.5q12 25 43 103q14 35 20 63t4 55.5t-22.5 44t-58.5 20.5q-59 5 -123.5 -44.5t-105 -123.5t-38.5 -136q2 -44 33.5 -66.5t70 -13
t59.5 45.5q40 70 -4 102q-22 16 -56.5 7.5t-52.5 5.5zM659 695l23 -20q-12 -15 -27 -30l-23 -23.5l-23 -23.5t-19.5 -17.5t-21.5 -14.5l-23 25q44 38 114 104z" />
    <glyph glyph-name="Ucircumflex" unicode="&#xdb;" horiz-adv-x="840" 
d="M174 377q20 14 55 23q40 10 77 -9t49.5 -58.5t-14.5 -97.5q-9 -17 -20.5 -42t-15.5 -31.5t-14.5 -19t-23.5 -19.5t-37 -18q-32 -15 -65.5 -15t-61.5 13.5t-52 36.5t-37.5 57t-17.5 73t7.5 85.5t37.5 93.5q39 70 110.5 121.5t152.5 64.5t155 -30q37 -24 51 -71t6 -102.5
t-22 -103t-32 -86.5q-2 -4 -13.5 -24.5t-16 -31.5t-4.5 -30.5t11 -36.5q20 -15 43.5 -11t40.5 14t30 24q43 48 99 146q4 7 16 48t28.5 74.5t37.5 41.5q12 -25 5 -93t-21 -134.5t-17 -130.5t18 -82q13 -12 30 -14t34 16t21 59l29 -3q10 -51 -34.5 -89.5t-102.5 -35t-82 56.5
q-8 18 -9.5 37t1.5 47t3 37q-6 -8 -15.5 -19t-15.5 -19q-25 -32 -65 -50.5t-84 -14.5q-36 4 -56 21.5t-23.5 45.5t-1 56.5t15 64t21 57t20.5 45.5q12 25 43 103q14 35 20 63t4 55.5t-22.5 44t-58.5 20.5q-59 5 -123.5 -44.5t-105 -123.5t-38.5 -136q2 -44 33.5 -66.5t70 -13
t59.5 45.5q40 70 -4 102q-22 16 -56.5 7.5t-52.5 5.5zM638 704h5q12 -4 21.5 -10.5t15 -12t14 -16.5t13.5 -16l50 -67q-12 -10 -24.5 -4.5t-19 14t-15 21.5t-13.5 17t-8 6t-9 10l-9.5 12.5l-11 14.5t-6.5 13q-2 -7 -6.5 -13.5t-11.5 -14t-10 -12.5q-5 -7 -6.5 -8.5t-4 -2.5
t-6.5 -5q-5 -4 -13.5 -17t-15 -21.5t-19 -14t-24.5 4.5l50 67q5 5 13.5 16t14 16.5t15 12t21.5 10.5z" />
    <glyph glyph-name="Udieresis" unicode="&#xdc;" horiz-adv-x="840" 
d="M174 377q20 14 55 23q40 10 77 -9t49.5 -58.5t-14.5 -97.5q-9 -17 -20.5 -42t-15.5 -31.5t-14.5 -19t-23.5 -19.5t-37 -18q-32 -15 -65.5 -15t-61.5 13.5t-52 36.5t-37.5 57t-17.5 73t7.5 85.5t37.5 93.5q39 70 110.5 121.5t152.5 64.5t155 -30q37 -24 51 -71t6 -102.5
t-22 -103t-32 -86.5q-2 -4 -13.5 -24.5t-16 -31.5t-4.5 -30.5t11 -36.5q20 -15 43.5 -11t40.5 14t30 24q43 48 99 146q4 7 16 48t28.5 74.5t37.5 41.5q12 -25 5 -93t-21 -134.5t-17 -130.5t18 -82q13 -12 30 -14t34 16t21 59l29 -3q10 -51 -34.5 -89.5t-102.5 -35t-82 56.5
q-8 18 -9.5 37t1.5 47t3 37q-6 -8 -15.5 -19t-15.5 -19q-25 -32 -65 -50.5t-84 -14.5q-36 4 -56 21.5t-23.5 45.5t-1 56.5t15 64t21 57t20.5 45.5q12 25 43 103q14 35 20 63t4 55.5t-22.5 44t-58.5 20.5q-59 5 -123.5 -44.5t-105 -123.5t-38.5 -136q2 -44 33.5 -66.5t70 -13
t59.5 45.5q40 70 -4 102q-22 16 -56.5 7.5t-52.5 5.5zM544 617q12 8 46 0q2 0 4 -2q21 -7 7 -31q-14 -25 -35 -25q-14 0 -22 17q-13 26 0 41zM631 617q12 8 46 0q2 0 4 -2q21 -7 7 -31q-14 -25 -35 -25q-14 0 -22 17q-13 26 0 41z" />
    <glyph glyph-name="Yacute" unicode="&#xdd;" horiz-adv-x="853" 
d="M486 -98q-2 0 -26 2t-38 2.5t-40.5 0.5t-44.5 -3t-39 -8.5t-36 -16t-24 -25.5q-18 -32 5 -62.5t65.5 -35t92.5 25.5q15 10 49 55.5t36 64.5zM231 185q36 1 58.5 36t21.5 75.5t-22 55.5q-13 9 -41.5 9.5t-36.5 2.5q30 28 71.5 24t61.5 -38.5t-2 -102.5q-15 -45 -18 -60
q-1 -5 -2.5 -9.5l-2.5 -7.5t-4 -6t-4 -4.5t-5 -4l-5.5 -3.5t-7.5 -4l-8 -4q-26 -15 -65.5 -22.5t-82.5 -4.5t-78.5 29t-46.5 73q-20 84 20.5 170.5t110.5 142.5q89 70 143 86q91 28 178 -22q46 -27 61.5 -60t10.5 -98q-4 -53 -29.5 -130t-53.5 -130l-10.5 -17.5t-12 -21
t-7.5 -19t-1 -18.5q9 -16 30 -20t41.5 1t35.5 14q49 30 61 83q6 23 17.5 59t15.5 52q2 6 5.5 20t5.5 20l5.5 16t6.5 14.5t8 10.5t11 8t14 3q26 -28 27.5 -98.5t-10.5 -113.5q-4 -19 -8 -56t-7 -52q-4 -24 -16 -56.5t-15 -45.5q42 3 75.5 15t53.5 27.5t33.5 30t21.5 26.5
t11 13q9 -16 -14 -76q-18 -47 -42 -64q-65 -43 -168 -43q-3 -1 -5.5 -2.5t-3.5 -2l-2 -1t-1.5 -1.5t-1.5 -2t-3 -4l-4 -6q-1 -1 -7 -8.5t-10 -11.5q-17 -20 -37 -37q-43 -37 -99.5 -74.5t-87.5 -37.5q-12 0 -18 4t-41 2q-31 -3 -57 15q-59 40 -49 100q10 57 60.5 88
t115.5 37q12 1 70 2.5t75 4.5q17 23 27 81q-2 -1 -25.5 -14t-47 -22.5t-57 -8t-59.5 23.5q-28 23 -33 60.5t12 84.5t30 75t36 68q4 7 41 92q10 25 16.5 51t8 56t-13.5 48.5t-48 18.5h-27q-60 0 -132 -54t-108 -104q-20 -28 -33 -68t-5 -82.5t47 -59.5q36 -14 87 -16z
M716 645l23 -20q-12 -15 -27 -30l-23 -23.5l-23 -23.5t-19.5 -17.5t-21.5 -14.5l-23 25q44 38 114 104z" />
    <glyph glyph-name="agrave" unicode="&#xe0;" 
d="M155 33q-7 -3 -19 -13q-32 -23 -63.5 -27t-52 10.5t-31 38.5t-1.5 58t38 68q47 53 118 95q21 12 32 17t26 7.5t25.5 -7.5t19.5 -31l7 -18q1 -2 2 -2q4 0 14 -8l-7 -17q-8 3 -19.5 9.5t-17 9t-15 0t-19.5 -12.5q-44 -44 -84.5 -99t-43.5 -94q37 4 59 22q8 6 12.5 10t6.5 9
t3 8t2 11.5t2 13.5q5 28 25.5 55.5t44.5 32.5q9 -13 11 -26t0.5 -21t-7.5 -23.5t-8 -23.5q-18 -58 13 -62q33 -4 79 49q20 22 37 51l16 -5q-16 -52 -56 -89t-90 -33q-12 1 -20 3t-16.5 10t-10 9.5t-12.5 14.5zM103 427l23 20q70 -66 114 -104l-23 -25q-10 5 -21.5 14.5
t-19.5 17.5l-23 23.5l-23 23.5q-15 15 -27 30z" />
    <glyph glyph-name="aacute" unicode="&#xe1;" 
d="M155 33q-7 -3 -19 -13q-32 -23 -63.5 -27t-52 10.5t-31 38.5t-1.5 58t38 68q47 53 118 95q21 12 32 17t26 7.5t25.5 -7.5t19.5 -31l7 -18q1 -2 2 -2q4 0 14 -8l-7 -17q-8 3 -19.5 9.5t-17 9t-15 0t-19.5 -12.5q-44 -44 -84.5 -99t-43.5 -94q37 4 59 22q8 6 12.5 10t6.5 9
t3 8t2 11.5t2 13.5q5 28 25.5 55.5t44.5 32.5q9 -13 11 -26t0.5 -21t-7.5 -23.5t-8 -23.5q-18 -58 13 -62q33 -4 79 49q20 22 37 51l16 -5q-16 -52 -56 -89t-90 -33q-12 1 -20 3t-16.5 10t-10 9.5t-12.5 14.5zM217 426l23 -20q-12 -15 -27 -30l-23 -23.5l-23 -23.5
t-19.5 -17.5t-21.5 -14.5l-23 25q44 38 114 104z" />
    <glyph glyph-name="acircumflex" unicode="&#xe2;" 
d="M155 33q-7 -3 -19 -13q-32 -23 -63.5 -27t-52 10.5t-31 38.5t-1.5 58t38 68q47 53 118 95q21 12 32 17t26 7.5t25.5 -7.5t19.5 -31l7 -18q1 -2 2 -2q4 0 14 -8l-7 -17q-8 3 -19.5 9.5t-17 9t-15 0t-19.5 -12.5q-44 -44 -84.5 -99t-43.5 -94q37 4 59 22q8 6 12.5 10t6.5 9
t3 8t2 11.5t2 13.5q5 28 25.5 55.5t44.5 32.5q9 -13 11 -26t0.5 -21t-7.5 -23.5t-8 -23.5q-18 -58 13 -62q33 -4 79 49q20 22 37 51l16 -5q-16 -52 -56 -89t-90 -33q-12 1 -20 3t-16.5 10t-10 9.5t-12.5 14.5zM169 422h5q12 -4 21.5 -10.5t15 -12t14 -16.5t13.5 -16l50 -67
q-12 -10 -24.5 -4.5t-19 14t-15 21.5t-13.5 17q-4 4 -6.5 5t-4 2.5t-6.5 8.5l-9.5 12.5l-11 14.5t-6.5 13q-2 -7 -6.5 -13.5t-11.5 -14t-10 -12.5q-6 -8 -9 -10t-8 -6t-13.5 -17t-15 -21.5t-19 -14t-24.5 4.5l50 67q5 5 13.5 16t14 16.5t15 12t21.5 10.5z" />
    <glyph glyph-name="atilde" unicode="&#xe3;" 
d="M155 33q-7 -3 -19 -13q-32 -23 -63.5 -27t-52 10.5t-31 38.5t-1.5 58t38 68q47 53 118 95q21 12 32 17t26 7.5t25.5 -7.5t19.5 -31l7 -18q1 -2 2 -2q4 0 14 -8l-7 -17q-8 3 -19.5 9.5t-17 9t-15 0t-19.5 -12.5q-44 -44 -84.5 -99t-43.5 -94q37 4 59 22q8 6 12.5 10t6.5 9
t3 8t2 11.5t2 13.5q5 28 25.5 55.5t44.5 32.5q9 -13 11 -26t0.5 -21t-7.5 -23.5t-8 -23.5q-18 -58 13 -62q33 -4 79 49q20 22 37 51l16 -5q-16 -52 -56 -89t-90 -33q-12 1 -20 3t-16.5 10t-10 9.5t-12.5 14.5zM64 296q1 4 2.5 5.5l2.5 2.5t5.5 4.5t10.5 9.5q28 28 50 35.5
t33.5 1.5l28.5 -15t30 -9q10 -1 28 11.5t24 12.5q1 -7 -8 -18t-29 -18t-53 6t-52 -1l-5 -4l-8.5 -8.5l-9.5 -9.5t-7.5 -8.5t-1.5 -4.5l-1 -1q-5 -3 -11 -3t-9.5 1.5t-10 5t-9.5 4.5z" />
    <glyph glyph-name="adieresis" unicode="&#xe4;" 
d="M155 33q-7 -3 -19 -13q-32 -23 -63.5 -27t-52 10.5t-31 38.5t-1.5 58t38 68q47 53 118 95q21 12 32 17t26 7.5t25.5 -7.5t19.5 -31l7 -18q1 -2 2 -2q4 0 14 -8l-7 -17q-8 3 -19.5 9.5t-17 9t-15 0t-19.5 -12.5q-44 -44 -84.5 -99t-43.5 -94q37 4 59 22q8 6 12.5 10t6.5 9
t3 8t2 11.5t2 13.5q5 28 25.5 55.5t44.5 32.5q9 -13 11 -26t0.5 -21t-7.5 -23.5t-8 -23.5q-18 -58 13 -62q33 -4 79 49q20 22 37 51l16 -5q-16 -52 -56 -89t-90 -33q-12 1 -20 3t-16.5 10t-10 9.5t-12.5 14.5zM125 373q12 8 46 0q2 0 4 -2q21 -7 7 -31q-14 -25 -35 -25
q-14 0 -22 17q-13 26 0 41zM212 373q12 8 46 0q2 0 4 -2q21 -7 7 -31q-14 -25 -35 -25q-14 0 -22 17q-13 26 0 41z" />
    <glyph glyph-name="aring" unicode="&#xe5;" 
d="M155 33q-7 -3 -19 -13q-32 -23 -63.5 -27t-52 10.5t-31 38.5t-1.5 58t38 68q47 53 118 95q21 12 32 17t26 7.5t25.5 -7.5t19.5 -31l7 -18q1 -2 2 -2q4 0 14 -8l-7 -17q-8 3 -19.5 9.5t-17 9t-15 0t-19.5 -12.5q-44 -44 -84.5 -99t-43.5 -94q37 4 59 22q8 6 12.5 10t6.5 9
t3 8t2 11.5t2 13.5q5 28 25.5 55.5t44.5 32.5q9 -13 11 -26t0.5 -21t-7.5 -23.5t-8 -23.5q-18 -58 13 -62q33 -4 79 49q20 22 37 51l16 -5q-16 -52 -56 -89t-90 -33q-12 1 -20 3t-16.5 10t-10 9.5t-12.5 14.5zM231 430l7 3.5t5.5 1t4.5 -1t3 -1.5l2 -2h1q0 -1 1 -1l1 -1
q4 -2 5 -3q6 -7 0 -33t-13 -36q-12 -19 -19 -28t-23.5 -20.5t-34.5 -11.5q-13 0 -26 9.5t-18 21.5q-3 8 -4 14t1 12.5t3 8.5t6 10t6 10q18 30 34 41q40 27 59 21l-55 -55q-5 -5 -12 -19t-7 -32t16 -24q25 -9 49 23t30 62q3 9 0.5 14.5t-4.5 7t-8.5 4.5t-9.5 5z" />
    <glyph glyph-name="ae" unicode="&#xe6;" horiz-adv-x="424" 
d="M254 32q34 -38 90 1t80 90l17 -5q-24 -72 -78.5 -104t-119.5 -14l1 -2q-16 -3 -30 -2q-12 1 -20 3t-16.5 10t-10 9.5t-12.5 14.5q-7 -3 -19 -13q-32 -23 -63.5 -27t-52 10.5t-31 38.5t-1.5 58t38 68q47 53 118 95q21 12 32 17t26 7.5t25.5 -7.5t19.5 -31q2 -4 3 -8
t2 -6.5t1 -3.5q50 33 93 35q33 1 44.5 -27t-11.5 -60l-21.5 -30t-25.5 -33.5t-24.5 -26t-31 -23t-33.5 -8.5q1 -16 11 -26zM149 91q5 33 31 62q18 35 55 65q-22 13 -43 -8q-44 -44 -84.5 -99t-43.5 -94q37 4 59 22q8 6 12.5 10t6.5 9t3 8t2 11.5t2 13.5zM244 84
q28 0 71 53.5t43 77.5q-39 2 -90 -75q-20 -32 -24 -56z" />
    <glyph glyph-name="ccedilla" unicode="&#xe7;" horiz-adv-x="245" 
d="M74 32q35 -38 90.5 1t80.5 90l16 -5q-32 -96 -112 -118l-5 -14l-10 -19q-13 -20 -15 -26q2 1 7.5 3.5t7.5 3t7.5 0t11.5 -2.5q16 -6 21 -24t2 -35t-9 -30q-2 -5 -11 -14l-8 -8q-5 -6 -9 -10t-7 -6t-8 -4l-7.5 -3t-10.5 -3t-13 -3q-15 -3 -37 5l2 20q5 0 11.5 -1t9.5 -1
t8 1.5t12 4.5q36 18 47 54q5 18 2 35l-5 11q-5 -2 -11 -5t-10 -4q-9 -3 -12.5 -6t-8.5 -5l-18 33q6 20 26 47q-22 0 -46 6q-38 10 -61 42t-16 71q13 70 87 119q62 41 104 32q47 -9 18 -77q-8 -18 -21 -40q-18 -2 -23 -1t-15 10q5 9 16.5 11.5t19 11.5t7.5 36q-41 2 -90 -75
q-23 -35 -26 -66t11 -42z" />
    <glyph glyph-name="egrave" unicode="&#xe8;" horiz-adv-x="244" 
d="M74 32q34 -38 90 1t80 90l17 -5q-24 -72 -78.5 -104t-119.5 -14q-39 10 -61.5 42t-15.5 71q11 61 71 106.5t109 46.5q33 1 44.5 -27t-11.5 -60l-21.5 -30t-25.5 -33.5t-24.5 -26t-31 -23t-33.5 -8.5q1 -16 11 -26zM64 84q28 0 71 53.5t43 77.5q-39 2 -90 -75
q-20 -32 -24 -56zM53 400l23 20q70 -66 114 -104l-23 -25q-10 5 -21.5 14.5t-19.5 17.5l-23 23.5l-23 23.5q-15 15 -27 30z" />
    <glyph glyph-name="eacute" unicode="&#xe9;" horiz-adv-x="244" 
d="M74 32q34 -38 90 1t80 90l17 -5q-24 -72 -78.5 -104t-119.5 -14q-39 10 -61.5 42t-15.5 71q11 61 71 106.5t109 46.5q33 1 44.5 -27t-11.5 -60l-21.5 -30t-25.5 -33.5t-24.5 -26t-31 -23t-33.5 -8.5q1 -16 11 -26zM64 84q28 0 71 53.5t43 77.5q-39 2 -90 -75
q-20 -32 -24 -56zM167 390l23 -20q-12 -15 -27 -30l-23 -23.5l-23 -23.5t-19.5 -17.5t-21.5 -14.5l-23 25q44 38 114 104z" />
    <glyph glyph-name="ecircumflex" unicode="&#xea;" horiz-adv-x="244" 
d="M74 32q34 -38 90 1t80 90l17 -5q-24 -72 -78.5 -104t-119.5 -14q-39 10 -61.5 42t-15.5 71q11 61 71 106.5t109 46.5q33 1 44.5 -27t-11.5 -60l-21.5 -30t-25.5 -33.5t-24.5 -26t-31 -23t-33.5 -8.5q1 -16 11 -26zM64 84q28 0 71 53.5t43 77.5q-39 2 -90 -75
q-20 -32 -24 -56zM120 393h5q12 -4 21.5 -10.5t15 -12t14 -16.5t13.5 -16l50 -67q-12 -10 -24.5 -4.5t-19 14t-15 21.5t-13.5 17q-5 5 -8 6.5t-9 9.5l-9.5 12.5l-11 14.5t-6.5 13q-2 -7 -6.5 -13.5t-11.5 -14t-10 -12.5q-5 -7 -6.5 -8.5t-4 -2.5t-6.5 -5q-5 -4 -13.5 -17
t-15 -21.5t-19 -14t-24.5 4.5l50 67q5 5 13.5 16t14 16.5t15 12t21.5 10.5z" />
    <glyph glyph-name="edieresis" unicode="&#xeb;" horiz-adv-x="244" 
d="M74 32q34 -38 90 1t80 90l17 -5q-24 -72 -78.5 -104t-119.5 -14q-39 10 -61.5 42t-15.5 71q11 61 71 106.5t109 46.5q33 1 44.5 -27t-11.5 -60l-21.5 -30t-25.5 -33.5t-24.5 -26t-31 -23t-33.5 -8.5q1 -16 11 -26zM64 84q28 0 71 53.5t43 77.5q-39 2 -90 -75
q-20 -32 -24 -56zM39 352q12 8 46 0q2 0 4 -2q21 -7 7 -31q-14 -25 -35 -25q-14 0 -22 17q-13 26 0 41zM126 352q12 8 46 0q2 0 4 -2q21 -7 7 -31q-14 -25 -35 -25q-14 0 -22 17q-13 26 0 41z" />
    <glyph glyph-name="igrave" unicode="&#xec;" horiz-adv-x="156" 
d="M49 219q2 3 3.5 5.5t2 3.5t2.5 1.5t7 2.5q34 -21 33 -37q-1 -4 -35 -100q-27 -74 -14 -72q22 2 52 29t56 71l17 -5q-15 -46 -49 -82t-78 -40q-3 0 -10 -0.5t-10 -0.5q-27 -1 -42 15.5t-9 54.5q10 61 48 116zM10 367l23 20q70 -66 114 -104l-23 -25q-10 5 -21.5 14.5
t-19.5 17.5l-23 23.5l-23 23.5q-15 15 -27 30z" />
    <glyph glyph-name="iacute" unicode="&#xed;" horiz-adv-x="156" 
d="M49 219q2 3 3.5 5.5t2 3.5t2.5 1.5t7 2.5q34 -21 33 -37q-1 -4 -35 -100q-27 -74 -14 -72q22 2 52 29t56 71l17 -5q-15 -46 -49 -82t-78 -40q-3 0 -10 -0.5t-10 -0.5q-27 -1 -42 15.5t-9 54.5q10 61 48 116zM124 412l23 -20q-12 -15 -27 -30l-23 -23.5l-23 -23.5
t-19.5 -17.5t-21.5 -14.5l-23 25q44 38 114 104z" />
    <glyph glyph-name="icircumflex" unicode="&#xee;" horiz-adv-x="156" 
d="M49 219q2 3 3.5 5.5t2 3.5t2.5 1.5t7 2.5q34 -21 33 -37q-1 -4 -35 -100q-27 -74 -14 -72q22 2 52 29t56 71l17 -5q-15 -46 -49 -82t-78 -40q-3 0 -10 -0.5t-10 -0.5q-27 -1 -42 15.5t-9 54.5q10 61 48 116zM76 349h5q12 -4 21.5 -10.5t15 -12t14 -16.5t13.5 -16l50 -67
q-12 -10 -24.5 -4.5t-19 14t-15 21.5t-13.5 17q-5 5 -8 6.5t-9 9.5l-9.5 12.5l-11 14.5t-6.5 13q-2 -7 -6.5 -13.5t-11.5 -14t-10 -12.5q-5 -7 -6.5 -8.5t-4 -2.5t-6.5 -5q-5 -4 -13.5 -17t-15 -21.5t-19 -14t-24.5 4.5l50 67q5 5 13.5 16t14 16.5t15 12t21.5 10.5z" />
    <glyph glyph-name="idieresis" unicode="&#xef;" horiz-adv-x="156" 
d="M49 219q2 3 3.5 5.5t2 3.5t2.5 1.5t7 2.5q34 -21 33 -37q-1 -4 -35 -100q-27 -74 -14 -72q22 2 52 29t56 71l17 -5q-15 -46 -49 -82t-78 -40q-3 0 -10 -0.5t-10 -0.5q-27 -1 -42 15.5t-9 54.5q10 61 48 116zM-4 304q12 8 46 0q2 0 4 -2q21 -7 7 -31q-14 -25 -35 -25
q-14 0 -22 17q-13 26 0 41zM83 304q12 8 46 0q2 0 4 -2q21 -7 7 -31q-14 -25 -35 -25q-14 0 -22 17q-13 26 0 41z" />
    <glyph glyph-name="ntilde" unicode="&#xf1;" horiz-adv-x="300" 
d="M18 -7q-5 4 -16 11t-14.5 10t-6.5 11.5t-2 21.5q5 47 35.5 100.5t67.5 95.5q2 -2 8 -6.5t7.5 -6t7 -6.5t5.5 -7.5t3.5 -10t1.5 -12.5t-1 -16q12 7 30.5 22t29.5 22.5t28 6.5t34 -18q-2 -16 -3 -16q-4 0 -9 -8q-4 -8 -10 -23q-2 -5 -10.5 -22t-16 -33.5t-14 -34.5
t-5.5 -31t11 -18q19 -9 54.5 18t66.5 80l17 -5q-16 -52 -56 -89.5t-90 -32.5q-35 3 -50 17.5t-11.5 36.5t12.5 42.5t21 44.5t15 35q-22 -11 -60.5 -63.5t-62.5 -95.5q-4 -6 -9 -12zM42 284q1 4 2.5 5.5l2.5 2.5t5.5 4.5t10.5 9.5q28 28 50 35.5t33.5 1.5l28.5 -15t30 -9
q10 -1 28 11.5t24 12.5q1 -7 -8 -18t-29 -18t-53 6t-52 -1l-5 -4l-8.5 -8.5l-9.5 -9.5t-7.5 -8.5t-1.5 -4.5l-1 -1q-5 -3 -11 -3t-9.5 1.5t-10 5t-9.5 4.5z" />
    <glyph glyph-name="ograve" unicode="&#xf2;" horiz-adv-x="263" 
d="M145 42l-5 -7q-33 -40 -94 -25q-46 11 -66 58.5t10 99.5q54 85 136 105q62 16 89 -17q10 -12 11 -29q1 -11 -10 -50.5t-17 -52.5q-15 -30 -27 -48q16 -7 45 3.5t46 43.5l16 -5q-11 -41 -52 -60t-82 -16zM81 26l10 4q10 4 15 10t16 21q-17 29 -18 47t6 52q0 -1 -10 -13
t-19.5 -26.5t-17 -32t-3.5 -34.5t21 -28zM153 91q20 32 23.5 55.5t-1.5 57.5q-19 -10 -25.5 -51.5t3.5 -61.5zM63 425l23 20q70 -66 114 -104l-23 -25q-10 5 -21.5 14.5t-19.5 17.5l-23 23.5l-23 23.5q-15 15 -27 30z" />
    <glyph glyph-name="oacute" unicode="&#xf3;" horiz-adv-x="263" 
d="M145 42l-5 -7q-33 -40 -94 -25q-46 11 -66 58.5t10 99.5q54 85 136 105q62 16 89 -17q10 -12 11 -29q1 -11 -10 -50.5t-17 -52.5q-15 -30 -27 -48q16 -7 45 3.5t46 43.5l16 -5q-11 -41 -52 -60t-82 -16zM81 26l10 4q10 4 15 10t16 21q-17 29 -18 47t6 52q0 -1 -10 -13
t-19.5 -26.5t-17 -32t-3.5 -34.5t21 -28zM153 91q20 32 23.5 55.5t-1.5 57.5q-19 -10 -25.5 -51.5t3.5 -61.5zM177 414l23 -20q-12 -15 -27 -30l-23 -23.5l-23 -23.5t-19.5 -17.5t-21.5 -14.5l-23 25q44 38 114 104z" />
    <glyph glyph-name="ocircumflex" unicode="&#xf4;" horiz-adv-x="263" 
d="M145 42l-5 -7q-33 -40 -94 -25q-46 11 -66 58.5t10 99.5q54 85 136 105q62 16 89 -17q10 -12 11 -29q1 -11 -10 -50.5t-17 -52.5q-15 -30 -27 -48q16 -7 45 3.5t46 43.5l16 -5q-11 -41 -52 -60t-82 -16zM81 26l10 4q10 4 15 10t16 21q-17 29 -18 47t6 52q0 -1 -10 -13
t-19.5 -26.5t-17 -32t-3.5 -34.5t21 -28zM153 91q20 32 23.5 55.5t-1.5 57.5q-19 -10 -25.5 -51.5t3.5 -61.5zM129 426h5q12 -4 21.5 -10.5t15 -12t14 -16.5t13.5 -16l50 -67q-12 -10 -24.5 -4.5t-19 14t-15 21.5t-13.5 17q-4 4 -6.5 5t-4 2.5t-6.5 8.5l-9.5 12.5l-11 14.5
t-6.5 13q-2 -7 -6.5 -13.5t-11.5 -14t-10 -12.5q-6 -8 -9 -10t-8 -6t-13.5 -17t-15 -21.5t-19 -14t-24.5 4.5l50 67q5 5 13.5 16t14 16.5t15 12t21.5 10.5z" />
    <glyph glyph-name="otilde" unicode="&#xf5;" horiz-adv-x="263" 
d="M145 42l-5 -7q-33 -40 -94 -25q-46 11 -66 58.5t10 99.5q54 85 136 105q62 16 89 -17q10 -12 11 -29q1 -11 -10 -50.5t-17 -52.5q-15 -30 -27 -48q16 -7 45 3.5t46 43.5l16 -5q-11 -41 -52 -60t-82 -16zM81 26l10 4q10 4 15 10t16 21q-17 29 -18 47t6 52q0 -1 -10 -13
t-19.5 -26.5t-17 -32t-3.5 -34.5t21 -28zM153 91q20 32 23.5 55.5t-1.5 57.5q-19 -10 -25.5 -51.5t3.5 -61.5zM23 333q1 4 2.5 5.5l2.5 2.5t5.5 4.5t10.5 9.5q28 28 50 35.5t33.5 1.5l28.5 -15t30 -9q10 -1 28 11.5t24 12.5q1 -7 -8 -18t-29 -18t-53 6t-52 -1l-4 -4
q-5 -4 -9.5 -8.5l-9.5 -9.5t-7.5 -8.5t-1.5 -4.5l-1 -1q-5 -3 -11 -3t-9.5 1.5t-10 5t-9.5 4.5z" />
    <glyph glyph-name="odieresis" unicode="&#xf6;" horiz-adv-x="263" 
d="M145 42l-5 -7q-33 -40 -94 -25q-46 11 -66 58.5t10 99.5q54 85 136 105q62 16 89 -17q10 -12 11 -29q1 -11 -10 -50.5t-17 -52.5q-15 -30 -27 -48q16 -7 45 3.5t46 43.5l16 -5q-11 -41 -52 -60t-82 -16zM81 26l10 4q10 4 15 10t16 21q-17 29 -18 47t6 52q0 -1 -10 -13
t-19.5 -26.5t-17 -32t-3.5 -34.5t21 -28zM153 91q20 32 23.5 55.5t-1.5 57.5q-19 -10 -25.5 -51.5t3.5 -61.5zM49 357q12 8 46 0q2 0 4 -2q21 -7 7 -31q-14 -25 -35 -25q-14 0 -22 17q-13 26 0 41zM136 357q12 8 46 0q2 0 4 -2q21 -7 7 -31q-14 -25 -35 -25q-14 0 -22 17
q-13 26 0 41z" />
    <glyph glyph-name="divide" unicode="&#xf7;" horiz-adv-x="186" 
d="M10 91l2 33q89 2 162 7l2 -35q-11 -4 -27 -6t-27 -2t-35.5 0.5t-34.5 0.5q-8 0 -22 1t-20 1zM76 211q12 8 46 0q2 0 4 -2q21 -7 7 -31q-14 -25 -35 -25q-14 0 -22 17q-13 26 0 41zM76 59q12 8 46 0q2 0 4 -2q21 -7 7 -31q-14 -25 -35 -25q-14 0 -22 17q-13 26 0 41z" />
    <glyph glyph-name="oslash" unicode="&#xf8;" horiz-adv-x="263" 
d="M314 362q-3 -35 -90 -152q-11 -57 -25 -86q-15 -30 -27 -48q16 -7 45 3.5t46 43.5l16 -5q-11 -41 -52 -60t-82 -16l-5 -7q-29 -35 -77 -28q-19 -17 -22 -19q-3 -3 -11.5 -10.5t-12.5 -12.5q-1 -1 -5 -7.5t-8 -10.5t-10 -8t-13 -2.5t-15 9.5q-3 3 -6 10q7 12 17.5 13.5
t33.5 30.5l15 17q-37 20 -49.5 62.5t13.5 88.5q25 39 58.5 65.5t64.5 36t57.5 6.5t41.5 -18q3 3 7 9q42 56 78 87q8 7 10.5 7t6.5 1zM110 160q0 -1 -9.5 -12.5t-19 -25t-17 -32t-5.5 -32.5q7 8 14.5 18.5l16.5 24l14 20.5q1 12 6 39zM153 91q20 33 23 55l-7 -10l-20 -29
q2 -12 4 -16zM81 26l10 4q10 4 15 10t16 21q-2 2 -4 6l-17 -21q0 -1 -2 -1z" />
    <glyph glyph-name="ugrave" unicode="&#xf9;" horiz-adv-x="296" 
d="M239 216q-1 -4 -7 -14l-16 -28t-17 -38l-10 -28.5t-11 -35.5t-4.5 -37t13.5 -12q22 2 52.5 28.5t56.5 71.5l17 -5q-23 -75 -83 -108q-79 -44 -105 -37q-24 7 -19 47q-19 -28 -54 -35.5t-59.5 15t-15.5 69.5q7 40 42 92l52 83q32 4 41 -2t-4 -30q-67 -112 -73 -179
q-2 -28 14 -26q20 3 45 38q7 10 10 18q38 90 67 149q2 3 5.5 11t5.5 9.5t7 3.5t14 1q21 -3 36 -21zM79 372l23 20q70 -66 114 -104l-23 -25q-10 5 -21.5 14.5t-19.5 17.5l-23 23.5l-23 23.5q-15 15 -27 30z" />
    <glyph glyph-name="uacute" unicode="&#xfa;" horiz-adv-x="296" 
d="M239 216q-1 -4 -7 -14l-16 -28t-17 -38l-10 -28.5t-11 -35.5t-4.5 -37t13.5 -12q22 2 52.5 28.5t56.5 71.5l17 -5q-23 -75 -83 -108q-79 -44 -105 -37q-24 7 -19 47q-19 -28 -54 -35.5t-59.5 15t-15.5 69.5q7 40 42 92l52 83q32 4 41 -2t-4 -30q-67 -112 -73 -179
q-2 -28 14 -26q20 3 45 38q7 10 10 18q38 90 67 149q2 3 5.5 11t5.5 9.5t7 3.5t14 1q21 -3 36 -21zM193 411l23 -20q-12 -15 -27 -30l-23 -23.5l-23 -23.5t-19.5 -17.5t-21.5 -14.5l-23 25q44 38 114 104z" />
    <glyph glyph-name="ucircumflex" unicode="&#xfb;" horiz-adv-x="296" 
d="M239 216q-1 -4 -7 -14l-16 -28t-17 -38l-10 -28.5t-11 -35.5t-4.5 -37t13.5 -12q22 2 52.5 28.5t56.5 71.5l17 -5q-23 -75 -83 -108q-79 -44 -105 -37q-24 7 -19 47q-19 -28 -54 -35.5t-59.5 15t-15.5 69.5q7 40 42 92l52 83q32 4 41 -2t-4 -30q-67 -112 -73 -179
q-2 -28 14 -26q20 3 45 38q7 10 10 18q38 90 67 149q2 3 5.5 11t5.5 9.5t7 3.5t14 1q21 -3 36 -21zM145 395h5q12 -4 21.5 -10.5t15 -12t14 -16.5t13.5 -16l50 -67q-12 -10 -24.5 -4.5t-19 14t-15 21.5t-13.5 17q-4 4 -6.5 5t-4 2.5t-6.5 8.5l-9.5 12.5l-11 14.5t-6.5 13
q-2 -7 -6.5 -13.5t-11.5 -14t-10 -12.5q-6 -8 -9 -9.5t-8 -6.5q-5 -4 -13.5 -17t-15 -21.5t-19 -14t-24.5 4.5l50 67q5 5 13.5 16t14 16.5t15 12t21.5 10.5z" />
    <glyph glyph-name="udieresis" unicode="&#xfc;" horiz-adv-x="296" 
d="M239 216q-1 -4 -7 -14l-16 -28t-17 -38l-10 -28.5t-11 -35.5t-4.5 -37t13.5 -12q22 2 52.5 28.5t56.5 71.5l17 -5q-23 -75 -83 -108q-79 -44 -105 -37q-24 7 -19 47q-19 -28 -54 -35.5t-59.5 15t-15.5 69.5q7 40 42 92l52 83q32 4 41 -2t-4 -30q-67 -112 -73 -179
q-2 -28 14 -26q20 3 45 38q7 10 10 18q38 90 67 149q2 3 5.5 11t5.5 9.5t7 3.5t14 1q21 -3 36 -21zM81 347q12 8 46 0q2 0 4 -2q21 -7 7 -31q-14 -25 -35 -25q-14 0 -22 17q-13 26 0 41zM168 347q12 8 46 0q2 0 4 -2q21 -7 7 -31q-14 -25 -35 -25q-14 0 -22 17q-13 26 0 41z
" />
    <glyph glyph-name="yacute" unicode="&#xfd;" horiz-adv-x="316" 
d="M174 222q12 2 23.5 -1.5t22.5 -3.5l-31 -189q17 -16 55.5 11t71.5 84l16 -5q-16 -52 -56 -89t-90 -33l-11 2q-9 -46 -48 -108q-10 -16 -39 -43.5t-43 -34.5q-11 -5 -68 -15q-56 -8 -68.5 46.5t25.5 100.5q18 23 47.5 35t54.5 15t48 14.5t31 34.5q-4 -2 -18 -8t-19.5 -8
t-17.5 -5.5t-20 -3.5t-18.5 1.5t-19.5 5.5q-18 9 -22 32.5t11 58.5q17 37 44 72t39 56q5 -1 9.5 -2.5t7.5 -3t6.5 -4.5t5 -4.5l5.5 -5.5t5 -6q-3 -13 -30.5 -69.5t-27.5 -82.5q-1 -29 39 -3q19 13 26 22q17 25 36 81zM-45 -158q65 -7 91 37q33 54 41 93q-4 0 -17 -1.5
t-19 -2t-18 -2.5t-19 -4t-16 -5t-16 -7.5t-12 -9.5q-44 -48 -15 -98zM203 399l23 -20q-12 -15 -27 -30l-23 -23.5l-23 -23.5t-19.5 -17.5t-21.5 -14.5l-23 25q44 38 114 104z" />
    <glyph glyph-name="ydieresis" unicode="&#xff;" horiz-adv-x="316" 
d="M174 222q12 2 23.5 -1.5t22.5 -3.5l-31 -189q17 -16 55.5 11t71.5 84l16 -5q-16 -52 -56 -89t-90 -33l-11 2q-9 -46 -48 -108q-10 -16 -39 -43.5t-43 -34.5q-11 -5 -68 -15q-56 -8 -68.5 46.5t25.5 100.5q18 23 47.5 35t54.5 15t48 14.5t31 34.5q-4 -2 -18 -8t-19.5 -8
t-17.5 -5.5t-20 -3.5t-18.5 1.5t-19.5 5.5q-18 9 -22 32.5t11 58.5q17 37 44 72t39 56q5 -1 9.5 -2.5t7.5 -3t6.5 -4.5t5 -4.5l5.5 -5.5t5 -6q-3 -13 -30.5 -69.5t-27.5 -82.5q-1 -29 39 -3q19 13 26 22q17 25 36 81zM-45 -158q65 -7 91 37q33 54 41 93q-4 0 -17 -1.5
t-19 -2t-18 -2.5t-19 -4t-16 -5t-16 -7.5t-12 -9.5q-44 -48 -15 -98zM75 332q12 8 46 0q2 0 4 -2q21 -7 7 -31q-14 -25 -35 -25q-14 0 -22 17q-13 26 0 41zM162 332q12 8 46 0q2 0 4 -2q21 -7 7 -31q-14 -25 -35 -25q-14 0 -22 17q-13 26 0 41z" />
    <glyph glyph-name="dotlessi" unicode="&#x131;" horiz-adv-x="156" 
d="M49 219q2 3 3.5 5.5t2 3.5t2.5 1.5t7 2.5q34 -21 33 -37q-1 -4 -35 -100q-27 -74 -14 -72q22 2 52 29t56 71l17 -5q-15 -46 -49 -82t-78 -40q-3 0 -10 -0.5t-10 -0.5q-27 -1 -42 15.5t-9 54.5q10 61 48 116z" />
    <glyph glyph-name="OE" unicode="&#x152;" horiz-adv-x="861" 
d="M765 117q26 21 29.5 38t-5.5 24.5t-26.5 17.5t-21.5 13q59 6 73.5 -17t-10.5 -72q-10 -21 -41 -55q-73 -83 -190 -109q-26 -6 -86 -5t-91 10q-78 25 -102 42q-4 -2 -7 -2q-52 -10 -82.5 -11t-65 11.5t-64.5 44.5q-36 38 -46.5 81.5t-4 73t19.5 67.5t15 52q-59 68 -53 132
t57.5 111t119.5 54q72 8 151 -26.5t116 -93.5q48 58 148 92.5t147 19.5q12 -4 20 -8t18 -10.5t18 -10.5q13 -6 24.5 -8t14 -6t9.5 -23q24 -70 -38 -115q-12 -9 -35.5 -20t-53 -21t-56.5 -6t-39 25q-20 31 -11 58.5t50 18.5q12 -2 13.5 -5t-3 -13.5t-4.5 -20.5
q44 -40 101 -13q43 20 52 55q11 43 -47 62q-7 2 -16 4q-47 11 -135 -39q-87 -49 -112 -101q-21 -46 25 -71q19 -11 37.5 -12t38 1.5t32.5 0.5q-2 -15 -21.5 -23.5t-61.5 -20t-72 -24.5l-3 -18q-15 -62 -52 -129q-23 -43 -56 -60q18 -13 32 -17q41 -13 99.5 -16.5t102.5 8.5
q24 9 75 37.5t74 47.5zM436 365v9q-11 20 -14 43q-21 48 -51 86q-38 50 -137 71q-42 9 -79 -3.5t-58 -39.5t-31 -58t-3 -60.5t30 -45.5q27 46 73 86.5t91 43.5q60 4 71 -28q-4 -2 -6 -5q-1 -1 -6 0t-8 2q-5 1 -9.5 4t-5.5 3q-13 6 -16 6t-19 -5q-24 -10 -71 -65.5t-53 -89.5
q14 -6 38 -19t34 -16t33.5 -1t55.5 15q103 38 141 67zM115 275q-22 -74 14 -128.5t101 -62.5q-29 85 85 173q-45 -12 -58 -13q-24 1 -31.5 -1t-24 2.5t-22.5 6.5t-27 10t-37 13zM365 153q3 4 14 21.5l17 27.5q-22 -19 -39 -40q-27 -34 -24 -50v-2q15 14 32 43z" />
    <glyph glyph-name="oe" unicode="&#x153;" horiz-adv-x="381" 
d="M211 32q34 -38 90 1t80 90l17 -5q-24 -72 -78.5 -104t-119.5 -14q-36 9 -58 37l-2 -2q-33 -40 -94 -25q-46 11 -66 58.5t10 99.5q37 58 90 87t93.5 23t50.5 -38q43 24 79 26q33 1 44.5 -27t-11.5 -60q-6 -7 -20.5 -28.5t-26.5 -36.5t-25 -26q-21 -28 -63 -40q2 -8 10 -16
zM201 84q28 0 71 53.5t43 77.5q-39 2 -90 -75q-20 -32 -24 -56zM81 26l10 4q10 4 15 10t16 21q-17 29 -18 47t6 52q0 -1 -10 -13t-19.5 -26.5t-17 -32t-3.5 -34.5t21 -28zM175 204q-9 -5 -16 -18l16 17v1z" />
    <glyph glyph-name="Scaron" unicode="&#x160;" horiz-adv-x="697" 
d="M487 556q-35 1 -59 -31t-14 -71q4 -15 31.5 -40.5l59 -52.5t61 -68t37 -87t-12.5 -110q-29 -78 -88 -105t-155 -24q-204 7 -279 92q-42 46 -59 122q-10 45 8 90t53.5 76t77 51t83 18.5t66.5 -26.5q32 -32 44 -83t-6.5 -98t-67.5 -62q-46 -14 -80.5 -1t-44.5 51
q-12 32 -0.5 78t43.5 46v-47.5t0.5 -49.5t13 -39.5t37.5 -17.5q43 -2 60.5 45t6.5 104q-3 15 -5 20.5t-4 7t-10 4.5t-16 8q-11 7 -22.5 19.5t-20.5 18.5q-41 -12 -78.5 -37.5t-63.5 -67t-21 -86.5q9 -66 69.5 -105.5t141.5 -41.5q75 -2 159 16q89 20 92 91q0 24 -8.5 48
t-18 40t-31.5 37.5t-32.5 30t-37 28.5t-29.5 23q-35 27 -56 65t-20 86.5t31 93.5q17 25 47 47.5t60 28.5q27 5 79 1t78 -13q38 -12 58 -30t37 -51q11 -22 11 -33t-12 -30q-27 -46 -73 -73t-86 -20.5t-49 48.5q-10 41 22 64l22 2q-2 -5 -9 -17.5t-8 -18.5t0 -24q9 -41 49 -31
q-8 15 -5.5 22t24.5 15l13 -14q-1 -1 0 -2t2 -1q3 3 7.5 7t7 6.5t5.5 8t4 13.5q6 46 -21 56q-11 4 -47.5 -2t-50.5 -18zM514 715h-5q-12 4 -21.5 10.5t-15 12t-14 16.5t-13.5 16l-50 67q12 10 24.5 4.5t19 -14t15 -21.5t13.5 -17q5 -5 8 -6.5t9 -9.5q3 -5 10 -12.5t11.5 -14
t6.5 -13.5q2 7 6.5 13l11 14.5l9.5 12.5q5 7 6.5 8.5t4 2.5t6.5 5q5 4 13.5 17t15 21.5t19 14t24.5 -4.5l-50 -67q-5 -5 -13.5 -16t-14 -16.5t-15 -12t-21.5 -10.5z" />
    <glyph glyph-name="scaron" unicode="&#x161;" horiz-adv-x="268" 
d="M89 30q-3 7 -6.5 13t-8.5 12t-10 4t-9 -13q-6 -17 6 -23.5t28 7.5zM59 186q-29 -39 -44 -71l-17 5q41 69 47 80q-30 33 -19.5 57.5t61.5 48.5q14 -6 18 -10t11 -16q-3 -7 -9 -15t-11 -13.5t-9 -11t-3 -9t8 -6.5q35 -13 53.5 -53t17.5 -81.5t-17 -65.5q20 -9 55.5 18
t66.5 80l17 -5q-16 -52 -56.5 -89.5t-90.5 -32.5q-3 1 -8 1q-50 -16 -56 -16q-38 0 -54 36.5t22 61.5q22 8 30.5 6t33.5 -14q7 36 -3.5 75t-43.5 40zM103 336h-5q-12 4 -21.5 10.5t-15 12t-14 16.5t-13.5 16l-50 67q12 10 24.5 4.5t19 -14t15 -21.5t13.5 -17q4 -4 6.5 -5
t4 -2.5t6.5 -8.5q3 -5 10 -12.5t11.5 -14t6.5 -13.5q2 7 6.5 13l11 14.5l9.5 12.5q6 8 9 10t8 6t13.5 17t15 21.5t19 14t24.5 -4.5l-50 -67q-5 -5 -13.5 -16t-14 -16.5t-15 -12t-21.5 -10.5z" />
    <glyph glyph-name="Ydieresis" unicode="&#x178;" horiz-adv-x="853" 
d="M486 -98q-2 0 -26 2t-38 2.5t-40.5 0.5t-44.5 -3t-39 -8.5t-36 -16t-24 -25.5q-18 -32 5 -62.5t65.5 -35t92.5 25.5q15 10 49 55.5t36 64.5zM231 185q36 1 58.5 36t21.5 75.5t-22 55.5q-13 9 -41.5 9.5t-36.5 2.5q30 28 71.5 24t61.5 -38.5t-2 -102.5q-15 -45 -18 -60
q-1 -5 -2.5 -9.5l-2.5 -7.5t-4 -6t-4 -4.5t-5 -4l-5.5 -3.5t-7.5 -4l-8 -4q-26 -15 -65.5 -22.5t-82.5 -4.5t-78.5 29t-46.5 73q-20 84 20.5 170.5t110.5 142.5q89 70 143 86q91 28 178 -22q46 -27 61.5 -60t10.5 -98q-4 -53 -29.5 -130t-53.5 -130l-10.5 -17.5t-12 -21
t-7.5 -19t-1 -18.5q9 -16 30 -20t41.5 1t35.5 14q49 30 61 83q6 23 17.5 59t15.5 52q2 6 5.5 20t5.5 20l5.5 16t6.5 14.5t8 10.5t11 8t14 3q26 -28 27.5 -98.5t-10.5 -113.5q-4 -19 -8 -56t-7 -52q-4 -24 -16 -56.5t-15 -45.5q42 3 75.5 15t53.5 27.5t33.5 30t21.5 26.5
t11 13q9 -16 -14 -76q-18 -47 -42 -64q-65 -43 -168 -43q-3 -1 -5.5 -2.5t-3.5 -2l-2 -1t-1.5 -1.5t-1.5 -2t-3 -4l-4 -6q-1 -1 -7 -8.5t-10 -11.5q-17 -20 -37 -37q-43 -37 -99.5 -74.5t-87.5 -37.5q-12 0 -18 4t-41 2q-31 -3 -57 15q-59 40 -49 100q10 57 60.5 88
t115.5 37q12 1 70 2.5t75 4.5q17 23 27 81q-2 -1 -25.5 -14t-47 -22.5t-57 -8t-59.5 23.5q-28 23 -33 60.5t12 84.5t30 75t36 68q4 7 41 92q10 25 16.5 51t8 56t-13.5 48.5t-48 18.5h-27q-60 0 -132 -54t-108 -104q-20 -28 -33 -68t-5 -82.5t47 -59.5q36 -14 87 -16z
M489 712q12 8 46 0q2 0 4 -2q21 -7 7 -31q-14 -25 -35 -25q-14 0 -22 17q-13 26 0 41zM576 712q12 8 46 0q2 0 4 -2q21 -7 7 -31q-14 -25 -35 -25q-14 0 -22 17q-13 26 0 41z" />
    <glyph glyph-name="Zcaron" unicode="&#x17d;" horiz-adv-x="873" 
d="M698 528q86 -11 107 35l-33 4q-22 4 -42.5 -9.5t-31.5 -29.5zM170 69q-10 2 -25.5 7.5t-28.5 8.5t-28 3q-30 -9 -34 -36.5t31 -34.5q18 -3 45 15.5t40 36.5zM854 584q6 -6 10 -21t3.5 -34t-14 -39t-39.5 -31q-20 -9 -43 -10t-40 3l-41.5 10t-40.5 8l-107 -150q34 -1 98 7
q-4 -8 -8.5 -13.5t-7.5 -7.5t-11 -5.5t-12 -6.5q-10 -5 -20.5 -15t-21.5 -13q-31 -8 -39.5 -4t-16.5 -1.5t-37 -39.5q-88 -105 -130 -151q25 -27 85 -45.5t121 -25.5q52 -6 122 8.5t79 44.5q-12 7 -33.5 8t-32.5 5q1 11 20 35h9.5t10 -0.5t10 -0.5t10.5 -0.5l9 -1.5
t9.5 -2.5t8.5 -3t8 -4t6.5 -5t5.5 -6.5q7 -15 -1.5 -41.5t-37 -53.5t-71 -46t-113.5 -17.5t-155 31.5q-30 11 -72 33.5t-59 29.5q-13 -7 -39.5 -24.5t-44.5 -26.5q-19 -10 -53 -13.5t-57 2.5q-24 7 -42.5 23t-28 36.5t-1.5 47t36 51.5q17 15 47.5 23.5t53.5 1.5
q14 -4 27 -9.5t17 -8.5t11.5 -3.5t9.5 1l11.5 9t17.5 17t27.5 29t41.5 39.5q54 49 70 72q-67 16 -78 27q7 2 15.5 6.5t17.5 7t21 2.5h21.5h26h21.5l149 179q-29 18 -61.5 30.5t-75.5 17.5t-75 -11q-37 -16 -57.5 -48t-9.5 -61t58 -36q0 23 -7 40q19 -4 23 -7t8 -20
q7 -30 -13 -45t-48 -13t-46 15q-42 31 -47 76.5t20 84.5t76.5 64.5t111.5 20.5q43 -3 105.5 -29.5t93.5 -30.5q14 18 43 36.5t53 22.5q17 3 65.5 -7t63.5 -17zM584 602h-5q-12 4 -21.5 10.5t-15 12t-14 16.5t-13.5 16l-50 67q12 10 24.5 4.5t19 -14t15 -21.5t13.5 -17t8 -6
t9 -10q3 -5 10 -12.5t11.5 -14t6.5 -13.5q2 7 6.5 13l11 14.5l9.5 12.5q5 7 6.5 8.5t4 2.5t6.5 5q5 4 13.5 17t15 21.5t19 14t24.5 -4.5l-50 -67q-5 -5 -13.5 -16t-14 -16.5t-15 -12t-21.5 -10.5z" />
    <glyph glyph-name="zcaron" unicode="&#x17e;" horiz-adv-x="314" 
d="M133 248h-5q-12 4 -21.5 10.5t-15 12t-14 16.5t-13.5 16l-50 67q12 10 24.5 4.5t19 -14t15 -21.5t13.5 -17q4 -4 6.5 -5t4 -2.5t6.5 -8.5q3 -5 10 -12.5t11.5 -14t6.5 -13.5q2 7 6.5 13l11 14.5l9.5 12.5q6 8 9 10t8 6t13.5 17t15 21.5t19 14t24.5 -4.5l-50 -67
q-5 -5 -13.5 -16t-14 -16.5t-15 -12t-21.5 -10.5zM127 94h71l-10 -66q17 -16 55 11t71 84l17 -5q-16 -52 -56 -89t-91 -33l-10 2q-9 -46 -48 -108q-11 -17 -39.5 -44t-42.5 -34q-11 -5 -68 -15q-57 -8 -69 46.5t26 100.5q19 24 48.5 36t54 15t47 14t30.5 33q0 1 2 9h-47
q0 1 -4.5 5.5t-10.5 9.5t-7 6q3 6 20 29q53 72 43 89q-5 8 -19 8q-24 0 -45 -28.5t-32 -54.5l-16 6q0 1 19.5 34.5t39 51t44.5 16.5q31 3 55 -12.5t19 -46.5q-6 -40 -47 -70zM-46 -158q64 -7 91 37q33 54 41 93q-2 0 -19.5 -2t-23 -2.5t-20.5 -3t-22.5 -5.5t-16.5 -8
t-15 -11q-44 -48 -15 -98z" />
    <glyph glyph-name="circumflex" unicode="&#x2c6;" horiz-adv-x="253" 
d="M124 649h5q12 -4 21.5 -10.5t15 -12t14 -16.5t13.5 -16l50 -67q-12 -10 -24.5 -4.5t-19 14t-15 21.5t-13.5 17q-5 5 -8 6.5t-9 9.5l-9.5 12.5l-11 14.5t-6.5 13q-2 -7 -6.5 -13.5t-11.5 -14t-10 -12.5q-5 -7 -6.5 -8.5t-4 -2.5t-6.5 -5q-5 -4 -13.5 -17t-15 -21.5
t-19 -14t-24.5 4.5l50 67q5 5 13.5 16t14 16.5t15 12t21.5 10.5z" />
    <glyph glyph-name="caron" unicode="&#x2c7;" horiz-adv-x="253" 
d="M129 503h-5q-12 4 -21.5 10.5t-15 12t-14 16.5t-13.5 16l-50 67q12 10 24.5 4.5t19 -14t15 -21.5t13.5 -17q4 -4 6.5 -5t4 -2.5t6.5 -8.5q3 -5 10 -12.5t11.5 -14t6.5 -13.5q2 7 6.5 13l11 14.5l9.5 12.5q6 8 9 9.5t8 6.5q5 4 13.5 17t15 21.5t19 14t24.5 -4.5l-50 -67
q-5 -5 -13.5 -16t-14 -16.5t-15 -12t-21.5 -10.5z" />
    <glyph glyph-name="breve" unicode="&#x2d8;" horiz-adv-x="155" 
d="M135 573l10 1q-5 -20 -10 -26q-12 -19 -19 -28t-23.5 -20.5t-34.5 -11.5q-13 0 -26 9.5t-18 21.5q-3 8 -4 14t1 12.5t3 8.5t6 10t6 10v1l1 1l33 -1q-7 -11 -11.5 -23t-3 -26.5t15.5 -19.5q22 -8 42.5 14.5t31.5 52.5z" />
    <glyph glyph-name="ring" unicode="&#x2da;" horiz-adv-x="161" 
d="M118 622l7 3.5t5.5 1t4.5 -1t3 -1.5l2 -2h1q0 -1 1 -1l1 -1q5 -2 5 -3q6 -7 0 -33t-13 -36q-12 -19 -19 -28t-23.5 -20.5t-34.5 -11.5q-13 0 -26 9.5t-18 21.5q-3 8 -4 14t1 12.5t3 8.5t6 10t6 10q18 30 34 41q40 27 59 21l-55 -55q-5 -5 -12 -19t-7 -32t16 -24
q25 -9 49 23t30 62q3 9 0.5 14.5t-4.5 7t-8.5 4.5t-9.5 5z" />
    <glyph glyph-name="ogonek" unicode="&#x2db;" horiz-adv-x="141" 
d="M30 11l39 -6l5 -7q23 -30 30 -51l-18 -33q-5 2 -8.5 5t-12.5 6q-5 1 -11 4l-10 5l-5 -11q-3 -17 2 -35q11 -36 47 -54q7 -3 12 -4.5t8 -1.5t9.5 1t11.5 1l2 -20q-22 -8 -37 -5q-5 1 -13 3t-10.5 3l-7.5 3t-8 4t-7 6t-9 10l-9 8q-8 9 -10 14q-6 13 -9 30t2 35t21 24
q6 2 11.5 2.5t7.5 0t7.5 -3t7.5 -3.5q-2 6 -15 26l-10 19q-12 25 -13 25z" />
    <glyph glyph-name="tilde" unicode="&#x2dc;" horiz-adv-x="236" 
d="M10 514q1 4 2.5 5.5l2.5 2.5t5.5 4.5t10.5 9.5q28 28 50 35.5t33.5 1.5l28.5 -15t30 -9q10 -1 28 11.5t24 12.5q1 -7 -8 -18t-29 -18t-53 6t-52 -1l-5 -4l-8.5 -8.5l-9.5 -9.5t-7.5 -8.5t-1.5 -4.5l-1 -1q-5 -3 -11 -3t-9.5 1.5t-10 5t-9.5 4.5z" />
    <glyph glyph-name="hungarumlaut" unicode="&#x2dd;" horiz-adv-x="314" 
d="M124 641l23 -20q-12 -15 -27 -30l-23 -23.5l-23 -23.5t-19.5 -17.5t-21.5 -14.5l-23 25q44 38 114 104zM281 641l23 -20q-12 -15 -27 -30l-23 -23.5l-23 -23.5t-19.5 -17.5t-21.5 -14.5l-23 25q44 38 114 104z" />
    <glyph glyph-name="quoteleft" unicode="&#x2018;" horiz-adv-x="98" 
d="M86 534q-3 -6 -5.5 -10t-5.5 -8l-6 -8l-38 1q-37 44 -5 77q2 2 3 2t3 1l1 1q0 2 3 2q12 7 19 13.5t11.5 8t21.5 4.5q-4 -10 -8 -13.5t-10 -6.5t-12 -9q3 -16 13 -23.5t15 -31.5z" />
    <glyph glyph-name="quoteright" unicode="&#x2019;" horiz-adv-x="98" 
d="M12 592q3 6 5.5 10t5.5 8l6 8l38 -1q37 -44 5 -77q-2 -2 -3 -2t-3 -1l-1 -1q0 -2 -3 -2q-12 -7 -19 -13.5t-11.5 -8t-21.5 -4.5q4 10 8 13.5t10 6.5t12 9q-3 16 -13 23.5t-15 31.5z" />
    <glyph glyph-name="quotesinglbase" unicode="&#x201a;" horiz-adv-x="98" 
d="M12 22q3 6 5.5 10t5.5 8l6 8l38 -1q37 -44 5 -77q-2 -2 -3 -2t-3 -1l-1 -1q0 -2 -3 -2q-12 -7 -19 -13.5t-11.5 -8t-21.5 -4.5q4 10 8 13.5t10 6.5t12 9q-3 16 -13 23.5t-15 31.5z" />
    <glyph glyph-name="quotedblleft" unicode="&#x201c;" horiz-adv-x="188" 
d="M86 534q-3 -6 -5.5 -10t-5.5 -8l-6 -8l-38 1q-37 44 -5 77q2 2 3 2t3 1l1 1q0 2 3 2q12 7 19 13.5t11.5 8t21.5 4.5q-4 -10 -8 -13.5t-10 -6.5t-12 -9q3 -16 13 -23.5t15 -31.5zM176 534q-3 -6 -5.5 -10t-5.5 -8l-6 -8l-38 1q-37 44 -5 77q2 2 3 2t3 1l1 1q0 2 3 2
q12 7 19 13.5t11.5 8t21.5 4.5q-4 -10 -8 -13.5t-10 -6.5t-12 -9q3 -16 13 -23.5t15 -31.5z" />
    <glyph glyph-name="quotedblright" unicode="&#x201d;" horiz-adv-x="194" 
d="M12 592q3 6 5.5 10t5.5 8l6 8l38 -1q37 -44 5 -77q-2 -2 -3 -2t-3 -1l-1 -1q0 -2 -3 -2q-12 -7 -19 -13.5t-11.5 -8t-21.5 -4.5q4 10 8 13.5t10 6.5t12 9q-3 16 -13 23.5t-15 31.5zM108 592q3 6 5.5 10t5.5 8l6 8l38 -1q37 -44 5 -77q-2 -2 -3 -2t-3 -1l-1 -1q0 -2 -3 -2
q-12 -7 -19 -13.5t-11.5 -8t-21.5 -4.5q4 10 8 13.5t10 6.5t12 9q-3 16 -13 23.5t-15 31.5z" />
    <glyph glyph-name="quotedblbase" unicode="&#x201e;" horiz-adv-x="185" 
d="M12 22q3 6 5.5 10t5.5 8l6 8l38 -1q37 -44 5 -77q-2 -2 -3 -2t-3 -1l-1 -1q0 -2 -3 -2q-12 -7 -19 -13.5t-11.5 -8t-21.5 -4.5q4 10 8 13.5t10 6.5t12 9q-3 16 -13 23.5t-15 31.5zM99 22q3 6 5.5 10t5.5 8l6 8l38 -1q37 -44 5 -77q-2 -2 -3 -2t-2 -1l-2 -1q0 -2 -3 -2
q-12 -7 -19 -13.5t-11.5 -8t-21.5 -4.5q4 10 8 13.5t10 6.5t12 9q-3 16 -13 23.5t-15 31.5z" />
    <glyph glyph-name="dagger" unicode="&#x2020;" horiz-adv-x="283" 
d="M10 238l3 52q25 0 83 2q6 131 16 229q4 45 3 51.5t-9 35.5q38 12 84 -48q-7 -30 -7.5 -34t3.5 -40q3 -36 -12 -191l96 6l3 -56q-36 -12 -105 -12q-3 -46 0 -64q6 -32 9 -100.5t4 -80.5q3 -32 -8 -80t-12 -62h-2q-37 -1 -45 7q-10 10 -16 78v4q-1 6 -1 9q-4 32 -2 117
t0 114q-1 15 -1 60h-17q-4 0 -67 3z" />
    <glyph glyph-name="daggerdbl" unicode="&#x2021;" horiz-adv-x="283" 
d="M10 332l3 52q25 0 89 2q4 72 10 135q4 45 3 51.5t-9 35.5q38 12 84 -48q-7 -30 -7.5 -34t3.5 -40q3 -29 -4 -96q41 1 88 5l3 -56q-37 -12 -96 -12q-14 -133 -9 -158q5 -30 9 -93l93 6l3 -56q-36 -12 -94 -12q0 -8 2 -26q3 -32 -8 -80t-12 -62h-2q-37 -1 -45 7
q-10 10 -16 78v4q-1 6 -1 9q-3 34 -3 72h-17q-4 0 -67 3l3 52q24 0 82 2q2 72 0 102q-2 39 3 154h-21q-4 0 -67 3z" />
    <glyph glyph-name="ellipsis" unicode="&#x2026;" horiz-adv-x="267" 
d="M17 59q12 8 46 0q2 0 4 -2q21 -7 7 -31q-14 -25 -35 -25q-14 0 -22 17q-13 26 0 41zM106 59q12 8 46 0q2 0 4 -2q21 -7 7 -31q-14 -25 -35 -25q-14 0 -22 17q-13 26 0 41zM195 59q12 8 46 0q2 0 4 -2q21 -7 7 -31q-14 -25 -35 -25q-14 0 -22 17q-13 26 0 41z" />
    <glyph glyph-name="fraction" unicode="&#x2044;" horiz-adv-x="545" 
d="M535 582q-2 -37 -69 -135.5t-117 -158.5q-6 -8 -14.5 -21t-13.5 -20l-31.5 -44t-24.5 -33l-45 -57q-2 -2 -3 -2l-50 -52q-19 -20 -36 -33q-19 -16 -36 -33q-1 -1 -10.5 -14.5t-17 -20t-21 -7t-27.5 13.5q-4 4 -9 14q9 14 14.5 17.5t9.5 2t17.5 9.5t34.5 37l33 36
q25 29 81 108.5t68 95.5l61 77l29.5 35t35.5 44q60 77 95 111l21 18q4 3 8 7q3 3 5 3q5 0 12 2z" />
    <glyph glyph-name="a_ss001" unicode="&#xe000;" 
d="M155 33q-7 -3 -19 -13q-32 -23 -63.5 -27t-52 10.5t-31 38.5t-1.5 58t38 68q47 53 118 95q21 12 32 17t26 7.5t25.5 -7.5t19.5 -31l7 -18q1 -2 2 -2q4 0 14 -8l-7 -17q-8 3 -19.5 9.5t-17 9t-15 0t-19.5 -12.5q-44 -44 -84.5 -99t-43.5 -94q37 4 59 22q8 6 12.5 10t6.5 9
t3 8t2 11.5t2 13.5q5 28 25.5 55.5t44.5 32.5q9 -13 11 -26t0.5 -21t-7.5 -23.5t-8 -23.5q-18 -57 12 -62q32 -5 78 47q18 19 33 44q21 36 69.5 58.5t94 13.5t55.5 -54q1 -7 2 -9t5 -4.5l7 -4.5q14 -11 47 -44q90 -88 177 -55q8 3 21 11q6 4 13 17q5 7 10 20.5t10 20.5
q11 14 31.5 12t33.5 -15q9 -9 13 -19l-24 18q-41 16 -51 -11q-1 -3 -4 -13t-5.5 -17.5t-6.5 -15t-8 -9.5q-3 -2 -8.5 -8t-12.5 -10q-36 -19 -56 -23q-29 -5 -65 10q-19 8 -37 24.5t-37.5 40t-26.5 30.5l-21 17q-2 -3 -4.5 -17.5t-11 -26t-28.5 -14.5q-5 0 -8.5 -2t-8.5 -2
q-24 1 -33 28q-12 34 18 55q18 13 47 16q-15 29 -83 23.5t-93 -39.5q-16 -51 -55.5 -87.5t-89.5 -32.5q-12 1 -20 3t-16.5 10t-10 9.5t-12.5 14.5zM545 106q-23 1 -41 -12q-7 -6 -7.5 -19.5t4.5 -20.5q6 -5 18 -0.5t16 10.5q8 9 10 42z" />
    <glyph glyph-name="b_ss001" unicode="&#xe001;" horiz-adv-x="304" 
d="M145 252q43 20 64.5 9.5t22.5 -62.5q1 -43 -7 -69.5t-29 -61.5q-10 -16 -24 -32q11 -28 52 -3q43 27 80 90h1q25 34 71.5 53t89.5 9t52 -53q1 -7 2 -9t5 -4.5l7 -4.5q14 -11 47 -44q90 -88 177 -55q8 3 21 11q6 4 13 17q5 7 10 20.5t10 20.5q11 14 31.5 12t33.5 -15
q9 -9 13 -19l-8 8q-9 7 -16 10q-41 16 -51 -11q-1 -3 -4 -13t-5.5 -17.5t-6.5 -15t-8 -9.5q-3 -2 -8.5 -8t-12.5 -10q-36 -19 -56 -23q-29 -5 -65 10q-19 8 -37 24.5t-37.5 40t-26.5 30.5l-21 17q-2 -3 -4.5 -17.5t-11 -26t-28.5 -14.5q-5 0 -8.5 -2t-8.5 -2q-24 1 -33 28
q-12 34 18 55q18 13 47 16q-15 29 -83 23.5t-93 -39.5q-17 -51 -56.5 -87.5t-89.5 -32.5q-23 3 -34 10q-22 -14 -33 -19q-32 -13 -66.5 1t-45.5 39q-23 54 4 132.5t76.5 144t102.5 108.5q11 9 18.5 16.5t9.5 10.5t5 5t7 3q14 -20 13 -37.5t-13.5 -40.5t-27 -41t-28.5 -39.5
t-17 -36.5zM155 141q-14 3 -20 10.5t-10.5 20.5t-10.5 20q-30 -58 -48 -124q-21 -77 17 -69q10 2 26 12q39 25 74 88.5t10 110.5q-21 -5 -31 -23q-5 -9 -6 -15t0 -12t-1 -19zM506 106q-23 1 -41 -12q-7 -6 -7.5 -19.5t4.5 -20.5q6 -5 18 -0.5t16 10.5q8 9 10 42z" />
    <glyph glyph-name="c_ss001" unicode="&#xe002;" horiz-adv-x="245" 
d="M74 32q33 -36 85 -2.5t81 84.5q0 1 1 2q0 1 1.5 3t2.5 4h1q25 34 71.5 53t89.5 9t52 -53q1 -7 2 -9t5 -4.5l7 -4.5q14 -11 47 -44q90 -88 177 -55q8 3 21 11q6 4 13 17q5 7 10 20.5t10 20.5q11 14 31.5 12t33.5 -15q9 -9 13 -19l-24 18q-41 16 -51 -11q-1 -3 -4 -13
t-5.5 -17.5t-6.5 -15t-8 -9.5q-3 -2 -8.5 -8t-12.5 -10q-36 -19 -56 -23q-29 -5 -65 10q-19 8 -37 24.5t-37.5 40t-26.5 30.5l-21 17q-2 -3 -4.5 -17.5t-11 -26t-28.5 -14.5q-5 0 -8.5 -2t-8.5 -2q-24 1 -33 28q-12 34 18 55q18 13 47 16q-15 30 -86 23.5t-92 -43.5
q-25 -69 -78 -99t-118 -13q-38 10 -61 42t-16 71q13 70 87 119q62 41 104 32q47 -9 18 -77q-8 -18 -21 -40q-18 -2 -23 -1t-15 10q5 9 16.5 11.5t19 11.5t7.5 36q-41 2 -90 -75q-23 -35 -26 -66t11 -42zM447 106q-23 1 -41 -12q-7 -6 -7.5 -19.5t4.5 -20.5q6 -5 18 -0.5
t16 10.5q8 9 10 42z" />
    <glyph glyph-name="d_ss001" unicode="&#xe003;" horiz-adv-x="328" 
d="M198 -4q-18 2 -26 3.5t-21 6.5t-17 17t-1 31q-22 -21 -54 -24t-56 11.5t-35 43t8 70.5q11 25 48 57t75.5 48.5t64.5 -0.5q49 89 61 104q6 7 13.5 17l11.5 15.5t10 13t9.5 10l10 7.5t10.5 4.5t11.5 1.5t13.5 -1q0 -9 -7 -26t-17 -38t-13 -30l-6 -18l-13 -33.5l-15.5 -42
t-16.5 -48.5l-15.5 -48.5t-14 -47t-9.5 -38t-3.5 -28t5.5 -11.5q21 -5 55 22.5t63 77.5h1q25 34 71.5 53t89.5 9t52 -53q1 -7 2 -9t5 -4.5l7 -4.5q14 -11 47 -44q90 -88 177 -55q8 3 21 11q6 4 13 17q5 7 10 20.5t10 20.5q11 14 31.5 12t33.5 -15q9 -9 13 -19l-24 18
q-41 16 -51 -11q-1 -3 -4 -13t-5.5 -17.5t-6.5 -15t-8 -9.5q-3 -2 -8.5 -8t-12.5 -10q-36 -19 -56 -23q-29 -5 -65 10q-19 8 -37 24.5t-37.5 40t-26.5 30.5l-21 17q-2 -3 -4.5 -17.5t-11 -26t-28.5 -14.5q-5 0 -8.5 -2t-8.5 -2q-24 1 -33 28q-12 34 18 55q18 13 47 16
q-15 29 -83 23.5t-93 -39.5q-16 -51 -56 -87.5t-90 -32.5zM142 115q4 18 14.5 57t14.5 58q-25 -7 -70.5 -68t-34.5 -100q27 -14 49.5 9.5t26.5 43.5zM530 106q-23 1 -41 -12q-7 -6 -7.5 -19.5t4.5 -20.5q6 -5 18 -0.5t16 10.5q8 9 10 42z" />
    <glyph glyph-name="e_ss001" unicode="&#xe004;" horiz-adv-x="244" 
d="M74 32q34 -38 90 1t80 90l1 -1q25 34 72 53.5t90 9.5t52 -53q1 -7 2 -9t5 -4.5l7 -4.5q14 -11 47 -44q90 -88 177 -55q8 3 21 11q6 4 13 17q5 7 10 20.5t10 20.5q11 14 31.5 12t33.5 -15q9 -9 13 -19l-24 18q-41 16 -51 -11q-1 -3 -4 -13t-5.5 -17.5t-6.5 -15t-8 -9.5
q-3 -2 -8.5 -8t-12.5 -10q-36 -19 -56 -23q-29 -5 -65 10q-19 8 -37 24.5t-37.5 40t-26.5 30.5l-21 17q-2 -3 -4.5 -17.5t-11 -26t-28.5 -14.5q-5 0 -8.5 -2t-8.5 -2q-24 1 -33 28q-12 34 18 55q18 13 47 16q-15 30 -86 23.5t-92 -43.5q-25 -69 -78.5 -99t-117.5 -13
q-39 10 -61.5 42t-15.5 71q11 61 71 106.5t109 46.5q33 1 44.5 -27t-11.5 -60l-21.5 -30t-25.5 -33.5t-24.5 -26t-31 -23t-33.5 -8.5q1 -16 11 -26zM64 84q28 0 71 53.5t43 77.5q-39 2 -90 -75q-20 -32 -24 -56zM447 106q-23 1 -41 -12q-7 -6 -7.5 -19.5t4.5 -20.5
q6 -5 18 -0.5t16 10.5q8 9 10 42z" />
    <glyph glyph-name="f_ss001" unicode="&#xe005;" horiz-adv-x="270" 
d="M285 111h-1q-17 -49 -55.5 -84t-85.5 -31q0 -3 -0.5 -12t-1.5 -17q-2 -11 -7 -28.5t-6 -22.5q-6 -34 -17 -63t-35.5 -50.5t-56.5 -12.5q-35 10 -43.5 23t-10.5 54q-2 48 15 106q11 40 10 46t-7.5 16.5t-6.5 29.5q0 31 32 45q6 2 15 6q16 6 22 13.5t30 56.5q6 12 10 19
q25 49 88 131.5t95 83.5l12 1q-2 -2 2 -5q7 -9 -11.5 -46.5t-45 -82t-30.5 -54.5q-32 -77 -42 -97q-3 -5 -9 -17l-8 -16t-4.5 -13t-1.5 -14t4 -13t10 -16l-1 -19q17 -15 55.5 11.5t71.5 83.5l2 -1q25 34 72 53.5t90 9.5t52 -53q1 -7 2 -9t5 -4.5l7 -4.5q14 -11 47 -44
q90 -88 177 -55q8 3 21 11q6 4 13 17q5 7 10 20.5t10 20.5q11 14 31.5 12t33.5 -15q9 -9 13 -19l-24 18q-41 16 -51 -11q-1 -3 -4 -13t-5.5 -17.5t-6.5 -15t-8 -9.5q-3 -2 -8.5 -8t-12.5 -10q-36 -19 -56 -23q-29 -5 -65 10q-19 8 -37 24.5t-37.5 40t-26.5 30.5l-21 17
q-2 -3 -4.5 -17.5t-11 -26t-28.5 -14.5q-5 0 -8.5 -2t-8.5 -2q-24 1 -33 28q-12 34 18 55q18 13 47 16q-10 19 -48 23.5t-78 -8t-53 -36.5zM119 1q-32 -4 -38.5 -12t-24.5 -65l-4 -12t-4 -12.5t-4 -12t-4 -13t-2.5 -12.5t-2 -13.5t-1 -12.5t0 -13.5t1.5 -13.5q62 13 83 192z
M474 106q-23 1 -41 -12q-7 -6 -7.5 -19.5t4.5 -20.5q6 -5 18 -0.5t16 10.5q8 9 10 42zM98 24q10 1 13 2.5t3.5 2.5t-0.5 7t-1 11q-11 -10 -15 -23z" />
    <glyph glyph-name="g_ss001" unicode="&#xe006;" horiz-adv-x="347" 
d="M207 -2q-8 -43 -48 -109q-11 -16 -40 -43t-42 -34q-11 -5 -68 -15q-57 -8 -69 46t26 100q20 26 54.5 39t61.5 15.5t47.5 20t21.5 55.5q-6 -4 -20.5 -20t-32.5 -23q-35 -14 -79 7q-24 11 -33.5 32t-3.5 46.5t23 51.5t48.5 49.5t71.5 37.5q50 18 85 4q39 -16 -1 -60l-5 8
q-6 8 -7 13q0 1 -2 1q-3 -1 -9 -1q-20 0 -72.5 -55.5t-57.5 -90.5q-3 -26 15 -24q25 2 57 41q2 2 3 4q18 24 25.5 36.5t8.5 16.5t-0.5 13t-1.5 17l80 4l-22 -153q17 -16 55 11t71 84l1 -1q25 34 72 53.5t90 9.5t52 -53q1 -7 2 -9t5 -4.5l7 -4.5q14 -11 47 -44
q90 -88 177 -55q8 3 21 11q6 4 13 17q5 7 10 20.5t10 20.5q11 14 31.5 12t33.5 -15q9 -9 13 -19l-8 8q-9 7 -16 10q-41 16 -51 -11q-1 -3 -4 -13t-5.5 -17.5t-6.5 -15t-8 -9.5q-3 -2 -8.5 -8t-12.5 -10q-36 -19 -56 -23q-29 -5 -65 10q-19 8 -37 24.5t-37.5 40t-26.5 30.5
l-21 17q-2 -3 -4.5 -17.5t-11 -26t-28.5 -14.5q-5 0 -8.5 -2t-8.5 -2q-24 1 -33 28q-12 34 18 55q18 13 47 16q-15 30 -85 23.5t-93 -42.5q-17 -51 -56 -86.5t-89 -30.5q-4 0 -10 2zM-13 -159q63 -7 91 38q33 55 41 92q-4 0 -19.5 -1.5t-23 -2.5t-21 -3.5t-21.5 -5t-17 -8
t-15 -11.5q-22 -24 -26 -44.5t11 -53.5zM550 106q-23 1 -41 -12q-7 -6 -7.5 -19.5t4.5 -20.5q6 -5 18 -0.5t16 10.5q8 9 10 42z" />
    <glyph glyph-name="h_ss001" unicode="&#xe007;" horiz-adv-x="326" 
d="M196 -4q-51 5 -60 29q-10 24 -4 50t15 41l22.5 36.5t18.5 36.5q-23 -7 -74.5 -58t-77.5 -84l-40 -61q-9 7 -22.5 22t-18.5 20q11 29 16 44t13 33l10.5 23.5t12.5 21.5t13.5 21l19.5 28l26 37q15 21 46.5 76t44.5 73q18 24 23.5 36t8.5 16q16 3 37 -4q3 -9 3.5 -16.5
t-1.5 -14.5t-4 -11t-7.5 -13t-7.5 -13q-16 -29 -32 -64q-7 -16 -31.5 -62.5t-31.5 -68.5q6 4 20.5 15t23.5 17t25.5 14.5t27 8t27.5 -3.5q3 -3 -1.5 -24.5t-12 -50.5t-13.5 -57.5t-5.5 -48t11.5 -18.5q21 2 51.5 29t57.5 72h1q25 34 71.5 53t89.5 9t52 -53q1 -7 2 -9t5 -4.5
l7 -4.5q14 -11 47 -44q90 -88 177 -55q8 3 21 11q6 4 13 17q5 7 10 20.5t10 20.5q11 14 31.5 12t33.5 -15q9 -9 13 -19l-8 8q-9 7 -16 10q-41 16 -51 -11q-1 -3 -4 -13t-5.5 -17.5t-6.5 -15t-8 -9.5q-3 -2 -8.5 -8t-12.5 -10q-36 -19 -56 -23q-29 -5 -65 10q-19 8 -37 24.5
t-37.5 40t-26.5 30.5l-21 17q-2 -3 -4.5 -17.5t-11 -26t-28.5 -14.5q-5 0 -8.5 -2t-8.5 -2q-24 1 -33 28q-12 34 18 55q18 13 47 16q-15 30 -85 23.5t-93 -42.5q-17 -51 -56 -86.5t-88 -30.5zM528 106q-23 1 -41 -12q-7 -6 -7.5 -19.5t4.5 -20.5q6 -5 18 -0.5t16 10.5
q8 9 10 42z" />
    <glyph glyph-name="i_ss001" unicode="&#xe008;" horiz-adv-x="156" 
d="M49 219q2 3 3.5 5.5t2 3.5t2.5 1.5t7 2.5q34 -21 33 -37q-1 -4 -35 -100q-27 -74 -14 -72q22 2 52 29t56 71h1q25 34 71.5 53t89.5 9t52 -53q1 -7 2 -9t5 -4.5l7 -4.5q14 -11 47 -44q90 -88 177 -55q8 3 21 11q6 4 13 17q5 7 10 20.5t10 20.5q11 14 31.5 12t33.5 -15
q9 -9 13 -19l-24 18q-41 16 -51 -11q-1 -3 -4 -13t-5.5 -17.5t-6.5 -15t-8 -9.5q-3 -2 -8.5 -8t-12.5 -10q-36 -19 -56 -23q-29 -5 -65 10q-19 8 -37 24.5t-37.5 40t-26.5 30.5l-21 17q-2 -3 -4.5 -17.5t-11 -26t-28.5 -14.5q-5 0 -8.5 -2t-8.5 -2q-24 1 -33 28
q-12 34 18 55q18 13 47 16q-15 29 -83.5 24t-92.5 -40q-16 -46 -49.5 -81t-76.5 -39q-3 0 -10 -0.5t-10 -0.5q-27 -1 -42 15.5t-9 54.5q10 61 48 116zM77 314l61 -6l-13 -56q-47 -5 -57 4q-10 10 -2 33q1 1 5 11.5t6 13.5zM358 106q-23 1 -41 -12q-7 -6 -7.5 -19.5
t4.5 -20.5q6 -5 18 -0.5t16 10.5q8 9 10 42z" />
    <glyph glyph-name="j_ss001" unicode="&#xe009;" horiz-adv-x="163" 
d="M29 -2q-8 -43 -48 -109q-10 -16 -39 -43t-43 -34q-11 -5 -68 -15q-56 -8 -68.5 46t25.5 100q23 30 64 41l73.5 20.5t42.5 37.5q3 7 16.5 74t12.5 68q0 3 -1.5 11.5t-0.5 17.5l79 4l-31 -189q17 -16 55.5 11t70.5 84l1 -1q25 34 72 53.5t90 9.5t52 -53q1 -7 2 -9t5 -4.5
l7 -4.5q14 -11 47 -44q90 -88 177 -55q8 3 21 11q6 4 13 17q5 7 10 20.5t10 20.5q11 14 31.5 12t33.5 -15q9 -9 13 -19q-3 2 -7 6t-8 7t-9 5q-41 16 -51 -11q-1 -3 -4 -13t-5.5 -17.5t-6.5 -15t-8 -9.5q-3 -2 -8.5 -8t-12.5 -10q-36 -19 -56 -23q-29 -5 -65 10
q-19 8 -37 24.5t-37.5 40t-26.5 30.5l-21 17q-2 -3 -4.5 -17.5t-11 -26t-28.5 -14.5q-5 0 -8.5 -2t-8.5 -2q-24 1 -33 28q-12 34 18 55q18 13 47 16q-15 30 -85 23.5t-93 -42.5q-17 -51 -56 -86.5t-88 -30.5q-5 0 -11 2zM-191 -159q65 -7 92 38q31 52 40 92q-1 0 -23 -2
t-28.5 -3.5t-23 -4.5t-26 -8.5t-16.5 -13.5q-22 -24 -26 -45t11 -53zM24 314l61 -6l-13 -56q-47 -5 -57 4q-10 10 -2 33q3 11 11 25zM372 106q-23 1 -41 -12q-7 -6 -7.5 -19.5t4.5 -20.5q6 -5 18 -0.5t16 10.5q8 9 10 42z" />
    <glyph glyph-name="k_ss001" unicode="&#xe00a;" horiz-adv-x="322" 
d="M126 215q2 1 9 5.5t8 5t7.5 4t8 3.5t9 3t10.5 1.5t12 0.5t15 0q48 -3 73 -34q-10 -34 -52.5 -56.5t-94.5 -24.5q8 -66 73 -100q21 -6 55 21.5t63 78.5h1q25 34 71.5 53t89.5 9t52 -53q1 -7 2 -9t5 -4.5l7 -4.5q14 -11 47 -44q90 -88 177 -55q8 3 21 11q6 4 13 17
q5 7 10 20.5t10 20.5q11 14 31.5 12t33.5 -15q9 -9 13 -19l-24 18q-41 16 -51 -11q-1 -3 -4 -13t-5.5 -17.5t-6.5 -15t-8 -9.5q-3 -2 -8.5 -8t-12.5 -10q-36 -19 -56 -23q-29 -5 -65 10q-19 8 -37 24.5t-37.5 40t-26.5 30.5l-21 17q-2 -3 -4.5 -17.5t-11 -26t-28.5 -14.5
q-5 0 -8.5 -2t-8.5 -2q-24 1 -33 28q-12 34 18 55q18 13 47 16q-15 29 -83 23.5t-93 -39.5q-14 -43 -45 -77t-71 -42q-57 -11 -96.5 12t-43 63t25.5 86q13 2 36 3.5t31.5 3t22.5 6t23 13.5t18 25l-2 1q-2 1 -2 2l-2 1l-1 1l-42 5q-21 -4 -53.5 -29.5t-47.5 -45.5
q-8 -10 -14 -18.5t-11.5 -18t-8 -13.5t-7.5 -15t-6 -13.5t-7.5 -17.5t-7.5 -18q-5 -13 -12.5 -22t-11.5 -20q-19 11 -39 27q-1 16 1 33.5t9 38l13 37t20.5 41.5t21.5 38.5t25 40.5l24 36l25.5 37l21.5 31l74 91q3 -1 5.5 -2l5 -2t3.5 -2t3 -2.5t2.5 -2t2 -3t2 -3.5t2 -4.5
t2.5 -5.5q-8 -16 -50 -89.5t-51 -107.5zM524 106q-23 1 -41 -12q-7 -6 -7.5 -19.5t4.5 -20.5q6 -5 18 -0.5t16 10.5q8 9 10 42z" />
    <glyph glyph-name="l_ss001" unicode="&#xe00b;" horiz-adv-x="207" 
d="M94 -4q-64 -5 -92 25t-13 95l91 186q1 1 8.5 15t9.5 17.5l10 17l11.5 19l11 17t13 17t13 14.5t14 14t14.5 9.5t16 7.5q16 5 31.5 -10.5t17.5 -32.5q3 -34 -16 -73.5t-45 -69.5t-52.5 -64t-33.5 -54q-1 -4 -8 -21t-12.5 -32.5t-9 -32.5t2 -27.5t19.5 -10.5q22 0 53.5 27.5
t58.5 73.5l1 -1q25 34 72 53.5t90 9.5t52 -53q1 -7 2 -9t5 -4.5l7 -4.5q14 -11 47 -44q90 -88 177 -55q8 3 21 11q6 4 13 17q5 7 10 20.5t10 20.5q11 14 31.5 12t33.5 -15q9 -9 13 -19l-24 18q-41 16 -51 -11q-1 -3 -4 -13t-5.5 -17.5t-6.5 -15t-8 -9.5q-3 -2 -8.5 -8
t-12.5 -10q-36 -19 -56 -23q-29 -5 -65 10q-19 8 -37 24.5t-37.5 40t-26.5 30.5l-21 17q-2 -3 -4.5 -17.5t-11 -26t-28.5 -14.5q-5 0 -8.5 -2t-8.5 -2q-24 1 -33 28q-12 34 18 55q18 13 47 16q-15 30 -85 23.5t-93 -42.5q-16 -46 -50 -80t-78 -37zM133 233q31 18 69 90
t23 87q-8 8 -30.5 -34t-41 -87.5t-20.5 -55.5zM410 106q-23 1 -41 -12q-7 -6 -7.5 -19.5t4.5 -20.5q6 -5 18 -0.5t16 10.5q8 9 10 42z" />
    <glyph glyph-name="m_ss001" unicode="&#xe00c;" horiz-adv-x="426" 
d="M214 218l-33 -100q17 7 40.5 26.5t39 33.5t39.5 22t43 -7q1 -15 -25 -95q-22 -75 -2 -76q22 1 53 28t57 73l1 -1q25 34 72 53.5t90 9.5t52 -53q1 -7 2 -9t5 -4.5l7 -4.5q14 -11 47 -44q90 -88 177 -55q8 3 21 11q6 4 13 17q5 7 10 20.5t10 20.5q11 14 31.5 12t33.5 -15
q9 -9 13 -19q-3 2 -7 6t-8 7t-9 5q-41 16 -51 -11q-1 -3 -4 -13t-5.5 -17.5t-6.5 -15t-8 -9.5q-3 -2 -8.5 -8t-12.5 -10q-36 -19 -56 -23q-29 -5 -65 10q-19 8 -37 24.5t-37.5 40t-26.5 30.5l-21 17q-2 -3 -4.5 -17.5t-11 -26t-28.5 -14.5q-5 0 -8.5 -2t-8.5 -2
q-24 1 -33 28q-12 34 18 55q18 13 47 16q-15 30 -85 23.5t-93 -42.5q-13 -38 -39.5 -69.5t-60.5 -42.5q-23 -11 -66 -4t-50 34q-11 43 19 96q-46 -32 -73 -75.5t-47 -58.5q-31 15 -36.5 39t5 45t29 52t23.5 47q-23 -15 -128 -175q-42 21 -45.5 52t15 58t49.5 68t42 65
q6 12 2 14l1 1q4 2 9 5q23 4 44 -23q-1 -15 -9.5 -22t-10.5 -25q11 6 24.5 15.5t21 14t21.5 4t33 -9.5zM629 106q-23 1 -41 -12q-7 -6 -7.5 -19.5t4.5 -20.5q6 -5 18 -0.5t16 10.5q8 9 10 42z" />
    <glyph glyph-name="n_ss001" unicode="&#xe00d;" horiz-adv-x="300" 
d="M18 -7q-5 4 -16 11t-14.5 10t-6.5 11.5t-2 21.5q5 47 35.5 100.5t67.5 95.5q2 -2 8 -6.5t7.5 -6t7 -6.5t5.5 -7.5t3.5 -10t1.5 -12.5t-1 -16q12 7 30.5 22t29.5 22.5t28 6.5t34 -18q-2 -16 -3 -16q-4 0 -9 -8q-4 -8 -10 -23q-2 -5 -10.5 -22t-16 -33.5t-14 -34.5
t-5.5 -31t11 -18q19 -9 54.5 18t66.5 80h1q25 34 71.5 53t89.5 9t52 -53q1 -7 2 -9t5 -4.5l7 -4.5q14 -11 47 -44q90 -88 177 -55q8 3 21 11q6 4 13 17q5 7 10 20.5t10 20.5q11 14 31.5 12t33.5 -15q9 -9 13 -19l-24 18q-41 16 -51 -11q-1 -3 -4 -13t-5.5 -17.5t-6.5 -15
t-8 -9.5q-3 -2 -8.5 -8t-12.5 -10q-36 -19 -56 -23q-29 -5 -65 10q-19 8 -37 24.5t-37.5 40t-26.5 30.5l-21 17q-2 -3 -4.5 -17.5t-11 -26t-28.5 -14.5q-5 0 -8.5 -2t-8.5 -2q-24 1 -33 28q-12 34 18 55q18 13 47 16q-15 29 -83 23.5t-93 -39.5q-16 -51 -56 -88t-89 -32
q-35 3 -50 17.5t-11.5 36.5t12.5 42.5t21 44.5t15 35q-22 -11 -60.5 -63.5t-62.5 -95.5q-4 -6 -9 -12zM502 106q-23 1 -41 -12q-7 -6 -7.5 -19.5t4.5 -20.5q6 -5 18 -0.5t16 10.5q8 9 10 42z" />
    <glyph glyph-name="o_ss001" unicode="&#xe00e;" horiz-adv-x="263" 
d="M145 42l-5 -7q-33 -40 -94 -25q-46 11 -66 58.5t10 99.5q54 85 136 105q62 16 89 -17q10 -12 11 -29q1 -11 -10 -50.5t-17 -52.5q-15 -30 -27 -48q14 -7 41 1.5t45 36.5h-1q21 36 69.5 58.5t94 13.5t55.5 -54q1 -7 2 -9t5 -4.5l7 -4.5q14 -11 47 -44q90 -88 177 -55
q8 3 21 11q6 4 13 17q5 7 10 20.5t10 20.5q11 14 31.5 12t33.5 -15q9 -9 13 -19l-24 18q-41 16 -51 -11q-1 -3 -4 -13t-5.5 -17.5t-6.5 -15t-8 -9.5q-3 -2 -8.5 -8t-12.5 -10q-36 -19 -56 -23q-29 -5 -65 10q-19 8 -37 24.5t-37.5 40t-26.5 30.5l-21 17q-2 -3 -4.5 -17.5
t-11 -26t-28.5 -14.5q-5 0 -8.5 -2t-8.5 -2q-24 1 -33 28q-12 34 18 55q18 13 47 16q-15 29 -83 23.5t-93 -39.5q-12 -40 -52.5 -58.5t-80.5 -15.5zM81 26l10 4q10 4 15 10t16 21q-17 29 -18 47t6 52q0 -1 -10 -13t-19.5 -26.5t-17 -32t-3.5 -34.5t21 -28zM153 91
q20 32 23.5 55.5t-1.5 57.5q-19 -10 -25.5 -51.5t3.5 -61.5zM464 106q-23 1 -41 -12q-7 -6 -7.5 -19.5t4.5 -20.5q6 -5 18 -0.5t16 10.5q8 9 10 42z" />
    <glyph glyph-name="p_ss001" unicode="&#xe00f;" horiz-adv-x="286" 
d="M121 8q-22 -8 -31 -7t-27 7t-33 6l-22.5 -53.5t-24.5 -64.5q-3 -9 -10.5 -38t-15 -50t-16.5 -33q-13 4 -28 12q-80 44 87 327q9 15 25.5 62t22.5 56l45 -13q0 -11 -7.5 -25.5t-9.5 -30.5q5 5 17.5 21t20.5 25t23 16t32 6q46 -4 55 -42t-12 -83t-55 -74l-4 -3q16 -6 21 -6
q21 -1 53 26t59 74l1 -1q25 34 72 53.5t90 9.5t52 -53q1 -7 2 -9t5 -4.5l7 -4.5q14 -11 47 -44q90 -88 177 -55q8 3 21 11q6 4 13 17q5 7 10 20.5t10 20.5q11 14 31.5 12t33.5 -15q9 -9 13 -19l-24 18q-41 16 -51 -11q-1 -3 -4 -13t-5.5 -17.5t-6.5 -15t-8 -9.5
q-3 -2 -8.5 -8t-12.5 -10q-36 -19 -56 -23q-29 -5 -65 10q-19 8 -37 24.5t-37.5 40t-26.5 30.5l-21 17q-2 -3 -4.5 -17.5t-11 -26t-28.5 -14.5q-5 0 -8.5 -2t-8.5 -2q-24 1 -33 28q-12 34 18 55q18 13 47 16q-15 30 -85 23.5t-93 -42.5q-18 -51 -57 -86.5t-88 -30.5
q-21 3 -35 12zM96 52q29 18 58 74q27 51 22 79q-5 29 -51 -23l-69 -122zM489 106q-23 1 -41 -12q-7 -6 -7.5 -19.5t4.5 -20.5q6 -5 18 -0.5t16 10.5q8 9 10 42z" />
    <glyph glyph-name="q_ss001" unicode="&#xe010;" horiz-adv-x="304" 
d="M175 -4q-28 5 -54 -39t-47.5 -104t-27.5 -68q-43 14 -52 33q-12 28 -1 65t33 76t24 44q-19 10 -26.5 15t-21.5 16t-19.5 25.5t-6.5 33.5q-3 63 46.5 104.5t115.5 53.5q45 9 72.5 -2.5t6.5 -53.5q-17 3 -17 7q0 2 1 4q3 3 -2 3q-4 1 -13 0q-8 -1 -40 -21.5t-46 -30.5
q-70 -59 -52 -104q20 -50 83 54q17 28 27 50q9 18 12 19h5h7q9 0 12 -3q10 -3 23 -10q0 -11 -2 -16.5t-7.5 -11.5t-9.5 -12l-41 -88q29 -13 37 -12q22 1 53 27.5t57 72.5h1q25 34 71.5 53t89.5 9t52 -53q1 -7 2 -9t5 -4.5l7 -4.5q14 -11 47 -44q90 -88 177 -55q8 3 21 11
q6 4 13 17q5 7 10 20.5t10 20.5q11 14 31.5 12t33.5 -15q9 -9 13 -19l-8 8q-9 7 -16 10q-41 16 -51 -11q-1 -3 -4 -13t-5.5 -17.5t-6.5 -15t-8 -9.5q-3 -2 -8.5 -8t-12.5 -10q-36 -19 -56 -23q-29 -5 -65 10q-19 8 -37 24.5t-37.5 40t-26.5 30.5l-21 17q-2 -3 -4.5 -17.5
t-11 -26t-28.5 -14.5q-5 0 -8.5 -2t-8.5 -2q-24 1 -33 28q-12 34 18 55q18 13 47 16q-15 29 -83 23.5t-93 -39.5q-16 -51 -55.5 -88t-89.5 -32zM506 106q-23 1 -41 -12q-7 -6 -7.5 -19.5t4.5 -20.5q6 -5 18 -0.5t16 10.5q8 9 10 42z" />
    <glyph glyph-name="r_ss001" unicode="&#xe011;" horiz-adv-x="258" 
d="M58 186q-30 -40 -43 -71l-17 5l46 80q-30 33 -19.5 57.5t61.5 48.5q14 -6 18 -10t11 -16q-4 -10 -20 -29.5t-19 -38.5q31 -3 56 4.5t39 3.5q20 -4 32 -11.5t7 -16.5q-3 -5 -23 -26q-77 -82 -76 -114q1 -22 29 -29q21 -5 55.5 22.5t62.5 77.5h1q25 34 71.5 53t89.5 9
t52 -53q1 -7 2 -9t5 -4.5l7 -4.5q14 -11 47 -44q90 -88 177 -55q8 3 21 11q6 4 13 17q5 7 10 20.5t10 20.5q11 14 31.5 12t33.5 -15q9 -9 13 -19l-8 8q-9 7 -16 10q-41 16 -51 -11q-1 -3 -4 -13t-5.5 -17.5t-6.5 -15t-8 -9.5q-3 -2 -8.5 -8t-12.5 -10q-36 -19 -56 -23
q-29 -5 -65 10q-19 8 -37 24.5t-37.5 40t-26.5 30.5l-21 17q-2 -3 -4.5 -17.5t-11 -26t-28.5 -14.5q-5 0 -8.5 -2t-8.5 -2q-24 1 -33 28q-12 34 18 55q18 13 47 16q-15 29 -83 23.5t-93 -39.5q-16 -51 -55.5 -88t-89.5 -32q-40 4 -67.5 33t-12.5 64q15 37 38 60.5t27 31.5z
M460 106q-23 1 -41 -12q-7 -6 -7.5 -19.5t4.5 -20.5q6 -5 18 -0.5t16 10.5q8 9 10 42z" />
    <glyph glyph-name="s_ss001" unicode="&#xe012;" horiz-adv-x="268" 
d="M59 186q-29 -39 -44 -71l-17 5q41 69 47 80q-30 33 -19.5 57.5t61.5 48.5q14 -6 18 -10t11 -16q-3 -7 -9 -15t-11 -13.5t-9 -11t-3 -9t8 -6.5q35 -13 53.5 -53t17.5 -81.5t-17 -65.5q20 -9 55.5 18t66.5 80l1 -1q25 34 72 53.5t90 9.5t52 -53q1 -7 2 -9t5 -4.5l7 -4.5
q14 -11 47 -44q90 -88 177 -55q8 3 21 11q6 4 13 17q5 7 10 20.5t10 20.5q11 14 31.5 12t33.5 -15q9 -9 13 -19l-9 8q-8 7 -15 10q-41 16 -51 -11q-1 -3 -4 -13t-5.5 -17.5t-6.5 -15t-8 -9.5q-3 -2 -8.5 -8t-12.5 -10q-36 -19 -56 -23q-29 -5 -65 10q-19 8 -37 24.5
t-37.5 40t-26.5 30.5l-21 17q-2 -3 -4.5 -17.5t-11 -26t-28.5 -14.5q-5 0 -8.5 -2t-8.5 -2q-24 1 -33 28q-12 34 18 55q18 13 47 16q-15 30 -85 23.5t-93 -42.5q-17 -51 -56.5 -86.5t-88.5 -30.5q-3 1 -8 1q-50 -16 -56 -16q-38 0 -54 36.5t22 61.5q22 8 30.5 6t33.5 -14
q7 36 -3.5 75t-43.5 40zM471 106q-23 1 -41 -12q-7 -6 -7.5 -19.5t4.5 -20.5q6 -5 18 -0.5t16 10.5q8 9 10 42zM89 30q-3 7 -6.5 13t-8.5 12t-10 4t-9 -13q-6 -17 6 -23.5t28 7.5z" />
    <glyph glyph-name="t_ss001" unicode="&#xe013;" horiz-adv-x="192" 
d="M-1 272l11 32q44 -9 48 -9q6 20 38 69q2 4 9 14l10 14.5t7.5 13t7.5 16t4 16.5q35 -2 62 5q0 -42 -2 -60t-5 -25.5t-14.5 -26t-22.5 -41.5l58 6l-8 -42q-26 -7 -80 -7q-34 -52 -60 -125q-38 -106 16 -100q7 1 15 3q51 15 99 98l1 -1q25 34 72 53.5t90 9.5t52 -53
q1 -7 2 -9t5 -4.5l7 -4.5q14 -11 47 -44q90 -88 177 -55q8 3 21 11q6 4 13 17q5 7 10 20.5t10 20.5q11 14 31.5 12t33.5 -15q9 -9 13 -19l-24 18q-41 16 -51 -11q-1 -3 -4 -13t-5.5 -17.5t-6.5 -15t-8 -9.5q-3 -2 -8.5 -8t-12.5 -10q-36 -19 -56 -23q-29 -5 -65 10
q-19 8 -37 24.5t-37.5 40t-26.5 30.5l-21 17q-2 -3 -4.5 -17.5t-11 -26t-28.5 -14.5q-5 0 -8.5 -2t-8.5 -2q-24 1 -33 28q-12 34 18 55q18 13 47 16q-15 30 -85 23.5t-93 -42.5q-14 -39 -41.5 -70.5t-61.5 -41.5q-71 -22 -107 -3q-31 16 -32.5 54t15 74.5l35.5 77.5t20 55
q-13 6 -36 13zM395 106q-23 1 -41 -12q-7 -6 -7.5 -19.5t4.5 -20.5q6 -5 18 -0.5t16 10.5q8 9 10 42z" />
    <glyph glyph-name="u_ss001" unicode="&#xe014;" horiz-adv-x="296" 
d="M239 216q-1 -4 -7 -14l-16 -28t-17 -38l-10 -28.5t-11 -35.5t-4.5 -37t13.5 -12q21 2 49.5 26t53.5 65q21 36 69.5 58.5t94 13.5t55.5 -54q1 -7 2 -9t5 -4.5l7 -4.5q14 -11 47 -44q90 -88 177 -55q8 3 21 11q6 4 13 17q5 7 10 20.5t10 20.5q11 14 31.5 12t33.5 -15
q9 -9 13 -19l-24 18q-41 16 -51 -11q-1 -3 -4 -13t-5.5 -17.5t-6.5 -15t-8 -9.5q-3 -2 -8.5 -8t-12.5 -10q-36 -19 -56 -23q-29 -5 -65 10q-19 8 -37 24.5t-37.5 40t-26.5 30.5l-21 17q-2 -3 -4.5 -17.5t-11 -26t-28.5 -14.5q-5 0 -8.5 -2t-8.5 -2q-24 1 -33 28
q-12 34 18 55q18 13 47 16q-14 29 -81 24t-94 -38h1q-23 -75 -83 -108q-79 -44 -105 -37q-24 7 -19 47q-19 -28 -54 -35.5t-59.5 15t-15.5 69.5q7 40 42 92l52 83q32 4 41 -2t-4 -30q-67 -112 -73 -179q-2 -28 14 -26q20 3 45 38q7 10 10 18q38 90 67 149q2 3 5.5 11
t5.5 9.5t7 3.5t14 1q21 -3 36 -21zM497 106q-23 1 -41 -12q-7 -6 -7.5 -19.5t4.5 -20.5q6 -5 18 -0.5t16 10.5q8 9 10 42z" />
    <glyph glyph-name="v_ss001" unicode="&#xe015;" horiz-adv-x="228" 
d="M153 73q-11 -24 -26.5 -44t-37 -37t-47 -13t-50.5 33q-18 19 -16 53.5t12.5 64t20.5 62.5t7 49q6 0 18.5 1t17.5 1h13t8.5 -1.5t5 -3t2 -5t0 -7t-2 -10.5t-3.5 -13.5t-4 -17.5l-4 -22q-22 -131 -10 -144q48 22 62 65q-33 33 -28.5 84.5t41.5 70.5q16 8 24.5 11.5t19 4
t15 -8t4.5 -26.5q1 -19 -11 -62t-23 -66q12 -4 35 2.5t32 28.5l1 -1q25 34 72 53.5t90 9.5t52 -53q1 -7 2 -9t5 -4.5l7 -4.5q14 -11 47 -44q90 -88 177 -55q8 3 21 11q6 4 13 17q5 7 10 20.5t10 20.5q11 14 31.5 12t33.5 -15q9 -9 13 -19l-24 18q-41 16 -51 -11
q-1 -3 -4 -13t-5.5 -17.5t-6.5 -15t-8 -9.5q-3 -2 -8.5 -8t-12.5 -10q-36 -19 -56 -23q-29 -5 -65 10q-19 8 -37 24.5t-37.5 40t-26.5 30.5l-21 17q-2 -3 -4.5 -17.5t-11 -26t-28.5 -14.5q-5 0 -8.5 -2t-8.5 -2q-24 1 -33 28q-12 34 18 55q18 13 47 16q-15 30 -85 23.5
t-93 -42.5q-9 -25 -35 -34.5t-55 -5.5zM431 106q-23 1 -41 -12q-7 -6 -7.5 -19.5t4.5 -20.5q6 -5 18 -0.5t16 10.5q8 9 10 42zM128 106q11 9 20 45.5t9 57.5q-41 -19 -29 -103z" />
    <glyph glyph-name="w_ss001" unicode="&#xe016;" horiz-adv-x="361" 
d="M88 228q-1 -3 -6 -14t-12.5 -30t-12.5 -40q-26 -116 0 -114h2q23 5 50 36q1 30 22 92.5t18 82.5q6 0 18.5 1t17.5 1h13t8.5 -1.5t5 -3t2 -5t0 -7t-2 -10.5t-3.5 -13.5t-4 -17.5l-4 -22q-22 -131 -10 -144q47 21 62 65q-34 33 -29 84.5t43 70.5q15 8 23.5 11.5t19 4
t15.5 -8t5 -26.5q0 -20 -12 -62.5t-23 -65.5q10 -4 30.5 0.5t31.5 21.5l3 5l2 4h1q25 34 71.5 53t89.5 9t52 -53q1 -7 2 -9t5 -4.5l7 -4.5q14 -11 47 -44q90 -88 177 -55q8 3 21 11q6 4 13 17q5 7 10 20.5t10 20.5q11 14 31.5 12t33.5 -15q9 -9 13 -19q-3 2 -7 6t-8 7t-9 5
q-41 16 -51 -11q-1 -3 -4 -13t-5.5 -17.5t-6.5 -15t-8 -9.5q-3 -2 -8.5 -8t-12.5 -10q-36 -19 -56 -23q-29 -5 -65 10q-19 8 -37 24.5t-37.5 40t-26.5 30.5l-21 17q-2 -3 -4.5 -17.5t-11 -26t-28.5 -14.5q-5 0 -8.5 -2t-8.5 -2q-24 1 -33 28q-12 34 18 55q18 13 47 16
q-15 29 -83 23.5t-93 -39.5q-16 -52 -91 -43q-11 -24 -26.5 -44.5t-36.5 -37t-47 -12.5t-51 33q-6 7 -11 19l-11 -9q-85 -61 -110 -45q-42 27 27 239q2 4 4 10t3 8t3.5 5t7 4t11.5 1q21 2 39 -16zM563 106q-23 1 -41 -12q-7 -6 -7.5 -19.5t4.5 -20.5q6 -5 18 -0.5t16 10.5
q8 9 10 42zM261 106q11 9 20 45t10 58q-42 -18 -30 -103z" />
    <glyph glyph-name="x_ss001" unicode="&#xe017;" horiz-adv-x="245" 
d="M13 115l-16 6l33 57q1 1 5 7t5.5 8l5.5 7t7 7t8 4t10 3t11 0q8 -1 13 -4t7.5 -9.5t3.5 -11t2 -15.5t2 -15q11 4 24 17.5t24.5 27.5t13.5 16q19 -11 24.5 -18.5t-2 -23.5t-35.5 -44l-9.5 -9.5l-8.5 -8.5t-6.5 -7.5t-5 -8.5t-2.5 -9t-1 -11.5t1.5 -14.5t2.5 -19t5 -23
q22 0 53 27t57 73h1q25 34 71.5 53t89.5 9t52 -53q1 -7 2 -9t5 -4.5l7 -4.5q14 -11 47 -44q90 -88 177 -55q8 3 21 11q6 4 13 17q5 7 10 20.5t10 20.5q11 14 31.5 12t33.5 -15q9 -9 13 -19l-24 18q-41 16 -51 -11q-1 -3 -4 -13t-5.5 -17.5t-6.5 -15t-8 -9.5q-3 -2 -8.5 -8
t-12.5 -10q-36 -19 -56 -23q-29 -5 -65 10q-19 8 -37 24.5t-37.5 40t-26.5 30.5l-21 17q-2 -3 -4.5 -17.5t-11 -26t-28.5 -14.5q-5 0 -8.5 -2t-8.5 -2q-24 1 -33 28q-12 34 18 55q18 13 47 16q-15 29 -83 23.5t-93 -39.5q-16 -51 -55.5 -87.5t-89.5 -32.5q-20 3 -30 8
q-9 4 -17 17t-14 18q-19 -10 -35 -30.5t-26 -26.5q-12 -7 -18 -3.5t-5 16.5q0 10 17.5 25t38 38.5t26.5 52.5q13 61 13 68q-16 -3 -27 -18t-26 -46zM447 106q-23 1 -41 -12q-7 -6 -7.5 -19.5t4.5 -20.5q6 -5 18 -0.5t16 10.5q8 9 10 42z" />
    <glyph glyph-name="y_ss001" unicode="&#xe018;" horiz-adv-x="316" 
d="M174 222q12 2 23.5 -1.5t22.5 -3.5l-31 -189q17 -16 55.5 11t71.5 84h1q25 34 71.5 53t89.5 9t52 -53q1 -7 2 -9t5 -4.5l7 -4.5q14 -11 47 -44q90 -88 177 -55q8 3 21 11q6 4 13 17q5 7 10 20.5t10 20.5q11 14 31.5 12t33.5 -15q9 -9 13 -19l-24 18q-41 16 -51 -11
q-1 -3 -4 -13t-5.5 -17.5t-6.5 -15t-8 -9.5q-3 -2 -8.5 -8t-12.5 -10q-36 -19 -56 -23q-29 -5 -65 10q-19 8 -37 24.5t-37.5 40t-26.5 30.5l-21 17q-2 -3 -4.5 -17.5t-11 -26t-28.5 -14.5q-5 0 -8.5 -2t-8.5 -2q-24 1 -33 28q-12 34 18 55q18 13 47 16q-15 30 -85 23.5
t-93 -42.5q-17 -50 -56 -85.5t-88 -31.5l-11 2q-9 -46 -48 -108q-10 -16 -39 -43.5t-43 -34.5q-11 -5 -68 -15q-56 -8 -68.5 46.5t25.5 100.5q18 23 47.5 35t54.5 15t48 14.5t31 34.5q-4 -2 -18 -8t-19.5 -8t-17.5 -5.5t-20 -3.5t-18.5 1.5t-19.5 5.5q-18 9 -22 32.5
t11 58.5q17 37 44 72t39 56q5 -1 9.5 -2.5t7.5 -3t6.5 -4.5t5 -4.5l5.5 -5.5t5 -6q-3 -13 -30.5 -69.5t-27.5 -82.5q-1 -29 39 -3q19 13 26 22q17 25 36 81zM-45 -158q65 -7 91 37q33 54 41 93q-4 0 -17 -1.5t-19 -2t-18 -2.5t-19 -4t-16 -5t-16 -7.5t-12 -9.5
q-44 -48 -15 -98zM518 106q-23 1 -41 -12q-7 -6 -7.5 -19.5t4.5 -20.5q6 -5 18 -0.5t16 10.5q8 9 10 42z" />
    <glyph glyph-name="z_ss001" unicode="&#xe019;" horiz-adv-x="314" 
d="M127 94h71l-10 -66q17 -16 55 11t71 84h1q25 34 71.5 53t89.5 9t52 -53q1 -7 2 -9t5 -4.5l7 -4.5q14 -11 47 -44q90 -88 177 -55q8 3 21 11q6 4 13 17q5 7 10 20.5t10 20.5q11 14 31.5 12t33.5 -15q9 -9 13 -19l-24 18q-41 16 -51 -11q-1 -3 -4 -13t-5.5 -17.5t-6.5 -15
t-8 -9.5q-3 -2 -8.5 -8t-12.5 -10q-36 -19 -56 -23q-29 -5 -65 10q-19 8 -37 24.5t-37.5 40t-26.5 30.5l-21 17q-2 -3 -4.5 -17.5t-11 -26t-28.5 -14.5q-5 0 -8.5 -2t-8.5 -2q-24 1 -33 28q-12 34 18 55q18 13 47 16q-15 29 -83 23.5t-93 -39.5q-16 -51 -55.5 -87.5
t-90.5 -32.5l-10 2q-9 -46 -48 -108q-11 -17 -39.5 -44t-42.5 -34q-11 -5 -68 -15q-57 -8 -69 46.5t26 100.5q19 24 48.5 36t54 15t47 14t30.5 33q0 1 2 9h-47q0 1 -4.5 5.5t-10.5 9.5t-7 6q3 6 20 29q53 72 43 89q-5 8 -19 8q-24 0 -45 -28.5t-32 -54.5l-16 6
q0 1 19.5 34.5t39 51t44.5 16.5q31 3 55 -12.5t19 -46.5q-6 -40 -47 -70zM-46 -158q64 -7 91 37q33 54 41 93q-2 0 -19.5 -2t-23 -2.5t-20.5 -3t-22.5 -5.5t-16.5 -8t-15 -11q-44 -48 -15 -98zM516 106q-23 1 -41 -12q-7 -6 -7.5 -19.5t4.5 -20.5q6 -5 18 -0.5t16 10.5
q8 9 10 42z" />
    <glyph glyph-name="a_ss002" unicode="&#xe01a;" 
d="M26 169q47 53 118 94q21 12 32 17t26 7.5t25.5 -7.5t19.5 -31l7 -18q1 -2 2 -2q4 0 14 -8l-7 -17q-8 3 -19.5 9.5t-17 9t-15 0t-19.5 -12.5q-44 -44 -84.5 -99t-43.5 -94q37 4 59 22q8 6 12.5 10t6.5 9t3 8t2 11.5t2 13.5q5 28 25.5 55.5t44.5 32.5q9 -13 11 -26t0.5 -21
t-7.5 -23.5t-8 -23.5q-18 -58 13 -62q33 -4 79 49q20 22 37 51l16 -5q-16 -52 -56 -89t-90 -33q-12 1 -20 3t-16.5 10t-10 9.5t-12.5 14.5q-7 -3 -19 -13q-34 -25 -67.5 -27t-53.5 15t-28 45.5t8 65.5q-32 -20 -67.5 -26t-65 7.5t-37.5 47.5q-1 7 -2 9t-5 4.5l-7 4.5
q-14 11 -47 44q-90 88 -177 55q-8 -3 -21 -11q-6 -4 -13 -17q-5 -7 -10 -20.5t-10 -20.5q-11 -14 -31.5 -12t-33.5 15q-9 9 -13 19q3 -2 7 -6t8 -7t9 -5q41 -16 51 11q1 3 4 13t5.5 17.5t6.5 15t8 9.5q3 2 8.5 8t12.5 10q36 19 56 23q29 5 65 -10q19 -8 37 -24.5t37.5 -40
t26.5 -30.5l21 -17q2 3 4.5 17.5t11 26t28.5 14.5q5 0 8.5 2t8.5 2q24 -1 33 -28q12 -34 -18 -55q-18 -13 -47 -16q14 -29 80 -24.5t93 37.5l1 1zM-163 174q23 -1 41 12q7 6 7.5 19.5t-4.5 20.5q-6 5 -18 0.5t-16 -10.5q-8 -9 -10 -42z" />
    <glyph glyph-name="b_ss002" unicode="&#xe01b;" horiz-adv-x="304" 
d="M145 252q43 20 64.5 9.5t22.5 -62.5q1 -43 -7 -69.5t-29 -61.5q-10 -16 -24 -32q11 -28 52 -3q43 27 80 90l17 -5q-17 -52 -57 -89t-90 -33q-23 3 -34 10q-22 -14 -33 -19q-32 -13 -66.5 1t-45.5 39q-24 58 8 145q-32 -18 -66.5 -23t-62.5 8.5t-36 46.5q-1 7 -2 9t-5 4.5
l-7 4.5q-14 11 -47 44q-90 88 -177 55q-8 -3 -21 -11q-6 -4 -13 -17q-5 -7 -10 -20.5t-10 -20.5q-11 -14 -31.5 -12t-33.5 15q-9 9 -13 19q3 -2 7 -6t8 -7t9 -5q41 -16 51 11q1 3 4 13t5.5 17.5t6.5 15t8 9.5q3 2 8.5 8t12.5 10q36 19 56 23q29 5 65 -10q19 -8 37 -24.5
t37.5 -40t26.5 -30.5l21 -17q2 3 4.5 17.5t11 26t28.5 14.5q5 0 8.5 2t8.5 2q24 -1 33 -28q12 -34 -18 -55q-18 -13 -47 -16q13 -24 66.5 -24.5t88.5 21.5q28 60 73 117t90 94q11 9 18.5 16.5t9.5 10.5t5 5t7 3q14 -20 13 -37.5t-13.5 -40.5t-27 -41t-28.5 -39.5t-17 -36.5z
M155 141q-14 3 -20 10.5t-10.5 20.5t-10.5 20q-30 -58 -48 -124q-21 -77 17 -69q10 2 26 12q39 25 74 88.5t10 110.5q-21 -5 -31 -23q-5 -9 -6 -15t0 -12t-1 -19zM-150 230q23 -1 41 12q7 6 7.5 19.5t-4.5 20.5q-6 5 -18 0.5t-16 -10.5q-8 -9 -10 -42z" />
    <glyph glyph-name="c_ss002" unicode="&#xe01c;" horiz-adv-x="245" 
d="M74 32q35 -38 90.5 1t80.5 90l16 -5q-24 -72 -78 -104t-120 -14q-38 10 -61 42t-16 71l4 15q-32 -21 -69 -28.5t-68.5 5.5t-39.5 48q-1 7 -2 9t-5 4.5l-7 4.5q-14 11 -47 44q-90 88 -177 55q-8 -3 -21 -11q-6 -4 -13 -17q-5 -7 -10 -20.5t-10 -20.5q-11 -14 -31.5 -12
t-33.5 15q-9 9 -13 19l9 -7q8 -8 15 -11q41 -16 51 11q1 3 4 13t5.5 17.5t6.5 15t8 9.5q3 2 8.5 8t12.5 10q36 19 56 23q29 5 65 -10q19 -8 37 -24.5t37.5 -40t26.5 -30.5l21 -17q2 3 4.5 17.5t11 26t28.5 14.5q5 0 8.5 2t8.5 2q24 -1 33 -28q12 -34 -18 -55
q-18 -13 -47 -16q14 -28 76.5 -25t92.5 33q36 61 106 92q63 27 87 1q26 -28 -23 -107q-18 -2 -23 -1t-15 10q5 9 16.5 11.5t19 11.5t7.5 36q-41 2 -90 -75q-23 -35 -26 -66t11 -42zM-175 179q23 -1 41 12q7 6 7.5 19.5t-4.5 20.5q-6 5 -18 0.5t-16 -10.5q-8 -9 -10 -42z" />
    <glyph glyph-name="d_ss002" unicode="&#xe01d;" horiz-adv-x="328" 
d="M198 -4q-18 2 -26 3.5t-21 6.5t-17 17t-1 31q-20 -19 -47.5 -23t-51 5t-38.5 32t-10 54q-32 -21 -69 -28t-67.5 6t-38.5 48q-1 7 -2 9t-5 4.5l-7 4.5q-14 11 -47 44q-90 88 -177 55q-8 -3 -21 -11q-6 -4 -13 -17q-5 -7 -10 -20.5t-10 -20.5q-11 -14 -31.5 -12t-33.5 15
q-9 9 -13 19q3 -2 7 -6t8 -7t9 -5q41 -16 51 11q1 3 4 13t5.5 17.5t6.5 15t8 9.5q3 2 8.5 8t12.5 10q36 19 56 23q29 5 65 -10q19 -8 37 -24.5t37.5 -40t26.5 -30.5l21 -17q2 3 4.5 17.5t11 26t28.5 14.5q5 0 8.5 2t8.5 2q24 -1 33 -28q12 -34 -18 -55q-18 -13 -47 -16
q13 -25 69.5 -24.5t91.5 25.5l2 6q11 25 48 57t75.5 48.5t64.5 -0.5q49 89 61 104q6 7 13.5 17l11.5 15.5t10 13t9.5 10l10 7.5t10.5 4.5t11.5 1.5t13.5 -1q0 -9 -7 -26t-17 -38t-13 -30l-6 -18l-13 -33.5l-15.5 -42t-16.5 -48.5l-15.5 -48.5t-14 -47t-9.5 -38t-3.5 -28
t5.5 -11.5q21 -5 55 22.5t63 77.5l17 -5q-16 -51 -56.5 -88.5t-90.5 -33.5zM142 115q4 18 14.5 57t14.5 58q-25 -7 -70.5 -68t-34.5 -100q27 -14 49.5 9.5t26.5 43.5zM-177 174q23 -1 41 12q7 6 7.5 19.5t-4.5 20.5q-6 5 -18 0.5t-16 -10.5q-8 -9 -10 -42z" />
    <glyph glyph-name="e_ss002" unicode="&#xe01e;" horiz-adv-x="244" 
d="M74 32q34 -38 90 1t80 90l17 -5q-24 -72 -78.5 -104t-119.5 -14q-39 10 -61.5 42t-15.5 71q5 19 6 20q-33 -19 -68.5 -25t-64.5 7.5t-37 47.5q-1 7 -2 9t-5 4.5l-7 4.5q-14 11 -47 44q-90 88 -177 55q-8 -3 -21 -11q-6 -4 -13 -17q-5 -7 -10 -20.5t-10 -20.5
q-11 -14 -31.5 -12t-33.5 15q-9 9 -13 19q3 -2 7 -6t8 -7t9 -5q41 -16 51 11q1 3 4 13t5.5 17.5t6.5 15t8 9.5q3 2 8.5 8t12.5 10q36 19 56 23q29 5 65 -10q19 -8 37 -24.5t37.5 -40t26.5 -30.5l21 -17q2 3 4.5 17.5t11 26t28.5 14.5q5 0 8.5 2t8.5 2q24 -1 33 -28
q12 -34 -18 -55q-18 -13 -47 -16q14 -26 72.5 -24.5t91.5 28.5q27 42 74 70t84 29q33 1 44.5 -27t-11.5 -60l-21.5 -30t-25.5 -33.5t-24.5 -26t-31 -23t-33.5 -8.5q1 -16 11 -26zM64 84q28 0 71 53.5t43 77.5q-39 2 -90 -75q-20 -32 -24 -56zM-166 189q23 -1 41 12
q7 6 7.5 19.5t-4.5 20.5q-6 5 -18 0.5t-16 -10.5q-8 -9 -10 -42z" />
    <glyph glyph-name="f_ss002" unicode="&#xe01f;" horiz-adv-x="270" 
d="M143 -4q0 -3 -0.5 -12t-1.5 -17q-2 -11 -7 -28.5t-6 -22.5q-6 -34 -17 -63t-35.5 -50.5t-56.5 -12.5q-35 10 -43.5 23t-10.5 54q-2 48 15 106q11 40 10 46t-7.5 16.5t-6.5 29.5q0 5 1 7q-43 -11 -77.5 1t-42.5 50q-1 7 -2 9t-5 4.5l-7 4.5q-14 11 -47 44q-90 88 -177 55
q-8 -3 -21 -11q-6 -4 -13 -17q-5 -7 -10 -20.5t-10 -20.5q-11 -14 -31.5 -12t-33.5 15q-9 9 -13 19l9 -7q8 -8 15 -11q41 -16 51 11q1 3 4 13t5.5 17.5t6.5 15t8 9.5q3 2 8.5 8t12.5 10q36 19 56 23q29 5 65 -10q19 -8 37 -24.5t37.5 -40t26.5 -30.5l21 -17q2 3 4.5 17.5
t11 26t28.5 14.5q5 0 8.5 2t8.5 2q24 -1 33 -28q12 -34 -18 -55q-18 -13 -47 -16q9 -19 47 -23.5t74 6.5l8 4l22 8l14 9q7 9 41 78q25 49 88 131.5t95 83.5l12 1q-2 -2 2 -5q7 -9 -11.5 -46.5t-45 -82t-30.5 -54.5q-32 -77 -42 -97q-3 -5 -9 -17l-8 -16t-4.5 -13t-1.5 -14
t4 -13t10 -16l-1 -19q17 -15 55.5 11.5t71.5 83.5l17 -5q-16 -51 -55.5 -88.5t-88.5 -33.5zM119 1q-32 -4 -38.5 -12t-24.5 -65l-4 -12t-4 -12.5t-4 -12t-4 -13t-2.5 -12.5t-2 -13.5t-1 -12.5t0 -13.5t1.5 -13.5q62 13 83 192zM-131 149q23 -1 41 12q7 6 7.5 19.5t-4.5 20.5
q-6 5 -18 0.5t-16 -10.5q-8 -9 -10 -42zM98 24q10 1 13 2.5t3.5 2.5t-0.5 7t-1 11q-11 -10 -15 -23z" />
    <glyph glyph-name="g_ss002" unicode="&#xe020;" horiz-adv-x="347" 
d="M207 -2q-8 -43 -48 -109q-11 -16 -40 -43t-42 -34q-11 -5 -68 -15q-57 -8 -69 46t26 100q20 26 54.5 39t61.5 15.5t47.5 20t21.5 55.5q-6 -4 -20.5 -20t-32.5 -23q-35 -14 -79 7q-28 13 -36 41t6 59q-46 -27 -97 -19.5t-62 54.5q-1 7 -2 9t-5 4.5l-7 4.5q-14 11 -47 44
q-90 88 -177 55q-8 -3 -21 -11q-6 -4 -13 -17q-5 -7 -10 -20.5t-10 -20.5q-11 -14 -31.5 -12t-33.5 15q-9 9 -13 19l24 -18q41 -16 51 11q1 3 4 13t5.5 17.5t6.5 15t8 9.5q3 2 8.5 8t12.5 10q36 19 56 23q29 5 65 -10q19 -8 37 -24.5t37.5 -40t26.5 -30.5l21 -17
q2 3 4.5 17.5t11 26t28.5 14.5q5 0 8.5 2t8.5 2q24 -1 33 -28q12 -34 -18 -55q-18 -13 -47 -16q13 -24 66.5 -24.5t88.5 21.5q41 58 118 85q50 18 85 4q39 -16 -1 -60l-5 8q-6 8 -7 13q0 1 -2 1q-3 -1 -9 -1q-20 0 -72.5 -55.5t-57.5 -90.5q-3 -26 15 -24q25 2 57 41
q2 2 3 4q18 24 25.5 36.5t8.5 16.5t-0.5 13t-1.5 17l80 4l-22 -153q17 -16 55 11t71 84l17 -5q-16 -52 -56 -89.5t-91 -32.5q-4 0 -10 2zM-13 -159q63 -7 91 38q33 55 41 92q-4 0 -19.5 -1.5t-23 -2.5t-21 -3.5t-21.5 -5t-17 -8t-15 -11.5q-22 -24 -26 -44.5t11 -53.5z
M-158 198q23 -1 41 12q7 6 7.5 19.5t-4.5 20.5q-6 5 -18 0.5t-16 -10.5q-8 -9 -10 -42z" />
    <glyph glyph-name="h_ss002" unicode="&#xe021;" horiz-adv-x="326" 
d="M196 -4q-51 5 -60 29q-10 24 -4 50t15 41l22.5 36.5t18.5 36.5q-23 -7 -74.5 -58t-77.5 -84l-40 -61q-9 7 -22.5 22t-18.5 20q27 72 34 88q-32 -20 -68 -26.5t-66 7t-38 47.5q-1 7 -2 9t-5 4.5l-7 4.5q-14 11 -47 44q-90 88 -177 55q-8 -3 -21 -11q-6 -4 -13 -17
q-5 -7 -10 -20.5t-10 -20.5q-11 -14 -31.5 -12t-33.5 15q-9 9 -13 19l24 -18q41 -16 51 11q1 3 4 13t5.5 17.5t6.5 15t8 9.5q3 2 8.5 8t12.5 10q36 19 56 23q29 5 65 -10q19 -8 37 -24.5t37.5 -40t26.5 -30.5l21 -17q2 3 4.5 17.5t11 26t28.5 14.5q5 0 8.5 2t8.5 2
q24 -1 33 -28q12 -34 -18 -55q-18 -13 -47 -16q13 -28 75.5 -25t93.5 33q5 9 12.5 20l21 29.5l24.5 34.5q15 21 46.5 76t44.5 73q18 24 23.5 36t8.5 16q16 3 37 -4q3 -9 3.5 -16.5t-1.5 -14.5t-4 -11t-7.5 -13t-7.5 -13q-16 -29 -32 -64q-7 -16 -31.5 -62.5t-31.5 -68.5
q6 4 20.5 15t23.5 17t25.5 14.5t27 8t27.5 -3.5q3 -3 -1.5 -24.5t-12 -50.5t-13.5 -57.5t-5.5 -48t11.5 -18.5q21 2 51.5 29t57.5 72l16 -5q-16 -52 -56 -89.5t-90 -32.5zM-171 170q23 -1 41 12q7 6 7.5 19.5t-4.5 20.5q-6 5 -18 0.5t-16 -10.5q-8 -9 -10 -42z" />
    <glyph glyph-name="i_ss002" unicode="&#xe022;" horiz-adv-x="156" 
d="M49 219q2 3 3.5 5.5t2 3.5t2.5 1.5t7 2.5q34 -21 33 -37q-1 -4 -35 -100q-27 -74 -14 -72q22 2 52 29t56 71l17 -5q-15 -46 -49 -82t-78 -40q-3 0 -10 -0.5t-10 -0.5q-27 -1 -42 15.5t-9 54.5q7 45 38 100q-32 -18 -66.5 -23t-62.5 8.5t-36 46.5q-1 7 -2 9t-5 4.5l-7 4.5
q-14 11 -47 44q-90 88 -177 55q-8 -3 -21 -11q-6 -4 -13 -17q-5 -7 -10 -20.5t-10 -20.5q-11 -14 -31.5 -12t-33.5 15q-9 9 -13 19l8 -7q9 -8 16 -11q41 -16 51 11q1 3 4 13t5.5 17.5t6.5 15t8 9.5q3 2 8.5 8t12.5 10q36 19 56 23q29 5 65 -10q19 -8 37 -24.5t37.5 -40
t26.5 -30.5l21 -17q2 3 4.5 17.5t11 26t28.5 14.5q5 0 8.5 2t8.5 2q24 -1 33 -28q12 -34 -18 -55q-18 -13 -47 -16q14 -28 77.5 -25t92.5 34zM77 314l61 -6l-13 -56q-47 -5 -57 4q-10 10 -2 33q1 1 5 11.5t6 13.5zM-140 223q23 -1 41 12q7 6 7.5 19.5t-4.5 20.5
q-6 5 -18 0.5t-16 -10.5q-8 -9 -10 -42z" />
    <glyph glyph-name="j_ss002" unicode="&#xe023;" horiz-adv-x="163" 
d="M29 -2q-8 -43 -48 -109q-10 -16 -39 -43t-43 -34q-11 -5 -68 -15q-56 -8 -68.5 46t25.5 100q23 30 64 41l73.5 20.5t42.5 37.5q3 7 16.5 74t12.5 68q-29 -29 -72 -43t-81 -2.5t-47 51.5q-1 7 -2 9t-5 4.5l-7 4.5q-14 11 -47 44q-90 88 -177 55q-8 -3 -21 -11
q-6 -4 -13 -17q-5 -7 -10 -20.5t-10 -20.5q-11 -14 -31.5 -12t-33.5 15q-9 9 -13 19q3 -2 7 -6t8 -7t9 -5q41 -16 51 11q1 3 4 13t5.5 17.5t6.5 15t8 9.5q3 2 8.5 8t12.5 10q36 19 56 23q29 5 65 -10q19 -8 37 -24.5t37.5 -40t26.5 -30.5l21 -17q2 3 4.5 17.5t11 26
t28.5 14.5q5 0 8.5 2t8.5 2q24 -1 33 -28q12 -34 -18 -55q-18 -13 -47 -16q15 -30 83.5 -24.5t92.5 40.5v7l79 4l-31 -189q17 -16 55.5 11t70.5 84l17 -5q-16 -52 -56 -89.5t-90 -32.5q-5 0 -11 2zM-191 -159q65 -7 92 38q31 52 40 92q-1 0 -23 -2t-28.5 -3.5t-23 -4.5
t-26 -8.5t-16.5 -13.5q-22 -24 -26 -45t11 -53zM24 314l61 -6l-13 -56q-47 -5 -57 4q-10 10 -2 33q3 11 11 25zM-191 216q23 -1 41 12q7 6 7.5 19.5t-4.5 20.5q-6 5 -18 0.5t-16 -10.5q-8 -9 -10 -42z" />
    <glyph glyph-name="k_ss002" unicode="&#xe024;" horiz-adv-x="322" 
d="M126 215q2 1 9 5.5t8 5t7.5 4t8 3.5t9 3t10.5 1.5t12 0.5t15 0q48 -3 73 -34q-10 -34 -52.5 -56.5t-94.5 -24.5q8 -66 73 -100q21 -6 55 21.5t63 78.5l17 -5q-14 -43 -45.5 -78t-71.5 -43q-57 -11 -96.5 12t-43 63t25.5 86q13 2 36 3.5t31.5 3t22.5 6t23 13.5t18 25l-2 1
q-2 1 -2 2l-2 1l-1 1l-42 5q-21 -4 -53.5 -29.5t-47.5 -45.5q-8 -10 -14 -18.5t-11.5 -18t-8 -13.5t-7.5 -15t-6 -13.5t-7.5 -17.5t-7.5 -18q-5 -13 -12.5 -22t-11.5 -20q-19 11 -39 27q-4 53 37 137q-32 -18 -66.5 -23t-62.5 8.5t-36 46.5q-1 7 -2 9t-5 4.5l-7 4.5
q-14 11 -47 44q-90 88 -177 55q-8 -3 -21 -11q-6 -4 -13 -17q-5 -7 -10 -20.5t-10 -20.5q-11 -14 -31.5 -12t-33.5 15q-9 9 -13 19q3 -2 7 -6t8 -7t9 -5q41 -16 51 11q1 3 4 13t5.5 17.5t6.5 15t8 9.5q3 2 8.5 8t12.5 10q36 19 56 23q29 5 65 -10q19 -8 37 -24.5t37.5 -40
t26.5 -30.5l21 -17q2 3 4.5 17.5t11 26t28.5 14.5q5 0 8.5 2t8.5 2q24 -1 33 -28q12 -34 -18 -55q-18 -13 -47 -16q13 -25 70 -24.5t91 25.5q25 45 106 163l74 91q3 -1 5.5 -2l5 -2t3.5 -2t3 -2.5t2.5 -2t2 -3t2 -3.5t2 -4.5t2.5 -5.5q-8 -16 -50 -89.5t-51 -107.5z
M-152 210q23 -1 41 12q7 6 7.5 19.5t-4.5 20.5q-6 5 -18 0.5t-16 -10.5q-8 -9 -10 -42z" />
    <glyph glyph-name="l_ss002" unicode="&#xe025;" horiz-adv-x="207" 
d="M94 -4q-64 -5 -92 25t-13 95l7 14q-47 -31 -102 -25.5t-66 55.5q-1 7 -2 9t-5 4.5l-7 4.5q-14 11 -47 44q-90 88 -177 55q-8 -3 -21 -11q-6 -4 -13 -17q-5 -7 -10 -20.5t-10 -20.5q-11 -14 -31.5 -12t-33.5 15q-9 9 -13 19l24 -18q41 -16 51 11q1 3 4 13t5.5 17.5t6.5 15
t8 9.5q3 2 8.5 8t12.5 10q36 19 56 23q29 5 65 -10q19 -8 37 -24.5t37.5 -40t26.5 -30.5l21 -17q2 3 4.5 17.5t11 26t28.5 14.5q5 0 8.5 2t8.5 2q24 -1 33 -28q12 -34 -18 -55q-18 -13 -47 -16q13 -26 70 -25t91 27l69 140q1 1 8.5 15t9.5 17.5l10 17l11.5 19l11 17t13 17
t13 14.5t14 14t14.5 9.5t16 7.5q16 5 31.5 -10.5t17.5 -32.5q3 -34 -16 -73.5t-45 -69.5t-52.5 -64t-33.5 -54q-1 -4 -8 -21t-12.5 -32.5t-9 -32.5t2 -27.5t19.5 -10.5q22 0 53.5 27.5t58.5 73.5l17 -5q-15 -47 -50 -83t-80 -39zM133 233q31 18 69 90t23 87q-8 8 -30.5 -34
t-41 -87.5t-20.5 -55.5zM-160 186q23 -1 41 12q7 6 7.5 19.5t-4.5 20.5q-6 5 -18 0.5t-16 -10.5q-8 -9 -10 -42z" />
    <glyph glyph-name="m_ss002" unicode="&#xe026;" horiz-adv-x="426" 
d="M214 218l-33 -100q17 7 40.5 26.5t39 33.5t39.5 22t43 -7q1 -15 -25 -95q-22 -75 -2 -76q22 1 53 28t57 73l17 -5q-12 -39 -39 -72t-63 -45q-23 -11 -66 -4t-50 34q-11 43 19 96q-46 -32 -73 -75.5t-47 -58.5q-31 15 -36.5 39t5 45t29 52t23.5 47q-23 -15 -128 -175
q-26 13 -37 29.5t-10.5 32t11.5 36.5t23.5 37.5l30.5 40.5t28 39q-33 -21 -70 -28.5t-68 5.5t-39 48q-1 7 -2 9t-5 4.5l-7 4.5q-14 11 -47 44q-90 88 -177 55q-8 -3 -21 -11q-6 -4 -13 -17q-5 -7 -10 -20.5t-10 -20.5q-11 -14 -31.5 -12t-33.5 15q-9 9 -13 19l24 -18
q41 -16 51 11q1 3 4 13t5.5 17.5t6.5 15t8 9.5q3 2 8.5 8t12.5 10q36 19 56 23q29 5 65 -10q19 -8 37 -24.5t37.5 -40t26.5 -30.5l21 -17q2 3 4.5 17.5t11 26t28.5 14.5q5 0 8.5 2t8.5 2q24 -1 33 -28q12 -34 -18 -55q-18 -13 -47 -16q14 -29 80 -24.5t93 37.5q0 3 -1 4l2 1
q4 3 8 5q23 4 44 -23q-1 -15 -9.5 -22t-10.5 -25q11 6 24.5 15.5t21 14t21.5 4t33 -9.5zM-102 267q23 -1 41 12q7 6 7.5 19.5t-4.5 20.5q-6 5 -18 0.5t-16 -10.5q-8 -9 -10 -42z" />
    <glyph glyph-name="n_ss002" unicode="&#xe027;" horiz-adv-x="300" 
d="M18 -7q-5 4 -16 11t-14.5 10t-6.5 11.5t-2 21.5q7 60 54 133q-45 -27 -96 -19.5t-62 54.5q-1 7 -2 9t-5 4.5l-7 4.5q-14 11 -47 44q-90 88 -177 55q-8 -3 -21 -11q-6 -4 -13 -17q-5 -7 -10 -20.5t-10 -20.5q-11 -14 -31.5 -12t-33.5 15q-9 9 -13 19l24 -18q41 -16 51 11
q1 3 4 13t5.5 17.5t6.5 15t8 9.5q3 2 8.5 8t12.5 10q36 19 56 23q29 5 65 -10q19 -8 37 -24.5t37.5 -40t26.5 -30.5l21 -17q2 3 4.5 17.5t11 26t28.5 14.5q5 0 8.5 2t8.5 2q24 -1 33 -28q12 -34 -18 -55q-18 -13 -47 -16q14 -27 74 -25t92 31l19 22q2 -2 8 -6.5t7.5 -6
t7 -6.5t5.5 -7.5t3.5 -10t1.5 -12.5t-1 -16q12 7 30.5 22t29.5 22.5t28 6.5t34 -18q-2 -16 -3 -16q-4 0 -9 -8q-4 -8 -10 -23q-2 -5 -10.5 -22t-16 -33.5t-14 -34.5t-5.5 -31t11 -18q19 -9 54.5 18t66.5 80l17 -5q-16 -52 -56 -89.5t-90 -32.5q-35 3 -50 17.5t-11.5 36.5
t12.5 42.5t21 44.5t15 35q-22 -11 -60.5 -63.5t-62.5 -95.5q-4 -6 -9 -12zM-113 241q23 -1 41 12q7 6 7.5 19.5t-4.5 20.5q-6 5 -18 0.5t-16 -10.5q-8 -9 -10 -42z" />
    <glyph glyph-name="o_ss002" unicode="&#xe028;" horiz-adv-x="263" 
d="M145 42l-5 -7q-33 -40 -94 -25q-41 9 -63 51.5t-2 87.5q-33 -18 -67.5 -23t-62.5 8.5t-36 46.5q-1 7 -2 9t-5 4.5l-7 4.5q-14 11 -47 44q-90 88 -177 55q-8 -3 -21 -11q-6 -4 -13 -17q-5 -7 -10 -20.5t-10 -20.5q-11 -14 -31.5 -12t-33.5 15q-9 9 -13 19l24 -18
q41 -16 51 11q1 3 4 13t5.5 17.5t6.5 15t8 9.5q3 2 8.5 8t12.5 10q36 19 56 23q29 5 65 -10q19 -8 37 -24.5t37.5 -40t26.5 -30.5l21 -17q2 3 4.5 17.5t11 26t28.5 14.5q5 0 8.5 2t8.5 2q24 -1 33 -28q12 -34 -18 -55q-18 -13 -47 -16q14 -27 73.5 -25t91.5 30q58 77 135 90
q60 10 82 -25q6 -11 7 -24q1 -11 -10 -50.5t-17 -52.5q-15 -30 -27 -48q16 -7 45 3.5t46 43.5l16 -5q-11 -41 -52 -60t-82 -16zM81 26l10 4q10 4 15 10t16 21q-17 29 -18 47t6 52q0 -1 -10 -13t-19.5 -26.5t-17 -32t-3.5 -34.5t21 -28zM153 91q20 32 23.5 55.5t-1.5 57.5
q-19 -10 -25.5 -51.5t3.5 -61.5zM-173 207q23 -1 41 12q7 6 7.5 19.5t-4.5 20.5q-6 5 -18 0.5t-16 -10.5q-8 -9 -10 -42z" />
    <glyph glyph-name="p_ss002" unicode="&#xe029;" horiz-adv-x="286" 
d="M121 8q-22 -8 -31 -7t-27 7t-33 6l-22.5 -53.5t-24.5 -64.5q-3 -9 -10.5 -38t-15 -50t-16.5 -33q-13 4 -28 12q-80 44 87 327q12 23 26 64q-31 -23 -70 -32t-71.5 4t-40.5 49q-1 7 -2 9t-5 4.5l-7 4.5q-14 11 -47 44q-90 88 -177 55q-8 -3 -21 -11q-6 -4 -13 -17
q-5 -7 -10 -20.5t-10 -20.5q-11 -14 -31.5 -12t-33.5 15q-9 9 -13 19q3 -2 7 -6t8 -7t9 -5q41 -16 51 11q1 3 4 13t5.5 17.5t6.5 15t8 9.5q3 2 8.5 8t12.5 10q36 19 56 23q29 5 65 -10q19 -8 37 -24.5t37.5 -40t26.5 -30.5l21 -17q2 3 4.5 17.5t11 26t28.5 14.5q5 0 8.5 2
t8.5 2q24 -1 33 -28q12 -34 -18 -55q-18 -13 -47 -16q14 -29 79 -25t93 36q4 12 10 22l45 -13q0 -11 -7.5 -25.5t-9.5 -30.5q5 5 17.5 21t20.5 25t23 16t32 6q46 -4 55 -42t-12 -83t-55 -74l-4 -3q16 -6 21 -6q21 -1 53 26t59 74l17 -5q-17 -52 -57 -89.5t-90 -32.5
q-21 3 -35 12zM96 52q29 18 58 74q27 51 22 79q-5 29 -51 -23l-69 -122zM-144 225q23 -1 41 12q7 6 7.5 19.5t-4.5 20.5q-6 5 -18 0.5t-16 -10.5q-8 -9 -10 -42z" />
    <glyph glyph-name="q_ss002" unicode="&#xe02a;" horiz-adv-x="304" 
d="M175 -4q-28 5 -54 -39t-47.5 -104t-27.5 -68q-43 14 -52 33q-12 28 -1 65t33 76t24 44q-19 10 -26.5 15t-21.5 16t-19.5 25.5t-6.5 33.5q0 25 5 41q-32 -18 -66 -22.5t-62 9t-35 46.5q-1 7 -2 9t-5 4.5l-7 4.5q-14 11 -47 44q-90 88 -177 55q-8 -3 -21 -11q-6 -4 -13 -17
q-5 -7 -10 -20.5t-10 -20.5q-11 -14 -31.5 -12t-33.5 15q-9 9 -13 19l24 -18q41 -16 51 11q1 3 4 13t5.5 17.5t6.5 15t8 9.5q3 2 8.5 8t12.5 10q36 19 56 23q29 5 65 -10q19 -8 37 -24.5t37.5 -40t26.5 -30.5l21 -17q2 3 4.5 17.5t11 26t28.5 14.5q5 0 8.5 2t8.5 2
q24 -1 33 -28q12 -34 -18 -55q-18 -13 -47 -16q13 -24 66.5 -24.5t88.5 21.5q43 68 143 87q45 9 72.5 -2.5t6.5 -53.5q-17 3 -17 7q0 2 1 4q3 3 -2 3q-4 1 -13 0q-8 -1 -40 -21.5t-46 -30.5q-70 -59 -52 -104q20 -50 83 54q17 28 27 50q9 18 12 19h5h7q9 0 12 -3
q10 -3 23 -10q0 -11 -2 -16.5t-7.5 -11.5t-9.5 -12l-41 -88q29 -13 37 -12q22 1 53 27.5t57 72.5l17 -5q-16 -52 -56 -89.5t-90 -32.5zM-170 193q23 -1 41 12q7 6 7.5 19.5t-4.5 20.5q-6 5 -18 0.5t-16 -10.5q-8 -9 -10 -42z" />
    <glyph glyph-name="r_ss002" unicode="&#xe02b;" horiz-adv-x="258" 
d="M26 169l18 31q-30 33 -19.5 57.5t61.5 48.5q14 -6 18 -10t11 -16q-4 -10 -20 -29.5t-19 -38.5q31 -3 56 4.5t39 3.5q20 -4 32 -11.5t7 -16.5q-3 -5 -23 -26q-77 -82 -76 -114q1 -22 29 -29q21 -5 55.5 22.5t62.5 77.5l17 -5q-16 -52 -56 -89.5t-90 -32.5q-40 4 -67.5 33
t-12.5 64q15 37 38 60.5t27 31.5l-56 1l-15 -22q-21 -36 -69.5 -57.5t-93.5 -12t-55 53.5q-1 7 -2 9t-5 4.5l-7 4.5q-14 11 -47 44q-90 88 -177 55q-8 -3 -21 -11q-6 -4 -13 -17q-5 -7 -10 -20.5t-10 -20.5q-11 -14 -31.5 -12t-33.5 15q-9 9 -13 19q3 -2 7 -6t8 -7t9 -5
q41 -16 51 11q1 3 4 13t5.5 17.5t6.5 15t8 9.5q3 2 8.5 8t12.5 10q36 19 56 23q29 5 65 -10q19 -8 37 -24.5t37.5 -40t26.5 -30.5l21 -17q2 3 4.5 17.5t11 26t28.5 14.5q5 0 8.5 2t8.5 2q24 -1 33 -28q12 -34 -18 -55q-18 -13 -47 -16q10 -19 48 -23.5t78 8t53 36.5z
M-163 174q23 -1 41 12q7 6 7.5 19.5t-4.5 20.5q-6 5 -18 0.5t-16 -10.5q-8 -9 -10 -42z" />
    <glyph glyph-name="s_ss002" unicode="&#xe02c;" horiz-adv-x="268" 
d="M43 164q-21 -36 -69.5 -57.5t-93.5 -12t-55 53.5q-1 7 -2 9t-5 4.5l-7 4.5q-14 11 -47 44q-90 88 -177 55q-8 -3 -21 -11q-6 -4 -13 -17q-5 -7 -10 -20.5t-10 -20.5q-11 -14 -31.5 -12t-33.5 15q-9 9 -13 19q3 -2 7 -6t8 -7t9 -5q41 -16 51 11q1 3 4 13t5.5 17.5t6.5 15
t8 9.5q3 2 8.5 8t12.5 10q36 19 56 23q29 5 65 -10q19 -8 37 -24.5t37.5 -40t26.5 -30.5l21 -17q2 3 4.5 17.5t11 26t28.5 14.5q5 0 8.5 2t8.5 2q24 -1 33 -28q12 -34 -18 -55q-18 -13 -47 -16q10 -19 47.5 -23.5t77.5 7.5t53 36l20 32q-30 33 -19.5 57.5t61.5 48.5
q14 -6 18 -10t11 -16q-3 -7 -9 -15t-11 -13.5t-9 -11t-3 -9t8 -6.5q35 -13 53.5 -53t17.5 -81.5t-17 -65.5q20 -9 55.5 18t66.5 80l17 -5q-16 -52 -56.5 -89.5t-90.5 -32.5q-3 1 -8 1q-50 -16 -56 -16q-38 0 -54 36.5t22 61.5q22 8 30.5 6t33.5 -14q7 36 -3.5 75t-43.5 40z
M-163 174q23 -1 41 12q7 6 7.5 19.5t-4.5 20.5q-6 5 -18 0.5t-16 -10.5q-8 -9 -10 -42zM89 30q-3 7 -6.5 13t-8.5 12t-10 4t-9 -13q-6 -17 6 -23.5t28 7.5z" />
    <glyph glyph-name="t_ss002" unicode="&#xe02d;" horiz-adv-x="192" 
d="M35 259l-32 12q-30 -27 -72 -39.5t-78 -0.5t-44 51q-1 7 -2 9t-5 4.5l-7 4.5q-14 11 -47 44q-90 88 -177 55q-8 -3 -21 -11q-6 -4 -13 -17q-5 -7 -10 -20.5t-10 -20.5q-11 -14 -31.5 -12t-33.5 15q-9 9 -13 19l9 -8q8 -7 15 -10q41 -16 51 11q1 3 4 13t5.5 17.5t6.5 15
t8 9.5q3 2 8.5 8t12.5 10q36 19 56 23q29 5 65 -10q19 -8 37 -24.5t37.5 -40t26.5 -30.5l21 -17q2 3 4.5 17.5t11 26t28.5 14.5q5 0 8.5 2t8.5 2q24 -1 33 -28q12 -34 -18 -55q-18 -13 -47 -16q10 -19 47.5 -23.5t77.5 7.5t53 36l1 1v1q10 -2 15 -4h3q23 -5 30 -5
q6 20 38 69q2 4 9 14l10 14.5t7.5 13t7.5 16t4 16.5q35 -2 62 5q0 -42 -2 -60t-5 -25.5t-14.5 -26t-22.5 -41.5l58 6l-8 -42q-26 -7 -80 -7q-34 -52 -60 -125q-38 -106 16 -100q7 1 15 3q51 15 99 98l17 -5q-13 -40 -41 -73t-64 -44q-71 -22 -107 -3q-31 16 -32.5 54
t15 74.5l35.5 77.5t20 55zM-179 308q23 -1 41 12q7 6 7.5 19.5t-4.5 20.5q-6 5 -18 0.5t-16 -10.5q-8 -9 -10 -42z" />
    <glyph glyph-name="u_ss002" unicode="&#xe02e;" horiz-adv-x="296" 
d="M239 216q-1 -4 -7 -14l-16 -28t-17 -38l-10 -28.5t-11 -35.5t-4.5 -37t13.5 -12q22 2 52.5 28.5t56.5 71.5l17 -5q-23 -75 -83 -108q-79 -44 -105 -37q-24 7 -19 47q-19 -28 -54 -35.5t-59.5 15t-15.5 69.5q7 40 42 92l19 31q-32 -19 -67 -25t-64 7.5t-37 47.5q-1 7 -2 9
t-5 4.5l-7 4.5q-14 11 -47 44q-90 88 -177 55q-8 -3 -21 -11q-6 -4 -13 -17q-5 -7 -10 -20.5t-10 -20.5q-11 -14 -31.5 -12t-33.5 15q-9 9 -13 19q3 -2 7 -6t8 -7t9 -5q41 -16 51 11q1 3 4 13t5.5 17.5t6.5 15t8 9.5q3 2 8.5 8t12.5 10q36 19 56 23q29 5 65 -10
q19 -8 37 -24.5t37.5 -40t26.5 -30.5l21 -17q2 3 4.5 17.5t11 26t28.5 14.5q5 0 8.5 2t8.5 2q24 -1 33 -28q12 -34 -18 -55q-18 -13 -47 -16q14 -29 80 -25t93 37l6 10q32 4 41 -2t-4 -30q-67 -112 -73 -179q-2 -28 14 -26q20 3 45 38q7 10 10 18q38 90 67 149q2 3 5.5 11
t5.5 9.5t7 3.5t14 1q21 -3 36 -21zM-118 248q23 -1 41 12q7 6 7.5 19.5t-4.5 20.5q-6 5 -18 0.5t-16 -10.5q-8 -9 -10 -42z" />
    <glyph glyph-name="v_ss002" unicode="&#xe02f;" horiz-adv-x="228" 
d="M153 73q-11 -24 -26.5 -44t-37 -37t-47 -13t-50.5 33q-15 17 -16 45t6 51.5t18 56t14 47.5q-30 -28 -72.5 -41t-79.5 -1.5t-46 50.5q-1 7 -2 9t-5 4.5l-7 4.5q-14 11 -47 44q-90 88 -177 55q-8 -3 -21 -11q-6 -4 -13 -17q-5 -7 -10 -20.5t-10 -20.5q-11 -14 -31.5 -12
t-33.5 15q-9 9 -13 19q3 -2 7 -6t8 -7t9 -5q41 -16 51 11q1 3 4 13t5.5 17.5t6.5 15t8 9.5q3 2 8.5 8t12.5 10q36 19 56 23q29 5 65 -10q19 -8 37 -24.5t37.5 -40t26.5 -30.5l21 -17q2 3 4.5 17.5t11 26t28.5 14.5q5 0 8.5 2t8.5 2q24 -1 33 -28q12 -34 -18 -55
q-18 -13 -47 -16q10 -19 47.5 -24t77 7.5t53.5 35.5v2q6 0 18.5 1t17.5 1h13t8.5 -1.5t5 -3t2 -5t0 -7t-2 -10.5t-3.5 -13.5t-4 -17.5l-4 -22q-22 -131 -10 -144q48 22 62 65q-33 33 -28.5 84.5t41.5 70.5q16 8 24.5 11.5t19 4t15 -8t4.5 -26.5q1 -19 -11 -62t-23 -66
q12 -4 35 2.5t32 28.5l17 -5q-8 -28 -35 -38.5t-57 -6.5zM-172 246q23 -1 41 12q7 6 7.5 19.5t-4.5 20.5q-6 5 -18 0.5t-16 -10.5q-8 -9 -10 -42zM128 106q11 9 20 45.5t9 57.5q-41 -19 -29 -103z" />
    <glyph glyph-name="w_ss002" unicode="&#xe030;" horiz-adv-x="361" 
d="M88 228q-1 -3 -6 -14t-12.5 -30t-12.5 -40q-26 -116 0 -114h2q23 5 50 36q1 30 22 92.5t18 82.5q6 0 18.5 1t17.5 1h13t8.5 -1.5t5 -3t2 -5t0 -7t-2 -10.5t-3.5 -13.5t-4 -17.5l-4 -22q-22 -131 -10 -144q47 21 62 65q-34 33 -29 84.5t43 70.5q15 8 23.5 11.5t19 4
t15.5 -8t5 -26.5q0 -20 -12 -62.5t-23 -65.5q12 -4 35 2.5t32 28.5l17 -5q-8 -28 -34.5 -38.5t-57.5 -6.5q-11 -24 -26.5 -44.5t-36.5 -37t-47 -12.5t-51 33q-6 7 -11 19l-11 -9q-85 -61 -110 -45q-41 26 21 221q-32 -23 -71 -32.5t-71.5 3.5t-40.5 49q-1 7 -2 9t-5 4.5
l-7 4.5q-14 11 -47 44q-90 88 -177 55q-8 -3 -21 -11q-6 -4 -13 -17q-5 -7 -10 -20.5t-10 -20.5q-11 -14 -31.5 -12t-33.5 15q-9 9 -13 19l24 -18q41 -16 51 11q1 3 4 13t5.5 17.5t6.5 15t8 9.5q3 2 8.5 8t12.5 10q36 19 56 23q29 5 65 -10q19 -8 37 -24.5t37.5 -40
t26.5 -30.5l21 -17q2 3 4.5 17.5t11 26t28.5 14.5q5 0 8.5 2t8.5 2q24 -1 33 -28q12 -34 -18 -55q-18 -13 -47 -16q14 -28 78.5 -24.5t92.5 34.5q5 15 25 16q21 2 39 -16zM-157 244q23 -1 41 12q7 6 7.5 19.5t-4.5 20.5q-6 5 -18 0.5t-16 -10.5q-8 -9 -10 -42zM261 106
q11 9 20 45t10 58q-42 -18 -30 -103z" />
    <glyph glyph-name="x_ss002" unicode="&#xe031;" horiz-adv-x="245" 
d="M66 179q-10 -1 -22 -13q-21 -36 -69.5 -58.5t-94 -13.5t-55.5 54q-1 7 -2 9t-5 4.5l-7 4.5q-14 11 -47 44q-90 88 -177 55q-8 -3 -21 -11q-6 -4 -13 -17q-5 -7 -10 -20.5t-10 -20.5q-11 -14 -31.5 -12t-33.5 15q-9 9 -13 19q3 -2 7 -6t8 -7t9 -5q41 -16 51 11q1 3 4 13
t5.5 17.5t6.5 15t8 9.5q3 2 8.5 8t12.5 10q36 19 56 23q29 5 65 -10q19 -8 37 -24.5t37.5 -40t26.5 -30.5l21 -17q2 3 4.5 17.5t11 26t28.5 14.5q5 0 8.5 2t8.5 2q24 -1 33 -28q12 -34 -18 -55q-18 -13 -47 -16q10 -19 47.5 -23.5t77.5 7.5t53 36l5 10q19 39 52 36
q8 -1 13 -4t7.5 -9.5t3.5 -11t2 -15.5t2 -15q11 4 24 17.5t24.5 27.5t13.5 16q19 -11 24.5 -18.5t-2 -23.5t-35.5 -44l-9.5 -9.5l-8.5 -8.5t-6.5 -7.5t-5 -8.5t-2.5 -9t-1 -11.5t1.5 -14.5t2.5 -19t5 -23q22 0 53 27t57 73l17 -5q-16 -52 -56 -89t-90 -33q-20 3 -30 8
q-9 4 -17 17t-14 18q-19 -10 -35 -30.5t-26 -26.5q-12 -7 -18 -3.5t-5 16.5q0 10 17.5 25t38 38.5t26.5 52.5q13 61 13 68zM-163 174q23 -1 41 12q7 6 7.5 19.5t-4.5 20.5q-6 5 -18 0.5t-16 -10.5q-8 -9 -10 -42z" />
    <glyph glyph-name="y_ss002" unicode="&#xe032;" horiz-adv-x="316" 
d="M174 222q12 2 23.5 -1.5t22.5 -3.5l-31 -189q17 -16 55.5 11t71.5 84l16 -5q-16 -52 -56 -89t-90 -33l-11 2q-9 -46 -48 -108q-10 -16 -39 -43.5t-43 -34.5q-11 -5 -68 -15q-56 -8 -68.5 46.5t25.5 100.5q18 23 47.5 35t54.5 15t48 14.5t31 34.5q-4 -2 -18 -8t-19.5 -8
t-17.5 -5.5t-20 -3.5t-18.5 1.5t-19.5 5.5q-18 9 -22 32.5t11 58.5q19 40 43 71q-32 -17 -65.5 -21.5t-61 9.5t-34.5 46q-1 7 -2 9t-5 4.5l-7 4.5q-14 11 -47 44q-90 88 -177 55q-8 -3 -21 -11q-6 -4 -13 -17q-5 -7 -10 -20.5t-10 -20.5q-11 -14 -31.5 -12t-33.5 15
q-9 9 -13 19l24 -18q41 -16 51 11q1 3 4 13t5.5 17.5t6.5 15t8 9.5q3 2 8.5 8t12.5 10q36 19 56 23q29 5 65 -10q19 -8 37 -24.5t37.5 -40t26.5 -30.5l21 -17q2 3 4.5 17.5t11 26t28.5 14.5q5 0 8.5 2t8.5 2q24 -1 33 -28q12 -34 -18 -55q-18 -13 -47 -16q14 -29 79 -24.5
t93 36.5l7 11q7 -1 15 -5h3l-1 -1q5 -2 22 -20q-3 -13 -30.5 -69.5t-27.5 -82.5q-1 -29 39 -3q19 13 26 22q17 25 36 81zM-45 -158q65 -7 91 37q33 54 41 93q-4 0 -17 -1.5t-19 -2t-18 -2.5t-19 -4t-16 -5t-16 -7.5t-12 -9.5q-44 -48 -15 -98zM-115 247q23 -1 41 12
q7 6 7.5 19.5t-4.5 20.5q-6 5 -18 0.5t-16 -10.5q-8 -9 -10 -42z" />
    <glyph glyph-name="z_ss002" unicode="&#xe033;" horiz-adv-x="314" 
d="M43 164q-21 -36 -69.5 -57.5t-93.5 -12t-55 53.5q-1 7 -2 9t-5 4.5l-7 4.5q-14 11 -47 44q-90 88 -177 55q-8 -3 -21 -11q-6 -4 -13 -17q-5 -7 -10 -20.5t-10 -20.5q-11 -14 -31.5 -12t-33.5 15q-9 9 -13 19q3 -2 7 -6t8 -7t9 -5q41 -16 51 11q1 3 4 13t5.5 17.5t6.5 15
t8 9.5q3 2 8.5 8t12.5 10q36 19 56 23q29 5 65 -10q19 -8 37 -24.5t37.5 -40t26.5 -30.5l21 -17q2 3 4.5 17.5t11 26t28.5 14.5q5 0 8.5 2t8.5 2q24 -1 33 -28q12 -34 -18 -55q-18 -13 -47 -16q10 -19 47.5 -23.5t77.5 7.5t53 36q37 57 75 55q31 3 55 -12.5t19 -46.5
q-6 -40 -47 -70h71l-10 -66q17 -16 55 11t71 84l17 -5q-16 -52 -56 -89t-91 -33l-10 2q-9 -46 -48 -108q-11 -17 -39.5 -44t-42.5 -34q-11 -5 -68 -15q-57 -8 -69 46.5t26 100.5q19 24 48.5 36t54 15t47 14t30.5 33q0 1 2 9h-47q0 1 -4.5 5.5t-10.5 9.5t-7 6q3 6 20 29
q53 72 43 89q-5 8 -19 8q-19 0 -47 -34zM-46 -158q64 -7 91 37q33 54 41 93q-2 0 -19.5 -2t-23 -2.5t-20.5 -3t-22.5 -5.5t-16.5 -8t-15 -11q-44 -48 -15 -98zM-163 174q23 -1 41 12q7 6 7.5 19.5t-4.5 20.5q-6 5 -18 0.5t-16 -10.5q-8 -9 -10 -42z" />
    <glyph glyph-name="_0000" unicode="&#xe034;" horiz-adv-x="279" 
d="M0 71v2t1 2l16 19l7 12t6 10q3 6 7 12t5.5 8.5l4 7t3.5 8.5l3 12q7 34 5 51q-6 43 10 104q10 42 53.5 66t79.5 10l25 -11q49 -21 52 -61q0 -28 -5 -39q-1 -2 -3.5 -8t-4.5 -10t-7 -10t-14 -12t-21 -11q-1 0 -11.5 -6t-19.5 -5t-21 10q-20 20 -20 44t17 44t39 19
q1 0 4 -0.5t6 -0.5l3 -1q6 -4 7 -9q-19 8 -31 -3t-16 -34q-2 -17 -1 -21q9 -8 31 -11q15 0 29 20q7 8 5.5 26t-10.5 34.5t-27 24.5t-44 -3q-14 -7 -34 -24t-21 -29l-5 -20t-4.5 -21.5t-0.5 -23.5q1 -11 0.5 -11.5t-2 -5.5t-1.5 -17q0 -4 -3.5 -14.5t-4.5 -16.5
q-2 -16 -7.5 -26.5t-14 -19.5t-10.5 -13q-38 -52 -55 -48z" />
    <glyph glyph-name="_0001" unicode="&#xe035;" horiz-adv-x="327" 
d="M229 110q4 8 14 12l-4 -12q20 -13 34 -14q20 0 33 15q8 11 10 39q0 16 -3 23t-15 9q-14 4 -33 -13q-43 -38 -90 -59q-33 -14 -85 -14q-43 -1 -69 29q-12 14 -18 31.5t0.5 36t27.5 28.5q11 6 16 6h10q4 -2 7 -7q-23 0 -29 -4q-13 -10 -12 -26l9 -8q8 -9 18.5 -18.5
t14.5 -12.5q27 -19 66 -17q37 2 89 36q8 4 11 8q2 2 14 9q16 10 22 11.5t25 0.5q5 0 17 -6q13 -9 16 -25q5 -26 -5 -52t-37 -32q-18 -4 -35 4t-19 22z" />
    <glyph glyph-name="_0002" unicode="&#xe036;" horiz-adv-x="768" 
d="M263 143q33 0 43 22q7 15 1 14q-4 4 -13.5 0t-19 -14t-11.5 -22zM270 130q13 -26 49 -17q14 4 40 30q68 68 134 98t153 11q55 -12 90 -48q34 -35 11 -71q-20 -31 -61.5 -40.5t-51.5 14.5q-15 33 10.5 48.5t42.5 6.5q5 -2 7 -11l-31 -13q-3 -4 3 -13q11 -21 34 -7
q24 15 17 42q-2 7 -6 13q-24 37 -95 53q-20 7 -43.5 4.5t-40 -4.5t-37.5 -12t-35 -18t-33 -22.5t-31.5 -25.5l-30.5 -27q-24 -22 -58.5 -26t-48.5 12l-15 21q-3 4 -19.5 8.5t-37 9t-29.5 7.5q-72 27 -118 -29q-7 -9 -8 -11v-1q-3 1 -21 -9q5 27 34.5 48t61.5 22
q22 1 64 -13.5t67 -15.5q-3 19 5 33q9 12 22 19q11 6 19.5 8t13 1t14.5 -4.5t17 -5.5q0 -26 -12 -39.5t-28.5 -19t-17.5 -6.5z" />
    <glyph glyph-name="_0003" unicode="&#xe037;" horiz-adv-x="445" 
d="M265 132l-10 12l-23 -36h21q1 3 4 7t5 8t3 9zM280 279q13 -7 17 -6.5t7 -2.5q2 -1 3.5 -4t7.5 -6q9 -3 24.5 1t25.5 4q34 0 58.5 -25.5t20.5 -50.5q-3 -20 -19 -17q1 7 3.5 15.5t2.5 12t-3.5 9.5t-13.5 13q-24 18 -63 6q-50 -16 -84 -68q1 -3 5 -11.5t6.5 -14.5
t1.5 -15.5t-8 -17.5q-9 -11 -25.5 -14t-26.5 8.5t-3 37.5q2 7 6 14.5t3 11.5q-34 10 -116 -37q-20 -11 -48 -32q-25 -19 -41 -41l-21 2q2 5 20 24.5t24 24.5q22 20 53 43q80 56 142 37l5 6q9 14 18.5 25t10.5 12l-2 3q0 1 -1 2l-12 20q3 5 4 5q2 1 4 3q-9 11 14 23z" />
    <glyph glyph-name="_0004" unicode="&#xe038;" horiz-adv-x="254" 
d="M233 128q-1 2 -2.5 3t-3 1t-4.5 -0.5t-6 -0.5q-8 -20 -7 -38q13 0 19.5 8t5 16t-1.5 11zM0 42q6 17 16 30t28 29t20 18l26.5 23t27.5 20t32 14.5t34 2t38 -10.5q17 -8 23 -22.5t8 -42.5q1 -14 -1 -20t-11 -11t-13 -9q-19 -18 -39.5 -3.5t-17.5 42.5q1 5 2 9.5t3 8
t4.5 6.5t5 5t6 4t6 3t6.5 2l6 1.5t6.5 1.5t5.5 1q-22 22 -60.5 16t-66.5 -34q-5 -6 -13.5 -11.5t-12.5 -8.5q-7 -7 -25 -26.5t-26 -25.5q-2 -1 -6 -5q-5 -5 -12 -7z" />
    <glyph glyph-name="_0007" unicode="&#xe039;" horiz-adv-x="373" 
d="M323 165q-18 -9 -23 -29q-5 -17 15 -16q7 1 17 4q17 6 24.5 11t6 16t-18.5 28q-26 26 -87 16q-16 -2 -32 -8t-25.5 -11l-28 -15.5l-25.5 -14.5q-13 -7 -22 -13t-18.5 -14l-13 -11t-16.5 -16.5l-18 -18.5q-9 -9 -15 -19t-10.5 -14t-14.5 -5q-19 -4 -18 2l2 3q0 9 37 68
l8 11.5l7 9.5t8.5 9.5l8 8t9 8t8.5 7t10 8t9 7.5q9 6 15 11q38 31 93 45t107 -4q46 -20 49.5 -68t-43.5 -53q-28 -3 -38.5 7.5t4.5 39.5q15 26 42 16q20 -6 16 -21q0 -1 -1 -2l-6 2v1q2 3 -4 9q-7 7 -18 5z" />
    <glyph glyph-name="_0009" unicode="&#xe03a;" horiz-adv-x="330" 
d="M57 71q2 0 4 1q2 0 3 2l2 4q8 12 12 34q15 72 59.5 100t113.5 2q15 -5 40 -20q27 -15 39 -19q0 -8 -6 -21q-8 0 -34.5 9.5t-47.5 12.5q-48 9 -89 -10q-21 -9 -32 -24t-19 -34.5t-17 -30.5q-19 -28 -20 -32q-28 -8 -41 -5q-16 4 -22 18t4 29.5t36 19.5q11 -11 11 -13
t-13 -25q0 2 5 11t0 13q-9 3 -22 -8q-9 -9 -6 -28q11 -3 24 0.5t16 13.5z" />
    <glyph glyph-name="_0014" unicode="&#xe03b;" horiz-adv-x="589" 
d="M207 106q-23 1 -41 -12q-7 -6 -7.5 -19.5t4.5 -20.5q6 -5 18 -0.5t16 10.5q8 9 10 42zM18 111l-18 3q21 36 69.5 58.5t94 13.5t55.5 -54q1 -7 2 -9t5 -4.5l7 -4.5q14 -11 47 -44q90 -88 177 -55q8 3 21 11q6 4 13 17q5 7 10 20.5t10 20.5q11 14 31.5 12t33.5 -15
q9 -9 13 -19l-24 18q-41 16 -51 -11q-1 -3 -4 -13t-5.5 -17.5t-6.5 -15t-8 -9.5q-3 -2 -8.5 -8t-12.5 -10q-36 -19 -56 -23q-29 -5 -65 10q-19 8 -37 24.5t-37.5 40t-26.5 30.5l-21 17q-2 -3 -4.5 -17.5t-11 -26t-28.5 -14.5q-5 0 -8.5 -2t-8.5 -2q-24 1 -33 28
q-12 34 18 55q18 13 47 16q-10 19 -48 23.5t-78 -8t-53 -36.5z" />
    <glyph glyph-name="_0015" unicode="&#xe03c;" horiz-adv-x="589" 
d="M382 267q23 -1 41 12q7 6 7.5 19.5t-4.5 20.5q-6 5 -18 0.5t-16 -10.5q-8 -9 -10 -42zM571 262l18 -3q-21 -36 -69.5 -58.5t-94 -13.5t-55.5 54q-1 7 -2 9t-5 4.5l-7 4.5q-14 11 -47 44q-90 88 -177 55q-8 -3 -21 -11q-6 -4 -13 -17q-5 -7 -10 -20.5t-10 -20.5
q-11 -14 -31.5 -12t-33.5 15q-9 9 -13 19l24 -18q41 -16 51 11q1 3 4 13t5.5 17.5t6.5 15t8 9.5q3 2 8.5 8t12.5 10q36 19 56 23q29 5 65 -10q19 -8 37 -24.5t37.5 -40t26.5 -30.5l21 -17q2 3 4.5 17.5t11 26t28.5 14.5q5 0 8.5 2t8.5 2q24 -1 33 -28q12 -34 -18 -55
q-18 -13 -47 -16q10 -19 48 -23.5t78 8t53 36.5z" />
    </font>
</defs>
</svg>
