<?xml version="1.0" standalone="no"?>
<!DOCTYPE svg PUBLIC "-//W3C//DTD SVG 1.1//EN" "http://www.w3.org/Graphics/SVG/1.1/DTD/svg11.dtd" >
<svg>
<metadata>
Created by FontForge 20090622 at Sat May 21 23:07:30 2016
 By deploy user
Copyright (c) 2016 by Ferdiansyah_ijemrockart. All rights reserved.
</metadata>
<defs>
<font id="MarisaScript" horiz-adv-x="373" >
  <font-face 
    font-family="Marisa Script"
    font-weight="400"
    font-stretch="normal"
    units-per-em="1000"
    panose-1="2 0 5 5 0 0 0 2 0 4"
    ascent="800"
    descent="-200"
    x-height="221"
    cap-height="692"
    bbox="-1499.03 -447 2451.24 910.4"
    underline-thickness="50"
    underline-position="-50"
    unicode-range="U+000D-U+E255"
  />
<missing-glyph horiz-adv-x="248" 
 />
    <glyph glyph-name="t_t" unicode="tt" horiz-adv-x="452" 
d="M60 289l-107 2q-12 0 -14 10q1 9 12 10l126 2q6 9 33 45q6 7 55 6q43 -2 39 -15l-20 -34l125 2l27 41q6 7 55 6q43 -2 39 -15l-18 -31l59 3q12 0 16.5 -10t-1 -20t-16.5 -10l-78 2q-135 -236 -91 -249q5 -2 14 0q39 8 137 74h29q-19 -29 -64.5 -63.5t-86.5 -49.5
q-34 -16 -84 -5t-58 52q-47 -35 -84 -47q-26 -7 -56.5 -8.5t-56.5 15t-30 47.5q-8 61 99 240zM89 34q37 7 100 49q15 64 100 202l-121 2q-135 -236 -95 -253q6 -2 16 0z" />
    <glyph glyph-name="f_r" unicode="fr" horiz-adv-x="709" 
d="M454 405q-2 -44 -42.5 -95t-86 -85.5t-91.5 -60.5q36 -56 26 -141q143 33 183 191q-18 16 -23 40t6 44q15 24 40 25.5t36 -25.5q8 -27 -7 -63q18 -16 57 -23q26 11 51 -1t26 -29q-1 -3 -10 -21q-59 -120 -26 -120q9 0 25 8q27 14 91 59h29q-12 -19 -45 -47.5t-69 -46.5
q-77 -37 -109 -17.5t-27.5 72.5t40.5 108q-19 5 -54 21q-17 -75 -80 -139.5t-140 -76.5q-27 -123 -111 -180q-62 -43 -112 -22q-53 23 -42 103l4 21q9 41 40 122q-28 28 -31 64.5t12.5 65.5t44 47.5t58.5 14.5l17.5 35.5t21.5 42l22 39.5t26.5 42t28 33.5t33.5 30.5t36 19
q50 20 101 4t51 -59zM223 180q9 8 51.5 43.5t67.5 58.5t49 58.5t24 64.5q0 20 -14.5 25t-32 -2.5t-29.5 -20.5q-45 -48 -127 -216zM96 -110q-12 -55 11 -50q26 6 68 66q32 45 36 71q-51 -9 -86 9q-22 -65 -29 -96zM139 23q29 -21 82 -5q7 29 1 72.5t-25 67.5
q-30 -65 -58 -135zM104 192q-24 3 -44 -22.5t-22.5 -54t12.5 -46.5q22 58 54 123z" />
    <glyph glyph-name=".notdef" horiz-adv-x="248" 
 />
    <glyph glyph-name=".null" horiz-adv-x="0" 
 />
    <glyph glyph-name="nonmarkingreturn" horiz-adv-x="333" 
 />
    <glyph glyph-name="NULL" horiz-adv-x="0" 
 />
    <glyph glyph-name="NULL" horiz-adv-x="0" 
 />
    <glyph glyph-name="CR" unicode="&#xd;" horiz-adv-x="248" 
 />
    <glyph glyph-name="space" unicode=" " horiz-adv-x="248" 
 />
    <glyph glyph-name="exclam" unicode="!" horiz-adv-x="246" 
d="M153 431q8 15 28.5 18t36.5 -6.5t12 -25.5q-16 -52 -48.5 -137.5t-56.5 -135.5q-9 -17 -29.5 -21t-36 6t-11.5 29q14 50 48 138t57 135zM73 6q-9 -11 -32.5 -4t-24.5 20q-2 28 16 46q9 10 32 1.5t23 -20.5q2 -22 -14 -43z" />
    <glyph glyph-name="quotedbl" unicode="&#x22;" horiz-adv-x="171" 
d="M28 404q0 2 0.5 11.5t0 15t-1.5 12.5t-4 11.5t-8 6.5l22 92l49 -15q-3 -9 -9 -33.5t-11 -40.5t-15 -34t-23 -26zM98 404q0 2 0.5 11.5t0 15t-1.5 12.5t-4 11.5t-8 6.5l22 92l49 -15q-3 -9 -9 -33.5t-11 -40.5t-15 -34t-23 -26z" />
    <glyph glyph-name="numbersign" unicode="#" horiz-adv-x="322" 
d="M245 176q-16 -48 -20 -62q2 0 5.5 -0.5t5.5 -0.5l8 -1q8 -1 11.5 -2t9.5 -3t8.5 -5.5t2.5 -8.5t-2.5 -8.5t-8.5 -5.5t-9.5 -3t-11.5 -2t-9 -1q-3 0 -10.5 -0.5t-11.5 -0.5q-4 -16 -7 -24q-9 -42 -24 -42q-6 0 -9.5 3.5t-4.5 10.5t-1.5 12t0 13.5t0.5 9.5l3 16h-76l-9 -31
q0 -1 -1 -4t-2 -5t-2 -5.5t-2 -5.5t-2.5 -5.5t-3 -5t-3.5 -4t-4 -3t-5 -1.5t-5 0q-15 4 -9 48q2 16 4 25q-33 0 -35 16q0 16 31 21q8 2 11 2q3 15 14 64h-12q-1 0 -7 0.5t-9 0.5t-8 1.5t-8 3t-6 4.5t-3 7t1 7t4 5t5.5 3.5t8 2.5t7.5 1.5t8 1.5l6 1l24 3q10 32 16 46
q16 36 32 28q4 -2 6.5 -5.5t2.5 -8.5v-8t-1.5 -9.5t-1.5 -8.5q-2 -8 -7 -32q27 1 81 -1l15 41q4 12 8.5 17t14.5 5q8 0 12 -4.5t4 -12t-1 -14.5q-1 -11 -7 -35q6 0 8 -1q42 -4 43 -20q-1 -16 -44 -19q-3 0 -9 -0.5t-9 -0.5zM105 116q36 3 74 0q7 33 16 59h-77z" />
    <glyph glyph-name="dollar" unicode="$" horiz-adv-x="392" 
d="M322 553q41 -23 52.5 -69t-14 -82t-78.5 -32l-14.5 -49.5t-17.5 -56.5q54 -36 83.5 -86t27.5 -94.5t-47.5 -74.5t-130.5 -28q-15 -46 -25 -55q-5 -5 -33.5 -2.5t-28.5 7.5q-2 9 -1 32.5t3 34.5q-46 11 -66.5 53.5t-14.5 92.5q1 4 3.5 13t7 21t10.5 18.5t12 2.5
q2 -5 1 -14t-3 -24.5t-2 -19.5q0 -36 14 -65.5t45 -37.5q5 23 14.5 70.5l17 85.5t15.5 66q-32 23 -56 59t-36.5 74.5t-8.5 76t23 65t63 39.5t107 2l5 14q1 3 10.5 7t19.5 6l22.5 4.5t14.5 3.5q6 1 8.5 -3.5t2.5 -14t-0.5 -14t-1.5 -10.5zM175 322q8 25 24.5 101t29.5 113
q-49 -3 -71 -44.5t-15.5 -91.5t32.5 -78zM195 25q110 25 41 165q-1 -18 -8.5 -47.5t-19 -69t-13.5 -48.5zM284 388q48 21 57.5 55.5t-29.5 67.5q-5 -17 -12.5 -56.5t-15.5 -66.5z" />
    <glyph glyph-name="percent" unicode="%" horiz-adv-x="472" 
d="M418 522q2 -7 -2 -14q-5 -13 -147 -209l-201 -276q-35 -48 -48.5 -39t15.5 61q54 89 190 274.5t177 203.5q13 8 16 -1zM127 375q-31 7 -47 32t-14 55.5t14 60.5t38.5 50.5t58.5 21.5q45 0 45 -7q0 -6 -21 -17q-32 -19 -45 -68.5t5 -80.5q16 -26 42 -9q24 16 36.5 67.5
t-0.5 79.5q-9 20 -9 21q0 6 9 4q11 -3 18 -19q18 -39 5 -98t-47 -84q-33 -22 -88 -9zM380 214q10 -2 18 -20q18 -38 5 -97.5t-47 -83.5q-33 -22 -87 -9q-51 12 -60.5 65.5t23 102.5t86.5 51q44 2 45 -6q0 -5 -21 -18q-31 -18 -44.5 -68t4.5 -81q16 -27 42 -8
q24 16 36.5 67.5t-0.5 78.5q-9 20 -9 22q0 6 9 4z" />
    <glyph glyph-name="ampersand" unicode="&#x26;" horiz-adv-x="710" 
d="M529 104q66 -59 134 -79q46 -14 26 -47q-20 -32 -73 -47q-32 -9 -59 -3q-36 7 -75.5 32.5t-61.5 46.5q-220 -161 -330 -82q-74 53 -75 190q-1 127 56 229q40 72 93 92q-1 95 33.5 163.5t102.5 94.5q65 26 110.5 19t76 -32t40.5 -66t5.5 -83t-29.5 -84t-65 -69
q-61 -30 -65 -12q0 3 9.5 9.5t22 14t16.5 10.5q64 58 69 150q3 71 -32 100q-41 34 -98 -35l-6 -8q-33 -42 -33.5 -112.5t23.5 -140t64.5 -132t85.5 -93.5q33 36 53 70.5t42 91.5q20 50 23 51q18 -4 7 -58q-19 -95 -90 -181zM166 403q-44 -24 -72 -131q-34 -127 -7 -223
q31 -114 136 -95q68 12 162 82q-72 49 -141.5 165.5t-77.5 201.5z" />
    <glyph glyph-name="quotesingle" unicode="'" horiz-adv-x="101" 
d="M28 404q0 2 0.5 11.5t0 15t-1.5 12.5t-4 11.5t-8 6.5l22 92l49 -15q-3 -9 -9 -33.5t-11 -40.5t-15 -34t-23 -26z" />
    <glyph glyph-name="parenleft" unicode="(" horiz-adv-x="340" 
d="M130 -169q-76 51 -101.5 174t-4.5 249.5t75.5 233t123.5 130.5q62 21 91 12q27 -9 -17 -48q-96 -85 -143 -194.5t-44.5 -209t29 -182.5t69.5 -133q3 -7 -33 -21.5t-45 -10.5z" />
    <glyph glyph-name="parenright" unicode=")" horiz-adv-x="340" 
d="M210 642q76 -51 101.5 -174t4.5 -249.5t-75.5 -233t-123.5 -130.5q-62 -21 -91 -12q-27 9 17 48q96 85 143 194.5t44.5 209t-29 182.5t-69.5 133q-3 7 33 21.5t45 10.5z" />
    <glyph glyph-name="asterisk" unicode="*" horiz-adv-x="191" 
d="M181 597v-27h-51l36 -37l-19 -19l-37 35v-50h-29v50l-35 -35l-21 19l35 37h-50v27h50l-34 36l20 20l35 -34v48h29v-50l35 36l21 -20l-36 -36h51z" />
    <glyph glyph-name="plus" unicode="+" horiz-adv-x="224" 
d="M175 308q1 0 5.5 -0.5t6.5 -0.5t5.5 -0.5t5.5 -1.5t4.5 -2.5t3.5 -4t2 -5.5q1 -11 -7 -16t-21 -8q-21 -5 -40 -8q-1 -23 -5 -53q-5 -32 -20 -32q-17 0 -19 32q-1 7 -1.5 15t-1 18.5t-0.5 15.5q-23 -2 -45 0q-1 0 -6.5 1t-8 1t-6.5 1.5t-6 3t-4 4.5t-2 7q0 15 31 22
q41 6 49 6q2 28 4 42q5 31 20 31q3 0 5.5 -1t4 -2t3 -3.5t2.5 -4.5t1.5 -5.5t1 -5t1 -5.5t0.5 -5q2 -22 2 -37q6 0 18 0.5t17 0.5z" />
    <glyph glyph-name="comma" unicode="," horiz-adv-x="102" 
d="M36 -58q0 47 -13 57q-8 7 -8 16q0 28 16 46q9 10 32 1.5t24 -20.5q0 -64 -51 -100z" />
    <glyph glyph-name="hyphen" unicode="-" horiz-adv-x="236" 
d="M191 239q-84 -9 -142 2q-22 5 -30 14t1 16.5t32 8.5q102 6 141 -2q19 -5 25.5 -13.5t-1.5 -16t-26 -9.5z" />
    <glyph glyph-name="period" unicode="." horiz-adv-x="103" 
d="M72 6q-9 -11 -32 -4t-25 20q0 28 16 46q9 10 32 1.5t24 -20.5q1 -8 -4 -22t-11 -21z" />
    <glyph glyph-name="slash" unicode="/" horiz-adv-x="356" 
d="M338 549q3 -6 0 -14q-5 -19 -275 -530q-13 -25 -25 -37t-17.5 -9.5t-4.5 19.5t11 44q40 94 148.5 298t146.5 228q12 9 16 1z" />
    <glyph glyph-name="zero" unicode="0" 
d="M300 437q23 -7 37 -40q21 -57 19.5 -126t-30.5 -138.5t-74 -101.5q-50 -31 -103 -25t-89 44q-33 36 -41 98t6.5 122t52 111t86.5 67q14 4 37 6.5t44 0t22 -12.5q0 -10 -44 -34q-64 -38 -90 -138.5t10 -163.5q31 -52 84 -17q48 33 73.5 137.5t-0.5 159.5q-19 38 -19 42
q1 12 19 9z" />
    <glyph glyph-name="one" unicode="1" horiz-adv-x="331" 
d="M214 460q13 10 37.5 9t46.5 -12t17 -23q-151 -343 -211 -420q-6 -6 -40 -17q-52 -16 -49 15q1 9 7 22l71.5 153l75.5 162q-65 -62 -71 -67q-21 -18 -34 -7q-11 8 2 28q19 27 75 82t73 75z" />
    <glyph glyph-name="two" unicode="2" horiz-adv-x="472" 
d="M385 43q27 8 34 0t-2 -20.5t-20 -15.5q-37 -16 -125.5 -9t-146 17.5t-82.5 -2.5q-2 -2 -4.5 -5.5t-5 -5t-6.5 -1.5q-13 1 -11 21q2 15 15.5 25.5t29.5 11.5q19 16 55 49.5l89.5 86.5t91 104t36.5 78q0 23 -29 28.5t-62.5 -5.5t-45.5 -28q-14 -18 -12 -39t22 -27
q13 -3 21 6.5t11 23.5q5 14 12 16t11.5 -4.5t3.5 -12.5q1 -31 -17.5 -51t-48.5 -15q-38 6 -51.5 39t2.5 67q20 47 87.5 70.5t132.5 18.5q127 -9 68 -136q-44 -94 -158 -203q-53 -51 -84 -68q153 -31 189 -14z" />
    <glyph glyph-name="three" unicode="3" horiz-adv-x="351" 
d="M90 415q43 52 124 47q72 -4 106 -47q32 -42 1 -96q-21 -39 -84 -66q40 -17 59 -55.5t14 -78.5t-40.5 -74.5t-96.5 -43.5q-39 -6 -71.5 2t-51.5 25t-28.5 38.5t-4 44t23.5 40.5q12 12 23.5 7.5t-1.5 -24.5q-25 -38 9 -70.5t80 -18.5t56 54t-12 80.5t-60 59.5q-26 -5 -31 4
q-4 11 20 24t56 32t43 41q14 29 -1.5 52.5t-43 22.5t-55.5 -28q-28 -34 -7 -47q15 -8 24 1q16 11 22 1.5t-3 -22.5q-16 -23 -51 -16q-36 6 -40 43.5t21 67.5z" />
    <glyph glyph-name="four" unicode="4" horiz-adv-x="346" 
d="M256 334q30 39 45.5 31.5t22.5 -27t6 -25.5q-14 -28 -56 -137t-63 -145q-7 -11 -39 -29q-49 -27 -46 12q1 13 9 34q7 16 29 78.5l26 73.5q-12 -3 -18.5 -4t-35 -6.5t-47 -6.5t-40 -1t-29.5 7t-2 20q46 89 151 225q15 19 54 31q43 14 40 -14q-1 -14 -16 -39l-120 -183
q70 11 80 12q26 61 49 93z" />
    <glyph glyph-name="five" unicode="5" horiz-adv-x="400" 
d="M360 465q16 -3 22 -11.5t0 -17t-21 -10.5q-47 -7 -132 -5l-32 -72.5t-35 -75.5q11 3 46 7q68 6 101.5 -21.5t32 -69.5t-21 -85t-49.5 -70q-24 -20 -71 -31.5t-92.5 -9t-73.5 30.5t-15 77q4 15 14 18.5t17 -5t3 -22.5q-12 -44 36 -50q48 -7 98 23q18 11 28 24
q41 54 43 104q3 48 -42 46q-5 0 -11 -1q-12 -2 -30.5 -7l-30 -8t-14.5 -2q-16 -2 -49 10t-28 23l38.5 78t49.5 90q-3 1 -9 1q-14 3 -14.5 19.5t13.5 20.5q28 4 115.5 4.5t113.5 -2.5z" />
    <glyph glyph-name="six" unicode="6" horiz-adv-x="419" 
d="M17 100q-6 45 14 104.5t57 113t86 96t101 53.5t103 -15q29 -18 25 -33t-40 -5q-39 12 -87 -20t-84.5 -83.5t-59.5 -108.5t-19 -93q7 -47 39 -58.5t69 17.5q21 17 33 55.5t6.5 71t-31.5 32.5q-8 0 -28.5 -6t-32 -8t-19.5 5q-3 15 26.5 31t49.5 19q54 7 75.5 -40.5
t7.5 -109t-51 -93.5q-41 -34 -94.5 -35.5t-95.5 29.5t-50 81z" />
    <glyph glyph-name="seven" unicode="7" horiz-adv-x="378" 
d="M322 465q20 2 32 -12t7 -34q-13 -36 -94 -159q3 0 8.5 -0.5t7.5 -0.5q16 -4 22 -24.5t-18 -31.5q-13 -4 -62 -6l-82 -122q-28 -59 -83 -76q-35 -11 -43 5q-2 3 -1 8q13 59 93 189q-5 0 -8 1q-17 4 -24 16t0 23.5t25 15.5q13 2 45 4l82 134q-108 -16 -138 -19
q-8 -1 -16.5 11t-8 26t15.5 18q35 6 123 17.5t117 16.5z" />
    <glyph glyph-name="eight" unicode="8" horiz-adv-x="369" 
d="M109 265q-45 67 9.5 132t132.5 72q41 4 69.5 -16t32.5 -61q3 -33 -9 -68t-26.5 -58t-39.5 -57q26 -51 12 -95.5t-57 -80.5q-24 -19 -67 -32t-87 -7t-57 41q-20 49 11.5 126.5t75.5 103.5zM162 77q25 23 35.5 41.5t4 35.5t-14 27.5t-29 30.5t-30.5 30q-21 -24 -46 -87
t-14 -92q5 -14 17.5 -17t28 3t27.5 13.5t21 14.5zM254 239q4 10 16 33t17.5 36t10.5 34t3 40q-2 24 -9.5 33t-27.5 8q-37 0 -55.5 -28t-7.5 -72t53 -84z" />
    <glyph glyph-name="nine" unicode="9" horiz-adv-x="392" 
d="M307 450q82 -39 68 -153q-12 -102 -88 -196q-81 -99 -172 -105q-38 -3 -73 14q-30 14 -26.5 29t37.5 8q53 -12 114.5 54t91 154.5t0.5 131.5q-16 23 -41.5 23t-51.5 -23q-26 -25 -30 -75.5t21 -70.5q13 -10 48 3.5t40 3.5q4 -11 -14.5 -26t-45 -20.5t-53.5 8.5
q-49 33 -48 102.5t45 113.5q34 33 86 39t92 -15z" />
    <glyph glyph-name="colon" unicode=":" horiz-adv-x="103" 
d="M72 6q-9 -11 -32 -4t-25 20q0 28 16 46q9 10 32 1.5t24 -20.5q1 -8 -4 -22t-11 -21zM72 241q-9 -11 -32 -4t-25 20q0 28 16 46q9 10 32 1.5t24 -20.5q1 -8 -4 -22t-11 -21z" />
    <glyph glyph-name="semicolon" unicode=";" horiz-adv-x="116" 
d="M85 241q-9 -11 -32 -4t-25 20q0 28 16 46q9 10 32 1.5t24 -20.5q1 -8 -4 -22t-11 -21zM36 -58q0 47 -13 57q-8 7 -8 16q0 28 16 46q9 10 32 1.5t24 -20.5q0 -64 -51 -100z" />
    <glyph glyph-name="less" unicode="&#x3c;" horiz-adv-x="355" 
d="M248 438q80 34 91 11t-63 -68q-28 -15 -83 -41.5l-70 -33.5q106 -59 142 -89q80 -74 52 -96q-9 -5 -25.5 2.5t-38.5 24t-25 18.5q-21 13 -103 53t-100 58q-12 14 -9 34t18 29q45 26 214 98z" />
    <glyph glyph-name="equal" unicode="=" horiz-adv-x="211" 
d="M166 315q-68 -7 -117 2q-22 5 -30 14t1 16.5t32 8.5q83 4 116 -2q19 -5 25.5 -13.5t-1.5 -16t-26 -9.5zM166 239q-68 -7 -117 2q-22 5 -30 14t1 16.5t32 8.5q83 4 116 -2q19 -5 25.5 -13.5t-1.5 -16t-26 -9.5z" />
    <glyph glyph-name="greater" unicode="&#x3e;" horiz-adv-x="355" 
d="M107 154q-80 -34 -91 -11t63 68q28 15 83 41.5l70 33.5q-106 59 -142 89q-80 74 -52 96q9 5 25.5 -2.5t38.5 -24t25 -18.5q21 -13 103 -53t100 -58q12 -14 9 -34t-18 -29q-45 -26 -214 -98z" />
    <glyph glyph-name="question" unicode="?" horiz-adv-x="288" 
d="M257 415q49 -96 -64 -179l-13.5 -10t-12.5 -9t-10 -8t-10 -10l-8 -10.5t-9 -13.5t-8 -16q-10 -23 -20.5 -35.5t-18.5 -13t-14.5 4.5t-10.5 13.5t-5 17.5q-8 56 80 126q73 59 44 117q-9 16 -32.5 22t-47.5 1q-53 -12 -39 -50q2 -4 6.5 -11.5l8 -13.5t7 -14.5t4 -13
t-2.5 -8.5q-9 -7 -31 14.5t-24 30.5q-19 41 -1.5 68.5t59.5 38.5q45 15 99.5 4.5t73.5 -42.5zM81 6q-9 -11 -32 -4t-25 20q0 28 16 46q9 10 32 1.5t24 -20.5q1 -8 -4 -22t-11 -21z" />
    <glyph glyph-name="at" unicode="@" horiz-adv-x="747" 
d="M92 30q-54 38 -70.5 104t6.5 137t68.5 136.5t119 111.5t154.5 53q114 11 216 -22t130 -102q24 -72 9.5 -142.5t-65.5 -123.5t-115 -57q-96 -7 -122 61q-63 -34 -98 -42q-120 -28 -152 43q-25 54 15 130q38 74 104 98q27 10 54 9q78 -5 113 -71q9 20 17 30.5t15 7.5l5 -2
q4 -2 10 -4.5t11.5 -6t8.5 -8.5t2 -10q-4 -19 -14.5 -61.5l-12.5 -50.5q52 24 59 9q5 -15 -62 -52q2 -25 12 -36t33 -8q38 5 80.5 46t64 100t-2.5 126q-19 47 -72 73t-114.5 26.5t-124.5 -12.5q-64 -16 -124.5 -70.5t-94 -121.5t-38 -136t42.5 -115q39 -39 106.5 -45
t128.5 9.5t114 42.5q97 51 100 48q5 -10 -20.5 -30.5t-65.5 -43.5q-56 -32 -135.5 -51t-163 -15t-132.5 38zM445 315q-50 71 -88 65q-39 -6 -68 -66q-29 -62 -14 -102q11 -29 46 -23q39 7 101 42q3 23 23 84z" />
    <glyph glyph-name="A" unicode="A" horiz-adv-x="928" 
d="M905 576q31 18 61 -16t16 -65q-20 -43 -54.5 -109l-79.5 -147.5l-56 -102.5q46 -37 37 -88.5t-62 -79.5q-38 -20 -66 -4.5t-16 61.5q5 18 48 95q-14 8 -41.5 20t-46 23.5t-36.5 28.5q-1 0 -40 -28.5t-48.5 -34.5t-48 -32t-55.5 -34t-52.5 -26.5t-58.5 -23.5l-53.5 -12
t-56.5 -4t-50 12q-70 25 -108.5 107t-13.5 134q5 9 14 9.5t15.5 -7.5t2.5 -17q-20 -47 15.5 -90t87.5 -44q27 0 61 10t62 22.5t68 37t60.5 38.5l59 41l45.5 32q-30 43 -33.5 100t27 98.5t88.5 36.5q30 -2 14 -20q-12 -13 -28 -15q-37 -4 -51 -38t-6.5 -73t25.5 -64
q33 24 163.5 129.5t190.5 139.5zM755 160q104 190 158 276q-113 -104 -267 -217q14 -13 31.5 -22.5t42 -20t35.5 -16.5zM746 9q27 15 35.5 39t-11.5 46q-36 -67 -41 -82q-2 -9 2 -9q2 0 15 6z" />
    <glyph glyph-name="B" unicode="B" horiz-adv-x="794" 
d="M556 594q20 20 68 48q23 14 46 -0.5t27 -37.5t-8 -37q-51 -41 -57 -49q76 -111 -39 -226q135 -16 161 -100q20 -67 -35 -140q-58 -75 -149 -93q-34 -6 -69 -2q-81 10 -107 73q-20 49 6 88q15 23 42 27q20 3 21 -12q0 -16 -19 -23q-33 -13 -25 -50q8 -36 45 -52
q17 -7 37 -6q32 3 62.5 26.5t49 57.5t25.5 69t-8 63.5t-50 37.5q-9 3 -20 1.5l-22.5 -3t-21 -2.5t-15.5 1t-6 8q0 1 27 24.5t53 52.5t39.5 69.5t-13.5 76.5q-37 -42 -141.5 -196.5t-164.5 -208.5q8 -13 15 -31q3 -7 -0.5 -15.5t-10 -11t-13.5 4.5l-19 29q-107 -85 -187 -41
q-51 29 -62 89q-9 48 17 78q10 12 24 5t2 -22q-23 -29 -10 -56q17 -34 73 -11q35 14 80 52q-98 172 -35 322q43 101 140 151q99 50 186 14q35 -14 61 -42zM234 176q54 52 148.5 195.5t143.5 193.5q-60 60 -152 34q-87 -25 -141 -107q-75 -113 -27 -252q10 -32 28 -64z" />
    <glyph glyph-name="C" unicode="C" horiz-adv-x="535" 
d="M118 347q74 107 174 179t208 69q69 -2 107 -38.5t34.5 -85t-45.5 -86.5q-58 -53 -168.5 -83t-199.5 -21q-20 -32 -29.5 -70t-6 -73.5t27.5 -61.5t66 -31q-11 53 11 101t69 73q54 23 92.5 -3t28.5 -84q-11 -55 -52.5 -88.5t-99.5 -41.5q17 -38 51 -60q8 -5 8.5 -11.5
t-6 -9t-15.5 1.5q-44 22 -72 76q-135 -5 -200 85.5t-3 230.5q-54 20 -73 68.5t-2 95.5q6 16 18.5 8t7.5 -23q-11 -39 6 -72.5t63 -44.5zM566 417q26 25 32 58t-16 52t-66 6q-62 -20 -135 -83t-127 -132q77 -1 171 26.5t141 72.5zM384 184q-39 -19 -56 -58t-8 -82
q47 4 82.5 28.5t43.5 66.5q6 32 -14.5 45t-47.5 0z" />
    <glyph glyph-name="D" unicode="D" horiz-adv-x="746" 
d="M559 490q89 -62 125 -147.5t20 -161.5t-72 -136t-138 -75q-61 -12 -131.5 1.5t-99.5 57.5q-35 -40 -37 -41q-21 -19 -57.5 12t-21.5 53l25.5 34.5t24.5 34.5q-7 20 -14 55q-4 21 5 34q8 9 15 -14l15 -45q41 60 117.5 185.5l102.5 165.5q-52 17 -102.5 14.5t-94 -27.5
t-80.5 -61.5t-61 -86.5t-34.5 -102.5t-2.5 -110.5t35 -109q11 -19 0 -32q-7 -9 -17 4q-34 43 -50 96t-13 106t19.5 107.5t48 100t71.5 83.5t90 57.5t104.5 23.5t114.5 -20q7 10 12 16q15 18 57 -8t33 -46q-3 -8 -9 -18zM286 55q27 -41 83 -45.5t96 21.5q58 34 91.5 115.5
t28.5 167.5t-49 133q-149 -269 -250 -392z" />
    <glyph glyph-name="E" unicode="E" horiz-adv-x="512" 
d="M174 400q3 59 46 120.5t105 100t117 34.5q39 -3 65.5 -30t30.5 -62.5t-10 -72.5q-33 -74 -175 -118l8 -3q36 -14 48.5 -23t-1.5 -15.5t-62 -8.5q-73 -4 -127 -93q-45 -75 -41 -142q3 -49 36 -53q-7 61 23 105.5t87 67.5q67 27 100.5 -2t7.5 -97q-20 -51 -63 -83.5
t-98 -37.5q12 -24 24 -40t34.5 -28t31.5 -15l44 -15q18 -7 10.5 -21.5t-22.5 -11.5q-128 31 -166 129q-50 -2 -86.5 30.5t-47.5 81.5t-5 100.5t42 94t92 56.5q-8 3 -20 12q-53 -10 -93.5 0t-60 33.5t-27.5 53t-1.5 59.5t23.5 52q5 7 19 1t7 -17q-16 -24 -16.5 -51.5
t12 -49.5t41.5 -34t68 -7zM318 407q143 45 168 104q5 16 6.5 38t-9 38.5t-31.5 10.5q-44 -13 -95.5 -80t-38.5 -111zM388 125q15 38 2.5 47t-48.5 -6q-47 -18 -69.5 -52.5t-15.5 -82.5q47 3 81 28t50 66z" />
    <glyph glyph-name="F" unicode="F" horiz-adv-x="829" 
d="M1009 587q19 10 31 -1q8 -8 -3 -20q-22 -24 -75 -36.5t-79.5 -13.5t-79.5 -2q-23 -49 -133 -247q24 -1 55.5 -1t55.5 -1q22 -1 20 -15q-2 -15 -22 -21q-5 -2 -9 -2q-74 -5 -126 -4q-42 -68 -175 -177l11 -19q3 -4 -2.5 -16.5t-14.5 -5.5q-6 4 -20 21q-162 -85 -312 -23
q-63 26 -96 75.5t-32 99t31 93t84 59.5q66 20 123.5 -7t41.5 -89q-6 -23 -19 -11q-9 8 -10 26q-1 41 -47.5 49.5t-84.5 -10.5q-54 -23 -71.5 -73.5t8 -100t85.5 -68.5q50 -15 116.5 1t117.5 49q-23 42 -25.5 73.5t10.5 50.5t39.5 31t57 15.5t68.5 2.5l42.5 72.5l57 94.5
t51.5 78q-12 0 -44.5 -0.5t-51.5 -0.5t-46 -2t-47 -5q-50 -11 -73.5 -57.5t5.5 -81.5q13 -13 5.5 -24.5t-24.5 0.5q-34 24 -35 69t30 86t83 52q59 9 155 5.5t214 3t159 28.5zM410 120q45 38 89 103q-68 0 -91 -19t2 -84z" />
    <glyph glyph-name="G" unicode="G" horiz-adv-x="765" 
d="M721 321q-11 -76 -58 -163t-122 -164.5t-159 -119.5q2 -93 -51.5 -154t-142.5 -62q-21 0 -23 9q-2 7 17 12q81 20 117.5 62.5t40.5 115.5q-110 -43 -198.5 -15t-117.5 113q-23 70 15.5 134t123.5 64q71 -4 124.5 -55t70.5 -120q35 22 88.5 96.5t74.5 120.5
q-185 -40 -250 50q-49 69 -8 181q41 114 148 192q115 84 253 82q64 -1 109 -22t64 -51.5t23.5 -65.5t-7.5 -66t-35 -50q-12 -10 -25 -3q-10 6 1 18q35 39 38 80.5t-29.5 65.5t-91.5 13q-160 -31 -274 -149q-83 -85 -93 -164q-9 -70 53 -84q53 -12 146 25l34 79q6 13 42 15
t69.5 -4.5t32.5 -15.5zM163 108q-57 -1 -82.5 -41t-14.5 -88q10 -44 40.5 -62.5t70.5 -12t75 19.5t69 32q-14 57 -57.5 103t-100.5 49z" />
    <glyph glyph-name="H" unicode="H" horiz-adv-x="1003" 
d="M977 600q78 40 122 -7q41 -43 24 -119q-21 -99 -122 -165q-56 -37 -130 -57q-20 -44 -41.5 -129t-14.5 -120q4 -18 14.5 -22t25 4.5t26.5 19.5l26 25q8 8 18.5 3t1.5 -18q-29 -41 -76.5 -68t-93.5 -6q-35 16 -48 54.5t-5 89t18.5 87t25.5 74.5q-34 -4 -138 -6
q-38 -48 -106.5 -109.5t-121.5 -91.5q23 -34 52 -67q16 -19 -1 -19q-12 0 -23 9q-29 27 -56 61q-41 -24 -104.5 -25t-107.5 16q-59 20 -91.5 63t-34.5 93.5t13.5 99.5t49 85.5t73.5 47.5q31 9 40 -1q8 -8 -20 -21q-7 -3 -15 -6q-28 -11 -53 -45t-37 -77t-11.5 -85t26 -72.5
t72.5 -34.5q76 -6 147 38q-29 47 -29 83.5t20 57.5t57.5 35t74.5 19t80 7q32 41 66.5 95t62.5 125.5t16 111.5q-10 33 -73 26q-74 -9 -128 -60q-74 -70 -35 -164q8 -18 4.5 -22.5t-12.5 -0.5t-14 11q-57 109 34 196q70 66 181 84q107 18 156 -25q15 -13 21 -31
q16 -45 -11 -123t-60 -134.5t-69 -105.5q76 2 126 9q119 261 208 307zM895 303q110 28 168 132q36 65 29 108q-4 23 -21 15q-65 -30 -176 -255zM330 118q53 39 139 139q-32 -2 -55 -5t-49 -12t-39 -23t-13.5 -39.5t17.5 -59.5z" />
    <glyph glyph-name="I" unicode="I" horiz-adv-x="609" 
d="M702 659q4 -49 -14 -119t-51.5 -144.5t-83.5 -149t-105.5 -133t-121 -95t-127.5 -36.5q-53 0 -93.5 21t-61 54t-26.5 75t5 81.5t40 75t71 54.5q90 42 141 -10q38 -39 28 -99q-11 -63 -69 -86l-14 -4q-20 -5 -27 -1.5t-1 12t22 15.5q28 13 43.5 37t14 46.5t-13.5 42
t-39 23t-63 -10.5q-78 -34 -98 -114q-17 -70 19 -118q37 -49 104 -31q78 23 173.5 138t161 251t66.5 221q-47 -11 -106.5 -38t-114.5 -73t-56 -91q-1 -32 26 -59q15 -17 10 -28q-5 -9 -23 6q-44 36 -45 84q-1 56 51.5 109t115.5 83.5t119 43.5q26 6 83.5 -4t59.5 -29z" />
    <glyph glyph-name="J" unicode="J" horiz-adv-x="838" 
d="M978 665q2 -14 -21 -21q-45 -144 -191.5 -379.5t-245.5 -324.5q10 -61 -8 -128t-56 -122q-17 -25 -25 -6q-7 15 1 30q19 36 28.5 56t16 55t2.5 73q-59 -59 -163 -80.5t-183 6.5q-59 20 -89 66t-28.5 98.5t26 106t66.5 89.5q41 35 96 43t105 -8.5t92.5 -54t61.5 -88.5
q109 142 182 258.5t155 287.5q-27 -5 -139.5 -13.5t-212.5 -24t-143 -41.5q-37 -22 -39 -63t23 -74q16 -26 11 -43q-5 -15 -28 8q-32 31 -43.5 70.5t2.5 78t55 63.5q47 29 134.5 50.5t179 31.5t177 13.5t141.5 -0.5t60 -13zM434 40q-12 41 -48 76t-79 53t-91 14.5t-81 -34.5
q-43 -39 -60.5 -102.5t1 -114.5t67.5 -56q59 -6 150.5 51.5t140.5 112.5z" />
    <glyph glyph-name="K" unicode="K" horiz-adv-x="1024" 
d="M700 302q45 10 88.5 40.5t76.5 65.5l65.5 67.5t68 52t71.5 14.5q7 -2 6.5 -8.5t-4.5 -14t-8 -8.5q-30 -4 -59 -25t-55 -50.5l-53.5 -60t-63 -59.5t-73.5 -43l8 1q7 0 21.5 -1t30 -4.5t32 -15t27.5 -28.5q20 -32 32.5 -90.5t19 -106.5t35.5 -93.5t82 -61.5q56 -17 -19 -29
q-58 -9 -79 -6q-63 10 -97 46t-44.5 85t-17 100.5t-28 104t-63.5 83.5l-30 -5q-90 -138 -201.5 -203t-265.5 -49q-61 6 -104.5 33.5t-62.5 65t-20 80.5t15 81t49.5 66.5t78.5 36.5q66 10 90 -46q4 -11 1.5 -18.5t-11.5 -6t-16 13.5q-22 34 -63 21q-45 -14 -73.5 -47.5
t-32 -72t9 -74.5t49 -59t87.5 -22q82 5 158.5 67t136.5 145q-17 0 -60 8q-19 3 -15 18.5t24 15.5q71 0 80 1q40 62 69.5 131t19.5 112q-10 40 -63 36q-57 -5 -98 -51q-38 -44 -33 -101q2 -14 -12 -19q-11 -4 -14 10q-12 48 1 88t43 65.5t71.5 41.5t84 19t82 -5.5t64.5 -27.5
q29 -22 34.5 -63.5t-9 -88.5t-30.5 -83.5t-34 -68.5z" />
    <glyph glyph-name="L" unicode="L" horiz-adv-x="634" 
d="M807 570q9 -50 -15 -96.5t-66 -77.5t-93.5 -49t-97.5 -16q-115 -196 -185 -304q62 -62 97.5 -79.5t122.5 -32.5q17 -3 22.5 -9.5t-2 -11t-23.5 -4.5q-80 4 -129.5 26t-109.5 79q-133 -133 -230 -99q-59 20 -80 91q-21 70 13 124q16 26 43 39q28 14 60.5 10t61.5 -18.5
t52 -35.5q17 20 45 67t65 115t39 71q-54 18 -73 63.5t-6.5 94.5t46.5 95t78 66q19 8 20 -4q1 -11 -12 -21q-45 -31 -75.5 -85.5t-24 -106t64.5 -65.5q78 164 189 238q92 61 152 24q40 -24 51 -88zM556 373q71 6 139 53t69 111q1 116 -102 -10q-61 -73 -104 -151q-1 -2 -2 -3
zM226 72q-19 17 -41.5 29t-51 17t-45.5 -16q-25 -28 -15 -69q10 -39 43 -40q47 -2 110 79z" />
    <glyph glyph-name="M" unicode="M" horiz-adv-x="1181" 
d="M1199 493q25 -15 -40 -174l-27 -63q-74 -174 -77 -218q-1 -26 14 -28q25 -3 24 -17q-2 -16 -33 -25q-20 -7 -42 -4q-35 4 -53 29t-18 64t7.5 83t23.5 90.5t31.5 83t29.5 64.5l-46.5 -46l-53.5 -52l-47 -42.5t-54 -44.5l-43 -143q-4 -15 -15.5 -19t-19.5 3t-6 21
q7 44 24 123t33 144l32 130t17 68q-102 -226 -177 -335q-199 -292 -460 -253q-136 20 -191 130q-45 90 -17 188q26 89 97 119q29 12 63 11q39 -1 67 -27.5t37 -61.5t-8.5 -74t-61.5 -61q-21 -9 -24.5 2t11.5 21q40 25 48 63.5t-13 67t-55 29.5q-71 3 -109 -70
q-38 -71 -15 -153q25 -93 113 -124q31 -11 67 -12q58 -2 114 28.5t98 78t84.5 114t72.5 125.5l65 124.5t58 99.5q-20 7 -70 0q-85 -12 -169 -75.5t-68 -138.5q5 -26 -7 -35q-11 -8 -23 14q-23 49 -3 95.5t68.5 85t102.5 64.5t97 34q87 17 166.5 3.5t92.5 -50.5
q1 -9 -3.5 -36.5t-13.5 -67l-16.5 -71.5t-17 -69l-10.5 -41q276 276 349 231z" />
    <glyph glyph-name="N" unicode="N" horiz-adv-x="1103" 
d="M922 574q2 -13 -16 -99t-48.5 -215.5t-30.5 -130.5l38 78t45 83.5t53.5 86.5t60 78t68.5 68t75 46t83 22q57 4 96.5 -15t53 -51t11 -68t-26 -69.5t-61.5 -50.5q-14 -6 -22.5 -3.5t-6 12.5t15.5 20q45 37 56 92q11 52 -26 61q-25 6 -67 -13q-55 -25 -117 -93t-116 -155.5
t-95.5 -165.5t-72.5 -149q-4 -8 -35.5 0t-60 26t-26.5 33q14 107 63 306.5t57 238.5q-103 -229 -180 -341q-197 -286 -456 -247q-136 20 -191 130q-45 90 -17 188q26 89 97 119q29 12 62 11q31 -1 56.5 -18t37.5 -44t13 -56.5t-17.5 -58.5t-54.5 -47q-21 -9 -24.5 2t11.5 21
q40 25 47.5 63.5t-13.5 67t-55 29.5q-71 3 -109 -70q-37 -71 -15 -153q25 -94 114 -124q31 -11 67 -12q58 -2 113.5 28.5t97 78t84 114t72 125.5l64 124.5t57.5 99.5q-18 7 -65.5 0.5t-76.5 -19.5q-68 -31 -121 -84t-41 -111q6 -27 -7 -36q-11 -6 -22 15q-18 40 -6 79.5
t47.5 76t75 63t75.5 40.5q98 37 207 28t125 -55z" />
    <glyph glyph-name="O" unicode="O" horiz-adv-x="685" 
d="M104 164q-91 20 -89 109q3 88 87 187q95 112 221 148q65 19 128 11q132 -17 182 -134q46 -107 5 -239q-42 -132 -146 -201q-85 -56 -190 -50q-80 5 -135.5 48t-62.5 121zM313 59q40 18 82 72.5t71 123t43.5 136t-2 118.5t-65.5 63q-95 24 -218 -62q-98 -69 -147 -158
q-52 -95 -1 -138q11 -10 28 -16q8 102 96 195.5t182 97.5q15 1 14 -13t-17 -18q-86 -21 -156 -97t-79 -173l55 5q11 1 17.5 -3.5t3 -11t-17.5 -9.5q-28 -7 -56 -11q9 -55 35.5 -85t60 -30.5t71.5 14.5z" />
    <glyph glyph-name="P" unicode="P" horiz-adv-x="730" 
d="M468 673q195 28 273 -83q58 -81 32 -199q-24 -109 -101 -171q-99 -79 -219 -24q-23 11 -46 27l-56 -92l26 -24q10 -9 9.5 -16.5t-7.5 -8t-15 3.5q-12 7 -31 21q-99 -137 -212 -108q-47 12 -78.5 44.5t-26.5 72.5q1 10 8 14t14 -0.5t7 -16.5q2 -37 20.5 -50.5t57.5 -3.5
q53 17 118 109q-68 56 -90 123.5t-0.5 129t67 115.5t112.5 90.5t138 46.5zM423 252q92 -56 161 11q55 53 62 149q7 104 -53 163q-42 41 -108 45q-45 3 -94.5 -13.5t-92.5 -45.5t-73.5 -71.5t-41.5 -89t7.5 -100.5t70.5 -104l55 88l-10 10.5l-16.5 18t-14.5 17.5
q-8 12 -3 19.5t17 -2.5q29 -23 43 -37l17 29t20 33.5l19.5 30.5t22.5 33l21 27.5t24 27.5t63 18t56 -2q4 -5 -14 -34q-16 -28 -66.5 -106t-71.5 -115z" />
    <glyph glyph-name="Q" unicode="Q" horiz-adv-x="672" 
d="M451 618q132 -17 182 -134q46 -106 5 -237q-41 -132 -144 -202q-82 -55 -183 -51q27 -87 87 -117q25 -15 26 -20q-1 -16 -33 -10q-87 17 -122 151q-68 12 -113.5 54t-51.5 111q-91 20 -89 109q3 88 87 187q95 112 221 148q65 19 128 11zM298 52l15 6q40 18 82 72.5
t71 123t43.5 136t-2 118.5t-65.5 63q-95 24 -218 -62q-98 -69 -147 -158q-52 -95 -1 -138q11 -10 28 -16q7 98 89.5 189t174.5 103q18 2 25 -4t1 -15t-20 -13q-85 -23 -153 -98t-77 -170l46 4q26 4 30 -7q3 -9 -13 -14q-4 -2 -10 -3q-18 -5 -51 -10q10 -61 40 -89t72 -26
q-11 71 -10 137t12 109q3 12 8 19.5t11 6.5q16 -4 14 -29q-8 -156 5 -235z" />
    <glyph glyph-name="R" unicode="R" horiz-adv-x="755" 
d="M469 668q194 28 273 -82q58 -82 32 -200q-25 -110 -103 -172q-61 -49 -135 -45q-2 -229 90 -296q19 -14 17.5 -24t-15 -10t-25.5 6q-59 34 -85 130t-22 201q-42 10 -89 42q-25 -45 -56 -92l23 -22q18 -17 10.5 -24t-25.5 4q-15 9 -26 18q-99 -137 -212 -108
q-46 12 -77.5 44.5t-27.5 72.5q1 10 8 14t14.5 -0.5t7.5 -14.5q2 -38 19.5 -52t58.5 -4q53 17 118 109q-68 56 -90 123.5t-0.5 129t67 115.5t112.5 90.5t138 46.5zM423 247q38 -23 76 -25q3 32 9 52q2 12 7 19.5t12 6.5q16 -4 14 -29l-3 -42q41 14 69.5 57t35.5 96.5
t-3.5 104.5t-51 87.5t-103.5 40.5q-45 3 -94.5 -13.5t-92.5 -45.5t-73.5 -71.5t-41.5 -89t7.5 -100.5t70.5 -104l56 88q-31 31 -42 47q-8 11 -2.5 18.5t16.5 -1.5l19 -16.5l17.5 -15.5t7.5 -6q80 138 123 181q12 12 63 18t57 -2q3 -6 -15 -34l-67.5 -107.5t-70.5 -113.5z
" />
    <glyph glyph-name="S" unicode="S" horiz-adv-x="559" 
d="M686 591q10 -75 -48.5 -129.5t-139.5 -75.5q2 -46 2 -78t-2 -72t-7 -67.5t-15.5 -58.5t-26 -50t-38.5 -36.5t-53 -24.5t-71 -7.5t-90 8.5q-54 10 -94.5 37.5t-61 63.5t-24.5 76.5t9 76t46 62.5t80 36q50 9 87 -16t40 -73q1 -28 -10.5 -27.5t-17.5 27.5q-7 33 -32 47
t-61 6q-42 -10 -68 -32.5t-32.5 -50t1 -58t26 -56.5t48.5 -46t64 -26q154 -27 178 124q9 51 1 186q-1 12 -1 20q-134 -14 -176 69q-29 59 1 130q26 62 76 76q21 5 43 0q8 -2 20 -8q8 -5 9 -12t-5 -9.5t-18 1.5q-42 16 -77 -30q-35 -47 -25 -101q12 -65 88 -75q28 -4 63 1
q-1 68 30.5 130t91 94t128.5 10q53 -16 62 -62zM498 430q59 18 105 59.5t38 94.5q-3 15 -8.5 20.5t-18.5 4.5q-54 -11 -84 -64.5t-32 -114.5z" />
    <glyph glyph-name="T" unicode="T" horiz-adv-x="687" 
d="M1063 686q3 6 10 9t12 -0.5t3 -13.5q-10 -44 -44 -72t-77.5 -36t-91.5 -11.5t-85 0.5q-336 -680 -625 -602q-50 14 -86.5 52.5t-50.5 87t-11.5 97t29 88t72.5 54.5q65 22 126.5 -4t76.5 -88q4 -14 -6 -27q-11 -14 -21 14q-18 51 -70 69t-101 -6q-33 -14 -51.5 -45.5
t-17.5 -67.5t13 -70t40 -58t64 -28q33 -2 69 14.5t68 41.5t69 68.5t64.5 80t62.5 91.5l54.5 88l49.5 84.5l39 67.5q-11 1 -64.5 5t-79.5 3.5t-68.5 -5t-71 -21.5t-48.5 -45q-40 -59 -10 -100q25 -33 72 -24q57 12 90 82q5 10 14 15t13.5 -0.5t-0.5 -23.5q-30 -90 -102 -111
q-60 -16 -106 22q-51 41 -34 109q7 28 26 56q21 31 51.5 51.5t59 29t71 11t70.5 0.5t75 -6t68 -5q4 7 14 21q9 15 70 17q61 3 59 -16q-1 -1 -1 -2l-9 -22q45 0 94 -0.5t97 20t66 61.5z" />
    <glyph glyph-name="U" unicode="U" horiz-adv-x="687" 
d="M744 528l-4 -9q-225 -446 -211 -521q4 -25 40 1q20 14 23 -3q3 -14 -10 -26q-22 -21 -49.5 -35t-56.5 -16.5t-46.5 18t-20 70t22.5 139.5q-16 -15 -37 -32l-59 -45.5t-74 -45t-72.5 -25.5t-64.5 7.5t-40 58.5q-7 54 34 136q-52 15 -79 52.5t-25 82.5t21.5 88.5t60.5 76.5
t92 41q53 7 119 -15.5t70 -61.5q3 -24 -10.5 -60t-30.5 -63l-43 -66t-34 -52q31 -1 58 13q22 13 22 1q-1 -14 -17 -27q-2 -1 -3 -2q-30 -19 -77 -16q-42 -80 -38 -123q2 -14 15 -15.5t34 9t44 24.5t50 34l45.5 34.5l37.5 30t20 16.5q34 88 83 187t93 157q11 14 67 8
q53 -6 51 -24q-1 -1 -1 -2zM195 496q-37 -6 -69.5 -30t-49 -57.5t-20 -68.5t17 -65t62.5 -43q5 10 40.5 64.5t58 98t20.5 64.5q-4 44 -60 37z" />
    <glyph glyph-name="V" unicode="V" horiz-adv-x="568" 
d="M310 115l74.5 92t103 114t121 116.5t119 81t106.5 25.5q31 -5 43 -25.5t9 -45.5q0 -6 -5.5 -9.5t-10.5 -1.5t-5 11q0 36 -35 40q-59 7 -180 -96t-222.5 -220.5t-137.5 -180.5q-5 -8 -19 -12.5t-31.5 -4t-33.5 3.5t-26 10t-9 15q21 92 28 182q-41 -15 -73 -4.5t-58 34
t-38.5 59.5t-14 72t15.5 71.5t50 58.5q40 28 91.5 35.5t93 -8.5t52.5 -53q6 -20 8.5 -48.5t2 -49.5t-2 -52t-1.5 -39l36 21q15 9 14 -5t-9 -21q-12 -11 -43 -31q-3 -72 -13 -135zM202 457q-9 38 -43 38t-62 -28q-50 -46 -38 -123q11 -66 57 -96q41 -26 86 -2q0 6 2 38
t3.5 59.5t0 61t-5.5 52.5z" />
    <glyph glyph-name="W" unicode="W" horiz-adv-x="812" 
d="M1015 504q23 -11 38.5 -34t14.5 -47q0 -7 -5.5 -11.5t-11.5 -1.5t-8 15q-7 34 -40 47q-46 14 -103 -22.5t-112 -102.5t-104 -134.5l-94.5 -131t-68.5 -81.5q-16 -10 -39.5 -8t-43.5 12t-17 18q19 47 35.5 94.5t39.5 122l30 96.5q-61 -106 -119.5 -185t-130.5 -132
q-15 -10 -60 -20q-60 -12 -55 19q40 192 38 209q-98 -17 -151 50.5t-22 159.5q16 47 60.5 76t93.5 30q32 0 56.5 -11t38.5 -33t23.5 -45.5t13 -56t4.5 -55.5t1 -54q5 1 56 27q15 7 14.5 -10.5t-10.5 -23.5q-34 -22 -62 -32q-7 -88 -33 -176q63 65 173 231.5t131 191.5
q9 9 50 11q35 2 33 -11q-44 -226 -72 -328q132 183 222 262q119 105 196 75zM198 265q4 185 -41 215q-22 15 -48 -5t-39 -51q-29 -75 10 -124t118 -35z" />
    <glyph glyph-name="X" unicode="X" horiz-adv-x="640" 
d="M749 533q37 -1 53.5 -27.5t-0.5 -51.5q-5 -7 -14.5 -3.5t-8.5 13.5q2 10 1.5 18t-8 12t-22.5 4q-18 -1 -36 -7.5t-36.5 -19.5l-33.5 -23.5t-33.5 -32l-29 -33.5t-29 -37.5l-25 -34.5t-24 -35.5l-19.5 -29.5q1 -14 2 -47.5t2 -51t4.5 -47t8.5 -47t14 -40.5t21.5 -36.5
t31 -25t42.5 -16.5q23 -5 16 -21q-8 -19 -41 -23q-53 -6 -92.5 10.5t-61 43t-36.5 72.5t-20 82t-9 89q-22 -31 -35.5 -48t-39.5 -47t-47.5 -47t-50 -32t-56.5 -18q-71 -5 -106 41.5t1 90.5q3 4 13 2t6 -14q-14 -45 13 -64.5t69 -14.5q13 2 27.5 8t26.5 13t26.5 20.5
l24.5 22.5t25 27l22.5 27.5t22 29.5t19 27l18 27l15.5 23q-11 142 -37 168q-23 22 -69.5 -7t-65.5 -61q-23 -32 -13.5 -69t54.5 -61q8 -4 0 -16q-7 -11 -18 -7q-57 20 -72.5 69.5t10.5 97.5q28 54 96 93t125 29q31 -6 52 -23.5t32 -45.5t16 -51.5t8 -57.5l41 56t46.5 55
t56 53.5t60 35t67.5 14.5z" />
    <glyph glyph-name="Y" unicode="Y" horiz-adv-x="733" 
d="M909 564q23 -15 12.5 -25t-28.5 -1q-22 10 -49.5 -17.5t-59.5 -80l-69.5 -118t-86 -132.5t-102.5 -123t-126 -90.5t-149 -32.5q-122 3 -190 95q-56 76 -43 163t90 120q29 12 64 14q77 4 105 -54.5t3 -113.5q-9 -20 -19 -13t-5 23q15 45 -7.5 82.5t-74.5 34.5
q-83 -5 -111 -74q-24 -62 10 -126q38 -71 120 -78q33 -2 71 8q74 20 150.5 89.5t119.5 137.5q-105 -44 -176 -22q-38 11 -52 42t-2 59q-88 0 -129 64t-12 129q20 47 64.5 72.5t90.5 26t88.5 -19t61.5 -54.5q27 -48 -20 -191q17 0 23 -1q18 -1 17 -11q-1 -12 -20 -16h-3
l-31 -4q-16 -29 -15 -47q1 -11 14.5 -13.5t34 3t38 11.5t37.5 14t22 9q4 7 14 23l32 52.5t37 55.5t44.5 57.5t48 46.5t54 34.5t55.5 9t59 -17.5zM370 529q-4 38 -39.5 46.5t-74 -11t-51.5 -51.5q-20 -50 11 -97t105 -51q18 33 35 81.5t14 82.5z" />
    <glyph glyph-name="Z" unicode="Z" horiz-adv-x="676" 
d="M533 457q126 134 251 98q55 -15 64.5 -59t-30.5 -81q-61 -57 -193 -25l-82 -106l13.5 -6.5t16.5 -9.5q6 -5 8 -12t-2.5 -13t-14.5 -7q-21 -1 -49 11q-24 -31 -83 -94.5t-84 -86.5q41 -70 89 -110q22 -18 50.5 -31t61.5 -13t50 24q4 6 11 7t9.5 -3.5t-0.5 -12.5
q-17 -37 -57.5 -43t-78.5 8.5t-67 37.5q-56 41 -98 111q-103 -75 -218 -72q-54 1 -82 34.5t-26 74.5t26.5 79.5t64.5 48.5q52 13 105 -4t84 -59q50 47 127 146q-4 3 -15 8.5t-16 8.5q-8 5 -10 12.5t3 14t15 6.5l51 -13q23 32 76 96q-18 6 -73 36t-101.5 46.5t-73.5 4.5
q-28 -15 -33.5 -58t15.5 -75.5t57 -21.5q18 5 21 -3t-13 -16q-50 -26 -87 23q-35 46 -26 107q8 53 50 77q30 11 55 10t60.5 -14.5t62.5 -27.5l60.5 -30.5t55.5 -22.5zM90 164q-37 -12 -56 -54q-19 -45 6 -63q19 -14 56 -4q36 9 79.5 33t66.5 41q-25 33 -69 46t-83 1z
M659 426q97 -14 132 25q9 10 14 24.5t0 25.5t-24 7q-49 -12 -122 -82z" />
    <glyph glyph-name="bracketleft" unicode="[" horiz-adv-x="380" 
d="M343 611q13 -2 18.5 -10.5t1 -17t-19.5 -11.5t-56 -0.5t-56 1.5q6 -44 -34 -310.5t-66 -344.5q12 0 24 3q3 0 14.5 2.5t22.5 4.5t23.5 3.5t21 -0.5t9.5 -7q1 -10 -43 -21.5t-90 -18.5t-63 -8q-19 1 -29 10.5t-2 27.5q11 44 40 216l53.5 321t26.5 151q14 12 57.5 15.5
t83 0.5t63.5 -7z" />
    <glyph glyph-name="backslash" unicode="\" horiz-adv-x="356" 
d="M338 -57q-4 -8 -16 1q-38 24 -146.5 228t-148.5 298q-10 27 -11 44t4.5 19.5t17.5 -9.5t25 -37q270 -511 275 -530q3 -8 0 -14z" />
    <glyph glyph-name="bracketright" unicode="]" horiz-adv-x="380" 
d="M37 -106q-13 2 -18.5 10.5t-1 17t19.5 11.5t56 0.5t56 -1.5q-6 44 34 310.5t66 344.5q-12 0 -24 -3q-3 0 -14.5 -2.5t-22.5 -4.5t-23.5 -3.5t-21 0.5t-9.5 7q-1 10 43 21.5t90 18.5t63 8q19 -1 29 -10.5t2 -27.5q-11 -44 -40 -216l-53.5 -321t-26.5 -151
q-14 -12 -57.5 -15.5t-83 -0.5t-63.5 7z" />
    <glyph glyph-name="asciicircum" unicode="^" horiz-adv-x="369" 
d="M335 446q34 -80 11 -91t-68 63q-15 28 -41.5 83l-33.5 70q-59 -106 -89 -142q-74 -80 -96 -52q-5 9 2.5 25.5t24 38.5t18.5 25q13 21 53 103t58 100q14 12 34 9t29 -18q26 -45 98 -214z" />
    <glyph glyph-name="underscore" unicode="_" horiz-adv-x="578" 
d="M533 -208q-27 -3 -242.5 -3t-241.5 5q-22 5 -30 14t1 16.5t32 8.5q40 2 242 2.5t241 -4.5q19 -5 25.5 -13.5t-1.5 -16t-26 -9.5z" />
    <glyph glyph-name="grave" unicode="`" horiz-adv-x="167" 
d="M114 497q-54 43 -87 92q-19 30 -8.5 39.5t37.5 -14.5q61 -53 87 -91q16 -26 5 -35t-34 9z" />
    <glyph glyph-name="a" unicode="a" horiz-adv-x="374" 
d="M374 108h29q-12 -20 -50.5 -52t-69.5 -47q-40 -21 -75.5 -4.5t-34.5 64.5q-7 -5 -19.5 -15l-19 -15t-18 -10t-25.5 -7q-79 -11 -103 51q-22 56 12 122q36 71 106 84q52 10 96 -13q10 -5 6 -20t-19 -8q-24 10 -48 -8q-39 -27 -62 -92q-22 -62 3 -73q4 -2 10 -1q14 1 28 9
t34.5 24.5t27.5 21.5q1 2 8 31t13 47.5t13 27.5t37 5.5t32 -14.5q4 -18 -14.5 -81t-17.5 -78q3 -32 111 44q8 6 10 7z" />
    <glyph glyph-name="b" unicode="b" horiz-adv-x="338" 
d="M338 108h29q-19 -31 -63 -60t-79 -27q-47 -54 -97 -68q-33 -12 -75 -0.5t-59 43.5q-18 32 -13 81t21 104t47.5 110t67 98t79 66.5t82.5 17.5q27 -4 45 -20.5t21 -38.5q5 -44 -44.5 -97.5t-104.5 -87.5t-81 -38l-11.5 -29t-15 -44t-13 -48t-6 -42t6.5 -27q11 -13 40 -4
q26 6 59 36q-34 13 -46 45t-0.5 64.5t39.5 50.5q27 17 58 13.5t48 -26.5q31 -42 -19 -122q24 9 84 50zM270 427q-34 -9 -77 -78.5t-71 -131.5q38 21 77 48.5t74 69t30 74.5q-3 26 -33 18zM202 62q51 61 36 91q-6 12 -22.5 12.5t-30.5 -10.5q-28 -20 -23 -52.5t40 -40.5z" />
    <glyph glyph-name="c" unicode="c" horiz-adv-x="258" 
d="M258 108h29q-7 -15 -47 -49.5t-85 -48.5q-114 -34 -157 38q-33 55 -8 131q24 73 79 96q30 12 63 5q46 -10 62 -55q9 -23 -8 -25q-3 0 -22 20.5t-33 19.5q-21 -2 -39 -44.5t-16.5 -89t28.5 -58.5q11 -4 23.5 -4t24.5 3.5t23 8t23 12l21 13.5l21 14.5z" />
    <glyph glyph-name="d" unicode="d" horiz-adv-x="428" 
d="M294 452q28 18 56.5 19.5t50.5 -19.5t22 -56q-1 -69 -40.5 -139t-94.5 -118q0 -3 0.5 -23.5t3.5 -39.5t9 -28q5 -4 11.5 -5t18 4t22 10.5t23.5 14t22 15l18.5 13t11.5 8.5h29q-14 -22 -54 -56.5t-76 -58.5q-111 -73 -130 97q-106 -82 -170 -51q-29 14 -40.5 43.5t-3 61.5
t28.5 60.5t57 44t79 8.5q30 -5 53 -24q9 64 32 127t61 92zM198 206q-28 13 -50 8q-33 -7 -54 -50.5t-9 -73.5q4 -10 11 -14t16 -1.5t18 7t20 12.5t18.5 14.5l16 14t10.5 9.5q-2 36 3 74zM286 176q41 37 70 103.5t31 121.5q1 21 -8 23t-22 -11q-32 -30 -49.5 -101t-21.5 -136
z" />
    <glyph glyph-name="e" unicode="e" horiz-adv-x="260" 
d="M260 108h29q-10 -17 -45.5 -48.5t-78.5 -46.5q-116 -41 -164 26q-34 50 -13 123q20 69 75 93q35 15 77 3q36 -10 49 -39t-11 -57q-24 -26 -103 -74q6 -28 31 -40q12 -8 29.5 -5.5t29 5.5t27.5 12.5t25.5 16.5l23 17t19.5 14zM66 123l44 27t38 26q14 11 7.5 27.5
t-22.5 21.5q-26 8 -51.5 -37.5t-15.5 -64.5z" />
    <glyph glyph-name="f" unicode="f" horiz-adv-x="375" 
d="M454 405q-2 -44 -42.5 -95t-86 -85.5t-91.5 -60.5q36 -56 28 -126q34 14 113 70h29q-19 -30 -67 -65.5t-81 -45.5q-27 -123 -112 -185q-63 -46 -113 -28q-52 20 -42 99l4 21q9 41 40 122q-28 28 -31 64.5t12.5 65.5t44 47.5t58.5 14.5l17.5 35.5t21.5 42l22 39.5t26.5 42
t28 33.5t33.5 30.5t36 19q50 20 101 4t51 -59zM223 180q9 8 51.5 43.5t67.5 58.5t49 58.5t24 64.5q0 20 -14.5 25t-32 -2.5t-29.5 -20.5q-45 -48 -127 -216zM96 -110q-12 -55 11 -50q26 6 68 66q32 45 36 71q-51 -9 -86 9q-22 -65 -29 -96zM139 23q29 -21 82 -5q7 29 1 72.5
t-25 67.5q-30 -65 -58 -135zM104 192q-24 3 -44 -22.5t-22.5 -54t12.5 -46.5q22 58 54 123z" />
    <glyph glyph-name="g" unicode="g" horiz-adv-x="371" 
d="M371 108h29q-24 -38 -102 -89l-39 -23q-1 -2 -10.5 -29.5t-13.5 -38l-15 -39t-18.5 -43.5l-19.5 -40t-23 -39l-24.5 -30.5t-27.5 -25.5t-28 -13q-49 -11 -93 17.5t-42 81.5q1 24 13 48.5t27 42.5t41.5 39.5t44 33l47.5 30.5t40 26q3 0 3 8q-6 -2 -41 -6q-113 -11 -139 60
q-20 54 20 119q41 66 107 76q17 3 34 1q34 -4 60 -20.5t30 -38.5q4 -16 -0.5 -23.5t-12.5 -4.5t-13 14q-9 17 -26.5 24.5t-37.5 -0.5q-33 -15 -54 -70q-26 -64 1 -91q12 -13 35 -12q21 0 49 14q22 75 31 93q6 12 53 14.5t51 -4.5q2 -4 -5.5 -31t-18.5 -58.5t-11 -32.5
q25 9 99 60zM26 -246q43 38 112 208q-4 -3 -43.5 -30.5t-53.5 -39.5t-33.5 -38t-23.5 -52t8 -46t34 -2z" />
    <glyph glyph-name="h" unicode="h" horiz-adv-x="370" 
d="M-44 -31q7 72 78.5 251t126.5 227q27 23 61 26.5t58 -18.5t20 -65q-9 -67 -59 -126t-117 -92q-10 -24 -14 -37q85 60 145 48q58 -11 25 -90q-18 -43 -18 -45q0 -7 12 -1q42 21 96 61h29q-10 -17 -40 -43t-62 -45q-54 -33 -86.5 -40.5t-41.5 5t-8.5 35t9 46.5l15 44
t5.5 22q-7 15 -45.5 -12.5t-53.5 -47.5q-1 -3 -14.5 -47t-21.5 -59q-2 -4 -27 -6t-48.5 0.5t-23.5 8.5zM269 394q2 29 -8 30.5t-24 -17.5q-26 -33 -100 -192q53 32 90 79.5t42 99.5z" />
    <glyph glyph-name="i" unicode="i" horiz-adv-x="173" 
d="M173 108h29q-13 -22 -49.5 -53t-69.5 -46q-105 -48 -114 42q-6 64 31 147q8 17 15 28q9 9 28 8.5t37.5 -9.5t16.5 -18q-44 -129 -42 -151q0 -9 5 -10q18 -4 113 62zM113 256q-10 -11 -42.5 -3t-33.5 22q0 11 5.5 28t12.5 23q10 10 42 2.5t34 -21.5q0 -11 -5.5 -27.5
t-12.5 -23.5z" />
    <glyph glyph-name="j" unicode="j" horiz-adv-x="262" 
d="M262 108h29q-18 -30 -63 -64t-81 -54l-17 -47.5t-23.5 -63.5t-26 -59t-35.5 -60t-41 -41q-25 -18 -56.5 -21t-57.5 7.5t-41.5 37t-11.5 62.5q2 18 10 36t17 32.5t26.5 32t28.5 27.5t34.5 27t32 22.5l34 22l28.5 18.5l49 160q-72 -83 -86 -96l-23 13q13 12 44.5 49.5
t45.5 57.5q17 24 49 26.5t55.5 -7.5t22.5 -18q-5 -28 -20.5 -86.5t-21.5 -73.5q31 10 99 60zM-61 -221q29 43 86 179q-5 -4 -28 -20t-31.5 -22.5t-27 -22t-27 -26.5t-17.5 -27t-13 -33q-9 -46 12 -55.5t46 27.5zM212 255q-10 -10 -42.5 -2t-33.5 21q0 11 5.5 28t11.5 23
q10 10 42.5 2.5t33.5 -20.5q1 -10 -4.5 -27.5t-12.5 -24.5z" />
    <glyph glyph-name="k" unicode="k" 
d="M-41 -31q7 72 78.5 251t126.5 227q27 23 61 26.5t58 -18.5t20 -65q-9 -67 -59 -126t-117 -92q-10 -24 -14 -37q37 27 93.5 58t91.5 42q13 4 19 -7.5t-4 -19.5q-31 -17 -52 -25q51 -16 17 -103q-17 -42 -16 -46q2 -8 33 16l36 26.5l42 31.5h29q-8 -14 -33.5 -40t-52.5 -46
q-37 -29 -65 -44t-44 -15.5t-25.5 7t-12 23t-1.5 33.5t5.5 37t8.5 34t8 25l3 10q-7 15 -45.5 -12t-54.5 -48q-32 -101 -35 -106q-2 -4 -27 -6t-48.5 0.5t-23.5 8.5zM272 394q2 29 -8.5 30.5t-23.5 -17.5q-26 -33 -100 -192q52 33 89.5 80.5t42.5 98.5z" />
    <glyph glyph-name="l" unicode="l" horiz-adv-x="202" 
d="M107 4q-28 -15 -59.5 -20.5t-57 9t-23.5 53.5q5 87 73.5 237.5t114.5 174.5q41 24 80 4.5t35 -73.5q-9 -67 -59 -126t-117 -92l-12 -32t-15 -46t-7 -44t13 -15q33 4 129 74h29q-12 -20 -50 -52.5t-74 -51.5zM240 393q2 29 -10.5 30.5t-23.5 -17.5q-36 -53 -101 -197
q52 33 91 82.5t44 101.5z" />
    <glyph glyph-name="m" unicode="m" horiz-adv-x="537" 
d="M537 108h29q-16 -25 -57.5 -58t-80.5 -55q-34 -20 -60 -22t-38.5 17t-2.5 59q5 22 18 57l22 59.5t7 33.5q-4 20 -43 -11q-47 -39 -65 -86q-25 -67 -41 -89q-10 -11 -27 -11t-31 10.5t-9 23.5q9 20 25.5 73.5t17.5 77.5q2 38 -84 -45q-6 -5 -10 -9l-25 -55
q-24 -55 -31 -69q-13 -19 -32.5 -18.5t-37 12t-17.5 21.5q9 31 39.5 107.5t45.5 107.5q11 17 46.5 7.5t39.5 -22.5q0 -2 -2 -9l-4.5 -15t-2.5 -10q14 19 46.5 31.5t67 5t47.5 -43.5q23 31 67 49.5t72 11.5q55 -16 9 -139q-25 -68 -26 -71q0 -8 6 -5q15 5 122 79z" />
    <glyph glyph-name="n" unicode="n" horiz-adv-x="382" 
d="M382 108h30q-11 -19 -48 -50q-97 -81 -155 -89q-46 -5 -47 47q0 17 31 113q25 77 9 77q-2 0 -5 -1q-11 -4 -19.5 -8t-16 -9t-12.5 -8t-11.5 -9.5l-9 -9l-10 -10.5t-9.5 -11q-30 -84 -49 -122q-14 -19 -34 -18.5t-38 11.5t-18 21q34 129 65 202q2 5 25.5 6.5t45.5 -2
t21 -12.5q0 -4 -1.5 -11l-2.5 -12l-1 -5q21 22 74 40t84 6q21 -8 22.5 -35t-8 -55t-22 -61t-14.5 -44q-6 -32 79 27z" />
    <glyph glyph-name="o" unicode="o" horiz-adv-x="313" 
d="M313 108h29q-39 -63 -115 -62q-17 -35 -59 -56.5t-88 -22.5q-93 -2 -114 76q-18 67 23 144q39 73 99 85q5 1 9 1q23 2 44 -5t27 -16q11 1 24 -2q39 -10 51 -66.5t-5 -98.5q42 -4 75 23zM133 237q-31 -10 -55 -60t-21.5 -100.5t39.5 -59.5q23 -5 53.5 6.5t40.5 30.5
q-56 17 -81 51.5t-16.5 70.5t40.5 61zM202 90q6 14 7.5 41t-5.5 55t-24 34q-20 7 -37 -22q-22 -39 1 -73q17 -25 58 -35z" />
    <glyph glyph-name="p" unicode="p" horiz-adv-x="359" 
d="M359 108h29q-22 -33 -58 -52.5t-67 -14.5q-34 -84 -78 -86q-51 -7 -81 29q-26 33 -4 63q22 28 83 32q6 15 17.5 64.5t11.5 72.5q0 34 -55 -7q-22 -17 -25 -19l-164 -405q-4 -7 -56 -2q-40 4 -36 14q154 417 203 483q12 16 57 9q34 -6 32 -19q-2 -4 -11 -20q13 9 34.5 16
t44.5 9t41 -8.5t22 -33.5q9 -58 -24 -161q44 7 84 36zM135 4q9 -2 32 37q-36 -1 -39 -23q-2 -12 7 -14z" />
    <glyph glyph-name="q" unicode="q" horiz-adv-x="332" 
d="M240 54q11 1 27.5 10.5t38.5 25t26 18.5h29q-20 -30 -67 -65.5t-68 -39.5q-27 -90 -67 -189q-4 -9 -19.5 -12t-31.5 -1t-29 8.5t-13 14.5q9 50 57 176q-32 -22 -95 -17q-75 7 -79 82q-4 69 47 142q41 58 87 71q22 6 46 -2.5t37.5 -18.5t37.5 -30q6 15 12 23t10 7
q62 -12 61 -32q-1 -18 -7.5 -46t-14 -50.5l-16 -46.5t-9.5 -28zM56 31q18 -14 49.5 -4t35.5 20l7 21l14.5 45.5l16.5 50t14 39.5q-25 15 -40 20t-31 0q-35 -11 -59.5 -91.5t-6.5 -100.5z" />
    <glyph glyph-name="r" unicode="r" horiz-adv-x="305" 
d="M305 108h29q-12 -19 -45 -47.5t-69 -46.5q-77 -37 -109 -17.5t-27.5 72.5t40.5 108q-19 5 -54 21q-3 -4 -10.5 -26t-19.5 -46t-27 -38l-23 12q15 12 29 48.5t20 65.5q-18 16 -23 40t6 44q15 24 40 25.5t36 -25.5q8 -27 -7 -63q18 -16 57 -23q26 11 51 -1t26 -29
q-1 -3 -10 -21q-59 -120 -26 -120q9 0 25 8q27 14 91 59z" />
    <glyph glyph-name="s" unicode="s" horiz-adv-x="297" 
d="M45 162q-22 56 -15 95q7 46 65 58q51 11 82 -11q25 -17 6 -44q-6 -9 -48 -56q66 -147 67 -154q14 4 34 16.5t40 27.5l21 14h29q-17 -26 -53.5 -55t-59.5 -41q25 -115 -48 -148q-46 -20 -87 3q-44 25 -26 77q13 36 59 77q-2 10 -54 115q-39 -45 -44 -49l-23 14
q15 14 55 61zM113 -91q16 21 8 68q-42 -37 -31 -63q7 -16 19 -9zM125 229q31 39 31 46q0 9 -14 3q-25 -11 -19 -42q1 -4 2 -7z" />
    <glyph glyph-name="t" unicode="t" horiz-adv-x="226" 
d="M226 108h29q-19 -29 -64.5 -63.5t-86.5 -49.5q-26 -7 -56.5 -8.5t-56.5 15t-30 47.5q-8 63 85 215l-33 -2q-15 -1 -16.5 12.5t12.5 16.5q26 7 61 12q13 20 40 55q6 7 55 6q43 -2 39 -15l-23 -39q12 1 34 1q17 0 6 -21q-8 -13 -15 -14l-47 -3q-148 -255 -70 -239
q39 8 137 74z" />
    <glyph glyph-name="u" unicode="u" horiz-adv-x="327" 
d="M327 108h29q-11 -19 -46 -50.5t-66 -48.5q-23 -12 -51 -13.5t-48.5 12.5t-19.5 44q-18 -16 -50.5 -28t-65 -11t-42.5 23q-10 23 12.5 88t42.5 100q3 7 39 16q54 13 52 -17q-1 -7 -4 -15q-34 -90 -44 -127q-12 -42 36 -7q7 5 31 24q1 4 12 38l20.5 62.5t13.5 37.5
q15 27 32.5 23.5t33 -18.5t14.5 -19l-7 -21q-57 -154 -26 -154q3 -1 7 1q13 5 33.5 18l40.5 27t21 15z" />
    <glyph glyph-name="v" unicode="v" horiz-adv-x="288" 
d="M288 108h29q-33 -52 -92 -86.5t-104 -2.5q-38 -20 -72 -41q-15 -9 -49 0.5t-31 24.5l11.5 67l16 91t15.5 65q8 28 28.5 30.5t37 -10.5t15.5 -24q-2 -31 -32 -199l41 24q-12 32 3.5 81.5t46.5 67.5q26 15 51.5 0t30.5 -45q6 -50 -74 -107q21 -11 128 64zM205 150
q0 13 -11.5 19.5t-23.5 -2.5q-19 -13 -30.5 -48t-2.5 -49q69 50 68 80z" />
    <glyph glyph-name="w" unicode="w" horiz-adv-x="502" 
d="M502 108h29q-23 -38 -92 -83.5t-107 -27.5q-31 -27 -70.5 -34t-69 17t-27.5 79q-34 -42 -67.5 -65t-76.5 -21q-33 2 -52 19t-10 51q11 41 37 103t41 86q17 22 36.5 17t34 -24.5t9.5 -31.5q-60 -139 -64 -164q-1 -10 8 -9q26 3 68 48q43 45 59 96q17 52 50 13
q21 -26 22 -43q-8 -30 -1 -78q9 -63 46 -37q-27 29 -23.5 80t30.5 84q23 31 56.5 27.5t39.5 -42.5q5 -28 -8.5 -65t-33.5 -67q13 -2 32 5.5t33.5 16.5t38 26.5t32.5 23.5zM372 162q0 7 -6 9t-13.5 -1t-12.5 -10q-15 -23 -18.5 -62t11.5 -53q14 21 26.5 57t12.5 60z" />
    <glyph glyph-name="x" unicode="x" horiz-adv-x="310" 
d="M310 108h28q-8 -14 -31 -35.5t-49 -39.5q-28 -20 -43.5 -28.5t-40.5 -16.5t-44.5 2t-36.5 37l-32 -31q-25 -23 -36.5 -13.5t6.5 38.5q18 26 49 59q0 7 2 29q6 45 -3 45q-5 -1 -14 -11q-46 -50 -53 -56l-23 14q21 18 57 62q49 59 92 58q28 -1 31 -33.5t-5 -54.5
q6 6 27 28.5t32 32.5q17 16 27.5 10t0.5 -27q-18 -41 -89 -115q3 -16 9 -22.5t18 -3.5t20 7t27 16q7 4 10 6q16 10 40 27z" />
    <glyph glyph-name="y" unicode="y" horiz-adv-x="363" 
d="M363 108h29q-34 -54 -145 -117l-13.5 -39.5l-18 -51t-20.5 -50t-26 -53t-29.5 -42.5t-35.5 -35q-25 -18 -56.5 -21t-57.5 7t-41.5 36.5t-11.5 62.5q2 20 10.5 40t24.5 39t29 33t38 32.5l36.5 27t39.5 26.5t33 21q1 1 2 3q-39 -18 -102.5 -21t-81.5 22q-10 23 15.5 100.5
t44.5 110.5q4 7 40 15q54 13 50 -19q-1 -6 -4 -13q-43 -125 -50 -151q-5 -20 23 -23q37 -4 70 15q4 2 7 4l52 165q22 5 42.5 1t35 -11.5t13.5 -13.5q-4 -26 -19.5 -84t-22.5 -76q26 9 100 60zM-19 -193q-9 -45 12 -55t46 27q33 50 86 180l-33.5 -23.5t-38 -28.5l-30 -27
t-28.5 -35t-14 -38z" />
    <glyph glyph-name="z" unicode="z" 
d="M220 68q34 0 59 -18q15 5 35 17.5t40 26.5l19 14h29q-10 -17 -40.5 -43.5t-60.5 -44.5q16 -42 14 -92.5t-29 -102.5t-68 -76q-32 -22 -89.5 -19t-81.5 33q-22 26 4.5 75t67.5 89t67 53q-8 18 -22.5 29t-20.5 9q-5 -2 -24 -9q-18 -7 -29 8t0 30q68 87 79 145q5 31 -13 28
q-24 -4 -74 -60q-35 -39 -69 -73l-23 14q23 19 57 61q7 8 17 21.5l17.5 24t18.5 23.5t20.5 20t24 14.5t27.5 6t32 -5.5q42 -14 51.5 -54.5t-3 -78.5t-32.5 -65zM205 -51q-31 -17 -85 -78t-36 -85q16 -14 43.5 -8.5t43.5 19.5q28 24 36.5 71t-2.5 81z" />
    <glyph glyph-name="braceleft" unicode="{" horiz-adv-x="407" 
d="M308 576q-35 -4 -44.5 -52t-10.5 -117t-12 -97q-28 -65 -87 -102q10 -7 18 -20q22 -32 25 -104t5 -137.5t20 -84.5q11 -11 38 -13t29 -7q2 -10 -33.5 -14.5t-73.5 -0.5q-51 5 -71.5 47t-18 93t-0.5 110.5t-23 88.5q-12 15 -32 18q-18 3 -21 21.5t14 27.5q77 40 103 98
q12 31 15 73.5t4 74t11.5 62t45 48.5t97.5 22q86 -9 85 -24q-1 -4 -18 -6.5t-39 -3.5t-26 -1z" />
    <glyph glyph-name="bar" unicode="|" horiz-adv-x="82" 
d="M50 609q6 -3 7 -12q3 -9 4.5 -169t2.5 -333.5t2 -193.5q1 -38 -6 -53.5t-17.5 -1.5t-16.5 52q-10 88 -10 375t21 328q4 13 13 8z" />
    <glyph glyph-name="braceright" unicode="}" horiz-adv-x="407" 
d="M99 -143q35 4 44.5 52t10.5 117t12 97q28 65 87 102q-10 7 -18 20q-22 32 -25 104t-5 137.5t-20 84.5q-11 11 -38 13t-29 7q-2 10 33.5 14.5t73.5 0.5q51 -5 71.5 -47t18 -93t0.5 -110.5t23 -88.5q12 -15 32 -18q18 -3 21 -21.5t-14 -27.5q-77 -40 -103 -98
q-12 -31 -15 -73.5t-4 -74t-11.5 -62t-45 -48.5t-97.5 -22q-86 9 -85 24q1 4 18 6.5t39 3.5t26 1z" />
    <glyph glyph-name="asciitilde" unicode="~" horiz-adv-x="351" 
d="M333 300q9 -10 -11 -30q-53 -56 -134 -25q-11 4 -35 16t-37 16.5t-31.5 1.5t-34.5 -20q-11 -11 -20.5 -12t-12.5 6.5t2 19.5q7 14 14.5 24t18 15t18 9t21.5 2.5t21 -1.5t23 -5.5t21 -7.5l22.5 -9t20.5 -8q42 -16 55 -15.5t51 18.5q23 10 28 5z" />
    <glyph glyph-name="exclamdown" unicode="&#xa1;" horiz-adv-x="246" 
d="M93 -61q-8 -15 -28.5 -18t-36.5 6.5t-12 25.5q16 52 48.5 137.5t56.5 135.5q9 17 29.5 21t36 -6t11.5 -29q-14 -50 -48 -138t-57 -135zM173 364q9 11 32.5 4t24.5 -20q2 -28 -16 -46q-9 -10 -32 -1.5t-23 20.5q-2 22 14 43z" />
    <glyph glyph-name="cent" unicode="&#xa2;" horiz-adv-x="258" 
d="M142 609q6 -3 7 -12q4 -14 6 -325q28 -16 39 -47q9 -23 -8 -25q-3 0 -7.5 4.5t-11 12.5t-12.5 12q1 -64 1 -181q17 5 34 15t40 26t28 19h29q-7 -15 -46.5 -49.5t-84.5 -48.5l2 -109q1 -38 -6 -53.5t-17.5 -1.5t-16.5 52q-5 43 -6 103q-93 -11 -122 63q-24 61 7 133
q31 69 88 82q12 3 23 3q0 277 21 319q4 13 13 8zM104 48q4 -2 6 -2q-2 106 -2 177q-27 -36 -32 -96t28 -79z" />
    <glyph glyph-name="dieresis" unicode="&#xa8;" horiz-adv-x="188" 
d="M72 494q-9 -11 -32 -4t-25 20q0 28 16 46q9 10 32 1.5t24 -20.5q1 -8 -4 -22t-11 -21zM157 494q-9 -11 -32 -4t-25 20q0 28 16 46q9 10 32 1.5t24 -20.5q1 -8 -4 -22t-11 -21z" />
    <glyph glyph-name="logicalnot" unicode="&#xac;" horiz-adv-x="332" 
d="M273 328q-5 47 1 83q-36 -3 -118.5 -2.5t-106.5 5.5q-22 5 -30 14t1 16.5t32 8.5q25 2 117 1.5t116 -3.5q29 -3 29 -39q0 -12 1 -29t0.5 -29t-3.5 -28q-5 -19 -13.5 -25.5t-16 1.5t-9.5 26z" />
    <glyph glyph-name="acute" unicode="&#xb4;" horiz-adv-x="167" 
d="M114 622q23 18 34 9t-5 -35q-26 -38 -87 -91q-27 -24 -37.5 -14.5t8.5 39.5q33 49 87 92z" />
    <glyph glyph-name="periodcentered" unicode="&#xb7;" horiz-adv-x="155" 
d="M113 266q-16 -19 -56 -7t-42 34q0 19 8 43t19 36q16 16 55.5 2.5t41.5 -34.5q1 -15 -7.5 -39t-18.5 -35z" />
    <glyph glyph-name="cedilla" unicode="&#xb8;" horiz-adv-x="171" 
d="M15 9l54 -2l-1 -47q66 34 84 -11q13 -37 -11 -85q-25 -50 -63 -44q-29 5 -55 44l21 1q26 -46 55 -14q24 26 23 64q-1 35 -28 33q-12 -1 -27 -10l-52 -10v81z" />
    <glyph glyph-name="questiondown" unicode="&#xbf;" horiz-adv-x="288" 
d="M31 -25q-49 96 64 179l13.5 10t12.5 9t10 8t10 10l8 10.5t9 13.5t8 16q10 23 20.5 35.5t18.5 13t14.5 -4.5t10.5 -13.5t5 -17.5q8 -56 -80 -126q-73 -59 -44 -117q9 -16 32.5 -22t47.5 -1q53 12 39 50q-2 4 -6.5 11.5l-8 13.5t-7 14.5t-4 13t2.5 8.5q9 7 31 -14.5
t24 -30.5q19 -41 1.5 -68.5t-59.5 -38.5q-45 -15 -99.5 -4.5t-73.5 42.5zM207 384q9 11 32 4t25 -20q0 -28 -16 -46q-9 -10 -32 -1.5t-24 20.5q-1 8 4 22t11 21z" />
    <glyph glyph-name="Agrave" unicode="&#xc0;" horiz-adv-x="1001" 
d="M905 576q31 18 61 -16t16 -65q-20 -43 -54.5 -109l-79.5 -147.5l-56 -102.5q46 -37 37 -88.5t-62 -79.5q-38 -20 -66 -4.5t-16 61.5q5 18 48 95q-14 8 -41.5 20t-46 23.5t-36.5 28.5q-1 0 -40 -28.5t-48.5 -34.5t-48 -32t-55.5 -34t-52.5 -26.5t-58.5 -23.5l-53.5 -12
t-56.5 -4t-50 12q-70 25 -108.5 107t-13.5 134q5 9 14 9.5t15.5 -7.5t2.5 -17q-20 -47 15.5 -90t87.5 -44q27 0 61 10t62 22.5t68 37t60.5 38.5l59 41l45.5 32q-30 43 -33.5 100t27 98.5t88.5 36.5q30 -2 14 -20q-12 -13 -28 -15q-37 -4 -51 -38t-6.5 -73t25.5 -64
q33 24 163.5 129.5t190.5 139.5zM755 160q104 190 158 276q-113 -104 -267 -217q14 -13 31.5 -22.5t42 -20t35.5 -16.5zM746 9q27 15 35.5 39t-11.5 46q-36 -67 -41 -82q-2 -9 2 -9q2 0 15 6zM904 641q-54 43 -87 92q-19 30 -8.5 39.5t37.5 -14.5q61 -53 87 -91
q16 -26 5 -35t-34 9z" />
    <glyph glyph-name="Aacute" unicode="&#xc1;" horiz-adv-x="1001" 
d="M905 576q31 18 61 -16t16 -65q-20 -43 -54.5 -109l-79.5 -147.5l-56 -102.5q46 -37 37 -88.5t-62 -79.5q-38 -20 -66 -4.5t-16 61.5q5 18 48 95q-14 8 -41.5 20t-46 23.5t-36.5 28.5q-1 0 -40 -28.5t-48.5 -34.5t-48 -32t-55.5 -34t-52.5 -26.5t-58.5 -23.5l-53.5 -12
t-56.5 -4t-50 12q-70 25 -108.5 107t-13.5 134q5 9 14 9.5t15.5 -7.5t2.5 -17q-20 -47 15.5 -90t87.5 -44q27 0 61 10t62 22.5t68 37t60.5 38.5l59 41l45.5 32q-30 43 -33.5 100t27 98.5t88.5 36.5q30 -2 14 -20q-12 -13 -28 -15q-37 -4 -51 -38t-6.5 -73t25.5 -64
q33 24 163.5 129.5t190.5 139.5zM755 160q104 190 158 276q-113 -104 -267 -217q14 -13 31.5 -22.5t42 -20t35.5 -16.5zM746 9q27 15 35.5 39t-11.5 46q-36 -67 -41 -82q-2 -9 2 -9q2 0 15 6zM928 745q23 18 34 9t-5 -35q-26 -38 -87 -91q-27 -24 -37.5 -14.5t8.5 39.5
q33 49 87 92z" />
    <glyph glyph-name="Acircumflex" unicode="&#xc2;" horiz-adv-x="1001" 
d="M905 576q31 18 61 -16t16 -65q-20 -43 -54.5 -109l-79.5 -147.5l-56 -102.5q46 -37 37 -88.5t-62 -79.5q-38 -20 -66 -4.5t-16 61.5q5 18 48 95q-14 8 -41.5 20t-46 23.5t-36.5 28.5q-1 0 -40 -28.5t-48.5 -34.5t-48 -32t-55.5 -34t-52.5 -26.5t-58.5 -23.5l-53.5 -12
t-56.5 -4t-50 12q-70 25 -108.5 107t-13.5 134q5 9 14 9.5t15.5 -7.5t2.5 -17q-20 -47 15.5 -90t87.5 -44q27 0 61 10t62 22.5t68 37t60.5 38.5l59 41l45.5 32q-30 43 -33.5 100t27 98.5t88.5 36.5q30 -2 14 -20q-12 -13 -28 -15q-37 -4 -51 -38t-6.5 -73t25.5 -64
q33 24 163.5 129.5t190.5 139.5zM755 160q104 190 158 276q-113 -104 -267 -217q14 -13 31.5 -22.5t42 -20t35.5 -16.5zM746 9q27 15 35.5 39t-11.5 46q-36 -67 -41 -82q-2 -9 2 -9q2 0 15 6zM791 659q51 115 62 135q6 10 18.5 12t21.5 -6q11 -12 36.5 -64t33.5 -65
q2 -2 7 -9t8.5 -12.5l8.5 -13t5.5 -12t-0.5 -9.5q-15 -19 -61 33q-20 25 -56 90l-21.5 -43.5l-26.5 -53.5q-28 -47 -42.5 -40t6.5 58z" />
    <glyph glyph-name="Atilde" unicode="&#xc3;" horiz-adv-x="1001" 
d="M905 576q31 18 61 -16t16 -65q-20 -43 -54.5 -109l-79.5 -147.5l-56 -102.5q46 -37 37 -88.5t-62 -79.5q-38 -20 -66 -4.5t-16 61.5q5 18 48 95q-14 8 -41.5 20t-46 23.5t-36.5 28.5q-1 0 -40 -28.5t-48.5 -34.5t-48 -32t-55.5 -34t-52.5 -26.5t-58.5 -23.5l-53.5 -12
t-56.5 -4t-50 12q-70 25 -108.5 107t-13.5 134q5 9 14 9.5t15.5 -7.5t2.5 -17q-20 -47 15.5 -90t87.5 -44q27 0 61 10t62 22.5t68 37t60.5 38.5l59 41l45.5 32q-30 43 -33.5 100t27 98.5t88.5 36.5q30 -2 14 -20q-12 -13 -28 -15q-37 -4 -51 -38t-6.5 -73t25.5 -64
q33 24 163.5 129.5t190.5 139.5zM755 160q104 190 158 276q-113 -104 -267 -217q14 -13 31.5 -22.5t42 -20t35.5 -16.5zM746 9q27 15 35.5 39t-11.5 46q-36 -67 -41 -82q-2 -9 2 -9q2 0 15 6zM1072 659q7 -8 -9 -26q-47 -48 -116 -22q-9 4 -30 14.5t-32 14t-27 0.5t-30 -17
t-24.5 -9t-2.5 22q6 12 12.5 20.5t15.5 13l15.5 7.5t19 2t18 -1t20 -5t18 -6t19.5 -7.5t18 -7.5q36 -14 47 -13.5t44 16.5q20 8 24 4z" />
    <glyph glyph-name="Adieresis" unicode="&#xc4;" horiz-adv-x="1001" 
d="M905 576q31 18 61 -16t16 -65q-20 -43 -54.5 -109l-79.5 -147.5l-56 -102.5q46 -37 37 -88.5t-62 -79.5q-38 -20 -66 -4.5t-16 61.5q5 18 48 95q-14 8 -41.5 20t-46 23.5t-36.5 28.5q-1 0 -40 -28.5t-48.5 -34.5t-48 -32t-55.5 -34t-52.5 -26.5t-58.5 -23.5l-53.5 -12
t-56.5 -4t-50 12q-70 25 -108.5 107t-13.5 134q5 9 14 9.5t15.5 -7.5t2.5 -17q-20 -47 15.5 -90t87.5 -44q27 0 61 10t62 22.5t68 37t60.5 38.5l59 41l45.5 32q-30 43 -33.5 100t27 98.5t88.5 36.5q30 -2 14 -20q-12 -13 -28 -15q-37 -4 -51 -38t-6.5 -73t25.5 -64
q33 24 163.5 129.5t190.5 139.5zM755 160q104 190 158 276q-113 -104 -267 -217q14 -13 31.5 -22.5t42 -20t35.5 -16.5zM746 9q27 15 35.5 39t-11.5 46q-36 -67 -41 -82q-2 -9 2 -9q2 0 15 6zM913 625q-9 -11 -32 -4t-25 20q0 28 16 46q9 10 32 1.5t24 -20.5q1 -8 -4 -22
t-11 -21zM998 625q-9 -11 -32 -4t-25 20q0 28 16 46q9 10 32 1.5t24 -20.5q1 -8 -4 -22t-11 -21z" />
    <glyph glyph-name="Aring" unicode="&#xc5;" horiz-adv-x="1001" 
d="M905 576q31 18 61 -16t16 -65q-20 -43 -54.5 -109l-79.5 -147.5l-56 -102.5q46 -37 37 -88.5t-62 -79.5q-38 -20 -66 -4.5t-16 61.5q5 18 48 95q-14 8 -41.5 20t-46 23.5t-36.5 28.5q-1 0 -40 -28.5t-48.5 -34.5t-48 -32t-55.5 -34t-52.5 -26.5t-58.5 -23.5l-53.5 -12
t-56.5 -4t-50 12q-70 25 -108.5 107t-13.5 134q5 9 14 9.5t15.5 -7.5t2.5 -17q-20 -47 15.5 -90t87.5 -44q27 0 61 10t62 22.5t68 37t60.5 38.5l59 41l45.5 32q-30 43 -33.5 100t27 98.5t88.5 36.5q30 -2 14 -20q-12 -13 -28 -15q-37 -4 -51 -38t-6.5 -73t25.5 -64
q33 24 163.5 129.5t190.5 139.5zM755 160q104 190 158 276q-113 -104 -267 -217q14 -13 31.5 -22.5t42 -20t35.5 -16.5zM746 9q27 15 35.5 39t-11.5 46q-36 -67 -41 -82q-2 -9 2 -9q2 0 15 6zM913 600q-32 8 -38 42t15 65t55 32q29 0 29 -4q0 -5 -14 -11q-20 -12 -28 -43.5
t3 -50.5q10 -17 27 -6q15 10 22.5 43t-0.5 50q-1 2 -2 5t-2 5t-1 3q0 6 5 3q7 -1 12 -12q11 -25 3 -62.5t-30 -53.5q-22 -14 -56 -5z" />
    <glyph glyph-name="AE" unicode="&#xc6;" horiz-adv-x="1208" 
d="M905 576q24 14 51 -7q41 41 89.5 65t92.5 21q39 -3 65.5 -30t30.5 -62.5t-10 -72.5q-33 -74 -175 -118l8 -3q36 -14 48.5 -23t-1.5 -15.5t-62 -8.5q-73 -4 -127 -93q-45 -75 -41 -142q3 -49 36 -53q-7 61 23 105.5t87 67.5q67 27 100.5 -2t7.5 -97q-20 -51 -63 -83.5
t-98 -37.5q12 -24 24 -40t34.5 -28t31.5 -15l44 -15q18 -7 10.5 -21.5t-22.5 -11.5q-128 31 -166 129q-60 -1 -99 44q-16 -39 -57 -61q-38 -20 -66 -4.5t-16 61.5q5 18 48 95q-14 8 -41.5 20t-46 23.5t-36.5 28.5q-1 0 -40 -28.5t-48.5 -34.5t-48 -32t-55.5 -34t-52.5 -26.5
t-58.5 -23.5l-53.5 -12t-56.5 -4t-50 12q-70 25 -108.5 107t-13.5 134q5 9 14 9.5t15.5 -7.5t2.5 -17q-20 -47 15.5 -90t87.5 -44q27 0 61 10t62 22.5t68 37t60.5 38.5l59 41l45.5 32q-30 43 -33.5 100t27 98.5t88.5 36.5q30 -2 14 -20q-12 -13 -28 -15q-37 -4 -51 -38
t-6.5 -73t25.5 -64q39 28 167 132q-9 31 -3 63.5t24 55.5q5 7 19 1t7 -17q-25 -37 -15 -77q100 80 155 111zM1014 407q143 45 168 104q5 16 6.5 38t-9 38.5t-31.5 10.5q-44 -13 -95.5 -80t-38.5 -111zM755 160l27 56t26 48l20.5 35t20.5 32t16 24q-21 -1 -43 2
q-86 -72 -176 -138q14 -13 31.5 -22.5t42 -20t35.5 -16.5zM1084 125q15 38 2.5 47t-48.5 -6q-47 -18 -69.5 -52.5t-15.5 -82.5q47 3 81 28t50 66zM746 9q27 15 35.5 39t-11.5 46q-36 -67 -41 -82q-2 -9 2 -9q2 0 15 6z" />
    <glyph glyph-name="Ccedilla" unicode="&#xc7;" horiz-adv-x="591" 
d="M118 347q74 107 174 179t208 69q69 -2 107 -38.5t34.5 -85t-45.5 -86.5q-58 -53 -168.5 -83t-199.5 -21q-20 -32 -29.5 -70t-6 -73.5t27.5 -61.5t66 -31q-11 53 11 101t69 73q54 23 92.5 -3t28.5 -84q-11 -54 -51.5 -87.5t-97.5 -42.5l-1 -40q66 34 84 -11
q13 -37 -11 -85q-25 -50 -63 -44q-29 5 -55 44l21 1q26 -46 55 -14q24 26 23 64q-1 35 -28 33q-12 -1 -27 -10l-52 -10v69q-128 1 -187 91t1 225q-54 20 -73 68.5t-2 95.5q6 16 18.5 8t7.5 -23q-11 -39 6 -72.5t63 -44.5zM566 417q26 25 32 58t-16 52t-66 6
q-62 -20 -135 -83t-127 -132q77 -1 171 26.5t141 72.5zM384 184q-39 -19 -56 -58t-8 -82q47 4 82.5 28.5t43.5 66.5q6 32 -14.5 45t-47.5 0z" />
    <glyph glyph-name="Egrave" unicode="&#xc8;" horiz-adv-x="512" 
d="M174 400q3 59 46 120.5t105 100t117 34.5q39 -3 65.5 -30t30.5 -62.5t-10 -72.5q-33 -74 -175 -118l8 -3q36 -14 48.5 -23t-1.5 -15.5t-62 -8.5q-73 -4 -127 -93q-45 -75 -41 -142q3 -49 36 -53q-7 61 23 105.5t87 67.5q67 27 100.5 -2t7.5 -97q-20 -51 -63 -83.5
t-98 -37.5q12 -24 24 -40t34.5 -28t31.5 -15l44 -15q18 -7 10.5 -21.5t-22.5 -11.5q-128 31 -166 129q-50 -2 -86.5 30.5t-47.5 81.5t-5 100.5t42 94t92 56.5q-8 3 -20 12q-53 -10 -93.5 0t-60 33.5t-27.5 53t-1.5 59.5t23.5 52q5 7 19 1t7 -17q-16 -24 -16.5 -51.5
t12 -49.5t41.5 -34t68 -7zM318 407q143 45 168 104q5 16 6.5 38t-9 38.5t-31.5 10.5q-44 -13 -95.5 -80t-38.5 -111zM388 125q15 38 2.5 47t-48.5 -6q-47 -18 -69.5 -52.5t-15.5 -82.5q47 3 81 28t50 66zM386 697q-54 43 -87 92q-19 30 -8.5 39.5t37.5 -14.5q61 -53 87 -91
q16 -26 5 -35t-34 9z" />
    <glyph glyph-name="Eacute" unicode="&#xc9;" horiz-adv-x="512" 
d="M174 400q3 59 46 120.5t105 100t117 34.5q39 -3 65.5 -30t30.5 -62.5t-10 -72.5q-33 -74 -175 -118l8 -3q36 -14 48.5 -23t-1.5 -15.5t-62 -8.5q-73 -4 -127 -93q-45 -75 -41 -142q3 -49 36 -53q-7 61 23 105.5t87 67.5q67 27 100.5 -2t7.5 -97q-20 -51 -63 -83.5
t-98 -37.5q12 -24 24 -40t34.5 -28t31.5 -15l44 -15q18 -7 10.5 -21.5t-22.5 -11.5q-128 31 -166 129q-50 -2 -86.5 30.5t-47.5 81.5t-5 100.5t42 94t92 56.5q-8 3 -20 12q-53 -10 -93.5 0t-60 33.5t-27.5 53t-1.5 59.5t23.5 52q5 7 19 1t7 -17q-16 -24 -16.5 -51.5
t12 -49.5t41.5 -34t68 -7zM318 407q143 45 168 104q5 16 6.5 38t-9 38.5t-31.5 10.5q-44 -13 -95.5 -80t-38.5 -111zM388 125q15 38 2.5 47t-48.5 -6q-47 -18 -69.5 -52.5t-15.5 -82.5q47 3 81 28t50 66zM423 822q23 18 34 9t-5 -35q-26 -38 -87 -91q-27 -24 -37.5 -14.5
t8.5 39.5q33 49 87 92z" />
    <glyph glyph-name="Ecircumflex" unicode="&#xca;" horiz-adv-x="512" 
d="M174 400q3 59 46 120.5t105 100t117 34.5q39 -3 65.5 -30t30.5 -62.5t-10 -72.5q-33 -74 -175 -118l8 -3q36 -14 48.5 -23t-1.5 -15.5t-62 -8.5q-73 -4 -127 -93q-45 -75 -41 -142q3 -49 36 -53q-7 61 23 105.5t87 67.5q67 27 100.5 -2t7.5 -97q-20 -51 -63 -83.5
t-98 -37.5q12 -24 24 -40t34.5 -28t31.5 -15l44 -15q18 -7 10.5 -21.5t-22.5 -11.5q-128 31 -166 129q-50 -2 -86.5 30.5t-47.5 81.5t-5 100.5t42 94t92 56.5q-8 3 -20 12q-53 -10 -93.5 0t-60 33.5t-27.5 53t-1.5 59.5t23.5 52q5 7 19 1t7 -17q-16 -24 -16.5 -51.5
t12 -49.5t41.5 -34t68 -7zM318 407q143 45 168 104q5 16 6.5 38t-9 38.5t-31.5 10.5q-44 -13 -95.5 -80t-38.5 -111zM388 125q15 38 2.5 47t-48.5 -6q-47 -18 -69.5 -52.5t-15.5 -82.5q47 3 81 28t50 66zM330 701q51 115 62 135q6 10 18.5 12t21.5 -6q11 -12 36.5 -64
t33.5 -65q2 -2 7 -9t8.5 -12.5l8.5 -13t5.5 -12t-0.5 -9.5q-15 -19 -61 33q-20 25 -56 90l-21.5 -43.5l-26.5 -53.5q-28 -47 -42.5 -40t6.5 58z" />
    <glyph glyph-name="Edieresis" unicode="&#xcb;" horiz-adv-x="512" 
d="M174 400q3 59 46 120.5t105 100t117 34.5q39 -3 65.5 -30t30.5 -62.5t-10 -72.5q-33 -74 -175 -118l8 -3q36 -14 48.5 -23t-1.5 -15.5t-62 -8.5q-73 -4 -127 -93q-45 -75 -41 -142q3 -49 36 -53q-7 61 23 105.5t87 67.5q67 27 100.5 -2t7.5 -97q-20 -51 -63 -83.5
t-98 -37.5q12 -24 24 -40t34.5 -28t31.5 -15l44 -15q18 -7 10.5 -21.5t-22.5 -11.5q-128 31 -166 129q-50 -2 -86.5 30.5t-47.5 81.5t-5 100.5t42 94t92 56.5q-8 3 -20 12q-53 -10 -93.5 0t-60 33.5t-27.5 53t-1.5 59.5t23.5 52q5 7 19 1t7 -17q-16 -24 -16.5 -51.5
t12 -49.5t41.5 -34t68 -7zM318 407q143 45 168 104q5 16 6.5 38t-9 38.5t-31.5 10.5q-44 -13 -95.5 -80t-38.5 -111zM388 125q15 38 2.5 47t-48.5 -6q-47 -18 -69.5 -52.5t-15.5 -82.5q47 3 81 28t50 66zM389 688q-9 -11 -32 -4t-25 20q0 28 16 46q9 10 32 1.5t24 -20.5
q1 -8 -4 -22t-11 -21zM474 688q-9 -11 -32 -4t-25 20q0 28 16 46q9 10 32 1.5t24 -20.5q1 -8 -4 -22t-11 -21z" />
    <glyph glyph-name="Igrave" unicode="&#xcc;" horiz-adv-x="642" 
d="M713 659q6 -74 -38 -189.5t-115.5 -223.5t-170.5 -186t-190 -78q-53 0 -93.5 21t-61 54t-26.5 75t5 81.5t40 75t71 54.5q90 42 141 -10q38 -39 28 -99q-11 -63 -69 -86l-14 -4q-20 -5 -27 -1.5t-1 12t22 15.5q28 13 43.5 37t14 46.5t-13.5 42t-39 23t-63 -10.5
q-78 -34 -98 -114q-17 -70 19 -118q37 -49 104 -31q76 23 166.5 142t149 252t61.5 209q-46 -11 -100.5 -36.5t-103 -69.5t-49.5 -89q-1 -32 26 -59q15 -17 10 -28q-5 -9 -23 6q-44 36 -45 84q-1 56 51.5 109t115.5 83.5t119 43.5q26 6 89 -4t65 -29zM614 723q-54 43 -87 92
q-19 30 -8.5 39.5t37.5 -14.5q61 -53 87 -91q16 -26 5 -35t-34 9z" />
    <glyph glyph-name="Iacute" unicode="&#xcd;" horiz-adv-x="642" 
d="M713 659q6 -74 -38 -189.5t-115.5 -223.5t-170.5 -186t-190 -78q-53 0 -93.5 21t-61 54t-26.5 75t5 81.5t40 75t71 54.5q90 42 141 -10q38 -39 28 -99q-11 -63 -69 -86l-14 -4q-20 -5 -27 -1.5t-1 12t22 15.5q28 13 43.5 37t14 46.5t-13.5 42t-39 23t-63 -10.5
q-78 -34 -98 -114q-17 -70 19 -118q37 -49 104 -31q76 23 166.5 142t149 252t61.5 209q-46 -11 -100.5 -36.5t-103 -69.5t-49.5 -89q-1 -32 26 -59q15 -17 10 -28q-5 -9 -23 6q-44 36 -45 84q-1 56 51.5 109t115.5 83.5t119 43.5q26 6 89 -4t65 -29zM617 852q23 18 34 9
t-5 -35q-26 -38 -87 -91q-27 -24 -37.5 -14.5t8.5 39.5q33 49 87 92z" />
    <glyph glyph-name="Icircumflex" unicode="&#xce;" horiz-adv-x="642" 
d="M713 659q6 -74 -38 -189.5t-115.5 -223.5t-170.5 -186t-190 -78q-53 0 -93.5 21t-61 54t-26.5 75t5 81.5t40 75t71 54.5q90 42 141 -10q38 -39 28 -99q-11 -63 -69 -86l-14 -4q-20 -5 -27 -1.5t-1 12t22 15.5q28 13 43.5 37t14 46.5t-13.5 42t-39 23t-63 -10.5
q-78 -34 -98 -114q-17 -70 19 -118q37 -49 104 -31q76 23 166.5 142t149 252t61.5 209q-46 -11 -100.5 -36.5t-103 -69.5t-49.5 -89q-1 -32 26 -59q15 -17 10 -28q-5 -9 -23 6q-44 36 -45 84q-1 56 51.5 109t115.5 83.5t119 43.5q26 6 89 -4t65 -29zM527 763q51 115 62 135
q6 10 18.5 12t21.5 -6q11 -12 36.5 -64t33.5 -65q2 -2 7 -9t8.5 -12.5l8.5 -13t5.5 -12t-0.5 -9.5q-15 -19 -61 33q-20 25 -56 90l-21.5 -44t-26.5 -53q-28 -47 -42.5 -40t6.5 58z" />
    <glyph glyph-name="Idieresis" unicode="&#xcf;" horiz-adv-x="642" 
d="M713 659q6 -74 -38 -189.5t-115.5 -223.5t-170.5 -186t-190 -78q-53 0 -93.5 21t-61 54t-26.5 75t5 81.5t40 75t71 54.5q90 42 141 -10q38 -39 28 -99q-11 -63 -69 -86l-14 -4q-20 -5 -27 -1.5t-1 12t22 15.5q28 13 43.5 37t14 46.5t-13.5 42t-39 23t-63 -10.5
q-78 -34 -98 -114q-17 -70 19 -118q37 -49 104 -31q76 23 166.5 142t149 252t61.5 209q-46 -11 -100.5 -36.5t-103 -69.5t-49.5 -89q-1 -32 26 -59q15 -17 10 -28q-5 -9 -23 6q-44 36 -45 84q-1 56 51.5 109t115.5 83.5t119 43.5q26 6 89 -4t65 -29zM608 738q-9 -11 -32 -4
t-25 20q0 28 16 46q9 10 32 1.5t24 -20.5q1 -8 -4 -22t-11 -21zM693 738q-9 -11 -32 -4t-25 20q0 28 16 46q9 10 32 1.5t24 -20.5q1 -8 -4 -22t-11 -21z" />
    <glyph glyph-name="Eth" unicode="&#xd0;" horiz-adv-x="716" 
d="M559 490q89 -62 125 -147.5t20 -161.5t-72 -136t-138 -75q-61 -12 -131.5 1.5t-99.5 57.5q-35 -40 -37 -41q-21 -19 -57.5 12t-21.5 53l25.5 34.5t24.5 34.5q-7 20 -14 55q-4 21 5 34q8 9 15 -14l15 -45l56 86l-28 3q-22 5 -30 14t1 16.5t32 8.5q8 0 52 2l137 221
q-52 17 -102.5 14.5t-94 -27.5t-80.5 -61.5t-61 -86.5t-34.5 -102.5t-2.5 -110.5t35 -109q11 -19 0 -32q-7 -9 -17 4q-34 43 -50 96t-13 106t19.5 107.5t48 100t71.5 83.5t90 57.5t104.5 23.5t114.5 -20q7 10 12 16q15 18 57 -8t33 -46q-3 -8 -9 -18zM464 239l-52 -3
q-72 -115 -126 -181q27 -41 83 -45.5t96 21.5q58 34 91.5 115.5t28.5 167.5t-49 133l-96 -166l26 -3q19 -5 25.5 -13.5t-1.5 -16t-26 -9.5z" />
    <glyph glyph-name="Ntilde" unicode="&#xd1;" horiz-adv-x="1103" 
d="M922 574q2 -13 -16 -99t-48.5 -215.5t-30.5 -130.5l38 78t45 83.5t53.5 86.5t60 78t68.5 68t75 46t83 22q57 4 96.5 -15t53 -51t11 -68t-26 -69.5t-61.5 -50.5q-14 -6 -22.5 -3.5t-6 12.5t15.5 20q45 37 56 92q11 52 -26 61q-25 6 -67 -13q-55 -25 -117 -93t-116 -155.5
t-95.5 -165.5t-72.5 -149q-4 -8 -35.5 0t-60 26t-26.5 33q14 107 63 306.5t57 238.5q-103 -229 -180 -341q-197 -286 -456 -247q-136 20 -191 130q-45 90 -17 188q26 89 97 119q29 12 62 11q31 -1 56.5 -18t37.5 -44t13 -56.5t-17.5 -58.5t-54.5 -47q-21 -9 -24.5 2t11.5 21
q40 25 47.5 63.5t-13.5 67t-55 29.5q-71 3 -109 -70q-37 -71 -15 -153q25 -94 114 -124q31 -11 67 -12q58 -2 113.5 28.5t97 78t84 114t72 125.5l64 124.5t57.5 99.5q-18 7 -65.5 0.5t-76.5 -19.5q-68 -31 -121 -84t-41 -111q6 -27 -7 -36q-11 -6 -22 15q-18 40 -6 79.5
t47.5 76t75 63t75.5 40.5q98 37 207 28t125 -55zM1128 726q7 -8 -9 -26q-47 -48 -116 -22q-9 4 -30 14.5t-32 14t-27 0.5t-30 -17t-24.5 -9t-2.5 22q6 12 12.5 20.5t15.5 13l15.5 7.5t19 2t18 -1t20 -5t18 -6t19.5 -7.5t18 -7.5q36 -14 47 -13.5t44 16.5q20 8 24 4z" />
    <glyph glyph-name="Ograve" unicode="&#xd2;" horiz-adv-x="698" 
d="M104 164q-91 20 -89 109q3 88 87 187q95 112 221 148q65 19 128 11q132 -17 182 -134q46 -107 5 -239q-42 -132 -146 -201q-85 -56 -190 -50q-80 5 -135.5 48t-62.5 121zM313 59q40 18 82 72.5t71 123t43.5 136t-2 118.5t-65.5 63q-95 24 -218 -62q-98 -69 -147 -158
q-52 -95 -1 -138q11 -10 28 -16q8 102 96 195.5t182 97.5q15 1 14 -13t-17 -18q-86 -21 -156 -97t-79 -173l55 5q11 1 17.5 -3.5t3 -11t-17.5 -9.5q-28 -7 -56 -11q9 -55 35.5 -85t60 -30.5t71.5 14.5zM422 674q-54 43 -87 92q-19 30 -8.5 39.5t37.5 -14.5q61 -53 87 -91
q16 -26 5 -35t-34 9z" />
    <glyph glyph-name="Oacute" unicode="&#xd3;" horiz-adv-x="698" 
d="M104 164q-91 20 -89 109q3 88 87 187q95 112 221 148q65 19 128 11q132 -17 182 -134q46 -107 5 -239q-42 -132 -146 -201q-85 -56 -190 -50q-80 5 -135.5 48t-62.5 121zM313 59q40 18 82 72.5t71 123t43.5 136t-2 118.5t-65.5 63q-95 24 -218 -62q-98 -69 -147 -158
q-52 -95 -1 -138q11 -10 28 -16q8 102 96 195.5t182 97.5q15 1 14 -13t-17 -18q-86 -21 -156 -97t-79 -173l55 5q11 1 17.5 -3.5t3 -11t-17.5 -9.5q-28 -7 -56 -11q9 -55 35.5 -85t60 -30.5t71.5 14.5zM410 787q23 18 34 9t-5 -35q-26 -38 -87 -91q-27 -24 -37.5 -14.5
t8.5 39.5q33 49 87 92z" />
    <glyph glyph-name="Ocircumflex" unicode="&#xd4;" horiz-adv-x="698" 
d="M104 164q-91 20 -89 109q3 88 87 187q95 112 221 148q65 19 128 11q132 -17 182 -134q46 -107 5 -239q-42 -132 -146 -201q-85 -56 -190 -50q-80 5 -135.5 48t-62.5 121zM313 59q40 18 82 72.5t71 123t43.5 136t-2 118.5t-65.5 63q-95 24 -218 -62q-98 -69 -147 -158
q-52 -95 -1 -138q11 -10 28 -16q8 102 96 195.5t182 97.5q15 1 14 -13t-17 -18q-86 -21 -156 -97t-79 -173l55 5q11 1 17.5 -3.5t3 -11t-17.5 -9.5q-28 -7 -56 -11q9 -55 35.5 -85t60 -30.5t71.5 14.5zM259 685q51 115 62 135q6 10 18.5 12t21.5 -6q11 -12 36.5 -64
t33.5 -65q2 -2 7 -9t8.5 -12.5l8.5 -13t5.5 -12t-0.5 -9.5q-15 -19 -61 33q-20 25 -56 90l-21.5 -44t-26.5 -53q-28 -47 -42.5 -40t6.5 58z" />
    <glyph glyph-name="Otilde" unicode="&#xd5;" horiz-adv-x="698" 
d="M104 164q-91 20 -89 109q3 88 87 187q95 112 221 148q65 19 128 11q132 -17 182 -134q46 -107 5 -239q-42 -132 -146 -201q-85 -56 -190 -50q-80 5 -135.5 48t-62.5 121zM313 59q40 18 82 72.5t71 123t43.5 136t-2 118.5t-65.5 63q-95 24 -218 -62q-98 -69 -147 -158
q-52 -95 -1 -138q11 -10 28 -16q8 102 96 195.5t182 97.5q15 1 14 -13t-17 -18q-86 -21 -156 -97t-79 -173l55 5q11 1 17.5 -3.5t3 -11t-17.5 -9.5q-28 -7 -56 -11q9 -55 35.5 -85t60 -30.5t71.5 14.5zM556 731q7 -8 -9 -26q-47 -48 -116 -22q-9 4 -30 14.5t-32 14t-27 0.5
t-30 -17t-24.5 -9t-2.5 22q6 12 12.5 20.5t15.5 13l15.5 7.5t19 2t18 -1t20 -5t18 -6t19.5 -7.5t18 -7.5q36 -14 47 -13.5t44 16.5q20 8 24 4z" />
    <glyph glyph-name="Odieresis" unicode="&#xd6;" horiz-adv-x="698" 
d="M104 164q-91 20 -89 109q3 88 87 187q95 112 221 148q65 19 128 11q132 -17 182 -134q46 -107 5 -239q-42 -132 -146 -201q-85 -56 -190 -50q-80 5 -135.5 48t-62.5 121zM313 59q40 18 82 72.5t71 123t43.5 136t-2 118.5t-65.5 63q-95 24 -218 -62q-98 -69 -147 -158
q-52 -95 -1 -138q11 -10 28 -16q8 102 96 195.5t182 97.5q15 1 14 -13t-17 -18q-86 -21 -156 -97t-79 -173l55 5q11 1 17.5 -3.5t3 -11t-17.5 -9.5q-28 -7 -56 -11q9 -55 35.5 -85t60 -30.5t71.5 14.5zM327 694q-9 -11 -32 -4t-25 20q0 28 16 46q9 10 32 1.5t24 -20.5
q1 -8 -4 -22t-11 -21zM412 694q-9 -11 -32 -4t-25 20q0 28 16 46q9 10 32 1.5t24 -20.5q1 -8 -4 -22t-11 -21z" />
    <glyph glyph-name="Oslash" unicode="&#xd8;" horiz-adv-x="698" 
d="M104 164q-91 20 -89 109q3 88 87 187q95 112 221 148q65 19 128 11q25 -4 50 -12q29 48 44 57q12 9 16 1q3 -6 0 -14q-1 -5 -27 -58q57 -30 88.5 -89t33.5 -126.5t-21.5 -138t-67.5 -126.5t-113.5 -89.5t-151.5 -28.5q-27 1 -60 10q-11 -20 -20.5 -32t-16 -13.5t-9.5 3.5
t-1 20t10 35q-92 44 -101 146zM218 50q144 317 254 508q-15 10 -30 14q-95 24 -218 -62q-98 -69 -147 -158q-52 -95 -1 -138q11 -10 28 -16q8 102 96 195.5t182 97.5q15 1 14 -13t-17 -18q-86 -21 -156 -97t-79 -173l55 5q11 1 17.5 -3.5t3 -11t-17.5 -9.5q-28 -7 -56 -11
q14 -90 72 -110zM313 59q41 19 85 77.5t73 129t41 142t-11 116.5l-239 -479q24 1 51 14z" />
    <glyph glyph-name="Ugrave" unicode="&#xd9;" horiz-adv-x="687" 
d="M744 528l-4 -9q-225 -446 -211 -521q4 -25 40 1q20 14 23 -3q3 -14 -10 -26q-22 -21 -49.5 -35t-56.5 -16.5t-46.5 18t-20 70t22.5 139.5q-16 -15 -37 -32l-59 -45.5t-74 -45t-72.5 -25.5t-64.5 7.5t-40 58.5q-7 54 34 136q-52 15 -79 52.5t-25 82.5t21.5 88.5t60.5 76.5
t92 41q53 7 119 -15.5t70 -61.5q3 -24 -10.5 -60t-30.5 -63l-43 -66t-34 -52q31 -1 58 13q22 13 22 1q-1 -14 -17 -27q-2 -1 -3 -2q-30 -19 -77 -16q-42 -80 -38 -123q2 -14 15 -15.5t34 9t44 24.5t50 34l45.5 34.5l37.5 30t20 16.5q34 88 83 187t93 157q11 14 67 8
q53 -6 51 -24q-1 -1 -1 -2zM195 496q-37 -6 -69.5 -30t-49 -57.5t-20 -68.5t17 -65t62.5 -43q5 10 40.5 64.5t58 98t20.5 64.5q-4 44 -60 37zM484 579q-54 43 -87 92q-19 30 -8.5 39.5t37.5 -14.5q61 -53 87 -91q16 -26 5 -35t-34 9z" />
    <glyph glyph-name="Uacute" unicode="&#xda;" horiz-adv-x="687" 
d="M744 528l-4 -9q-225 -446 -211 -521q4 -25 40 1q20 14 23 -3q3 -14 -10 -26q-22 -21 -49.5 -35t-56.5 -16.5t-46.5 18t-20 70t22.5 139.5q-16 -15 -37 -32l-59 -45.5t-74 -45t-72.5 -25.5t-64.5 7.5t-40 58.5q-7 54 34 136q-52 15 -79 52.5t-25 82.5t21.5 88.5t60.5 76.5
t92 41q53 7 119 -15.5t70 -61.5q3 -24 -10.5 -60t-30.5 -63l-43 -66t-34 -52q31 -1 58 13q22 13 22 1q-1 -14 -17 -27q-2 -1 -3 -2q-30 -19 -77 -16q-42 -80 -38 -123q2 -14 15 -15.5t34 9t44 24.5t50 34l45.5 34.5l37.5 30t20 16.5q34 88 83 187t93 157q11 14 67 8
q53 -6 51 -24q-1 -1 -1 -2zM195 496q-37 -6 -69.5 -30t-49 -57.5t-20 -68.5t17 -65t62.5 -43q5 10 40.5 64.5t58 98t20.5 64.5q-4 44 -60 37zM465 694q23 18 34 9t-5 -35q-26 -38 -87 -91q-27 -24 -37.5 -14.5t8.5 39.5q33 49 87 92z" />
    <glyph glyph-name="Ucircumflex" unicode="&#xdb;" horiz-adv-x="687" 
d="M744 528l-4 -9q-225 -446 -211 -521q4 -25 40 1q20 14 23 -3q3 -14 -10 -26q-22 -21 -49.5 -35t-56.5 -16.5t-46.5 18t-20 70t22.5 139.5q-16 -15 -37 -32l-59 -45.5t-74 -45t-72.5 -25.5t-64.5 7.5t-40 58.5q-7 54 34 136q-52 15 -79 52.5t-25 82.5t21.5 88.5t60.5 76.5
t92 41q53 7 119 -15.5t70 -61.5q3 -24 -10.5 -60t-30.5 -63l-43 -66t-34 -52q31 -1 58 13q22 13 22 1q-1 -14 -17 -27q-2 -1 -3 -2q-30 -19 -77 -16q-42 -80 -38 -123q2 -14 15 -15.5t34 9t44 24.5t50 34l45.5 34.5l37.5 30t20 16.5q34 88 83 187t93 157q11 14 67 8
q53 -6 51 -24q-1 -1 -1 -2zM195 496q-37 -6 -69.5 -30t-49 -57.5t-20 -68.5t17 -65t62.5 -43q5 10 40.5 64.5t58 98t20.5 64.5q-4 44 -60 37zM350 630q51 115 62 135q6 10 18.5 12t21.5 -6q11 -12 36.5 -64t33.5 -65q2 -2 7 -9t8.5 -12.5l8.5 -13t5.5 -12t-0.5 -9.5
q-15 -19 -61 33q-20 25 -56 90l-21.5 -43.5l-26.5 -53.5q-28 -47 -42.5 -40t6.5 58z" />
    <glyph glyph-name="Udieresis" unicode="&#xdc;" horiz-adv-x="687" 
d="M744 528l-4 -9q-225 -446 -211 -521q4 -25 40 1q20 14 23 -3q3 -14 -10 -26q-22 -21 -49.5 -35t-56.5 -16.5t-46.5 18t-20 70t22.5 139.5q-16 -15 -37 -32l-59 -45.5t-74 -45t-72.5 -25.5t-64.5 7.5t-40 58.5q-7 54 34 136q-52 15 -79 52.5t-25 82.5t21.5 88.5t60.5 76.5
t92 41q53 7 119 -15.5t70 -61.5q3 -24 -10.5 -60t-30.5 -63l-43 -66t-34 -52q31 -1 58 13q22 13 22 1q-1 -14 -17 -27q-2 -1 -3 -2q-30 -19 -77 -16q-42 -80 -38 -123q2 -14 15 -15.5t34 9t44 24.5t50 34l45.5 34.5l37.5 30t20 16.5q34 88 83 187t93 157q11 14 67 8
q53 -6 51 -24q-1 -1 -1 -2zM195 496q-37 -6 -69.5 -30t-49 -57.5t-20 -68.5t17 -65t62.5 -43q5 10 40.5 64.5t58 98t20.5 64.5q-4 44 -60 37zM425 581q-9 -11 -32 -4t-25 20q0 28 16 46q9 10 32 1.5t24 -20.5q1 -8 -4 -22t-11 -21zM510 581q-9 -11 -32 -4t-25 20q0 28 16 46
q9 10 32 1.5t24 -20.5q1 -8 -4 -22t-11 -21z" />
    <glyph glyph-name="Yacute" unicode="&#xdd;" horiz-adv-x="772" 
d="M909 564q23 -15 12.5 -25t-28.5 -1q-22 10 -49.5 -17.5t-59.5 -80l-69.5 -118t-86 -132.5t-102.5 -123t-126 -90.5t-149 -32.5q-122 3 -190 95q-56 76 -43 163t90 120q29 12 64 14q77 4 105 -54.5t3 -113.5q-9 -20 -19 -13t-5 23q15 45 -7.5 82.5t-74.5 34.5
q-83 -5 -111 -74q-24 -62 10 -126q38 -71 120 -78q33 -2 71 8q74 20 150.5 89.5t119.5 137.5q-105 -44 -176 -22q-38 11 -52 42t-2 59q-88 0 -129 64t-12 129q20 47 64.5 72.5t90.5 26t88.5 -19t61.5 -54.5q27 -48 -20 -191q17 0 23 -1q18 -1 17 -11q-1 -12 -20 -16h-3
l-31 -4q-16 -29 -15 -47q1 -11 14.5 -13.5t34 3t38 11.5t37.5 14t22 9q9 14 28 49.5l35 63.5t40 64t49.5 58.5t55 39t64.5 13t72 -26.5zM370 529q-4 38 -39.5 46.5t-74 -11t-51.5 -51.5q-20 -50 11 -97t105 -51q18 33 35 81.5t14 82.5zM631 754q23 18 34 9t-5 -35
q-26 -38 -87 -91q-27 -24 -37.5 -14.5t8.5 39.5q33 49 87 92z" />
    <glyph glyph-name="agrave" unicode="&#xe0;" horiz-adv-x="374" 
d="M374 108h29q-12 -20 -50.5 -52t-69.5 -47q-40 -21 -75.5 -4.5t-34.5 64.5q-7 -5 -19.5 -15l-19 -15t-18 -10t-25.5 -7q-79 -11 -103 51q-22 56 12 122q36 71 106 84q52 10 96 -13q10 -5 6 -20t-19 -8q-24 10 -48 -8q-39 -27 -62 -92q-22 -62 3 -73q4 -2 10 -1q14 1 28 9
t34.5 24.5t27.5 21.5q1 2 8 31t13 47.5t13 27.5t37 5.5t32 -14.5q4 -18 -14.5 -81t-17.5 -78q3 -32 111 44q8 6 10 7zM238 290q-54 43 -87 92q-19 30 -8.5 39.5t37.5 -14.5q61 -53 87 -91q16 -26 5 -35t-34 9z" />
    <glyph glyph-name="aacute" unicode="&#xe1;" horiz-adv-x="374" 
d="M374 108h29q-12 -20 -50.5 -52t-69.5 -47q-40 -21 -75.5 -4.5t-34.5 64.5q-7 -5 -19.5 -15l-19 -15t-18 -10t-25.5 -7q-79 -11 -103 51q-22 56 12 122q36 71 106 84q52 10 96 -13q10 -5 6 -20t-19 -8q-24 10 -48 -8q-39 -27 -62 -92q-22 -62 3 -73q4 -2 10 -1q14 1 28 9
t34.5 24.5t27.5 21.5q1 2 8 31t13 47.5t13 27.5t37 5.5t32 -14.5q4 -18 -14.5 -81t-17.5 -78q3 -32 111 44q8 6 10 7zM235 443q23 18 34 9t-5 -35q-26 -38 -87 -91q-27 -24 -37.5 -14.5t8.5 39.5q33 49 87 92z" />
    <glyph glyph-name="acircumflex" unicode="&#xe2;" horiz-adv-x="374" 
d="M374 108h29q-12 -20 -50.5 -52t-69.5 -47q-40 -21 -75.5 -4.5t-34.5 64.5q-7 -5 -19.5 -15l-19 -15t-18 -10t-25.5 -7q-79 -11 -103 51q-22 56 12 122q36 71 106 84q52 10 96 -13q10 -5 6 -20t-19 -8q-24 10 -48 -8q-39 -27 -62 -92q-22 -62 3 -73q4 -2 10 -1q14 1 28 9
t34.5 24.5t27.5 21.5q1 2 8 31t13 47.5t13 27.5t37 5.5t32 -14.5q4 -18 -14.5 -81t-17.5 -78q3 -32 111 44q8 6 10 7zM97 353q51 115 62 135q6 10 18.5 12t21.5 -6q11 -12 36.5 -64t33.5 -65q2 -2 7 -9t8.5 -12.5l8.5 -13t5.5 -12t-0.5 -9.5q-15 -19 -61 33q-20 25 -56 90
l-21.5 -44t-26.5 -53q-28 -47 -42.5 -40t6.5 58z" />
    <glyph glyph-name="atilde" unicode="&#xe3;" horiz-adv-x="374" 
d="M374 108h29q-12 -20 -50.5 -52t-69.5 -47q-40 -21 -75.5 -4.5t-34.5 64.5q-7 -5 -19.5 -15l-19 -15t-18 -10t-25.5 -7q-79 -11 -103 51q-22 56 12 122q36 71 106 84q52 10 96 -13q10 -5 6 -20t-19 -8q-24 10 -48 -8q-39 -27 -62 -92q-22 -62 3 -73q4 -2 10 -1q14 1 28 9
t34.5 24.5t27.5 21.5q1 2 8 31t13 47.5t13 27.5t37 5.5t32 -14.5q4 -18 -14.5 -81t-17.5 -78q3 -32 111 44q8 6 10 7zM344 357q7 -8 -9 -26q-47 -48 -116 -22q-9 4 -30 14.5t-32 14t-27 0.5t-30 -17t-24.5 -9t-2.5 22q6 12 12.5 20.5t15.5 13l15.5 7.5t19 2t18 -1t20 -5
t18 -6t19.5 -7.5t18 -7.5q36 -14 47 -13.5t44 16.5q20 8 24 4z" />
    <glyph glyph-name="adieresis" unicode="&#xe4;" horiz-adv-x="374" 
d="M374 108h29q-12 -20 -50.5 -52t-69.5 -47q-40 -21 -75.5 -4.5t-34.5 64.5q-7 -5 -19.5 -15l-19 -15t-18 -10t-25.5 -7q-79 -11 -103 51q-22 56 12 122q36 71 106 84q52 10 96 -13q10 -5 6 -20t-19 -8q-24 10 -48 -8q-39 -27 -62 -92q-22 -62 3 -73q4 -2 10 -1q14 1 28 9
t34.5 24.5t27.5 21.5q1 2 8 31t13 47.5t13 27.5t37 5.5t32 -14.5q4 -18 -14.5 -81t-17.5 -78q3 -32 111 44q8 6 10 7zM172 304q-9 -11 -32 -4t-25 20q0 28 16 46q9 10 32 1.5t24 -20.5q1 -8 -4 -22t-11 -21zM257 304q-9 -11 -32 -4t-25 20q0 28 16 46q9 10 32 1.5t24 -20.5
q1 -8 -4 -22t-11 -21z" />
    <glyph glyph-name="aring" unicode="&#xe5;" horiz-adv-x="374" 
d="M374 108h29q-12 -20 -50.5 -52t-69.5 -47q-40 -21 -75.5 -4.5t-34.5 64.5q-7 -5 -19.5 -15l-19 -15t-18 -10t-25.5 -7q-79 -11 -103 51q-22 56 12 122q36 71 106 84q52 10 96 -13q10 -5 6 -20t-19 -8q-24 10 -48 -8q-39 -27 -62 -92q-22 -62 3 -73q4 -2 10 -1q14 1 28 9
t34.5 24.5t27.5 21.5q1 2 8 31t13 47.5t13 27.5t37 5.5t32 -14.5q4 -18 -14.5 -81t-17.5 -78q3 -32 111 44q8 6 10 7zM201 303q-32 8 -38 42t15 65t55 32q29 0 29 -4q0 -5 -14 -11q-20 -12 -28 -43.5t3 -50.5q10 -17 27 -6q15 10 22.5 43t-0.5 50q-1 2 -2 5t-2 5t-1 3
q0 5 5 3q7 -1 12 -12q11 -25 3 -62.5t-30 -53.5q-22 -14 -56 -5z" />
    <glyph glyph-name="ae" unicode="&#xe6;" horiz-adv-x="465" 
d="M465 108h29q-16 -29 -50.5 -55.5t-76 -41t-81.5 -17.5t-71.5 16t-41.5 59q-7 -5 -19.5 -15l-19 -15t-18 -10t-25.5 -7q-79 -11 -103 51q-22 56 12 122q36 71 106 84q52 10 96 -13q10 -5 6 -20t-19 -8q-24 10 -48 -8q-39 -27 -62 -92q-22 -62 3 -73q4 -2 10 -1q14 1 28 9
t34.5 24.5t27.5 21.5l7 35q7 36 17 55t27 22q47 47 112 27q36 -10 49 -39t-11 -57q-24 -26 -103 -74q5 -23 17 -34.5t29 -11t34.5 5.5t37 16.5l34.5 21t29 19.5q3 2 4 3zM271 123l44 27t38 26q14 11 7.5 27.5t-22.5 21.5q-26 8 -51 -37.5t-16 -64.5z" />
    <glyph glyph-name="ccedilla" unicode="&#xe7;" horiz-adv-x="258" 
d="M258 108h29q-7 -15 -47 -49.5t-85 -48.5q-22 -7 -35 -8l-1 -39q66 34 84 -11q13 -37 -11 -85q-25 -50 -63 -44q-29 5 -55 44l21 1q26 -46 55 -14q24 26 23 64q-1 35 -28 33q-12 -1 -27 -10l-52 -10v71q-43 8 -65.5 42.5t-19.5 77t19.5 82.5t53 62.5t78.5 13.5
q46 -10 62 -55q9 -23 -8 -25q-3 0 -22 20.5t-33 19.5q-21 -2 -39 -44.5t-16.5 -89t28.5 -58.5q11 -4 23.5 -4t24.5 3.5t23 8t23 12l21 13.5l21 14.5z" />
    <glyph glyph-name="egrave" unicode="&#xe8;" horiz-adv-x="260" 
d="M260 108h29q-10 -17 -45.5 -48.5t-78.5 -46.5q-116 -41 -164 26q-34 50 -13 123q20 69 75 93q35 15 77 3q36 -10 49 -39t-11 -57q-24 -26 -103 -74q6 -28 31 -40q12 -8 29.5 -5.5t29 5.5t27.5 12.5t25.5 16.5l23 17t19.5 14zM66 123l44 27t38 26q14 11 7.5 27.5
t-22.5 21.5q-26 8 -51.5 -37.5t-15.5 -64.5zM161 283q-54 43 -87 92q-19 30 -8.5 39.5t37.5 -14.5q61 -53 87 -91q16 -26 5 -35t-34 9z" />
    <glyph glyph-name="eacute" unicode="&#xe9;" horiz-adv-x="260" 
d="M260 108h29q-10 -17 -45.5 -48.5t-78.5 -46.5q-116 -41 -164 26q-34 50 -13 123q20 69 75 93q35 15 77 3q36 -10 49 -39t-11 -57q-24 -26 -103 -74q6 -28 31 -40q12 -8 29.5 -5.5t29 5.5t27.5 12.5t25.5 16.5l23 17t19.5 14zM66 123l44 27t38 26q14 11 7.5 27.5
t-22.5 21.5q-26 8 -51.5 -37.5t-15.5 -64.5zM161 417q23 18 34 9t-5 -35q-26 -38 -87 -91q-27 -24 -37.5 -14.5t8.5 39.5q33 49 87 92z" />
    <glyph glyph-name="ecircumflex" unicode="&#xea;" horiz-adv-x="260" 
d="M260 108h29q-10 -17 -45.5 -48.5t-78.5 -46.5q-116 -41 -164 26q-34 50 -13 123q20 69 75 93q35 15 77 3q36 -10 49 -39t-11 -57q-24 -26 -103 -74q6 -28 31 -40q12 -8 29.5 -5.5t29 5.5t27.5 12.5t25.5 16.5l23 17t19.5 14zM66 123l44 27t38 26q14 11 7.5 27.5
t-22.5 21.5q-26 8 -51.5 -37.5t-15.5 -64.5zM40 325q51 115 62 135q6 10 18.5 12t21.5 -6q11 -12 36.5 -64t33.5 -65q2 -2 7 -9t8.5 -12.5l8.5 -13t5.5 -12t-0.5 -9.5q-15 -19 -61 33q-20 25 -56 90l-21.5 -44t-26.5 -53q-28 -47 -42.5 -40t6.5 58z" />
    <glyph glyph-name="edieresis" unicode="&#xeb;" horiz-adv-x="260" 
d="M260 108h29q-10 -17 -45.5 -48.5t-78.5 -46.5q-116 -41 -164 26q-34 50 -13 123q20 69 75 93q35 15 77 3q36 -10 49 -39t-11 -57q-24 -26 -103 -74q6 -28 31 -40q12 -8 29.5 -5.5t29 5.5t27.5 12.5t25.5 16.5l23 17t19.5 14zM66 123l44 27t38 26q14 11 7.5 27.5
t-22.5 21.5q-26 8 -51.5 -37.5t-15.5 -64.5zM108 289q-9 -11 -32 -4t-25 20q0 28 16 46q9 10 32 1.5t24 -20.5q1 -8 -4 -22t-11 -21zM193 289q-9 -11 -32 -4t-25 20q0 28 16 46q9 10 32 1.5t24 -20.5q1 -8 -4 -22t-11 -21z" />
    <glyph glyph-name="igrave" unicode="&#xec;" horiz-adv-x="173" 
d="M173 108h29q-13 -22 -49.5 -53t-69.5 -46q-105 -48 -114 42q-6 64 31 147q8 17 15 28q9 9 28 8.5t37.5 -9.5t16.5 -18q-44 -129 -42 -151q0 -9 5 -10q18 -4 113 62zM117 258q-54 43 -87 92q-19 30 -8.5 39.5t37.5 -14.5q61 -53 87 -91q16 -26 5 -35t-34 9z" />
    <glyph glyph-name="iacute" unicode="&#xed;" horiz-adv-x="173" 
d="M173 108h29q-13 -22 -49.5 -53t-69.5 -46q-105 -48 -114 42q-6 64 31 147q8 17 15 28q9 9 28 8.5t37.5 -9.5t16.5 -18q-44 -129 -42 -151q0 -9 5 -10q18 -4 113 62zM117 389q23 18 34 9t-5 -35q-26 -38 -87 -91q-27 -24 -37.5 -14.5t8.5 39.5q33 49 87 92z" />
    <glyph glyph-name="icircumflex" unicode="&#xee;" horiz-adv-x="173" 
d="M173 108h29q-13 -22 -49.5 -53t-69.5 -46q-105 -48 -114 42q-6 64 31 147q8 17 15 28q9 9 28 8.5t37.5 -9.5t16.5 -18q-44 -129 -42 -151q0 -9 5 -10q18 -4 113 62zM-29 300q51 115 62 135q6 10 18.5 12t21.5 -6q11 -12 36.5 -64t33.5 -65q2 -2 7 -9t8.5 -12.5l8.5 -13
t5.5 -12t-0.5 -9.5q-15 -19 -61 33q-20 25 -56 90l-21.5 -44t-26.5 -53q-29 -47 -43 -40t7 58z" />
    <glyph glyph-name="idieresis" unicode="&#xef;" horiz-adv-x="173" 
d="M173 108h29q-13 -22 -49.5 -53t-69.5 -46q-105 -48 -114 42q-6 64 31 147q8 17 15 28q9 9 28 8.5t37.5 -9.5t16.5 -18q-44 -129 -42 -151q0 -9 5 -10q18 -4 113 62zM50 271q-9 -11 -32 -4t-25 20q0 28 16 46q9 10 32 1.5t24 -20.5q1 -8 -4 -22t-11 -21zM135 271
q-9 -11 -32 -4t-25 20q0 28 16 46q9 10 32 1.5t24 -20.5q1 -8 -4 -22t-11 -21z" />
    <glyph glyph-name="ntilde" unicode="&#xf1;" horiz-adv-x="374" 
d="M374 108h30q-11 -19 -48 -50q-97 -81 -155 -89q-46 -5 -47 47q0 17 31 113q25 77 9 77q-2 0 -5 -1q-11 -4 -19.5 -8t-16 -9t-12.5 -8t-11.5 -9.5l-9 -9l-10 -10.5t-9.5 -11q-30 -84 -49 -122q-14 -19 -34 -18.5t-38 11.5t-18 21q34 129 65 202q2 5 25.5 6.5t45.5 -2
t21 -12.5q0 -4 -1.5 -11l-2.5 -12l-1 -5q21 22 74 40t84 6q21 -8 22.5 -35t-8 -55t-22 -61t-14.5 -44q-6 -32 79 27zM313 344q7 -8 -9 -26q-47 -48 -116 -22q-9 4 -30 14.5t-32 14t-27 0.5t-30 -17t-24.5 -9t-2.5 22q6 12 12.5 20.5t15.5 13l15.5 7.5t19 2t18 -1t20 -5
t18 -6t19.5 -7.5t18 -7.5q36 -14 47 -13.5t44 16.5q20 8 24 4z" />
    <glyph glyph-name="ograve" unicode="&#xf2;" horiz-adv-x="313" 
d="M313 108h29q-39 -63 -115 -62q-17 -35 -59 -56.5t-88 -22.5q-93 -2 -114 76q-18 67 23 144q39 73 99 85q5 1 9 1q23 2 44 -5t27 -16q11 1 24 -2q39 -10 51 -66.5t-5 -98.5q42 -4 75 23zM133 237q-31 -10 -55 -60t-21.5 -100.5t39.5 -59.5q23 -5 53.5 6.5t40.5 30.5
q-56 17 -81 51.5t-16.5 70.5t40.5 61zM202 90q6 14 7.5 41t-5.5 55t-24 34q-20 7 -37 -22q-22 -39 1 -73q17 -25 58 -35zM191 305q-54 43 -87 92q-19 30 -8.5 39.5t37.5 -14.5q61 -53 87 -91q16 -26 5 -35t-34 9z" />
    <glyph glyph-name="oacute" unicode="&#xf3;" horiz-adv-x="313" 
d="M313 108h29q-39 -63 -115 -62q-17 -35 -59 -56.5t-88 -22.5q-93 -2 -114 76q-18 67 23 144q39 73 99 85q5 1 9 1q23 2 44 -5t27 -16q11 1 24 -2q39 -10 51 -66.5t-5 -98.5q42 -4 75 23zM133 237q-31 -10 -55 -60t-21.5 -100.5t39.5 -59.5q23 -5 53.5 6.5t40.5 30.5
q-56 17 -81 51.5t-16.5 70.5t40.5 61zM202 90q6 14 7.5 41t-5.5 55t-24 34q-20 7 -37 -22q-22 -39 1 -73q17 -25 58 -35zM123 430q23 18 34 9t-5 -35q-26 -38 -87 -91q-27 -24 -37.5 -14.5t8.5 39.5q33 49 87 92z" />
    <glyph glyph-name="ocircumflex" unicode="&#xf4;" horiz-adv-x="313" 
d="M313 108h29q-39 -63 -115 -62q-17 -35 -59 -56.5t-88 -22.5q-93 -2 -114 76q-18 67 23 144q39 73 99 85q5 1 9 1q23 2 44 -5t27 -16q11 1 24 -2q39 -10 51 -66.5t-5 -98.5q42 -4 75 23zM133 237q-31 -10 -55 -60t-21.5 -100.5t39.5 -59.5q23 -5 53.5 6.5t40.5 30.5
q-56 17 -81 51.5t-16.5 70.5t40.5 61zM202 90q6 14 7.5 41t-5.5 55t-24 34q-20 7 -37 -22q-22 -39 1 -73q17 -25 58 -35zM39 344q51 115 62 135q6 10 18.5 12t21.5 -6q11 -12 36.5 -64t33.5 -65q2 -2 7 -9t8.5 -12.5l8.5 -13t5.5 -12t-0.5 -9.5q-15 -19 -61 33
q-20 25 -56 90l-21.5 -44t-26.5 -53q-29 -47 -43 -40t7 58z" />
    <glyph glyph-name="otilde" unicode="&#xf5;" horiz-adv-x="313" 
d="M313 108h29q-39 -63 -115 -62q-17 -35 -59 -56.5t-88 -22.5q-93 -2 -114 76q-18 67 23 144q39 73 99 85q5 1 9 1q23 2 44 -5t27 -16q11 1 24 -2q39 -10 51 -66.5t-5 -98.5q42 -4 75 23zM133 237q-31 -10 -55 -60t-21.5 -100.5t39.5 -59.5q23 -5 53.5 6.5t40.5 30.5
q-56 17 -81 51.5t-16.5 70.5t40.5 61zM202 90q6 14 7.5 41t-5.5 55t-24 34q-20 7 -37 -22q-22 -39 1 -73q17 -25 58 -35zM290 344q7 -8 -9 -26q-47 -48 -116 -22q-9 4 -30 14.5t-32 14t-27 0.5t-30 -17t-24.5 -9t-2.5 22q6 12 12.5 20.5t15.5 13l15.5 7.5t19 2t18 -1t20 -5
t18 -6t19.5 -7.5t18 -7.5q36 -14 47 -13.5t44 16.5q20 8 24 4z" />
    <glyph glyph-name="odieresis" unicode="&#xf6;" horiz-adv-x="313" 
d="M313 108h29q-39 -63 -115 -62q-17 -35 -59 -56.5t-88 -22.5q-93 -2 -114 76q-18 67 23 144q39 73 99 85q5 1 9 1q23 2 44 -5t27 -16q11 1 24 -2q39 -10 51 -66.5t-5 -98.5q42 -4 75 23zM133 237q-31 -10 -55 -60t-21.5 -100.5t39.5 -59.5q23 -5 53.5 6.5t40.5 30.5
q-56 17 -81 51.5t-16.5 70.5t40.5 61zM202 90q6 14 7.5 41t-5.5 55t-24 34q-20 7 -37 -22q-22 -39 1 -73q17 -25 58 -35zM134 307q-9 -11 -32 -4t-25 20q0 28 16 46q9 10 32 1.5t24 -20.5q1 -8 -4 -22t-11 -21zM219 307q-9 -11 -32 -4t-25 20q0 28 16 46q9 10 32 1.5
t24 -20.5q1 -8 -4 -22t-11 -21z" />
    <glyph glyph-name="divide" unicode="&#xf7;" horiz-adv-x="299" 
d="M169 6q-9 -11 -32 -4t-25 20q0 28 16 46q9 10 32 1.5t24 -20.5q1 -8 -4 -22t-11 -21zM169 241q-9 -11 -32 -4t-25 20q0 28 16 46q9 10 32 1.5t24 -20.5q1 -8 -4 -22t-11 -21zM254 149q-27 -3 -103 -3t-102 5q-22 5 -30 14t1 16.5t32 8.5q152 8 204 -2q19 -5 25.5 -13.5
t-1.5 -16t-26 -9.5z" />
    <glyph glyph-name="oslash" unicode="&#xf8;" horiz-adv-x="313" 
d="M338 461q3 -6 0 -14q-5 -18 -112 -222q17 -25 20 -67t-8 -73q42 -4 75 23h29q-39 -63 -115 -62q-17 -33 -55 -54t-82 -24l-27 -51q-13 -25 -25 -37t-17.5 -9.5t-4.5 19.5t11 44q3 9 16 37q-43 9 -64 42t-17.5 74.5t19.5 82.5t48 70.5t68 32.5q23 2 44 -5t27 -16
q6 1 18 -1q100 185 136 209q12 9 16 1zM133 237q-42 -14 -66.5 -92t5.5 -114l37 73q-23 33 -16 70.5t40 62.5zM202 90q5 14 6.5 41t-4.5 54l-41 -79q15 -10 39 -16zM190 54q-26 8 -45 18l-30 -57q22 2 44 13t31 26zM169 220q-16 -3 -27.5 -24t-8.5 -44z" />
    <glyph glyph-name="ugrave" unicode="&#xf9;" horiz-adv-x="327" 
d="M327 108h29q-11 -19 -46 -50.5t-66 -48.5q-23 -12 -51 -13.5t-48.5 12.5t-19.5 44q-18 -16 -50.5 -28t-65 -11t-42.5 23q-10 23 12.5 88t42.5 100q3 7 39 16q54 13 52 -17q-1 -7 -4 -15q-34 -90 -44 -127q-12 -42 36 -7q7 5 31 24q1 4 12 38l20.5 62.5t13.5 37.5
q15 27 32.5 23.5t33 -18.5t14.5 -19l-7 -21q-57 -154 -26 -154q3 -1 7 1q13 5 33.5 18l40.5 27t21 15zM169 299q-54 43 -87 92q-19 30 -8.5 39.5t37.5 -14.5q61 -53 87 -91q16 -26 5 -35t-34 9z" />
    <glyph glyph-name="uacute" unicode="&#xfa;" horiz-adv-x="327" 
d="M327 108h29q-11 -19 -46 -50.5t-66 -48.5q-23 -12 -51 -13.5t-48.5 12.5t-19.5 44q-18 -16 -50.5 -28t-65 -11t-42.5 23q-10 23 12.5 88t42.5 100q3 7 39 16q54 13 52 -17q-1 -7 -4 -15q-34 -90 -44 -127q-12 -42 36 -7q7 5 31 24q1 4 12 38l20.5 62.5t13.5 37.5
q15 27 32.5 23.5t33 -18.5t14.5 -19l-7 -21q-57 -154 -26 -154q3 -1 7 1q13 5 33.5 18l40.5 27t21 15zM201 426q23 18 34 9t-5 -35q-26 -38 -87 -91q-27 -24 -37.5 -14.5t8.5 39.5q33 49 87 92z" />
    <glyph glyph-name="ucircumflex" unicode="&#xfb;" horiz-adv-x="327" 
d="M327 108h29q-11 -19 -46 -50.5t-66 -48.5q-23 -12 -51 -13.5t-48.5 12.5t-19.5 44q-18 -16 -50.5 -28t-65 -11t-42.5 23q-10 23 12.5 88t42.5 100q3 7 39 16q54 13 52 -17q-1 -7 -4 -15q-34 -90 -44 -127q-12 -42 36 -7q7 5 31 24q1 4 12 38l20.5 62.5t13.5 37.5
q15 27 32.5 23.5t33 -18.5t14.5 -19l-7 -21q-57 -154 -26 -154q3 -1 7 1q13 5 33.5 18l40.5 27t21 15zM73 340q51 115 62 135q6 10 18.5 12t21.5 -6q11 -12 36.5 -64t33.5 -65q2 -2 7 -9t8.5 -12.5l8.5 -13t5.5 -12t-0.5 -9.5q-15 -19 -61 33q-20 25 -56 90l-21.5 -44
t-26.5 -53q-28 -47 -42.5 -40t6.5 58z" />
    <glyph glyph-name="udieresis" unicode="&#xfc;" horiz-adv-x="327" 
d="M327 108h29q-11 -19 -46 -50.5t-66 -48.5q-23 -12 -51 -13.5t-48.5 12.5t-19.5 44q-18 -16 -50.5 -28t-65 -11t-42.5 23q-10 23 12.5 88t42.5 100q3 7 39 16q54 13 52 -17q-1 -7 -4 -15q-34 -90 -44 -127q-12 -42 36 -7q7 5 31 24q1 4 12 38l20.5 62.5t13.5 37.5
q15 27 32.5 23.5t33 -18.5t14.5 -19l-7 -21q-57 -154 -26 -154q3 -1 7 1q13 5 33.5 18l40.5 27t21 15zM126 304q-9 -11 -32 -4t-25 20q0 28 16 46q9 10 32 1.5t24 -20.5q1 -8 -4 -22t-11 -21zM211 304q-9 -11 -32 -4t-25 20q0 28 16 46q9 10 32 1.5t24 -20.5q1 -8 -4 -22
t-11 -21z" />
    <glyph glyph-name="yacute" unicode="&#xfd;" horiz-adv-x="363" 
d="M363 108h29q-34 -54 -145 -117l-13.5 -39.5l-18 -51t-20.5 -50t-26 -53t-29.5 -42.5t-35.5 -35q-25 -18 -56.5 -21t-57.5 7t-41.5 36.5t-11.5 62.5q2 20 10.5 40t24.5 39t29 33t38 32.5l36.5 27t39.5 26.5t33 21q1 1 2 3q-39 -18 -102.5 -21t-81.5 22q-10 23 15.5 100.5
t44.5 110.5q4 7 40 15q54 13 50 -19q-1 -6 -4 -13q-43 -125 -50 -151q-5 -20 23 -23q37 -4 70 15q4 2 7 4l52 165q22 5 42.5 1t35 -11.5t13.5 -13.5q-4 -26 -19.5 -84t-22.5 -76q26 9 100 60zM-19 -193q-9 -45 12 -55t46 27q33 50 86 180l-33.5 -23.5t-38 -28.5l-30 -27
t-28.5 -35t-14 -38zM220 417q23 18 34 9t-5 -35q-26 -38 -87 -91q-27 -24 -37.5 -14.5t8.5 39.5q33 49 87 92z" />
    <glyph glyph-name="ydieresis" unicode="&#xff;" horiz-adv-x="363" 
d="M363 108h29q-34 -54 -145 -117l-13.5 -39.5l-18 -51t-20.5 -50t-26 -53t-29.5 -42.5t-35.5 -35q-25 -18 -56.5 -21t-57.5 7t-41.5 36.5t-11.5 62.5q2 20 10.5 40t24.5 39t29 33t38 32.5l36.5 27t39.5 26.5t33 21q1 1 2 3q-39 -18 -102.5 -21t-81.5 22q-10 23 15.5 100.5
t44.5 110.5q4 7 40 15q54 13 50 -19q-1 -6 -4 -13q-43 -125 -50 -151q-5 -20 23 -23q37 -4 70 15q4 2 7 4l52 165q22 5 42.5 1t35 -11.5t13.5 -13.5q-4 -26 -19.5 -84t-22.5 -76q26 9 100 60zM-19 -193q-9 -45 12 -55t46 27q33 50 86 180l-33.5 -23.5t-38 -28.5l-30 -27
t-28.5 -35t-14 -38zM161 301q-9 -11 -32 -4t-25 20q0 28 16 46q9 10 32 1.5t24 -20.5q1 -8 -4 -22t-11 -21zM246 301q-9 -11 -32 -4t-25 20q0 28 16 46q9 10 32 1.5t24 -20.5q1 -8 -4 -22t-11 -21z" />
    <glyph glyph-name="dotlessi" unicode="&#x131;" horiz-adv-x="173" 
d="M173 108h29q-13 -22 -49.5 -53t-69.5 -46q-105 -48 -114 42q-6 64 31 147q8 17 15 28q9 9 28 8.5t37.5 -9.5t16.5 -18q-44 -129 -42 -151q0 -9 5 -10q18 -4 113 62z" />
    <glyph glyph-name="Lslash" unicode="&#x141;" horiz-adv-x="655" 
d="M807 570q8 -50 -16 -96.5t-66 -77.5t-93 -49t-97 -16l-38 -65q23 5 32 5q20 0 28 -7t2.5 -16t-23.5 -15q-15 -5 -71 -19l-110 -176q62 -62 97.5 -79.5t122.5 -32.5q17 -3 22.5 -9.5t-2 -11t-23.5 -4.5q-80 4 -129.5 26t-109.5 79q-133 -133 -230 -99q-59 20 -80 91
q-21 70 13 124q16 26 43 39q76 38 158 -36q15 18 34 49q-17 -3 -25 -3q-23 0 -32.5 7t-2 16.5t29.5 15.5l60 15l80 142q-54 18 -70.5 62t-1 92t51.5 92.5t81 64.5q19 8 20 -4q1 -11 -12 -21q-45 -32 -79.5 -83.5t-32 -101.5t60.5 -64q78 163 187 243q98 71 162 32
q46 -28 59 -109zM556 373q71 6 139 53t69 111q1 116 -102 -10q-61 -73 -104 -151q-1 -2 -2 -3zM215 91q-79 69 -122 22q-26 -29 -19 -69q7 -37 39 -34q41 3 102 81z" />
    <glyph glyph-name="lslash" unicode="&#x142;" horiz-adv-x="202" 
d="M107 4q-28 -15 -59.5 -20.5t-57 9t-23.5 53.5q3 36 19 94q-33 -6 -48 -6q-23 0 -32.5 7t-2 16.5t29.5 15.5l69 17q32 91 77 171.5t76 96.5q41 24 80 4.5t35 -73.5q-11 -88 -94 -162q37 7 45 7q20 0 28 -7t2.5 -16t-23.5 -15q-22 -7 -138 -34q-41 -99 -28 -123q3 -6 11 -5
q33 4 129 74h29q-12 -20 -50 -52.5t-74 -51.5zM240 393q2 29 -10.5 30.5t-23.5 -17.5q-43 -63 -99 -193l7 2q50 34 85.5 81t40.5 97z" />
    <glyph glyph-name="OE" unicode="&#x152;" horiz-adv-x="924" 
d="M104 164q-91 20 -89 109q3 88 87 187q95 112 221 148q65 19 128 11q118 -16 172 -113q40 65 106 109t125 40q39 -3 65.5 -30t30.5 -62.5t-10 -72.5q-33 -74 -175 -118l8 -3q36 -14 48.5 -23t-1.5 -15.5t-62 -8.5q-71 -4 -125 -90q-10 -29 -31 -68q-17 -48 -11 -87t35 -43
q-7 61 23 105.5t87 67.5q67 27 100.5 -2t7.5 -97q-20 -51 -63 -83.5t-98 -37.5q12 -24 24 -40t34.5 -28t31.5 -15l44 -15q18 -7 10.5 -21.5t-22.5 -11.5q-128 31 -166 129q-82 -3 -122 78q-92 -75 -215 -68q-80 5 -135.5 48t-62.5 121zM313 59q56 26 112.5 117.5t78.5 188.5
q-41 16 -60 52t-15 74.5t26 66.5q3 5 13 3q-10 6 -26 11q-95 24 -218 -62q-98 -69 -147 -158q-52 -95 -1 -138q11 -10 28 -16q8 102 96 195.5t182 97.5q15 1 14 -13t-17 -18q-86 -21 -156 -97t-79 -173l55 5q11 1 17.5 -3.5t3 -11t-17.5 -9.5q-28 -7 -56 -11q9 -55 35.5 -85
t60 -30.5t71.5 14.5zM730 407q143 45 168 104q5 16 6.5 38t-9 38.5t-31.5 10.5q-44 -13 -95.5 -80t-38.5 -111zM800 125q15 38 2.5 47t-48.5 -6q-47 -18 -69.5 -52.5t-15.5 -82.5q47 3 81 28t50 66zM512 409q13 99 -29 140q0 -1 -2 -7q-24 -35 -15.5 -75t46.5 -58z" />
    <glyph glyph-name="oe" unicode="&#x153;" horiz-adv-x="488" 
d="M488 108h29q-10 -17 -45.5 -48.5t-78.5 -46.5q-122 -43 -167 31q-18 -34 -59.5 -55t-86.5 -22q-93 -2 -114 76q-18 67 23 144q39 73 99 85q5 1 9 1q23 2 44 -5t27 -16q11 1 24 -2q30 -9 44 -44q49 76 132 52q36 -10 49 -39t-11 -57q-24 -26 -103 -74q6 -28 31 -40
q12 -8 29.5 -5.5t29 5.5t27.5 12.5t25.5 16.5l23 17t19.5 14zM133 237q-31 -10 -55 -60t-21.5 -100.5t39.5 -59.5q23 -5 53.5 6.5t40.5 30.5q-56 17 -81 51.5t-16.5 70.5t40.5 61zM202 90q6 14 7.5 41t-5.5 55t-24 34q-20 7 -37 -22q-22 -39 1 -73q17 -25 58 -35zM294 123
l44 27t38 26q14 11 7.5 27.5t-22.5 21.5q-26 8 -51.5 -37.5t-15.5 -64.5z" />
    <glyph glyph-name="Scaron" unicode="&#x160;" horiz-adv-x="559" 
d="M686 591q10 -75 -48.5 -129.5t-139.5 -75.5q2 -46 2 -78t-2 -72t-7 -67.5t-15.5 -58.5t-26 -50t-38.5 -36.5t-53 -24.5t-71 -7.5t-90 8.5q-54 10 -94.5 37.5t-61 63.5t-24.5 76.5t9 76t46 62.5t80 36q50 9 87 -16t40 -73q1 -28 -10.5 -27.5t-17.5 27.5q-7 33 -32 47
t-61 6q-42 -10 -68 -32.5t-32.5 -50t1 -58t26 -56.5t48.5 -46t64 -26q154 -27 178 124q9 51 1 186q-1 12 -1 20q-134 -14 -176 69q-29 59 1 130q26 62 76 76q21 5 43 0q8 -2 20 -8q8 -5 9 -12t-5 -9.5t-18 1.5q-42 16 -77 -30q-35 -47 -25 -101q12 -65 88 -75q28 -4 63 1
q-1 68 30.5 130t91 94t128.5 10q53 -16 62 -62zM498 430q59 18 105 59.5t38 94.5q-3 15 -8.5 20.5t-18.5 4.5q-54 -11 -84 -64.5t-32 -114.5zM510 777q-51 -115 -62 -135q-6 -10 -18.5 -12t-21.5 6q-11 12 -36.5 64t-33.5 65q-2 2 -7 9t-8.5 12.5l-8.5 13t-5.5 12t0.5 9.5
q15 19 61 -33q20 -25 56 -90l21.5 44t26.5 53q28 47 42.5 40t-6.5 -58z" />
    <glyph glyph-name="scaron" unicode="&#x161;" horiz-adv-x="297" 
d="M45 162q-22 56 -15 95q7 46 65 58q51 11 82 -11q25 -17 6 -44q-6 -9 -48 -56q66 -147 67 -154q14 4 34 16.5t40 27.5l21 14h29q-17 -26 -53.5 -55t-59.5 -41q25 -115 -48 -148q-46 -20 -87 3q-44 25 -26 77q13 36 59 77q-2 10 -54 115q-39 -45 -44 -49l-23 14
q15 14 55 61zM113 -91q16 21 8 68q-42 -37 -31 -63q7 -16 19 -9zM125 229q31 39 31 46q0 9 -14 3q-25 -11 -19 -42q1 -4 2 -7zM218 498q-51 -115 -62 -135q-6 -10 -18.5 -12t-21.5 6q-11 12 -36.5 64t-33.5 65q-2 2 -7 9t-8.5 12.5l-8.5 13t-5.5 12t0.5 9.5q15 19 61 -33
q20 -25 56 -90l21.5 44t26.5 53q29 47 43 40t-7 -58z" />
    <glyph glyph-name="Ydieresis" unicode="&#x178;" horiz-adv-x="772" 
d="M909 564q23 -15 12.5 -25t-28.5 -1q-22 10 -49.5 -17.5t-59.5 -80l-69.5 -118t-86 -132.5t-102.5 -123t-126 -90.5t-149 -32.5q-122 3 -190 95q-56 76 -43 163t90 120q29 12 64 14q77 4 105 -54.5t3 -113.5q-9 -20 -19 -13t-5 23q15 45 -7.5 82.5t-74.5 34.5
q-83 -5 -111 -74q-24 -62 10 -126q38 -71 120 -78q33 -2 71 8q74 20 150.5 89.5t119.5 137.5q-105 -44 -176 -22q-38 11 -52 42t-2 59q-88 0 -129 64t-12 129q20 47 64.5 72.5t90.5 26t88.5 -19t61.5 -54.5q27 -48 -20 -191q17 0 23 -1q18 -1 17 -11q-1 -12 -20 -16h-3
l-31 -4q-16 -29 -15 -47q1 -11 14.5 -13.5t34 3t38 11.5t37.5 14t22 9q9 14 28 49.5l35 63.5t40 64t49.5 58.5t55 39t64.5 13t72 -26.5zM370 529q-4 38 -39.5 46.5t-74 -11t-51.5 -51.5q-20 -50 11 -97t105 -51q18 33 35 81.5t14 82.5zM565 694q-9 -11 -32 -4t-25 20
q0 28 16 46q9 10 32 1.5t24 -20.5q1 -8 -4 -22t-11 -21zM650 694q-9 -11 -32 -4t-25 20q0 28 16 46q9 10 32 1.5t24 -20.5q1 -8 -4 -22t-11 -21z" />
    <glyph glyph-name="Zcaron" unicode="&#x17d;" horiz-adv-x="713" 
d="M533 457q126 134 251 98q55 -15 64.5 -59t-30.5 -81q-61 -57 -193 -25l-82 -106l13.5 -6.5t16.5 -9.5q6 -5 8 -12t-2.5 -13t-14.5 -7q-21 -1 -49 11q-23 -30 -70 -80t-74 -74q41 -70 89 -110q22 -18 50.5 -31t61.5 -13t50 24q4 6 11 7t9.5 -3.5t-0.5 -12.5
q-17 -37 -57.5 -43t-78.5 8.5t-67 37.5q-56 41 -98 111q-103 -75 -218 -72q-54 1 -82 34.5t-26 74.5t26.5 79.5t64.5 48.5q52 13 105 -4t84 -59q43 40 104 119q-4 3 -15 8.5t-16 8.5q-8 5 -10 12.5t3 14t15 6.5l51 -13q23 32 76 96q-18 6 -73 36t-101.5 46.5t-73.5 4.5
q-28 -15 -33.5 -58t15.5 -75.5t57 -21.5q18 5 21 -3t-13 -16q-50 -26 -87 23q-35 46 -26 107q8 53 50 77q30 11 55 10t60.5 -14.5t62.5 -27.5l60.5 -30.5t55.5 -22.5zM113 191q-37 -12 -56 -54q-19 -45 6 -63q19 -14 56 -4q36 9 79.5 33t66.5 41q-25 33 -69 46t-83 1z
M659 426q97 -14 132 25q9 10 14 24.5t0 25.5t-24 7q-49 -12 -122 -82zM579 698q-51 -115 -62 -135q-6 -10 -18.5 -12t-21.5 6q-11 12 -36.5 64t-33.5 65q-2 2 -7 9t-8.5 12.5l-8.5 13t-5.5 12t0.5 9.5q15 19 61 -33q20 -25 56 -90l21.5 44t26.5 53q29 47 43 40t-7 -58z" />
    <glyph glyph-name="zcaron" unicode="&#x17e;" 
d="M220 68q34 0 59 -18q15 5 35 17.5t40 26.5l19 14h29q-10 -17 -40.5 -43.5t-60.5 -44.5q16 -42 14 -92.5t-29 -102.5t-68 -76q-32 -22 -89.5 -19t-81.5 33q-22 26 4.5 75t67.5 89t67 53q-8 18 -22.5 29t-20.5 9q-5 -2 -24 -9q-18 -7 -29 8t0 30q68 87 79 145q5 31 -13 28
q-24 -4 -74 -60q-35 -39 -69 -73l-23 14q23 19 57 61q7 8 17 21.5l17.5 24t18.5 23.5t20.5 20t24 14.5t27.5 6t32 -5.5q42 -14 51.5 -54.5t-3 -78.5t-32.5 -65zM205 -51q-31 -17 -85 -78t-36 -85q16 -14 43.5 -8.5t43.5 19.5q28 24 36.5 71t-2.5 81zM276 461
q-51 -115 -62 -135q-6 -10 -18.5 -12t-21.5 6q-11 12 -36.5 64t-33.5 65q-2 2 -7 9t-8.5 12.5l-8.5 13t-5.5 12t0.5 9.5q15 19 61 -33q20 -25 56 -90l21.5 43.5l26.5 53.5q29 47 43 40t-7 -58z" />
    <glyph glyph-name="circumflex" unicode="&#x2c6;" horiz-adv-x="245" 
d="M27 485q51 115 62 135q6 10 18.5 12t21.5 -6q11 -12 36.5 -64t33.5 -65q2 -2 7 -9t8.5 -12.5l8.5 -13t5.5 -12t-0.5 -9.5q-15 -19 -61 33q-20 25 -56 90l-21.5 -43.5l-26.5 -53.5q-29 -47 -43 -40t7 58z" />
    <glyph glyph-name="caron" unicode="&#x2c7;" horiz-adv-x="245" 
d="M218 556q-51 -115 -62 -135q-6 -10 -18.5 -12t-21.5 6q-11 12 -36.5 64t-33.5 65q-2 2 -7 9t-8.5 12.5l-8.5 13t-5.5 12t0.5 9.5q15 19 61 -33q20 -25 56 -90l21.5 44t26.5 53q29 47 43 40t-7 -58z" />
    <glyph glyph-name="breve" unicode="&#x2d8;" horiz-adv-x="159" 
d="M129 573l15 -3q-5 -48 -33 -70q-22 -14 -56 -5q-28 6 -36.5 34t4.5 55l53 -1q-12 -36 1 -58q10 -17 27 -6q19 13 25 54z" />
    <glyph glyph-name="ring" unicode="&#x2da;" horiz-adv-x="159" 
d="M54 495q-32 8 -38 42t15 65t55 32q29 0 29 -4q0 -5 -14 -11q-20 -12 -28 -43.5t3 -50.5q10 -17 27 -6q15 10 22.5 43t-0.5 50q-1 2 -2 5t-2 5t-1 3q0 5 5 3q7 -1 12 -12q11 -25 3 -62.5t-30 -53.5q-22 -14 -56 -5z" />
    <glyph glyph-name="ogonek" unicode="&#x2db;" horiz-adv-x="161" 
d="M97 7l54 2v-81l-52 10q-46 25 -54 -12q-7 -32 15 -66q24 -38 50 -11q6 6 12 16l21 -1q-45 -67 -90 -35q-34 24 -41 76q-9 55 24 67q23 8 62 -12z" />
    <glyph glyph-name="tilde" unicode="&#x2dc;" horiz-adv-x="307" 
d="M289 558q7 -8 -9 -26q-47 -48 -116 -22q-9 4 -30 14.5t-32 14t-27 0.5t-30 -17t-24.5 -9t-2.5 22q6 12 12.5 20.5t15.5 13l15.5 7.5t19 2t18 -1t20 -5t18 -6t19.5 -7.5t18 -7.5q36 -14 47 -13.5t44 16.5q20 8 24 4z" />
    <glyph glyph-name="hungarumlaut" unicode="&#x2dd;" horiz-adv-x="261" 
d="M114 622q23 18 34 9t-5 -35q-26 -38 -87 -91q-27 -24 -37.5 -14.5t8.5 39.5q33 49 87 92zM208 622q23 18 34 9t-5 -35q-26 -38 -87 -91q-27 -24 -37.5 -14.5t8.5 39.5q33 49 87 92z" />
    <glyph glyph-name="endash" unicode="&#x2013;" horiz-adv-x="390" 
d="M345 239q-27 -3 -148.5 -3t-147.5 5q-22 5 -30 14t1 16.5t32 8.5q40 2 148 2.5t147 -4.5q19 -5 25.5 -13.5t-1.5 -16t-26 -9.5z" />
    <glyph glyph-name="emdash" unicode="&#x2014;" horiz-adv-x="541" 
d="M496 239q-27 -3 -224 -3t-223 5q-22 5 -30 14t1 16.5t32 8.5q40 2 223.5 2.5t222.5 -4.5q19 -5 25.5 -13.5t-1.5 -16t-26 -9.5z" />
    <glyph glyph-name="quoteleft" unicode="&#x2018;" horiz-adv-x="102" 
d="M66 615q0 -47 13 -57q8 -7 8 -16q0 -28 -16 -46q-9 -10 -32 -1.5t-24 20.5q0 64 51 100z" />
    <glyph glyph-name="quoteright" unicode="&#x2019;" horiz-adv-x="102" 
d="M36 483q0 47 -13 57q-8 7 -8 16q0 28 16 46q9 10 32 1.5t24 -20.5q0 -64 -51 -100z" />
    <glyph glyph-name="quotesinglbase" unicode="&#x201a;" horiz-adv-x="102" 
d="M36 -58q0 47 -13 57q-8 7 -8 16q0 28 16 46q9 10 32 1.5t24 -20.5q0 -64 -51 -100z" />
    <glyph glyph-name="quotedblleft" unicode="&#x201c;" horiz-adv-x="194" 
d="M158 597q0 -47 13 -57q8 -7 8 -16q0 -28 -16 -46q-9 -10 -32 -1.5t-24 20.5q0 64 51 100zM66 615q0 -47 13 -57q8 -7 8 -16q0 -28 -16 -46q-9 -10 -32 -1.5t-24 20.5q0 64 51 100z" />
    <glyph glyph-name="quotedblright" unicode="&#x201d;" horiz-adv-x="194" 
d="M36 483q0 47 -13 57q-8 7 -8 16q0 28 16 46q9 10 32 1.5t24 -20.5q0 -64 -51 -100zM128 465q0 47 -13 57q-8 7 -8 16q0 28 16 46q9 10 32 1.5t24 -20.5q0 -64 -51 -100z" />
    <glyph glyph-name="quotedblbase" unicode="&#x201e;" horiz-adv-x="193" 
d="M36 -58q0 47 -13 57q-8 7 -8 16q0 28 16 46q9 10 32 1.5t24 -20.5q0 -64 -51 -100zM127 -58q0 47 -13 57q-8 7 -8 16q0 28 16 46q9 10 32 1.5t24 -20.5q0 -64 -51 -100z" />
    <glyph glyph-name="dagger" unicode="&#x2020;" horiz-adv-x="292" 
d="M219 239q-20 -3 -47 -3q2 -307 3 -335q1 -38 -6 -53.5t-17.5 -1.5t-16.5 52q-10 82 -10 338q-26 0 -48 5t-30 14t1 16.5t32 8.5q11 0 45 2q0 277 21 319q4 13 13 8q6 -3 7 -12q4 -14 6 -315q23 0 49 -4q19 -5 25.5 -13.5t-1.5 -16t-26 -9.5z" />
    <glyph glyph-name="daggerdbl" unicode="&#x2021;" horiz-adv-x="292" 
d="M207 56q-33 -3 -34 -3q0 -28 0.5 -66.5t1 -58.5t0.5 -27q1 -38 -6 -53.5t-17.5 -1.5t-16.5 52q-5 38 -8 155q-25 2 -37 5q-22 5 -30 14t1 16.5t32 8.5q11 0 33 2q-2 138 -1 213q-14 1 -35 5q-22 5 -30 14t1 16.5t32 8.5q10 0 32 2q4 209 21 243q4 13 13 8q6 -3 7 -12
q3 -13 5 -239q26 -2 38 -4q19 -5 25.5 -13.5t-1.5 -16t-26 -9.5l-36 -3l2 -213q24 -2 36 -4q19 -5 25.5 -13.5t-1.5 -16t-26 -9.5z" />
    <glyph glyph-name="bullet" unicode="&#x2022;" horiz-adv-x="287" 
d="M217 202q-15 -19 -48.5 -22t-66 6.5t-58.5 29.5t-29 42q0 37 17 86.5t40 75.5q15 16 48 16.5t65.5 -11t58 -31t27.5 -39.5q2 -31 -15.5 -80.5t-38.5 -72.5z" />
    <glyph glyph-name="ellipsis" unicode="&#x2026;" horiz-adv-x="309" 
d="M72 6q-9 -11 -32 -4t-25 20q0 28 16 46q9 10 32 1.5t24 -20.5q1 -8 -4 -22t-11 -21zM175 6q-9 -11 -32 -4t-25 20q0 28 16 46q9 10 32 1.5t24 -20.5q1 -8 -4 -22t-11 -21zM278 6q-9 -11 -32 -4t-25 20q0 28 16 46q9 10 32 1.5t24 -20.5q1 -8 -4 -22t-11 -21z" />
    <glyph glyph-name="fraction" unicode="&#x2044;" horiz-adv-x="356" 
d="M338 549q3 -6 0 -14q-5 -19 -275 -530q-13 -25 -25 -37t-17.5 -9.5t-4.5 19.5t11 44q40 94 148.5 298t146.5 228q12 9 16 1z" />
    <glyph glyph-name="minus" unicode="&#x2212;" horiz-adv-x="299" 
d="M254 239q-27 -3 -103 -3t-102 5q-22 5 -30 14t1 16.5t32 8.5q152 8 204 -2q19 -5 25.5 -13.5t-1.5 -16t-26 -9.5z" />
    <glyph glyph-name="_0000" unicode="&#xe000;" horiz-adv-x="738" 
d="M639 141q46 -23 67 -58t15 -69.5t-27 -64.5t-59 -48t-82 -17q-120 3 -271 183q-36 -30 -72 -48.5t-81 -19t-78 31.5q-32 32 -35.5 71.5t15.5 76.5t46 68t59 53q-28 69 -30.5 134.5t33.5 119.5t113 68q59 11 101 -25t42 -97q0 -26 -11 -50t-36.5 -47.5t-41 -35.5
t-47.5 -34q35 -74 95 -154q52 51 85.5 115t43 137t-21.5 140q-2 4 -18.5 31l-30.5 50t-13 25q11 6 43.5 -34.5t42.5 -58.5q40 -73 33 -154.5t-43.5 -154t-94.5 -129.5q115 -139 203 -169q50 -17 80.5 5.5t23.5 64.5t-53 75l-32 23q4 12 37 -4zM73 75q19 -33 56.5 -32
t67.5 17.5t59 39.5q-63 82 -101 157q-50 -35 -79.5 -85.5t-2.5 -96.5zM260 575q-79 -41 -20 -199q68 47 88 74q19 24 20 47q2 35 -27 65t-61 13z" />
    <glyph glyph-name="_0001" unicode="&#xe001;" horiz-adv-x="809" 
d="M573 145q4 -5 51.5 -49l96 -92.5t67.5 -73.5q21 -29 -27 -41q-45 -11 -79 1q-5 2 -8 4q-23 16 -54 44t-52.5 50l-47 48.5l-27.5 28.5q-141 -165 -279 -160q-98 3 -155 88q-60 88 -37 204q28 145 173 241q9 6 19 12q-24 99 43.5 172t171.5 81q78 6 119.5 -25t42 -74.5
t-30 -86t-82.5 -57.5q-36 -9 -39 5q0 2 32 18q52 27 73 82q20 52 -9 73q-28 21 -91 -9q-223 -105 99 -453q74 106 78 204q0 3 -1.5 23.5t-2 32t2.5 17.5q7 2 13 -7t9.5 -24t5.5 -25t3 -16q8 -113 -78 -236zM222 423q-145 -140 -151 -278q-3 -99 65 -149q71 -53 172 -15
q81 30 155 115q-204 215 -241 327z" />
    <glyph glyph-name="a_ss001" unicode="&#xe002;" horiz-adv-x="374" 
d="M-202 -126q12 7 61.5 41t83.5 47t69 6q44 -9 72.5 -46t28 -83t-35.5 -77t-85 -32.5t-95 18t-78 51.5q-63 -33 -155 -39t-176.5 13.5t-139 79.5t-41.5 148q9 65 63 80q47 12 83 -18q31 -26 26 -67q-7 -53 -50 -66q-12 -4 -17.5 1.5t-2 14t11.5 11.5q26 9 29 43
q3 36 -31 51q-36 15 -63 -11q-16 -16 -21 -43q-11 -64 18 -107t81.5 -58.5t115.5 -17t122.5 11.5t100.5 34q-115 138 -45 336q-36 17 -64 54t-40 78t-3.5 81.5t40.5 62.5q41 27 84 -3q30 -22 43 -52.5t8 -71t-11.5 -65.5t-21.5 -68q40 -14 87.5 -17.5t101 10t93.5 46.5
q27 21 61 28q52 10 96 -13q10 -5 6 -20t-19 -8q-24 10 -48 -8q-39 -27 -62 -92q-22 -62 3 -73q4 -2 10 -1q14 1 28 9t34.5 24.5t27.5 21.5q1 2 8 31t13 47.5t13 27.5t37 5.5t32 -14.5q4 -18 -14.5 -81t-17.5 -78q3 -32 111 44q8 6 10 7h29q-12 -20 -50.5 -52t-69.5 -47
q-40 -21 -75.5 -4.5t-34.5 64.5q-7 -5 -19.5 -15l-19 -15t-18 -10t-25.5 -7q-51 -8 -80.5 18t-29.5 66t16 83q-67 -24 -128 -23.5t-115 19.5q-20 -59 -24.5 -108t11.5 -102.5t57 -100.5zM-155 -187q27 -24 64 -40t78 -15.5t69 24.5q39 35 22.5 79.5t-66.5 40.5
q-24 -2 -53.5 -17t-67 -40.5zM-263 223q59 173 2 218q-20 14 -37 -12q-20 -28 -24.5 -69.5t11 -80.5t48.5 -56z" />
    <glyph glyph-name="b_ss001" unicode="&#xe003;" horiz-adv-x="338" 
d="M-202 -162q12 7 61.5 41t83.5 47t69 6q44 -9 72.5 -46t28 -83t-35.5 -77t-85 -32.5t-95 18t-78 51.5q-63 -33 -155 -39t-176.5 13.5t-139 79.5t-41.5 148q9 65 63 80q47 12 83 -18q31 -26 26 -67q-7 -53 -50 -66q-12 -4 -17.5 1.5t-2 14t11.5 11.5q26 9 29 43
q3 36 -31 51q-36 15 -63 -11q-16 -16 -21 -43q-11 -64 18 -107t81.5 -58.5t115.5 -17t122.5 11.5t100.5 34q-115 138 -45 336q-36 17 -64 54t-40 78t-3.5 81.5t40.5 62.5q41 27 84 -3q30 -22 43 -52.5t8 -71t-11.5 -65.5t-21.5 -68q44 -19 115 -18t126 30q40 119 119 208
t155 77q27 -4 45 -20.5t21 -38.5q5 -44 -44.5 -97.5t-104.5 -87.5t-81 -38l-11.5 -29t-15 -44t-13 -48t-6 -42t6.5 -27q11 -13 40 -4q26 6 59 36q-34 13 -46 45t-0.5 64.5t39.5 50.5q27 17 58 13.5t48 -26.5q31 -42 -19 -122q24 9 84 50h29q-19 -31 -63 -60t-79 -27
q-47 -54 -97 -68q-33 -12 -75 -0.5t-59 43.5q-27 52 -1 156q-66 -23 -126 -22.5t-113 19.5q-20 -59 -24.5 -108t11.5 -102.5t57 -100.5zM-155 -223q27 -24 64 -40t78 -15.5t69 24.5q39 35 22.5 79.5t-66.5 40.5q-24 -2 -53.5 -17t-67 -40.5zM-263 187q59 173 2 218
q-20 14 -37 -12q-20 -28 -24.5 -69.5t11 -80.5t48.5 -56zM270 427q-34 -9 -77 -78.5t-71 -131.5q38 21 77 48.5t74 69t30 74.5q-3 26 -33 18zM202 62q51 61 36 91q-6 12 -22.5 12.5t-30.5 -10.5q-28 -20 -23 -52.5t40 -40.5z" />
    <glyph glyph-name="c_ss001" unicode="&#xe004;" horiz-adv-x="258" 
d="M-202 -117q12 7 61.5 41t83.5 47t69 6q44 -9 72.5 -46t28 -83t-35.5 -77t-85 -32.5t-95 18t-78 51.5q-63 -33 -155 -39t-176.5 13.5t-139 79.5t-41.5 148q9 65 63 80q47 12 83 -18q31 -26 26 -67q-7 -53 -50 -66q-12 -4 -17.5 1.5t-2 14t11.5 11.5q26 9 29 43
q3 36 -31 51q-36 15 -63 -11q-16 -16 -21 -43q-11 -64 18 -107t81.5 -58.5t115.5 -17t122.5 11.5t100.5 34q-115 138 -45 336q-36 17 -64 54t-40 78t-3.5 81.5t40.5 62.5q41 27 84 -3q30 -22 43 -52.5t8 -71t-11.5 -65.5t-21.5 -68q39 -13 83.5 -17t96.5 7.5t91 39.5
q41 41 98 29q46 -10 62 -55q9 -23 -8 -25q-3 0 -22 20.5t-33 19.5q-21 -2 -39 -44.5t-16.5 -89t28.5 -58.5q11 -4 23.5 -4t24.5 3.5t23 8t23 12l21 13.5l21 14.5l18 12.5h29q-7 -15 -47 -49.5t-85 -48.5q-63 -18 -102 -5.5t-56 44.5t-16.5 72t17.5 78q-67 -25 -128 -24.5
t-116 19.5q-20 -59 -24.5 -108t11.5 -102.5t57 -100.5zM-155 -178q27 -24 64 -40t78 -15.5t69 24.5q39 35 22.5 79.5t-66.5 40.5q-24 -2 -53.5 -17t-67 -40.5zM-263 232q59 173 2 218q-20 14 -37 -12q-20 -28 -24.5 -69.5t11 -80.5t48.5 -56z" />
    <glyph glyph-name="d_ss001" unicode="&#xe005;" horiz-adv-x="428" 
d="M-193 -136q12 7 61.5 41t83.5 47t69 6q44 -9 72.5 -46t28 -83t-35.5 -77t-85 -32.5t-95 18t-78 51.5q-63 -33 -155 -39t-176.5 13.5t-139 79.5t-41.5 148q9 65 63 80q47 12 83 -18q31 -26 26 -67q-7 -53 -50 -66q-12 -4 -17.5 1.5t-2 14t11.5 11.5q26 9 29 43
q3 36 -31 51q-36 15 -63 -11q-16 -16 -21 -43q-11 -64 18 -107t81.5 -58.5t115.5 -17t122.5 11.5t100.5 34q-115 138 -45 336q-36 17 -64 54t-40 78t-3.5 81.5t40.5 62.5q41 27 84 -3q30 -22 43 -52.5t8 -71t-11.5 -65.5t-21.5 -68q36 -13 78.5 -17t91.5 5t87 33
q50 45 119 34q30 -5 53 -24q9 64 32 127t61 92q28 18 56.5 19.5t50.5 -19.5t22 -56q-1 -69 -40.5 -139t-94.5 -118q0 -3 0.5 -23.5t3.5 -39.5t9 -28q5 -4 11.5 -5t18 4t22 10.5t23.5 14t22 15l18.5 13t11.5 8.5h29q-14 -22 -54 -56.5t-76 -58.5q-111 -73 -130 97
q-106 -82 -170 -51q-36 17 -44 57t11 78q-112 -41 -231 1q-20 -59 -24.5 -108t11.5 -102.5t57 -100.5zM-146 -197q27 -24 64 -40t78 -15.5t69 24.5q39 35 22.5 79.5t-66.5 40.5q-24 -2 -53.5 -17t-67 -40.5zM-254 213q59 173 2 218q-20 14 -37 -12q-20 -28 -24.5 -69.5
t11 -80.5t48.5 -56zM198 206q-28 13 -50 8q-33 -7 -54 -50.5t-9 -73.5q4 -10 11 -14t16 -1.5t18 7t20 12.5t18.5 14.5l16 14t10.5 9.5q-2 36 3 74zM286 176q41 37 70 103.5t31 121.5q1 21 -8 23t-22 -11q-32 -30 -49.5 -101t-21.5 -136z" />
    <glyph glyph-name="e_ss001" unicode="&#xe006;" horiz-adv-x="260" 
d="M-200 -130q12 7 61.5 41t83.5 47t69 6q44 -9 72.5 -46t28 -83t-35.5 -77t-85 -32.5t-95 18t-78 51.5q-63 -33 -155 -39t-176.5 13.5t-139 79.5t-41.5 148q9 65 63 80q47 12 83 -18q31 -26 26 -67q-7 -53 -50 -66q-12 -4 -17.5 1.5t-2 14t11.5 11.5q26 9 29 43
q3 36 -31 51q-36 15 -63 -11q-16 -16 -21 -43q-11 -64 18 -107t81.5 -58.5t115.5 -17t122.5 11.5t100.5 34q-115 138 -45 336q-36 17 -64 54t-40 78t-3.5 81.5t40.5 62.5q41 27 84 -3q30 -22 43 -52.5t8 -71t-11.5 -65.5t-21.5 -68q38 -13 82.5 -16.5t95.5 7.5t91 38
q54 37 106 21q36 -10 49 -39t-11 -57q-24 -26 -103 -74q6 -28 31 -40q12 -8 29.5 -5.5t29 5.5t27.5 12.5t25.5 16.5l23 17t19.5 14h29q-10 -17 -45.5 -48.5t-78.5 -46.5q-51 -18 -87 -15t-58 21.5t-31.5 46t-7 58.5t14.5 60q-115 -46 -240 -3q-20 -59 -24.5 -108
t11.5 -102.5t57 -100.5zM-153 -191q27 -24 64 -40t78 -15.5t69 24.5q39 35 22.5 79.5t-66.5 40.5q-24 -2 -53.5 -17t-67 -40.5zM-261 219q59 173 2 218q-20 14 -37 -12q-20 -28 -24.5 -69.5t11 -80.5t48.5 -56zM66 123l44 27t38 26q14 11 7.5 27.5t-22.5 21.5
q-26 8 -51.5 -37.5t-15.5 -64.5z" />
    <glyph glyph-name="f_ss001" unicode="&#xe007;" horiz-adv-x="375" 
d="M-361 -126q12 7 61.5 41t83.5 47t69 6q44 -9 72.5 -46t28 -83t-35.5 -77t-85 -32.5t-95 18t-78 51.5q-63 -33 -155 -39t-176.5 13.5t-139 79.5t-41.5 148q9 65 63 80q47 12 83 -18q31 -26 26 -67q-7 -53 -50 -66q-12 -4 -17.5 1.5t-2 14t11.5 11.5q26 9 29 43
q3 36 -31 51q-36 15 -63 -11q-16 -16 -21 -43q-11 -64 18 -107t81.5 -58.5t115.5 -17t122.5 11.5t100.5 34q-115 138 -45 336q-36 17 -64 54t-40 78t-3.5 81.5t40.5 62.5q41 27 84 -3q30 -22 43 -52.5t8 -71t-11.5 -65.5t-21.5 -68q58 -22 129.5 -22.5t136 15.5t128.5 41.5
t110 51.5t78 50q55 89 116 112q50 20 101 4t51 -59q-2 -44 -42.5 -95t-86 -85.5t-91.5 -60.5q36 -56 28 -126q34 14 113 70h29q-19 -30 -67 -65.5t-81 -45.5q-27 -123 -112 -185q-63 -46 -113 -28q-52 20 -42 99l4 21q9 41 40 122q-28 28 -31 64.5t12.5 65.5t44 47.5
t58.5 14.5l37 74q-42 -26 -87.5 -49.5t-106 -44.5t-119 -31.5t-124 -7t-122.5 25.5q-20 -59 -24.5 -108t11.5 -102.5t57 -100.5zM-314 -187q27 -24 64 -40t78 -15.5t69 24.5q39 35 22.5 79.5t-66.5 40.5q-24 -2 -53.5 -17t-67 -40.5zM223 180q9 8 51.5 43.5t67.5 58.5
t49 58.5t24 64.5q0 20 -14.5 25t-32 -2.5t-29.5 -20.5q-45 -48 -127 -216zM-422 223q59 173 2 218q-20 14 -37 -12q-20 -28 -24.5 -69.5t11 -80.5t48.5 -56zM96 -110q-12 -55 11 -50q26 6 68 66q32 45 36 71q-51 -9 -86 9q-22 -65 -29 -96zM139 23q29 -21 82 -5q7 29 1 72.5
t-25 67.5q-30 -65 -58 -135zM104 192q-24 3 -44 -22.5t-22.5 -54t12.5 -46.5q22 58 54 123z" />
    <glyph glyph-name="g_ss001" unicode="&#xe008;" horiz-adv-x="371" 
d="M-429 -130q12 7 61.5 41t83.5 47t69 6q44 -9 72.5 -46t28 -83t-35.5 -77t-85 -32.5t-95 18t-78 51.5q-63 -33 -155 -39t-176.5 13.5t-139 79.5t-41.5 148q9 65 63 80q47 12 83 -18q31 -26 26 -67q-7 -53 -50 -66q-12 -4 -17.5 1.5t-2 14t11.5 11.5q26 9 29 43
q3 36 -31 51q-36 15 -63 -11q-16 -16 -21 -43q-11 -64 18 -107t81.5 -58.5t115.5 -17t122.5 11.5t100.5 34q-115 138 -45 336q-36 17 -64 54t-40 78t-3.5 81.5t40.5 62.5q41 27 84 -3q30 -22 43 -52.5t8 -71t-11.5 -65.5t-21.5 -68q89 -41 244.5 -30.5t250.5 58.5
q50 46 110 39q34 -4 60 -20.5t30 -38.5q4 -16 -0.5 -23.5t-12.5 -4.5t-13 14q-9 17 -26.5 24.5t-37.5 -0.5q-33 -15 -54 -70q-26 -64 1 -91q12 -13 35 -12q21 0 49 14q22 75 31 93q6 12 53 14.5t51 -4.5q2 -4 -5.5 -31t-18.5 -58.5t-11 -32.5q25 9 99 60h29
q-24 -38 -102 -89l-39 -23q-1 -2 -10.5 -29.5t-13.5 -38l-15 -39t-18.5 -43.5l-19.5 -40t-23 -39l-24.5 -30.5t-27.5 -25.5t-28 -13q-49 -11 -93 17.5t-42 81.5q1 24 13 48.5t27 42.5t41.5 39.5t44 33l47.5 30.5t40 26q3 0 3 8q-6 -2 -41 -6q-42 -4 -72.5 4t-46.5 25
t-22 39.5t-2 47.5t16 49q-108 -38 -246 -41t-219 38q-20 -59 -24.5 -108t11.5 -102.5t57 -100.5zM-382 -191q27 -24 64 -40t78 -15.5t69 24.5q39 35 22.5 79.5t-66.5 40.5q-24 -2 -53.5 -17t-67 -40.5zM-490 219q59 173 2 218q-20 14 -37 -12q-20 -28 -24.5 -69.5t11 -80.5
t48.5 -56zM26 -246q43 38 112 208q-4 -3 -43.5 -30.5t-53.5 -39.5t-33.5 -38t-23.5 -52t8 -46t34 -2z" />
    <glyph glyph-name="h_ss001" unicode="&#xe009;" horiz-adv-x="370" 
d="M-204 -186q12 7 61.5 41t83.5 47t69 6q44 -9 72.5 -46t28 -83t-35.5 -77t-85 -32.5t-95 18t-78 51.5q-63 -33 -155 -39t-176.5 13.5t-139 79.5t-41.5 148q9 65 63 80q47 12 83 -18q31 -26 26 -67q-7 -53 -50 -66q-12 -4 -17.5 1.5t-2 14t11.5 11.5q26 9 29 43
q3 36 -31 51q-36 15 -63 -11q-16 -16 -21 -43q-11 -64 18 -107t81.5 -58.5t115.5 -17t122.5 11.5t100.5 34q-115 138 -45 336q-36 17 -64 54t-40 78t-3.5 81.5t40.5 62.5q41 27 84 -3q30 -22 43 -52.5t8 -71t-11.5 -65.5t-21.5 -68q36 -13 78 -17t90.5 5t86.5 32
q82 220 145 275q27 23 61 26.5t58 -18.5t20 -65q-9 -67 -59 -126t-117 -92q-10 -24 -14 -37q85 60 145 48q58 -11 25 -90q-18 -43 -18 -45q0 -7 12 -1q42 21 96 61h29q-10 -17 -40 -43t-62 -45q-54 -33 -86.5 -40.5t-41.5 5t-8.5 35t9 46.5l15 44t5.5 22q-7 15 -45.5 -12.5
t-53.5 -47.5q-1 -3 -14.5 -47t-21.5 -59q-2 -4 -27 -6t-48.5 0.5t-23.5 8.5q4 42 45 163q-59 -27 -126 -27t-123 20q-20 -59 -24.5 -108t11.5 -102.5t57 -100.5zM-157 -247q27 -24 64 -40t78 -15.5t69 24.5q39 35 22.5 79.5t-66.5 40.5q-24 -2 -53.5 -17t-67 -40.5z
M-265 163q59 173 2 218q-20 14 -37 -12q-20 -28 -24.5 -69.5t11 -80.5t48.5 -56zM269 394q2 29 -8 30.5t-24 -17.5q-26 -33 -100 -192q53 32 90 79.5t42 99.5z" />
    <glyph glyph-name="i_ss001" unicode="&#xe00a;" horiz-adv-x="173" 
d="M-225 -147q12 7 61.5 41t83.5 47t69 6q44 -9 72.5 -46t28 -83t-35.5 -77t-85 -32.5t-95 18t-78 51.5q-63 -33 -155 -39t-176.5 13.5t-139 79.5t-41.5 148q9 65 63 80q47 12 83 -18q31 -26 26 -67q-7 -53 -50 -66q-12 -4 -17.5 1.5t-2 14t11.5 11.5q26 9 29 43
q3 36 -31 51q-36 15 -63 -11q-16 -16 -21 -43q-11 -64 18 -107t81.5 -58.5t115.5 -17t122.5 11.5t100.5 34q-115 138 -45 336q-36 17 -64 54t-40 78t-3.5 81.5t40.5 62.5q41 27 84 -3q30 -22 43 -52.5t8 -71t-11.5 -65.5t-21.5 -68q39 -13 84.5 -17t97.5 8t91 41l2 3
q9 9 28 8.5t37.5 -9.5t16.5 -18q-44 -129 -42 -151q0 -9 5 -10q18 -4 113 62h29q-13 -22 -49.5 -53t-69.5 -46q-43 -20 -67 -15.5t-35.5 21.5t-11.5 46t6 57.5t17 57.5q-61 -30 -136.5 -31.5t-124.5 19.5q-20 -59 -24.5 -108t11.5 -102.5t57 -100.5zM-178 -208
q27 -24 64 -40t78 -15.5t69 24.5q39 35 22.5 79.5t-66.5 40.5q-24 -2 -53.5 -17t-67 -40.5zM-286 202q59 173 2 218q-20 14 -37 -12q-20 -28 -24.5 -69.5t11 -80.5t48.5 -56zM113 256q-10 -11 -42.5 -3t-33.5 22q0 11 5.5 28t12.5 23q10 10 42 2.5t34 -21.5
q0 -11 -5.5 -27.5t-12.5 -23.5z" />
    <glyph glyph-name="j_ss001" unicode="&#xe00b;" horiz-adv-x="262" 
d="M-487 -263q12 7 61.5 41t83.5 47t69 6q44 -9 72.5 -46t28 -83t-35.5 -77t-85 -32.5t-95 18t-78 51.5q-63 -33 -155 -39t-176.5 13.5t-139 79.5t-41.5 148q9 65 63 80q47 12 83 -18q31 -26 26 -67q-7 -53 -50 -66q-12 -4 -17.5 1.5t-2 14t11.5 11.5q26 9 29 43
q3 36 -31 51q-36 15 -63 -11q-16 -16 -21 -43q-11 -64 18 -107t81.5 -58.5t115.5 -17t122.5 11.5t100.5 34q-115 138 -45 336q-36 17 -64 54t-40 78t-3.5 81.5t40.5 62.5q41 27 84 -3q30 -22 43 -52.5t8 -71t-11.5 -65.5t-21.5 -68q74 -31 164 -35.5t172.5 14t153.5 58.5
t110 95q17 24 49 26.5t55.5 -7.5t22.5 -18q-5 -28 -20.5 -86.5t-21.5 -73.5q31 10 99 60h29q-18 -30 -63 -64t-81 -54l-17 -47.5t-23.5 -63.5t-26 -59t-35.5 -60t-41 -41q-25 -18 -56.5 -21t-57.5 7.5t-41.5 37t-11.5 62.5q2 18 10 36t17 32.5t26.5 32t28.5 27.5t34.5 27
t32 22.5l34 22l28.5 18.5l49 160q-47 -67 -128.5 -110t-170 -55.5t-176 -5t-153.5 35.5q-20 -59 -24.5 -108t11.5 -102.5t57 -100.5zM-440 -324q27 -24 64 -40t78 -15.5t69 24.5q39 35 22.5 79.5t-66.5 40.5q-24 -2 -53.5 -17t-67 -40.5zM-548 86q59 173 2 218
q-20 14 -37 -12q-20 -28 -24.5 -69.5t11 -80.5t48.5 -56zM-61 -221q29 43 86 179q-5 -4 -28 -20t-31.5 -22.5t-27 -22t-27 -26.5t-17.5 -27t-13 -33q-9 -46 12 -55.5t46 27.5zM212 255q-10 -10 -42.5 -2t-33.5 21q0 11 5.5 28t11.5 23q10 10 42.5 2.5t33.5 -20.5
q1 -10 -4.5 -27.5t-12.5 -24.5z" />
    <glyph glyph-name="k_ss001" unicode="&#xe00c;" 
d="M-202 -183q12 7 61.5 41t83.5 47t69 6q44 -9 72.5 -46t28 -83t-35.5 -77t-85 -32.5t-95 18t-78 51.5q-63 -33 -155 -39t-176.5 13.5t-139 79.5t-41.5 148q9 65 63 80q47 12 83 -18q31 -26 26 -67q-7 -53 -50 -66q-12 -4 -17.5 1.5t-2 14t11.5 11.5q26 9 29 43
q3 36 -31 51q-36 15 -63 -11q-16 -16 -21 -43q-11 -64 18 -107t81.5 -58.5t115.5 -17t122.5 11.5t100.5 34q-115 138 -45 336q-36 17 -64 54t-40 78t-3.5 81.5t40.5 62.5q41 27 84 -3q30 -22 43 -52.5t8 -71t-11.5 -65.5t-21.5 -68q36 -13 78.5 -17t91.5 5t87 33
q84 219 144 271q27 23 61 26.5t58 -18.5t20 -65q-9 -67 -59 -126t-117 -92q-10 -24 -14 -37q37 27 93.5 58t91.5 42q13 4 19 -7.5t-4 -19.5q-31 -17 -52 -25q51 -16 17 -103q-17 -42 -16 -46q2 -8 33 16l36 26.5l42 31.5h29q-8 -14 -33.5 -40t-52.5 -46q-37 -29 -65 -44
t-44 -15.5t-25.5 7t-12 23t-1.5 33.5t5.5 37t8.5 34t8 25l3 10q-7 15 -45.5 -12t-54.5 -48q-32 -101 -35 -106q-2 -4 -27 -6t-48.5 0.5t-23.5 8.5q5 46 46 167q-59 -27 -131 -27.5t-120 19.5q-20 -59 -24.5 -108t11.5 -102.5t57 -100.5zM-155 -244q27 -24 64 -40t78 -15.5
t69 24.5q39 35 22.5 79.5t-66.5 40.5q-24 -2 -53.5 -17t-67 -40.5zM-263 166q59 173 2 218q-20 14 -37 -12q-20 -28 -24.5 -69.5t11 -80.5t48.5 -56zM272 394q2 29 -8.5 30.5t-23.5 -17.5q-26 -33 -100 -192q52 33 89.5 80.5t42.5 98.5z" />
    <glyph glyph-name="l_ss001" unicode="&#xe00d;" horiz-adv-x="202" 
d="M-205 -183q12 7 61.5 41t83.5 47t69 6q44 -9 72.5 -46t28 -83t-35.5 -77t-85 -32.5t-95 18t-78 51.5q-63 -33 -155 -39t-176.5 13.5t-139 79.5t-41.5 148q9 65 63 80q47 12 83 -18q31 -26 26 -67q-7 -53 -50 -66q-12 -4 -17.5 1.5t-2 14t11.5 11.5q26 9 29 43
q3 36 -31 51q-36 15 -63 -11q-16 -16 -21 -43q-11 -64 18 -107t81.5 -58.5t115.5 -17t122.5 11.5t100.5 34q-115 138 -45 336q-36 17 -64 54t-40 78t-3.5 81.5t40.5 62.5q41 27 84 -3q30 -22 43 -52.5t8 -71t-11.5 -65.5t-21.5 -68q42 -18 110 -17.5t123 25.5
q30 95 79 186.5t83 108.5q41 24 80 4.5t35 -73.5q-9 -67 -59 -126t-117 -92l-12 -32t-15 -46t-7 -44t13 -15q33 4 129 74h29q-12 -20 -50 -52.5t-74 -51.5q-28 -15 -59.5 -20.5t-57 9t-23.5 53.5q1 28 15 81q-112 -41 -231 1q-20 -59 -24.5 -108t11.5 -102.5t57 -100.5z
M-158 -244q27 -24 64 -40t78 -15.5t69 24.5q39 35 22.5 79.5t-66.5 40.5q-24 -2 -53.5 -17t-67 -40.5zM-266 166q59 173 2 218q-20 14 -37 -12q-20 -28 -24.5 -69.5t11 -80.5t48.5 -56zM240 393q2 29 -10.5 30.5t-23.5 -17.5q-36 -53 -101 -197q52 33 91 82.5t44 101.5z" />
    <glyph glyph-name="m_ss001" unicode="&#xe00e;" horiz-adv-x="537" 
d="M-188 -131q12 7 61.5 41t83.5 47t69 6q44 -9 72.5 -46t28 -83t-35.5 -77t-85 -32.5t-95 18t-78 51.5q-63 -33 -155 -39t-176.5 13.5t-139 79.5t-41.5 148q9 65 63 80q47 12 83 -18q31 -26 26 -67q-7 -53 -50 -66q-12 -4 -17.5 1.5t-2 14t11.5 11.5q26 9 29 43
q3 36 -31 51q-36 15 -63 -11q-16 -16 -21 -43q-11 -64 18 -107t81.5 -58.5t115.5 -17t122.5 11.5t100.5 34q-115 138 -45 336q-36 17 -64 54t-40 78t-3.5 81.5t40.5 62.5q41 27 84 -3q30 -22 43 -52.5t8 -71t-11.5 -65.5t-21.5 -68q39 -13 84 -17t97 8t91 41q11 17 46.5 7.5
t39.5 -22.5q0 -2 -2 -9l-4.5 -15t-2.5 -10q14 19 46.5 31.5t67 5t47.5 -43.5q23 31 67 49.5t72 11.5q55 -16 9 -139q-25 -68 -26 -71q0 -8 6 -5q15 5 122 79h29q-16 -25 -57.5 -58t-80.5 -55q-34 -20 -60 -22t-38.5 17t-2.5 59q5 22 18 57l22 59.5t7 33.5q-4 20 -43 -11
q-47 -39 -65 -86q-25 -67 -41 -89q-10 -11 -27 -11t-31 10.5t-9 23.5q9 20 25.5 73.5t17.5 77.5q2 38 -84 -45q-6 -5 -10 -9l-25 -55q-24 -55 -31 -69q-13 -19 -32.5 -18.5t-37 12t-17.5 21.5q17 58 64 168q-61 -30 -136 -31.5t-124 19.5q-20 -59 -24.5 -108t11.5 -102.5
t57 -100.5zM-141 -192q27 -24 64 -40t78 -15.5t69 24.5q39 35 22.5 79.5t-66.5 40.5q-24 -2 -53.5 -17t-67 -40.5zM-249 218q59 173 2 218q-20 14 -37 -12q-20 -28 -24.5 -69.5t11 -80.5t48.5 -56z" />
    <glyph glyph-name="n_ss001" unicode="&#xe00f;" horiz-adv-x="374" 
d="M-217 -142q12 7 61.5 41t83.5 47t69 6q44 -9 72.5 -46t28 -83t-35.5 -77t-85 -32.5t-95 18t-78 51.5q-63 -33 -155 -39t-176.5 13.5t-139 79.5t-41.5 148q9 65 63 80q47 12 83 -18q31 -26 26 -67q-7 -53 -50 -66q-12 -4 -17.5 1.5t-2 14t11.5 11.5q26 9 29 43
q3 36 -31 51q-36 15 -63 -11q-16 -16 -21 -43q-11 -64 18 -107t81.5 -58.5t115.5 -17t122.5 11.5t100.5 34q-115 138 -45 336q-36 17 -64 54t-40 78t-3.5 81.5t40.5 62.5q41 27 84 -3q30 -22 43 -52.5t8 -71t-11.5 -65.5t-21.5 -68q40 -14 86 -17.5t99 9.5t93 44
q0 6 23.5 7.5t47 -2t22.5 -11.5q0 -4 -1.5 -11l-2.5 -12l-1 -5q21 22 74 40t84 6q21 -8 22.5 -35t-8 -55t-22 -61t-14.5 -44q-6 -32 79 27l45 32h30q-11 -19 -48 -50q-97 -81 -155 -89q-46 -5 -47 47q0 17 31 113q25 77 9 77q-2 0 -5 -1q-11 -4 -19.5 -8t-16 -9t-12.5 -8
t-11.5 -9.5l-9 -9l-10 -10.5t-9.5 -11q-30 -84 -49 -122q-14 -19 -34 -18.5t-38 11.5t-18 21q28 98 47 154q-62 -34 -140.5 -36.5t-129.5 19.5q-20 -59 -24.5 -108t11.5 -102.5t57 -100.5zM-170 -203q27 -24 64 -40t78 -15.5t69 24.5q39 35 22.5 79.5t-66.5 40.5
q-24 -2 -53.5 -17t-67 -40.5zM-278 207q59 173 2 218q-20 14 -37 -12q-20 -28 -24.5 -69.5t11 -80.5t48.5 -56z" />
    <glyph glyph-name="o_ss001" unicode="&#xe010;" horiz-adv-x="313" 
d="M-202 -126q12 7 61.5 41t83.5 47t69 6q44 -9 72.5 -46t28 -83t-35.5 -77t-85 -32.5t-95 18t-78 51.5q-63 -33 -155 -39t-176.5 13.5t-139 79.5t-41.5 148q9 65 63 80q47 12 83 -18q31 -26 26 -67q-7 -53 -50 -66q-12 -4 -17.5 1.5t-2 14t11.5 11.5q26 9 29 43
q3 36 -31 51q-36 15 -63 -11q-16 -16 -21 -43q-11 -64 18 -107t81.5 -58.5t115.5 -17t122.5 11.5t100.5 34q-115 138 -45 336q-36 17 -64 54t-40 78t-3.5 81.5t40.5 62.5q41 27 84 -3q30 -22 43 -52.5t8 -71t-11.5 -65.5t-21.5 -68q37 -13 80 -17t92.5 5.5t88.5 35.5
q34 33 73 37q23 2 44 -5t27 -16q11 1 24 -2q39 -10 51 -66.5t-5 -98.5q42 -4 75 23h29q-39 -63 -115 -62q-17 -35 -59 -56.5t-88 -22.5q-62 -1 -92 35t-27.5 85.5t27.5 97.5q-112 -42 -234 0q-20 -59 -24.5 -108t11.5 -102.5t57 -100.5zM-155 -187q27 -24 64 -40t78 -15.5
t69 24.5q39 35 22.5 79.5t-66.5 40.5q-24 -2 -53.5 -17t-67 -40.5zM-263 223q59 173 2 218q-20 14 -37 -12q-20 -28 -24.5 -69.5t11 -80.5t48.5 -56zM133 237q-31 -10 -55 -60t-21.5 -100.5t39.5 -59.5q23 -5 53.5 6.5t40.5 30.5q-56 17 -81 51.5t-16.5 70.5t40.5 61z
M202 90q6 14 7.5 41t-5.5 55t-24 34q-20 7 -37 -22q-22 -39 1 -73q17 -25 58 -35z" />
    <glyph glyph-name="p_ss001" unicode="&#xe011;" horiz-adv-x="359" 
d="M-461 -192q12 7 61.5 41t83.5 47t69 6q44 -9 72.5 -46t28 -83t-35.5 -77t-85 -32.5t-95 18t-78 51.5q-63 -33 -155 -39t-176.5 13.5t-139 79.5t-41.5 148q9 65 63 80q47 12 83 -18q31 -26 26 -67q-7 -53 -50 -66q-12 -4 -17.5 1.5t-2 14t11.5 11.5q26 9 29 43
q3 36 -31 51q-36 15 -63 -11q-16 -16 -21 -43q-11 -64 18 -107t81.5 -58.5t115.5 -17t122.5 11.5t100.5 34q-115 138 -45 336q-36 17 -64 54t-40 78t-3.5 81.5t40.5 62.5q41 27 84 -3q30 -22 43 -52.5t8 -71t-11.5 -65.5t-21.5 -68q61 -30 169 -32.5t210.5 21t150.5 61.5
q28 61 45 84q12 16 57 9q34 -6 32 -19q-2 -4 -11 -20q13 9 34.5 16t44.5 9t41 -8.5t22 -33.5q9 -58 -24 -161q44 7 84 36h29q-22 -33 -58 -52.5t-67 -14.5q-34 -84 -78 -86q-51 -7 -81 29q-26 33 -4 63q22 28 83 32q6 15 17.5 64.5t11.5 72.5q0 34 -55 -7q-22 -17 -25 -19
l-164 -405q-4 -7 -56 -2q-40 4 -36 14q65 180 136 347q-97 -52 -262 -62t-255 37q-20 -59 -24.5 -108t11.5 -102.5t57 -100.5zM-414 -253q27 -24 64 -40t78 -15.5t69 24.5q39 35 22.5 79.5t-66.5 40.5q-24 -2 -53.5 -17t-67 -40.5zM-522 157q59 173 2 218q-20 14 -37 -12
q-20 -28 -24.5 -69.5t11 -80.5t48.5 -56zM135 4q9 -2 32 37q-36 -1 -39 -23q-2 -12 7 -14z" />
    <glyph glyph-name="q_ss001" unicode="&#xe012;" horiz-adv-x="332" 
d="M240 54q11 1 27.5 10.5t38.5 25t26 18.5h29q-20 -30 -67 -65.5t-68 -39.5q-27 -90 -67 -189q-4 -9 -19.5 -12t-31.5 -1t-29 8.5t-13 14.5q9 50 57 176q-32 -22 -95 -17q-54 5 -71 46.5t-2 93t49 95.5q-99 -25 -217 -21.5t-179 38.5q-20 -59 -24.5 -108t11.5 -102.5
t57 -100.5q12 7 61.5 41t83.5 47t69 6q44 -9 72.5 -46t28 -83t-35.5 -77t-85 -32.5t-95 18t-78 51.5q-63 -33 -155 -39t-176.5 13.5t-139 79.5t-41.5 148q9 65 63 80q47 12 83 -18q31 -26 26 -67q-7 -53 -50 -66q-12 -4 -17.5 1.5t-2 14t11.5 11.5q26 9 29 43q3 36 -31 51
q-36 15 -63 -11q-16 -16 -21 -43q-11 -64 18 -107t81.5 -58.5t115.5 -17t122.5 11.5t100.5 34q-115 138 -45 336q-36 17 -64 54t-40 78t-3.5 81.5t40.5 62.5q41 27 84 -3q30 -22 43 -52.5t8 -71t-11.5 -65.5t-21.5 -68q79 -36 209 -32.5t234 38.5q13 8 23 10q22 6 46 -2.5
t37.5 -18.5t37.5 -30q6 15 12 23t10 7q62 -12 61 -32q-1 -18 -7.5 -46t-14 -50.5l-16 -46.5t-9.5 -28zM-301 -137q27 -24 64 -40t78 -15.5t69 24.5q39 35 22.5 79.5t-66.5 40.5q-24 -2 -53.5 -17t-67 -40.5zM56 31q18 -14 49.5 -4t35.5 20l7 21l14.5 45.5l16.5 50t14 39.5
q-25 15 -40 20t-31 0q-35 -11 -59.5 -91.5t-6.5 -100.5zM-409 273q59 173 2 218q-20 14 -37 -12q-20 -28 -24.5 -69.5t11 -80.5t48.5 -56z" />
    <glyph glyph-name="r_ss001" unicode="&#xe013;" horiz-adv-x="305" 
d="M-202 -162q12 7 61.5 41t83.5 47t69 6q44 -9 72.5 -46t28 -83t-35.5 -77t-85 -32.5t-95 18t-78 51.5q-63 -33 -155 -39t-176.5 13.5t-139 79.5t-41.5 148q9 65 63 80q47 12 83 -18q31 -26 26 -67q-7 -53 -50 -66q-12 -4 -17.5 1.5t-2 14t11.5 11.5q26 9 29 43
q3 36 -31 51q-36 15 -63 -11q-16 -16 -21 -43q-11 -64 18 -107t81.5 -58.5t115.5 -17t122.5 11.5t100.5 34q-115 138 -45 336q-36 17 -64 54t-40 78t-3.5 81.5t40.5 62.5q41 27 84 -3q30 -22 43 -52.5t8 -71t-11.5 -65.5t-21.5 -68q39 -14 87.5 -17t101.5 9.5t89 43.5
q-18 18 -24 42t5 44q15 24 40 25.5t36 -25.5q8 -27 -7 -63q18 -16 57 -23q26 11 51 -1t26 -29q-1 -3 -10 -21q-59 -120 -26 -120q9 0 25 8q27 14 91 59h29q-12 -19 -45 -47.5t-69 -46.5q-77 -37 -109 -17.5t-27.5 72.5t40.5 108q-24 6 -52 20q-44 -38 -105 -54t-114.5 -13
t-98.5 19q-20 -59 -24.5 -108t11.5 -102.5t57 -100.5zM-155 -223q27 -24 64 -40t78 -15.5t69 24.5q39 35 22.5 79.5t-66.5 40.5q-24 -2 -53.5 -17t-67 -40.5zM-263 187q59 173 2 218q-20 14 -37 -12q-20 -28 -24.5 -69.5t11 -80.5t48.5 -56z" />
    <glyph glyph-name="s_ss001" unicode="&#xe014;" horiz-adv-x="297" 
d="M-243 -262q12 7 61.5 41t83.5 47t69 6q44 -9 72.5 -46t28 -83t-35.5 -77t-85 -32.5t-95 18t-78 51.5q-63 -33 -155 -39t-176.5 13.5t-139 79.5t-41.5 148q9 65 63 80q47 12 83 -18q31 -26 26 -67q-7 -53 -50 -66q-12 -4 -17.5 1.5t-2 14t11.5 11.5q26 9 29 43
q3 36 -31 51q-36 15 -63 -11q-16 -16 -21 -43q-11 -64 18 -107t81.5 -58.5t115.5 -17t122.5 11.5t100.5 34q-115 138 -45 336q-36 17 -64 54t-40 78t-3.5 81.5t40.5 62.5q41 27 84 -3q30 -22 43 -52.5t8 -71t-11.5 -65.5t-21.5 -68q34 -14 79 -17.5t91.5 4.5t88 33.5
t64.5 65.5q-22 56 -15 95q7 46 65 58q51 11 82 -11q25 -17 6 -44q-6 -9 -48 -56q66 -147 67 -154q14 4 34 16.5t40 27.5l21 14h29q-17 -26 -53.5 -55t-59.5 -41q25 -115 -48 -148q-46 -20 -87 3q-44 25 -26 77q13 36 59 77q-2 10 -54 115q-40 -49 -88.5 -76t-96 -30.5
t-85 1.5t-74.5 18q-20 -59 -24.5 -108t11.5 -102.5t57 -100.5zM-196 -323q27 -24 64 -40t78 -15.5t69 24.5q39 35 22.5 79.5t-66.5 40.5q-24 -2 -53.5 -17t-67 -40.5zM-304 87q59 173 2 218q-20 14 -37 -12q-20 -28 -24.5 -69.5t11 -80.5t48.5 -56zM113 -91q16 21 8 68
q-42 -37 -31 -63q7 -16 19 -9zM125 229q31 39 31 46q0 9 -14 3q-25 -11 -19 -42q1 -4 2 -7z" />
    <glyph glyph-name="t_ss001" unicode="&#xe015;" horiz-adv-x="226" 
d="M-280 -104q12 7 61.5 41t83.5 47t69 6q44 -9 72.5 -46t28 -83t-35.5 -77t-85 -32.5t-95 18t-78 51.5q-63 -33 -155 -39t-176.5 13.5t-139 79.5t-41.5 148q9 65 63 80q47 12 83 -18q31 -26 26 -67q-7 -53 -50 -66q-12 -4 -17.5 1.5t-2 14t11.5 11.5q26 9 29 43
q3 36 -31 51q-36 15 -63 -11q-16 -16 -21 -43q-11 -64 18 -107t81.5 -58.5t115.5 -17t122.5 11.5t100.5 34q-115 138 -45 336q-36 17 -64 54t-40 78t-3.5 81.5t40.5 62.5q41 27 84 -3q30 -22 43 -52.5t8 -71t-11.5 -65.5t-21.5 -68q51 -21 151.5 -8t161.5 56q3 7 13 11
t19 5.5t22.5 2.5t17.5 2q13 20 40 55q6 7 55 6q43 -2 39 -15l-23 -39q12 1 34 1q17 0 6 -21q-8 -13 -15 -14l-47 -3q-148 -255 -70 -239q39 8 137 74h29q-19 -29 -64.5 -63.5t-86.5 -49.5q-26 -7 -56.5 -8.5t-56.5 15t-30 47.5q-8 63 85 215l-27 -2q-45 -34 -113 -52.5
t-126 -17t-104 14.5q-20 -59 -24.5 -108t11.5 -102.5t57 -100.5zM-233 -165q27 -24 64 -40t78 -15.5t69 24.5q39 35 22.5 79.5t-66.5 40.5q-24 -2 -53.5 -17t-67 -40.5zM-341 245q59 173 2 218q-20 14 -37 -12q-20 -28 -24.5 -69.5t11 -80.5t48.5 -56z" />
    <glyph glyph-name="u_ss001" unicode="&#xe016;" horiz-adv-x="327" 
d="M-219 -150q12 7 61.5 41t83.5 47t69 6q44 -9 72.5 -46t28 -83t-35.5 -77t-85 -32.5t-95 18t-78 51.5q-63 -33 -155 -39t-176.5 13.5t-139 79.5t-41.5 148q9 65 63 80q47 12 83 -18q31 -26 26 -67q-7 -53 -50 -66q-12 -4 -17.5 1.5t-2 14t11.5 11.5q26 9 29 43
q3 36 -31 51q-36 15 -63 -11q-16 -16 -21 -43q-11 -64 18 -107t81.5 -58.5t115.5 -17t122.5 11.5t100.5 34q-115 138 -45 336q-36 17 -64 54t-40 78t-3.5 81.5t40.5 62.5q41 27 84 -3q30 -22 43 -52.5t8 -71t-11.5 -65.5t-21.5 -68q39 -13 84.5 -17t98 8t91.5 42q0 1 2 3
q3 7 39 16q54 13 52 -17q-1 -7 -4 -15q-34 -90 -44 -127q-12 -42 36 -7q7 5 31 24q1 4 12 38l20.5 62.5t13.5 37.5q15 27 32.5 23.5t33 -18.5t14.5 -19l-7 -21q-57 -154 -26 -154q3 -1 7 1q13 5 33.5 18l40.5 27t21 15h29q-11 -19 -46 -50.5t-66 -48.5q-23 -12 -51 -13.5
t-48.5 12.5t-19.5 44q-18 -16 -50.5 -28t-65 -11t-42.5 23q-14 30 31 137q-61 -30 -136.5 -31.5t-124.5 19.5q-20 -59 -24.5 -108t11.5 -102.5t57 -100.5zM-172 -211q27 -24 64 -40t78 -15.5t69 24.5q39 35 22.5 79.5t-66.5 40.5q-24 -2 -53.5 -17t-67 -40.5zM-280 199
q59 173 2 218q-20 14 -37 -12q-20 -28 -24.5 -69.5t11 -80.5t48.5 -56z" />
    <glyph glyph-name="v_ss001" unicode="&#xe017;" horiz-adv-x="288" 
d="M-202 -126q12 7 61.5 41t83.5 47t69 6q44 -9 72.5 -46t28 -83t-35.5 -77t-85 -32.5t-95 18t-78 51.5q-63 -33 -155 -39t-176.5 13.5t-139 79.5t-41.5 148q9 65 63 80q47 12 83 -18q31 -26 26 -67q-7 -53 -50 -66q-12 -4 -17.5 1.5t-2 14t11.5 11.5q26 9 29 43
q3 36 -31 51q-36 15 -63 -11q-16 -16 -21 -43q-11 -64 18 -107t81.5 -58.5t115.5 -17t122.5 11.5t100.5 34q-115 138 -45 336q-36 17 -64 54t-40 78t-3.5 81.5t40.5 62.5q41 27 84 -3q30 -22 43 -52.5t8 -71t-11.5 -65.5t-21.5 -68q45 -20 119.5 -17.5t130.5 34.5
q9 25 29 27t36 -11t15 -23q-2 -31 -32 -199l41 24q-12 32 3.5 81.5t46.5 67.5q26 15 51.5 0t30.5 -45q6 -50 -74 -107q21 -11 128 64h29q-33 -52 -92 -86.5t-104 -2.5q-38 -20 -72 -41q-15 -9 -49 0.5t-31 24.5l14 83.5t20 105.5q-59 -27 -126 -27t-123 20
q-20 -59 -24.5 -108t11.5 -102.5t57 -100.5zM-155 -187q27 -24 64 -40t78 -15.5t69 24.5q39 35 22.5 79.5t-66.5 40.5q-24 -2 -53.5 -17t-67 -40.5zM-263 223q59 173 2 218q-20 14 -37 -12q-20 -28 -24.5 -69.5t11 -80.5t48.5 -56zM205 150q0 13 -11.5 19.5t-23.5 -2.5
q-19 -13 -30.5 -48t-2.5 -49q69 50 68 80z" />
    <glyph glyph-name="w_ss001" unicode="&#xe018;" horiz-adv-x="502" 
d="M-192 -136q12 7 61.5 41t83.5 47t69 6q44 -9 72.5 -46t28 -83t-35.5 -77t-85 -32.5t-95 18t-78 51.5q-63 -33 -155 -39t-176.5 13.5t-139 79.5t-41.5 148q9 65 63 80q47 12 83 -18q31 -26 26 -67q-7 -53 -50 -66q-12 -4 -17.5 1.5t-2 14t11.5 11.5q26 9 29 43
q3 36 -31 51q-36 15 -63 -11q-16 -16 -21 -43q-11 -64 18 -107t81.5 -58.5t115.5 -17t122.5 11.5t100.5 34q-115 138 -45 336q-36 17 -64 54t-40 78t-3.5 81.5t40.5 62.5q41 27 84 -3q30 -22 43 -52.5t8 -71t-11.5 -65.5t-21.5 -68q37 -13 79.5 -16.5t92 5.5t88.5 34l4 7
q17 22 36.5 17t34 -24.5t9.5 -31.5q-60 -139 -64 -164q-1 -10 8 -9q26 3 68 48q43 45 59 96q17 52 50 13q21 -26 22 -43q-8 -30 -1 -78q9 -63 46 -37q-27 29 -23.5 80t30.5 84q23 31 56.5 27.5t39.5 -42.5q5 -28 -8.5 -65t-33.5 -67q13 -2 32 5.5t33.5 16.5t38 26.5
t32.5 23.5h29q-23 -38 -92 -83.5t-107 -27.5q-31 -27 -70.5 -34t-69 17t-27.5 79q-34 -42 -67.5 -65t-76.5 -21q-33 2 -52 19t-10 51q15 52 53 138q-68 -26 -130 -26t-118 20q-20 -59 -24.5 -108t11.5 -102.5t57 -100.5zM-145 -197q27 -24 64 -40t78 -15.5t69 24.5
q39 35 22.5 79.5t-66.5 40.5q-24 -2 -53.5 -17t-67 -40.5zM-253 213q59 173 2 218q-20 14 -37 -12q-20 -28 -24.5 -69.5t11 -80.5t48.5 -56zM372 162q0 7 -6 9t-13.5 -1t-12.5 -10q-15 -23 -18.5 -62t11.5 -53q14 21 26.5 57t12.5 60z" />
    <glyph glyph-name="x_ss001" unicode="&#xe019;" horiz-adv-x="310" 
d="M-191 -204q12 7 61.5 41t83.5 47t69 6q44 -9 72.5 -46t28 -83t-35.5 -77t-85 -32.5t-95 18t-78 51.5q-63 -33 -155 -39t-176.5 13.5t-139 79.5t-41.5 148q9 65 63 80q47 12 83 -18q31 -26 26 -67q-7 -53 -50 -66q-12 -4 -17.5 1.5t-2 14t11.5 11.5q26 9 29 43
q3 36 -31 51q-36 15 -63 -11q-16 -16 -21 -43q-11 -64 18 -107t81.5 -58.5t115.5 -17t122.5 11.5t100.5 34q-115 138 -45 336q-36 17 -64 54t-40 78t-3.5 81.5t40.5 62.5q41 27 84 -3q30 -22 43 -52.5t8 -71t-11.5 -65.5t-21.5 -68q40 -14 86 -17.5t99 9.5t93 44
q48 52 86 51q28 -1 31 -33.5t-5 -54.5q6 6 27 28.5t32 32.5q17 16 27.5 10t0.5 -27q-18 -41 -89 -115q3 -16 9 -22.5t18 -3.5t20 7t27 16q7 4 10 6q16 10 40 27l24 16h28q-8 -14 -31 -35.5t-49 -39.5q-28 -20 -43.5 -28.5t-40.5 -16.5t-44.5 2t-36.5 37l-32 -31
q-25 -23 -36.5 -13.5t6.5 38.5q18 26 49 59q0 5 2 24t0 30.5t-11 13.5q-44 -35 -102 -49.5t-108.5 -11t-95.5 19.5q-20 -59 -24.5 -108t11.5 -102.5t57 -100.5zM-144 -265q27 -24 64 -40t78 -15.5t69 24.5q39 35 22.5 79.5t-66.5 40.5q-24 -2 -53.5 -17t-67 -40.5zM-252 145
q59 173 2 218q-20 14 -37 -12q-20 -28 -24.5 -69.5t11 -80.5t48.5 -56z" />
    <glyph glyph-name="y_ss001" unicode="&#xe01a;" horiz-adv-x="363" 
d="M-476 -156q12 7 61.5 41t83.5 47t69 6q44 -9 72.5 -46t28 -83t-35.5 -77t-85 -32.5t-95 18t-78 51.5q-63 -33 -155 -39t-176.5 13.5t-139 79.5t-41.5 148q9 65 63 80q47 12 83 -18q31 -26 26 -67q-7 -53 -50 -66q-12 -4 -17.5 1.5t-2 14t11.5 11.5q26 9 29 43
q3 36 -31 51q-36 15 -63 -11q-16 -16 -21 -43q-11 -64 18 -107t81.5 -58.5t115.5 -17t122.5 11.5t100.5 34q-115 138 -45 336q-36 17 -64 54t-40 78t-3.5 81.5t40.5 62.5q41 27 84 -3q30 -22 43 -52.5t8 -71t-11.5 -65.5t-21.5 -68q97 -47 280 -27.5t255 80.5q0 2 2 4
q4 7 40 15q54 13 50 -19q-1 -6 -4 -13q-43 -125 -50 -151q-5 -20 23 -23q37 -4 70 15q4 2 7 4l52 165q22 5 42.5 1t35 -11.5t13.5 -13.5q-4 -26 -19.5 -84t-22.5 -76q26 9 100 60h29q-34 -54 -145 -117l-13.5 -39.5l-18 -51t-20.5 -50t-26 -53t-29.5 -42.5t-35.5 -35
q-25 -18 -56.5 -21t-57.5 7t-41.5 36.5t-11.5 62.5q2 20 10.5 40t24.5 39t29 33t38 32.5l36.5 27t39.5 26.5t33 21q1 1 2 3q-39 -18 -102.5 -21t-81.5 22q-12 30 35 154q-95 -53 -263 -64t-258 37q-20 -59 -24.5 -108t11.5 -102.5t57 -100.5zM-429 -217q27 -24 64 -40
t78 -15.5t69 24.5q39 35 22.5 79.5t-66.5 40.5q-24 -2 -53.5 -17t-67 -40.5zM-537 193q59 173 2 218q-20 14 -37 -12q-20 -28 -24.5 -69.5t11 -80.5t48.5 -56zM-19 -193q-9 -45 12 -55t46 27q33 50 86 180l-33.5 -23.5t-38 -28.5l-30 -27t-28.5 -35t-14 -38z" />
    <glyph glyph-name="z_ss001" unicode="&#xe01b;" 
d="M-277 -276q12 7 61.5 41t83.5 47t69 6q44 -9 72.5 -46t28 -83t-35.5 -77t-85 -32.5t-95 18t-78 51.5q-63 -33 -155 -39t-176.5 13.5t-139 79.5t-41.5 148q9 65 63 80q47 12 83 -18q31 -26 26 -67q-7 -53 -50 -66q-12 -4 -17.5 1.5t-2 14t11.5 11.5q26 9 29 43
q3 36 -31 51q-36 15 -63 -11q-16 -16 -21 -43q-11 -64 18 -107t81.5 -58.5t115.5 -17t122.5 11.5t100.5 34q-115 138 -45 336q-36 17 -64 54t-40 78t-3.5 81.5t40.5 62.5q41 27 84 -3q30 -22 43 -52.5t8 -71t-11.5 -65.5t-21.5 -68q41 -14 86.5 -19t98.5 6.5t89 44.5
q8 8 37 46t55 68.5t68 50.5t82 7q42 -14 51.5 -54.5t-3 -78.5t-32.5 -65q34 0 59 -18q15 5 35 17.5t40 26.5l19 14h29q-10 -17 -40.5 -43.5t-60.5 -44.5q16 -42 14 -92.5t-29 -102.5t-68 -76q-32 -22 -89.5 -19t-81.5 33q-22 26 4.5 75t67.5 89t67 53q-8 18 -22.5 29
t-20.5 9q-5 -2 -24 -9q-18 -7 -29 8t0 30q126 159 76 154q-40 -4 -143 -90q-25 -21 -47 -42q-39 -37 -96.5 -49.5t-106 -6.5t-94.5 22q-20 -59 -24.5 -108t11.5 -102.5t57 -100.5zM-230 -337q27 -24 64 -40t78 -15.5t69 24.5q39 35 22.5 79.5t-66.5 40.5q-24 -2 -53.5 -17
t-67 -40.5zM-338 73q59 173 2 218q-20 14 -37 -12q-20 -28 -24.5 -69.5t11 -80.5t48.5 -56zM205 -51q-31 -17 -85 -78t-36 -85q16 -14 43.5 -8.5t43.5 19.5q28 24 36.5 71t-2.5 81z" />
    <glyph glyph-name="a_ss002" unicode="&#xe01c;" horiz-adv-x="374" 
d="M610 443q-12 -7 -61.5 -41t-83.5 -47t-69 -6q-44 9 -72.5 46t-28 83t35.5 77t85 32.5t95 -18t78 -51.5q63 33 155 39t176.5 -13.5t139 -79.5t41.5 -148q-9 -65 -63 -80q-47 -12 -83 18q-31 26 -26 67q7 53 50 66q12 4 17.5 -1.5t2 -14t-11.5 -11.5q-26 -9 -29 -43
q-3 -36 31 -51q36 -15 63 11q16 16 21 43q11 64 -18 107t-81.5 58.5t-115.5 17t-122.5 -11.5t-100.5 -34q115 -138 45 -336q36 -17 64 -54t40 -78t3.5 -81.5t-40.5 -62.5q-41 -27 -84 3q-30 22 -43 52.5t-8 71t11.5 65.5t21.5 68q-40 14 -84.5 18.5t-97 -6.5t-89.5 -42
q-66 -55 -91 -66q-40 -21 -75.5 -4.5t-34.5 64.5q-7 -5 -19.5 -15l-19 -15t-18 -10t-25.5 -7q-79 -11 -103 51q-22 56 12 122q36 71 106 84q52 10 96 -13q10 -5 6 -20t-19 -8q-24 10 -48 -8q-39 -27 -62 -92q-22 -62 3 -73q4 -2 10 -1q14 1 28 9t34.5 24.5t27.5 21.5
q1 2 8 31t13 47.5t13 27.5t37 5.5t32 -14.5q4 -18 -14.5 -81t-17.5 -78q3 -30 78 21l16 12q46 34 103.5 49t108 11.5t95.5 -18.5q20 59 24.5 108t-11.5 102.5t-57 100.5zM563 504q-27 24 -64 40t-78 15.5t-69 -24.5q-39 -35 -22.5 -79.5t66.5 -40.5q24 2 53.5 17t67 40.5z
M671 94q-59 -173 -2 -218q20 -14 37 12q20 28 24.5 69.5t-11 80.5t-48.5 56z" />
    <glyph glyph-name="b_ss002" unicode="&#xe01d;" horiz-adv-x="338" 
d="M643 491q-12 -7 -61.5 -41t-83.5 -47t-69 -6q-44 9 -72.5 46t-28 83t35.5 77t85 32.5t95 -18t78 -51.5q63 33 155 39t176.5 -13.5t139 -79.5t41.5 -148q-9 -65 -63 -80q-47 -12 -83 18q-31 26 -26 67q7 53 50 66q12 4 17.5 -1.5t2 -14t-11.5 -11.5q-26 -9 -29 -43
q-3 -36 31 -51q36 -15 63 11q16 16 21 43q11 64 -18 107t-81.5 58.5t-115.5 17t-122.5 -11.5t-100.5 -34q115 -138 45 -336q36 -17 64 -54t40 -78t3.5 -81.5t-40.5 -62.5q-41 -27 -84 3q-30 22 -43 52.5t-8 71t11.5 65.5t21.5 68q-42 14 -88 18.5t-100.5 -8t-90.5 -47.5
q-33 -32 -88 -64.5t-86 -30.5q-47 -54 -97 -68q-33 -12 -75 -0.5t-59 43.5q-18 32 -13 81t21 104t47.5 110t67 98t79 66.5t82.5 17.5q27 -4 45 -20.5t21 -38.5q5 -44 -44.5 -97.5t-104.5 -87.5t-81 -38l-11.5 -29t-15 -44t-13 -48t-6 -42t6.5 -27q11 -13 40 -4q26 6 59 36
q-34 13 -46 45t-0.5 64.5t39.5 50.5q27 17 58 13.5t48 -26.5q31 -42 -19 -122q33 13 131 84q45 32 102 45.5t106.5 10.5t93.5 -18q20 59 24.5 108t-11.5 102.5t-57 100.5zM596 552q-27 24 -64 40t-78 15.5t-69 -24.5q-39 -35 -22.5 -79.5t66.5 -40.5q24 2 53.5 17t67 40.5z
M704 142q-59 -173 -2 -218q20 -14 37 12q20 28 24.5 69.5t-11 80.5t-48.5 56zM270 427q-34 -9 -77 -78.5t-71 -131.5q38 21 77 48.5t74 69t30 74.5q-3 26 -33 18zM202 62q51 61 36 91q-6 12 -22.5 12.5t-30.5 -10.5q-28 -20 -23 -52.5t40 -40.5z" />
    <glyph glyph-name="c_ss002" unicode="&#xe01e;" horiz-adv-x="258" 
d="M499 446q-12 -7 -61.5 -41t-83.5 -47t-69 -6q-44 9 -72.5 46t-28 83t35.5 77t85 32.5t95 -18t78 -51.5q63 33 155 39t176.5 -13.5t139 -79.5t41.5 -148q-9 -65 -63 -80q-47 -12 -83 18q-31 26 -26 67q7 53 50 66q12 4 17.5 -1.5t2 -14t-11.5 -11.5q-26 -9 -29 -43
q-3 -36 31 -51q36 -15 63 11q16 16 21 43q11 64 -18 107t-81.5 58.5t-115.5 17t-122.5 -11.5t-100.5 -34q115 -138 45 -336q36 -17 64 -54t40 -78t3.5 -81.5t-40.5 -62.5q-41 -27 -84 3q-30 22 -43 52.5t-8 71t11.5 65.5t21.5 68q-41 14 -88 17.5t-101 -10t-93 -46.5
q-56 -47 -97 -59q-114 -34 -157 38q-33 55 -8 131q24 73 79 96q30 12 63 5q46 -10 62 -55q9 -23 -8 -25q-3 0 -22 20.5t-33 19.5q-21 -2 -39 -44.5t-16.5 -89t28.5 -58.5q49 -18 132 45q46 34 103.5 49t108 11.5t95.5 -18.5q20 59 24.5 108t-11.5 102.5t-57 100.5zM452 507
q-27 24 -64 40t-78 15.5t-69 -24.5q-39 -35 -22.5 -79.5t66.5 -40.5q24 2 53.5 17t67 40.5zM560 97q-59 -173 -2 -218q20 -14 37 12q20 28 24.5 69.5t-11 80.5t-48.5 56z" />
    <glyph glyph-name="d_ss002" unicode="&#xe01f;" horiz-adv-x="428" 
d="M727 490q-12 -7 -61.5 -41t-83.5 -47t-69 -6q-44 9 -72.5 46t-28 83t35.5 77t85 32.5t95 -18t78 -51.5q63 33 155 39t176.5 -13.5t139 -79.5t41.5 -148q-9 -65 -63 -80q-47 -12 -83 18q-31 26 -26 67q7 53 50 66q12 4 17.5 -1.5t2 -14t-11.5 -11.5q-26 -9 -29 -43
q-3 -36 31 -51q36 -15 63 11q16 16 21 43q11 64 -18 107t-81.5 58.5t-115.5 17t-122.5 -11.5t-100.5 -34q115 -138 45 -336q36 -17 64 -54t40 -78t3.5 -81.5t-40.5 -62.5q-41 -27 -84 3q-30 22 -43 52.5t-8 71t11.5 65.5t21.5 68q-44 19 -87 21t-76 -7t-71.5 -30.5
t-66 -42.5l-67.5 -51.5t-67 -48.5q-111 -73 -130 97q-106 -82 -170 -51q-29 14 -40.5 43.5t-3 61.5t28.5 60.5t57 44t79 8.5q30 -5 53 -24q9 64 32 127t61 92q28 18 56.5 19.5t50.5 -19.5t22 -56q-1 -69 -40.5 -139t-94.5 -118q0 -3 0.5 -23.5t3.5 -39.5t9 -28
q4 -6 36.5 13.5l79.5 50t108 57t122.5 32.5t123.5 -22q20 59 24.5 108t-11.5 102.5t-57 100.5zM680 551q-27 24 -64 40t-78 15.5t-69 -24.5q-39 -35 -22.5 -79.5t66.5 -40.5q24 2 53.5 17t67 40.5zM788 141q-59 -173 -2 -218q20 -14 37 12q20 28 24.5 69.5t-11 80.5
t-48.5 56zM198 206q-28 13 -50 8q-33 -7 -54 -50.5t-9 -73.5q4 -10 11 -14t16 -1.5t18 7t20 12.5t18.5 14.5l16 14t10.5 9.5q-2 36 3 74zM286 176q41 37 70 103.5t31 121.5q1 21 -8 23t-22 -11q-32 -30 -49.5 -101t-21.5 -136z" />
    <glyph glyph-name="e_ss002" unicode="&#xe020;" horiz-adv-x="260" 
d="M496 442q-12 -7 -61.5 -41t-83.5 -47t-69 -6q-44 9 -72.5 46t-28 83t35.5 77t85 32.5t95 -18t78 -51.5q63 33 155 39t176.5 -13.5t139 -79.5t41.5 -148q-9 -65 -63 -80q-47 -12 -83 18q-31 26 -26 67q7 53 50 66q12 4 17.5 -1.5t2 -14t-11.5 -11.5q-26 -9 -29 -43
q-3 -36 31 -51q36 -15 63 11q16 16 21 43q11 64 -18 107t-81.5 58.5t-115.5 17t-122.5 -11.5t-100.5 -34q115 -138 45 -336q36 -17 64 -54t40 -78t3.5 -81.5t-40.5 -62.5q-41 -27 -84 3q-30 22 -43 52.5t-8 71t11.5 65.5t21.5 68q-40 14 -85.5 18.5t-99 -7.5t-90.5 -44
q-50 -44 -91 -58q-116 -41 -164 26q-34 50 -13 123q20 69 75 93q35 15 77 3q36 -10 49 -39t-11 -57q-24 -26 -103 -74q6 -28 31 -40q49 -19 127 41q63 48 145.5 58t161.5 -16q20 59 24.5 108t-11.5 102.5t-57 100.5zM449 503q-27 24 -64 40t-78 15.5t-69 -24.5
q-39 -35 -22.5 -79.5t66.5 -40.5q24 2 53.5 17t67 40.5zM557 93q-59 -173 -2 -218q20 -14 37 12q20 28 24.5 69.5t-11 80.5t-48.5 56zM66 123l44 27t38 26q14 11 7.5 27.5t-22.5 21.5q-26 8 -51.5 -37.5t-15.5 -64.5z" />
    <glyph glyph-name="f_ss002" unicode="&#xe021;" horiz-adv-x="375" 
d="M721 511q-12 -7 -61.5 -41t-83.5 -47t-69 -6q-44 9 -72.5 46t-28 83t35.5 77t85 32.5t95 -18t78 -51.5q63 33 155 39t176.5 -13.5t139 -79.5t41.5 -148q-9 -65 -63 -80q-47 -12 -83 18q-31 26 -26 67q7 53 50 66q12 4 17.5 -1.5t2 -14t-11.5 -11.5q-26 -9 -29 -43
q-3 -36 31 -51q36 -15 63 11q16 16 21 43q11 64 -18 107t-81.5 58.5t-115.5 17t-122.5 -11.5t-100.5 -34q115 -138 45 -336q36 -17 64 -54t40 -78t3.5 -81.5t-40.5 -62.5q-41 -27 -84 3q-30 22 -43 52.5t-8 71t11.5 65.5t21.5 68q-43 16 -84.5 18.5t-78 -8t-71 -27
t-69 -39.5l-65 -44t-66 -42.5t-66.5 -33.5q-27 -123 -112 -185q-63 -46 -113 -28q-52 20 -42 99l4 21q9 41 40 122q-28 28 -31 64.5t12.5 65.5t44 47.5t58.5 14.5l17.5 35.5t21.5 42l22 39.5t26.5 42t28 33.5t33.5 30.5t36 19q50 20 101 4t51 -59q-2 -44 -42.5 -95
t-86 -85.5t-91.5 -60.5q36 -56 28 -126q40 18 84.5 45.5t75.5 50t71.5 44t77.5 32.5t87 9.5t107 -19.5q20 59 24.5 108t-11.5 102.5t-57 100.5zM674 572q-27 24 -64 40t-78 15.5t-69 -24.5q-39 -35 -22.5 -79.5t66.5 -40.5q24 2 53.5 17t67 40.5zM223 180q9 8 51.5 43.5
t67.5 58.5t49 58.5t24 64.5q0 20 -14.5 25t-32 -2.5t-29.5 -20.5q-45 -48 -127 -216zM782 162q-59 -173 -2 -218q20 -14 37 12q20 28 24.5 69.5t-11 80.5t-48.5 56zM96 -110q-12 -55 11 -50q26 6 68 66q32 45 36 71q-51 -9 -86 9q-22 -65 -29 -96zM139 23q29 -21 82 -5
q7 29 1 72.5t-25 67.5q-30 -65 -58 -135zM104 192q-24 3 -44 -22.5t-22.5 -54t12.5 -46.5q22 58 54 123z" />
    <glyph glyph-name="g_ss002" unicode="&#xe022;" horiz-adv-x="371" 
d="M610 443q-12 -7 -61.5 -41t-83.5 -47t-69 -6q-44 9 -72.5 46t-28 83t35.5 77t85 32.5t95 -18t78 -51.5q63 33 155 39t176.5 -13.5t139 -79.5t41.5 -148q-9 -65 -63 -80q-47 -12 -83 18q-31 26 -26 67q7 53 50 66q12 4 17.5 -1.5t2 -14t-11.5 -11.5q-26 -9 -29 -43
q-3 -36 31 -51q36 -15 63 11q16 16 21 43q11 64 -18 107t-81.5 58.5t-115.5 17t-122.5 -11.5t-100.5 -34q115 -138 45 -336q36 -17 64 -54t40 -78t3.5 -81.5t-40.5 -62.5q-41 -27 -84 3q-30 22 -43 52.5t-8 71t11.5 65.5t21.5 68q-73 35 -183 5t-203 -114q-1 -2 -10.5 -29.5
t-13.5 -38l-15 -39t-18.5 -43.5l-19.5 -40t-23 -39l-24.5 -30.5t-27.5 -25.5t-28 -13q-49 -11 -93 17.5t-42 81.5q1 24 13 48.5t27 42.5t41.5 39.5t44 33l47.5 30.5t40 26q3 0 3 8q-6 -2 -41 -6q-113 -11 -139 60q-20 54 20 119q41 66 107 76q17 3 34 1q34 -4 60 -20.5
t30 -38.5q4 -16 -0.5 -23.5t-12.5 -4.5t-13 14q-9 17 -26.5 24.5t-37.5 -0.5q-33 -15 -54 -70q-26 -64 1 -91q12 -13 35 -12q21 0 49 14q22 75 31 93q6 12 53 14.5t51 -4.5q2 -4 -5.5 -31t-18.5 -58.5t-11 -32.5q50 40 118 68.5t138.5 35.5t125.5 -20q20 59 24.5 108
t-11.5 102.5t-57 100.5zM563 504q-27 24 -64 40t-78 15.5t-69 -24.5q-39 -35 -22.5 -79.5t66.5 -40.5q24 2 53.5 17t67 40.5zM671 94q-59 -173 -2 -218q20 -14 37 12q20 28 24.5 69.5t-11 80.5t-48.5 56zM26 -246q43 38 112 208q-4 -3 -43.5 -30.5t-53.5 -39.5t-33.5 -38
t-23.5 -52t8 -46t34 -2z" />
    <glyph glyph-name="h_ss002" unicode="&#xe023;" horiz-adv-x="370" 
d="M610 443q-12 -7 -61.5 -41t-83.5 -47t-69 -6q-44 9 -72.5 46t-28 83t35.5 77t85 32.5t95 -18t78 -51.5q63 33 155 39t176.5 -13.5t139 -79.5t41.5 -148q-9 -65 -63 -80q-47 -12 -83 18q-31 26 -26 67q7 53 50 66q12 4 17.5 -1.5t2 -14t-11.5 -11.5q-26 -9 -29 -43
q-3 -36 31 -51q36 -15 63 11q16 16 21 43q11 64 -18 107t-81.5 58.5t-115.5 17t-122.5 -11.5t-100.5 -34q115 -138 45 -336q36 -17 64 -54t40 -78t3.5 -81.5t-40.5 -62.5q-41 -27 -84 3q-30 22 -43 52.5t-8 71t11.5 65.5t21.5 68q-17 10 -35 15.5t-34 8t-37 -1t-34.5 -5.5
t-37.5 -11.5l-35 -14t-36 -18.5l-33 -18.5t-34.5 -20.5l-31.5 -19q-54 -33 -86.5 -40.5t-41.5 5t-8.5 35t9 46.5l15 44t5.5 22q-7 15 -45.5 -12.5t-53.5 -47.5q-1 -3 -14.5 -47t-21.5 -59q-2 -4 -27 -6t-48.5 0.5t-23.5 8.5q7 72 78.5 251t126.5 227q27 23 61 26.5t58 -18.5
t20 -65q-9 -67 -59 -126t-117 -92q-10 -24 -14 -37q85 60 145 48q58 -11 25 -90q-18 -43 -18 -45q0 -7 12 -1q14 7 52 28l61.5 33t63 27t69.5 19.5t66.5 0t67.5 -22.5q20 59 24.5 108t-11.5 102.5t-57 100.5zM563 504q-27 24 -64 40t-78 15.5t-69 -24.5q-39 -35 -22.5 -79.5
t66.5 -40.5q24 2 53.5 17t67 40.5zM671 94q-59 -173 -2 -218q20 -14 37 12q20 28 24.5 69.5t-11 80.5t-48.5 56zM269 394q2 29 -8 30.5t-24 -17.5q-26 -33 -100 -192q53 32 90 79.5t42 99.5z" />
    <glyph glyph-name="i_ss002" unicode="&#xe024;" horiz-adv-x="173" 
d="M411 443q-12 -7 -61.5 -41t-83.5 -47t-69 -6q-44 9 -72.5 46t-28 83t35.5 77t85 32.5t95 -18t78 -51.5q63 33 155 39t176.5 -13.5t139 -79.5t41.5 -148q-9 -65 -63 -80q-47 -12 -83 18q-31 26 -26 67q7 53 50 66q12 4 17.5 -1.5t2 -14t-11.5 -11.5q-26 -9 -29 -43
q-3 -36 31 -51q36 -15 63 11q16 16 21 43q11 64 -18 107t-81.5 58.5t-115.5 17t-122.5 -11.5t-100.5 -34q115 -138 45 -336q36 -17 64 -54t40 -78t3.5 -81.5t-40.5 -62.5q-41 -27 -84 3q-30 22 -43 52.5t-8 71t11.5 65.5t21.5 68q-41 14 -86.5 18t-98.5 -8.5t-91 -44.5
q-55 -47 -87 -61q-105 -48 -114 42q-6 64 31 147q8 17 15 28q9 9 28 8.5t37.5 -9.5t16.5 -18q-44 -129 -42 -151q0 -9 5 -10q20 -5 89 45q131 94 306 41q20 59 24.5 108t-11.5 102.5t-57 100.5zM364 504q-27 24 -64 40t-78 15.5t-69 -24.5q-39 -35 -22.5 -79.5t66.5 -40.5
q24 2 53.5 17t67 40.5zM472 94q-59 -173 -2 -218q20 -14 37 12q20 28 24.5 69.5t-11 80.5t-48.5 56zM113 256q-10 -11 -42.5 -3t-33.5 22q0 11 5.5 28t12.5 23q10 10 42 2.5t34 -21.5q0 -11 -5.5 -27.5t-12.5 -23.5z" />
    <glyph glyph-name="j_ss002" unicode="&#xe025;" horiz-adv-x="262" 
d="M501 443q-12 -7 -61.5 -41t-83.5 -47t-69 -6q-44 9 -72.5 46t-28 83t35.5 77t85 32.5t95 -18t78 -51.5q63 33 155 39t176.5 -13.5t139 -79.5t41.5 -148q-9 -65 -63 -80q-47 -12 -83 18q-31 26 -26 67q7 53 50 66q12 4 17.5 -1.5t2 -14t-11.5 -11.5q-26 -9 -29 -43
q-3 -36 31 -51q36 -15 63 11q16 16 21 43q11 64 -18 107t-81.5 58.5t-115.5 17t-122.5 -11.5t-100.5 -34q115 -138 45 -336q36 -17 64 -54t40 -78t3.5 -81.5t-40.5 -62.5q-41 -27 -84 3q-30 22 -43 52.5t-8 71t11.5 65.5t21.5 68q-80 45 -193.5 3t-195.5 -118l-17 -47.5
t-23.5 -63.5t-26 -59t-35.5 -60t-41 -41q-25 -18 -56.5 -21t-57.5 7.5t-41.5 37t-11.5 62.5q2 18 10 36t17 32.5t26.5 32t28.5 27.5t34.5 27t32 22.5l34 22l28.5 18.5l49 160q-72 -83 -86 -96l-23 13q13 12 44.5 49.5t45.5 57.5q17 24 49 26.5t55.5 -7.5t22.5 -18
q-5 -28 -20.5 -86.5t-21.5 -73.5q51 40 118 68.5t138 36t126 -20.5q20 59 24.5 108t-11.5 102.5t-57 100.5zM454 504q-27 24 -64 40t-78 15.5t-69 -24.5q-39 -35 -22.5 -79.5t66.5 -40.5q24 2 53.5 17t67 40.5zM562 94q-59 -173 -2 -218q20 -14 37 12q20 28 24.5 69.5
t-11 80.5t-48.5 56zM-61 -221q29 43 86 179q-5 -4 -28 -20t-31.5 -22.5t-27 -22t-27 -26.5t-17.5 -27t-13 -33q-9 -46 12 -55.5t46 27.5zM212 255q-10 -10 -42.5 -2t-33.5 21q0 11 5.5 28t11.5 23q10 10 42.5 2.5t33.5 -20.5q1 -10 -4.5 -27.5t-12.5 -24.5z" />
    <glyph glyph-name="k_ss002" unicode="&#xe026;" 
d="M610 443q-12 -7 -61.5 -41t-83.5 -47t-69 -6q-44 9 -72.5 46t-28 83t35.5 77t85 32.5t95 -18t78 -51.5q63 33 155 39t176.5 -13.5t139 -79.5t41.5 -148q-9 -65 -63 -80q-47 -12 -83 18q-31 26 -26 67q7 53 50 66q12 4 17.5 -1.5t2 -14t-11.5 -11.5q-26 -9 -29 -43
q-3 -36 31 -51q36 -15 63 11q16 16 21 43q11 64 -18 107t-81.5 58.5t-115.5 17t-122.5 -11.5t-100.5 -34q115 -138 45 -336q36 -17 64 -54t40 -78t3.5 -81.5t-40.5 -62.5q-41 -27 -84 3q-30 22 -43 52.5t-8 71t11.5 65.5t21.5 68q-69 30 -167 6t-162 -89q-37 -38 -64.5 -56
t-42 -16.5t-23 14t-9 33.5t1 44t5 43.5t6.5 33.5l3 14q-7 15 -45.5 -12t-54.5 -48q-32 -101 -35 -106q-2 -4 -27 -6t-48.5 0.5t-23.5 8.5q7 72 78.5 251t126.5 227q27 23 61 26.5t58 -18.5t20 -65q-9 -67 -59 -126t-117 -92q-10 -24 -14 -37q37 27 93.5 58t91.5 42
q13 4 19 -7.5t-4 -19.5q-31 -17 -52 -25q15 -5 23 -14.5t8 -23.5t-2 -26t-8.5 -29.5l-9.5 -25.5q-12 -27 -9.5 -31t32.5 17q69 54 139.5 77.5t121.5 22t98 -17.5q20 59 24.5 108t-11.5 102.5t-57 100.5zM563 504q-27 24 -64 40t-78 15.5t-69 -24.5q-39 -35 -22.5 -79.5
t66.5 -40.5q24 2 53.5 17t67 40.5zM671 94q-59 -173 -2 -218q20 -14 37 12q20 28 24.5 69.5t-11 80.5t-48.5 56zM272 394q2 29 -8.5 30.5t-23.5 -17.5q-26 -33 -100 -192q52 33 89.5 80.5t42.5 98.5z" />
    <glyph glyph-name="l_ss002" unicode="&#xe027;" horiz-adv-x="202" 
d="M534 528q-12 -7 -61.5 -41t-83.5 -47t-69 -6q-44 9 -72.5 46t-28 83t35.5 77t85 32.5t95 -18t78 -51.5q63 33 155 39t176.5 -13.5t139 -79.5t41.5 -148q-9 -65 -63 -80q-47 -12 -83 18q-31 26 -26 67q7 53 50 66q12 4 17.5 -1.5t2 -14t-11.5 -11.5q-26 -9 -29 -43
q-3 -36 31 -51q36 -15 63 11q16 16 21 43q11 64 -18 107t-81.5 58.5t-115.5 17t-122.5 -11.5t-100.5 -34q115 -138 45 -336q36 -17 64 -54t40 -78t3.5 -81.5t-40.5 -62.5q-41 -27 -84 3q-30 22 -43 52.5t-8 71t11.5 65.5t21.5 68q-44 25 -88.5 27.5t-80.5 -12t-76 -41.5
t-72 -54.5t-72.5 -58t-72.5 -47.5q-28 -15 -59.5 -20.5t-57 9t-23.5 53.5q5 87 73.5 237.5t114.5 174.5q41 24 80 4.5t35 -73.5q-9 -67 -59 -126t-117 -92q-25 -59 -32 -109q-5 -34 11 -28q39 16 83 45t77.5 56.5t75 54t80 41t88 12.5t101.5 -26q20 59 24.5 108t-11.5 102.5
t-57 100.5zM487 589q-27 24 -64 40t-78 15.5t-69 -24.5q-39 -35 -22.5 -79.5t66.5 -40.5q24 2 53.5 17t67 40.5zM595 179q-59 -173 -2 -218q20 -14 37 12q20 28 24.5 69.5t-11 80.5t-48.5 56zM240 393q2 29 -10.5 30.5t-23.5 -17.5q-36 -53 -101 -197q52 33 91 82.5
t44 101.5z" />
    <glyph glyph-name="m_ss002" unicode="&#xe028;" horiz-adv-x="537" 
d="M773 443q-12 -7 -61.5 -41t-83.5 -47t-69 -6q-44 9 -72.5 46t-28 83t35.5 77t85 32.5t95 -18t78 -51.5q63 33 155 39t176.5 -13.5t139 -79.5t41.5 -148q-9 -65 -63 -80q-47 -12 -83 18q-31 26 -26 67q7 53 50 66q12 4 17.5 -1.5t2 -14t-11.5 -11.5q-26 -9 -29 -43
q-3 -36 31 -51q36 -15 63 11q16 16 21 43q11 64 -18 107t-81.5 58.5t-115.5 17t-122.5 -11.5t-100.5 -34q115 -138 45 -336q36 -17 64 -54t40 -78t3.5 -81.5t-40.5 -62.5q-41 -27 -84 3q-30 22 -43 52.5t-8 71t11.5 65.5t21.5 68q-40 14 -85 18.5t-97.5 -7t-89.5 -42.5
q-64 -54 -108 -79q-34 -20 -60 -22t-38.5 17t-2.5 59q5 22 18 57l22 59.5t7 33.5q-4 20 -43 -11q-47 -39 -65 -86q-25 -67 -41 -89q-10 -11 -27 -11t-31 10.5t-9 23.5q9 20 25.5 73.5t17.5 77.5q2 38 -84 -45q-6 -5 -10 -9l-25 -55q-24 -55 -31 -69q-13 -19 -32.5 -18.5
t-37 12t-17.5 21.5q9 31 39.5 107.5t45.5 107.5q11 17 46.5 7.5t39.5 -22.5q0 -2 -2 -9l-4.5 -15t-2.5 -10q14 19 46.5 31.5t67 5t47.5 -43.5q23 31 67 49.5t72 11.5q55 -16 9 -139q-25 -68 -26 -71q0 -8 6 -5q21 5 95 61q46 34 103.5 49t108 11.5t95.5 -18.5
q20 59 24.5 108t-11.5 102.5t-57 100.5zM726 504q-27 24 -64 40t-78 15.5t-69 -24.5q-39 -35 -22.5 -79.5t66.5 -40.5q24 2 53.5 17t67 40.5zM834 94q-59 -173 -2 -218q20 -14 37 12q20 28 24.5 69.5t-11 80.5t-48.5 56z" />
    <glyph glyph-name="n_ss002" unicode="&#xe029;" horiz-adv-x="382" 
d="M620 443q-12 -7 -61.5 -41t-83.5 -47t-69 -6q-44 9 -72.5 46t-28 83t35.5 77t85 32.5t95 -18t78 -51.5q63 33 155 39t176.5 -13.5t139 -79.5t41.5 -148q-9 -65 -63 -80q-47 -12 -83 18q-31 26 -26 67q7 53 50 66q12 4 17.5 -1.5t2 -14t-11.5 -11.5q-26 -9 -29 -43
q-3 -36 31 -51q36 -15 63 11q16 16 21 43q11 64 -18 107t-81.5 58.5t-115.5 17t-122.5 -11.5t-100.5 -34q115 -138 45 -336q36 -17 64 -54t40 -78t3.5 -81.5t-40.5 -62.5q-41 -27 -84 3q-30 22 -43 52.5t-8 71t11.5 65.5t21.5 68q-41 14 -87 17t-102.5 -12t-101.5 -52
q-97 -81 -155 -89q-46 -5 -47 47q0 17 31 113q25 77 9 77q-2 0 -5 -1q-11 -4 -19.5 -8t-16 -9t-12.5 -8t-11.5 -9.5l-9 -9l-10 -10.5t-9.5 -11q-30 -84 -49 -122q-14 -19 -34 -18.5t-38 11.5t-18 21q34 129 65 202q2 5 25.5 6.5t45.5 -2t21 -12.5q0 -4 -1.5 -11l-2.5 -12
l-1 -5q21 22 74 40t84 6q21 -8 22.5 -35t-8 -55t-22 -61t-14.5 -44q-4 -20 33 -1q16 9 66 42q54 36 113.5 50t105 10t88.5 -18q20 59 24.5 108t-11.5 102.5t-57 100.5zM573 504q-27 24 -64 40t-78 15.5t-69 -24.5q-39 -35 -22.5 -79.5t66.5 -40.5q24 2 53.5 17t67 40.5z
M681 94q-59 -173 -2 -218q20 -14 37 12q20 28 24.5 69.5t-11 80.5t-48.5 56z" />
    <glyph glyph-name="o_ss002" unicode="&#xe02a;" horiz-adv-x="313" 
d="M550 443q-12 -7 -61.5 -41t-83.5 -47t-69 -6q-44 9 -72.5 46t-28 83t35.5 77t85 32.5t95 -18t78 -51.5q63 33 155 39t176.5 -13.5t139 -79.5t41.5 -148q-9 -65 -63 -80q-47 -12 -83 18q-31 26 -26 67q7 53 50 66q12 4 17.5 -1.5t2 -14t-11.5 -11.5q-26 -9 -29 -43
q-3 -36 31 -51q36 -15 63 11q16 16 21 43q11 64 -18 107t-81.5 58.5t-115.5 17t-122.5 -11.5t-100.5 -34q115 -138 45 -336q36 -17 64 -54t40 -78t3.5 -81.5t-40.5 -62.5q-41 -27 -84 3q-30 22 -43 52.5t-8 71t11.5 65.5t21.5 68q-52 22 -135.5 13.5t-146.5 -52.5
q-30 -22 -76 -20q-17 -35 -59 -56.5t-88 -22.5q-93 -2 -114 76q-18 67 23 144q39 73 99 85q5 1 9 1q23 2 44 -5t27 -16q11 1 24 -2q39 -10 51 -66.5t-5 -98.5q33 -4 56 10q70 44 156 52t144 -15q20 59 24.5 108t-11.5 102.5t-57 100.5zM503 504q-27 24 -64 40t-78 15.5
t-69 -24.5q-39 -35 -22.5 -79.5t66.5 -40.5q24 2 53.5 17t67 40.5zM611 94q-59 -173 -2 -218q20 -14 37 12q20 28 24.5 69.5t-11 80.5t-48.5 56zM133 237q-31 -10 -55 -60t-21.5 -100.5t39.5 -59.5q23 -5 53.5 6.5t40.5 30.5q-56 17 -81 51.5t-16.5 70.5t40.5 61zM202 90
q6 14 7.5 41t-5.5 55t-24 34q-20 7 -37 -22q-22 -39 1 -73q17 -25 58 -35z" />
    <glyph glyph-name="p_ss002" unicode="&#xe02b;" horiz-adv-x="359" 
d="M594 443q-12 -7 -61.5 -41t-83.5 -47t-69 -6q-44 9 -72.5 46t-28 83t35.5 77t85 32.5t95 -18t78 -51.5q63 33 155 39t176.5 -13.5t139 -79.5t41.5 -148q-9 -65 -63 -80q-47 -12 -83 18q-31 26 -26 67q7 53 50 66q12 4 17.5 -1.5t2 -14t-11.5 -11.5q-26 -9 -29 -43
q-3 -36 31 -51q36 -15 63 11q16 16 21 43q11 64 -18 107t-81.5 58.5t-115.5 17t-122.5 -11.5t-100.5 -34q115 -138 45 -336q36 -17 64 -54t40 -78t3.5 -81.5t-40.5 -62.5q-41 -27 -84 3q-30 22 -43 52.5t-8 71t11.5 65.5t21.5 68q-39 13 -85 17t-98 -8t-91 -42
q-49 -38 -92 -31q-34 -84 -78 -86q-51 -7 -81 29q-26 33 -4 63q22 28 83 32q6 15 17.5 64.5t11.5 72.5q0 34 -55 -7q-22 -17 -25 -19l-164 -405q-4 -7 -56 -2q-40 4 -36 14q154 417 203 483q12 16 57 9q34 -6 32 -19q-2 -4 -11 -20q13 9 34.5 16t44.5 9t41 -8.5t22 -33.5
q9 -58 -24 -161q38 5 56 18q71 48 159.5 57t147.5 -15q20 59 24.5 108t-11.5 102.5t-57 100.5zM547 504q-27 24 -64 40t-78 15.5t-69 -24.5q-39 -35 -22.5 -79.5t66.5 -40.5q24 2 53.5 17t67 40.5zM655 94q-59 -173 -2 -218q20 -14 37 12q20 28 24.5 69.5t-11 80.5t-48.5 56
zM135 4q9 -2 32 37q-36 -1 -39 -23q-2 -12 7 -14z" />
    <glyph glyph-name="q_ss002" unicode="&#xe02c;" horiz-adv-x="332" 
d="M567 443q-12 -7 -61.5 -41t-83.5 -47t-69 -6q-44 9 -72.5 46t-28 83t35.5 77t85 32.5t95 -18t78 -51.5q63 33 155 39t176.5 -13.5t139 -79.5t41.5 -148q-9 -65 -63 -80q-47 -12 -83 18q-31 26 -26 67q7 53 50 66q12 4 17.5 -1.5t2 -14t-11.5 -11.5q-26 -9 -29 -43
q-3 -36 31 -51q36 -15 63 11q16 16 21 43q11 64 -18 107t-81.5 58.5t-115.5 17t-122.5 -11.5t-100.5 -34q115 -138 45 -336q36 -17 64 -54t40 -78t3.5 -81.5t-40.5 -62.5q-41 -27 -84 3q-30 22 -43 52.5t-8 71t11.5 65.5t21.5 68q-40 13 -84 18t-96 -5.5t-88 -40.5
q-84 -69 -108 -74q-27 -90 -67 -189q-4 -9 -19.5 -12t-31.5 -1t-29 8.5t-13 14.5q9 50 57 176q-32 -22 -95 -17q-75 7 -79 82q-4 69 47 142q41 58 87 71q22 6 46 -2.5t37.5 -18.5t37.5 -30q6 15 12 23t10 7q62 -12 61 -32q-1 -18 -7.5 -46t-14 -50.5l-16 -46.5t-9.5 -28
q21 2 64 36q45 35 103 49.5t108.5 11.5t95.5 -19q20 59 24.5 108t-11.5 102.5t-57 100.5zM520 504q-27 24 -64 40t-78 15.5t-69 -24.5q-39 -35 -22.5 -79.5t66.5 -40.5q24 2 53.5 17t67 40.5zM56 31q18 -14 49.5 -4t35.5 20l7 21l14.5 45.5l16.5 50t14 39.5q-25 15 -40 20
t-31 0q-35 -11 -59.5 -91.5t-6.5 -100.5zM628 94q-59 -173 -2 -218q20 -14 37 12q20 28 24.5 69.5t-11 80.5t-48.5 56z" />
    <glyph glyph-name="r_ss002" unicode="&#xe02d;" horiz-adv-x="305" 
d="M543 443q-12 -7 -61.5 -41t-83.5 -47t-69 -6q-44 9 -72.5 46t-28 83t35.5 77t85 32.5t95 -18t78 -51.5q63 33 155 39t176.5 -13.5t139 -79.5t41.5 -148q-9 -65 -63 -80q-47 -12 -83 18q-31 26 -26 67q7 53 50 66q12 4 17.5 -1.5t2 -14t-11.5 -11.5q-26 -9 -29 -43
q-3 -36 31 -51q36 -15 63 11q16 16 21 43q11 64 -18 107t-81.5 58.5t-115.5 17t-122.5 -11.5t-100.5 -34q115 -138 45 -336q36 -17 64 -54t40 -78t3.5 -81.5t-40.5 -62.5q-41 -27 -84 3q-30 22 -43 52.5t-8 71t11.5 65.5t21.5 68q-41 17 -80 19.5t-78.5 -10.5t-66 -26
t-70 -38.5t-63.5 -35.5q-77 -37 -109 -17.5t-27.5 72.5t40.5 108q-19 5 -54 21q-3 -4 -10.5 -26t-19.5 -46t-27 -38l-23 12q15 12 29 48.5t20 65.5q-18 16 -23 40t6 44q15 24 40 25.5t36 -25.5q8 -27 -7 -63q18 -16 57 -23q26 11 51 -1t26 -29q-1 -3 -10 -21
q-59 -120 -26 -120q9 0 25 8q14 7 56.5 30.5t61 33t57 24t65 17t62.5 -2t71 -19.5q20 59 24.5 108t-11.5 102.5t-57 100.5zM496 504q-27 24 -64 40t-78 15.5t-69 -24.5q-39 -35 -22.5 -79.5t66.5 -40.5q24 2 53.5 17t67 40.5zM604 94q-59 -173 -2 -218q20 -14 37 12
q20 28 24.5 69.5t-11 80.5t-48.5 56z" />
    <glyph glyph-name="s_ss002" unicode="&#xe02e;" horiz-adv-x="297" 
d="M535 443q-12 -7 -61.5 -41t-83.5 -47t-69 -6q-44 9 -72.5 46t-28 83t35.5 77t85 32.5t95 -18t78 -51.5q63 33 155 39t176.5 -13.5t139 -79.5t41.5 -148q-9 -65 -63 -80q-47 -12 -83 18q-31 26 -26 67q7 53 50 66q12 4 17.5 -1.5t2 -14t-11.5 -11.5q-26 -9 -29 -43
q-3 -36 31 -51q36 -15 63 11q16 16 21 43q11 64 -18 107t-81.5 58.5t-115.5 17t-122.5 -11.5t-100.5 -34q115 -138 45 -336q36 -17 64 -54t40 -78t3.5 -81.5t-40.5 -62.5q-41 -27 -84 3q-30 22 -43 52.5t-8 71t11.5 65.5t21.5 68q-79 35 -184.5 5.5t-172.5 -98.5
q25 -115 -48 -148q-46 -20 -87 3q-44 25 -26 77q13 36 59 77q-2 10 -54 115q-39 -45 -44 -49l-23 14q15 14 55 61q-22 56 -15 95q7 46 65 58q51 11 82 -11q25 -17 6 -44q-6 -9 -48 -56q66 -147 67 -154q218 144 377 82q20 59 24.5 108t-11.5 102.5t-57 100.5zM488 504
q-27 24 -64 40t-78 15.5t-69 -24.5q-39 -35 -22.5 -79.5t66.5 -40.5q24 2 53.5 17t67 40.5zM596 94q-59 -173 -2 -218q20 -14 37 12q20 28 24.5 69.5t-11 80.5t-48.5 56zM113 -91q16 21 8 68q-42 -37 -31 -63q7 -16 19 -9zM125 229q31 39 31 46q0 9 -14 3q-25 -11 -19 -42
q1 -4 2 -7z" />
    <glyph glyph-name="t_ss002" unicode="&#xe02f;" horiz-adv-x="226" 
d="M463 443q-12 -7 -61.5 -41t-83.5 -47t-69 -6q-44 9 -72.5 46t-28 83t35.5 77t85 32.5t95 -18t78 -51.5q63 33 155 39t176.5 -13.5t139 -79.5t41.5 -148q-9 -65 -63 -80q-47 -12 -83 18q-31 26 -26 67q7 53 50 66q12 4 17.5 -1.5t2 -14t-11.5 -11.5q-26 -9 -29 -43
q-3 -36 31 -51q36 -15 63 11q16 16 21 43q11 64 -18 107t-81.5 58.5t-115.5 17t-122.5 -11.5t-100.5 -34q115 -138 45 -336q36 -17 64 -54t40 -78t3.5 -81.5t-40.5 -62.5q-41 -27 -84 3q-30 22 -43 52.5t-8 71t11.5 65.5t21.5 68q-42 27 -86 29t-84.5 -15t-75.5 -39
l-76.5 -48t-71.5 -37q-26 -7 -56.5 -8.5t-56.5 15t-30 47.5q-8 63 85 215l-33 -2q-15 -1 -16.5 12.5t12.5 16.5q26 7 61 12q13 20 40 55q6 7 55 6q43 -2 39 -15l-23 -39q12 1 34 1q17 0 6 -21q-8 -13 -15 -14l-47 -3q-148 -255 -70 -239q33 7 74.5 30t77.5 45t77 39
t89.5 14.5t99.5 -30.5q20 59 24.5 108t-11.5 102.5t-57 100.5zM416 504q-27 24 -64 40t-78 15.5t-69 -24.5q-39 -35 -22.5 -79.5t66.5 -40.5q24 2 53.5 17t67 40.5zM524 94q-59 -173 -2 -218q20 -14 37 12q20 28 24.5 69.5t-11 80.5t-48.5 56z" />
    <glyph glyph-name="u_ss002" unicode="&#xe030;" horiz-adv-x="327" 
d="M564 443q-12 -7 -61.5 -41t-83.5 -47t-69 -6q-44 9 -72.5 46t-28 83t35.5 77t85 32.5t95 -18t78 -51.5q63 33 155 39t176.5 -13.5t139 -79.5t41.5 -148q-9 -65 -63 -80q-47 -12 -83 18q-31 26 -26 67q7 53 50 66q12 4 17.5 -1.5t2 -14t-11.5 -11.5q-26 -9 -29 -43
q-3 -36 31 -51q36 -15 63 11q16 16 21 43q11 64 -18 107t-81.5 58.5t-115.5 17t-122.5 -11.5t-100.5 -34q115 -138 45 -336q36 -17 64 -54t40 -78t3.5 -81.5t-40.5 -62.5q-41 -27 -84 3q-30 22 -43 52.5t-8 71t11.5 65.5t21.5 68q-49 13 -90.5 14t-79.5 -12t-61.5 -24.5
t-64 -37.5t-59.5 -36q-23 -12 -51 -13.5t-48.5 12.5t-19.5 44q-18 -16 -50.5 -28t-65 -11t-42.5 23q-10 23 12.5 88t42.5 100q3 7 39 16q54 13 52 -17q-1 -7 -4 -15q-34 -90 -44 -127q-12 -42 36 -7q7 5 31 24q1 4 12 38l20.5 62.5t13.5 37.5q15 27 32.5 23.5t33 -18.5
t14.5 -19l-7 -21q-57 -154 -26 -154q3 -1 7 1q28 11 66.5 31.5t67 34t66 25t81.5 10t95 -16.5q20 59 24.5 108t-11.5 102.5t-57 100.5zM517 504q-27 24 -64 40t-78 15.5t-69 -24.5q-39 -35 -22.5 -79.5t66.5 -40.5q24 2 53.5 17t67 40.5zM625 94q-59 -173 -2 -218
q20 -14 37 12q20 28 24.5 69.5t-11 80.5t-48.5 56z" />
    <glyph glyph-name="v_ss002" unicode="&#xe031;" horiz-adv-x="288" 
d="M525 443q-12 -7 -61.5 -41t-83.5 -47t-69 -6q-44 9 -72.5 46t-28 83t35.5 77t85 32.5t95 -18t78 -51.5q63 33 155 39t176.5 -13.5t139 -79.5t41.5 -148q-9 -65 -63 -80q-47 -12 -83 18q-31 26 -26 67q7 53 50 66q12 4 17.5 -1.5t2 -14t-11.5 -11.5q-26 -9 -29 -43
q-3 -36 31 -51q36 -15 63 11q16 16 21 43q11 64 -18 107t-81.5 58.5t-115.5 17t-122.5 -11.5t-100.5 -34q115 -138 45 -336q36 -17 64 -54t40 -78t3.5 -81.5t-40.5 -62.5q-41 -27 -84 3q-30 22 -43 52.5t-8 71t11.5 65.5t21.5 68q-40 12 -84.5 2.5t-81.5 -30t-83 -39.5
t-89.5 -27t-100.5 8q-38 -20 -72 -41q-15 -9 -49 0.5t-31 24.5l11.5 67l16 91t15.5 65q8 28 28.5 30.5t37 -10.5t15.5 -24q-2 -31 -32 -199l41 24q-12 32 3.5 81.5t46.5 67.5q26 15 51.5 0t30.5 -45q6 -50 -74 -107q32 -4 88.5 16.5t107 44t111.5 35.5t102 -8
q20 59 24.5 108t-11.5 102.5t-57 100.5zM478 504q-27 24 -64 40t-78 15.5t-69 -24.5q-39 -35 -22.5 -79.5t66.5 -40.5q24 2 53.5 17t67 40.5zM586 94q-59 -173 -2 -218q20 -14 37 12q20 28 24.5 69.5t-11 80.5t-48.5 56zM205 150q0 13 -11.5 19.5t-23.5 -2.5
q-19 -13 -30.5 -48t-2.5 -49q69 50 68 80z" />
    <glyph glyph-name="w_ss002" unicode="&#xe032;" horiz-adv-x="502" 
d="M739 443q-12 -7 -61.5 -41t-83.5 -47t-69 -6q-44 9 -72.5 46t-28 83t35.5 77t85 32.5t95 -18t78 -51.5q63 33 155 39t176.5 -13.5t139 -79.5t41.5 -148q-9 -65 -63 -80q-47 -12 -83 18q-31 26 -26 67q7 53 50 66q12 4 17.5 -1.5t2 -14t-11.5 -11.5q-26 -9 -29 -43
q-3 -36 31 -51q36 -15 63 11q16 16 21 43q11 64 -18 107t-81.5 58.5t-115.5 17t-122.5 -11.5t-100.5 -34q115 -138 45 -336q36 -17 64 -54t40 -78t3.5 -81.5t-40.5 -62.5q-41 -27 -84 3q-30 22 -43 52.5t-8 71t11.5 65.5t21.5 68q-40 19 -70.5 12.5t-75 -27.5t-84 -44.5
t-97.5 -38.5t-115 -10q-31 -27 -70.5 -34t-69 17t-27.5 79q-34 -42 -67.5 -65t-76.5 -21q-33 2 -52 19t-10 51q11 41 37 103t41 86q17 22 36.5 17t34 -24.5t9.5 -31.5q-60 -139 -64 -164q-1 -10 8 -9q26 3 68 48q43 45 59 96q17 52 50 13q21 -26 22 -43q-8 -30 -1 -78
q9 -63 46 -37q-27 29 -23.5 80t30.5 84q23 31 56.5 27.5t39.5 -42.5q5 -28 -8.5 -65t-33.5 -67q45 -8 105.5 15t108 51t105.5 42t98 -12q20 59 24.5 108t-11.5 102.5t-57 100.5zM692 504q-27 24 -64 40t-78 15.5t-69 -24.5q-39 -35 -22.5 -79.5t66.5 -40.5q24 2 53.5 17
t67 40.5zM800 94q-59 -173 -2 -218q20 -14 37 12q20 28 24.5 69.5t-11 80.5t-48.5 56zM372 162q0 7 -6 9t-13.5 -1t-12.5 -10q-15 -23 -18.5 -62t11.5 -53q14 21 26.5 57t12.5 60z" />
    <glyph glyph-name="x_ss002" unicode="&#xe033;" horiz-adv-x="310" 
d="M546 443q-12 -7 -61.5 -41t-83.5 -47t-69 -6q-44 9 -72.5 46t-28 83t35.5 77t85 32.5t95 -18t78 -51.5q63 33 155 39t176.5 -13.5t139 -79.5t41.5 -148q-9 -65 -63 -80q-47 -12 -83 18q-31 26 -26 67q7 53 50 66q12 4 17.5 -1.5t2 -14t-11.5 -11.5q-26 -9 -29 -43
q-3 -36 31 -51q36 -15 63 11q16 16 21 43q11 64 -18 107t-81.5 58.5t-115.5 17t-122.5 -11.5t-100.5 -34q115 -138 45 -336q36 -17 64 -54t40 -78t3.5 -81.5t-40.5 -62.5q-41 -27 -84 3q-30 22 -43 52.5t-8 71t11.5 65.5t21.5 68q-45 26 -92 24.5t-87 -22l-82.5 -44.5
l-78.5 -44t-75.5 -20t-72.5 28l-32 -31q-25 -23 -36.5 -13.5t6.5 38.5q18 26 49 59q0 7 2 29q6 45 -3 45q-5 -1 -14 -11q-46 -50 -53 -56l-23 14q21 18 57 62q49 59 92 58q28 -1 31 -33.5t-5 -54.5q6 6 27 28.5t32 32.5q17 16 27.5 10t0.5 -27q-18 -41 -89 -115
q34 -13 88.5 8t103.5 48.5t114.5 37.5t121.5 -24q20 59 24.5 108t-11.5 102.5t-57 100.5zM499 504q-27 24 -64 40t-78 15.5t-69 -24.5q-39 -35 -22.5 -79.5t66.5 -40.5q24 2 53.5 17t67 40.5zM607 94q-59 -173 -2 -218q20 -14 37 12q20 28 24.5 69.5t-11 80.5t-48.5 56z" />
    <glyph glyph-name="y_ss002" unicode="&#xe034;" horiz-adv-x="363" 
d="M600 443q-12 -7 -61.5 -41t-83.5 -47t-69 -6q-44 9 -72.5 46t-28 83t35.5 77t85 32.5t95 -18t78 -51.5q63 33 155 39t176.5 -13.5t139 -79.5t41.5 -148q-9 -65 -63 -80q-47 -12 -83 18q-31 26 -26 67q7 53 50 66q12 4 17.5 -1.5t2 -14t-11.5 -11.5q-26 -9 -29 -43
q-3 -36 31 -51q36 -15 63 11q16 16 21 43q11 64 -18 107t-81.5 58.5t-115.5 17t-122.5 -11.5t-100.5 -34q115 -138 45 -336q36 -17 64 -54t40 -78t3.5 -81.5t-40.5 -62.5q-41 -27 -84 3q-30 22 -43 52.5t-8 71t11.5 65.5t21.5 68q-79 44 -193 2t-195 -116l-13.5 -39.5
l-18 -51t-20.5 -50t-26 -53t-29.5 -42.5t-35.5 -35q-25 -18 -56.5 -21t-57.5 7t-41.5 36.5t-11.5 62.5q2 20 10.5 40t24.5 39t29 33t38 32.5l36.5 27t39.5 26.5t33 21q1 1 2 3q-39 -18 -102.5 -21t-81.5 22q-10 23 15.5 100.5t44.5 110.5q4 7 40 15q54 13 50 -19
q-1 -6 -4 -13q-43 -125 -50 -151q-5 -20 23 -23q37 -4 70 15q4 2 7 4l52 165q22 5 42.5 1t35 -11.5t13.5 -13.5q-4 -26 -19.5 -84t-22.5 -76q54 42 121 70t136 34.5t124 -20.5q20 59 24.5 108t-11.5 102.5t-57 100.5zM553 504q-27 24 -64 40t-78 15.5t-69 -24.5
q-39 -35 -22.5 -79.5t66.5 -40.5q24 2 53.5 17t67 40.5zM661 94q-59 -173 -2 -218q20 -14 37 12q20 28 24.5 69.5t-11 80.5t-48.5 56zM-19 -193q-9 -45 12 -55t46 27q33 50 86 180l-33.5 -23.5t-38 -28.5l-30 -27t-28.5 -35t-14 -38z" />
    <glyph glyph-name="z_ss002" unicode="&#xe035;" 
d="M610 443q-12 -7 -61.5 -41t-83.5 -47t-69 -6q-44 9 -72.5 46t-28 83t35.5 77t85 32.5t95 -18t78 -51.5q63 33 155 39t176.5 -13.5t139 -79.5t41.5 -148q-9 -65 -63 -80q-47 -12 -83 18q-31 26 -26 67q7 53 50 66q12 4 17.5 -1.5t2 -14t-11.5 -11.5q-26 -9 -29 -43
q-3 -36 31 -51q36 -15 63 11q16 16 21 43q11 64 -18 107t-81.5 58.5t-115.5 17t-122.5 -11.5t-100.5 -34q115 -138 45 -336q36 -17 64 -54t40 -78t3.5 -81.5t-40.5 -62.5q-41 -27 -84 3q-30 22 -43 52.5t-8 71t11.5 65.5t21.5 68q-74 33 -177.5 8t-166.5 -93
q16 -42 14 -92.5t-29 -102.5t-68 -76q-32 -22 -89.5 -19t-81.5 33q-22 26 4.5 75t67.5 89t67 53q-8 18 -22.5 29t-20.5 9q-5 -2 -24 -9q-18 -7 -29 8t0 30q68 87 79 145q5 31 -13 28q-24 -4 -74 -60q-35 -39 -69 -73l-23 14q23 19 57 61q7 8 17 21.5l17.5 24t18.5 23.5
t20.5 20t24 14.5t27.5 6t32 -5.5q42 -14 51.5 -54.5t-3 -78.5t-32.5 -65q34 0 59 -18q81 67 185.5 92t189.5 -10q20 59 24.5 108t-11.5 102.5t-57 100.5zM563 504q-27 24 -64 40t-78 15.5t-69 -24.5q-39 -35 -22.5 -79.5t66.5 -40.5q24 2 53.5 17t67 40.5zM671 94
q-59 -173 -2 -218q20 -14 37 12q20 28 24.5 69.5t-11 80.5t-48.5 56zM205 -51q-31 -17 -85 -78t-36 -85q16 -14 43.5 -8.5t43.5 19.5q28 24 36.5 71t-2.5 81z" />
    <glyph glyph-name="_0014" unicode="&#xe036;" horiz-adv-x="809" 
d="M494 -126q12 7 61.5 41t83.5 47t69 6q44 -9 72.5 -46t28 -83t-35.5 -77t-85 -32.5t-95 18t-78 51.5q-63 -33 -155 -39t-176.5 13.5t-139 79.5t-41.5 148q9 65 63 80q47 12 83 -18q31 -26 26 -67q-7 -53 -50 -66q-12 -4 -17.5 1.5t-2 14t11.5 11.5q26 9 29 43q3 36 -31 51
q-36 15 -63 -11q-16 -16 -21 -43q-11 -64 18 -107t81.5 -58.5t115.5 -17t122.5 11.5t100.5 34q-115 138 -45 336q-36 17 -64 54t-40 78t-3.5 81.5t40.5 62.5q41 27 84 -3q30 -22 43 -52.5t8 -71t-11.5 -65.5t-21.5 -68q40 -14 87.5 -17.5t101 10t93.5 46.5l16 -24
q-44 -35 -102.5 -50t-109 -11.5t-95.5 19.5q-20 -59 -24.5 -108t11.5 -102.5t57 -100.5zM433 223q59 173 2 218q-20 14 -37 -12q-20 -28 -24.5 -69.5t11 -80.5t48.5 -56zM541 -187q27 -24 64 -40t78 -15.5t69 24.5q39 35 22.5 79.5t-66.5 40.5q-24 -2 -53.5 -17t-67 -40.5z
" />
    <glyph glyph-name="_0015" unicode="&#xe037;" horiz-adv-x="809" 
d="M315 443q-12 -7 -61.5 -41t-83.5 -47t-69 -6q-44 9 -72.5 46t-28 83t35.5 77t85 32.5t95 -18t78 -51.5q63 33 155 39t176.5 -13.5t139 -79.5t41.5 -148q-9 -65 -63 -80q-47 -12 -83 18q-31 26 -26 67q7 53 50 66q12 4 17.5 -1.5t2 -14t-11.5 -11.5q-26 -9 -29 -43
q-3 -36 31 -51q36 -15 63 11q16 16 21 43q11 64 -18 107t-81.5 58.5t-115.5 17t-122.5 -11.5t-100.5 -34q115 -138 45 -336q36 -17 64 -54t40 -78t3.5 -81.5t-40.5 -62.5q-41 -27 -84 3q-30 22 -43 52.5t-8 71t11.5 65.5t21.5 68q-40 14 -87.5 17.5t-101 -10t-93.5 -46.5
l-16 24q44 35 102.5 50t109 11.5t95.5 -19.5q20 59 24.5 108t-11.5 102.5t-57 100.5zM376 94q-59 -173 -2 -218q20 -14 37 12q20 28 24.5 69.5t-11 80.5t-48.5 56zM268 504q-27 24 -64 40t-78 15.5t-69 -24.5q-39 -35 -22.5 -79.5t66.5 -40.5q24 2 53.5 17t67 40.5z" />
    <glyph glyph-name="a_ss003" unicode="&#xe038;" horiz-adv-x="374" 
d="M10 -47q-15 -53 -72.5 -74t-117 -1t-80.5 72q-9 27 -10.5 58t11.5 64.5t32.5 65t53.5 59.5t74 47.5t93 29t112 5.5q52 10 96 -13q10 -5 6 -20t-19 -8q-24 10 -48 -8q-39 -27 -62 -92q-22 -62 3 -73q4 -2 10 -1q14 1 28 9t34.5 24.5t27.5 21.5q1 2 8 31t13 47.5t13 27.5
t37 5.5t32 -14.5q4 -18 -14.5 -81t-17.5 -78q3 -32 111 44q8 6 10 7h29q-12 -20 -50.5 -52t-69.5 -47q-40 -21 -75.5 -4.5t-34.5 64.5q-7 -5 -19.5 -15l-19 -15t-18 -10t-25.5 -7q-65 -9 -93 33t-13.5 100.5t59.5 94.5q-66 -6 -118.5 -37.5t-80.5 -73.5t-39.5 -87t-1.5 -82
q12 -44 50.5 -61t76.5 -3t50 51q14 42 -19.5 63.5t-75.5 2.5l-12 25q57 27 105 -5t31 -90z" />
    <glyph glyph-name="b_ss003" unicode="&#xe039;" horiz-adv-x="338" 
d="M-43 -108q-15 -53 -72.5 -74t-117 -1t-80.5 72q-14 29 -10 65t16.5 72.5t43 71.5t68.5 61.5t93 43t117 16.5q45 111 118.5 188t144.5 66q27 -4 45 -20.5t21 -38.5q5 -44 -44.5 -97.5t-104.5 -87.5t-81 -38l-11.5 -29t-15 -44t-13 -48t-6 -42t6.5 -27q11 -13 40 -4
q26 6 59 36q-34 13 -46 45t-0.5 64.5t39.5 50.5q27 17 58 13.5t48 -26.5q31 -42 -19 -122q24 9 84 50h29q-19 -31 -63 -60t-79 -27q-47 -54 -97 -68q-33 -12 -75 -0.5t-59 43.5q-33 62 11 194q-91 -5 -156 -55.5t-88.5 -112.5t-9.5 -113q12 -44 50.5 -61t76.5 -3t50 51
q14 42 -19.5 63.5t-75.5 2.5l-12 25q57 27 105 -5t31 -90zM270 427q-34 -9 -77 -78.5t-71 -131.5q38 21 77 48.5t74 69t30 74.5q-3 26 -33 18zM202 62q51 61 36 91q-6 12 -22.5 12.5t-30.5 -10.5q-28 -20 -23 -52.5t40 -40.5z" />
    <glyph glyph-name="c_ss003" unicode="&#xe03a;" horiz-adv-x="258" 
d="M-9 -46q-15 -53 -72.5 -74t-117 -1t-80.5 72q-9 27 -10.5 58t11.5 64.5t32.5 65t53.5 59t73.5 47.5t93 29.5t111.5 5.5q21 4 46 0q46 -10 62 -55q9 -23 -8 -25q-3 0 -22 20.5t-33 19.5q-21 -2 -39 -44.5t-16.5 -89t28.5 -58.5q11 -4 23.5 -4t24.5 3.5t23 8t23 12l21 13.5
l21 14.5l18 12.5h29q-7 -15 -47 -49.5t-85 -48.5q-71 -21 -115.5 1t-54.5 66t3 94t46 81q-55 -4 -101.5 -25t-75.5 -51.5t-50 -67t-24 -72t2 -65.5q12 -44 50.5 -61t76.5 -3t50 51q14 42 -19.5 63.5t-75.5 2.5l-12 25q57 27 105 -5t31 -90z" />
    <glyph glyph-name="d_ss003" unicode="&#xe03b;" horiz-adv-x="428" 
d="M22 -67q-15 -53 -72.5 -74t-117 -1t-80.5 72q-9 27 -10.5 57t11.5 62t32.5 62t53 57t73.5 47t93.5 32t112.5 12q50 0 83 -26q9 64 32 127t61 92q28 18 56.5 19.5t50.5 -19.5t22 -56q-1 -69 -40.5 -139t-94.5 -118q0 -3 0.5 -23.5t3.5 -39.5t9 -28q5 -4 11.5 -5t18 4
t22 10.5t23.5 14t22 15l18.5 13t11.5 8.5h29q-14 -22 -54 -56.5t-76 -58.5q-111 -73 -130 97q-106 -82 -170 -51q-51 26 -46.5 87t53.5 101q-75 -12 -131 -62t-77.5 -109t-9.5 -106q12 -44 50.5 -61t76.5 -3t50 51q14 42 -19.5 63.5t-75.5 2.5l-12 25q57 27 105 -5t31 -90z
M198 206q-28 13 -50 8q-33 -7 -54 -50.5t-9 -73.5q4 -10 11 -14t16 -1.5t18 7t20 12.5t18.5 14.5l16 14t10.5 9.5q-2 36 3 74zM286 176q41 37 70 103.5t31 121.5q1 21 -8 23t-22 -11q-32 -30 -49.5 -101t-21.5 -136z" />
    <glyph glyph-name="e_ss003" unicode="&#xe03c;" horiz-adv-x="260" 
d="M7 -63q-15 -53 -72.5 -74t-117 -1t-80.5 72q-15 31 -10 68t19.5 75.5t48 73.5t75 61.5t101.5 40.5t127 10q18 1 42 -5q36 -10 49 -39t-11 -57q-24 -26 -103 -74q6 -28 31 -40q12 -8 29.5 -5.5t29 5.5t27.5 12.5t25.5 16.5l23 17t19.5 14h29q-10 -17 -45.5 -48.5
t-78.5 -46.5q-61 -20 -101 -13t-59.5 35.5t-23 64t9.5 72.5t38 61q-62 -9 -112 -40.5t-77.5 -73t-38 -85.5t-0.5 -80q12 -44 50.5 -61t76.5 -3t50 51q14 42 -19.5 63.5t-75.5 2.5l-12 25q57 27 105 -5t31 -90zM66 123l44 27t38 26q14 11 7.5 27.5t-22.5 21.5
q-26 8 -51.5 -37.5t-15.5 -64.5z" />
    <glyph glyph-name="f_ss003" unicode="&#xe03d;" horiz-adv-x="375" 
d="M-108 -137q-15 -53 -74 -74.5t-119 -1.5t-77 73q-25 72 -2 129t72.5 98.5t123.5 70t149.5 43.5t151.5 18q3 5 18 35.5l21 42t21.5 39t27 42t28 33.5t33.5 30.5t36 18.5q50 20 101 4t51 -59q-2 -44 -42.5 -95t-86 -85.5t-91.5 -60.5q36 -56 28 -126q34 14 113 70h29
q-19 -30 -67 -65.5t-81 -45.5q-27 -123 -112 -185q-63 -46 -113 -28q-52 20 -42 99l4 21q9 41 40 122q-34 40 -31.5 81t31.5 75q-58 -9 -111.5 -25.5t-104 -42.5t-83 -60t-48.5 -78t0 -96q12 -44 50.5 -61t76.5 -3t50 51q14 42 -19.5 63.5t-75.5 2.5l-12 25q57 27 105 -5
t31 -90zM223 180q9 8 51.5 43.5t67.5 58.5t49 58.5t24 64.5q0 20 -14.5 25t-32 -2.5t-29.5 -20.5q-45 -48 -127 -216zM96 -110q-12 -55 11 -50q26 6 68 66q32 45 36 71q-51 -9 -86 9q-22 -65 -29 -96zM139 23q29 -21 82 -5q7 29 1 72.5t-25 67.5q-30 -65 -58 -135zM50 69
q18 50 53 121q-43 -14 -60 -58.5t7 -62.5z" />
    <glyph glyph-name="g_ss003" unicode="&#xe03e;" horiz-adv-x="371" 
d="M-3 -56q-15 -53 -72.5 -74t-117 -1t-80.5 72q-9 27 -10.5 58t11 64t32 64.5t53 59t73 47.5t92.5 30t111 6q27 8 52 5q34 -4 60 -20.5t30 -38.5q4 -16 -0.5 -23.5t-12.5 -4.5t-13 14q-9 17 -26.5 24.5t-37.5 -0.5q-33 -15 -54 -70q-26 -64 1 -91q12 -13 35 -12q21 0 49 14
q22 75 31 93q6 12 53 14.5t51 -4.5q2 -4 -5.5 -31t-18.5 -58.5t-11 -32.5q25 9 99 60h29q-24 -38 -102 -89l-39 -23q-1 -2 -10.5 -29.5t-13.5 -38l-15 -39t-18.5 -43.5l-19.5 -40t-23 -39l-24.5 -30.5t-27.5 -25.5t-28 -13q-49 -11 -93 17.5t-42 81.5q1 24 13 48.5t27 42.5
t41.5 39.5t44 33l47.5 30.5t40 26q3 0 3 8q-6 -2 -41 -6q-53 -5 -87.5 9t-46.5 40t-10 57.5t19 62.5t43 53q-88 -7 -151 -57t-85.5 -111t-9.5 -112q12 -44 50.5 -61t76.5 -3t50 51q14 42 -19.5 63.5t-75.5 2.5l-12 25q57 27 105 -5t31 -90zM26 -246q43 38 112 208
q-4 -3 -43.5 -30.5t-53.5 -39.5t-33.5 -38t-23.5 -52t8 -46t34 -2z" />
    <glyph glyph-name="h_ss003" unicode="&#xe03f;" horiz-adv-x="370" 
d="M-43 -123q-15 -53 -72.5 -74t-117 -1t-80.5 72q-9 26 -10.5 56.5t10.5 62.5t30.5 63t50 58.5t68.5 48t87 31.5t105 10q77 194 133 243q27 23 61 26.5t58 -18.5t20 -65q-9 -67 -59 -126t-117 -92q-10 -24 -14 -37q85 60 145 48q58 -11 25 -90q-18 -43 -18 -45q0 -7 12 -1
q42 21 96 61h29q-10 -17 -40 -43t-62 -45q-54 -33 -86.5 -40.5t-41.5 5t-8.5 35t9 46.5l15 44t5.5 22q-7 15 -45.5 -12.5t-53.5 -47.5q-1 -3 -14.5 -47t-21.5 -59q-2 -4 -27 -6t-48.5 0.5t-23.5 8.5q7 64 61 207q-49 -1 -92 -15.5t-72.5 -37t-54 -52t-35 -60.5t-15.5 -61.5
t3 -55.5q12 -44 50.5 -61t76.5 -3t50 51q14 42 -19.5 63.5t-75.5 2.5l-12 25q57 27 105 -5t31 -90zM269 394q2 29 -8 30.5t-24 -17.5q-26 -33 -100 -192q53 32 90 79.5t42 99.5z" />
    <glyph glyph-name="i_ss003" unicode="&#xe040;" horiz-adv-x="173" 
d="M-48 -92q-15 -53 -72.5 -74t-117 -1t-80.5 72q-9 26 -10.5 57t11 64.5t31.5 65t52 59t71.5 47.5t90.5 30t109 6q26 -1 44 -10t16 -17q-44 -129 -42 -151q0 -9 5 -10q18 -4 113 62h29q-13 -22 -49.5 -53t-69.5 -46q-105 -48 -114 42q-6 65 31 147l4 8q-70 -3 -126 -33.5
t-86.5 -73.5t-43 -89.5t-2.5 -84.5q12 -44 50.5 -61t76.5 -3t50 51q14 42 -19.5 63.5t-75.5 2.5l-12 25q57 27 105 -5t31 -90zM113 256q-10 -11 -42.5 -3t-33.5 22q0 11 5.5 28t12.5 23q10 10 42 2.5t34 -21.5q0 -11 -5.5 -27.5t-12.5 -23.5z" />
    <glyph glyph-name="j_ss003" unicode="&#xe041;" horiz-adv-x="262" 
d="M-166 -120q-15 -53 -73.5 -74t-118 -1t-78.5 72q-22 62 -7 117.5t58.5 95t104.5 71.5t131 47.5t139 24t128 -0.5q6 2 8 2q18 2 37.5 -3t31 -11.5t10.5 -11.5q-5 -28 -20.5 -86.5t-21.5 -73.5q31 10 99 60h29q-18 -30 -63 -64t-81 -54l-17 -47.5t-23.5 -63.5t-26 -59
t-35.5 -60t-41 -41q-25 -18 -56.5 -21t-57.5 7.5t-41.5 37t-11.5 62.5q2 18 10 36t17 32.5t26.5 32t28.5 27.5t34.5 27t32 22.5l34 22l28.5 18.5l51 181q-63 2 -131 -7t-137.5 -32t-120.5 -57.5t-75 -89t-7 -121.5q12 -44 50.5 -61t76.5 -3t50 51q14 42 -19.5 63.5
t-75.5 2.5l-12 25q57 27 105 -5t31 -90zM-61 -221q29 43 86 179q-5 -4 -28 -20t-31.5 -22.5t-27 -22t-27 -26.5t-17.5 -27t-13 -33q-9 -46 12 -55.5t46 27.5zM212 255q-10 -10 -42.5 -2t-33.5 21q0 11 5.5 28t11.5 23q10 10 42.5 2.5t33.5 -20.5q1 -10 -4.5 -27.5
t-12.5 -24.5z" />
    <glyph glyph-name="k_ss003" unicode="&#xe042;" 
d="M-19 -133q-15 -53 -72.5 -74t-117 -1t-80.5 72q-14 29 -10.5 64.5t16 71.5t41.5 70t66 61t90 44t113 19q81 205 137 253q27 23 61 26.5t58 -18.5t20 -65q-9 -67 -59 -126t-117 -92q-10 -24 -14 -37q37 27 93.5 58t91.5 42q13 4 19 -7.5t-4 -19.5q-31 -17 -52 -25
q51 -16 17 -103q-17 -42 -16 -46q2 -8 33 16l36 26.5l42 31.5h29q-8 -14 -33.5 -40t-52.5 -46q-37 -29 -65 -44t-44 -15.5t-25.5 7t-12 23t-1.5 33.5t5.5 37t8.5 34t8 25l3 10q-7 15 -45.5 -12t-54.5 -48q-32 -101 -35 -106q-2 -4 -27 -6t-48.5 0.5t-23.5 8.5q7 62 57 195
q-66 -6 -118.5 -37t-81 -73t-40 -87.5t-1.5 -82.5q12 -44 50.5 -61t76.5 -3t50 51q14 42 -19.5 63.5t-75.5 2.5l-12 25q57 27 105 -5t31 -90zM272 394q2 29 -8.5 30.5t-23.5 -17.5q-26 -33 -100 -192q52 33 89.5 80.5t42.5 98.5z" />
    <glyph glyph-name="l_ss003" unicode="&#xe043;" horiz-adv-x="202" 
d="M-22 -123q-15 -53 -72.5 -74t-117 -1t-80.5 72q-14 28 -10.5 62.5t14.5 69.5t39 69t63 61t85.5 45t107.5 22q33 89 75.5 164.5t72.5 90.5q41 24 80 4.5t35 -73.5q-9 -67 -59 -126t-117 -92l-12 -32t-15 -46t-7 -44t13 -15q33 4 129 74h29q-12 -20 -50 -52.5t-74 -51.5
q-28 -15 -59.5 -20.5t-57 9t-23.5 53.5q3 48 29 126q-81 -12 -138.5 -62.5t-78 -108.5t-7.5 -107q12 -44 50.5 -61t76.5 -3t50 51q14 42 -19.5 63.5t-75.5 2.5l-12 25q57 27 105 -5t31 -90zM240 393q2 29 -10.5 30.5t-23.5 -17.5q-36 -53 -101 -197q52 33 91 82.5t44 101.5z
" />
    <glyph glyph-name="m_ss003" unicode="&#xe044;" horiz-adv-x="537" 
d="M-30 -77q-15 -53 -72.5 -74t-117 -1t-80.5 72q-9 27 -10.5 58t11.5 64t32 64.5t53 59t73.5 47.5t92.5 30t111 6q18 4 44 -6t28 -19q0 -2 -2 -9l-4.5 -15t-2.5 -10q14 19 46.5 31.5t67 5t47.5 -43.5q23 31 67 49.5t72 11.5q55 -16 9 -139q-25 -68 -26 -71q0 -8 6 -5
q15 5 122 79h29q-16 -25 -57.5 -58t-80.5 -55q-34 -20 -60 -22t-38.5 17t-2.5 59q5 22 18 57l22 59.5t7 33.5q-4 20 -43 -11q-47 -39 -65 -86q-25 -67 -41 -89q-10 -11 -27 -11t-31 10.5t-9 23.5q9 20 25.5 73.5t17.5 77.5q2 38 -84 -45q-6 -5 -10 -9l-25 -55
q-24 -55 -31 -69q-13 -19 -32.5 -18.5t-37 12t-17.5 21.5q26 88 77 198q-75 1 -135 -28.5t-93 -73.5t-46 -92.5t-3 -87.5q12 -44 50.5 -61t76.5 -3t50 51q14 42 -19.5 63.5t-75.5 2.5l-12 25q57 27 105 -5t31 -90z" />
    <glyph glyph-name="n_ss003" unicode="&#xe045;" horiz-adv-x="382" 
d="M-47 -87q-15 -53 -72.5 -74t-117 -1t-80.5 72q-9 27 -10.5 58t11.5 64.5t32.5 65t53.5 59.5t74 47.5t93 29t112 5.5q20 4 49.5 0.5t28.5 -13.5q0 -4 -1.5 -11l-2.5 -12l-1 -5q21 22 74 40t84 6q21 -8 22.5 -35t-8 -55t-22 -61t-14.5 -44q-6 -32 79 27l45 32h30
q-11 -19 -48 -50q-97 -81 -155 -89q-46 -5 -47 47q0 17 31 113q25 77 9 77q-2 0 -5 -1q-11 -4 -19.5 -8t-16 -9t-12.5 -8t-11.5 -9.5l-9 -9l-10 -10.5t-9.5 -11q-30 -84 -49 -122q-14 -19 -34 -18.5t-38 11.5t-18 21q29 109 56 180q-75 1 -136 -28.5t-93.5 -73.5t-46 -92.5
t-3.5 -87.5q12 -44 50.5 -61t76.5 -3t50 51q14 42 -19.5 63.5t-75.5 2.5l-12 25q57 27 105 -5t31 -90z" />
    <glyph glyph-name="o_ss003" unicode="&#xe046;" horiz-adv-x="313" 
d="M-31 -64q-15 -53 -72.5 -74t-117 -1t-80.5 72q-9 27 -10.5 58t11 64t32 64.5t53 59t73 47.5t92.5 30t111 6q22 10 36 11q23 2 44 -5t27 -16q11 1 24 -2q39 -10 51 -66.5t-5 -98.5q42 -4 75 23h29q-39 -63 -115 -62q-17 -35 -59 -56.5t-88 -22.5q-56 -1 -86.5 29
t-32.5 72.5t14.5 88.5t47.5 77q-70 -2 -127 -32.5t-87.5 -73.5t-43 -90t-2.5 -85q12 -44 50.5 -61t76.5 -3t50 51q14 42 -19.5 63.5t-75.5 2.5l-12 25q57 27 105 -5t31 -90zM133 237q-31 -10 -55 -60t-21.5 -100.5t39.5 -59.5q23 -5 53.5 6.5t40.5 30.5q-56 17 -81 51.5
t-16.5 70.5t40.5 61zM202 90q6 14 7.5 41t-5.5 55t-24 34q-20 7 -37 -22q-22 -39 1 -73q17 -25 58 -35z" />
    <glyph glyph-name="p_ss003" unicode="&#xe047;" horiz-adv-x="359" 
d="M-124 -70q-15 -53 -74 -74.5t-119 -1.5t-77 73q-25 70 -3 126t69 97.5t118 70t145 44t150 20.5q14 6 33.5 6t35.5 -6t14 -15q-2 -4 -11 -20q13 9 34.5 16t44.5 9t41 -8.5t22 -33.5q9 -58 -24 -161q44 7 84 36h29q-22 -33 -58 -52.5t-67 -14.5q-34 -84 -78 -86
q-51 -7 -81 29q-26 33 -4 63q22 28 83 32q6 15 17.5 64.5t11.5 72.5q0 34 -55 -7q-22 -17 -25 -19l-164 -405q-4 -7 -56 -2q-40 4 -36 14q125 342 188 458q-60 -6 -119.5 -21t-116.5 -41t-97 -60t-58 -82.5t-3 -103.5q12 -44 50.5 -61t76.5 -3t50 51q14 42 -19.5 63.5
t-75.5 2.5l-12 25q57 27 105 -5t31 -90zM135 4q9 -2 32 37q-36 -1 -39 -23q-2 -12 7 -14z" />
    <glyph glyph-name="q_ss003" unicode="&#xe048;" horiz-adv-x="332" 
d="M-122 -76q-15 -53 -74 -74.5t-119 -1.5t-77 73q-25 70 -3 126t68.5 97.5t118 70t145 44t149.5 20.5q21 5 45 -4t37 -18.5t36 -29.5q6 15 12 23t10 7q62 -12 61 -32q-1 -18 -7.5 -46t-14 -50.5l-16 -46.5t-9.5 -28q11 1 27.5 10.5t38.5 25t26 18.5h29q-20 -30 -67 -65.5
t-68 -39.5q-27 -90 -67 -189q-4 -9 -19.5 -12t-31.5 -1t-29 8.5t-13 14.5q9 50 57 176q-32 -22 -95 -17q-45 5 -64.5 35.5t-14 71t27 83t52.5 71.5q-58 -8 -113.5 -24t-106.5 -42.5t-86 -60t-50 -79t-1 -97.5q12 -44 50.5 -61t76.5 -3t50 51q14 42 -19.5 63.5t-75.5 2.5
l-12 25q57 27 105 -5t31 -90zM56 31q18 -14 49.5 -4t35.5 20l7 21l14.5 45.5l16.5 50t14 39.5q-25 15 -40 20t-31 0q-35 -11 -59.5 -91.5t-6.5 -100.5z" />
    <glyph glyph-name="r_ss003" unicode="&#xe049;" horiz-adv-x="305" 
d="M-26 -95q-15 -53 -72.5 -74t-117 -1t-80.5 72q-14 29 -10.5 64.5t16 71.5t42.5 70.5t67 61.5t91 44t114 18q-20 36 -2 66q15 24 40 25.5t36 -25.5q8 -27 -7 -63q18 -16 57 -23q26 11 51 -1t26 -29q-1 -3 -10 -21q-59 -120 -26 -120q9 0 25 8q27 14 91 59h29
q-12 -19 -45 -47.5t-69 -46.5q-77 -37 -109 -17.5t-27.5 72.5t40.5 108q-22 5 -62 26q-78 4 -142 -24t-98.5 -72.5t-49 -94.5t-4.5 -90q12 -44 50.5 -61t76.5 -3t50 51q14 42 -19.5 63.5t-75.5 2.5l-12 25q57 27 105 -5t31 -90z" />
    <glyph glyph-name="s_ss003" unicode="&#xe04a;" horiz-adv-x="297" 
d="M-23 -136q-15 -53 -72.5 -74t-117 -1t-80.5 72q-14 29 -10 65t16.5 73t43 71.5t68.5 61t93 43t117 16.5q-10 43 -5 66q7 46 65 58q51 11 82 -11q25 -17 6 -44q-6 -9 -48 -56q66 -147 67 -154q14 4 34 16.5t40 27.5l21 14h29q-17 -26 -53.5 -55t-59.5 -41
q25 -115 -48 -148q-46 -20 -87 3q-44 25 -26 77q13 36 59 77q-10 34 -36 82.5t-30 58.5q-1 0 -1 1q-74 0 -133.5 -29.5t-91.5 -73.5t-45 -92t-3 -87q12 -44 50.5 -61t76.5 -3t50 51q14 42 -19.5 63.5t-75.5 2.5l-12 25q57 27 105 -5t31 -90zM113 -91q16 21 8 68
q-42 -37 -31 -63q7 -16 19 -9zM125 229q31 39 31 46q0 9 -14 3q-25 -11 -19 -42q1 -4 2 -7z" />
    <glyph glyph-name="t_ss003" unicode="&#xe04b;" horiz-adv-x="226" 
d="M-55 -35q-15 -53 -72.5 -74t-117 -1t-80.5 72q-11 33 -10 71.5t22.5 79.5t53.5 76t84 61.5t113 36.5q14 2 60 5.5t72 10.5q13 20 40 55q6 7 55 6q43 -2 39 -15l-23 -39q12 1 34 1q17 0 6 -21q-8 -13 -15 -14l-47 -3q-148 -255 -70 -239q39 8 137 74h29
q-19 -29 -64.5 -63.5t-86.5 -49.5q-26 -7 -56.5 -8.5t-56.5 15t-30 47.5q-8 63 85 215q-17 -2 -54.5 -3.5t-47.5 -3.5q-75 -16 -127.5 -66t-71 -106t-6.5 -103q12 -44 50.5 -61t76.5 -3t50 51q14 42 -19.5 63.5t-75.5 2.5l-12 25q57 27 105 -5t31 -90z" />
    <glyph glyph-name="u_ss003" unicode="&#xe04c;" horiz-adv-x="327" 
d="M-24 -87q-15 -53 -72.5 -74t-117 -1t-80.5 72q-9 26 -10.5 57t11 64t31.5 64t52 58.5t71.5 48t90.5 30.5t109 7q23 9 40.5 2t7.5 -33q-34 -90 -44 -127q-12 -42 36 -7q7 5 31 24q1 4 12 38l20.5 62.5t13.5 37.5q15 27 32.5 23.5t33 -18.5t14.5 -19l-7 -21
q-57 -154 -26 -154q3 -1 7 1q13 5 33.5 18l40.5 27t21 15h29q-11 -19 -46 -50.5t-66 -48.5q-23 -12 -51 -13.5t-48.5 12.5t-19.5 44q-18 -16 -50.5 -28t-65 -11t-42.5 23q-9 21 8.5 75t39.5 99q-88 -7 -150.5 -57t-85 -111t-9.5 -112q12 -44 50.5 -61t76.5 -3t50 51
q14 42 -19.5 63.5t-75.5 2.5l-12 25q57 27 105 -5t31 -90z" />
    <glyph glyph-name="v_ss003" unicode="&#xe04d;" horiz-adv-x="288" 
d="M-45 -72q-15 -53 -72.5 -74t-117 -1t-80.5 72q-15 30 -10.5 67t18.5 74.5t46.5 72.5t72.5 62t98.5 42t123.5 12q18 6 39 -7.5t20 -25.5q-2 -31 -32 -199l41 24q-12 32 3.5 81.5t46.5 67.5q26 15 51.5 0t30.5 -45q6 -50 -74 -107q21 -11 128 64h29q-33 -52 -92 -86.5
t-104 -2.5q-38 -20 -72 -41q-15 -9 -49 0.5t-31 24.5l11.5 67l16 91t15.5 65v1q-71 -2 -128.5 -32.5t-88.5 -73.5t-43.5 -90.5t-2.5 -85.5q12 -44 50.5 -61t76.5 -3t50 51q14 42 -19.5 63.5t-75.5 2.5l-12 25q57 27 105 -5t31 -90zM205 150q0 13 -11.5 19.5t-23.5 -2.5
q-19 -13 -30.5 -48t-2.5 -49q69 50 68 80z" />
    <glyph glyph-name="w_ss003" unicode="&#xe04e;" horiz-adv-x="502" 
d="M-37 -80q-15 -53 -72.5 -74t-117 -1t-80.5 72q-9 27 -10.5 57.5t11 63.5t32 64.5t52.5 59t72 47.5t91.5 30t109.5 7q22 13 47.5 -11.5t18.5 -41.5q-60 -139 -64 -164q-1 -10 8 -9q26 3 68 48q43 45 59 96q17 52 50 13q21 -26 22 -43q-8 -30 -1 -78q9 -63 46 -37
q-27 29 -23.5 80t30.5 84q23 31 56.5 27.5t39.5 -42.5q5 -28 -8.5 -65t-33.5 -67q13 -2 32 5.5t33.5 16.5t38 26.5t32.5 23.5h29q-23 -38 -92 -83.5t-107 -27.5q-31 -27 -70.5 -34t-69 17t-27.5 79q-34 -42 -67.5 -65t-76.5 -21q-33 2 -52 19t-10 51q24 87 71 176
q-50 0 -94 -14t-74.5 -37t-55.5 -52.5t-36 -60.5t-16.5 -62t3.5 -56q12 -44 50.5 -61t76.5 -3t50 51q14 42 -19.5 63.5t-75.5 2.5l-12 25q57 27 105 -5t31 -90zM372 162q0 7 -6 9t-13.5 -1t-12.5 -10q-15 -23 -18.5 -62t11.5 -53q14 21 26.5 57t12.5 60z" />
    <glyph glyph-name="x_ss003" unicode="&#xe04f;" horiz-adv-x="310" 
d="M-14 -141q-15 -53 -67.5 -74t-109 -2t-80.5 70q-22 52 -14.5 103.5t44.5 98.5t87.5 82.5t114.5 56t126 18.5q15 0 28 -10t19.5 -19t16.5 -27.5t13 -22.5q6 6 27 28.5t32 32.5q17 16 27.5 10t0.5 -27q-18 -41 -89 -115q3 -16 9 -22.5t18 -3.5t20 7t27 16q7 4 10 6
q16 10 40 27l24 16h28q-8 -14 -31 -35.5t-49 -39.5q-28 -20 -43.5 -28.5t-40.5 -16.5t-44.5 2t-36.5 37l-32 -31q-25 -23 -36.5 -13.5t6.5 38.5q18 26 49 59q-19 83 -93 79q-69 -4 -137 -71q-77 -75 -78 -161q0 -26 8 -51q11 -33 37.5 -51t54 -18.5t52 14t33.5 42.5
q14 42 -19.5 63.5t-75.5 2.5l-12 25q57 27 105 -5t31 -90z" />
    <glyph glyph-name="y_ss003" unicode="&#xe050;" horiz-adv-x="363" 
d="M-42 -81q-15 -53 -72.5 -74t-117 -1t-80.5 72q-9 26 -10.5 57t11 63.5t31 63.5t51 58.5t71 47.5t90 30.5t107.5 8.5q13 5 26.5 8.5t28.5 4t19 -8t-1 -27.5q-43 -125 -50 -151q-5 -20 23 -23q37 -4 70 15q4 2 7 4l52 165q22 5 42.5 1t35 -11.5t13.5 -13.5
q-4 -26 -19.5 -84t-22.5 -76q26 9 100 60h29q-34 -54 -145 -117l-13.5 -39.5l-18 -51t-20.5 -50t-26 -53t-29.5 -42.5t-35.5 -35q-25 -18 -56.5 -21t-57.5 7t-41.5 36.5t-11.5 62.5q2 20 10.5 40t24.5 39t29 33t38 32.5l36.5 27t39.5 26.5t33 21q1 1 2 3q-39 -18 -102.5 -21
t-81.5 22q-9 19 9 78.5t40 111.5q-71 -2 -128.5 -32.5t-88.5 -73.5t-43.5 -90.5t-2.5 -85.5q12 -44 50.5 -61t76.5 -3t50 51q14 42 -19.5 63.5t-75.5 2.5l-12 25q57 27 105 -5t31 -90zM-19 -193q-9 -45 12 -55t46 27q33 50 86 180l-33.5 -23.5t-38 -28.5l-30 -27t-28.5 -35
t-14 -38z" />
    <glyph glyph-name="z_ss003" unicode="&#xe051;" 
d="M49 -59q-15 -53 -72.5 -74t-117 -1t-80.5 72q-33 80 32 178t198 140q71 22 146 6t101.5 -64t-36.5 -130q34 0 59 -18q15 5 35 17.5t40 26.5l19 14h29q-10 -17 -40.5 -43.5t-60.5 -44.5q16 -42 14 -92.5t-29 -102.5t-68 -76q-32 -22 -89.5 -19t-81.5 33q-22 26 4.5 75
t67.5 89t67 53q-8 18 -22.5 29t-20.5 9q-5 -2 -24 -9q-18 -7 -29 8t0 30q33 42 49.5 77.5t15.5 58t-14 37.5t-38.5 16.5t-58.5 -4.5q-73 -17 -125 -66.5t-70 -105.5t-6 -102q12 -44 50.5 -61t76.5 -3t50 51q14 42 -19.5 63.5t-75.5 2.5l-12 25q57 27 105 -5t31 -90zM205 -51
q-31 -17 -85 -78t-36 -85q16 -14 43.5 -8.5t43.5 19.5q28 24 36.5 71t-2.5 81z" />
    <glyph glyph-name="a_ss004" unicode="&#xe052;" horiz-adv-x="374" 
d="M221 371q-17 38 -2.5 79.5t48.5 68.5t77 38.5t82 -10.5q43 -24 68 -77.5t25.5 -119.5t-38 -142.5t-112.5 -138.5q-57 -47 -86 -60q-40 -21 -75.5 -4.5t-34.5 64.5q-7 -5 -19.5 -15l-19 -15t-18 -10t-25.5 -7q-79 -11 -103 51q-22 56 12 122q36 71 106 84q52 10 96 -13
q10 -5 6 -20t-19 -8q-24 10 -48 -8q-39 -27 -62 -92q-22 -62 3 -73q4 -2 10 -1q14 1 28 9t34.5 24.5t27.5 21.5q1 2 8 31t13 47.5t13 27.5t37 5.5t32 -14.5q4 -18 -14.5 -81t-17.5 -78q3 -32 83 24q9 6 17 12q60 45 89 106.5t26 117t-24 102.5t-54 71q-42 24 -79.5 14
t-59 -45.5t-6.5 -71.5q18 -41 57 -36.5t58 45.5l25 -11q-26 -57 -83 -63t-81 49z" />
    <glyph glyph-name="b_ss004" unicode="&#xe053;" horiz-adv-x="338" 
d="M314 507q-14 30 -6.5 64.5t29.5 60.5t53 45.5t65 20.5t64 -15q68 -43 88.5 -107t1 -130t-64.5 -138t-95 -128t-103 -102q-69 -61 -121 -57q-47 -54 -97 -68q-33 -12 -75 -0.5t-59 43.5q-18 32 -13 81t21 104t47.5 110t67 98t79 66.5t82.5 17.5q27 -4 45 -20.5t21 -38.5
q5 -44 -44.5 -97.5t-104.5 -87.5t-81 -38l-11.5 -29t-15 -44t-13 -48t-6 -42t6.5 -27q11 -13 40 -4q26 6 59 36q-34 13 -46 45t-0.5 64.5t39.5 50.5q27 17 58 13.5t48 -26.5q31 -42 -19 -122q34 13 74 45q50 41 95 90.5t81 109t51 115.5t-1.5 112t-70.5 96q-27 21 -59 19
t-53.5 -21t-33.5 -46t1 -55q18 -41 57 -36.5t58 45.5l25 -11q-26 -57 -83 -63t-81 49zM270 427q-34 -9 -77 -78.5t-71 -131.5q38 21 77 48.5t74 69t30 74.5q-3 26 -33 18zM202 62q51 61 36 91q-6 12 -22.5 12.5t-30.5 -10.5q-28 -20 -23 -52.5t40 -40.5z" />
    <glyph glyph-name="c_ss004" unicode="&#xe054;" horiz-adv-x="258" 
d="M104 371q-17 38 -2.5 79.5t48.5 68.5t77 38.5t82 -10.5q43 -23 67 -75.5t24.5 -117t-36 -140.5t-106.5 -139q-56 -52 -103 -65q-114 -34 -157 38q-33 55 -8 131q24 73 79 96q30 12 63 5q46 -10 62 -55q9 -23 -8 -25q-3 0 -22 20.5t-33 19.5q-21 -2 -39 -44.5t-16.5 -89
t28.5 -58.5q46 -17 122 38q63 47 94.5 109.5t29.5 118.5t-22.5 103.5t-54.5 72.5q-42 24 -79.5 14t-59 -45.5t-6.5 -71.5q18 -41 57 -36.5t58 45.5l25 -11q-26 -57 -83 -63t-81 49z" />
    <glyph glyph-name="d_ss004" unicode="&#xe055;" horiz-adv-x="428" 
d="M403 507q-17 38 -2.5 79.5t48.5 68.5t77 38.5t82 -10.5q69 -37 89 -99.5t0 -129t-64.5 -139.5t-95.5 -131.5t-103 -103.5q-73 -64 -107 -87q-111 -73 -130 97q-106 -82 -170 -51q-29 14 -40.5 43.5t-3 61.5t28.5 60.5t57 44t79 8.5q30 -5 53 -24q9 64 32 127t61 92
q28 18 56.5 19.5t50.5 -19.5t22 -56q-1 -69 -40.5 -139t-94.5 -118q0 -3 0.5 -23.5t3.5 -39.5t9 -28q10 -14 48 7.5t68 47.5q50 44 93.5 93t80.5 109t52 115t-1 110.5t-70 95.5q-27 21 -59 19t-53.5 -21t-33.5 -46t1 -55q18 -41 57 -36.5t58 45.5l25 -11q-26 -57 -83 -63
t-81 49zM198 206q-28 13 -50 8q-33 -7 -54 -50.5t-9 -73.5q4 -10 11 -14t16 -1.5t18 7t20 12.5t18.5 14.5l16 14t10.5 9.5q-2 36 3 74zM286 176q41 37 70 103.5t31 121.5q1 21 -8 23t-22 -11q-32 -30 -49.5 -101t-21.5 -136z" />
    <glyph glyph-name="e_ss004" unicode="&#xe056;" horiz-adv-x="260" 
d="M109 371q-17 38 -2.5 79.5t48.5 68.5t77 38.5t82 -10.5q44 -24 69 -79t24 -122.5t-43 -146t-121 -140.5q-46 -35 -78 -46q-116 -41 -164 26q-34 50 -13 123q20 69 75 93q35 15 77 3q36 -10 49 -39t-11 -57q-24 -26 -103 -74q6 -28 31 -40q13 -5 26.5 -6t28 4.5t25 10
t26 15.5l21 15t19.5 15q56 45 82 105t22 114t-25 100t-53 69q-42 24 -79.5 14t-59 -45.5t-6.5 -71.5q18 -41 57 -36.5t58 45.5l25 -11q-26 -57 -83 -63t-81 49zM66 123l44 27t38 26q14 11 7.5 27.5t-22.5 21.5q-26 8 -51.5 -37.5t-15.5 -64.5z" />
    <glyph glyph-name="f_ss004" unicode="&#xe057;" horiz-adv-x="375" 
d="M350 521q-17 38 -2.5 79.5t48.5 68.5t77 38.5t82 -10.5q69 -37 89.5 -100.5t0 -133t-64.5 -144t-95.5 -135t-102.5 -104.5q-83 -70 -126 -83q-27 -123 -112 -185q-63 -46 -113 -28q-52 20 -42 99l4 21q9 41 40 122q-28 28 -31 64.5t12.5 65.5t44 47.5t58.5 14.5
l17.5 35.5t21.5 42l22 39.5t26.5 42t28 33.5t33.5 30.5t36 19q50 20 101 4t51 -59q-2 -44 -42.5 -95t-86 -85.5t-91.5 -60.5q36 -56 28 -126q52 23 103 65q50 41 95 92.5t81 113t50.5 119.5t-2 115t-70.5 97q-27 21 -59 19t-53.5 -21t-33.5 -46t1 -55q18 -41 57 -36.5
t58 45.5l25 -11q-26 -57 -83 -63t-81 49zM223 180q9 8 51.5 43.5t67.5 58.5t49 58.5t24 64.5q0 20 -14.5 25t-32 -2.5t-29.5 -20.5q-45 -48 -127 -216zM96 -110q-12 -55 11 -50q26 6 68 66q32 45 36 71q-51 -9 -86 9q-22 -65 -29 -96zM139 23q29 -21 82 -5q7 29 1 72.5
t-25 67.5q-30 -65 -58 -135zM104 192q-24 3 -44 -22.5t-22.5 -54t12.5 -46.5q22 58 54 123z" />
    <glyph glyph-name="g_ss004" unicode="&#xe058;" horiz-adv-x="371" 
d="M218 371q-17 38 -2.5 79.5t48.5 68.5t77 38.5t82 -10.5q44 -24 68.5 -78t24.5 -120.5t-39 -144t-115 -138.5q-44 -35 -103 -70q-1 -2 -10.5 -29.5t-13.5 -38l-15 -39t-18.5 -43.5l-19.5 -40t-23 -39l-24.5 -30.5t-27.5 -25.5t-28 -13q-49 -11 -93 17.5t-42 81.5
q1 24 13 48.5t27 42.5t41.5 39.5t44 33l47.5 30.5t40 26q3 0 3 8q-6 -2 -41 -6q-113 -11 -139 60q-20 54 20 119q41 66 107 76q17 3 34 1q34 -4 60 -20.5t30 -38.5q4 -16 -0.5 -23.5t-12.5 -4.5t-13 14q-9 17 -26.5 24.5t-37.5 -0.5q-33 -15 -54 -70q-26 -64 1 -91
q12 -13 35 -12q21 0 49 14q22 75 31 93q6 12 53 14.5t51 -4.5q2 -4 -5.5 -31t-18.5 -58.5t-11 -32.5q31 11 79 46q61 44 89.5 105t25 117t-24.5 103t-54 71q-42 24 -79.5 14t-59 -45.5t-6.5 -71.5q18 -41 57 -36.5t58 45.5l25 -11q-26 -57 -83 -63t-81 49zM26 -246
q43 38 112 208q-4 -3 -43.5 -30.5t-53.5 -39.5t-33.5 -38t-23.5 -52t8 -46t34 -2z" />
    <glyph glyph-name="h_ss004" unicode="&#xe059;" horiz-adv-x="370" 
d="M341 501q-17 38 -2.5 79.5t48.5 68.5t77 38.5t82 -10.5q68 -37 89 -99.5t1 -129.5t-64 -139.5t-96 -131t-104 -101.5q-53 -43 -75 -56q-54 -33 -86.5 -40.5t-41.5 5t-8.5 35t9 46.5l15 44t5.5 22q-7 15 -45.5 -12.5t-53.5 -47.5q-1 -3 -14.5 -47t-21.5 -59q-2 -4 -27 -6
t-48.5 0.5t-23.5 8.5q7 72 78.5 251t126.5 227q27 23 61 26.5t58 -18.5t20 -65q-9 -67 -59 -126t-117 -92q-10 -24 -14 -37q85 60 145 48q58 -11 25 -90q-18 -43 -18 -45q0 -7 12 -1q50 25 81 50q50 41 95 90.5t81 109t51 115.5t-1.5 112t-70.5 96q-27 21 -59 19t-53.5 -21
t-33.5 -46t1 -55q18 -41 57 -36.5t58 45.5l25 -11q-26 -57 -83 -63t-81 49zM269 394q2 29 -8 30.5t-24 -17.5q-26 -33 -100 -192q53 32 90 79.5t42 99.5z" />
    <glyph glyph-name="i_ss004" unicode="&#xe05a;" horiz-adv-x="173" 
d="M38 384q-17 38 -2.5 79.5t48.5 68.5t77 38.5t82 -10.5q44 -24 67.5 -78.5t21.5 -122t-43.5 -146t-119.5 -143.5q-61 -50 -86 -61q-105 -48 -114 42q-6 64 31 147q8 17 15 28q9 9 28 8.5t37.5 -9.5t16.5 -18q-44 -129 -42 -151q0 -9 5 -10q18 -5 95 49q66 46 98.5 109
t31 120.5t-22.5 105.5t-55 73q-42 24 -79.5 14t-59 -45.5t-6.5 -71.5q18 -41 57 -36.5t58 45.5l25 -11q-26 -57 -83 -63t-81 49zM110 254q-10 -11 -42.5 -3t-33.5 22q0 11 5.5 28t12.5 23q10 10 42 2.5t34 -21.5q0 -11 -5.5 -27.5t-12.5 -23.5z" />
    <glyph glyph-name="j_ss004" unicode="&#xe05b;" horiz-adv-x="262" 
d="M126 384q-17 38 -2.5 79.5t48.5 68.5t77 38.5t82 -10.5q44 -24 68 -78t22.5 -121t-42 -145.5t-117.5 -142.5q-64 -53 -115 -83l-17 -47.5t-23.5 -63.5t-26 -59t-35.5 -60t-41 -41q-25 -18 -56.5 -21t-57.5 7.5t-41.5 37t-11.5 62.5q2 18 10 36t17 32.5t26.5 32t28.5 27.5
t34.5 27t32 22.5l34 22l28.5 18.5l49 160q-72 -83 -86 -96l-23 13q13 12 44.5 49.5t45.5 57.5q17 24 49 26.5t55.5 -7.5t22.5 -18q-5 -28 -20.5 -86.5t-21.5 -73.5q28 9 80 47q65 47 97.5 110t31 120t-22 105t-54.5 73q-42 24 -79.5 14t-59 -45.5t-6.5 -71.5
q18 -41 57 -36.5t58 45.5l25 -11q-26 -57 -83 -63t-81 49zM-61 -221q29 43 86 179q-5 -4 -28 -20t-31.5 -22.5t-27 -22t-27 -26.5t-17.5 -27t-13 -33q-9 -46 12 -55.5t46 27.5zM209 249q-10 -10 -42.5 -2t-33.5 21q0 11 5.5 28t11.5 23q10 10 42.5 2.5t33.5 -20.5
q1 -10 -4.5 -27.5t-12.5 -24.5z" />
    <glyph glyph-name="k_ss004" unicode="&#xe05c;" 
d="M322 483q-14 30 -6.5 64.5t30 60.5t53.5 45.5t64.5 20.5t63.5 -15q67 -41 88.5 -103.5t5 -126t-58 -133.5t-89 -126t-99.5 -104q-43 -40 -58 -52q-37 -29 -65 -44t-44 -15t-25.5 8.5t-12 24.5t-1.5 34.5t5.5 38t8.5 35t8 26.5l3 10q-7 15 -45.5 -12t-54.5 -48
q-32 -101 -35 -106q-2 -4 -27 -6t-48.5 0.5t-23.5 8.5q7 72 78.5 251t126.5 227q27 23 61 26.5t58 -18.5t20 -65q-9 -67 -59 -126t-117 -92q-10 -24 -14 -37q37 27 93.5 58t91.5 42q13 4 19 -7.5t-4 -19.5q-31 -17 -52 -25q51 -16 17 -103q-17 -42 -16 -46q2 -8 33 16l52 39
q64 48 117 113t84.5 136.5t19.5 143t-77 120.5q-27 21 -59 19t-53.5 -21t-33.5 -46t1 -55q18 -41 57 -36.5t58 45.5l25 -11q-26 -57 -83 -63t-81 49zM272 394q2 29 -8.5 30.5t-23.5 -17.5q-26 -33 -100 -192q52 33 89.5 80.5t42.5 98.5z" />
    <glyph glyph-name="l_ss004" unicode="&#xe05d;" horiz-adv-x="202" 
d="M188 518q-17 38 -2.5 79.5t48.5 67t75.5 35.5t79.5 -15q68 -43 88 -108t0.5 -131t-65 -138.5t-95.5 -128t-103 -102.5q-71 -63 -103 -79q-28 -14 -60.5 -18.5t-59 11.5t-24.5 55q5 87 73.5 237.5t114.5 174.5q41 24 80 4.5t35 -73.5q-9 -67 -59 -126t-117 -92l-12 -32
t-15 -46t-7 -44t13 -15q22 3 61.5 27t63.5 44q50 41 95 90.5t81 109t51 115.5t-1.5 112t-70.5 96q-27 21 -58.5 20t-52 -18t-32 -42.5t1.5 -53.5q18 -41 57 -36.5t58 45.5l25 -11q-26 -57 -83 -63t-81 49zM240 393q2 29 -10.5 30.5t-23.5 -17.5q-36 -53 -101 -197
q52 33 91 82.5t44 101.5z" />
    <glyph glyph-name="m_ss004" unicode="&#xe05e;" horiz-adv-x="537" 
d="M384 371q-17 38 -2.5 79.5t48.5 68.5t77 38.5t82 -10.5q44 -24 68.5 -77.5t24.5 -120t-39 -143.5t-114 -139q-60 -49 -101 -72q-34 -20 -60 -22t-38.5 17t-2.5 59q5 22 18 57l22 59.5t7 33.5q-4 20 -43 -11q-47 -39 -65 -86q-25 -67 -41 -89q-10 -11 -27 -11t-31 10.5
t-9 23.5q9 20 25.5 73.5t17.5 77.5q2 38 -84 -45q-6 -5 -10 -9l-25 -55q-24 -55 -31 -69q-13 -19 -32.5 -18.5t-37 12t-17.5 21.5q9 31 39.5 107.5t45.5 107.5q11 17 46.5 7.5t39.5 -22.5q0 -2 -2 -9l-4.5 -15t-2.5 -10q14 19 46.5 31.5t67 5t47.5 -43.5q23 31 67 49.5
t72 11.5q55 -16 9 -139q-25 -68 -26 -71q0 -8 6 -5q20 5 100 64q61 45 90 106t26 117t-24 103t-54 71q-42 24 -79.5 14t-59 -45.5t-6.5 -71.5q18 -41 57 -36.5t58 45.5l25 -11q-26 -57 -83 -63t-81 49z" />
    <glyph glyph-name="n_ss004" unicode="&#xe05f;" horiz-adv-x="382" 
d="M230 371q-17 38 -2.5 79.5t48.5 68.5t77 38.5t82 -10.5q44 -24 68.5 -78t25 -121t-38.5 -144t-115 -137q-211 -167 -213 -51q0 17 31 113q25 77 9 77q-2 0 -5 -1q-11 -4 -19.5 -8t-16 -9t-12.5 -8t-11.5 -9.5l-9 -9l-10 -10.5t-9.5 -11q-30 -84 -49 -122
q-14 -19 -34 -18.5t-38 11.5t-18 21q34 129 65 202q2 5 25.5 6.5t45.5 -2t21 -12.5q0 -4 -1.5 -11l-2.5 -12l-1 -5q21 22 74 40t84 6q21 -8 22.5 -35t-8 -55t-22 -61t-14.5 -44q-6 -32 79 26q15 10 29 21q59 45 87 105.5t24.5 116t-24.5 102t-54 70.5q-42 24 -79.5 14
t-59 -45.5t-6.5 -71.5q18 -41 57 -36.5t58 45.5l25 -11q-26 -57 -83 -63t-81 49z" />
    <glyph glyph-name="o_ss004" unicode="&#xe060;" horiz-adv-x="313" 
d="M158 373q-17 38 -2.5 79.5t48.5 68.5t77 38.5t82 -10.5q40 -22 65 -76t24.5 -120.5t-20 -130.5t-73.5 -113.5t-132 -62.5q-17 -35 -59 -56.5t-88 -22.5q-93 -2 -114 76q-18 67 23 144q39 73 99 85q5 1 9 1q23 2 44 -5t27 -16q11 1 24 -2q39 -10 51 -66.5t-5 -98.5
q80 14 124 72t46.5 125t-19.5 128t-62 82q-42 24 -79.5 14t-59 -45.5t-6.5 -71.5q18 -41 57 -36.5t58 45.5l25 -11q-26 -57 -83 -63t-81 49zM133 237q-31 -10 -55 -60t-21.5 -100.5t39.5 -59.5q23 -5 53.5 6.5t40.5 30.5q-56 17 -81 51.5t-16.5 70.5t40.5 61zM202 90
q6 14 7.5 41t-5.5 55t-24 34q-20 7 -37 -22q-22 -39 1 -73q17 -25 58 -35z" />
    <glyph glyph-name="p_ss004" unicode="&#xe061;" horiz-adv-x="359" 
d="M204 371q-17 38 -2.5 79.5t48.5 68.5t77 38.5t82 -10.5q44 -24 70 -80.5t26 -125.5t-40.5 -145.5t-120.5 -131.5q-40 -28 -81 -23q-34 -84 -78 -86q-51 -7 -81 29q-26 33 -4 63q22 28 83 32q6 15 17.5 64.5t11.5 72.5q0 34 -55 -7q-22 -17 -25 -19l-164 -405
q-4 -7 -56 -2q-40 4 -36 14q154 417 203 483q12 16 57 9q34 -6 32 -19q-2 -4 -11 -20q13 9 34.5 16t44.5 9t41 -8.5t22 -33.5q9 -58 -24 -161q38 5 60 20q63 42 93 102.5t26 117.5t-26 105.5t-55 72.5q-42 24 -79.5 14t-59 -45.5t-6.5 -71.5q18 -41 57 -36.5t58 45.5l25 -11
q-26 -57 -83 -63t-81 49zM135 4q9 -2 32 37q-36 -1 -39 -23q-2 -12 7 -14z" />
    <glyph glyph-name="q_ss004" unicode="&#xe062;" horiz-adv-x="332" 
d="M179 371q-17 38 -2.5 79.5t48.5 68.5t77 38.5t82 -10.5q44 -24 68.5 -77t24.5 -119.5t-39 -143.5t-113 -139q-73 -61 -99 -65q-27 -90 -67 -189q-4 -9 -19.5 -12t-31.5 -1t-29 8.5t-13 14.5q9 50 57 176q-32 -22 -95 -17q-75 7 -79 82q-4 69 47 142q41 58 87 71
q22 6 46 -2.5t37.5 -18.5t37.5 -30q6 15 12 23t10 7q62 -12 61 -32q-1 -18 -7.5 -46t-14 -50.5l-16 -46.5t-9.5 -28q24 3 73 41q60 45 88 106t25 116.5t-24 102t-54 70.5q-42 24 -79.5 14t-59 -45.5t-6.5 -71.5q18 -41 57 -36.5t58 45.5l25 -11q-26 -57 -83 -63t-81 49z
M56 31q18 -14 49.5 -4t35.5 20l7 21l14.5 45.5l16.5 50t14 39.5q-25 15 -40 20t-31 0q-35 -11 -59.5 -91.5t-6.5 -100.5z" />
    <glyph glyph-name="r_ss004" unicode="&#xe063;" horiz-adv-x="305" 
d="M153 371q-17 38 -2.5 79.5t48.5 68.5t77 38.5t82 -10.5q44 -24 68.5 -78.5t24 -122t-41 -145t-118.5 -139.5q-46 -35 -71 -48q-77 -37 -109 -17.5t-27.5 72.5t40.5 108q-19 5 -54 21q-3 -4 -10.5 -26t-19.5 -46t-27 -38l-23 12q15 12 29 48.5t20 65.5q-18 16 -23 40t6 44
q15 24 40 25.5t36 -25.5q8 -27 -7 -63q18 -16 57 -23q26 11 51 -1t26 -29q-1 -3 -10 -21q-59 -120 -26 -120q9 0 25 8q35 17 73 46q60 45 88 106t25 116t-24 102t-54 71q-42 24 -79.5 14t-59 -45.5t-6.5 -71.5q18 -41 57 -36.5t58 45.5l25 -11q-26 -57 -83 -63t-81 49z" />
    <glyph glyph-name="s_ss004" unicode="&#xe064;" horiz-adv-x="297" 
d="M45 162q-22 56 -15 95q7 46 65 58q51 11 82 -11q25 -17 6 -44q-6 -9 -48 -56q66 -147 67 -154q14 4 34 16.5t40 27.5l21 14h29q-17 -26 -53.5 -55t-59.5 -41q25 -115 -48 -148q-46 -20 -87 3q-44 25 -26 77q13 36 59 77q-2 10 -54 115q-39 -45 -44 -49l-23 14
q15 14 55 61zM113 -91q16 21 8 68q-42 -37 -31 -63q7 -16 19 -9zM125 229q31 39 31 46q0 9 -14 3q-25 -11 -19 -42q1 -4 2 -7zM144 371q-17 38 -2.5 79.5t48.5 68.5t77 38.5t82 -10.5q45 -24 70 -80t25 -125t-42 -146.5t-124 -136.5l-17 23q65 47 97.5 110t31 120t-22 105
t-54.5 73q-42 24 -79.5 14t-59 -45.5t-6.5 -71.5q18 -41 57 -36.5t58 45.5l25 -11q-26 -57 -83 -63t-81 49z" />
    <glyph glyph-name="t_ss004" unicode="&#xe065;" horiz-adv-x="226" 
d="M205 507q-17 38 -2.5 79.5t48.5 68.5t77 38.5t82 -10.5q69 -37 91 -100t2.5 -132t-62.5 -140.5t-98.5 -131t-110.5 -99.5l-37 -28.5t-50.5 -36t-40.5 -20.5q-26 -7 -56.5 -8.5t-56.5 15t-30 47.5q-8 63 85 215l-33 -2q-15 -1 -16.5 12.5t12.5 16.5q26 7 61 12
q13 20 40 55q6 7 55 6q43 -2 39 -15l-23 -39q12 1 34 1q17 0 6 -21q-8 -13 -15 -14l-47 -3q-148 -255 -70 -239q43 8 127 74q51 40 96.5 89t81.5 107.5t51.5 114.5t-1.5 111.5t-70 95.5q-27 21 -59 19t-53.5 -21t-33.5 -46t1 -55q18 -41 57 -36.5t58 45.5l25 -11
q-26 -57 -83 -63t-81 49z" />
    <glyph glyph-name="u_ss004" unicode="&#xe066;" horiz-adv-x="327" 
d="M175 371q-17 38 -2.5 79.5t48.5 68.5t77 38.5t82 -10.5q44 -24 69.5 -76.5t27 -118t-38 -143t-117.5 -141.5q-59 -50 -77 -59q-23 -12 -51 -13.5t-48.5 12.5t-19.5 44q-18 -16 -50.5 -28t-65 -11t-42.5 23q-10 23 12.5 88t42.5 100q3 7 39 16q54 13 52 -17q-1 -7 -4 -15
q-34 -90 -44 -127q-12 -42 36 -7q7 5 31 24q1 4 12 38l20.5 62.5t13.5 37.5q15 27 32.5 23.5t33 -18.5t14.5 -19l-7 -21q-57 -154 -26 -154q3 -1 7 1q35 14 83 52q57 45 84 105t23.5 115t-24.5 101t-54 69q-42 24 -79.5 14t-59 -45.5t-6.5 -71.5q18 -41 57 -36.5t58 45.5
l25 -11q-26 -57 -83 -63t-81 49z" />
    <glyph glyph-name="v_ss004" unicode="&#xe067;" horiz-adv-x="288" 
d="M137 371q-17 38 -2.5 79.5t48.5 68.5t77 38.5t82 -10.5q43 -23 68 -74.5t27 -116.5t-32.5 -141.5t-104.5 -141.5q-27 -25 -56 -42t-64 -24.5t-59 12.5q-38 -20 -72 -41q-15 -9 -49 0.5t-31 24.5l11.5 67l16 91t15.5 65q8 28 28.5 30.5t37 -10.5t15.5 -24q-2 -31 -32 -199
l41 24q-12 32 3.5 81.5t46.5 67.5q26 15 51.5 0t30.5 -45q6 -50 -74 -107q14 -8 55 14t65 44q66 62 87 144t1.5 147t-62.5 97q-42 24 -79.5 14t-59 -45.5t-6.5 -71.5q18 -41 57 -36.5t58 45.5l25 -11q-26 -57 -83 -63t-81 49zM205 150q0 13 -11.5 19.5t-23.5 -2.5
q-19 -13 -30.5 -48t-2.5 -49q69 50 68 80z" />
    </font>
</defs>
</svg>
