<?xml version="1.0" standalone="no"?>
<!DOCTYPE svg PUBLIC "-//W3C//DTD SVG 1.1//EN" "http://www.w3.org/Graphics/SVG/1.1/DTD/svg11.dtd" >
<svg xmlns="http://www.w3.org/2000/svg">
<metadata></metadata>
<defs>
<font id="moonshineregular" horiz-adv-x="1615" >
<font-face units-per-em="2048" ascent="1638" descent="-410" />
<missing-glyph horiz-adv-x="716" />
<glyph horiz-adv-x="0" />
<glyph horiz-adv-x="682" />
<glyph horiz-adv-x="0" />
<glyph horiz-adv-x="0" />
<glyph unicode="&#xd;" horiz-adv-x="716" />
<glyph unicode=" "  horiz-adv-x="716" />
<glyph unicode="&#x09;" horiz-adv-x="716" />
<glyph unicode="&#xa0;" horiz-adv-x="716" />
<glyph unicode="!" horiz-adv-x="370" d="M92 162q0 15 10 26t23 11t23 -11t10 -26q0 -14 -10 -24.5t-23 -10.5t-23 10.5t-10 24.5zM123 395q0 21 31 486q35 489 51 489q15 0 20 -10q22 -45 -8 -288t-65 -462t-27 -219q-2 0 -2 4z" />
<glyph unicode="&#x22;" horiz-adv-x="294" d="M29 1026q0 20 12 33.5t31 13.5t31 -13.5t12 -33.5v-2q0 -35 -17 -71.5t-32.5 -56t-18.5 -19.5h-2q-4 0 0 4q52 55 64 118q-13 -20 -37 -20q-18 0 -30.5 14t-12.5 33zM166 1026q0 20 13 33.5t32 13.5q18 0 30.5 -13.5t12.5 -33.5v-2q-1 -35 -18 -71.5t-34 -56.5l-16 -19 h-4v4q52 55 64 118q-13 -20 -35 -20q-19 0 -32 14t-13 33z" />
<glyph unicode="#" horiz-adv-x="761" d="M53 600l2 2l150 10q1 58 2 85t4.5 43t7.5 18t14 2q16 0 19 -47q2 -13 2.5 -18.5t0.5 -12t-0.5 -12t-1 -20.5t-1.5 -34l154 11q1 54 2.5 83t5 43t7.5 16.5t13 2.5q15 0 21 -49q2 -20 0 -92l163 12q3 0 3 -2t-3 -2l-165 -12q-3 -113 -15 -219l185 14l2 -2q0 -4 -2 -4 l-185 -13q-22 -203 -43 -210h-2l-2 2v2q8 36 12 202l-167 -10q-18 -202 -43 -207h-3v2q9 41 13 201l-142 -10l-4 4q2 2 4 2l142 10v94q0 86 2 123l-148 -10h-2q-2 0 -2 2zM238 393l165 13v90q3 71 3 127l-154 -11q-2 -82 -14 -219z" />
<glyph unicode="$" horiz-adv-x="507" d="M45 424q2 2 4 2l2 -2q0 -64 32.5 -103.5t76.5 -44.5l24 287h-2q-31 13 -49 23t-42 29t-35 46.5t-11 63.5q0 60 39 96q31 31 84 31q15 0 39 -4l6 84q0 2 4 2l2 -2l-8 -86q40 -11 67 -43.5t27 -77.5l-2 -4q-4 0 -4 4q0 44 -24.5 74t-63.5 41l-23 -273l45 -16 q26 -7 41 -13.5t32.5 -17.5t25.5 -28t8 -41q0 -90 -59 -140q-44 -41 -105 -41h-10l-6 -69l-2 -2l-4 2l6 71q-46 5 -80.5 46t-34.5 106zM92 725q0 -113 92 -156l23 273q-44 0 -78 -27q-37 -30 -37 -90zM166 276h6q49 0 84 41q37 46 37 134q0 42 -26.5 65t-78.5 45z" />
<glyph unicode="%" horiz-adv-x="641" d="M66 813q0 58 22.5 98.5t54.5 40.5q11 0 23 -4q26 -13 41.5 -50t15.5 -85q0 -46 -15.5 -84t-41.5 -51q-12 -4 -23 -4q-32 0 -54.5 40.5t-22.5 98.5zM94 197l385 794h2l2 -2l-385 -794q0 -2 -2 -2v2zM103 753q16 -63 61 -69q25 12 40 48t15 81t-15 81t-40 48 q-40 -2 -58.5 -64t-2.5 -125zM340 414q0 57 23 98t55 41q13 0 22 -6q26 -12 42 -49.5t16 -83.5q0 -48 -16 -85.5t-42 -49.5q-10 -7 -22 -7q-32 0 -55 41.5t-23 100.5zM378.5 354q15.5 -63 59.5 -71q25 12 40.5 48.5t15.5 82.5q0 44 -15.5 80.5t-40.5 48.5 q-38 -3 -56.5 -64.5t-3 -124.5z" />
<glyph unicode="&#x26;" horiz-adv-x="653" d="M55 381q0 41 17 84t36.5 71.5t55.5 73.5q-14 66 -14 142q0 113 32 176q38 71 105 71q16 0 26 -10q19 -19 13 -59v-6q0 -79 -34.5 -143t-98.5 -142q22 -123 69 -232t113 -171q36 32 55 79.5t19 96.5q0 105 -58 163q-41 -36 -80 -36q-33 0 -53 10q-18 6 -18 20 q0 16 22.5 29.5t54.5 13.5q41 0 74 -30l31 32q28 30 44.5 44.5t50.5 30.5t71 16q4 0 4 -3q-2 -2 -4 -2q-36 0 -68.5 -15t-50 -30.5t-43.5 -44.5l-31 -32q27 -27 42.5 -72.5t15.5 -93.5q0 -91 -52 -156q-21 -22 -24 -23l6 -6q84 -61 192 -61q3 -2 3 -4l-3 -2q-107 0 -194 63 l-8 6q-51 -42 -133 -45h-13q-82 0 -127 51.5t-45 145.5zM95 348q2 -59 37.5 -105.5t100.5 -54.5q83 3 136 43q-61 49 -113 131q-58 93 -82 203q-39 -37 -60 -97.5t-19 -119.5zM193 645q41 51 64.5 85.5t44 87.5t20.5 106v6q0 42 -11 55q-10 10 -24 10q-60 0 -84 -75 q-37 -97 -10 -275zM274 573q0 -11 11 -18q13 -10 32 -10h2q29 2 68 33q-28 28 -68 28q0 -2 -2 -2q-19 0 -31 -10t-12 -21z" />
<glyph unicode="'" horiz-adv-x="178" d="M27 1026q0 20 13 33.5t32 13.5q18 0 30.5 -13.5t12.5 -33.5v-2q-1 -35 -18 -71.5t-33 -56.5l-17 -19h-2h-2v4q51 55 63 118q-13 -20 -34 -20q-19 0 -32 14t-13 33z" />
<glyph unicode="(" horiz-adv-x="411" d="M96 627q0 134 19.5 254t60 200t92.5 80q2 0 2 -2l-2 -2q-57 0 -96 -174.5t-39 -384.5q0 -174 33 -303q36 -131 100 -131q4 0 4 -2q-2 -2 -4 -2q-84 0 -131 145q-39 128 -39 322z" />
<glyph unicode=")" horiz-adv-x="411" d="M96 162q0 2 4 2q65 0 101 131q32 125 32 303q0 210 -39 384.5t-96 174.5q-2 0 -2 2l2 2q52 0 92.5 -80t60 -200t19.5 -254q0 -194 -39 -322q-47 -145 -131 -145z" />
<glyph unicode="*" horiz-adv-x="352" d="M37 1030l2 2h235l2 -2q0 -2 -2 -2h-235q-2 0 -2 2zM72 944v4l166 166q4 4 4 0q4 0 0 -4l-166 -166h-2h-2zM72 1110v4q2 2 4 0l166 -166q4 0 0 -4h-2h-2zM154 911v236q0 2 4 2q2 0 2 -2v-236l-2 -2z" />
<glyph unicode="+" horiz-adv-x="325" d="M39 614l2 2h127v127l2 2q2 0 2 -2v-127h127q2 0 2 -2t-2 -2h-127v-127q0 -2 -2 -2l-2 2v127h-127z" />
<glyph unicode="," horiz-adv-x="237" d="M74 176q0 20 13 33.5t32 13.5q18 0 30.5 -13.5t12.5 -33.5v-2q-1 -35 -18 -71.5t-34 -56.5l-16 -19h-2h-2v4q52 56 64 119q-14 -21 -35 -21q-19 0 -32 14t-13 33z" />
<glyph unicode="-" horiz-adv-x="368" d="M31 612l2 2h258q2 0 2 -2t-2 -2h-258z" />
<glyph unicode="." horiz-adv-x="237" d="M70 178q0 19 13 32t30 13q19 0 32 -13t13 -32q0 -20 -13 -33.5t-32 -13.5q-18 0 -30.5 13.5t-12.5 33.5z" />
<glyph unicode="/" horiz-adv-x="438" d="M76 143l243 996l3 2l2 -2q-193 -790 -219 -895t-27 -105q-2 0 -2 4z" />
<glyph unicode="0" horiz-adv-x="385" d="M0 537q0 101 20.5 194t60 155t89.5 62q86 0 133 -125q41 -106 41 -270q0 -97 -15.5 -184t-48.5 -146t-77 -59q-102 0 -156 117q-47 96 -47 256zM35 551q0 -161 41 -264q45 -117 127 -117q61 0 98 116t37 267q0 165 -41 268q-45 123 -127 123q-40 0 -71.5 -59.5 t-47.5 -148.5t-16 -185z" />
<glyph unicode="1" horiz-adv-x="282" d="M2 190v5q38 13 121 2h4q-14 36 25 362q2 24 7.5 75t8.5 78t6.5 69t5 66t2 50.5t-2 41t-7.5 19.5q-3 3 -4 3q-13 0 -29 -16t-30 -39t-26 -46t-20 -39l-8 -16l-2 -2l-2 2l4 9q4 9 9 20t13 26t16 29t17.5 28.5t19 25.5t19.5 17.5t19 6.5q7 0 16 -9q19 -22 21.5 -103.5 t-5.5 -178.5t-21.5 -206t-23.5 -175.5t-16 -97.5q68 -9 101 -7q2 0 2 -2t-2 -2q-6 -2 -19 -2q-7 0 -82 6l-2 -2q-1 0 -6 5h-8q-81 10 -119 -5q-2 0 -2 2z" />
<glyph unicode="2" horiz-adv-x="462" d="M0 211q0 22 30 42.5t66 20.5q30 0 60 -12q46 48 96 141q49 95 77.5 199.5t28.5 188.5q0 35 -6 65t-20 59t-42.5 45.5t-68.5 16.5q-61 0 -99 -51.5t-38 -118.5q0 -47 21.5 -81t68.5 -34q2 0 2 -4q0 -2 -2 -2q-48 0 -72 36.5t-24 84.5q0 67 37 117q38 57 106 57 q87 0 131 -59q41 -53 41 -148q0 -84 -31.5 -186t-85.5 -195q-48 -83 -104 -139q5 -2 33 -16q26 -15 44.5 -23t46.5 -16.5t59 -8t65 10.5l2 -2q0 -4 -2 -4q-38 -9 -68 -9q-65 0 -149 47q-30 15 -35 17q-72 -62 -131 -62q-17 0 -27 7t-10 16zM6 211q0 -16 31 -16q55 0 115 63 q-27 12 -56 12q-35 0 -62.5 -20t-27.5 -39z" />
<glyph unicode="3" horiz-adv-x="417" d="M2 375.5q4 42.5 29 73.5h2q2 -2 2 -5q-25 -29 -28 -70t16 -79q46 -94 151 -94q76 0 124 66t48 149q0 53 -25 99t-75 65q-52 -52 -107 -52q-17 0 -28 7t-11 14q0 18 23.5 32.5t56.5 14.5q17 0 25 -2q4 0 11 -1t11 -1q2 2 11.5 17.5t15.5 23.5q51 100 51 201q0 24 -4 45.5 t-14.5 45.5t-34 38t-57.5 14q-62 0 -100 -51.5t-38 -118.5q0 -47 21.5 -81t68.5 -34q3 0 3 -4q-1 -2 -3 -2q-48 0 -72 36.5t-24 84.5q0 67 37 117q38 57 107 57q71 0 108 -49q33 -51 33 -119q0 -62 -23 -124.5t-63 -104.5q60 -21 93.5 -74.5t33.5 -116.5q0 -79 -49 -137 q-55 -61 -154 -61q-52 0 -93 25.5t-63 70.5q-20 42 -16 84.5zM106 549q0 -7 7 -10q10 -7 26 -7q2 0 6 1.5t5 1.5q37 6 73 51q-12 4 -20 4q-3 0 -11 1t-12 1q-31 0 -52.5 -14.5t-21.5 -28.5z" />
<glyph unicode="4" horiz-adv-x="473" d="M2 479q-3 10 12 25q34 29 76 45q26 46 33 63q55 137 55 246q0 119 -69 119q-32 0 -52 -27t-20 -61q0 -23 11.5 -40.5t35.5 -17.5q2 -2 2 -4l-2 -2q-23 0 -37 17.5t-14 46.5q0 36 21 64t55 28q52 0 79 -35t27 -100q0 -67 -26 -146.5t-66 -140.5q102 30 219 0q12 67 35 164 q43 207 35 219h-2q-2 0 -2 2t2 2q8 0 10 -4q25 -31 -35 -344q-1 -7 -4 -24t-4 -27q27 -9 39 -15l2 -2q0 -2 -4 -2q-18 9 -39 15q-14 -79 -20 -118.5t-13 -96t-5.5 -87t11.5 -42.5q2 -4 10 -4l2 -2q30 -3 68 -3q4 0 4 -2t-4 -2q-6 -2 -18 -2q-29 0 -99 9q-80 10 -118 -5 q-3 0 -3 2t3 5q35 13 120 2q4 0 12.5 -1t12.5 -1q-4 2 -10 8q-44 55 12 350q-117 30 -223 0q-55 -78 -105 -78q-6 0 -10 4zM8 481q0 -2 4 -2q2 0 5.5 1t5.5 1q28 6 61 60q-46 -21 -66 -41q-13 -13 -10 -19z" />
<glyph unicode="5" horiz-adv-x="444" d="M23 446q0 3 4 3q2 -3 0 -5q-43 -91 4 -163q22 -36 58.5 -58t66.5 -22q90 0 138 65.5t48 153.5q0 75 -35 136.5t-102 80.5q-6 -20 -19 -33q-8 -8 -22 -8q-13 0 -33 10q-12 0 -21.5 6t-9.5 15t15 14q12 6 41 6h16q9 38 -6.5 112.5t-33.5 128t-21 56.5v2h2h2h6 q210 -24 280 4l2 -2q0 -4 -2 -4q-71 -27 -266 -6q23 -16 47 -76q18 -52 25.5 -113t-0.5 -106q75 -13 121 -65q55 -61 55 -154t-60.5 -161t-166.5 -68q-31 0 -69 23t-62 61q-45 79 -2 167zM106 627q0 -6 8 -11.5t19 -5.5q17 0 31 17q1 2 3 7t3 7q-2 0 -6.5 1t-7.5 1 q-27 0 -39 -6q-11 -5 -11 -10z" />
<glyph unicode="6" horiz-adv-x="391" d="M0 391q0 84 28 181.5t76 181.5q54 94 117.5 145t126.5 51q2 0 2 -4q0 -2 -2 -2q-54 0 -109.5 -53t-105.5 -150q-78 -157 -94 -309q5 14 27 49q28 41 65 64.5t74 23.5q53 0 78.5 -45.5t25.5 -107.5q0 -90 -44.5 -159t-114.5 -69q-72 0 -111 52.5t-39 150.5zM35 371 q0 -82 26 -127q24 -43 72 -49h17q71 0 114 71q39 61 39 150q0 59 -24 104t-74 45q-35 0 -71 -23.5t-64 -64.5q-21 -30 -33 -65q-2 -14 -2 -41z" />
<glyph unicode="7" horiz-adv-x="497" d="M0 889q0 36 21 64t55 28q23 0 141 -33q49 -17 107 -30q39 28 73 28q25 0 45 -4q15 -8 15 -16q0 -9 -17.5 -17t-40.5 -8q-25 0 -59 6q-48 -53 -102 -190q83 11 114 -33v-2q0 -2 -2 -2q0 2 -2 2q-30 39 -112 29q-2 -6 -7.5 -19.5t-7.5 -19.5q-40 -112 -65 -227.5 t-25 -184.5q0 -34 6 -49q5 -16 19 -16q2 -3 2 -5l-2 -2q-26 0 -39 33q-13 32 -13 86q0 79 23.5 188t62.5 207q-8 -2 -20 -6q-70 -16 -96 -16q-2 2 -2 4l2 2q28 0 94 16q4 1 12.5 2.5t12.5 2.5q58 147 126 206q-6 1 -104 29q-107 35 -139 35t-52 -27t-20 -61 q0 -23 11.5 -40.5t35.5 -17.5q2 -2 2 -4l-2 -2q-24 0 -37.5 17t-13.5 47zM344 911q5 0 25.5 -3t29.5 -3q23 0 38.5 7t15.5 14t-13 10q-15 6 -43 6q-25 0 -53 -31z" />
<glyph unicode="8" horiz-adv-x="380" d="M-0.5 307q-1.5 26 10 61t23 62.5t39 74t43 71t49.5 77.5l4 6q-54 95 -79 164.5t-1 110.5q26 47 125 47q88 0 109 -41q7 -13 7.5 -30.5t-3.5 -35t-15.5 -42.5t-22 -45t-29.5 -51t-32.5 -52t-36.5 -55q15 -25 19 -33q24 -41 39.5 -68.5t35.5 -65t30.5 -65t18.5 -57t6.5 -53 t-11.5 -41.5q-29 -51 -138 -51q-20 0 -30 2q-119 6 -148 63q-11 21 -12.5 47zM25.5 293.5q0.5 -21.5 9.5 -37.5q24 -49 125 -55h30q106 0 134 47q10 17 11.5 39.5t-8 53.5t-17.5 54.5t-31 66t-34.5 63t-39.5 69.5q-3 5 -9.5 15.5t-9.5 15.5l-2 -4q-25 -37 -40.5 -61t-37 -59 t-34 -59.5t-25.5 -54t-17.5 -51t-4 -43zM92 932q-22 -38 1.5 -105t76.5 -163q96 149 116 204q20 52 5 78q-15 31 -78 31q-93 0 -121 -45z" />
<glyph unicode="9" horiz-adv-x="391" d="M0 190q0 5 2 5q54 0 109.5 52.5t105.5 149.5q78 157 94 310q-8 -21 -26 -50q-28 -41 -65.5 -65.5t-74.5 -24.5q-52 0 -77 46.5t-25 109.5q0 87 39 154q44 73 119 73q72 0 110.5 -52.5t38.5 -149.5q0 -84 -28 -181.5t-76 -183.5q-54 -93 -117.5 -144t-126.5 -51zM47 723 q0 -60 24 -105t74 -45q35 0 71.5 23t64.5 63q19 32 32 68q2 14 2 41q0 82 -26 127q-24 43 -72 49h-16q-71 0 -115 -72q-39 -64 -39 -149z" />
<glyph unicode=":" horiz-adv-x="221" d="M70 451q0 19 13 32t30 13q19 0 32 -13t13 -32q0 -20 -13 -34t-32 -14q-17 0 -30 14t-13 34zM70 754q0 20 12.5 33.5t30.5 13.5q19 0 32 -13.5t13 -33.5q0 -19 -13 -32t-32 -13q-17 0 -30 13t-13 32z" />
<glyph unicode=";" horiz-adv-x="141" d="M10 451q0 19 12 32t31 13t31 -13t12 -32v-2q-1 -35 -17.5 -72t-32 -56.5t-17.5 -19.5v-2q-2 0 -2 2v2l5 7q6 6 14 17.5t16.5 25.5t15.5 33.5t10 37.5q-10 -21 -35 -21q-19 0 -31 14t-12 34zM10 754q0 20 12 33.5t31 13.5t31 -13.5t12 -33.5q0 -19 -12 -32t-31 -13t-31 13 t-12 32z" />
<glyph unicode="&#x3c;" horiz-adv-x="325" d="M25 610v2v2l213 187h4v-4l-211 -185l211 -182v-4h-2h-2z" />
<glyph unicode="=" horiz-adv-x="344" d="M29 571l2 2h258q2 0 2 -2t-2 -2h-258zM29 653l2 2h258q2 0 2 -2t-2 -2h-258z" />
<glyph unicode="&#x3e;" horiz-adv-x="325" d="M25 426v4l211 182l-211 185v4h4l213 -187v-2v-2l-213 -184h-2h-2z" />
<glyph unicode="?" horiz-adv-x="536" d="M33 930q0 88 59 160q68 77 174 77q136 0 176 -69q20 -33 20 -80.5t-14.5 -97.5t-40 -109t-52 -110.5t-56.5 -106.5q-5 -9 -8 -14q-26 -48 -37.5 -69.5t-27 -54.5t-19.5 -50t0 -25q2 -2 12 -10q-17 3 -22 10q-12 21 8 81t69 167q30 67 48 109t42 106.5t32.5 108.5 t7.5 88.5t-19 72.5q-30 49 -119 49q-56 0 -101.5 -22.5t-72 -58t-40 -75t-13.5 -77.5q0 -59 28.5 -94t77.5 -35l2 -2q0 -4 -2 -4q-51 0 -81.5 37t-30.5 98zM176 141q0 20 12 33.5t31 13.5t31 -13.5t12 -33.5q0 -19 -12 -32t-31 -13t-31 13t-12 32z" />
<glyph unicode="@" horiz-adv-x="747" d="M27 383q0 173 90 299q96 141 256 141q136 0 200 -82q58 -71 58 -184q0 -79 -24.5 -158t-63.5 -129.5t-78 -50.5q-2 0 -2 2q-21 0 -37 19q-19 23 -23.5 74.5t-1 85.5t8.5 63q-112 -98 -170 -123q-20 -8 -29 -8t-16 10q-7 7 -7 20q0 38 30.5 102.5t75.5 116.5t79 52 q32 0 49 -29q27 -36 -2 -100h-4l-2 2q27 58 4 96q-9 14 -25 21q-29 -2 -99.5 -105.5t-70.5 -152.5q0 -11 4 -15q2 -4 13 -4q28 12 71 43.5t72 56.5t29 27h43v-2l-3 -11q-2 -11 -5.5 -28.5t-7.5 -39t-6.5 -45t-2.5 -44.5t3 -39t11 -28q11 -11 21 -11h2q36 1 73 51.5t61 128 t24 152.5q0 114 -56 182q-65 80 -196 80q-88 0 -160 -68.5t-109.5 -172.5t-37.5 -216q0 -144 61 -229q66 -97 188 -100h9q58 0 114 20t94 48t68 57t44.5 48t14.5 21l5 2q2 -2 0 -4q0 -2 -15 -21.5t-45.5 -49t-69 -58t-95 -49t-115.5 -20.5h-9q-62 2 -111.5 24t-82 57 t-54.5 81.5t-31 94.5t-9 99z" />
<glyph unicode="A" d="M0 555q0 150 54.5 300t150.5 265q43 53 96.5 99t127.5 89t171.5 68t206.5 25h39q261 0 383 -258q110 174 289 174q2 0 2 -2t-2 -2q-177 0 -287 -176q33 -74 57.5 -177.5t35 -176t24.5 -197.5q3 -23 4 -35q105 7 141 43q23 20 23 51q0 2 2 2l2 -2q0 -32 -23 -55 q-39 -36 -145 -43q5 -49 8 -76.5t8.5 -71.5t10 -69.5t11.5 -61.5t14 -57t16.5 -47t21 -40.5t25 -28t30 -19.5t35.5 -6q2 0 2 -2t-2 -2h-12q0 -3 -2 -3q-40 0 -71.5 16.5t-53.5 51.5t-37.5 73.5t-27 100.5t-18 112t-14.5 128h-9q-60 0 -234 12q-4 0 -12 1t-11 1 q-62 -208 -115 -303q-111 -193 -288 -193q-70 0 -110 60t-40 141q0 124 82 209q92 100 268 100q82 0 199 -10l33 117q25 96 41.5 152t44.5 133t57 133q-108 299 -395 299q-108 0 -205 -25t-170.5 -68t-126.5 -88t-96 -98q-97 -117 -151 -265.5t-54 -297.5q0 -223 111 -355 t299 -132q2 0 2 -2l-2 -3q-201 0 -314 146q-100 130 -100 346zM481 264q0 -78 39.5 -137t106.5 -59t123 27t94.5 68t73.5 109.5t57.5 132.5t48.5 154q-170 10 -197 10q-171 0 -266 -100q-80 -87 -80 -205zM1032 563q13 0 21 -2q168 -12 243 -12q-4 24 -4 39q-32 346 -88 504 q-39 -74 -71 -175t-87 -302q-9 -34 -14 -52z" />
<glyph unicode="B" horiz-adv-x="1683" d="M0 555q0 150 54.5 300t150.5 265q44 54 97.5 99.5t127.5 88.5t171 68t206 25q25 0 37 -2q0 2 2 2q163 0 262 -176q72 92 156 92q102 0 155 -53q47 -47 47 -125q0 -59 -26.5 -122.5t-69.5 -109.5q97 -56 154 -171.5t57 -243.5q0 -178 -102 -295q-118 -134 -332 -134 q-2 0 -2 5q0 2 2 2q189 0 295 133q94 117 94 295q0 120 -48 228t-134 165q-62 -55 -131 -55q-2 -9 -0.5 -38.5t5 -78t3.5 -60.5q0 -151 -26 -286.5t-80 -226.5t-126 -91q-42 0 -61.5 96.5t-19.5 235.5q0 331 81 604q34 113 84 197q-101 209 -276 209q-159 0 -295 -54.5 t-227.5 -142t-156.5 -199t-94.5 -225t-29.5 -221.5q0 -221 112 -354t298 -133q2 0 2 -2q0 -3 -2 -3q-202 0 -312 146q-102 129 -102 346zM922 387q0 -149 21 -238.5t56 -89.5q56 0 99.5 86.5t65.5 217t22 276.5q0 94 -10 199q-31 0 -52 14q-20 14 -20 37q0 18 14 32.5 t41 20.5q-22 123 -61 211q-6 15 -13 29q-45 -73 -79 -193q-84 -273 -84 -602zM1108 889q0 -21 18 -33q16 -11 50 -14q-2 17 -7.5 49.5t-7.5 46.5q-25 -6 -39 -19.5t-14 -29.5zM1112 1221q4 -8 9 -17.5t11 -21.5t9 -19q43 -99 63 -219h23q63 0 110 -20q40 46 64 107.5 t24 119.5q0 73 -36 115q-44 47 -125 47t-152 -92zM1206 940q9 -44 15 -94q55 12 104 61q-59 30 -119 33z" />
<glyph unicode="C" horiz-adv-x="1617" d="M5 552q19 162 114 300q111 160 291 232q130 52 279 52q58 0 118 -8q89 -12 201 -12q99 137 207 211t210 74h19q67 0 84 -41q6 -11 6 -24q0 -22 -18 -52q-42 -60 -161 -111t-292 -61q-13 -18 -31 -47q-90 -146 -142 -314t-52 -313q0 -47 6 -91.5t26 -97t52 -90t90 -63.5 t135 -26q148 0 342 206h2l2 -2q-199 -211 -346 -211q-181 0 -277 101.5t-96 290.5q0 141 56 308t151 312q15 22 25 35q-91 0 -199 12q-61 8 -120 8q-147 0 -275 -51q-178 -71 -289 -229q-95 -137 -113 -298q-4 -35 -4 -69q0 -120 51 -217q50 -95 142 -146.5t215 -51.5 q2 0 2 -2l-2 -3q-124 0 -217 52t-146 149q-50 98 -50 217q0 34 4 71zM1067 1118q169 10 285.5 60t158.5 110q18 27 18 49q0 11 -5 21q-15 34 -80 37q-95 -6 -192.5 -78t-184.5 -199z" />
<glyph unicode="D" horiz-adv-x="1736" d="M0 555q0 150 54.5 300t150.5 265q44 54 97.5 99.5t127.5 88.5t171 68t206 25q188 0 303 -174q70 90 154 90q92 0 164.5 -94.5t108.5 -237t36 -301.5q0 -254 -90 -426q-105 -195 -336 -195q-2 0 -2 5q0 2 2 2q188 0 287 190q86 166 86 424q0 154 -31 297t-91 237.5 t-134 94.5q-84 0 -150 -90q15 -24 31 -56q100 -202 100 -497q0 -154 -28.5 -292.5t-86 -230.5t-131.5 -92q-42 0 -61.5 96.5t-19.5 235.5q0 331 81 604q34 113 84 197q-101 209 -276 209q-159 0 -295 -54.5t-227.5 -142t-156.5 -199t-94.5 -225t-29.5 -221.5 q0 -221 112 -354t298 -133q2 0 2 -2q0 -3 -2 -3q-202 0 -312 146q-102 129 -102 346zM922 387q0 -149 21 -238.5t56 -89.5q56 0 99.5 86.5t65.5 217t22 276.5q0 309 -88 514q-6 15 -13 29q-45 -73 -79 -193q-84 -273 -84 -602z" />
<glyph unicode="E" horiz-adv-x="1617" d="M5 552q19 162 114 300q111 160 291 232q130 52 279 52q58 0 118 -8q94 -12 185 -12q38 0 75 2q28 55 72 115q65 80 139.5 124t146.5 44q85 0 103 -41q6 -11 6 -24q0 -22 -18 -52q-39 -55 -143 -102.5t-255 -63.5q-55 -117 -55 -196q0 -17 4 -41q43 16 80 16q14 0 28.5 -2 t32 -6.5t28.5 -15t11 -25.5q0 -31 -31.5 -44t-68.5 -13q-65 0 -100 38q-2 2 -5 6t-4 5q-103 -68 -173 -204t-70 -265q0 -135 79 -211q90 -90 273 -90q148 0 350 217q2 2 4 0v-4q-201 -220 -354 -220q-203 0 -309 95q-90 84 -90 223q0 85 33 176.5t91 169.5q68 88 154 135 q-12 27 -12 68q0 85 51 182q-37 -2 -75 -2q-91 0 -183 12q-61 8 -120 8q-147 0 -275 -51q-178 -71 -289 -229q-95 -137 -113 -298q-4 -35 -4 -69q0 -120 51 -217q50 -95 142 -146.5t215 -51.5q2 0 2 -2l-2 -3q-124 0 -218 52t-145 149q-50 98 -50 217q0 34 4 71zM1073 862 q6 -18 19 -31q16 -19 52 -27q16 -3 30 -3q20 -1 38 5q32 10 31 42q1 24 -35 30q-17 3 -35 3q-21 1 -41 -3q-40 -6 -59 -16zM1120 1122q149 16 251 63.5t140 102.5q18 27 18 49q0 11 -5 21q-19 39 -99 39q-76 0 -162 -81.5t-143 -193.5z" />
<glyph unicode="F" horiz-adv-x="1472" d="M5 610q22 194 132 353q18 26 38.5 50t50.5 53.5t62.5 53t75 49t89 41t103.5 28.5q56 14 118 14h8q58 0 125 -7q134 -18 256 -24q73 96 207 96q2 0 2 -2l-2 -2q-112 0 -168 -94q49 -2 96 -2q188 -1 332 29q180 36 270 116q76 67 76 160l2 2q4 0 4 -2q0 -96 -80 -164 q-90 -80 -272 -117q-143 -29 -329 -29q-50 0 -103 2q-40 -69 -55 -176t-23 -274q9 -1 59 -6q81 -11 155 -11q14 1 28 1q86 2 116 32q25 22 25 62l2 2q4 0 4 -2q0 -42 -27 -66q-34 -30 -120 -32q-14 0 -28 -1q-74 0 -157 11q-9 1 -28.5 2t-28.5 2q-2 -4 -2 -15 q-5 -107 -9.5 -169t-18 -147.5t-34.5 -145.5q-80 -218 -292 -218q-71 0 -111.5 83t-40.5 196q0 171 82 289q93 141 268 141q30 0 96 -4q9 160 30 269t71 180q-104 5 -252 22q-72 7 -133 7h-4q-60 0 -114 -14q-56 -14 -102 -29t-88.5 -40t-74.5 -48.5t-61.5 -53t-50 -53.5 t-38.5 -50q-109 -158 -131 -350q-5 -43 -5 -83q0 -141 58 -255q108 -202 349 -202q4 0 4 -2q0 -3 -4 -3q-119 0 -210 52.5t-143 152.5q-59 115 -59 257q0 42 5 85zM516 342q0 -109 40 -191.5t108 -82.5q89 0 147 46.5t90 143.5q18 54 29.5 130.5t15.5 136.5t8 155q1 14 2 41 t2 41q-66 4 -96 4q-171 0 -264 -137q-82 -122 -82 -287z" />
<glyph unicode="G" d="M4 552q19 161 115 300q110 159 291 232q130 52 279 52q58 0 118 -8q99 -12 184 -12q104 135 218.5 210t215.5 75q82 0 103 -41q6 -11 6 -24q0 -23 -18 -52q-44 -62 -168.5 -113.5t-303.5 -58.5q-34 -49 -47 -72q-103 -163 -162 -337t-59 -314q0 -149 68 -229 q75 -90 225 -90q87 0 161 55t128 131q9 228 27.5 341.5t64.5 113.5q29 0 45 -25q12 -21 12 -63q0 -62 -28.5 -147t-75.5 -163v-20q0 -84 -2 -127q68 83 82 100h4q4 0 0 -4q-45 -51 -86 -104q-1 -96 -4.5 -170t-10.5 -159t-21 -146t-35 -113.5t-53 -79.5t-73 -27 q-46 0 -69 50q-14 31 -14 74q0 65 33 159q53 156 200 356q0 47 2 70q0 12 1 37t1 37q-135 -183 -289 -183q-170 0 -261 92t-91 263q0 141 62 313.5t169 325.5q6 9 39 53q-120 4 -180 12q-61 8 -120 8q-147 0 -275 -51q-179 -71 -289 -229q-95 -136 -114 -298q-4 -37 -4 -71 q0 -119 50 -215q51 -95 143.5 -146.5t213.5 -51.5q4 0 4 -2q0 -3 -4 -3q-123 0 -216.5 52t-144.5 149q-51 99 -51 218q0 34 4 70zM1049 1116q177 8 297.5 59t164.5 113q18 27 18 49q0 11 -5 21q-19 39 -99 39q-84 0 -182 -73.5t-194 -207.5zM1141 -485q19 -45 63 -45 q28 0 50.5 24t37.5 71t26 101t17.5 131t10 143t6.5 154q-144 -197 -196 -350q-30 -91 -30 -154q0 -44 15 -75zM1403 324q45 78 72.5 159t27.5 140q0 40 -12 61q-16 23 -41 23q-15 0 -25 -26.5t-14 -90t-5.5 -114.5t-2.5 -152z" />
<glyph unicode="H" horiz-adv-x="1632" d="M0 543q0 150 53.5 301.5t149.5 271.5q42 54 93.5 100.5t122.5 90.5t164 69t197 25q161 0 242 -152q70 -134 70 -354q0 -170 -37 -334q144 -10 220 -10h23q0 280 74 526q37 127 82 194.5t92 67.5q4 0 4 -2t-4 -2q-43 0 -87.5 -116.5t-74.5 -299t-34 -366.5q98 6 135 41 q20 20 20 51q2 2 4 2l2 -2q0 -33 -22 -55q-38 -33 -139 -43v-39q0 -202 36 -311q40 -129 123 -129q2 0 2 -2l-2 -3q-107 0 -163 144q-48 127 -48 338q-75 0 -243 12q-30 -135 -75 -245t-104.5 -179.5t-119.5 -69.5q-70 0 -105 62.5t-35 144.5q0 115 52 205q59 98 151 98 q55 0 187 -8q38 224 38 336q0 202 -61 344q-34 74 -86 113t-117 39q-139 0 -263.5 -49t-216.5 -133t-159 -193t-101 -232t-34 -247q0 -206 96 -334q110 -141 304 -141q2 0 2 -2l-2 -3q-197 0 -308 142q-98 134 -98 338zM621 270q0 -50 12.5 -93.5t44.5 -76t78 -32.5 q51 0 101 70t93 200q37 108 54 221q-105 10 -185 10q-89 0 -143.5 -90.5t-54.5 -208.5z" />
<glyph unicode="I" horiz-adv-x="1210" d="M0 545q0 150 53 300.5t148 270.5q43 55 95 101t122.5 90t163.5 69t196 25q160 0 240 -160q69 -141 69 -371q0 -293 -96 -542q-106 -265 -235 -265q-45 0 -66 27q-20 20 -20 66q0 53 30 124t76 134.5t108.5 109t121.5 49.5q28 162 28 318q0 224 -59 354q-65 152 -197 152 q-139 0 -263 -49t-216 -133t-159.5 -193t-101.5 -231.5t-34 -245.5q0 -205 98 -336q107 -141 301 -141q3 0 3 -2q0 -3 -3 -3q-194 0 -305 142q-98 128 -98 340zM676 156q0 -43 18 -64q18 -24 62 -24q50 0 100.5 71t91.5 199q38 117 58 229q-58 -4 -119.5 -49t-106.5 -107.5 t-74.5 -132.5t-29.5 -122z" />
<glyph unicode="J" horiz-adv-x="1286" d="M0 543q0 150 53.5 301.5t149.5 271.5q42 54 93.5 100.5t122.5 90.5t164 69t197 25q157 0 234 -205q67 -177 67 -487q0 -203 -28 -422v-2q-30 -216 -80.5 -399.5t-117.5 -301.5t-134 -121h-2q-41 0 -60 39q-12 26 -12 63q0 79 55 211q81 191 283 437q35 262 35 510 q0 304 -55 475q-62 199 -185 199q-139 0 -263.5 -49t-216.5 -133t-159 -193t-101 -232t-34 -247q0 -206 96 -334q110 -141 301 -141q5 0 5 -2q0 -3 -5 -3q-194 0 -305 142q-98 134 -98 338zM664 -496q18 -34 55 -34q53 0 107 109t100 308q37 158 57 316q-185 -229 -272 -422 q-58 -135 -58 -216q0 -36 11 -61z" />
<glyph unicode="K" horiz-adv-x="1593" d="M0 545q0 149 54 300t149 271q42 54 93.5 100.5t122.5 90.5t164 69t197 25q159 0 240 -158q72 -138 72 -366q0 -19 -5 -101q15 17 45 53t46 54q83 101 128 156.5t98.5 125.5t77 111t23.5 61q0 2 4 2q2 0 2 -2q0 -57 -57.5 -153t-117.5 -168.5t-149.5 -173.5t-99.5 -113 q-2 -25 -4.5 -46t-7 -46.5t-6.5 -37t-10 -45.5t-10 -44q48 -113 139 -223q87 -105 170.5 -162t150.5 -57q2 0 2 -2l-2 -3q-61 0 -121 21t-109 55.5t-84 67t-65 67.5q-57 66 -104 154q-48 -163 -119 -264t-151 -101q-65 0 -80 37q-6 13 -6 32q0 26 12 61q21 61 75 144.5 t117 168t150 190.5q10 110 10 195q0 222 -57 354q-68 152 -197 152q-139 0 -263.5 -49t-216.5 -133t-159 -193t-101 -231.5t-34 -245.5q0 -72 13 -138.5t43 -129t75 -108.5t114 -73.5t155 -27.5q2 0 2 -2l-2 -3q-197 0 -308 142q-98 134 -98 340zM680 102q15 -34 76 -34 q51 0 101 70t93 200q26 82 43 164q-20 53 -20 96q0 21 6 33q-305 -380 -304 -501q-1 -16 5 -28z" />
<glyph unicode="L" horiz-adv-x="1878" d="M0 545q0 149 53.5 299.5t147.5 271.5q43 55 95 101t123 90t164 69t197 25q153 0 234 -158q67 -134 67 -369q0 -149 -29.5 -304t-80.5 -277q11 -7 33 -22.5t34 -22.5q48 -34 78 -54t76.5 -45t93 -38.5t94.5 -16.5q12 -1 24 -1q217 0 472 255q2 2 4 0v-2 q-88 -86 -171 -141.5t-144.5 -87t-135 -31.5t-113 2.5t-111 38t-96 51.5t-98.5 67q-31 21 -46 31q-90 -213 -209 -213q-71 0 -113 39q-37 40 -37 93q0 65 52 115t139 50q61 0 143 -47q94 274 94 578q0 224 -59 354q-65 152 -195 152q-173 0 -322 -75.5t-246.5 -197 t-152.5 -273t-55 -306.5q0 -91 21.5 -172.5t66.5 -151.5t125 -111.5t186 -41.5q3 0 3 -2q0 -3 -3 -3q-195 0 -305 144q-98 125 -98 338zM612 195q0 -54 35 -89q38 -38 109 -38q97 0 176 227q-48 36 -106 45q-21 3 -41 3q-33 1 -63 -9q-46 -16 -78 -53t-32 -86z" />
<glyph unicode="M" horiz-adv-x="2013" d="M0 545q0 149 54 300t149 271q42 54 93.5 100.5t122.5 90.5t164 69t197 25q173 0 258 -168q16 -31 28 -77.5t17 -79t13 -97.5q88 47 168 47q124 0 188 -117q21 -46 25 -59q37 77 76 148t94 155t113 135t108 51q24 0 39 -18q17 -19 21 -55q2 -12 1 -28q0 -30 -6 -74 q-9 -66 -17.5 -113t-30 -148.5t-30.5 -148.5q-65 -323 -65 -493q0 -125 35 -169q21 -21 49 -24h4q4 0 4 -2q0 -3 -4 -3q-55 0 -88 39q-34 42 -42 125q-3 28 -2 61q0 64 10 146q16 124 34.5 215.5t50.5 235.5q22 96 34.5 156.5t23.5 126.5q10 60 10 98v7q-1 39 -13 54 q-8 8 -18 8q-75 0 -177 -129t-212 -364q26 -79 26 -201q0 -204 -69 -389q-36 -90 -78 -139.5t-84 -49.5q-13 0 -23 17q-6 15 -6 45q0 89 56.5 273t142.5 378q-12 70 -33 123q-49 121 -147 121q-79 0 -168 -47q6 -65 6 -135q0 -310 -82 -521q-47 -123 -105 -188.5t-120 -65.5 q-43 0 -64 46q-20 39 -20 114q0 109 38.5 245t118 270.5t179.5 209.5q-12 174 -60 281q-71 168 -207 168q-139 0 -263.5 -49t-216.5 -133t-159 -193t-101 -231.5t-34 -245.5q0 -91 21.5 -172.5t66.5 -151.5t124.5 -111.5t184.5 -41.5q5 0 5 -2q0 -3 -5 -3q-195 0 -305 144 q-98 131 -98 338zM715 223q0 -67 20 -112q21 -43 60 -43q68 0 128 121t94 299.5t34 355.5q0 32 -4 98q-100 -77 -183 -219q-66 -116 -107.5 -254t-41.5 -246zM1249 125q0 -28 6 -43q7 -14 19 -14q49 0 91.5 85t65.5 211t23 254q0 94 -10 150q-85 -194 -140 -375t-55 -268z " />
<glyph unicode="N" horiz-adv-x="1683" d="M0 545q0 149 53.5 299.5t147.5 271.5q43 55 95 101t123 90t164 69t197 25q156 0 240 -158q42 -86 61 -217q235 313 437 313q34 0 55 -24q23 -27 27 -83q1 -16 1 -34q-1 -45 -9 -103q-12 -80 -28.5 -164t-39.5 -189q-4 -17 -6 -25q-20 -87 -30.5 -134t-26 -124 t-20.5 -123.5t-9 -99.5q-1 -17 -1 -32q-1 -32 5 -56q8 -34 24 -54q20 -23 53 -26h5q2 0 2 -2q0 -3 -2 -3h-5q-52 0 -83 39t-39 114q-3 27 -3 58q0 54 9 118q14 101 33 197t46 215q10 43 15 64q59 271 59 385q0 56 -14 74q-8 8 -18 8q-98 0 -210 -82t-227 -235q9 -68 9 -141 q0 -185 -44 -372.5t-123 -314.5t-167 -127q-25 0 -41 25q-13 23 -13 64q0 126 95.5 362t234.5 442q-6 178 -57 289q-65 152 -195 152q-173 0 -322 -75.5t-246.5 -197t-152.5 -273t-55 -306.5q0 -205 98 -336q107 -141 301 -141q3 0 3 -2q0 -3 -3 -3q-195 0 -305 144 q-98 125 -98 338zM709 152q0 -39 10 -62q13 -22 37 -22q51 0 101 70.5t91 199.5q86 266 86 553q0 39 -2 57q-44 -68 -61 -98q-112 -187 -187 -387t-75 -311z" />
<glyph unicode="O" horiz-adv-x="1634" d="M0 354q0 80 33 166.5t100 171t157.5 156t215.5 124t264 72.5q20 64 49 127q117 230 299 230q100 0 176 -53.5t76 -122.5q0 -75 -98 -119q-113 -55 -338 -55q-78 0 -115 -4q-51 -178 -51 -379q0 -108 17 -208t52 -189t97 -143.5t143 -57.5h8q66 0 137 48.5t134 137.5 q96 141 139 330q-65 81 -105 170q-42 88 -54 162q-9 54 -9 101q-1 17 1 33q4 60 24 97q21 39 47 39h4q42 -3 70 -82q52 -144 51 -301q0 -107 -23 -219v-2q-44 -192 -141 -332q-63 -89 -135.5 -139t-139.5 -50q-5 0 -8 3q-176 3 -272 188q-90 172 -90 424q0 194 53 362 q-138 -20 -261.5 -72.5t-213.5 -123.5t-155.5 -155t-98.5 -170t-33 -165q0 -127 84 -202q90 -84 264 -84q2 0 2 -2l-2 -3q-175 0 -268 84q-86 77 -86 207zM821 1051q56 6 113 6q221 0 336 53q96 46 96 115q0 66 -76.5 119t-171.5 53q-99 0 -175.5 -94.5t-121.5 -251.5z M1333 1050q-1 -15 -1 -30q0 -47 9 -101q12 -73 52 -160t104 -167q23 106 23 208q0 156 -54 304q-12 36 -29 57t-34 23h-2q-26 0 -45 -37q-19 -39 -23 -97z" />
<glyph unicode="P" horiz-adv-x="1681" d="M0 555q0 150 54.5 300t150.5 265q44 54 97.5 99.5t127.5 88.5t171.5 68t207.5 25q168 0 281 -150q75 66 174 66q166 0 256 -78q79 -70 79 -180q0 -132 -101 -246t-255 -135q2 -8 2 -27q0 -148 -25.5 -279t-80.5 -220t-127 -89q-51 0 -87 145t-36 349q0 306 82 512 q40 98 94 158q-101 170 -256 170q-115 0 -219 -28.5t-184 -77.5t-147 -115.5t-113.5 -142.5t-79 -158.5t-47.5 -163t-15 -156.5q0 -221 112 -354t298 -133q2 0 2 -2q0 -3 -2 -3q-197 0 -312 146q-102 133 -102 346zM895 557q0 -198 35 -343.5t82 -145.5q50 0 92 73t66 202 t24 286q0 31 -2 45h-4q-42 0 -51 20q-3 13 8 27q17 17 45 24q-16 241 -86 404q-13 34 -37 74q-48 -54 -92 -156q-80 -209 -80 -510zM1092 1247q38 -57 51 -86q83 -174 98 -407h14q55 0 113 -19q82 55 131 146t49 184q0 109 -65 174q-77 74 -219 74q-97 0 -172 -66zM1143 696 q6 -16 45 -16h4q0 41 -2 59q-27 -8 -41 -22q-8 -8 -8 -15q0 -3 2 -6zM1241 750q2 -23 2 -66q66 12 119 47q-64 19 -121 19z" />
<glyph unicode="Q" horiz-adv-x="1669" d="M0 354q0 80 33 166.5t100 171t157.5 156t215.5 124t264 72.5q20 64 49 127q117 230 299 230q100 0 176 -53.5t76 -122.5q0 -75 -98 -119q-113 -55 -338 -55q-53 0 -121 -7q-49 -168 -49 -372q0 -256 78 -418q59 -127 155 -168q-18 13 -18 41q0 29 28.5 54.5t69.5 25.5 q119 0 187 -55q49 43 92 104q105 150 147 367q-61 75 -98 161t-47 158q-7 51 -7 94q0 17 1 33q4 56 20 88q14 29 37 29q37 -3 64 -80q53 -144 53 -301q0 -88 -17 -180v-2q-41 -219 -149 -371q-45 -64 -92 -105q20 -15 39 -38t28 -37t27 -43q16 -27 24 -39.5t25 -33.5 t31.5 -29t38.5 -16.5t50.5 -5.5t63.5 12.5t82 29.5h4q0 -4 -2 -4q-94 -43 -159 -43q-32 0 -57 9t-44.5 29.5t-31 38t-29.5 48.5q-48 83 -94 120q-88 -82 -179 -82q-87 0 -160.5 52.5t-119.5 138.5q-90 172 -90 424q0 194 53 362q-138 -20 -261.5 -72.5t-213.5 -123.5 t-155.5 -155t-98.5 -170t-33 -165q0 -127 84 -202q90 -84 264 -84q2 0 2 -2l-2 -3q-175 0 -268 84q-86 77 -86 207zM815 1051q58 6 119 6q221 0 336 53q96 46 96 115q0 66 -76.5 119t-171.5 53q-158 0 -262 -230q-22 -50 -41 -116zM983 127q0 -26 23 -39q13 -7 32 -14 q32 -4 47 -4q88 0 177 77q-70 54 -185 54q-38 0 -66 -23.5t-28 -50.5zM1356 1066v-28q0 -46 8 -100q11 -71 47.5 -153.5t93.5 -153.5q16 87 16 171q0 156 -55 302q-24 75 -57 78q-19 0 -33 -27q-16 -32 -20 -89z" />
<glyph unicode="R" horiz-adv-x="1679" d="M0 555q0 150 54.5 300t150.5 265q43 53 96.5 99t127.5 89t171.5 68t206.5 25q171 0 280 -152q77 68 177 68q166 0 256 -78q77 -71 77 -184q0 -67 -29.5 -135t-82.5 -121q-83 -86 -195 -113q39 -78 92 -303q12 -50 19 -80.5t19 -72.5t22.5 -66.5t24 -49t29.5 -35.5t34 -11 q2 0 2 -2l-2 -3q-36 0 -65.5 22.5t-49.5 57.5t-38 88t-30.5 103.5t-26.5 114.5q-1 4 -1 6q-34 159 -59 225q-8 -2 -23 -2v-19q0 -150 -26 -284t-79.5 -223t-121.5 -89q-51 0 -86 144.5t-35 349.5q0 307 82 510q40 100 94 160q-104 170 -258 170q-115 0 -218.5 -28.5 t-183 -77.5t-146.5 -115.5t-113.5 -142.5t-79 -158.5t-47.5 -163t-15 -156.5q0 -222 111.5 -354.5t298.5 -132.5q2 0 2 -2l-2 -3q-199 0 -314 146q-100 130 -100 346zM893 557q0 -198 35 -343.5t82 -145.5q51 0 93 73.5t65.5 202t23.5 285.5v45h-4q-33 0 -54.5 25t-21.5 53 q0 17 10 30q13 13 35 13h4q9 0 25 -4q-18 205 -82 358l-37 74q-48 -54 -92 -156q-82 -214 -82 -510zM1092 1245q34 -53 47 -82q82 -171 94 -399q30 -27 51 -70q114 37 189 145.5t75 225.5q0 110 -67 174q-74 74 -217 74q-98 0 -172 -68zM1118 752q0 -24 20 -48t50 -24h4 l-6 102q-18 9 -29 9q-21 0 -31 -13q-8 -8 -8 -26zM1235 731q2 -16 2 -47q3 0 9.5 1t10.5 1q-2 3 -9.5 20.5t-12.5 24.5z" />
<glyph unicode="S" horiz-adv-x="1560" d="M6 553q18 163 115 299q111 160 291 232q130 52 279 52q58 0 118 -8q97 -11 184 -11q46 0 90 3q40 83 115 151.5t135.5 99t91.5 30.5q83 0 105 -39q5 -12 6 -25q0 -25 -20 -53q-38 -55 -141 -102.5t-255 -63.5q0 -4 -4 -8q-33 -75 -33 -154q0 -56 17 -114 q40 -139 172 -277q113 -120 113 -248q-1 -3 -1 -6q-2 -131 -122 -250q-64 -63 -152.5 -109.5t-183.5 -68.5q-72 -14 -117 -14q-118 0 -176 61q-28 19 -28 49q0 6 1 13q4 30 33 64.5t85.5 72.5t108 69.5t136.5 73.5t132 64t132 61l74 35q4 0 4 -2v-2q-13 -7 -40 -19.5 t-34 -15.5q-85 -39 -132.5 -61t-132.5 -63.5t-136.5 -72.5t-107.5 -69t-85 -71.5t-33 -63.5q-1 -13 7.5 -32t19.5 -28q41 -35 119 -38h18q70 0 147 20q86 24 174 73.5t148 112.5q28 28 49 60q20 31 36 78q14 43 15 87q-1 4 -1 8q-2 48 -29.5 108.5t-83.5 119.5 q-78 82 -123 163q-46 82 -56 151q-6 41 -6 77q0 24 3 46q7 54 28 104l6 12q-44 -3 -90 -3q-87 0 -182 11q-61 8 -120 8q-147 0 -275 -51q-178 -71 -289 -229q-95 -136 -114 -297q-4 -36 -5 -71q0 -118 51 -216q51 -95 143.5 -146.5t213.5 -51.5q4 0 4 -2q0 -3 -4 -3 q-123 0 -216.5 52t-144.5 149q-52 98 -52 219q1 34 5 70zM1122 1122q149 16 250 63.5t139 102.5q20 30 20 51q0 10 -5 19q-19 39 -101 39q-16 0 -53 -19t-82 -52.5t-92 -88t-76 -115.5z" />
<glyph unicode="T" horiz-adv-x="1341" d="M4 610q22 194 135 353q20 30 44 57.5t60 61t76.5 59.5t93.5 52t111 39q60 12 132 18q25 2 51 3q49 0 100 -8q90 -12 178 -18q-4 12 -8 18q-65 152 -197 152q-2 0 -2 2l2 2q161 0 240 -162q1 -1 2.5 -4l3 -6t2.5 -6q91 -6 174 -6q170 0 304 24q198 35 294 121 q78 69 78 160q0 2 2 2t2 -2q0 -95 -78 -164q-97 -86 -297 -122q-131 -24 -295 -24q-87 0 -182 7q62 -136 62 -353q0 -136 -26.5 -279t-72.5 -261q-50 -128 -110.5 -195.5t-126.5 -67.5q-43 0 -64 27q-20 20 -20 68q0 72 48.5 167t129 169t158.5 79q28 162 28 318 q0 205 -49 330q-92 6 -180 18q-51 8 -99 8q-26 -1 -51 -3q-72 -6 -130.5 -18.5t-111.5 -38t-93 -51.5t-75.5 -59.5t-59.5 -61t-44 -57.5q-111 -158 -133 -350q-5 -44 -5 -85q0 -139 58 -251q20 -39 48 -72t69.5 -64.5t101.5 -49.5t132 -18q2 0 2 -2l-2 -3q-119 0 -210.5 53 t-144.5 152q-60 115 -60 256q0 42 5 86zM678 158q0 -42 18 -66t60 -24q51 0 102 70.5t92 199.5q39 118 58 231q-59 -4 -120.5 -49t-106.5 -107.5t-74 -132t-29 -122.5z" />
<glyph unicode="U" horiz-adv-x="1630" d="M0 555q0 149 55 299t152 266q43 54 96.5 99.5t127 88.5t171 68t207.5 25q73 0 113 -49q30 -36 43 -102q14 -69 14 -136q0 -64 -14 -168q-14 -108 -25.5 -173.5t-34.5 -186.5q-21 -113 -31 -170.5t-20 -138.5q-8 -59 -9 -99q0 -16 2 -28q4 -46 21 -66q16 -16 37 -16 q49 0 103.5 40t105.5 108t92.5 136.5t81.5 147.5q-2 31 -2 90q0 247 66 448q35 103 81 158t97 55q9 0 14 -10q4 -12 4 -24q0 -74 -61.5 -259t-151.5 -374q1 -99 12 -187t33 -164t60.5 -120.5t89.5 -44.5q4 0 4 -2q0 -3 -4 -3q-56 0 -101 35t-73 96t-44.5 135t-21.5 160 q-100 -191 -200 -308.5t-185 -117.5q-38 0 -59 27q-24 30 -32 84q-4 24 -4 56q0 40 6 93q10 95 20 160t34 199q18 100 25.5 145t20.5 132t15.5 134t2.5 107t-11.5 98t-31.5 62q-27 34 -76 37h-6q-109 0 -206 -25t-170 -68t-126 -88t-96 -98q-97 -117 -151 -265.5t-54 -297.5 q0 -222 111.5 -354.5t298.5 -132.5q2 0 2 -2l-2 -3q-199 0 -314 146q-102 133 -102 346zM1335 596q90 190 148.5 370t58.5 251q0 18 -2 22q-3 6 -10 6q-55 0 -100.5 -97t-69.5 -244.5t-25 -307.5z" />
<glyph unicode="V" horiz-adv-x="1548" d="M0 582q0 149 51.5 293t145.5 258q42 51 93 94.5t122.5 85t166 65t201.5 23.5q83 0 131 -51q31 -33 50 -90t27 -112q9 -54 10 -146v-58q0 -54 -1 -92q-2 -58 -8 -164q-5 -102 -7 -152q-1 -38 -1 -94q1 -19 1 -39q0 -83 6.5 -129t22 -94t40.5 -74q33 -36 84 -36h8 q58 0 130 153t124 377q-35 102 -45 206q-5 52 -5 97t5 84q10 77 28 131.5t39 73.5q13 13 23 8q24 -12 24 -94q0 -159 -31 -343.5t-85 -352.5q-51 -160 -107 -253.5t-100 -93.5q-69 0 -117 48q-48 51 -70 159q-22 106 -23 229l1 5q0 125 2 268q2 134 4 247q0 8 1 17 q1 103 -17 190q-18 94 -60 136q-35 35 -84 35q-147 0 -274 -47t-217.5 -126.5t-156 -184t-97 -221t-31.5 -236.5q0 -219 107 -361q116 -153 319 -153q2 0 2 -2q0 -3 -2 -3q-205 0 -324 156q-106 140 -106 363zM1358 810q10 -102 41 -200q61 264 61 496q0 81 -20 88 q-2 2 -4 2q-7 0 -15 -8q-19 -17 -36 -71q-17 -53 -27 -129q-5 -39 -5 -85q0 -43 5 -93z" />
<glyph unicode="W" horiz-adv-x="1939" d="M0 555q0 150 54.5 300t150.5 265q44 54 97.5 99.5t127.5 88.5t171.5 68t207.5 25q69 0 117 -51q39 -41 51 -124q6 -44 6 -94q-1 -42 -5 -90q-10 -102 -30.5 -217.5t-43.5 -231t-39 -215.5q-15 -94 -16 -171q0 -5 1 -9q1 -80 27 -118q7 -12 26 -12q43 0 87.5 24.5 t80.5 60.5t72 86t60.5 91.5t47.5 87.5q6 12 18.5 38t18.5 38q-26 113 -26 225q0 109 28 166q35 65 99 65q11 0 18 -12q4 -16 4 -35q0 -111 -82 -323q16 -111 62 -258q36 -116 74.5 -184t66.5 -68q43 0 98.5 92.5t106.5 249.5q36 106 59 213q-34 99 -45 201q-6 57 -6 105 q-1 37 3 70q8 74 25 126t37 69q12 12 23 6q25 -9 25 -96q0 -161 -31 -345.5t-86 -350.5q-53 -160 -109 -253.5t-100 -93.5q-66 0 -135.5 126.5t-106.5 295.5l-17.5 -35t-17.5 -34q-30 -60 -62.5 -112.5t-79 -111.5t-101.5 -94t-109 -35q-38 0 -59 27q-16 18 -24 50 q-8 30 -9 77q1 3 1 6q0 51 2 91.5t14 117t19 118t23 132.5q18 100 25.5 145t20.5 132t15.5 134t2.5 107t-11.5 98t-31.5 62q-30 34 -76 37h-6q-367 0 -600 -279q-96 -117 -149.5 -265.5t-53.5 -297.5q0 -221 111 -354t297 -133q2 0 2 -2q0 -3 -2 -3q-197 0 -312 146 q-102 133 -102 346zM1311 770q0 -74 16 -180q80 209 80 313q0 21 -6 33q-3 10 -12 10q-78 0 -78 -176zM1754 1002q-4 -33 -4 -73q0 -46 6 -99q10 -99 42 -195q55 255 55 471q0 85 -22 92q-2 2 -4 2q-4 0 -12 -8q-19 -17 -35.5 -67.5t-25.5 -122.5z" />
<glyph unicode="X" d="M0 555q0 149 55 299t152 266q43 54 96.5 99.5t127 88.5t171 68t207.5 25q50 0 93.5 -24t80 -73t65.5 -103.5t57.5 -137.5t48.5 -150t46 -165q4 10 11.5 30.5t11.5 30.5q22 62 32.5 92t30.5 84t33.5 81t34 66.5t38 59.5t40 41.5t47 30t51.5 8.5l4 -2q0 -4 -4 -4 q-26 0 -50 -8.5t-46 -29t-39.5 -41t-37.5 -59t-33.5 -66.5t-33 -79.5t-31 -83.5t-32.5 -92q-3 -7 -11.5 -31.5t-13.5 -38.5q14 -48 17 -61q78 -290 118 -393q78 -198 175 -214q9 -1 18 -1q4 0 4 -2q0 -3 -4 -3q-46 0 -86.5 21.5t-74 64.5t-60.5 92.5t-52.5 122.5 t-44.5 136.5t-41 150.5q-86 -230 -163 -344q-168 -244 -420 -244q-2 1 -2 3l2 2q252 0 416 243q82 121 165 351q-12 46 -24 96q-74 296 -118 407q-81 208 -190 229q-14 3 -28 3q-367 0 -600 -279q-96 -117 -149.5 -265.5t-53.5 -297.5q0 -221 111 -354t297 -133q4 0 4 -2 q0 -3 -4 -3q-197 0 -312 146q-102 133 -102 346z" />
<glyph unicode="Y" horiz-adv-x="1630" d="M0 555q0 149 55 299t152 266q43 54 96.5 99.5t127 88.5t171 68t207.5 25q79 0 123 -53q37 -46 42 -148q1 -21 1 -43q0 -84 -15 -179q-19 -121 -44 -260.5t-47.5 -260.5t-24.5 -223v-15q0 -91 24 -135q10 -16 37 -16q55 0 117 50t119 133t100 159t82 159q34 70 76 166 q5 244 33.5 378.5t95.5 137.5h2q9 0 14 -10q4 -12 4 -24q0 -99 -102 -373q-2 -92 -2 -295q0 -199 -2 -297q53 69 86 106l4 2q4 -4 0 -4q-60 -71 -90 -112q-2 -110 -7 -199t-14 -181.5t-24.5 -161t-37.5 -124t-54.5 -85t-73.5 -30.5h-4q-41 0 -60 45q-13 29 -16 74 q-1 10 -1 19q0 40 10 92q12 65 38.5 138.5t76.5 166.5t118 188q0 37 1 112.5t1 113.5q0 211 2 309q-53 -126 -111 -237t-123 -208.5t-132.5 -155t-125.5 -57.5q-38 0 -59 27q-24 29 -32 84q-4 24 -4 56q0 40 6 93q10 95 20 160t34 199q18 100 25.5 145t20.5 132t15.5 134 t2.5 107t-11.5 98t-31.5 62q-27 34 -76 37h-6q-109 0 -206 -25t-170 -68t-126 -88t-96 -98q-97 -117 -151 -265.5t-54 -297.5q0 -222 111.5 -354.5t298.5 -132.5q2 0 2 -2l-2 -3q-199 0 -314 146q-102 133 -102 346zM1156 -416q2 -44 15 -73q18 -41 56 -41h4q32 1 57 27 t42 76t29 111t18.5 145.5t10 165t5.5 183.5q-67 -94 -116 -185.5t-75 -164t-38 -136.5q-9 -53 -9 -92q0 -8 1 -16zM1446 860q96 255 96 357q0 18 -2 22q-3 6 -10 6h-2q-72 -5 -82 -385z" />
<glyph unicode="Z" horiz-adv-x="1617" d="M6 553q18 163 115 299q110 160 290 232q130 52 279 52q58 0 119 -8q97 -13 186 -13q157 0 293 40q37 123 68 184.5t69 61.5q83 0 105 -39q5 -12 5 -25q0 -25 -19 -53q-48 -66 -168 -115q-1 -2 -5 -14q-27 -121 -48.5 -205t-64.5 -205t-91 -206q102 -3 155 -99 q51 -83 54 -235q20 22 62 67t63 68l18 20h4q4 -4 0 -4l-18 -20q-86 -90 -129 -137q-2 -122 -35.5 -250.5t-93.5 -233.5q-67 -121 -155 -186.5t-183 -65.5q-49 0 -62 29q-4 9 -4 22q0 29 22 74q31 64 105 158t153.5 185t194.5 214q2 25 2 74q0 132 -41 212t-118 99 q-129 -222 -314 -225q-2 -2 -6 -2q-34 0 -51 10q-19 6 -19 25q0 31 59 79t142 85.5t143 38.5q75 144 164 481q5 20 17.5 63t17.5 64q-133 -39 -293 -39q-89 0 -186 12q-61 8 -119 8q-147 0 -276 -51q-179 -71 -287 -229q-95 -136 -114 -297q-4 -36 -5 -71q0 -118 51 -216 q51 -95 143.5 -146.5t213.5 -51.5q2 0 2 -2q0 -3 -2 -3q-123 0 -216.5 52t-144.5 149q-52 98 -52 219q1 34 5 70zM750 338q0 -15 14 -21q13 -8 49 -8h6q152 3 266 226q-58 -1 -139 -37.5t-138.5 -83.5t-57.5 -76zM825 -506q9 -24 56 -24q76 0 152 67t138 189q98 198 117 409 q-232 -247 -360 -415q-108 -141 -107 -204q0 -13 4 -22zM1350 1176q117 47 161 112q19 29 19 51q0 10 -4 19q-22 39 -101 39q-24 0 -71 -204q-3 -11 -4 -17z" />
<glyph unicode="[" horiz-adv-x="331" d="M33 637q0 218 14 344q18 160 49 160h170q2 0 2 -2t-2 -2h-129q-25 0 -43 -156q-16 -144 -16 -344q0 -212 17 -353t42 -141h129q2 0 2 -2t-2 -2h-170q-34 0 -48.5 157t-14.5 341z" />
<glyph unicode="\" horiz-adv-x="362" d="M55 1139q0 2 2 2t2 -2l244 -996q0 -4 -2 -4t-2 2z" />
<glyph unicode="]" horiz-adv-x="331" d="M33 141q0 2 2 2h129q25 0 42 141t17 353q0 200 -16 344q-18 156 -43 156h-129q-2 0 -2 2t2 2h170q31 0 49 -160q14 -126 14 -344q0 -184 -14.5 -341t-48.5 -157h-170z" />
<glyph unicode="^" horiz-adv-x="481" d="M100 821v2l138 215h6l20 -30l127 -185v-2q-4 -4 -4 0l-125 180q-18 -31 -38.5 -62.5t-59.5 -75.5t-62 -44v2h-2z" />
<glyph unicode="_" horiz-adv-x="555" d="M111 88q0 2 4 2h395q2 0 2 -2t-2 -2h-395q-4 0 -4 2z" />
<glyph unicode="`" horiz-adv-x="337" d="M82 1102v4q0 2 2 2h41q0 -2 2 -2l149 -156v-4h-2h-2z" />
<glyph unicode="a" horiz-adv-x="688" d="M0 281q0 55 44.5 149t109.5 169t114 75q46 0 72 -41q16 -24 16 -57q0 -39 -22 -89q-2 -2 -4 0v2q21 46 21 84q0 32 -15 58q-15 21 -39 31q-5 1 -10 1q-35 0 -87 -62q-60 -72 -106 -168q-45 -94 -45 -148q0 -17 6 -23q5 -8 17 -8q41 17 106 65t102.5 80.5t45.5 40.5 q0 4 4 0h37q2 -2 0 -2l-3 -10q-2 -10 -6 -26.5t-8 -38t-8 -46.5t-7.5 -51t-5 -52t-0.5 -48.5t5.5 -41.5t13.5 -30q10 -14 25 -14h8q34 0 90 48.5t111 115.5t107 138t83 116.5t33 50.5q2 2 4 2q2 -2 2 -3t-2 -1q-14 -23 -56.5 -85t-113 -156.5t-143 -163t-115.5 -68.5h-6 q-35 3 -49 26q-30 39 -30 124q0 82 28 208q-37 -33 -79 -68t-111 -80.5t-101 -45.5q-19 0 -25 12q-8 11 -8 31z" />
<glyph unicode="b" horiz-adv-x="536" d="M102 592q0 196 48 323q56 152 165 152q42 0 54 -27q7 -13 7 -33q0 -25 -12 -59q-20 -62 -63.5 -135.5t-80.5 -128.5t-75 -106v-21q0 -143 18.5 -251.5t43.5 -108.5q44 0 77.5 64.5t43.5 144.5q-45 31 -63 67.5t-11 61.5q6 26 31 26q42 0 65 -26.5t23 -75.5q0 -24 -11 -70 q30 -15 61 -14q1 -1 3 -1q32 0 57.5 9.5t52.5 30t44 37t36 41.5t24 33t13 21l2 3l2 2q2 -2 2 -4l-2 -3q-6 -11 -13 -21t-25 -34t-36 -42.5t-45 -38.5t-53.5 -29.5t-59.5 -9t-65 15.5q-20 -74 -64.5 -133t-88.5 -59t-74.5 123.5t-30.5 275.5zM145 586q39 53 75 107t78.5 126 t61.5 131q11 34 11 58q0 18 -6 30q-13 25 -50 25h-8q-81 -9 -125 -164q-34 -118 -37 -313zM258 532q-1 -5 -1 -11q0 -21 13 -47q17 -34 60 -62q2 14 2 43q0 45 -13 71q-12 29 -34 29q-20 0 -27 -23z" />
<glyph unicode="c" horiz-adv-x="471" d="M109 477q0 105 30 183.5t86 78.5q27 0 43 -16q23 -25 23 -74l-2 -2q-4 0 -4 2q1 6 1 12q0 36 -22 58q-10 12 -37 16q-53 -16 -71 -135q-5 -38 -5 -78q0 -82 20 -170q29 -131 75 -159q13 -10 26 -5q20 10 48.5 35.5t57.5 58t59.5 69t57.5 71t47.5 63t33.5 46.5l14 18l2 2 l2 -4q-9 -14 -47.5 -66t-95 -124t-114 -126.5t-87.5 -54.5q-65 0 -107 96q-34 81 -34 205z" />
<glyph unicode="d" horiz-adv-x="708" d="M0 281q0 55 44.5 149t109.5 169t114 75q51 0 76 -27q11 -14 21 -37q20 145 57 246q34 98 77.5 153t90.5 58h4q47 0 59 -35q4 -12 4 -28q0 -44 -30 -116q-42 -100 -104 -196.5t-126 -177.5q-2 -29 -2 -80q0 -43 4 -81.5t14 -81.5t32.5 -68.5t54.5 -26.5q33 13 79 56.5 t86.5 94.5t78 102.5t58.5 83.5t23 36l4 2l2 -4q-14 -22 -41 -61.5t-79.5 -111t-109.5 -129t-99 -75.5h-2q-12 -6 -27 -6q-59 0 -90 84q-29 79 -29 201v14l-24 -27l-15 -13q-15 -13 -35 -29.5t-47 -38.5t-54.5 -42t-54.5 -37t-51 -27.5t-40 -10.5q-19 0 -25 12q-8 11 -8 31z M41 289q0 -16 6 -25q5 -8 19 -8q2 0 2 -2v-2q40 16 105.5 64.5t105 82t47.5 41.5l28 31q0 50 11 129q-9 27 -25 43q-25 25 -72 25h-4q-21 -5 -57 -47t-72 -105q-94 -155 -94 -227zM397 522q105 131 191 288q67 123 66 188q0 18 -5 32q-13 33 -55 33t-85.5 -83.5t-73 -208 t-38.5 -249.5z" />
<glyph unicode="e" horiz-adv-x="460" d="M98 477q0 105 30.5 183.5t86.5 78.5q13 0 16 -8q2 -4 2 -10q0 -40 -92 -160q-1 -19 -1 -38q0 -94 24 -190q30 -115 72 -140q13 -10 26 -5q20 10 48.5 35.5t57.5 58t59.5 69t57.5 71t47.5 63t33.5 46.5l14 18l2 2l2 -4q-9 -14 -47.5 -66t-95 -124t-114 -126.5t-87.5 -54.5 q-65 0 -107 96q-35 84 -35 205zM143 573q85 115 85 149q0 4 -1 7q-3 6 -10 6q-39 -12 -56.5 -62t-17.5 -100z" />
<glyph unicode="f" horiz-adv-x="540" d="M92 596q0 212 51 326q56 139 174 139q41 0 56 -27q6 -13 6 -31q0 -24 -11 -59q-19 -60 -62.5 -133.5t-79.5 -127.5t-76 -108q3 -143 22 -296q0 3 1 8.5t1 7.5q5 10 14 10q22 0 76 -96q84 29 210 140t185 196h3q2 -2 2 -4q-57 -81 -184 -194.5t-212 -143.5q41 -77 72 -169 t31 -149q0 -33 -11 -47q-9 -18 -32 -18q-58 0 -114 123.5t-89 304t-33 348.5zM150 584q56 78 104 151.5t90 166.5q28 65 28 102q0 17 -5 28q-13 25 -50 25q-85 0 -129 -133q-38 -110 -38 -320v-20zM176 266q0 -54 33 -63q18 -6 51 4q-49 92 -72 92q-6 0 -8 -6q-4 -12 -4 -27 zM180 221q27 -173 67.5 -285t80.5 -112q18 0 28 16q11 18 11 45q0 59 -31.5 150t-73.5 168q-32 -13 -55 -6q-18 6 -27 24z" />
<glyph unicode="g" horiz-adv-x="585" d="M0 281q0 55 44.5 149t109.5 169t114 75q46 0 72 -41q16 -24 16 -57q0 -39 -22 -89q-2 -2 -4 0v2q21 46 21 84q0 32 -15 58q-16 21 -43 33q-46 -4 -105 -73.5t-99 -155.5t-40 -138q0 -19 6 -31q10 -10 21 -10q41 19 104.5 66t101 79t44.5 39q2 2 2 0h39q0 -1 11 -36 t26.5 -94t27.5 -117q109 145 215 282q11 15 58 74l2 2l2 -4q-47 -59 -58 -74q-85 -109 -217 -289q35 -169 35 -283q0 -127 -43 -186q-34 -46 -92 -49h-6q-91 0 -115 49q-8 17 -8 41q0 113 190 381q-36 195 -69 297q-27 -25 -73 -63.5t-117 -85.5t-103 -47q-19 0 -25 12 q-8 11 -8 31zM217 -283q23 -45 111 -45q39 0 61 31q36 46 36 164q0 104 -28 264q-187 -266 -187 -376q0 -22 7 -38z" />
<glyph unicode="h" horiz-adv-x="675" d="M111 537q-12 102 -12 184q0 187 63 272q56 74 155 74q44 0 56 -27q6 -13 7 -32q0 -26 -12 -62q-20 -62 -64.5 -135.5t-83 -130.5t-75.5 -105q20 -153 60 -303q25 62 50.5 118t59 108.5t54.5 52.5q8 0 20 -8q13 -16 16 -65q1 -23 1 -44q0 -24 -2 -46q-4 -42 -11 -116 q-9 -97 -9 -141q0 -22 2 -31t7 -12v-2q23 13 57.5 46t71 74.5t75 88t73 91.5t62 81t44.5 59l17 23q2 2 4 2v-4q-17 -25 -79 -108.5t-159.5 -198.5t-150.5 -152q-4 -4 -7 -4q-21 -12 -32 -12q-7 0 -15 8q-13 15 -13 81q0 68 14 191q2 19 3 29t3 26.5t3.5 25.5t3 23.5t2.5 23 t2 19t1 17.5v13.5t-1 10t-3 5.5q-47 0 -162 -283l16 -55v-2l-2 -2h-39q-2 0 -2 4q0 1 -5 18.5t-10 37t-12.5 52t-14 65t-13.5 74.5t-12 81zM145 584q39 53 75 106.5t79.5 126.5t63.5 133q12 35 12 59q0 17 -6 29q-13 25 -50 25h-14q-71 -6 -115 -62q-57 -76 -57 -244 q0 -77 12 -173z" />
<glyph unicode="i" horiz-adv-x="401" d="M98 411q0 38 2 66t4 50l2 22l3 2h38l3 -2v-2v-3q-9 -95 -9 -164q0 -108 22 -153q4 -8 9 -14q3 -10 12 -10h6q20 0 43.5 12t47.5 31.5t49 45.5t48 54.5t44 57t39 55t31 46t20 31.5l8 13l2 2q2 -2 2 -4q-7 -13 -26 -42.5t-59 -85.5t-80 -102.5t-87 -82t-82 -35.5 q-30 0 -49 22q-16 18 -26 50.5t-13.5 67t-3.5 72.5zM129 803q0 15 7.5 26t17.5 11q11 0 18.5 -11t7.5 -26t-7.5 -26t-18.5 -11q-10 0 -17.5 11t-7.5 26z" />
<glyph unicode="j" horiz-adv-x="382" d="M10 -285q-9 19 -9 43q0 48 34 120q51 108 164 267q-14 92 -34.5 191.5t-34 153t-15.5 57.5v2l2 2h2h37l2 -2q41 -144 75 -352l211 278l58 74q0 2 4 2v-4l-57 -74l-213 -283q23 -152 23 -260q0 -156 -48 -221q-32 -40 -78 -43h-8q-91 0 -115 49zM16 -283q20 -45 109 -45h8 q30 3 49 29q39 52 39 186q0 102 -22 250q-191 -269 -191 -381q0 -23 8 -39zM55 803q0 15 7.5 26t17.5 11q11 0 18.5 -11t7.5 -26t-7.5 -26t-18.5 -11q-10 0 -17.5 11t-7.5 26z" />
<glyph unicode="k" horiz-adv-x="675" d="M95 603q-2 31 -2 63q1 79 13 158q18 111 64 171q57 72 152 72q40 0 55 -27q6 -13 6 -31q-1 -26 -13 -64q-22 -64 -67 -140t-83 -131.5t-75 -104.5q10 -163 45 -338q10 37 46 131l-3 3l3 2q90 231 174 233h6q50 -2 65 -37q3 -10 3 -22q0 -29 -20 -69q-30 -56 -75 -93 q-42 -31 -74 -31q-14 0 -26 6q8 -83 35 -178.5t57 -95.5q34 0 89.5 48.5t109 115.5t104 138t79.5 116.5t32 50.5q0 2 4 2v-4q-11 -18 -36.5 -58t-79.5 -116t-105 -139t-106.5 -111.5t-90.5 -48.5q-34 0 -61.5 29.5t-44 76t-26 88.5t-13.5 82q-29 -78 -43 -131l16 -78v-2h-39 h-2h-2v2q-4 11 -17 70.5t-30 170.5t-24 221zM143 578q39 52 75 105.5t81 128t65 135.5q12 36 13 62q0 17 -6 29q-13 25 -49 25h-7q-63 0 -106 -53q-69 -86 -69 -320q0 -52 3 -112zM242 365q13 -8 26 -8q8 0 17 3h2q27 11 43 25q48 38 82 102q27 50 26 79q0 9 -2 16 q-7 14 -24 14h-2q-81 -2 -168 -231z" />
<glyph unicode="l" horiz-adv-x="534" d="M82 729q0 150 53 236q59 102 180 102q42 0 54 -27q7 -13 7 -33q0 -27 -12 -63q-22 -64 -68 -140t-83.5 -131.5t-75.5 -105.5q25 -140 78 -247t100 -113h7q18 0 41 11.5t46.5 31.5t48 45.5t48 53.5t45.5 56.5t40.5 54t32 45.5t21.5 32l8 12l2 2l2 -4q0 -1 -10 -15.5 t-23 -34t-32.5 -46.5t-40.5 -54t-45 -56t-48.5 -53.5t-48 -44t-46.5 -31t-41 -11.5h-11q-60 7 -114 90.5t-84.5 202.5t-30.5 235zM124 707q0 -34 5 -68q5 -48 8 -64q234 322 234 433q0 18 -6 30q-13 25 -50 25q-49 -11 -85.5 -38.5t-56.5 -67t-32 -80.5q-13 -41 -15 -89 q-2 -40 -2 -69v-12z" />
<glyph unicode="m" horiz-adv-x="829" d="M106 505q2 21 5 44q0 2 2 2h37q2 0 2 -2q2 0 2 -2q-8 -59 -8 -109q0 -70 16 -123q65 267 114 267q7 0 9 -2l2 2q29 0 45 -19q19 -21 21 -71v-22q0 -38 -5 -71q-3 -32 -3 -53q0 -38 9 -45q2 -2 13 -2l2 2q136 391 192 395h2q16 0 23 -10q12 -13 14 -41q1 -6 0 -14 q0 -26 -6 -66q-8 -52 -14.5 -83.5t-22.5 -102.5q-14 -66 -20 -96.5t-14 -78.5q-7 -41 -6 -67q-1 -5 -1 -9q2 -26 12 -38q6 -6 13 -6q21 10 55 40.5t71 72t76.5 89t75.5 94t64.5 84t46.5 61.5l18 24q0 2 4 2v-4q-16 -23 -56.5 -77.5t-110 -142.5t-137 -159.5t-105.5 -89.5h-2 q-6 -4 -17 -4q-16 0 -30 14q-15 19 -17 64v18q0 38 6 83q8 56 20.5 118.5t25.5 121.5q4 17 6 25q31 133 31 164q0 6 -1 8v2h-2q-21 0 -61 -79.5t-71.5 -162t-55.5 -153.5h-2q-22 -25 -37 -21q-14 6 -18.5 37t-6.5 89v14q0 38 -0.5 58.5t-3.5 48t-11 40t-20 12.5 q-43 0 -112 -270q5 -16 11 -28t9 -17l4 -4v-4h-41l-1 2q-44 60 -44 178q0 34 4 73z" />
<glyph unicode="n" horiz-adv-x="573" d="M90 386q0 32 3.5 75t10.5 88q3 2 5 2h36q2 0 3 -2v-2q-14 -99 -15 -184q0 -34 2 -66q51 145 108 272t87 127h4q11 -2 24 -12q15 -10 15 -56q0 -66 -31 -207q-6 -32 -21 -95q-39 -170 -39 -214q0 -6 1 -10q3 -15 14 -10q23 14 57.5 47t70.5 74t73.5 87t71.5 89.5t60.5 79 t43.5 57.5l16 23q2 2 4 2v-4q-17 -25 -76.5 -105.5t-155 -194t-149.5 -153.5q-35 -20 -45 -20q-11 0 -18 10q-8 10 -8 38t8 73q16 91 43 190t43 191q7 44 7 72q0 31 -9 42l-2 2h-2q-48 0 -195 -407l13 -74v-2l-3 -2h-36q-3 0 -3 2h-2l-2 8q-1 8 -3.5 22.5t-5 35t-3.5 49.5 q-1 19 -1 40q1 11 1 22z" />
<glyph unicode="o" horiz-adv-x="544" d="M78 389q0 104 44 171.5t103 70.5h2q0 23 2 31q5 20 19 20q50 0 86.5 -92t38.5 -199q26 -12 52 -14.5t48.5 3.5t45 18t40.5 27t34.5 32.5t28 33t21.5 30t14 21.5t5 9h4q1 -1 1 -2t-1 -2q0 -2 -14.5 -24.5t-41 -54.5t-63.5 -58.5t-81 -36.5q-14 -3 -27 -3q-31 0 -66 15v-4 q0 -103 -35 -168q-41 -74 -121 -74q-58 0 -98.5 73t-40.5 177zM121 389q0 -101 28 -173.5t68 -72.5q76 0 117 74q33 59 33 164v6l-5 4q-59 31 -95 103t-40 133q-42 -6 -74 -71.5t-32 -166.5zM233 659q-2 -11 -2 -24q1 -43 29 -113q38 -90 105 -127l2 -2q-2 105 -36.5 194 t-82.5 89q-8 0 -15 -17z" />
<glyph unicode="p" horiz-adv-x="657" d="M-52 -210q9 94 44 221t86 255q34 85 45 109q-7 77 -10.5 123t-4.5 108v17q0 51 6 85q6 38 21 75t41 57q10 8 20 8q7 0 13 -4q12 -14 12 -46t-17 -84q-16 -53 -50 -110q4 -93 10 -141q95 187 170 213q0 2 2 2h4q2 0 7 1t7 1q35 0 54 -31q16 -29 16 -78q0 -67 -28 -153.5 t-70 -145.5q24 -5 49 -5q43 0 87 15q71 24 123.5 65t98 89.5t66.5 77t24 35.5q0 2 4 2v-4q0 -2 -17.5 -26.5t-54.5 -66.5t-77 -77q-128 -113 -252 -113q-37 0 -55 4q-48 -65 -97 -65q-14 0 -18 2q-6 -2 -19 -2q5 -71 5 -130.5t-5 -107.5q-24 -229 -170 -299q-15 -6 -28 -6 q-15 0 -23 8q-21 22 -21 81q0 19 2 41zM-46 -208q-3 -24 -3 -43q0 -56 20 -77q7 -7 17 -7q4 0 8 1q40 20 68.5 54t46 71.5t26 95t11.5 102.5q1 19 1 42q0 33 -3 74q-3 71 -7 115.5t-12 119.5l-4 25l-41 -101q-50 -127 -84.5 -253t-43.5 -219zM152 614q38 66 52 121 q10 41 10 68q0 10 -1 18q-36 -16 -49 -68q-12 -45 -12 -117v-22zM166 455l6 -56q11 -113 16 -190h11l-9 10q-6 22 25 53q26 20 48 20q12 0 22 -5v-2q40 62 67 149t27 154q0 38 -10 61q-13 23 -33 23h-2q-71 -24 -168 -217zM197 221q0 -6 8 -10q36 11 78 70q-10 6 -22 6 q-20 0 -42 -19q-23 -21 -23 -39q0 -4 1 -8z" />
<glyph unicode="q" horiz-adv-x="555" d="M0 281q0 55 44.5 149t109.5 169t114 75q46 0 72 -41q16 -24 16 -57q0 -39 -22 -89q-2 -2 -4 0v2q21 46 21 84q0 32 -15 58q-16 20 -33 28q-34 -2 -77.5 -40t-84.5 -103q-39 -59 -63.5 -120.5t-24.5 -98.5q0 -20 6 -29q7 -10 21 -10q41 20 103.5 66.5t100.5 78t44 37.5 q2 2 4 0h37l2 -2q-1 -2 -9 -43t-20.5 -117t-22.5 -151q88 83 186 202.5t167 219.5q2 2 4 2q2 -2 2 -3t-2 -1q-70 -102 -170 -224t-189 -204l-6 -53q61 0 101 -50q46 -63 46 -165v-22q-6 -117 -55 -179q-58 -76 -96 -76q-8 0 -14 2q-45 22 -45 190q0 112 20 291 q-24 -6 -51 -18q-2 0 -4 2q0 2 2 4q19 10 57 41q7 57 16 118.5t16 101.5l14 80t8 46q-35 -31 -78 -66.5t-113.5 -81.5t-101.5 -46q-19 0 -25 12q-8 11 -8 31zM238 53l32 10q0 11 2 17zM309 61q-24 -185 -24 -295q0 -140 39 -159q4 -2 9 -2q21 0 62 43l4 4q48 63 53 177 q1 11 1 22q0 99 -45 163q-38 47 -99 47z" />
<glyph unicode="r" horiz-adv-x="522" d="M70 618q-4 13 -4 28q0 60 57 155q16 22 37 22h2q21 0 35 -24q8 -15 10 -39v-5q0 -23 -15 -75q-17 -58 -61 -127q13 -8 61 -34.5t70.5 -46.5t24.5 -44q0 -51 -60 -192q-9 -21 -13.5 -33t-11.5 -30.5t-10 -29.5t-6 -23.5t-2 -20.5t4 -13q3 -6 15 -6q25 0 62 25.5t77 67 t82.5 91t80.5 99.5t68 91t49 68l19 27q0 2 4 2v-4q-11 -19 -58 -84.5t-118.5 -157.5t-147 -161.5t-118.5 -69.5q-33 0 -45 18q-8 12 -8.5 30t7.5 45t15.5 47t22.5 56q49 112 49 158q0 27 -17.5 47.5t-56 43t-43.5 26.5q-2 0 -2 2h-2q-46 33 -53 71zM129 557q33 51 51 95 q18 46 20 74v17q0 17 -2 27q-3 16 -8 25q-10 19 -24 22q-66 -104 -66 -177q0 -48 29 -83z" />
<glyph unicode="s" horiz-adv-x="503" d="M80 697q-1 12 -2 22q0 25 8 43q10 26 33 39q22 11 38 11t27 -11q16 -19 17 -50q0 -58 -56 -161q30 -100 97 -246l41 -96q197 105 340 301q0 2 4 2v-4q-85 -118 -169 -187t-173 -116q45 -105 45 -150q0 -66 -61 -102q-39 -23 -77 -23l-45 7q-61 20 -61 92q-1 25 6.5 45.5 t16 33t31.5 28t37 22.5l48 24l23 10l-47 111q-27 61 -42.5 96.5t-37 91.5t-29.5 92t-12 75zM92 68q0 -66 53 -85q17 -6 33 -6q32 0 62 22q47 33 47 95q0 45 -37 133q-17 -9 -23 -10q-33 -16 -47 -23.5t-35.5 -22t-30 -27t-15.5 -32t-7 -44.5zM143 596q52 96 52 154 q0 28 -13 47l-16 8q-41 -25 -42 -95q1 -47 19 -114z" />
<glyph unicode="t" horiz-adv-x="534" d="M-41 672l2 2h123q-2 18 -2 55q0 153 51 236q61 102 180 102q44 0 56 -27q6 -13 6 -31q0 -96 -164 -335h131l2 -2l-2 -4h-135q-26 -39 -64 -88q23 -149 82 -257t129 -108q18 8 40 24.5t43.5 38t44 46.5t43 51t39.5 51t34.5 47t27 39t18.5 27l7 10q2 2 4 2v-4 q-9 -15 -41 -61.5t-84.5 -115t-110.5 -119t-97 -50.5q-57 0 -110 70.5t-86.5 177t-41.5 219.5h-123q-2 2 -2 4zM133 721q0 -33 2 -47h70q165 246 165 336q0 16 -5 28q-7 15 -23 21q-105 0 -162 -101q-47 -89 -47 -237zM135 668q4 -56 8 -82l58 82h-66z" />
<glyph unicode="u" horiz-adv-x="770" d="M100 549q0 2 2 2h39v-2h2q-1 -30 -1 -59q0 -94 14 -178q19 -112 59 -136q19 -13 41 0t42.5 41t35.5 61.5t28 70.5t22 72.5t15 63.5t9 46l4 18q0 2 2 2h37l2 -2v-11q0 -33 -7 -147q-11 -83 -11 -167v-14q1 -91 26 -112q9 -9 22 -6q23 15 58 47.5t72 74t76.5 87.5 t74.5 89.5t62.5 78.5t45.5 57l17 23l2 2l2 -4q-14 -21 -80.5 -107t-165.5 -199t-153 -151h-2q-22 -16 -37 -16q-29 0 -49 20q-20 24 -24 79q-2 28 -2 52q0 23 2 45q4 42 15 123q14 103 15 125q-8 -39 -16 -74t-26.5 -91.5t-38.5 -95.5t-51.5 -69t-66.5 -30q-30 0 -51 24 q-36 40 -52 136q-12 68 -12 154q0 37 2 77z" />
<glyph unicode="v" horiz-adv-x="579" d="M104 549q0 2 2 2h3h34q4 0 4 -2q0 -133 16.5 -254.5t49.5 -138.5q12 -4 25 6q38 32 65.5 109.5t36.5 166.5q-44 48 -64 118q-15 50 -14 83q0 13 2 23q5 20 21 20q33 0 51 -49q14 -38 14 -113q0 -24 -4 -82q26 -29 53 -43q34 -18 69 -19h6q32 0 57 10q28 12 55 32.5 t46 41.5t35 43t22.5 33t8.5 15h2q2 0 2 -4l-2 -3q-6 -11 -13 -21.5t-25.5 -34.5t-36.5 -42t-46 -38t-55 -29t-60.5 -7t-66.5 19q-24 12 -53 41q-8 -74 -28 -139t-52 -109.5t-69 -44.5q-30 0 -50.5 54.5t-28 138t-10 132t-2.5 85.5zM270 659q-2 -10 -2 -22q0 -31 14 -78 q20 -66 60 -115q4 54 4 76q0 68 -16 111q-15 45 -45 45q-12 0 -15 -17z" />
<glyph unicode="w" horiz-adv-x="880" d="M111 549q0 2 4 2h39v-2q-1 -15 -1 -30q0 -96 34 -183q39 -101 85 -115q6 -1 11 -1q29 0 51 40h2q12 21 24 62l9 24q-37 98 -37 176q0 37 10 60q9 22 31 22q24 0 24 -84q0 -56 -12 -123q20 -69 48 -122t56 -66q28 -16 50 12q47 89 71 258q-28 47 -40 101q-8 35 -7 60 q0 13 2 22q5 20 19 20q41 0 41 -98q0 -48 -9 -103q32 -59 84 -86q33 -18 67.5 -19t62.5 10.5t55 32t46 41.5t35 43t22.5 33t8.5 15h4q1 -1 1 -2t-1 -2q0 -2 -15.5 -25.5t-43 -56t-65.5 -59t-83 -34.5q-10 -2 -20 -1q-36 0 -76 20q-43 20 -84 82q-16 -109 -48.5 -203 t-59.5 -94q-73 0 -135 162q-4 -12 -4 -19q-39 -114 -97 -114q-36 0 -73 37q-39 42 -65 122q-22 69 -22 157q0 14 1 28zM360 582q-3 -12 -3 -29q0 -49 24 -143q10 68 10 110q0 72 -16 80h-2q-10 0 -13 -18zM569 659q-2 -9 -2 -21q-1 -22 7 -54q12 -50 38 -97q9 79 9 97 q0 92 -37 92q-8 0 -15 -17z" />
<glyph unicode="x" horiz-adv-x="616" d="M12 84l2 2q84 0 197 221q-21 29 -35 53q-35 63 -56.5 142t-21.5 149q0 59 19 99q17 38 51 38q8 0 22 -10q5 -9 5 -24q0 -48 -50 -158q23 -130 91 -242l47 99q35 74 51 103.5t26 29.5l2 -2q0 -4 -2 -4q-11 0 -61 -108q-7 -14 -10 -21q-8 -18 -25.5 -53.5t-23.5 -49.5 q88 -141 190 -141q20 6 43 22t45 37t45 46.5t43.5 52.5t39.5 53.5t35 50t27.5 41t17.5 28.5l7 11q2 2 4 2q1 -1 1 -2t-1 -2q-8 -14 -26 -42.5t-58 -85t-79 -103t-86 -82t-82 -35.5q-108 0 -191 102q-114 -219 -201 -219q-2 0 -2 2zM137 655q0 -25 6 -49q47 104 47 149 q0 13 -4 21l-8 6q-42 -13 -42 -103q0 -11 1 -24z" />
<glyph unicode="y" horiz-adv-x="614" d="M75 364q-1 17 -1 35q0 68 18 150q0 2 2 2h37q2 0 2 -2v-2q-15 -73 -15 -138q0 -21 2 -41q6 -82 38 -122q25 -31 61 -31q41 18 77.5 97t52.5 141t16 71q0 2 2 2h2h37q2 0 2 -2q3 -9 13 -49t25.5 -117t26.5 -151q24 32 203 268l57 74q0 2 4 2v-4l-57 -74 q-163 -213 -205 -272q21 -147 21 -254q0 -167 -52 -236q-29 -42 -79 -45h-9q-90 0 -114 49q-9 19 -9 44q0 49 34 121q52 111 169 276q-27 191 -67 356q-7 -33 -19 -74t-34 -99t-54 -96t-67 -38q-50 0 -80 37q-34 41 -40 122zM248 -283q20 -45 108 -45h9q28 3 51 29 q38 50 40 183q1 12 1 25q0 120 -21 238q-114 -162 -164 -269q-33 -71 -33 -117q0 -26 9 -44z" />
<glyph unicode="z" horiz-adv-x="548" d="M59 625q-3 14 -3 29q0 65 53 147q31 41 56 41q8 0 15 -4q18 -12 20 -46q0 -4 1 -8q0 -32 -17 -85q-19 -60 -61 -134q24 -30 61.5 -52.5t59.5 -37.5t22 -33q0 -66 -67 -153q-24 -27 -21 -35q2 -2 6 -2q23 8 45 8q55 0 101 -51q28 -32 41 -57q107 153 262 352l35 45 q0 2 4 2v-4l-35 -47q-190 -245 -264 -353q48 -88 60 -204q3 -31 3 -59q0 -78 -24 -136q-36 -76 -105 -82h-8q-91 0 -115 49q-9 18 -9 43q0 112 173 363q-62 127 -162 127q-10 0 -12 4q-5 10 21 39q65 84 65 151q0 15 -28.5 34t-64 37t-68.5 48.5t-40 63.5zM100 614 q6 -27 21 -45q40 73 58 131q17 54 17 84q0 33 -16 45q-8 0 -28 -32q-57 -85 -57 -148q0 -18 5 -35zM188 -281q23 -47 111 -47q50 0 78 60q26 60 26 145q0 133 -51 238q-172 -250 -172 -356q0 -24 8 -40z" />
<glyph unicode="{" horiz-adv-x="313" d="M0 598v4l1 1q11 6 21 15.5t29 33.5t31 65.5t12 93.5q0 135 33 223t86 94h8q2 0 2 -2t-2 -2q-27 0 -44.5 -23t-25 -71.5t-10 -96t-2.5 -122.5q0 -48 -15 -88.5t-38.5 -64.5t-42 -37t-33.5 -19q16 -3 34 -12.5t41.5 -30t38.5 -63t15 -99.5q0 -47 0.5 -70t2.5 -59.5t6.5 -55 t12.5 -39t21 -30t31 -10.5q10 0 10 -4q0 -2 -2 -2h-12q-54 9 -85.5 80.5t-31.5 189.5q0 53 -9.5 93.5t-22.5 60t-26 31t-22 14.5l-10 2h-2z" />
<glyph unicode="|" horiz-adv-x="210" d="M84 141v998l2 2q4 0 4 -2v-998q-2 -2 -4 -2z" />
<glyph unicode="}" horiz-adv-x="329" d="M0 129q0 4 10 4q18 1 31 10.5t21 30t12.5 39t6.5 55t2.5 59.5t0.5 70q0 57 15 99.5t38.5 63t41.5 30t34 12.5q-15 6 -33.5 19t-42 37t-38.5 64.5t-15 88.5q0 49 -1 83t-3.5 73t-8 64.5t-14.5 48.5t-22.5 33.5t-32.5 10.5q-2 0 -2 2t2 2h8q53 -6 86 -94t33 -223 q0 -42 9 -78.5t19.5 -57t27 -39.5t22 -23t15.5 -10l1 -1v-4h-2q-4 0 -10 -2t-21.5 -14.5t-27.5 -31.5t-21.5 -59.5t-9.5 -93.5q0 -118 -31.5 -189.5t-85.5 -80.5h-12z" />
<glyph unicode="~" horiz-adv-x="509" d="M49 1008q42 67 90 73q48 18 102 4t107 -59q48 13 90 80q0 4 4 0v-2q-6 -11 -17.5 -26t-34 -33.5t-42.5 -22.5q-9 -2 -18.5 -3t-20.5 1.5t-17 4t-20 7.5t-17 7.5l-19 9.5q-28 15 -45 21t-42.5 7t-48.5 -17.5t-47 -55.5z" />
<glyph unicode="&#xa2;" horiz-adv-x="471" d="M10 510q0 88 70.5 172.5t181.5 122.5l6 160q2 2 4 2l2 -2l-6 -158q65 20 127 20q2 0 2 -2t-2 -2q-64 0 -129 -30l-22 -488q64 -18 151 -18l2 -2q0 -2 -2 -2q-81 0 -151 12l-4 -117l-2 -2l-5 2l7 117q-82 14 -142 55q-88 60 -88 160zM82 512q0 -98 72 -158q36 -29 86 -47 l22 484q-80 -41 -130 -119.5t-50 -159.5z" />
<glyph unicode="&#xa3;" horiz-adv-x="552" d="M57 309q-23 28 4 70q11 17 25 20.5t26.5 -2t34.5 -18.5q21 72 21 176v37l-100 -8q-2 0 -2 2t2 2l100 10q10 196 86 268q37 33 74 33h2v-2h2l-4 -4q-27 0 -54 -25q-72 -67 -79 -268l139 12l2 -2q0 -4 -2 -4l-139 -12v-39q0 -111 -33 -186q31 -20 53.5 -31t62 -22t85.5 -4 t98 32h2v-4q-53 -25 -100.5 -32.5t-86.5 3.5t-62.5 22.5t-53.5 31.5q-14 -33 -33.5 -50.5t-38.5 -17.5h-2q-2 -2 -4 -2q-14 0 -25 14zM61 311q9 -15 31 -8q33 11 53 72q-33 20 -51 20q-16 0 -28 -18q-26 -41 -5 -66z" />
<glyph unicode="&#xa5;" horiz-adv-x="524" d="M6 641q0 4 2 4l225 10v90l-167 248v4h43l167 -245l173 258q0 2 4 2v-4l-174 -263v-88l159 9q4 0 4 -2t-4 -2l-159 -9v-217l172 8q2 0 2 -2t-2 -2l-172 -8v-231q0 -2 -3 -2h-40q-3 0 -3 2v229l-213 -12h-2q-2 2 -2 4l2 2l215 10v217l-225 -12z" />
<glyph unicode="&#xa8;" horiz-adv-x="501" d="M70 1032q0 19 13 32t30 13q19 0 32 -13t13 -32q0 -20 -13 -33.5t-32 -13.5q-18 0 -30.5 13.5t-12.5 33.5zM307 1032q0 19 13 32t30 13q19 0 32 -13t13 -32q0 -20 -13 -33.5t-32 -13.5q-18 0 -30.5 13.5t-12.5 33.5z" />
<glyph unicode="&#xab;" horiz-adv-x="524" d="M25 610v2v2l213 187h4v-4l-211 -185l211 -182v-4h-2h-2zM188 610v2v2l213 187h5v-4l-211 -185l211 -182v-4h-3h-2z" />
<glyph unicode="&#xad;" horiz-adv-x="368" d="M31 612l2 2h258q2 0 2 -2t-2 -2h-258z" />
<glyph unicode="&#xb4;" horiz-adv-x="337" d="M80 946v4l149 156l2 2h41l2 -2v-4l-190 -156h-2h-2z" />
<glyph unicode="&#xb8;" horiz-adv-x="473" d="M168 -2q0 21 15 41t34 20q14 0 21 11q5 6 5.5 16.5t-1.5 17.5l-2 7q0 4 2 4t2 -2q10 -31 -2 -47q-6 -11 -25 -11q-17 0 -30 -17.5t-13 -39.5q0 -19 12 -31q14 -14 43 -14q2 0 2 -2t-2 -2q-33 0 -47 14t-14 35z" />
<glyph unicode="&#xbb;" horiz-adv-x="507" d="M25 426v4l211 182l-211 185v4h4l213 -187v-2v-2l-213 -184h-2h-2zM190 426v4l211 182l-211 185v4h5l213 -187v-2v-2l-213 -184h-2h-3z" />
<glyph unicode="&#xbf;" horiz-adv-x="536" d="M34 246q0 48 13 95.5t40 109.5t51 108.5t57 106.5q7 12 10 18q26 48 37.5 69.5t27 54.5t19.5 50t0 25q-1 1 -2 1.5t-4 3t-7 5.5q18 -3 23 -10q12 -21 -8.5 -80t-69.5 -168q-30 -66 -48.5 -109t-41.5 -107t-32 -108t-7.5 -88.5t19.5 -72.5q30 -50 118 -50q56 0 101.5 23 t72 58.5t40.5 75t14 77.5q0 59 -29 94t-78 35l-2 2q0 4 2 4q51 0 82 -37t31 -98q0 -87 -60 -160q-69 -78 -174 -78q-136 0 -176 70q-19 32 -19 80zM233 1122q0 19 12 32t31 13t31 -13t12 -32q0 -20 -12 -33.5t-31 -13.5t-31 13.5t-12 33.5z" />
<glyph unicode="&#xc0;" d="M0 555q0 -216 100 -346q113 -146 314 -146q2 1 2 3l-2 2q-188 0 -299 132t-111 355q0 149 54 297.5t151 265.5q43 53 96 98t126.5 88t170.5 68t205 25q287 0 395 -299q-29 -56 -57 -133t-44.5 -133t-41.5 -152l-33 -117q-117 10 -199 10q-176 0 -268 -100 q-82 -85 -82 -209q0 -81 40 -141t110 -60q177 0 288 193q53 95 115 303q3 0 11 -1t12 -1q188 -13 243 -12q8 -78 14.5 -128t18 -112t27 -100.5t37.5 -73.5t53.5 -51.5t71.5 -16.5q2 0 2 3h12q2 0 2 2t-2 2q-19 0 -35.5 6t-30 19.5t-25 28t-21 40.5t-16.5 47t-14 57 t-11.5 61.5t-10 69.5t-8.5 71.5t-8 76.5q106 7 145 43q23 23 23 55q0 2 -2 2l-2 -2q0 -31 -23 -51q-36 -36 -141 -43q-32 273 -56 382q-27 119 -65 204q110 176 287 176q2 0 2 2t-2 2q-179 0 -289 -174q-122 258 -383 258h-39q-109 0 -206.5 -25t-171.5 -68t-127.5 -89 t-96.5 -99q-96 -115 -150.5 -265t-54.5 -300zM481 264q0 118 80 205q95 100 266 100q27 0 197 -10q-26 -90 -48.5 -154t-57.5 -132.5t-73.5 -109.5t-94.5 -68t-123 -27t-106.5 59t-39.5 137zM1032 563q89 324 122 413q24 66 50 116q56 -158 88 -504q0 -15 4 -39 q-75 0 -243 12q-8 2 -21 2zM1163 1511v5q0 2 2 2h41q0 -2 2 -2l150 -156v-4h-2h-2z" />
<glyph unicode="&#xc1;" d="M0 555q0 -216 100 -346q113 -146 314 -146q2 1 2 3l-2 2q-188 0 -299 132t-111 355q0 149 54 297.5t151 265.5q43 53 96 98t126.5 88t170.5 68t205 25q287 0 395 -299q-29 -56 -57 -133t-44.5 -133t-41.5 -152l-33 -117q-117 10 -199 10q-176 0 -268 -100 q-82 -85 -82 -209q0 -81 40 -141t110 -60q177 0 288 193q53 95 115 303q3 0 11 -1t12 -1q188 -13 243 -12q8 -78 14.5 -128t18 -112t27 -100.5t37.5 -73.5t53.5 -51.5t71.5 -16.5q2 0 2 3h12q2 0 2 2t-2 2q-19 0 -35.5 6t-30 19.5t-25 28t-21 40.5t-16.5 47t-14 57 t-11.5 61.5t-10 69.5t-8.5 71.5t-8 76.5q106 7 145 43q23 23 23 55q0 2 -2 2l-2 -2q0 -31 -23 -51q-36 -36 -141 -43q-32 273 -56 382q-27 119 -65 204q110 176 287 176q2 0 2 2t-2 2q-179 0 -289 -174q-122 258 -383 258h-39q-109 0 -206.5 -25t-171.5 -68t-127.5 -89 t-96.5 -99q-96 -115 -150.5 -265t-54.5 -300zM481 264q0 118 80 205q95 100 266 100q27 0 197 -10q-26 -90 -48.5 -154t-57.5 -132.5t-73.5 -109.5t-94.5 -68t-123 -27t-106.5 59t-39.5 137zM1032 563q89 324 122 413q24 66 50 116q56 -158 88 -504q0 -15 4 -39 q-75 0 -243 12q-8 2 -21 2zM1200 1356v4l150 156l2 2h41l2 -2v-5l-191 -155h-2h-2z" />
<glyph unicode="&#xc2;" d="M0 555q0 -216 100 -346q113 -146 314 -146q2 1 2 3l-2 2q-188 0 -299 132t-111 355q0 149 54 297.5t151 265.5q43 53 96 98t126.5 88t170.5 68t205 25q287 0 395 -299q-29 -56 -57 -133t-44.5 -133t-41.5 -152l-33 -117q-117 10 -199 10q-176 0 -268 -100 q-82 -85 -82 -209q0 -81 40 -141t110 -60q177 0 288 193q53 95 115 303q3 0 11 -1t12 -1q188 -13 243 -12q8 -78 14.5 -128t18 -112t27 -100.5t37.5 -73.5t53.5 -51.5t71.5 -16.5q2 0 2 3h12q2 0 2 2t-2 2q-19 0 -35.5 6t-30 19.5t-25 28t-21 40.5t-16.5 47t-14 57 t-11.5 61.5t-10 69.5t-8.5 71.5t-8 76.5q106 7 145 43q23 23 23 55q0 2 -2 2l-2 -2q0 -31 -23 -51q-36 -36 -141 -43q-32 273 -56 382q-27 119 -65 204q110 176 287 176q2 0 2 2t-2 2q-179 0 -289 -174q-122 258 -383 258h-39q-109 0 -206.5 -25t-171.5 -68t-127.5 -89 t-96.5 -99q-96 -115 -150.5 -265t-54.5 -300zM481 264q0 118 80 205q95 100 266 100q27 0 197 -10q-26 -90 -48.5 -154t-57.5 -132.5t-73.5 -109.5t-94.5 -68t-123 -27t-106.5 59t-39.5 137zM1032 563q89 324 122 413q24 66 50 116q56 -158 88 -504q0 -15 4 -39 q-75 0 -243 12q-8 2 -21 2zM1102 1376v2l137 215h6l21 -30l127 -185v-2q-4 -4 -4 0l-125 180q-18 -31 -38.5 -62.5t-59.5 -75.5t-62 -44v2h-2z" />
<glyph unicode="&#xc3;" d="M0 555q0 -216 100 -346q113 -146 314 -146q2 1 2 3l-2 2q-188 0 -299 132t-111 355q0 149 54 297.5t151 265.5q43 53 96 98t126.5 88t170.5 68t205 25q287 0 395 -299q-29 -56 -57 -133t-44.5 -133t-41.5 -152l-33 -117q-117 10 -199 10q-176 0 -268 -100 q-82 -85 -82 -209q0 -81 40 -141t110 -60q177 0 288 193q53 95 115 303q3 0 11 -1t12 -1q188 -13 243 -12q8 -78 14.5 -128t18 -112t27 -100.5t37.5 -73.5t53.5 -51.5t71.5 -16.5q2 0 2 3h12q2 0 2 2t-2 2q-19 0 -35.5 6t-30 19.5t-25 28t-21 40.5t-16.5 47t-14 57 t-11.5 61.5t-10 69.5t-8.5 71.5t-8 76.5q106 7 145 43q23 23 23 55q0 2 -2 2l-2 -2q0 -31 -23 -51q-36 -36 -141 -43q-32 273 -56 382q-27 119 -65 204q110 176 287 176q2 0 2 2t-2 2q-179 0 -289 -174q-122 258 -383 258h-39q-109 0 -206.5 -25t-171.5 -68t-127.5 -89 t-96.5 -99q-96 -115 -150.5 -265t-54.5 -300zM481 264q0 118 80 205q95 100 266 100q27 0 197 -10q-26 -90 -48.5 -154t-57.5 -132.5t-73.5 -109.5t-94.5 -68t-123 -27t-106.5 59t-39.5 137zM1032 563q89 324 122 413q24 66 50 116q56 -158 88 -504q0 -15 4 -39 q-75 0 -243 12q-8 2 -21 2zM1065 1417q43 68 90 74q48 18 102 4t107 -59q48 13 90 80q0 4 4 0v-3q-6 -11 -17.5 -26t-34 -33t-42.5 -22q-39 -10 -113 26q-29 15 -45.5 21t-41.5 7t-48 -17.5t-47 -55.5z" />
<glyph unicode="&#xc4;" d="M0 555q0 -216 100 -346q113 -146 314 -146q2 1 2 3l-2 2q-188 0 -299 132t-111 355q0 149 54 297.5t151 265.5q43 53 96 98t126.5 88t170.5 68t205 25q287 0 395 -299q-29 -56 -57 -133t-44.5 -133t-41.5 -152l-33 -117q-117 10 -199 10q-176 0 -268 -100 q-82 -85 -82 -209q0 -81 40 -141t110 -60q177 0 288 193q53 95 115 303q3 0 11 -1t12 -1q188 -13 243 -12q8 -78 14.5 -128t18 -112t27 -100.5t37.5 -73.5t53.5 -51.5t71.5 -16.5q2 0 2 3h12q2 0 2 2t-2 2q-19 0 -35.5 6t-30 19.5t-25 28t-21 40.5t-16.5 47t-14 57 t-11.5 61.5t-10 69.5t-8.5 71.5t-8 76.5q106 7 145 43q23 23 23 55q0 2 -2 2l-2 -2q0 -31 -23 -51q-36 -36 -141 -43q-32 273 -56 382q-27 119 -65 204q110 176 287 176q2 0 2 2t-2 2q-179 0 -289 -174q-122 258 -383 258h-39q-109 0 -206.5 -25t-171.5 -68t-127.5 -89 t-96.5 -99q-96 -115 -150.5 -265t-54.5 -300zM481 264q0 118 80 205q95 100 266 100q27 0 197 -10q-26 -90 -48.5 -154t-57.5 -132.5t-73.5 -109.5t-94.5 -68t-123 -27t-106.5 59t-39.5 137zM1032 563q89 324 122 413q24 66 50 116q56 -158 88 -504q0 -15 4 -39 q-75 0 -243 12q-8 2 -21 2zM1071 1442q0 19 13 32t30 13q19 0 32 -13t13 -32q0 -20 -13 -33.5t-32 -13.5q-18 0 -30.5 13.5t-12.5 33.5zM1309 1442q0 19 13 32t30 13q19 0 32 -13t13 -32q0 -20 -13 -33.5t-32 -13.5q-18 0 -30.5 13.5t-12.5 33.5z" />
<glyph unicode="&#xc7;" horiz-adv-x="1617" d="M5 552q19 162 114 300q110 159 290.5 231.5t397.5 44.5q89 -12 201 -12q99 137 207 211t210 74h37q4 0 4 -2q50 -10 62 -39q17 -29 -12 -76q-42 -60 -161 -111t-292 -61l-31 -47q-90 -146 -142 -314t-52 -313q0 -236 135 -323v-2q68 -43 174 -43q148 0 342 206h2l2 -2 q-199 -211 -346 -211q-92 0 -168 29q0 -17 -6 -26q-5 -11 -25 -11q-17 0 -30 -17.5t-13 -39.5q0 -18 13 -31q14 -14 43 -14q2 0 2 -2t-2 -2q-34 0 -48 14t-14 35t15 41t34 20q14 0 21 11q6 6 6 22q-98 40 -149.5 132.5t-51.5 230.5q0 141 56 308t151 312l25 35 q-91 0 -199 12q-217 28 -395.5 -43t-288.5 -229q-95 -137 -113.5 -298t47.5 -286q50 -95 142 -146.5t215 -51.5q2 0 2 -2l-2 -3q-124 0 -217 52t-146 149q-65 126 -46 288zM1067 1118q169 10 285.5 60t158.5 110q28 42 13 70q-15 34 -80 37q-95 -6 -192.5 -78t-184.5 -199z " />
<glyph unicode="&#xc8;" horiz-adv-x="1617" d="M5 552q19 162 114 300q110 159 290.5 231.5t397.5 44.5q132 -17 260 -10q28 55 72 115q65 80 139.5 124t146.5 44q85 0 103 -41q17 -29 -12 -76q-39 -55 -143 -102.5t-255 -63.5q-55 -117 -55 -196q0 -17 4 -41q43 16 80 16q14 0 28.5 -2t32 -6.5t28.5 -15t11 -25.5 q0 -31 -31.5 -44t-68.5 -13q-65 0 -100 38q-2 2 -5 6t-4 5q-103 -68 -173 -204t-70 -265q0 -135 79 -211q90 -90 273 -90q148 0 350 217q2 2 4 0v-4q-201 -220 -354 -220q-203 0 -309 95q-90 84 -90 223q0 85 33 176.5t91 169.5q68 88 154 135q-12 27 -12 68q0 85 51 182 q-128 -7 -258 10q-217 28 -395.5 -43t-288.5 -229q-95 -137 -113.5 -298t47.5 -286q50 -95 142 -146.5t215 -51.5q2 0 2 -2l-2 -3q-124 0 -218 52t-145 149q-65 126 -46 288zM1073 862q6 -18 19 -31q16 -19 52 -27t67.5 2.5t31.5 41.5q1 24 -35 30t-75.5 -0.5t-59.5 -15.5z M1120 1122q149 16 251 63.5t140 102.5q28 42 13 70q-19 39 -99 39q-76 0 -162 -81.5t-143 -193.5zM1298 1608v4q0 2 2 2h41q0 -2 2 -2l150 -156v-4h-2h-2z" />
<glyph unicode="&#xc9;" horiz-adv-x="1617" d="M5 552q19 162 114 300q110 159 290.5 231.5t397.5 44.5q132 -17 260 -10q28 55 72 115q65 80 139.5 124t146.5 44q85 0 103 -41q17 -29 -12 -76q-39 -55 -143 -102.5t-255 -63.5q-55 -117 -55 -196q0 -17 4 -41q43 16 80 16q14 0 28.5 -2t32 -6.5t28.5 -15t11 -25.5 q0 -31 -31.5 -44t-68.5 -13q-65 0 -100 38q-2 2 -5 6t-4 5q-103 -68 -173 -204t-70 -265q0 -135 79 -211q90 -90 273 -90q148 0 350 217q2 2 4 0v-4q-201 -220 -354 -220q-203 0 -309 95q-90 84 -90 223q0 85 33 176.5t91 169.5q68 88 154 135q-12 27 -12 68q0 85 51 182 q-128 -7 -258 10q-217 28 -395.5 -43t-288.5 -229q-95 -137 -113.5 -298t47.5 -286q50 -95 142 -146.5t215 -51.5q2 0 2 -2l-2 -3q-124 0 -218 52t-145 149q-65 126 -46 288zM1073 862q6 -18 19 -31q16 -19 52 -27t67.5 2.5t31.5 41.5q1 24 -35 30t-75.5 -0.5t-59.5 -15.5z M1120 1122q149 16 251 63.5t140 102.5q28 42 13 70q-19 39 -99 39q-76 0 -162 -81.5t-143 -193.5zM1249 1458v4l150 156l2 2h41l2 -2v-4l-191 -156h-2h-2z" />
<glyph unicode="&#xca;" horiz-adv-x="1617" d="M5 552q19 162 114 300q110 159 290.5 231.5t397.5 44.5q132 -17 260 -10q28 55 72 115q65 80 139.5 124t146.5 44q85 0 103 -41q17 -29 -12 -76q-39 -55 -143 -102.5t-255 -63.5q-55 -117 -55 -196q0 -17 4 -41q43 16 80 16q14 0 28.5 -2t32 -6.5t28.5 -15t11 -25.5 q0 -31 -31.5 -44t-68.5 -13q-65 0 -100 38q-2 2 -5 6t-4 5q-103 -68 -173 -204t-70 -265q0 -135 79 -211q90 -90 273 -90q148 0 350 217q2 2 4 0v-4q-201 -220 -354 -220q-203 0 -309 95q-90 84 -90 223q0 85 33 176.5t91 169.5q68 88 154 135q-12 27 -12 68q0 85 51 182 q-128 -7 -258 10q-217 28 -395.5 -43t-288.5 -229q-95 -137 -113.5 -298t47.5 -286q50 -95 142 -146.5t215 -51.5q2 0 2 -2l-2 -3q-124 0 -218 52t-145 149q-65 126 -46 288zM1073 862q6 -18 19 -31q16 -19 52 -27t67.5 2.5t31.5 41.5q1 24 -35 30t-75.5 -0.5t-59.5 -15.5z M1120 1122q149 16 251 63.5t140 102.5q28 42 13 70q-19 39 -99 39q-76 0 -162 -81.5t-143 -193.5zM1221 1460v2l137 215h6l20 -30l127 -185v-2q-4 -4 -4 0l-125 180q-108 -182 -159 -182v2h-2z" />
<glyph unicode="&#xcb;" horiz-adv-x="1617" d="M5 552q19 162 114 300q110 159 290.5 231.5t397.5 44.5q132 -17 260 -10q28 55 72 115q65 80 139.5 124t146.5 44q85 0 103 -41q17 -29 -12 -76q-39 -55 -143 -102.5t-255 -63.5q-55 -117 -55 -196q0 -17 4 -41q43 16 80 16q14 0 28.5 -2t32 -6.5t28.5 -15t11 -25.5 q0 -31 -31.5 -44t-68.5 -13q-65 0 -100 38q-2 2 -5 6t-4 5q-103 -68 -173 -204t-70 -265q0 -135 79 -211q90 -90 273 -90q148 0 350 217q2 2 4 0v-4q-201 -220 -354 -220q-203 0 -309 95q-90 84 -90 223q0 85 33 176.5t91 169.5q68 88 154 135q-12 27 -12 68q0 85 51 182 q-128 -7 -258 10q-217 28 -395.5 -43t-288.5 -229q-95 -137 -113.5 -298t47.5 -286q50 -95 142 -146.5t215 -51.5q2 0 2 -2l-2 -3q-124 0 -218 52t-145 149q-65 126 -46 288zM1073 862q6 -18 19 -31q16 -19 52 -27t67.5 2.5t31.5 41.5q1 24 -35 30t-75.5 -0.5t-59.5 -15.5z M1120 1122q149 16 251 63.5t140 102.5q28 42 13 70q-19 39 -99 39q-76 0 -162 -81.5t-143 -193.5zM1202 1513q0 19 13 32.5t30 13.5q19 0 32 -13.5t13 -32.5q0 -20 -13 -33.5t-32 -13.5q-18 0 -30.5 13.5t-12.5 33.5zM1440 1513q0 19 13 32.5t30 13.5q19 0 32 -13.5 t13 -32.5q0 -20 -13 -33.5t-32 -13.5q-18 0 -30.5 13.5t-12.5 33.5z" />
<glyph unicode="&#xcc;" horiz-adv-x="1210" d="M0 545q0 150 53 300.5t148 270.5q43 55 95 101t122.5 90t163.5 69t196 25q160 0 240 -160q69 -141 69 -371q0 -293 -96 -542q-106 -265 -235 -265q-45 0 -66 27q-20 20 -20 66q0 53 30 124t76 134.5t108.5 109t121.5 49.5q28 162 28 318q0 224 -59 354q-65 152 -197 152 q-139 0 -263 -49t-216 -133t-159.5 -193t-101.5 -231.5t-34 -245.5q0 -205 98 -336q107 -141 301 -141q3 0 3 -2q0 -3 -3 -3q-194 0 -305 142q-98 128 -98 340zM676 156q0 -43 18 -64q18 -24 62 -24q50 0 100.5 71t91.5 199q38 117 58 229q-58 -4 -119.5 -49t-106.5 -107.5 t-74.5 -132.5t-29.5 -122zM883 1511v5q0 2 2 2h41q0 -2 2 -2l149 -156v-4h-2h-2z" />
<glyph unicode="&#xcd;" horiz-adv-x="1210" d="M0 545q0 150 53 300.5t148 270.5q43 55 95 101t122.5 90t163.5 69t196 25q160 0 240 -160q69 -141 69 -371q0 -293 -96 -542q-106 -265 -235 -265q-45 0 -66 27q-20 20 -20 66q0 53 30 124t76 134.5t108.5 109t121.5 49.5q28 162 28 318q0 224 -59 354q-65 152 -197 152 q-139 0 -263 -49t-216 -133t-159.5 -193t-101.5 -231.5t-34 -245.5q0 -205 98 -336q107 -141 301 -141q3 0 3 -2q0 -3 -3 -3q-194 0 -305 142q-98 128 -98 340zM676 156q0 -43 18 -64q18 -24 62 -24q50 0 100.5 71t91.5 199q38 117 58 229q-58 -4 -119.5 -49t-106.5 -107.5 t-74.5 -132.5t-29.5 -122zM893 1454v4l149 156l2 2h41l2 -2v-4l-190 -156h-2h-2z" />
<glyph unicode="&#xce;" horiz-adv-x="1210" d="M0 545q0 150 53 300.5t148 270.5q43 55 95 101t122.5 90t163.5 69t196 25q160 0 240 -160q69 -141 69 -371q0 -293 -96 -542q-106 -265 -235 -265q-45 0 -66 27q-20 20 -20 66q0 53 30 124t76 134.5t108.5 109t121.5 49.5q28 162 28 318q0 224 -59 354q-65 152 -197 152 q-139 0 -263 -49t-216 -133t-159.5 -193t-101.5 -231.5t-34 -245.5q0 -205 98 -336q107 -141 301 -141q3 0 3 -2q0 -3 -3 -3q-194 0 -305 142q-98 128 -98 340zM676 156q0 -43 18 -64q18 -24 62 -24q50 0 100.5 71t91.5 199q38 117 58 229q-58 -4 -119.5 -49t-106.5 -107.5 t-74.5 -132.5t-29.5 -122zM834 1491v2l137 215h6l20 -31l127 -184v-2q-4 -4 -4 0l-125 180q-108 -182 -159 -182v2h-2z" />
<glyph unicode="&#xcf;" horiz-adv-x="1210" d="M0 545q0 150 53 300.5t148 270.5q43 55 95 101t122.5 90t163.5 69t196 25q160 0 240 -160q69 -141 69 -371q0 -293 -96 -542q-106 -265 -235 -265q-45 0 -66 27q-20 20 -20 66q0 53 30 124t76 134.5t108.5 109t121.5 49.5q28 162 28 318q0 224 -59 354q-65 152 -197 152 q-139 0 -263 -49t-216 -133t-159.5 -193t-101.5 -231.5t-34 -245.5q0 -205 98 -336q107 -141 301 -141q3 0 3 -2q0 -3 -3 -3q-194 0 -305 142q-98 128 -98 340zM676 156q0 -43 18 -64q18 -24 62 -24q50 0 100.5 71t91.5 199q38 117 58 229q-58 -4 -119.5 -49t-106.5 -107.5 t-74.5 -132.5t-29.5 -122zM793 1544q0 19 13 32t30 13q19 0 32 -13t13 -32q0 -20 -13 -33.5t-32 -13.5q-18 0 -30.5 13.5t-12.5 33.5zM1030 1544q0 19 13 32t30 13q19 0 32 -13t13 -32q0 -20 -13 -33.5t-32 -13.5q-18 0 -30.5 13.5t-12.5 33.5z" />
<glyph unicode="&#xd0;" horiz-adv-x="1736" d="M0 555q0 150 54.5 300t150.5 265q44 54 97.5 99.5t127.5 88.5t171 68t206 25q188 0 303 -174q70 90 154 90q92 0 164.5 -94.5t108.5 -237t36 -301.5q0 -254 -90 -426q-105 -195 -336 -195q-2 0 -2 5q0 2 2 2q188 0 287 190q86 166 86 424q0 154 -31 297t-91 237.5 t-134 94.5q-84 0 -150 -90q15 -24 31 -56q100 -202 100 -497q0 -154 -28.5 -292.5t-86 -230.5t-131.5 -92q-42 0 -61.5 96.5t-19.5 235.5q0 331 81 604q34 113 84 197q-101 209 -276 209q-159 0 -295 -54.5t-227.5 -142t-156.5 -199t-94.5 -225t-29.5 -221.5 q0 -221 112 -354t298 -133q2 0 2 -2q0 -3 -2 -3q-202 0 -312 146q-102 129 -102 346zM922 387q0 -149 21 -238.5t56 -89.5q56 0 99.5 86.5t65.5 217t22 276.5q0 309 -88 514q-6 15 -13 29q-45 -73 -79 -193q-84 -273 -84 -602zM985 649l2 2h418q2 0 2 -2t-2 -2h-418z" />
<glyph unicode="&#xd1;" horiz-adv-x="1683" d="M0 545q0 149 53.5 299.5t147.5 271.5q43 55 95 101t123 90t164 69t197 25q156 0 240 -158q42 -86 61 -217q235 313 437 313q34 0 55 -24q22 -27 26.5 -83.5t-7 -136.5t-28.5 -164t-40 -189q-4 -17 -6 -25q-20 -87 -30.5 -134t-26 -124t-20.5 -123.5t-8.5 -99.5t4 -87.5 t23.5 -54.5q20 -23 53 -26h5q2 0 2 -2q0 -3 -2 -3h-5q-52 0 -83 39t-39 114t6 176t33 197t46 215q10 43 15 64q88 403 45 459q-8 8 -18 8q-98 0 -210 -82t-227 -235q9 -68 9 -141q0 -185 -44 -372.5t-123 -314.5t-167 -127q-25 0 -41 25q-13 23 -13 64q0 126 95.5 362 t234.5 442q-6 178 -57 289q-65 152 -195 152q-173 0 -322 -75.5t-246.5 -197t-152.5 -273t-55 -306.5q0 -205 98 -336q107 -141 301 -141q3 0 3 -2q0 -3 -3 -3q-195 0 -305 144q-98 125 -98 338zM709 152q0 -39 10 -62q13 -22 37 -22q51 0 101 70.5t91 199.5q86 266 86 553 q0 39 -2 57q-44 -68 -61 -98q-112 -187 -187 -387t-75 -311zM1128 1417q43 68 91 74q48 18 101.5 4t106.5 -59q49 13 91 80q0 4 4 0v-3q-12 -20 -39 -48t-56 -33q-7 -5 -23 -3t-22.5 2.5t-22 6.5t-22.5 9t-22 11q-29 15 -45.5 21t-41.5 7t-48 -17.5t-47 -55.5z" />
<glyph unicode="&#xd2;" horiz-adv-x="1634" d="M0 354q0 80 33 166.5t100 171t157.5 156t215.5 124t264 72.5q20 64 49 127q117 230 299 230q100 0 176 -53.5t76 -122.5q0 -75 -98 -119q-113 -55 -338 -55q-78 0 -115 -4q-51 -178 -51 -379q0 -108 17 -208t52 -189t97 -143.5t143 -57.5h8q66 0 137 48.5t134 137.5 q96 141 139 330q-65 81 -105.5 169.5t-53 162.5t-8 133.5t23.5 97.5q22 42 51 39q42 -3 70 -82q87 -241 28 -520v-2q-44 -192 -141 -332q-63 -89 -135.5 -139t-139.5 -50q-5 0 -8 3q-176 3 -272 188q-90 172 -90 424q0 194 53 362q-138 -20 -261.5 -72.5t-213.5 -123.5 t-155.5 -155t-98.5 -170t-33 -165q0 -127 84 -202q90 -84 264 -84q2 0 2 -2l-2 -3q-175 0 -268 84q-86 77 -86 207zM821 1051q56 6 113 6q221 0 336 53q96 46 96 115q0 66 -76.5 119t-171.5 53q-99 0 -175.5 -94.5t-121.5 -251.5zM1083 1657v4q0 2 2 2h41q0 -2 2 -2 l150 -156v-4h-2h-2zM1333 1050.5q-4 -58.5 8 -131.5t52 -160t104 -167q59 268 -31 512q-12 36 -29 57t-34 23h-2q-26 0 -45 -37q-19 -38 -23 -96.5z" />
<glyph unicode="&#xd3;" horiz-adv-x="1634" d="M0 354q0 80 33 166.5t100 171t157.5 156t215.5 124t264 72.5q20 64 49 127q117 230 299 230q100 0 176 -53.5t76 -122.5q0 -75 -98 -119q-113 -55 -338 -55q-78 0 -115 -4q-51 -178 -51 -379q0 -108 17 -208t52 -189t97 -143.5t143 -57.5h8q66 0 137 48.5t134 137.5 q96 141 139 330q-65 81 -105.5 169.5t-53 162.5t-8 133.5t23.5 97.5q22 42 51 39q42 -3 70 -82q87 -241 28 -520v-2q-44 -192 -141 -332q-63 -89 -135.5 -139t-139.5 -50q-5 0 -8 3q-176 3 -272 188q-90 172 -90 424q0 194 53 362q-138 -20 -261.5 -72.5t-213.5 -123.5 t-155.5 -155t-98.5 -170t-33 -165q0 -127 84 -202q90 -84 264 -84q2 0 2 -2l-2 -3q-175 0 -268 84q-86 77 -86 207zM821 1051q56 6 113 6q221 0 336 53q96 46 96 115q0 66 -76.5 119t-171.5 53q-99 0 -175.5 -94.5t-121.5 -251.5zM1071 1489v4l150 156l2 2h41l2 -2v-4 l-191 -156h-2h-2zM1333 1050.5q-4 -58.5 8 -131.5t52 -160t104 -167q59 268 -31 512q-12 36 -29 57t-34 23h-2q-26 0 -45 -37q-19 -38 -23 -96.5z" />
<glyph unicode="&#xd4;" horiz-adv-x="1634" d="M0 354q0 80 33 166.5t100 171t157.5 156t215.5 124t264 72.5q20 64 49 127q117 230 299 230q100 0 176 -53.5t76 -122.5q0 -75 -98 -119q-113 -55 -338 -55q-78 0 -115 -4q-51 -178 -51 -379q0 -108 17 -208t52 -189t97 -143.5t143 -57.5h8q66 0 137 48.5t134 137.5 q96 141 139 330q-65 81 -105.5 169.5t-53 162.5t-8 133.5t23.5 97.5q22 42 51 39q42 -3 70 -82q87 -241 28 -520v-2q-44 -192 -141 -332q-63 -89 -135.5 -139t-139.5 -50q-5 0 -8 3q-176 3 -272 188q-90 172 -90 424q0 194 53 362q-138 -20 -261.5 -72.5t-213.5 -123.5 t-155.5 -155t-98.5 -170t-33 -165q0 -127 84 -202q90 -84 264 -84q2 0 2 -2l-2 -3q-175 0 -268 84q-86 77 -86 207zM821 1051q56 6 113 6q221 0 336 53q96 46 96 115q0 66 -76.5 119t-171.5 53q-99 0 -175.5 -94.5t-121.5 -251.5zM1047 1473v2l137 215h6l20 -31l127 -184v-2 q-4 -4 -4 0l-125 180q-108 -183 -159 -183v3h-2zM1333 1050.5q-4 -58.5 8 -131.5t52 -160t104 -167q59 268 -31 512q-12 36 -29 57t-34 23h-2q-26 0 -45 -37q-19 -38 -23 -96.5z" />
<glyph unicode="&#xd5;" horiz-adv-x="1634" d="M0 354q0 80 33 166.5t100 171t157.5 156t215.5 124t264 72.5q20 64 49 127q117 230 299 230q100 0 176 -53.5t76 -122.5q0 -75 -98 -119q-113 -55 -338 -55q-78 0 -115 -4q-51 -178 -51 -379q0 -108 17 -208t52 -189t97 -143.5t143 -57.5h8q66 0 137 48.5t134 137.5 q96 141 139 330q-65 81 -105.5 169.5t-53 162.5t-8 133.5t23.5 97.5q22 42 51 39q42 -3 70 -82q87 -241 28 -520v-2q-44 -192 -141 -332q-63 -89 -135.5 -139t-139.5 -50q-5 0 -8 3q-176 3 -272 188q-90 172 -90 424q0 194 53 362q-138 -20 -261.5 -72.5t-213.5 -123.5 t-155.5 -155t-98.5 -170t-33 -165q0 -127 84 -202q90 -84 264 -84q2 0 2 -2l-2 -3q-175 0 -268 84q-86 77 -86 207zM821 1051q56 6 113 6q221 0 336 53q96 46 96 115q0 66 -76.5 119t-171.5 53q-99 0 -175.5 -94.5t-121.5 -251.5zM995 1526q42 67 90 73q48 18 102 4t107 -59 q48 13 90 80q0 2 2 2t3 -2v-2q-12 -21 -39 -49t-56 -33q-9 -2 -18.5 -3t-20.5 1.5t-17 4t-20 7.5t-17 7.5l-19 9.5q-28 15 -45 21t-42.5 7t-48.5 -17.5t-47 -55.5zM1333 1050.5q-4 -58.5 8 -131.5t52 -160t104 -167q59 268 -31 512q-12 36 -29 57t-34 23h-2q-26 0 -45 -37 q-19 -38 -23 -96.5z" />
<glyph unicode="&#xd6;" horiz-adv-x="1634" d="M0 354q0 80 33 166.5t100 171t157.5 156t215.5 124t264 72.5q20 64 49 127q117 230 299 230q100 0 176 -53.5t76 -122.5q0 -75 -98 -119q-113 -55 -338 -55q-78 0 -115 -4q-51 -178 -51 -379q0 -108 17 -208t52 -189t97 -143.5t143 -57.5h8q66 0 137 48.5t134 137.5 q96 141 139 330q-65 81 -105.5 169.5t-53 162.5t-8 133.5t23.5 97.5q22 42 51 39q42 -3 70 -82q87 -241 28 -520v-2q-44 -192 -141 -332q-63 -89 -135.5 -139t-139.5 -50q-5 0 -8 3q-176 3 -272 188q-90 172 -90 424q0 194 53 362q-138 -20 -261.5 -72.5t-213.5 -123.5 t-155.5 -155t-98.5 -170t-33 -165q0 -127 84 -202q90 -84 264 -84q2 0 2 -2l-2 -3q-175 0 -268 84q-86 77 -86 207zM821 1051q56 6 113 6q221 0 336 53q96 46 96 115q0 66 -76.5 119t-171.5 53q-99 0 -175.5 -94.5t-121.5 -251.5zM1016 1575q0 19 13 32t30 13q19 0 32 -13 t13 -32q0 -20 -13 -33.5t-32 -13.5q-18 0 -30.5 13.5t-12.5 33.5zM1253 1575q0 19 13 32t30 13q19 0 32 -13t13 -32q0 -20 -13 -33.5t-32 -13.5q-18 0 -30.5 13.5t-12.5 33.5zM1333 1050.5q-4 -58.5 8 -131.5t52 -160t104 -167q59 268 -31 512q-12 36 -29 57t-34 23h-2 q-26 0 -45 -37q-19 -38 -23 -96.5z" />
<glyph unicode="&#xd9;" horiz-adv-x="1630" d="M0 555q0 149 55 299t152 266q43 54 96.5 99.5t127 88.5t171 68t207.5 25q73 0 113 -49q30 -36 43 -102.5t13.5 -131t-13.5 -172.5t-25.5 -173.5t-34.5 -186.5q-21 -113 -31 -170.5t-20.5 -138.5t-6.5 -126.5t21 -66.5q16 -16 37 -16q49 0 103.5 40t105.5 108t92.5 136.5 t81.5 147.5q-2 31 -2 90q0 247 66 448q35 103 81 158t97 55q9 0 14 -10q4 -12 4 -24q0 -74 -61.5 -259t-151.5 -374q1 -99 12 -187t33 -164t60.5 -120.5t89.5 -44.5q4 0 4 -2q0 -3 -4 -3q-56 0 -101 35t-73 96t-44.5 135t-21.5 160q-100 -191 -200 -308.5t-185 -117.5 q-38 0 -59 27q-24 29 -32 83.5t2 149.5t20 160t34 199q18 100 25.5 145t20.5 132t15.5 134t2.5 107t-11.5 98t-31.5 62q-27 34 -76 37h-6q-109 0 -206 -25t-170 -68t-126 -88t-96 -98q-97 -117 -151 -265.5t-54 -297.5q0 -222 111.5 -354.5t298.5 -132.5q2 0 2 -2l-2 -3 q-199 0 -314 146q-102 133 -102 346zM1120 1511v5q0 2 2 2h41q0 -2 2 -2l150 -156v-4h-2h-2zM1335 596q90 190 148.5 370t58.5 251q0 18 -2 22q-3 6 -10 6q-55 0 -100.5 -97t-69.5 -244.5t-25 -307.5z" />
<glyph unicode="&#xda;" horiz-adv-x="1630" d="M0 555q0 149 55 299t152 266q43 54 96.5 99.5t127 88.5t171 68t207.5 25q73 0 113 -49q30 -36 43 -102.5t13.5 -131t-13.5 -172.5t-25.5 -173.5t-34.5 -186.5q-21 -113 -31 -170.5t-20.5 -138.5t-6.5 -126.5t21 -66.5q16 -16 37 -16q49 0 103.5 40t105.5 108t92.5 136.5 t81.5 147.5q-2 31 -2 90q0 247 66 448q35 103 81 158t97 55q9 0 14 -10q4 -12 4 -24q0 -74 -61.5 -259t-151.5 -374q1 -99 12 -187t33 -164t60.5 -120.5t89.5 -44.5q4 0 4 -2q0 -3 -4 -3q-56 0 -101 35t-73 96t-44.5 135t-21.5 160q-100 -191 -200 -308.5t-185 -117.5 q-38 0 -59 27q-24 29 -32 83.5t2 149.5t20 160t34 199q18 100 25.5 145t20.5 132t15.5 134t2.5 107t-11.5 98t-31.5 62q-27 34 -76 37h-6q-109 0 -206 -25t-170 -68t-126 -88t-96 -98q-97 -117 -151 -265.5t-54 -297.5q0 -222 111.5 -354.5t298.5 -132.5q2 0 2 -2l-2 -3 q-199 0 -314 146q-102 133 -102 346zM1114 1356v4l150 156l2 2h41l2 -2v-5l-191 -155h-2h-2zM1335 596q90 190 148.5 370t58.5 251q0 18 -2 22q-3 6 -10 6q-55 0 -100.5 -97t-69.5 -244.5t-25 -307.5z" />
<glyph unicode="&#xdb;" horiz-adv-x="1630" d="M0 555q0 149 55 299t152 266q43 54 96.5 99.5t127 88.5t171 68t207.5 25q73 0 113 -49q30 -36 43 -102.5t13.5 -131t-13.5 -172.5t-25.5 -173.5t-34.5 -186.5q-21 -113 -31 -170.5t-20.5 -138.5t-6.5 -126.5t21 -66.5q16 -16 37 -16q49 0 103.5 40t105.5 108t92.5 136.5 t81.5 147.5q-2 31 -2 90q0 247 66 448q35 103 81 158t97 55q9 0 14 -10q4 -12 4 -24q0 -74 -61.5 -259t-151.5 -374q1 -99 12 -187t33 -164t60.5 -120.5t89.5 -44.5q4 0 4 -2q0 -3 -4 -3q-56 0 -101 35t-73 96t-44.5 135t-21.5 160q-100 -191 -200 -308.5t-185 -117.5 q-38 0 -59 27q-24 29 -32 83.5t2 149.5t20 160t34 199q18 100 25.5 145t20.5 132t15.5 134t2.5 107t-11.5 98t-31.5 62q-27 34 -76 37h-6q-109 0 -206 -25t-170 -68t-126 -88t-96 -98q-97 -117 -151 -265.5t-54 -297.5q0 -222 111.5 -354.5t298.5 -132.5q2 0 2 -2l-2 -3 q-199 0 -314 146q-102 133 -102 346zM1063 1231v2l137 215h6l21 -31l127 -184v-2q-4 -4 -4 0l-125 180q-18 -31 -38.5 -62.5t-59.5 -75.5t-62 -44v2h-2zM1335 596q90 190 148.5 370t58.5 251q0 18 -2 22q-3 6 -10 6q-55 0 -100.5 -97t-69.5 -244.5t-25 -307.5z" />
<glyph unicode="&#xdc;" horiz-adv-x="1630" d="M0 555q0 149 55 299t152 266q43 54 96.5 99.5t127 88.5t171 68t207.5 25q73 0 113 -49q30 -36 43 -102.5t13.5 -131t-13.5 -172.5t-25.5 -173.5t-34.5 -186.5q-21 -113 -31 -170.5t-20.5 -138.5t-6.5 -126.5t21 -66.5q16 -16 37 -16q49 0 103.5 40t105.5 108t92.5 136.5 t81.5 147.5q-2 31 -2 90q0 247 66 448q35 103 81 158t97 55q9 0 14 -10q4 -12 4 -24q0 -74 -61.5 -259t-151.5 -374q1 -99 12 -187t33 -164t60.5 -120.5t89.5 -44.5q4 0 4 -2q0 -3 -4 -3q-56 0 -101 35t-73 96t-44.5 135t-21.5 160q-100 -191 -200 -308.5t-185 -117.5 q-38 0 -59 27q-24 29 -32 83.5t2 149.5t20 160t34 199q18 100 25.5 145t20.5 132t15.5 134t2.5 107t-11.5 98t-31.5 62q-27 34 -76 37h-6q-109 0 -206 -25t-170 -68t-126 -88t-96 -98q-97 -117 -151 -265.5t-54 -297.5q0 -222 111.5 -354.5t298.5 -132.5q2 0 2 -2l-2 -3 q-199 0 -314 146q-102 133 -102 346zM1055 1442q0 19 13 32t30 13q19 0 32 -13t13 -32q0 -20 -13 -33.5t-32 -13.5q-18 0 -30.5 13.5t-12.5 33.5zM1292 1442q0 19 13 32t30 13q19 0 32 -13t13 -32q0 -20 -13 -33.5t-32 -13.5q-18 0 -30.5 13.5t-12.5 33.5zM1335 596 q90 190 148.5 370t58.5 251q0 18 -2 22q-3 6 -10 6q-55 0 -100.5 -97t-69.5 -244.5t-25 -307.5z" />
<glyph unicode="&#xdd;" horiz-adv-x="1630" d="M0 555q0 149 55 299t152 266q43 54 96.5 99.5t127 88.5t171 68t207.5 25q79 0 123 -53q37 -46 42 -148t-14 -222.5t-44 -260t-47.5 -260.5t-24.5 -223.5t24 -149.5q10 -16 37 -16q55 0 117 50t119 133t100 159t82 159q34 70 76 166q5 244 33.5 378.5t95.5 137.5h2 q9 0 14 -10q4 -12 4 -24q0 -99 -102 -373q-2 -92 -2 -295q0 -199 -2 -297q53 69 86 106l4 2q4 -4 0 -4q-60 -71 -90 -112q-2 -110 -7 -199t-14 -181.5t-24.5 -161t-37.5 -124t-54.5 -85t-73.5 -30.5h-4q-41 0 -60 45q-13 29 -16 74.5t9 110.5t38.5 138.5t76.5 166.5t118 188 q0 37 1 112.5t1 113.5q0 211 2 309q-53 -126 -111 -237t-123 -208.5t-132.5 -155t-125.5 -57.5q-38 0 -59 27q-24 29 -32 83.5t2 149.5t20 160t34 199q18 100 25.5 145t20.5 132t15.5 134t2.5 107t-11.5 98t-31.5 62q-27 34 -76 37h-6q-109 0 -206 -25t-170 -68t-126 -88 t-96 -98q-97 -117 -151 -265.5t-54 -297.5q0 -222 111.5 -354.5t298.5 -132.5q2 0 2 -2l-2 -3q-199 0 -314 146q-102 133 -102 346zM1155.5 -416q2.5 -44 15.5 -73q18 -41 56 -41h4q32 1 57 27t42 76t29 111t18.5 145.5t10 165t5.5 183.5q-67 -94 -116 -185.5t-75 -164 t-37.5 -136.5t-9 -108zM1159 1356v4l150 156l2 2h41l2 -2v-5l-191 -155h-2h-2zM1446 860q96 255 96 357q0 18 -2 22q-3 6 -10 6h-2q-72 -5 -82 -385z" />
<glyph unicode="&#xdf;" horiz-adv-x="792" d="M61 623q-3 362 117 536q80 121 209 121q173 0 217 -86q22 -57 2 -133v-2q-14 -53 -48.5 -116.5t-57 -95t-35.5 -46.5q15 -37 43.5 -81t50 -72.5t59.5 -74.5q37 -47 55 -71t35 -55.5t17 -51.5q0 -151 -133 -245q-51 -37 -117 -58.5t-125 -21.5q-39 0 -71 12q-14 5 -19 8 q-24 15 -24 45l2 4l4 -4q0 -24 28 -43h2q7 -2 9 -2q16 -8 47 -8q37 0 81.5 12.5t90.5 38.5t83.5 62t61 88.5t23.5 111.5q0 28 -28 71t-85 116q-103 128 -149 219v4l2 1q112 87 168 196q13 27 22 53q25 82 0 133q-44 86 -211 86q-106 -22 -172 -144q-67 -120 -85 -325.5 t4.5 -396.5t68.5 -324q3 0 3 -1t-3 -1v-4l-45 -8q-4 0 -4 2q-43 103 -68 251.5t-25 299.5z" />
<glyph unicode="&#xe0;" horiz-adv-x="688" d="M0 281q0 -20 8 -31q6 -12 25 -12q32 0 101 45.5t111 80.5t79 68q-57 -256 2 -332q14 -23 49 -26h6q43 0 115.5 68.5t143 163t113 156.5t56.5 85q4 0 0 4q-2 0 -4 -2q-2 -5 -33 -50.5t-83 -116.5t-107 -138t-111 -115.5t-90 -48.5h-8q-15 0 -25 14q-9 11 -13.5 30 t-5.5 41.5t0.5 48.5t5 52t7.5 51t8.5 46.5t8 38t5.5 26.5l3 10v2h-37q-4 4 -4 0q-8 -8 -45.5 -40.5t-102.5 -80.5t-106 -65q-12 0 -17 8q-6 6 -6 21q-1 54 44.5 150t106 168t97.5 61q24 -10 39 -31q32 -57 -6 -142v-2h4q40 93 6 146q-26 41 -72 41q-49 0 -114 -75 t-109.5 -169t-44.5 -149zM248 1102v4q0 2 2 2h41q0 -2 2 -2l149 -156v-4h-2h-2z" />
<glyph unicode="&#xe1;" horiz-adv-x="688" d="M0 281q0 -20 8 -31q6 -12 25 -12q32 0 101 45.5t111 80.5t79 68q-57 -256 2 -332q14 -23 49 -26h6q43 0 115.5 68.5t143 163t113 156.5t56.5 85q4 0 0 4q-2 0 -4 -2q-2 -5 -33 -50.5t-83 -116.5t-107 -138t-111 -115.5t-90 -48.5h-8q-15 0 -25 14q-9 11 -13.5 30 t-5.5 41.5t0.5 48.5t5 52t7.5 51t8.5 46.5t8 38t5.5 26.5l3 10v2h-37q-4 4 -4 0q-8 -8 -45.5 -40.5t-102.5 -80.5t-106 -65q-12 0 -17 8q-6 6 -6 21q-1 54 44.5 150t106 168t97.5 61q24 -10 39 -31q32 -57 -6 -142v-2h4q40 93 6 146q-26 41 -72 41q-49 0 -114 -75 t-109.5 -169t-44.5 -149zM246 946v4l149 156l2 2h41l2 -2v-4l-190 -156h-2h-2z" />
<glyph unicode="&#xe2;" horiz-adv-x="688" d="M0 281q0 -20 8 -31q6 -12 25 -12q32 0 101 45.5t111 80.5t79 68q-57 -256 2 -332q14 -23 49 -26h6q43 0 115.5 68.5t143 163t113 156.5t56.5 85q4 0 0 4q-2 0 -4 -2q-2 -5 -33 -50.5t-83 -116.5t-107 -138t-111 -115.5t-90 -48.5h-8q-15 0 -25 14q-9 11 -13.5 30 t-5.5 41.5t0.5 48.5t5 52t7.5 51t8.5 46.5t8 38t5.5 26.5l3 10v2h-37q-4 4 -4 0q-8 -8 -45.5 -40.5t-102.5 -80.5t-106 -65q-12 0 -17 8q-6 6 -6 21q-1 54 44.5 150t106 168t97.5 61q24 -10 39 -31q32 -57 -6 -142v-2h4q40 93 6 146q-26 41 -72 41q-49 0 -114 -75 t-109.5 -169t-44.5 -149zM199 821v2l137 215h6l20 -30l127 -185v-2q-4 -4 -4 0l-125 180q-108 -182 -159 -182v2h-2z" />
<glyph unicode="&#xe3;" horiz-adv-x="688" d="M0 281q0 -20 8 -31q6 -12 25 -12q32 0 101 45.5t111 80.5t79 68q-57 -256 2 -332q14 -23 49 -26h6q43 0 115.5 68.5t143 163t113 156.5t56.5 85q4 0 0 4q-2 0 -4 -2q-2 -5 -33 -50.5t-83 -116.5t-107 -138t-111 -115.5t-90 -48.5h-8q-15 0 -25 14q-9 11 -13.5 30 t-5.5 41.5t0.5 48.5t5 52t7.5 51t8.5 46.5t8 38t5.5 26.5l3 10v2h-37q-4 4 -4 0q-8 -8 -45.5 -40.5t-102.5 -80.5t-106 -65q-12 0 -17 8q-6 6 -6 21q-1 54 44.5 150t106 168t97.5 61q24 -10 39 -31q32 -57 -6 -142v-2h4q40 93 6 146q-26 41 -72 41q-49 0 -114 -75 t-109.5 -169t-44.5 -149zM147 1008q42 67 91 73q48 18 101.5 4t106.5 -59q49 13 91 80q0 4 4 0v-2q-12 -21 -39 -49t-56 -33q-9 -2 -18.5 -3t-20.5 1.5t-17 4t-20 7.5t-17 7.5l-19 9.5q-29 15 -45.5 21t-41.5 7t-48 -17.5t-47 -55.5z" />
<glyph unicode="&#xe4;" horiz-adv-x="688" d="M0 281q0 -20 8 -31q6 -12 25 -12q32 0 101 45.5t111 80.5t79 68q-57 -256 2 -332q14 -23 49 -26h6q43 0 115.5 68.5t143 163t113 156.5t56.5 85q4 0 0 4q-2 0 -4 -2q-2 -5 -33 -50.5t-83 -116.5t-107 -138t-111 -115.5t-90 -48.5h-8q-15 0 -25 14q-9 11 -13.5 30 t-5.5 41.5t0.5 48.5t5 52t7.5 51t8.5 46.5t8 38t5.5 26.5l3 10v2h-37q-4 4 -4 0q-8 -8 -45.5 -40.5t-102.5 -80.5t-106 -65q-12 0 -17 8q-6 6 -6 21q-1 54 44.5 150t106 168t97.5 61q24 -10 39 -31q32 -57 -6 -142v-2h4q40 93 6 146q-26 41 -72 41q-49 0 -114 -75 t-109.5 -169t-44.5 -149zM180 1032q0 19 13 32t30 13q19 0 32 -13t13 -32q0 -20 -13 -33.5t-32 -13.5q-18 0 -30.5 13.5t-12.5 33.5zM418 1032q0 19 13 32t30 13q19 0 32 -13t13 -32q0 -20 -13 -33.5t-32 -13.5q-18 0 -30.5 13.5t-12.5 33.5z" />
<glyph unicode="&#xe7;" horiz-adv-x="471" d="M109 477q0 105 30 183.5t86 78.5q27 0 43 -16q23 -25 23 -74l-2 -2q-4 0 -4 2q4 45 -21 70q-10 12 -37 16q-53 -16 -71 -135q-14 -117 15 -248t75 -159q13 -10 26 -5q20 10 48.5 35.5t57.5 58t59.5 69t57.5 71t47.5 63t33.5 46.5l14 18l2 2l2 -4q-8 -13 -46 -64.5 t-93.5 -122t-113 -126t-87.5 -58.5q5 -27 -4 -39q-5 -10 -25 -10q-17 0 -30 -17.5t-13 -39.5q0 -18 13 -31q14 -14 43 -14q2 0 2 -2q0 -3 -2 -3q-33 0 -48 15q-14 14 -14 35t15 41t34 20q14 0 21 10q10 12 4 35q-65 0 -107 96q-34 81 -34 205z" />
<glyph unicode="&#xe8;" horiz-adv-x="460" d="M98 477q0 -121 35 -205q42 -96 107 -96q30 0 87.5 54.5t114 126.5t95 124t47.5 66q0 2 -2 4q-2 0 -2 -2l-14 -18q-13 -18 -33.5 -46.5t-47.5 -63t-57.5 -71t-59.5 -69t-57.5 -58t-48.5 -35.5q-13 -5 -26 5q-42 25 -71.5 140t-23.5 228q105 137 90 170q-3 8 -16 8 q-56 0 -86.5 -78.5t-30.5 -183.5zM133 1102v4q0 2 2 2h41q0 -2 2 -2l150 -156v-4h-2h-2zM143 573q0 50 17.5 100t56.5 62q7 0 10 -6q12 -27 -84 -156z" />
<glyph unicode="&#xe9;" horiz-adv-x="460" d="M98 477q0 -121 35 -205q42 -96 107 -96q30 0 87.5 54.5t114 126.5t95 124t47.5 66q0 2 -2 4q-2 0 -2 -2l-14 -18q-13 -18 -33.5 -46.5t-47.5 -63t-57.5 -71t-59.5 -69t-57.5 -58t-48.5 -35.5q-13 -5 -26 5q-42 25 -71.5 140t-23.5 228q105 137 90 170q-3 8 -16 8 q-56 0 -86.5 -78.5t-30.5 -183.5zM131 946v4l150 156l2 2h41l2 -2v-4l-191 -156h-2h-2zM143 573q0 50 17.5 100t56.5 62q7 0 10 -6q12 -27 -84 -156z" />
<glyph unicode="&#xea;" horiz-adv-x="460" d="M86 821v2l137 215h6l21 -30l127 -185v-2q-4 -4 -4 0l-125 180q-18 -31 -38.5 -62.5t-59.5 -75.5t-62 -44v2h-2zM98 477q0 -121 35 -205q42 -96 107 -96q30 0 87.5 54.5t114 126.5t95 124t47.5 66q0 2 -2 4q-2 0 -2 -2l-14 -18q-13 -18 -33.5 -46.5t-47.5 -63t-57.5 -71 t-59.5 -69t-57.5 -58t-48.5 -35.5q-13 -5 -26 5q-42 25 -71.5 140t-23.5 228q105 137 90 170q-3 8 -16 8q-56 0 -86.5 -78.5t-30.5 -183.5zM143 573q0 50 17.5 100t56.5 62q7 0 10 -6q12 -27 -84 -156z" />
<glyph unicode="&#xeb;" horiz-adv-x="460" d="M68 1032q0 19 13 32t30 13q19 0 32 -13t13 -32q0 -20 -13 -33.5t-32 -13.5q-18 0 -30.5 13.5t-12.5 33.5zM98 477q0 -121 35 -205q42 -96 107 -96q30 0 87.5 54.5t114 126.5t95 124t47.5 66q0 2 -2 4q-2 0 -2 -2l-14 -18q-13 -18 -33.5 -46.5t-47.5 -63t-57.5 -71 t-59.5 -69t-57.5 -58t-48.5 -35.5q-13 -5 -26 5q-42 25 -71.5 140t-23.5 228q105 137 90 170q-3 8 -16 8q-56 0 -86.5 -78.5t-30.5 -183.5zM143 573q0 50 17.5 100t56.5 62q7 0 10 -6q12 -27 -84 -156zM305 1032q0 19 13 32t30 13q19 0 32 -13t13 -32q0 -20 -13 -33.5 t-32 -13.5q-18 0 -30.5 13.5t-12.5 33.5z" />
<glyph unicode="&#xec;" horiz-adv-x="401" d="M98 411q0 -38 3.5 -72.5t13.5 -67t26 -50.5q19 -22 49 -22q35 0 82 35.5t87 82t80 102.5t59 85.5t26 42.5q0 2 -2 4q-2 0 -2 -2l-8 -13q-7 -12 -20 -31.5t-31 -46t-39 -55t-44 -57t-48 -54.5t-49 -45.5t-47.5 -31.5t-43.5 -12h-6q-9 0 -12 10q-48 52 -22 331v3v2l-3 2 h-38l-3 -2l-2 -22q-2 -22 -4 -50t-2 -66zM104 1102v4q0 2 2 2h41q1 -2 3 -2l149 -156v-4h-2h-2zM129 803q0 -15 7.5 -26t17.5 -11q11 0 18.5 11t7.5 26t-7.5 26t-18.5 11q-10 0 -17.5 -11t-7.5 -26z" />
<glyph unicode="&#xed;" horiz-adv-x="401" d="M98 411q0 -38 3.5 -72.5t13.5 -67t26 -50.5q19 -22 49 -22q35 0 82 35.5t87 82t80 102.5t59 85.5t26 42.5q0 2 -2 4q-2 0 -2 -2l-8 -13q-7 -12 -20 -31.5t-31 -46t-39 -55t-44 -57t-48 -54.5t-49 -45.5t-47.5 -31.5t-43.5 -12h-6q-9 0 -12 10q-48 52 -22 331v3v2l-3 2 h-38l-3 -2l-2 -22q-2 -22 -4 -50t-2 -66zM102 946v4l150 156l2 2h41l2 -2v-4l-191 -156h-2h-2zM129 803q0 -15 7.5 -26t17.5 -11q11 0 18.5 11t7.5 26t-7.5 26t-18.5 11q-10 0 -17.5 -11t-7.5 -26z" />
<glyph unicode="&#xee;" horiz-adv-x="401" d="M-6 821v2l137 215h6l21 -30l127 -185v-2q-4 -4 -4 0l-125 180q-18 -31 -38.5 -62.5t-59.5 -75.5t-62 -44v2h-2zM98 411q0 -38 3.5 -72.5t13.5 -67t26 -50.5q19 -22 49 -22q35 0 82 35.5t87 82t80 102.5t59 85.5t26 42.5q0 2 -2 4q-2 0 -2 -2l-8 -13q-7 -12 -20 -31.5 t-31 -46t-39 -55t-44 -57t-48 -54.5t-49 -45.5t-47.5 -31.5t-43.5 -12h-6q-9 0 -12 10q-48 52 -22 331v3v2l-3 2h-38l-3 -2l-2 -22q-2 -22 -4 -50t-2 -66zM129 803q0 -15 7.5 -26t17.5 -11q11 0 18.5 11t7.5 26t-7.5 26t-18.5 11q-10 0 -17.5 -11t-7.5 -26z" />
<glyph unicode="&#xef;" horiz-adv-x="401" d="M39 1032q0 19 13 32t30 13q19 0 32 -13t13 -32q0 -20 -13 -33.5t-32 -13.5q-18 0 -30.5 13.5t-12.5 33.5zM98 411q0 -38 3.5 -72.5t13.5 -67t26 -50.5q19 -22 49 -22q35 0 82 35.5t87 82t80 102.5t59 85.5t26 42.5q0 2 -2 4q-2 0 -2 -2l-8 -13q-7 -12 -20 -31.5t-31 -46 t-39 -55t-44 -57t-48 -54.5t-49 -45.5t-47.5 -31.5t-43.5 -12h-6q-9 0 -12 10q-48 52 -22 331v3v2l-3 2h-38l-3 -2l-2 -22q-2 -22 -4 -50t-2 -66zM129 803q0 -15 7.5 -26t17.5 -11q11 0 18.5 11t7.5 26t-7.5 26t-18.5 11q-10 0 -17.5 -11t-7.5 -26zM276 1032q0 19 13 32 t30 13q19 0 32.5 -13t13.5 -32q0 -20 -13.5 -33.5t-32.5 -13.5q-18 0 -30.5 13.5t-12.5 33.5z" />
<glyph unicode="&#xf1;" horiz-adv-x="573" d="M89.5 385.5q-0.5 -32.5 0.5 -61.5t3.5 -49.5t5 -35t3.5 -22.5l2 -8h2q0 -2 3 -2h36l2 2v2q-6 25 -12 74q147 407 195 407h2l2 -2q17 -22 1.5 -114t-42.5 -191t-43 -190t0 -111q7 -10 18 -10q10 0 45 20q54 40 149.5 153.5t155 194t76.5 105.5v4q-2 0 -4 -2l-16 -23 q-17 -22 -43.5 -57.5t-60.5 -79t-71.5 -89.5t-73.5 -87t-70.5 -74t-57.5 -47q-14 -6 -15 18q-2 37 44 236q55 244 46 307q-3 23 -14 31q-13 10 -24 12h-4q-30 0 -87 -127t-108 -272q-8 111 12 250v2l-2 2h-36l-5 -2q-7 -45 -10.5 -88t-4 -75.5zM90 1008q42 67 90 73 q48 18 102 4t107 -59q48 13 90 80q0 4 4 0v-2q-6 -11 -17.5 -26t-34 -33.5t-42.5 -22.5q-38 -10 -113 27q-29 15 -45.5 21t-41.5 7t-48 -17.5t-47 -55.5z" />
<glyph unicode="&#xf2;" horiz-adv-x="544" d="M78 389q0 -104 40.5 -177t98.5 -73q80 0 121 74q35 65 35 168v4q50 -22 93.5 -12t80.5 36.5t63.5 58.5t41 54.5t14.5 24.5v4h-4q-1 -2 -5 -9t-14 -21.5t-21.5 -30t-28 -33t-34.5 -32.5t-40.5 -27t-45 -18t-48.5 -3.5t-52 14.5q-2 107 -38.5 199t-86.5 92q-14 0 -19 -20 q-2 -8 -2 -31h-2q-59 -3 -103 -70.5t-44 -171.5zM121 389q0 101 32 166.5t74 71.5q4 -61 40 -133t95 -103l5 -4v-6q0 -105 -33 -164q-41 -74 -117 -74q-40 0 -68 72.5t-28 173.5zM176 1102v4q0 2 2 2h41q0 -2 2 -2l150 -156v-4h-2h-2zM233 659q7 17 15 17q48 0 82.5 -89 t36.5 -194l-2 2q-68 36 -105.5 126.5t-26.5 137.5z" />
<glyph unicode="&#xf3;" horiz-adv-x="544" d="M78 389q0 -104 40.5 -177t98.5 -73q80 0 121 74q35 65 35 168v4q50 -22 93.5 -12t80.5 36.5t63.5 58.5t41 54.5t14.5 24.5v4h-4q-1 -2 -5 -9t-14 -21.5t-21.5 -30t-28 -33t-34.5 -32.5t-40.5 -27t-45 -18t-48.5 -3.5t-52 14.5q-2 107 -38.5 199t-86.5 92q-14 0 -19 -20 q-2 -8 -2 -31h-2q-59 -3 -103 -70.5t-44 -171.5zM121 389q0 101 32 166.5t74 71.5q4 -61 40 -133t95 -103l5 -4v-6q0 -105 -33 -164q-41 -74 -117 -74q-40 0 -68 72.5t-28 173.5zM174 946v4l150 156l2 2h41l2 -2v-4l-191 -156h-2h-2zM233 659q7 17 15 17q48 0 82.5 -89 t36.5 -194l-2 2q-68 36 -105.5 126.5t-26.5 137.5z" />
<glyph unicode="&#xf4;" horiz-adv-x="544" d="M78 389q0 -104 40.5 -177t98.5 -73q80 0 121 74q35 65 35 168v4q50 -22 93.5 -12t80.5 36.5t63.5 58.5t41 54.5t14.5 24.5v4h-4q-1 -2 -5 -9t-14 -21.5t-21.5 -30t-28 -33t-34.5 -32.5t-40.5 -27t-45 -18t-48.5 -3.5t-52 14.5q-2 107 -38.5 199t-86.5 92q-14 0 -19 -20 q-2 -8 -2 -31h-2q-59 -3 -103 -70.5t-44 -171.5zM121 389q0 101 32 166.5t74 71.5q4 -61 40 -133t95 -103l5 -4v-6q0 -105 -33 -164q-41 -74 -117 -74q-40 0 -68 72.5t-28 173.5zM127 821v2l137 215h6l21 -30l127 -185v-2q-4 -4 -4 0l-125 180q-18 -31 -38.5 -62.5 t-59.5 -75.5t-62 -44v2h-2zM233 659q7 17 15 17q48 0 82.5 -89t36.5 -194l-2 2q-68 36 -105.5 126.5t-26.5 137.5z" />
<glyph unicode="&#xf5;" horiz-adv-x="544" d="M76 1008q42 67 90 73q48 18 102 4t107 -59q48 13 90 80q0 4 4 0v-2q-6 -11 -17.5 -26t-34 -33.5t-42.5 -22.5q-38 -10 -113 27q-29 15 -45.5 21t-41.5 7t-48 -17.5t-47 -55.5zM78 389q0 -104 40.5 -177t98.5 -73q80 0 121 74q35 65 35 168v4q50 -22 93.5 -12t80.5 36.5 t63.5 58.5t41 54.5t14.5 24.5v4h-4q-1 -2 -5 -9t-14 -21.5t-21.5 -30t-28 -33t-34.5 -32.5t-40.5 -27t-45 -18t-48.5 -3.5t-52 14.5q-2 107 -38.5 199t-86.5 92q-14 0 -19 -20q-2 -8 -2 -31h-2q-59 -3 -103 -70.5t-44 -171.5zM121 389q0 101 32 166.5t74 71.5q4 -61 40 -133 t95 -103l5 -4v-6q0 -105 -33 -164q-41 -74 -117 -74q-40 0 -68 72.5t-28 173.5zM233 659q7 17 15 17q48 0 82.5 -89t36.5 -194l-2 2q-68 36 -105.5 126.5t-26.5 137.5z" />
<glyph unicode="&#xf6;" horiz-adv-x="544" d="M78 389q0 -104 40.5 -177t98.5 -73q80 0 121 74q35 65 35 168v4q50 -22 93.5 -12t80.5 36.5t63.5 58.5t41 54.5t14.5 24.5v4h-4q-1 -2 -5 -9t-14 -21.5t-21.5 -30t-28 -33t-34.5 -32.5t-40.5 -27t-45 -18t-48.5 -3.5t-52 14.5q-2 107 -38.5 199t-86.5 92q-14 0 -19 -20 q-2 -8 -2 -31h-2q-59 -3 -103 -70.5t-44 -171.5zM109 1032q0 19 13 32t30 13q19 0 32 -13t13 -32q0 -20 -13 -33.5t-32 -13.5q-18 0 -30.5 13.5t-12.5 33.5zM121 389q0 101 32 166.5t74 71.5q4 -61 40 -133t95 -103l5 -4v-6q0 -105 -33 -164q-41 -74 -117 -74 q-40 0 -68 72.5t-28 173.5zM233 659q7 17 15 17q48 0 82.5 -89t36.5 -194l-2 2q-68 36 -105.5 126.5t-26.5 137.5zM346 1032q0 19 13 32t30 13q19 0 32 -13t13 -32q0 -20 -13 -33.5t-32 -13.5q-18 0 -30.5 13.5t-12.5 33.5z" />
<glyph unicode="&#xf9;" horiz-adv-x="770" d="M100 549q-7 -135 9.5 -231.5t52.5 -135.5q21 -24 51 -24q35 0 66.5 30t51.5 69t38.5 95.5t26.5 91.5t16 74q-1 -22 -15 -125q-11 -80 -15 -122.5t0 -97.5t24 -79q20 -20 49 -20q15 0 37 16h2q54 38 153 151t165.5 199t80.5 107q0 2 -2 4q-2 0 -2 -2l-17 -23 q-18 -22 -45.5 -57t-62.5 -78.5t-74.5 -89.5t-76.5 -87.5t-72 -74t-58 -47.5q-13 -3 -22 6q-25 21 -26 112t11 181q9 139 7 158q0 2 -2 2h-37l-2 -2l-4 -18q-3 -18 -9 -46t-15 -63.5t-22 -72.5t-28 -70.5t-35.5 -61.5t-42.5 -41t-41 0q-40 25 -59 136.5t-13 236.5h-2v2h-39z M172 1102v4q0 2 2 2h41q0 -2 2 -2l150 -156v-4h-2h-3z" />
<glyph unicode="&#xfa;" horiz-adv-x="770" d="M100 549q-7 -135 9.5 -231.5t52.5 -135.5q21 -24 51 -24q35 0 66.5 30t51.5 69t38.5 95.5t26.5 91.5t16 74q-1 -22 -15 -125q-11 -80 -15 -122.5t0 -97.5t24 -79q20 -20 49 -20q15 0 37 16h2q54 38 153 151t165.5 199t80.5 107q0 2 -2 4q-2 0 -2 -2l-17 -23 q-18 -22 -45.5 -57t-62.5 -78.5t-74.5 -89.5t-76.5 -87.5t-72 -74t-58 -47.5q-13 -3 -22 6q-25 21 -26 112t11 181q9 139 7 158q0 2 -2 2h-37l-2 -2l-4 -18q-3 -18 -9 -46t-15 -63.5t-22 -72.5t-28 -70.5t-35.5 -61.5t-42.5 -41t-41 0q-40 25 -59 136.5t-13 236.5h-2v2h-39z M182 946v4l150 156l2 2h41l2 -2v-4l-191 -156h-2h-2z" />
<glyph unicode="&#xfb;" horiz-adv-x="770" d="M100 549q-7 -135 9.5 -231.5t52.5 -135.5q21 -24 51 -24q35 0 66.5 30t51.5 69t38.5 95.5t26.5 91.5t16 74q-1 -22 -15 -125q-11 -80 -15 -122.5t0 -97.5t24 -79q20 -20 49 -20q15 0 37 16h2q54 38 153 151t165.5 199t80.5 107q0 2 -2 4q-2 0 -2 -2l-17 -23 q-18 -22 -45.5 -57t-62.5 -78.5t-74.5 -89.5t-76.5 -87.5t-72 -74t-58 -47.5q-13 -3 -22 6q-25 21 -26 112t11 181q9 139 7 158q0 2 -2 2h-37l-2 -2l-4 -18q-3 -18 -9 -46t-15 -63.5t-22 -72.5t-28 -70.5t-35.5 -61.5t-42.5 -41t-41 0q-40 25 -59 136.5t-13 236.5h-2v2h-39z M131 821v2l137 215h6l21 -30l127 -185v-2q-4 -4 -4 0l-125 180q-18 -31 -38.5 -62.5t-59.5 -75.5t-62 -44v2h-2z" />
<glyph unicode="&#xfc;" horiz-adv-x="770" d="M100 549q-7 -135 9.5 -231.5t52.5 -135.5q21 -24 51 -24q35 0 66.5 30t51.5 69t38.5 95.5t26.5 91.5t16 74q-1 -22 -15 -125q-11 -80 -15 -122.5t0 -97.5t24 -79q20 -20 49 -20q15 0 37 16h2q54 38 153 151t165.5 199t80.5 107q0 2 -2 4q-2 0 -2 -2l-17 -23 q-18 -22 -45.5 -57t-62.5 -78.5t-74.5 -89.5t-76.5 -87.5t-72 -74t-58 -47.5q-13 -3 -22 6q-25 21 -26 112t11 181q9 139 7 158q0 2 -2 2h-37l-2 -2l-4 -18q-3 -18 -9 -46t-15 -63.5t-22 -72.5t-28 -70.5t-35.5 -61.5t-42.5 -41t-41 0q-40 25 -59 136.5t-13 236.5h-2v2h-39z M119 1032q0 19 13 32t30 13q19 0 32 -13t13 -32q0 -20 -13 -33.5t-32 -13.5q-18 0 -30.5 13.5t-12.5 33.5zM356 1032q0 19 13 32t30 13q19 0 32 -13t13 -32q0 -20 -13 -33.5t-32 -13.5q-18 0 -30.5 13.5t-12.5 33.5z" />
<glyph unicode="&#xfd;" horiz-adv-x="614" d="M75 364q6 -81 40 -122q30 -37 80 -37q35 0 67 38t54 96t34 99t19 74q40 -165 67 -356q-117 -165 -169 -275.5t-25 -165.5q24 -49 114 -49h9q50 3 79 45q86 113 31 490q42 59 205 272l57 74v4q-4 0 -4 -2l-57 -74q-179 -236 -203 -268q-11 74 -26.5 151t-25.5 117t-13 49 q0 2 -2 2h-37h-2q-2 0 -2 -2q0 -9 -16 -71t-52.5 -141t-77.5 -97q-36 0 -61 31q-32 40 -38.5 122t13.5 179v2l-2 2h-37l-2 -2q-23 -104 -17 -185zM162 946v4l149 156l2 2h41l2 -2v-4l-190 -156h-2h-2zM248 -283q-27 53 23.5 160.5t164.5 269.5q23 -131 20.5 -263.5 t-40.5 -182.5q-23 -26 -51 -29h-9q-88 0 -108 45z" />
<glyph unicode="&#xff;" horiz-adv-x="614" d="M75 364q6 -81 40 -122q30 -37 80 -37q35 0 67 38t54 96t34 99t19 74q40 -165 67 -356q-117 -165 -169 -275.5t-25 -165.5q24 -49 114 -49h9q50 3 79 45q86 113 31 490q42 59 205 272l57 74v4q-4 0 -4 -2l-57 -74q-179 -236 -203 -268q-11 74 -26.5 151t-25.5 117t-13 49 q0 2 -2 2h-37h-2q-2 0 -2 -2q0 -9 -16 -71t-52.5 -141t-77.5 -97q-36 0 -61 31q-32 40 -38.5 122t13.5 179v2l-2 2h-37l-2 -2q-23 -104 -17 -185zM94 1032q0 19 13 32t30 13q19 0 32 -13t13 -32q0 -20 -13 -33.5t-32 -13.5q-18 0 -30.5 13.5t-12.5 33.5zM248 -283 q-27 53 23.5 160.5t164.5 269.5q23 -131 20.5 -263.5t-40.5 -182.5q-23 -26 -51 -29h-9q-88 0 -108 45zM332 1032q0 19 13 32t30 13q19 0 32 -13t13 -32q0 -20 -13 -33.5t-32 -13.5q-18 0 -30.5 13.5t-12.5 33.5z" />
<glyph unicode="&#x178;" horiz-adv-x="1630" d="M0 555q0 149 55 299t152 266q43 54 96.5 99.5t127 88.5t171 68t207.5 25q79 0 123 -53q37 -46 42 -148t-14 -222.5t-44 -260t-47.5 -260.5t-24.5 -223.5t24 -149.5q10 -16 37 -16q55 0 117 50t119 133t100 159t82 159q34 70 76 166q5 244 33.5 378.5t95.5 137.5h2 q9 0 14 -10q4 -12 4 -24q0 -99 -102 -373q-2 -92 -2 -295q0 -199 -2 -297q53 69 86 106l4 2q4 -4 0 -4q-60 -71 -90 -112q-2 -110 -7 -199t-14 -181.5t-24.5 -161t-37.5 -124t-54.5 -85t-73.5 -30.5h-4q-41 0 -60 45q-13 29 -16 74.5t9 110.5t38.5 138.5t76.5 166.5t118 188 q0 37 1 112.5t1 113.5q0 211 2 309q-53 -126 -111 -237t-123 -208.5t-132.5 -155t-125.5 -57.5q-38 0 -59 27q-24 29 -32 83.5t2 149.5t20 160t34 199q18 100 25.5 145t20.5 132t15.5 134t2.5 107t-11.5 98t-31.5 62q-27 34 -76 37h-6q-109 0 -206 -25t-170 -68t-126 -88 t-96 -98q-97 -117 -151 -265.5t-54 -297.5q0 -222 111.5 -354.5t298.5 -132.5q2 0 2 -2l-2 -3q-199 0 -314 146q-102 133 -102 346zM1155.5 -416q2.5 -44 15.5 -73q18 -41 56 -41h4q32 1 57 27t42 76t29 111t18.5 145.5t10 165t5.5 183.5q-67 -94 -116 -185.5t-75 -164 t-37.5 -136.5t-9 -108zM1157 1470q0 19 13 32.5t30 13.5q19 0 32 -13.5t13 -32.5q0 -20 -13 -33.5t-32 -13.5q-18 0 -30.5 13.5t-12.5 33.5zM1395 1470q0 19 13 32.5t30 13.5q19 0 32 -13.5t13 -32.5q0 -20 -13 -33.5t-32 -13.5q-18 0 -30.5 13.5t-12.5 33.5zM1446 860 q96 255 96 357q0 18 -2 22q-3 6 -10 6h-2q-72 -5 -82 -385z" />
<glyph unicode="&#x2c6;" horiz-adv-x="481" d="M100 821v2l138 215h6l20 -30l127 -185v-2q-4 -4 -4 0l-125 180q-18 -31 -38.5 -62.5t-59.5 -75.5t-62 -44v2h-2z" />
<glyph unicode="&#x2dc;" horiz-adv-x="509" d="M49 1008q42 67 90 73q48 18 102 4t107 -59q48 13 90 80q0 4 4 0v-2q-6 -11 -17.5 -26t-34 -33.5t-42.5 -22.5q-9 -2 -18.5 -3t-20.5 1.5t-17 4t-20 7.5t-17 7.5l-19 9.5q-28 15 -45 21t-42.5 7t-48.5 -17.5t-47 -55.5z" />
<glyph unicode="&#x2000;" horiz-adv-x="854" />
<glyph unicode="&#x2001;" horiz-adv-x="1708" />
<glyph unicode="&#x2002;" horiz-adv-x="854" />
<glyph unicode="&#x2003;" horiz-adv-x="1708" />
<glyph unicode="&#x2004;" horiz-adv-x="569" />
<glyph unicode="&#x2005;" horiz-adv-x="427" />
<glyph unicode="&#x2006;" horiz-adv-x="284" />
<glyph unicode="&#x2007;" horiz-adv-x="284" />
<glyph unicode="&#x2008;" horiz-adv-x="213" />
<glyph unicode="&#x2009;" horiz-adv-x="341" />
<glyph unicode="&#x200a;" horiz-adv-x="94" />
<glyph unicode="&#x2010;" horiz-adv-x="368" d="M31 612l2 2h258q2 0 2 -2t-2 -2h-258z" />
<glyph unicode="&#x2011;" horiz-adv-x="368" d="M31 612l2 2h258q2 0 2 -2t-2 -2h-258z" />
<glyph unicode="&#x2012;" horiz-adv-x="368" d="M31 612l2 2h258q2 0 2 -2t-2 -2h-258z" />
<glyph unicode="&#x2013;" horiz-adv-x="368" d="M31 612l2 2h258q2 0 2 -2t-2 -2h-258z" />
<glyph unicode="&#x2014;" horiz-adv-x="440" d="M31 612l2 2h332q2 0 2 -2t-2 -2h-332z" />
<glyph unicode="&#x2018;" horiz-adv-x="178" d="M27 924v2q1 35 17.5 71.5t33.5 56.5l16 19h2h2v-4q-51 -56 -63 -119q14 21 35 21q19 0 32 -14t13 -33q0 -20 -13 -33.5t-32 -13.5q-18 0 -30.5 13.5t-12.5 33.5z" />
<glyph unicode="&#x2019;" horiz-adv-x="178" d="M27 1026q0 20 13 33.5t32 13.5q18 0 30.5 -13.5t12.5 -33.5v-2q-1 -35 -18 -71.5t-33 -56.5l-17 -19h-2h-2v4q51 55 63 118q-13 -20 -34 -20q-19 0 -32 14t-13 33z" />
<glyph unicode="&#x201a;" horiz-adv-x="237" d="M74 176q0 20 13 33.5t32 13.5q18 0 30.5 -13.5t12.5 -33.5v-2q-1 -35 -18 -71.5t-34 -56.5l-16 -19h-2h-2v4q52 56 64 119q-14 -21 -35 -21q-19 0 -32 14t-13 33z" />
<glyph unicode="&#x201c;" horiz-adv-x="294" d="M29 924v2q1 35 17.5 71.5t33.5 56.5l16 19h4v-4q-51 -56 -63 -119q14 21 35 21q19 0 32 -14t13 -33q0 -20 -13 -33.5t-32 -13.5q-18 0 -30.5 13.5t-12.5 33.5zM168 924v2q0 35 17 71.5t32.5 56t18.5 19.5h2q4 0 0 -4q-52 -56 -64 -119q14 21 37 21q18 0 30.5 -14 t12.5 -33q0 -20 -12 -33.5t-31 -13.5t-31 13.5t-12 33.5z" />
<glyph unicode="&#x201d;" horiz-adv-x="294" d="M29 1026q0 20 12 33.5t31 13.5t31 -13.5t12 -33.5v-2q0 -35 -17 -71.5t-32.5 -56t-18.5 -19.5h-2q-4 0 0 4q52 55 64 118q-13 -20 -37 -20q-18 0 -30.5 14t-12.5 33zM166 1026q0 20 13 33.5t32 13.5q18 0 30.5 -13.5t12.5 -33.5v-2q-1 -35 -18 -71.5t-34 -56.5l-16 -19 h-4v4q52 55 64 118q-13 -20 -35 -20q-19 0 -32 14t-13 33z" />
<glyph unicode="&#x201e;" horiz-adv-x="292" d="M29 178q0 20 12 33.5t31 13.5t31 -13.5t12 -33.5v-2q0 -35 -17 -71.5t-32.5 -56t-18.5 -19.5h-2q-4 0 0 4q52 56 64 119q-14 -21 -37 -21q-18 0 -30.5 14t-12.5 33zM166 178q0 20 13 33.5t32 13.5q18 0 30.5 -13.5t12.5 -33.5v-2q-1 -35 -18 -71.5t-34 -56.5l-16 -19h-4 v4q52 56 64 119q-14 -21 -35 -21q-19 0 -32 14t-13 33z" />
<glyph unicode="&#x2026;" horiz-adv-x="712" d="M70 178q0 19 13 32t30 13q19 0 32 -13t13 -32q0 -20 -13 -33.5t-32 -13.5q-18 0 -30.5 13.5t-12.5 33.5zM307 178q0 19 13 32t30 13q19 0 32 -13t13 -32q0 -20 -13 -33.5t-32 -13.5q-18 0 -30.5 13.5t-12.5 33.5zM545 178q0 19 13 32t30 13q19 0 32 -13t13 -32 q0 -20 -13 -33.5t-32 -13.5q-18 0 -30.5 13.5t-12.5 33.5z" />
<glyph unicode="&#x202f;" horiz-adv-x="341" />
<glyph unicode="&#x2039;" horiz-adv-x="325" d="M25 610v2v2l213 187h4v-4l-211 -185l211 -182v-4h-2h-2z" />
<glyph unicode="&#x203a;" horiz-adv-x="325" d="M25 426v4l211 182l-211 185v4h4l213 -187v-2v-2l-213 -184h-2h-2z" />
<glyph unicode="&#x205f;" horiz-adv-x="427" />
<glyph unicode="&#x20ac;" horiz-adv-x="385" d="M-199 801q-2 2 0 4l2 2q139 -42 269 -49q47 68 109.5 108.5t133.5 40.5q66 0 78 -30q10 -21 -12 -46q-29 -33 -98.5 -56.5t-169.5 -24.5q-21 -39 -39 -97l178 -6q2 -2 2 -4l-2 -2l-180 6q-28 -108 -17 -160l187 -6q2 0 2 -4q0 -2 -2 -2l-187 6q6 -102 60 -168 q68 -86 200 -86q2 0 2 -2l-2 -2q-164 0 -247 86q-68 65 -74 174l-119 4l-2 2q0 5 2 5l119 -5q0 81 24 160l-135 4l-2 2l2 4l137 -6q14 40 48 99q-128 7 -267 49zM117 756q96 1 164 24t96 54q23 22 12 40q-13 29 -74 29q-59 0 -110 -39.5t-88 -107.5z" />
<glyph unicode="&#x25fc;" horiz-adv-x="788" d="M0 0v788h788v-788h-788z" />
</font>
</defs>
</svg>
