<?xml version="1.0" standalone="no"?>
<!DOCTYPE svg PUBLIC "-//W3C//DTD SVG 1.1//EN" "http://www.w3.org/Graphics/SVG/1.1/DTD/svg11.dtd" >
<svg xmlns="http://www.w3.org/2000/svg" xmlns:xlink="http://www.w3.org/1999/xlink" version="1.1">
<metadata></metadata>
<defs>
<font id="alliceregular" horiz-adv-x="573" >
<font-face units-per-em="2048" ascent="1536" descent="-512" />
<missing-glyph horiz-adv-x="500" />
<glyph unicode="&#xfb01;" horiz-adv-x="632" d="M-160 772q0 6 4 2q16 -14 49 -10t52 6q18 2 35.5 3t33.5 5q-2 16 -3 32.5t-3 33.5q-6 72 -9 142.5t3 141.5q6 66 17.5 132.5t56.5 119.5q20 25 51 39.5t63.5 17.5t65.5 -1t61 -17q51 -20 99 -63q25 -18 41 -50t20 -66t-4 -64.5t-33 -51.5q-25 -23 -59.5 -23.5t-61.5 23.5 q-10 10 -15 26.5t-3 32t12.5 26t28.5 10.5q10 0 10 -7q8 -14 9 -31.5t14 -27.5q27 -20 46 -2t23 45q0 18 -5 41t-17 48.5t-37 51t-66 49.5q-41 23 -93 23t-87 -41q-43 -51 -57 -119.5t-11 -141.5t15 -145.5t20 -134.5q2 -8 2.5 -15t2.5 -15q35 8 67.5 16t67.5 21 q12 4 42.5 13t64.5 18t65 15.5t43 4.5q16 -6 20 -23q6 -45 -3 -103.5t-11 -105.5q-6 -98 -6 -200q0 -74 -4 -149t0 -148v-14.5t1 -19.5t5 -14.5t12 -1.5q47 25 88 68q33 35 59.5 74t51.5 80q10 12 23.5 7t9.5 -22q-14 -61 -54.5 -120.5t-77.5 -110.5q-16 -23 -42.5 -42.5 t-55 -27.5t-56.5 -1t-46 42q-16 33 -20.5 69t-2.5 73q6 82 6 167q2 66 4.5 130.5t12.5 130.5q4 33 7 75.5t13 77.5q-41 -16 -85 -26.5t-60 -14.5q-33 -8 -64.5 -15t-64.5 -13q8 -74 14 -148t12 -145q6 -78 12.5 -180.5t10.5 -200.5q2 -57 2 -112.5t-4 -113.5 q-2 -35 -3 -71.5t-7 -72.5t-19.5 -69.5t-38.5 -62.5q-23 -23 -50 -31t-53 -2t-47.5 24.5t-27.5 51.5q-10 41 2.5 81t34 78t47 74.5t43.5 69.5q4 4 8 12q4 203 -6 404t-28 403q-29 -2 -59 -2t-56.5 8.5t-45 24.5t-22.5 45zM-29 -393q4 -35 20.5 -30t35.5 26q4 14 7 27.5 t7 27.5q8 41 10 83t4 83q-10 -18 -20 -37.5t-21 -38.5q-16 -33 -31.5 -68.5t-11.5 -72.5z" />
<glyph unicode="&#xfb02;" horiz-adv-x="653" d="M-160 776q0 6 4 2q16 -14 49 -10t52 6q18 2 35.5 4t33.5 4q-4 29 -5 54.5t-5 52.5q-14 145 4 299q4 31 11.5 63.5t19.5 63.5t31.5 57.5t48.5 42.5q41 23 91 31t99 0q37 4 79 -12.5t65 -38.5q31 -27 38 -49.5t7 -63.5v-184q2 -156 8 -310.5t-4 -310.5q-4 -53 -7 -105.5 t-3 -105.5q0 -27 1 -52.5t3 -51.5q2 -16 1 -38t9 -38q8 -14 23.5 -7t30.5 21.5t28.5 32t19.5 23.5q20 33 36 66.5t32 68.5q4 8 13 6t9 -12q-4 -41 -22.5 -77t-34.5 -73t-38.5 -78t-63.5 -57q-49 -18 -79 10.5t-45.5 76.5t-20.5 100.5t-5 78.5q0 55 3 110.5t7 110.5 q4 72 2 142.5t-2 142.5q0 98 -1 196.5t1 198.5q0 20 4.5 44t5.5 48.5t-2.5 48t-15.5 40.5q-14 23 -29.5 39t-37.5 26q-45 6 -90.5 -1t-73.5 -36q-53 -49 -70.5 -116.5t-16.5 -141.5t13 -148.5t20 -135.5q2 -10 2.5 -17.5t2.5 -15.5q68 14 135 37q25 8 51.5 19t52.5 5 q23 -4 30 -26.5t-3 -38.5q-16 -29 -57 -39t-70 -19q-33 -8 -64.5 -15t-64.5 -13q8 -74 14 -146.5t12 -146.5q12 -152 20.5 -302.5t0.5 -301.5q0 -18 -4 -56.5t-11.5 -80.5t-20.5 -81.5t-34 -60.5q-16 -16 -36.5 -31.5t-49.5 -19.5q-53 -8 -76.5 19.5t-26.5 70.5t10 88t34 70 q29 35 57.5 76.5t46.5 89.5q2 201 -8 400.5t-29 401.5q-27 -2 -57.5 -2t-56 8.5t-44 25t-22.5 44.5zM-33 -397q4 -16 16.5 -18.5t28.5 7.5q8 6 15 15v2q4 16 8 33.5t8 33.5q6 37 8 75t4 75q-4 -6 -8 -13.5t-8 -13.5q-12 -20 -25.5 -44.5t-25 -50.5t-18.5 -51t-3 -50z" />
<glyph unicode="&#xfb03;" horiz-adv-x="968" d="M-156 733q0 4 2 4t2 -2q8 -12 30 -14t48.5 0t51 7t40.5 7q-4 35 -7 67t-7 64q-10 72 -10 153t19.5 154.5t62.5 135t123 94.5q72 31 155.5 35t161.5 -6q41 10 83 7t79 -18q29 -10 52.5 -27.5t45.5 -37.5q25 -18 41.5 -50t20.5 -66t-4.5 -64.5t-32.5 -51.5 q-27 -20 -60.5 -22t-60.5 22q-10 10 -15.5 26.5t-3 32t12.5 26t28 10.5q10 0 11 -7q6 -12 8 -30.5t14 -28.5q27 -20 46.5 -1t23.5 44q0 18 -5 41t-17.5 48.5t-37 51t-65.5 49.5q-31 18 -64 21q4 0 7 -2q-6 0 -12.5 1t-12.5 1q-12 0 -24.5 -1t-22.5 -3q-33 -10 -51 -33 q-43 -53 -57.5 -120.5t-11.5 -141.5t15.5 -146.5t20.5 -134.5q2 -8 2 -15t2 -15q35 8 67.5 16t67.5 21q12 4 43 13t65 18t64.5 15.5t42.5 4.5q16 -6 21 -23q6 -45 -3.5 -103.5t-11.5 -103.5q-6 -102 -6 -202q0 -74 -4 -149t0 -148v-14.5t1 -19.5t5 -14.5t13 -1.5 q25 12 46 30t42 38q33 35 59 74t51 80q10 14 23.5 8t9.5 -21q-14 -63 -54 -122.5t-77 -108.5q-16 -23 -43 -42t-55.5 -27.5t-56 -1.5t-46.5 42q-16 33 -20 69t-2 71q6 86 6 167q2 66 4 130.5t12 130.5q4 35 7 76.5t14 76.5q-41 -14 -85 -25.5t-61 -15.5q-33 -8 -64.5 -15 t-64.5 -13q8 -72 14.5 -146t12.5 -147q6 -78 12 -179.5t10 -201.5q2 -55 1 -111.5t-3 -111.5q0 -16 -2 -45t-6 -63t-11 -68.5t-20 -61.5q-4 -8 -4 -10h-2q-10 -20 -22 -31q-23 -23 -50.5 -31t-53 -2t-47 25.5t-27.5 50.5q-10 41 2 81t33.5 78t47 74.5t44.5 69.5q4 4 8 12 q4 201 -6.5 402t-28.5 401q-16 -2 -35.5 -5t-38 -5t-31.5 -3l-14 -1q-35 -4 -68.5 -6t-68.5 -6q8 -70 13 -139.5t12 -139.5q2 -37 7 -98.5t9 -119.5t6 -102t0 -51q2 -59 2 -117.5t-4 -117.5q0 -18 -2 -65.5t-11 -96.5t-26.5 -89t-50.5 -48q-45 -33 -100.5 -25t-75.5 68 q-10 35 -4 64.5t24 58.5q25 41 49.5 82t49.5 82q10 16 18 30.5t18 28.5q2 199 -8 397.5t-28 397.5q-33 0 -64 6q-29 6 -66.5 18t-50.5 43zM-2 -430q2 -16 12 -12q8 2 21 10q6 16 9 32.5t7 32.5q8 61 12 127q-12 -23 -25.5 -45t-23.5 -45q0 -2 -4 -21.5t-7 -41t-1 -37.5z M90 966q10 -85 21 -161q2 -14 3 -28.5t3 -28.5q6 0 44 5t82 10t83 10t49 7q-2 16 -3 31.5t-3 32.5q-6 72 -9.5 142t2.5 142q6 66 17.5 132.5t56.5 119.5q6 8 23 21q-51 -2 -100.5 -11.5t-90.5 -25.5q-90 -35 -129 -97.5t-49 -139t0 -161.5zM332 -393q4 -35 20.5 -30t34.5 26 q4 14 7 27.5t7 27.5q8 41 10.5 83t4.5 83q-10 -18 -20.5 -36.5t-20.5 -39.5q-16 -33 -31.5 -67.5t-11.5 -73.5z" />
<glyph unicode="&#xfb04;" horiz-adv-x="972" d="M-97 -412.5q-1 33.5 15 56.5q25 35 46.5 73.5t43.5 77.5q14 23 27.5 45.5t27.5 44.5q4 410 -36 815q-35 10 -61.5 27.5t-37.5 48.5q0 8 6 2q10 -14 35 -16t51 0q-4 31 -7 61.5t-7 61.5q-8 74 -8 154.5t18.5 154.5t62.5 135.5t124 93.5q76 33 169 36t173 -13 q27 -4 53.5 -11.5t50.5 -17.5q35 -4 68 -18.5t55 -32.5q29 -29 37 -50.5t8 -62.5v-186q2 -154 8 -309.5t-4 -308.5q-4 -53 -7 -106.5t-3 -106.5q0 -27 1 -51.5t3 -51.5q2 -18 1 -38.5t9 -37.5q8 -14 23.5 -8t31 20.5t29 32t17.5 25.5q23 31 38 64.5t31 68.5q4 8 13.5 6 t9.5 -12q-2 -25 -17.5 -68t-39 -88t-50 -81.5t-53.5 -47.5q-49 -18 -78.5 11.5t-46 76.5t-20.5 99.5t-4 79.5q0 55 2 110t6 113q6 72 4 142.5t-2 141.5q-4 197 0 394q0 20 4 44.5t5 49t-2 47t-15 41.5q-14 23 -29.5 39t-38.5 24q-45 6 -90 0t-74 -34q-53 -49 -70.5 -117 t-16.5 -142.5t13.5 -149.5t20.5 -136v-8q23 4 44.5 6t43.5 6q31 6 65.5 18.5t65.5 10.5q31 -4 41 -30t-8 -48q-12 -14 -32.5 -22.5t-43 -12.5t-44 -6t-38.5 -4q-8 0 -21.5 -1t-26.5 -1t-22.5 -2t-11.5 -7q8 -72 15.5 -157.5t13.5 -157.5q12 -152 19.5 -302.5t0.5 -301.5 q-2 -39 -4 -85t-13 -90t-34.5 -78t-70.5 -48q-23 -6 -50.5 5t-42.5 30q-16 23 -20 51.5t0 54.5q4 43 32.5 87t51.5 79t39 66q4 154 -2 305t-17 305q0 20 -3 52t-6 64.5t-5 62.5t-4 48q-18 -2 -37.5 -2t-38.5 -2q-25 0 -59.5 -2t-73.5 0q14 -137 25 -280q12 -147 20 -297 t0 -308q0 -18 -3 -62t-11 -91t-24.5 -89t-45.5 -57q-47 -25 -97 -23.5t-77 52.5q-12 23 -13 56.5zM-23 -383q4 -16 16.5 -33.5t37.5 -1.5l4 4q4 16 8 34t6 34q12 63 12 131q-8 -14 -15 -26.5t-15 -28.5q-4 -6 -13.5 -21.5t-18.5 -33t-16.5 -34t-5.5 -24.5zM92 985 q10 -84 21 -160q2 -14 4 -27.5t4 -29.5q88 2 180 12q8 0 14.5 1t14.5 1q-2 20 -3 39t-3 39q-8 74 -7.5 148.5t11.5 148.5q2 31 9 63.5t20.5 63.5t32.5 57.5t48 42.5q43 27 107 33q-72 10 -143.5 0t-131.5 -33q-90 -35 -129 -98t-49 -140t0 -161zM304 -386q-1 -15 1 -30.5 t8 -21.5t19 6q12 12 16 18q4 16 7 30t7 30q8 70 13 141q-23 -35 -45.5 -74t-24.5 -78q0 -6 -1 -21z" />
<glyph horiz-adv-x="0" />
<glyph unicode="&#xd;" />
<glyph horiz-adv-x="0" />
<glyph horiz-adv-x="0" />
<glyph unicode=" " />
<glyph unicode="!" horiz-adv-x="165" d="M1 64.5q-3 15.5 1 29.5q10 29 34.5 50.5t55.5 13.5q18 -6 32.5 -20.5t16.5 -35.5q2 -16 -5 -29.5t-17 -25.5q-14 -14 -38 -25.5t-42 -1.5q-4 4 -4 7q-10 2 -21 12q-10 10 -13 25.5zM37 1417q-4 20 5 35.5t24.5 22t33 3.5t29.5 -22q18 -29 26.5 -65.5t9.5 -76.5t-1 -78 t-4 -71q-4 -104 -6 -205.5t-9 -205.5q-8 -111 -19 -221.5t-28 -221.5q-2 -8 -4 -29.5t-8 -42t-16.5 -32.5t-26.5 0q-4 4 -2 7t6 1t5 12.5t1 33v35.5v21q-4 47 -5 92.5t-3 90.5q-4 92 0 184t6 184q2 78 1 156t1 156q2 61 -1 119.5t-15 117.5z" />
<glyph unicode="&#x22;" horiz-adv-x="348" d="M2 1490.5q0 14.5 9 26t24 15.5t31 -2q27 -12 45 -37t25 -53.5t6 -59t-13 -57.5q-6 -16 -18.5 -31.5t-27.5 -25t-32.5 -9.5t-34.5 17q-4 4 -1 7t8 1q16 -4 26 3t16.5 20.5t8.5 29t2 27.5q0 35 -19.5 57.5t-42.5 44.5q-12 12 -12 26.5zM207 1490.5q0 14.5 9 26t23.5 15.5 t30.5 -2q27 -12 45.5 -37t25.5 -53.5t6 -59t-13 -57.5q-6 -16 -18.5 -31.5t-28 -25t-32.5 -9.5t-34 17q-4 4 -1 7t7 1q16 -4 26.5 3t16.5 20.5t8.5 29t2.5 27.5q0 35 -19.5 57.5t-42.5 44.5q-12 12 -12 26.5z" />
<glyph unicode="#" horiz-adv-x="1118" d="M4 485q-4 4 0 8.5t8 0.5q12 -10 37 -7.5t50.5 10t50 17.5t36.5 14q33 12 66 24.5t67 25.5q12 61 24.5 122.5t29.5 122.5q-76 -8 -156 -12h-65.5t-59.5 23q-4 4 0 8t8 0q12 -10 37 -7t50.5 10t50 17t36.5 15q31 10 62 22t63 23q12 53 24.5 106t31.5 105q6 20 15 45.5 t21.5 49t29 43t38.5 29.5q16 6 28.5 -3t8.5 -25q-6 -27 -16.5 -51.5t-16.5 -51.5l-24 -129q-4 -18 -8.5 -37.5t-8.5 -37.5q100 31 203 49q6 31 14.5 60.5t18.5 58.5q8 20 17 45.5t21.5 49t29 43t38.5 29.5q16 6 27.5 -3t7.5 -25q-4 -27 -14.5 -51.5t-16.5 -51.5 q-8 -33 -14 -64.5t-12 -64.5v-6q53 10 107.5 16.5t109.5 14.5q25 2 40 -14.5t18 -38t-7 -41t-35 -23.5q-66 -8 -129 -14t-129 -16q-6 -31 -12 -61t-14 -60q-6 -27 -11.5 -53.5t-11.5 -53.5q49 8 99.5 14.5t103.5 12.5q25 2 39 -14.5t17 -38t-6 -41t-34 -23.5 q-61 -8 -122.5 -13t-123.5 -16q-4 -25 -9 -48t-9 -46q-16 -76 -29.5 -153.5t-48.5 -147.5q-10 -23 -30.5 -27t-39 3.5t-29.5 26t-5 40.5q23 82 41 164t34 164h-2q-47 -10 -95 -22.5t-97 -22.5q0 -8 -4 -25q-14 -76 -27.5 -153.5t-48.5 -147.5q-12 -23 -32.5 -27t-39 3.5 t-30 26t-4.5 40.5q18 66 33.5 129.5t29.5 128.5q-86 -10 -172 -12q-27 -2 -65.5 -2t-57.5 22zM449 621q47 16 96 26t96 21q12 57 24.5 113.5t28.5 111.5q-49 -12 -98 -24.5t-98 -22.5q-4 -12 -5 -24.5t-6 -24.5q-10 -43 -19 -87t-19 -89z" />
<glyph unicode="$" horiz-adv-x="708" d="M2 275.5q4 70.5 68 119.5q47 39 109.5 39t115.5 -24v14v171t-2 171q-35 25 -70 51.5t-65.5 56t-54 65.5t-31.5 79q-18 78 3 156.5t70 142.5q27 33 60 61.5t71 44.5q-6 35 -13 73t16 67q14 16 28.5 14t27.5 -14.5t22.5 -27.5t13.5 -28l12 -61h12q35 -4 67 -19.5t58.5 -40 t44 -55.5t23.5 -65q4 -33 -1 -69t-20.5 -65.5t-43 -49t-66.5 -21.5q-16 0 -31.5 2t-32.5 8v-264q16 -10 31 -21.5t27 -23.5q86 -74 158.5 -162t92.5 -205q14 -86 -8 -153.5t-71.5 -116.5t-118 -79t-144.5 -38q0 -16 -3 -48t-8 -60.5t-15 -46t-27 -3.5q-4 4 -1 8.5t7 0.5 q2 -2 4 5t2 17v19v10q-2 23 -3 47.5t-3 46.5h-28q-78 2 -142.5 33t-105.5 102q-39 66 -35 136.5zM57 248q2 -31 13.5 -60.5t31 -55.5t44 -44.5t55.5 -26.5q25 -8 53.5 -8t56.5 4q-4 66 -8 131.5t-6 130.5q-33 23 -76 37q-29 8 -59.5 5t-55 -16t-39 -36.5t-10.5 -60.5z M146 1128.5q-4 -47.5 8 -88.5q16 -53 54 -92t85 -74q-2 33 -2 65t-2 65q-2 92 -1 182t-5 182q-39 -25 -69 -63.5t-47 -83.5t-21 -92.5zM365 68q23 6 44.5 12t39.5 14q92 33 143 104.5t24 174.5q-25 92 -87 171t-136 144q0 -27 -1 -52.5t-1 -49.5q-2 -61 -3 -122t-5 -120 q27 -37 27 -79t-35 -75q-4 -31 -5 -61.5t-5 -60.5zM389 1397q6 -61 5 -124t-1 -124q16 -16 39 -21.5t45 7.5q27 16 39 42.5t12 55.5q0 59 -37.5 109.5t-101.5 54.5z" />
<glyph unicode="%" horiz-adv-x="827" d="M2 65.5q4 18.5 13.5 37t20.5 35l19 28.5q23 41 45.5 80t42.5 80q47 98 94.5 194t92.5 197q45 102 90 201.5t92 201.5q43 90 83 180.5t105 167.5q4 6 13.5 3t7.5 -11q-10 -104 -51 -202.5t-82 -194.5q-41 -102 -82 -201.5t-84 -199.5t-89 -196.5t-93 -195.5 q-25 -47 -53.5 -87t-57.5 -85q-16 -23 -31.5 -54.5t-44.5 -39.5q-16 -4 -30.5 4t-18.5 25q-6 14 -2 32.5zM6 1221q2 39 14 73q14 39 40 72t60 51.5t72.5 19.5t79.5 -24q27 -16 48.5 -41.5t29.5 -53.5t-3 -53.5t-50 -41.5q-4 -2 -6 2t0 8q25 27 20.5 51.5t-26 41.5t-51 24.5 t-54.5 -0.5q-41 -14 -62.5 -52t-21.5 -79q-2 -37 12.5 -76t49.5 -60q27 -16 50 -14t44.5 13.5t41 29.5t36.5 35q8 4 16 1t4 -13q-10 -35 -29.5 -69t-60.5 -44q-37 -10 -80 -11t-78 17t-56 49t-31.5 68t-8.5 76zM438 211q-6 45 6.5 89t44.5 75q6 8 15 8q-8 25 3 48.5t36 39.5 q37 25 84 29t88 -21q37 -23 63.5 -62.5t38.5 -84.5t8 -92t-28 -86q-20 -33 -50 -57.5t-66 -38t-74 -12.5t-75 20q-39 20 -63.5 60t-30.5 85zM497.5 235.5q10.5 -47.5 47.5 -75t90 -29.5t94 35q20 18 30.5 45t12.5 55.5t-5 57t-19 53.5q-16 33 -45 58.5t-70 27.5 q-41 0 -76 -20.5t-33 -61.5q10 -8 14.5 -21.5t-6.5 -27.5q-45 -49 -34.5 -96.5z" />
<glyph unicode="&#x26;" horiz-adv-x="905" d="M0 267q-2 50 10 100q12 49 35 91t52.5 79.5t63.5 72.5l68 70q47 47 97 90q-10 20 -18.5 39.5t-16.5 40.5q-29 70 -52.5 167t-18.5 191.5t51 166t155 89.5q74 12 135.5 -10t104.5 -69.5t63.5 -112t11.5 -135.5q-6 -45 -24.5 -86t-44 -78t-57 -71t-62.5 -62 q-29 -25 -55.5 -50.5t-55.5 -50.5q94 -170 211 -313q41 66 80 130.5t82 123.5q4 4 8 1t0 -7q-35 -68 -68.5 -139.5t-74.5 -143.5q35 -41 70.5 -79t70.5 -79q31 -35 53.5 -68.5t28.5 -80.5q2 -16 -13.5 -24.5t-29.5 -0.5q-47 29 -79.5 70t-67.5 82q-20 25 -41 49.5t-41 48.5 q-41 -66 -88 -124t-103 -107q-61 -53 -141 -73.5t-158 20.5q-47 25 -76.5 62.5t-46 83.5t-18.5 96zM111.5 317.5q-7.5 -49.5 11.5 -104.5q14 -43 43 -69.5t65.5 -37t75.5 -4.5t76 29q66 41 119 96.5t98 120.5q-10 12 -18.5 23.5t-18.5 23.5q-51 68 -99 137.5t-89 141.5 l-50.5 -50.5t-50.5 -52.5q-35 -35 -70.5 -74.5t-60 -84.5t-32 -94.5zM299 1165.5q4 -59.5 19.5 -120t36 -118t40.5 -98.5q66 55 125 113q33 31 64.5 65.5t51 73.5t26 83t-10.5 93q-20 59 -70 99.5t-116 36.5q-68 -6 -104.5 -39t-51 -81t-10.5 -107.5z" />
<glyph unicode="'" horiz-adv-x="143" d="M2 1490.5q0 14.5 9 26t24 15.5t31 -2q27 -12 45 -37t25 -53.5t6 -59t-13 -57.5q-6 -16 -18.5 -31.5t-27.5 -25t-32.5 -9.5t-34.5 17q-4 4 -1 7t8 1q16 -4 26 3t16.5 20.5t8.5 29t2 27.5q0 35 -19.5 57.5t-42.5 44.5q-12 12 -12 26.5z" />
<glyph unicode="(" horiz-adv-x="360" d="M0 607q-2 147 14 294q8 92 23.5 200.5t52.5 204t104.5 162t180.5 70.5q6 0 8 -5t-4 -9q-41 -23 -72 -60t-53.5 -81t-38.5 -92t-29 -91q-25 -98 -37 -199.5t-18 -203.5q-6 -133 -1 -265.5t46 -259.5q10 -39 23.5 -71.5t29.5 -65.5q10 -16 24.5 -44t29.5 -36q43 -16 50 -54 t-22 -77q-10 -10 -21 -10t-22 4q-16 8 -29.5 11t-27.5 18q-25 18 -44.5 48t-35.5 56q-35 61 -59.5 127t-40.5 137q-29 145 -31 292z" />
<glyph unicode=")" horiz-adv-x="360" d="M-2 1533q2 5 8 5q113 -4 180.5 -70.5t104.5 -162t52 -204t24 -200.5q16 -147 14 -293.5t-31 -292.5q-16 -72 -40.5 -137t-59.5 -127q-16 -27 -35.5 -56.5t-44.5 -47.5q-14 -14 -27.5 -17.5t-29.5 -11.5q-10 -4 -21.5 -4t-21.5 10q-29 39 -22 77t50 54q14 8 28.5 36 t25.5 44q16 33 29.5 65.5t23.5 71.5q41 127 46 259.5t-1 265.5q-6 102 -18.5 203.5t-36.5 199.5q-12 43 -28.5 91t-39.5 92t-54.5 81t-70.5 60q-6 4 -4 9z" />
<glyph unicode="*" horiz-adv-x="368" d="M2 1427q-6 4 0 11q29 27 64.5 27.5t72.5 -1.5q-20 27 -41.5 47.5t-38.5 53.5q0 2 -3 12t18 4q25 -10 42 -28.5t38 -34.5q2 25 4 49t6 51q0 2 2 2t2 -2q12 -33 19.5 -62.5t13.5 -62.5q27 20 53.5 36.5t58.5 33.5q4 0 4 -4q-41 -53 -81 -101q63 -2 131 -12q2 0 2 -2t-2 -2 q-27 -10 -51.5 -16.5t-49.5 -12.5q23 -20 39.5 -41.5t20.5 -52.5q0 -8 -9 -8q-35 2 -60.5 22.5t-47.5 46.5q2 -35 0 -67.5t-27 -59.5q-6 -10 -10 0q-20 23 -24.5 50.5t-4.5 56.5q-18 -20 -39.5 -34.5t-50.5 -18.5q-8 0 -8 8q4 27 16.5 47t28.5 37q-25 0 -46 5t-42 23z" />
<glyph unicode="+" horiz-adv-x="1048" d="M0 708.5q0 22.5 14.5 40t42.5 17.5q86 -4 170 -10t170 -2q-4 84 -2 164.5t6 166.5q2 29 20.5 43.5t41 14.5t40 -14.5t17.5 -43.5q-2 -80 -8 -160.5t-4 -162.5q41 4 81 7t81 3q66 4 129 -1t129 -15q12 -2 29.5 -2t35 -2t31.5 -8.5t23 -18.5q6 -20 -20 -31.5t-69 -18.5 t-97 -9t-104 -2h-88t-51 -2q-27 -4 -51 -6.5t-51 -4.5q4 -45 7 -89t3 -89q4 -66 -1 -129t-15 -129q-4 -25 -9 -60.5t-32 -52.5q-4 -2 -7 2.5t1 8.5q12 10 13 33.5t-2 50t-8 51t-7 37.5q-10 59 -21.5 119.5t-21.5 119.5q-4 31 -6 60.5t-7 58.5q-86 -4 -171 -2t-175 6 q-29 2 -43 20.5t-14 41z" />
<glyph unicode="," horiz-adv-x="143" d="M2 122.5q0 14.5 9 26t24 15.5t31 -2q27 -12 45 -37t25 -53.5t6 -59t-13 -57.5q-6 -16 -18.5 -31.5t-27.5 -25t-32.5 -9.5t-34.5 17q-4 4 -1 7t8 1q16 -4 26 3t16.5 20.5t8.5 29t2 27.5q0 35 -19.5 57.5t-42.5 44.5q-12 12 -12 26.5z" />
<glyph unicode="-" horiz-adv-x="1042" d="M2 731q-2 4 2 7t8 -1q10 -12 34 -13t50.5 2t51 8t36.5 7q59 10 120 21.5t120 21.5q141 20 279.5 20.5t281.5 -5.5q29 -2 43 -20.5t14 -41t-14 -40t-43 -17.5q-94 4 -187 10t-188 0q-59 -4 -118.5 -9t-118.5 -7q-66 -4 -129.5 1t-128.5 15q-25 4 -61 9.5t-52 31.5z" />
<glyph unicode="." horiz-adv-x="143" d="M1 64.5q-3 15.5 1 29.5q10 29 34.5 50.5t55.5 13.5q18 -6 32.5 -20.5t16.5 -35.5q2 -16 -5 -29.5t-17 -25.5q-14 -14 -38 -25.5t-42 -1.5q-4 4 -4 7q-10 2 -21 12q-10 10 -13 25.5z" />
<glyph unicode="/" horiz-adv-x="722" d="M2 65.5q4 18.5 13.5 37t20.5 35l19 28.5q23 41 45.5 80t42.5 80q47 98 94.5 194t92.5 197q45 102 90 201.5t92 201.5q43 90 83 180.5t105 167.5q4 6 13.5 3t7.5 -11q-10 -104 -51 -202.5t-82 -194.5q-41 -102 -82 -201.5t-84 -199.5t-89 -196.5t-93 -195.5 q-25 -47 -53.5 -87t-57.5 -85q-16 -23 -31.5 -54.5t-44.5 -39.5q-16 -4 -30.5 4t-18.5 25q-6 14 -2 32.5z" />
<glyph unicode="0" horiz-adv-x="735" d="M-18 569.5q-2 92.5 10 184.5t31 178q23 106 62.5 210.5t115.5 188.5q16 18 53 46t77 45.5t75.5 12.5t48.5 -51v-2q4 0 6 1t4 1q61 11 106 -32q53 -51 79 -126t44 -145q27 -106 45.5 -224t14.5 -236.5t-35 -230t-101 -206.5q-31 -41 -66.5 -77.5t-78.5 -61.5t-91 -34 t-103 3q-80 18 -137.5 72.5t-90.5 130.5q-37 82 -52 171t-17 181.5zM84 573.5q-2 -88.5 14 -174.5q14 -68 39 -136t82 -116q43 -35 90 -39t90 13.5t80 50.5t64 74q53 86 78.5 184.5t29.5 198.5q4 115 -12 225.5t-45 220.5q-10 41 -22.5 84t-32.5 82q-8 16 -19.5 35.5 t-27.5 30.5q-12 6 -24.5 2t-23 -13.5t-20.5 -20.5t-16 -18q-14 -14 -31 -0.5t-6 29.5q14 23 32.5 51.5t45.5 40.5q-25 4 -48.5 -5t-46 -25.5t-42 -36t-33.5 -35.5q-35 -41 -60.5 -87t-46.5 -93q-33 -84 -51.5 -171t-26.5 -177q-8 -86 -10 -174.5z" />
<glyph unicode="1" horiz-adv-x="305" d="M-19 1132.5q-1 10.5 9 14.5q35 23 67.5 53.5t61.5 59.5q31 31 59.5 65.5t44.5 75.5q6 18 23.5 27.5t35 7.5t31 -14.5t11.5 -35.5q-4 -86 -10.5 -171t-16.5 -171q-12 -86 -16.5 -171t-10.5 -171q-10 -168 -23.5 -336.5t-47.5 -334.5q-6 -29 -26.5 -38t-42 -3t-37 24.5 t-9.5 46.5q35 164 47 331t23 333q4 86 9 168t17 168q4 33 10.5 65.5t12.5 65.5q-47 -41 -102.5 -64.5t-108.5 -9.5q-10 4 -11 14.5z" />
<glyph unicode="2" horiz-adv-x="868" d="M-18 52.5q0 21.5 18 37.5q31 29 66 47q47 41 84.5 91.5t72.5 101.5q53 78 108.5 153.5t108.5 153.5q63 98 125 199.5t101 212.5q16 45 27.5 95t-5.5 97q-16 53 -64.5 80t-101.5 31q-29 2 -67.5 -1t-76.5 -13.5t-71 -28t-51 -45.5q-8 -12 -21.5 -41t-20.5 -59.5t-3 -55.5 t31 -27q4 0 5 -4t-3 -6q-29 -4 -45.5 8.5t-24.5 34t-10 47t-2 45.5q4 74 51 124t111 79q68 31 150.5 37t156.5 -17.5t125 -78t55 -144.5q2 -68 -14.5 -136.5t-45 -134t-64.5 -128t-71 -117.5q-68 -104 -138 -203.5t-142 -201.5q-18 -29 -36.5 -55.5t-41.5 -53.5 q57 -4 116.5 -16.5t119.5 -24.5q41 -8 91 -10t97 7t86 35t57 73q8 18 26.5 19t27.5 -19q23 -57 -1 -100.5t-69 -73t-100.5 -44t-98.5 -16.5q-57 -2 -118.5 12.5t-123 27.5t-121 16.5t-112.5 -21.5q-33 -27 -63 -43q-23 -12 -43.5 -6t-33.5 22.5t-13 38z" />
<glyph unicode="3" horiz-adv-x="997" d="M-18 390q6 50 36 85q14 18 32 27.5t36 15.5t36.5 12.5t37.5 16.5q16 10 25.5 -4.5t-1.5 -24.5q-23 -25 -54.5 -44t-45.5 -48q-20 -39 -15 -88t31 -84q45 -59 122 -89t149 -36q59 -4 126.5 -1t131 19.5t120 49t93.5 86.5q39 55 55 124.5t10 140t-34.5 135.5t-79.5 112 q-72 66 -174.5 93t-204.5 32q-33 -6 -66 -8.5t-65 1.5q-14 4 -25.5 18.5t-9.5 29.5v6q2 18 14 34.5t35 14.5q10 0 16 -2q59 14 119 35.5t109 58.5q25 18 43 43t25 51.5t-1 54t-39 50.5q-43 33 -108.5 38t-116.5 -2q-29 -4 -58.5 -9t-56 -17t-47 -32.5t-28.5 -51.5 q-4 -8 -13.5 -8t-11.5 8q-6 39 8.5 72.5t42 58.5t61 41t68.5 25q39 8 85 13t90 1t86 -18.5t75 -41.5q39 -35 58.5 -77.5t19.5 -87.5t-18.5 -89.5t-55.5 -78.5q-30 -31 -67 -56q96 -16 182 -53t149 -123q51 -68 78 -156t25 -177t-34 -173t-95 -145q-61 -57 -141 -93 t-167 -51.5t-175.5 -9.5t-167.5 33q-92 31 -162 89.5t-88 158.5q-10 45 -4 95z" />
<glyph unicode="4" horiz-adv-x="839" d="M-18 766q2 18 16 31q76 72 129 155.5t106 173.5q20 35 41 70t43 70q23 37 47.5 76.5t22.5 84.5q0 10 12.5 12.5t16.5 -9.5q10 -47 7 -91.5t-15.5 -87.5t-32 -85t-39.5 -83q-37 -72 -77 -139t-89 -129q35 -2 67.5 -3t65.5 -5q55 -4 110.5 -11.5t110.5 -9.5q35 0 72 4.5 t70 20.5q4 2 5 3t5 3q4 63 6 126t6 126q2 45 5 92t10.5 94.5t22.5 91.5t40 83q12 23 39 16q23 -4 29 -22.5t6 -39.5q-4 -16 -11 -24q-2 -84 -11 -167t-13 -167q-2 -35 -3 -69.5t-3 -69.5q4 0 12 4q12 4 22.5 0t16.5 -14.5t8 -22.5t-4 -23q-14 -29 -26.5 -46t-39.5 -35 q-2 -25 -3 -49.5t-5 -49.5q-12 -98 -19 -193.5t-20 -191.5q-4 -35 -9 -69.5t-7 -69.5q-2 -29 3 -61.5t-5 -59.5q-8 -23 -30.5 -35t-45.5 4q-29 18 -38 53t-8 76t8 80t12 68q14 100 21 199.5t20 199.5q2 8 2 16.5t2 16.5q-59 -16 -111 -16q-63 -2 -125.5 7t-126.5 13 q-66 4 -132.5 7t-131.5 1q-18 0 -32.5 10.5t-20.5 26t-4 33.5z" />
<glyph unicode="5" horiz-adv-x="1105" d="M-15.5 403.5q11.5 96.5 78.5 167.5q66 66 149 108t179 26q12 -2 18.5 -10.5t5.5 -17.5t-7.5 -18.5t-16.5 -13.5q-39 -16 -83 -31.5t-83 -37t-70.5 -53t-45.5 -77.5q-12 -41 -11.5 -84t14 -82.5t38 -73.5t61.5 -59q68 -45 150.5 -62t166.5 -10t165 35.5t145 75.5 q70 51 109.5 124t53 155t0 166t-50.5 160q-41 88 -112.5 163.5t-171.5 98.5q-55 12 -109.5 6t-107 -22.5t-102.5 -39t-99 -47.5q-18 -8 -35.5 -6t-31 11.5t-19.5 25.5t-2 37q12 49 15 100t4 102.5t3 102.5t13 102q4 20 21 31.5t36 11.5q92 4 179 -10t175 -35q47 -10 93 -21 t94 -28q41 -12 78.5 -27.5t78.5 -25.5q6 -2 6 -9t-6 -9q-45 -10 -85 -19.5t-85 -5.5q-41 4 -82 9t-82 16q-78 16 -155.5 30.5t-157.5 16.5q-8 -61 -8 -124t-4 -126q57 27 117.5 47t122 28.5t123 1.5t122.5 -36q92 -43 163 -120t116 -171t61.5 -198.5t1.5 -202.5 q-14 -96 -59 -177.5t-110.5 -141.5t-149.5 -101t-176 -58q-86 -16 -178.5 -12t-177.5 31.5t-153.5 83t-105.5 145.5q-35 88 -23.5 184.5z" />
<glyph unicode="6" horiz-adv-x="1030" d="M0 406q-41 180 2 351t150 318q57 80 127.5 150.5t158.5 117.5q43 23 90 41.5t97 24.5q47 6 92 0t92 -16q4 -2 4 -6.5t-4 -6.5q-37 -8 -70.5 -23.5t-70.5 -27.5q-35 -12 -69 -25.5t-67 -29.5q-127 -68 -219 -178q-57 -68 -104 -146t-75 -161.5t-35 -173t16 -179.5 q18 -74 56 -143.5t103 -110.5q76 -47 162 -57t170 18q90 29 169 86.5t120 143.5q20 41 29.5 88t2.5 92t-33 83t-71 60q-84 41 -183 35t-175 -61q-37 -27 -66.5 -65t-53 -80t-42 -87t-31.5 -88q-6 -23 -30.5 -19.5t-24.5 27.5q4 92 23.5 179.5t83.5 158.5q59 68 138 107 t169 45q43 2 89 -2t91 -17.5t84 -37t70 -56.5q59 -66 76.5 -152.5t-5.5 -172.5q-25 -90 -83 -166t-137 -131.5t-170 -84t-183 -24.5q-176 10 -300 119.5t-163 282.5z" />
<glyph unicode="7" horiz-adv-x="798" d="M-20 1417q0 8 8 8q100 -10 198.5 2.5t196.5 22.5q94 8 189.5 10t191.5 4q20 0 33.5 -11t17.5 -28.5t-1 -35t-21 -27.5q-49 -35 -90 -81t-73 -99.5t-58.5 -109.5t-47.5 -111q-74 -188 -123 -392q-16 -76 -30.5 -150.5t-26.5 -152.5q-6 -41 -11 -80t-7 -80q-4 -29 0 -59 q-2 8 -1 3t1 -15q4 -14 -2.5 -29.5t-18.5 -25.5q-18 -12 -35.5 -9.5t-31 15t-21.5 29t-10 32.5q-4 39 0 77t8 77q14 96 30.5 191t39.5 192q49 227 139 440q37 88 83 174t111 158h-256q-98 2 -191 8t-185 41q-6 4 -6 12z" />
<glyph unicode="8" horiz-adv-x="860" d="M-14.5 456q12.5 81 46.5 153.5t88 130t126 87.5q-43 29 -68 72q-49 80 -56 176t34 185q41 86 112.5 144t165.5 75q80 14 160 -15.5t125 -101.5q55 -92 45 -193.5t-49 -195.5q-20 -51 -46 -98.5t-55 -94.5q84 -43 147.5 -117.5t94.5 -163.5t20.5 -184.5t-75.5 -175.5 q-53 -66 -134 -102.5t-172.5 -48t-181.5 4t-159 56.5q-72 41 -113 107.5t-54.5 142.5t-1 157zM70 352q4 -66 34.5 -131t96.5 -94q39 -18 86 -26.5t96 -8.5t97 7.5t89 19.5q49 14 89 42.5t68 66.5t41 86t7 102q-10 98 -68.5 170.5t-142.5 115.5q-20 -31 -36.5 -61.5 t-28.5 -65.5q-6 -14 -19.5 -11t-11.5 20q14 74 39 141h-2q-51 16 -107.5 32.5t-107.5 43.5q-55 -35 -97 -85t-71 -109.5t-42 -125t-9 -129.5zM217 1051q12 -63 44 -102.5t77 -64t96 -40t105 -33.5q2 12 8 23q25 63 57.5 121.5t48.5 125.5q6 29 11.5 62t4.5 65.5t-10.5 63.5 t-29.5 55q-33 35 -78 53.5t-92 8.5q-57 -10 -106.5 -42t-83 -78t-49 -102.5t-3.5 -115.5z" />
<glyph unicode="9" horiz-adv-x="663" d="M-39 244q0 49 21.5 96t62.5 84q10 10 19.5 3t5.5 -19q-14 -47 -29.5 -98.5t2.5 -102.5q16 -47 57 -65.5t86 -18.5q43 0 91.5 4t92.5 19.5t80.5 42t59.5 69.5q29 57 38 122.5t8 133.5t-9 135.5t-12 128.5q-2 23 -2.5 45.5t-2.5 44.5q-12 -23 -32 -39q-45 -43 -104.5 -69.5 t-122 -30.5t-122 17.5t-102.5 72.5q-45 53 -61.5 121t-10 136.5t35 133t71.5 113.5q45 49 102.5 79t120.5 46q23 4 47.5 8t49 2t45 -11t34.5 -32q4 -4 0 -8t-8 -2q-39 12 -88 4t-96 -29.5t-89 -53.5t-65 -62q-29 -41 -50.5 -93.5t-28.5 -107.5t5.5 -106.5t55.5 -88.5 q39 -35 87 -47t96 -5t92 32.5t73 69.5q25 37 43 76.5t27 84.5q-2 47 -4.5 90t-10.5 86q-6 23 -13 46.5t-11 46.5q-6 14 1 24t18 15.5t24.5 2t19.5 -15.5q35 -76 55.5 -148.5t3.5 -156.5q0 -2 -1 -4t-1 -6q0 -10 1 -22.5t1 -22.5q8 -92 18.5 -184.5t18.5 -184.5 q4 -70 6.5 -145.5t-9 -149.5t-43 -139.5t-95.5 -110.5q-45 -31 -104.5 -50t-122 -23t-123 7t-107.5 40q-49 31 -72.5 76t-23.5 94z" />
<glyph unicode=":" horiz-adv-x="143" d="M1 64.5q-3 15.5 1 29.5q10 29 34.5 50.5t55.5 13.5q18 -6 32.5 -20.5t16.5 -35.5q2 -16 -5 -29.5t-17 -25.5q-14 -14 -38 -25.5t-42 -1.5q-4 4 -4 7q-10 2 -21 12q-10 10 -13 25.5zM1 738.5q-3 15.5 1 29.5q10 29 34.5 50t55.5 13q18 -6 32.5 -20t16.5 -35 q2 -16 -5 -29.5t-17 -23.5q-14 -16 -38 -27.5t-42 -1.5q-4 4 -4 6q-10 2 -21 13q-10 10 -13 25.5z" />
<glyph unicode=";" horiz-adv-x="145" d="M2 122.5q0 14.5 9 26t24 15.5t31 -2q27 -12 45 -37t25 -53.5t6 -59t-13 -57.5q-6 -16 -18.5 -31.5t-27.5 -25t-32.5 -9.5t-34.5 17q-4 4 -1 7t8 1q16 -4 26 3t16.5 20.5t8.5 29t2 27.5q0 35 -19.5 57.5t-42.5 44.5q-12 12 -12 26.5zM3 738.5q-3 15.5 1 29.5 q10 29 34.5 50t55.5 13q18 -6 32.5 -20t16.5 -35q2 -16 -5 -29.5t-17 -23.5q-14 -16 -38 -27.5t-42 -1.5q-4 4 -4 6q-10 2 -21 13q-10 10 -13 25.5z" />
<glyph unicode="&#x3c;" horiz-adv-x="559" d="M4 754.5q6 21.5 23 31.5q74 43 143.5 91.5t140.5 95.5q39 27 75 53.5t71 56.5q23 20 35 42t30 42q0 6 6 0q20 -20 4 -56t-45.5 -73t-61.5 -67.5t-44 -42.5q-59 -55 -123.5 -102.5t-130.5 -94.5q49 -63 100.5 -123.5t102.5 -120.5q25 -29 49 -57t53 -55q27 -25 54.5 -45.5 t54.5 -42.5q16 -14 17 -32.5t-8 -34t-26.5 -25t-38.5 -2.5q-37 10 -71.5 34.5t-65.5 57t-58.5 66.5t-51.5 63q-59 74 -119 147.5t-111 155.5q-10 16 -4 37.5z" />
<glyph unicode="=" horiz-adv-x="1083" d="M43 584q-2 4 2 8t8 0q10 -12 34 -14.5t50.5 1t51 8.5t36.5 7q59 10 120 22.5t120 20.5q141 20 279.5 20t281.5 -6q29 -2 43 -20.5t14 -41t-14 -40t-43 -17.5q-94 4 -187.5 10.5t-187.5 0.5q-59 -4 -118.5 -9.5t-118.5 -7.5q-66 -2 -129.5 2t-128.5 15q-25 4 -61 9t-52 32 zM43 897q-2 4 2 8t8 0q10 -12 34 -14t50.5 1t51 9t36.5 8q59 10 120 21.5t120 21.5q141 20 279.5 20.5t281.5 -7.5q29 0 43 -19.5t14 -41t-14 -39t-43 -17.5q-94 4 -187.5 10t-187.5 -2q-59 -4 -118.5 -8t-118.5 -6q-66 -4 -129 1t-129 13q-25 4 -61 10t-52 31z" />
<glyph unicode="&#x3e;" horiz-adv-x="559" d="M1 254q1 18 17 33q27 23 54.5 43t54.5 45q29 27 53.5 55.5t48.5 56.5q51 59 102.5 120t100.5 124q-66 47 -130 94t-124 103q-12 12 -44 42.5t-61.5 67.5t-46 73t4.5 56q6 6 6 0q18 -20 30.5 -41.5t34.5 -42.5q35 -31 71 -57.5t75 -52.5q72 -47 141.5 -95.5t142.5 -91.5 q16 -10 22.5 -31.5t-3.5 -37.5q-51 -82 -110.5 -156t-118.5 -147q-25 -29 -52.5 -63t-58.5 -66.5t-65.5 -57t-71.5 -34.5q-20 -6 -38 3t-27 24.5t-8 33.5z" />
<glyph unicode="?" horiz-adv-x="692" d="M3 1213q3 42 15.5 82t32.5 73q39 63 97.5 94t132.5 33q72 2 147.5 -10.5t134.5 -57.5q66 -49 96.5 -129.5t32.5 -172t-22.5 -178.5t-67.5 -148q-23 -35 -52.5 -58.5t-60 -44t-63.5 -40t-61 -46.5q-80 -72 -91 -176q-4 -49 -16 -95t-25 -95q-2 -4 -7 -4t-7 4 q-10 35 -25.5 73.5t-11.5 75.5q4 41 8.5 85t18.5 85q25 66 69 109t103 78t103 74.5t67 105.5t30 135.5t-6 136.5q-6 35 -16 71t-26.5 67.5t-42 55t-64.5 34.5q-29 8 -63.5 14t-71.5 8t-71 -4t-60 -21q-74 -45 -92.5 -123.5t10.5 -156.5q10 -31 26.5 -49.5t51.5 -18.5 q23 0 39 -2t34 -12q14 -8 2 -21q-20 -25 -47.5 -37t-56.5 -11t-54.5 15.5t-39.5 43.5q-18 35 -25.5 75.5t-4.5 82.5zM158 64.5q-2 15.5 2 29.5q8 29 32.5 50.5t57.5 13.5q18 -6 32.5 -20.5t14.5 -35.5q2 -27 -23 -55q-14 -14 -36.5 -25.5t-42.5 -1.5q-2 2 -2 7q-14 4 -23 12 q-10 10 -12 25.5z" />
<glyph unicode="@" horiz-adv-x="768" d="M1 710q1 83 9 169q4 86 16.5 172t41.5 166q2 8 4 14t6 14t4 12q29 68 76 131.5t118 88.5q14 6 30 11t32 9q68 12 126 -11.5t103 -68.5t75 -104.5t40 -118.5q14 -86 9 -169t-15 -169q-10 -78 -14.5 -155.5t-28.5 -151.5q-18 -51 -41 -79t-44.5 -41t-40 -15t-26.5 0 q-43 6 -59 57q-12 -20 -31.5 -31.5t-46.5 -21.5q-45 -16 -78 1t-55.5 50t-36.5 74t-20 75q-10 47 -9.5 101.5t13 107t37 99.5t63.5 78q43 35 99.5 34.5t88.5 -34.5q6 35 19 65q-8 -4 -14 -4q-8 -4 -9.5 3t2.5 11q10 8 21.5 16.5t21.5 16.5q10 10 20.5 6t14.5 -14 q16 -47 16.5 -103.5t-3.5 -103.5q-2 -41 -2.5 -80t-4.5 -78q-2 -41 -4 -83t0 -83q2 -18 5 -36.5t8 -34.5q2 0 2 1t2 1q14 16 21 37.5t11 44.5q10 53 10.5 104t4.5 105q6 53 12 108t9 110.5t-1 110t-20 107.5q-12 43 -41 83t-68 66.5t-84 35.5t-94 -11q-20 -8 -41 -23 q-47 -53 -73.5 -119.5t-41.5 -134.5q-8 -35 -14 -71.5t-12 -73.5q-4 -61 -3 -123.5t3 -126.5q4 -86 8 -173t20 -173q10 -51 19.5 -112.5t38.5 -106.5q43 -68 121 -100q47 4 93 20t81 49q76 63 105.5 151.5t45.5 182.5q20 117 38 230.5t22 230.5q0 16 13 15t15 -15 q6 -53 11.5 -108.5t1.5 -108.5q-6 -98 -20.5 -213t-52.5 -218.5t-110.5 -178t-195.5 -91.5q-72 -10 -124 10.5t-91 60.5t-64.5 96.5t-42.5 117.5l-6 18q-8 33 -13 65t-9 64q-8 49 -13 97q-10 84 -9 167zM233 815q-8 -70 3 -135q8 -41 17 -88t38 -78q10 -12 29.5 -24.5 t35.5 -10.5q16 4 30.5 15.5t23.5 27.5q-4 14 -4 26.5v26.5q0 8 1 31t2 48.5t3 49t2 35.5q2 43 5 86t11 84q2 16 4 30.5t6 31.5q-14 20 -33.5 31.5t-50.5 1.5q-23 -6 -48 -21.5t-38 -38.5q-29 -59 -37 -129z" />
<glyph unicode="A" horiz-adv-x="901" d="M-21 206q7 52 39 85q23 23 52 23q13 0 28 -5q16 -6 34 -23.5t15 -37.5q-2 -10 -6 -21.5t-12 -19.5t-18.5 -10t-22.5 6q-6 4 -5 11t9 9q12 4 16.5 19.5t2.5 25.5q0 14 -14.5 19.5t-24.5 1.5q-33 -8 -47.5 -34t-22.5 -54q-6 -23 -2 -45.5t14 -38.5q16 -27 38 -35t43.5 -4 t42 19.5t34.5 35.5q59 86 86 191.5t41 207.5q4 31 7 62t7 59q-59 4 -103 31t-60 94q-2 4 2 6t6 -2q30 -53 72 -65q26 -7 52 -7q18 0 37 3q8 90 13.5 179t15.5 179q2 29 6 75t12.5 97t22.5 101.5t38 87.5q25 38 59 56q21 11 47 12q17 0 36 -5q35 -10 58.5 -27.5t42.5 -44.5 q14 -14 24 -32q23 -35 41.5 -69t32.5 -73q35 -100 47.5 -210t20.5 -214q7 -92 7 -184q0 -37 -1 -73q-4 -128 -6 -257q-1 -25 -1 -50q0 -37 2 -75q1 -21 1 -42q0 -42 -4 -85q-2 -20 -20.5 -33.5t-41 -16.5t-41 3t-18.5 25q-4 96 -4 191q0 84 3 167q4 113 4 228q0 65 -1 131 q-63 -18 -150.5 -50t-173.5 -45q-18 -123 -49 -247q-23 -86 -55.5 -174t-102.5 -148q-25 -20 -52.5 -31.5t-55 -10.5t-51 16.5t-37.5 50.5q-11 27 -11 61q0 14 2 30zM401 735q14 4 26.5 9.5t25.5 9.5q66 23 128 56.5t130 49.5q-2 66 -5.5 131.5t-7.5 130.5q-2 33 -5 74 t-10 82t-22.5 78t-42.5 61q-25 24 -46 24q-8 1 -16 -3q-26 -12 -44 -43t-29.5 -70t-15.5 -59q-16 -86 -24.5 -170t-18.5 -170q-6 -47 -11.5 -95.5t-11.5 -95.5z" />
<glyph unicode="B" horiz-adv-x="860" d="M-35 1124q2 76 52.5 139.5t122.5 108.5q73 44 155 66q64 17 119 18q15 0 30 -2q100 -10 167 -83t81 -169q3 -20 3 -38q1 -45 -17 -84q-24 -54 -72 -89q43 -16 80 -46t64 -73q51 -86 64 -186q5 -38 4 -75q0 -61 -12 -123q-22 -98 -74 -187.5t-128 -150.5 q-76 -58 -169 -106q-89 -46 -183 -46h-8q-31 0 -68 10t-70.5 28.5t-60.5 44t-39 56.5q-10 29 -10 59q0 11 1 21q5 41 23.5 79t46 70.5t58.5 57.5q23 18 55.5 40.5t67.5 39.5q8 68 11 136.5t7 137.5q0 20 -1 63.5t-2 91.5t-2 89t-3 55q-2 20 -5 46t-11.5 50.5t-23.5 42 t-40 21.5q-8 2 -6 7t6 7q25 2 44.5 -9t34.5 -28.5t27.5 -38t20.5 -38.5q29 -68 41 -138q33 8 63.5 11.5t53.5 3.5q11 1 22 1q27 0 54 -7q59 46 81 116q7 24 7 49q0 47 -27 97q-35 66 -93 98q-47 26 -105 27q-14 0 -29 -2q-53 -4 -111.5 -24.5t-111 -54.5t-92.5 -80t-56 -101 q-4 -16 -5 -40t15 -36q16 -14 28.5 -13.5t22 10t15.5 24t10 26.5q4 6 10 6t11 -6q12 -33 -1.5 -57.5t-37 -33.5t-50 -1t-40.5 41q-6 16 -10.5 30.5t-4.5 40.5zM24 220q-2 -10 -2 -19q0 -22 9 -45q18 -49 55 -71t82 -26q13 -1 27 -1q32 0 65 6q47 10 84 24q88 33 165 96.5 t129 146.5t74 178q12 50 12 101q0 45 -9 90q-18 84 -63.5 144.5t-131.5 85.5q-33 10 -65.5 14t-65.5 8q-16 4 -35 4q6 -35 9.5 -70.5t5.5 -70.5q2 -43 2 -86q0 -33 -1 -65q-3 -74 -12 -150q20 -10 25.5 -27.5t0.5 -37t-17.5 -40t-24.5 -32.5q-8 -45 -18.5 -90t-30.5 -86 q-12 -25 -32.5 -28t-39 8.5t-28 31.5t3.5 45q10 20 20 57q-6 -2 -13 -2h-14q-37 -4 -78.5 -11t-66.5 -19q-15 -31 -21 -63zM70 319q35 16 75.5 19.5t81.5 13.5q4 29 8.5 55.5t8.5 51.5v2q-4 -4 -9.5 -5t-9.5 -5q-35 -20 -79 -54.5t-76 -77.5z" />
<glyph unicode="C" horiz-adv-x="798" d="M-22 476q6 112 20 222q18 129 63 246q6 23 13.5 44.5t15.5 43.5q23 61 53.5 125t71.5 121t94 101t121 65q39 11 78 11q24 0 48 -4q62 -11 118 -46q25 -16 46 -40t33.5 -52.5t10.5 -60t-23 -60.5q-37 -54 -98 -68q-26 -6 -51 -6q-35 0 -68 12q-23 8 -47 28t-38.5 42.5 t-12.5 45t37 38.5q8 4 14 0t4 -14q-4 -18 5.5 -32.5t26.5 -27t35.5 -20.5t33.5 -10q30 -8 52 -8q14 0 24 3q28 7 55 48q21 30 21 57q0 14 -6 26q-16 38 -53.5 65.5t-86.5 41.5q-43 12 -77 12h-9q-78 -4 -127 -49t-90 -106q-10 -14 -25.5 -48t-31 -73t-29 -74t-17.5 -51 q-16 -66 -36.5 -131.5t-30.5 -132.5q-6 -47 -11.5 -94.5t-7.5 -94.5q0 -41 2 -79.5t8 -79.5q4 -37 14.5 -80t28 -83t45 -72t68.5 -46q53 -19 100 -19q40 0 76 14q78 30 143.5 91.5t122 138t115.5 133.5q8 8 18.5 1t4.5 -17q-49 -68 -95.5 -139.5t-98.5 -134t-117.5 -109.5 t-153.5 -65q-18 -4 -45 -5.5t-45 0.5h-7q-104 0 -172 62q-70 64 -102 172q-28 93 -28 189q-1 17 0 33z" />
<glyph unicode="D" horiz-adv-x="819" d="M-24.5 1204.5q-0.5 28.5 6.5 57.5q10 55 48 95t90 63.5t112 30.5q28 3 55 3q30 0 59 -4q80 -12 148.5 -57t122 -107.5t91.5 -137.5t56 -149q20 -84 28 -178q4 -44 3 -88q-1 -50 -5 -99q-8 -93 -34.5 -182.5t-73.5 -162.5q-49 -78 -112.5 -134.5t-149.5 -91.5 q-33 -14 -71 -26q-38 -13 -78 -17q-18 -2 -36 -2q-23 0 -43 4q-38 6 -71 25q-72 45 -84 121q-2 14 -2 29q0 60 41 114q33 41 84 86t110 62q8 90 8 181q0 45 -2 91q-2 90 -8 179t-24 177q-4 16 -11.5 45t-19.5 57t-29.5 46t-42.5 14q-4 0 -6 4t2 7q31 14 55.5 3.5t43 -34 t32 -52t21.5 -51.5q35 -104 51 -211.5t20 -218.5q3 -60 3 -119.5t-3 -119.5q39 -16 39 -57.5t-39 -63.5q-4 -2 -8 -3t-8 -3q-2 -16 -4 -29.5t-6 -28.5q-8 -27 -19.5 -58.5t-33.5 -49.5q-18 -14 -34 -18.5t-38 -0.5q-29 4 -38 29t-5 47q0 12 13.5 16.5t21.5 -6.5 q10 -12 19 3.5t11 19.5q4 14 8.5 26.5t8.5 26.5q-14 0 -21 -2q-29 -2 -61.5 -2t-59.5 -12q-27 -35 -39 -77q-4 -14 -4 -29q0 -27 15 -54q27 -49 73 -65q39 -14 81 -15q8 0 16 1q51 3 102 23.5t88 45.5q78 53 138.5 136t89.5 173q30 88 32 184q1 28 0 57q0 67 -4 132 q-6 94 -27.5 185t-74.5 169q-55 86 -139 147.5t-189 63.5q-29 0 -63.5 -3t-68.5 -11t-62.5 -23.5t-44.5 -40.5q-12 -20 -21.5 -40.5t-9.5 -45.5q0 -20 7 -36.5t30 -20.5q29 -4 45 10q2 2 8 -2q4 -20 -11.5 -32.5t-33.5 -14.5q-41 0 -57 45q-6 23 -6.5 51.5zM135 326 q29 8 58.5 11t58.5 7h4q4 20 4 31l6 43q-29 -10 -54.5 -26t-41.5 -32q-18 -16 -35 -34zM352 377q10 10 14 22.5t-10 20.5q0 -10 -1 -21.5t-3 -21.5z" />
<glyph unicode="E" horiz-adv-x="786" d="M-20 381q0 7 -1 13q0 92 33 178q35 92 102.5 166.5t155.5 115.5q-45 31 -76.5 72t-49 90t-17.5 103.5t18 107.5q14 43 36 83t54.5 73.5t81 59t119.5 42.5q31 8 62 8q18 0 38 -3q50 -7 97 -26q57 -23 93 -67.5t48 -98.5q6 -27 6 -55.5t-6 -56.5q-12 -58 -51 -107 q-41 -49 -101 -67q-19 -6 -38 -6q-41 0 -80 28q-52 38 -70 96q-6 19 -6 39q0 39 23 78q8 14 20 16.5t23.5 -3t18.5 -16.5t5 -25q-4 -15 -3 -30q-1 -24 9 -44q16 -33 58 -43q20 -4 37 -4q84 0 104 102q8 30 8 57q1 53 -29 97q-44 66 -137 76q-17 2 -34 2l-134 -31 q-84 -39 -129 -113q-35 -58 -40 -126q-1 -11 -1 -23q1 -55 21 -105q24 -60 75.5 -100.5t127.5 -42.5q14 0 20 -8.5t6 -19.5t-6 -20t-20 -9q-47 -4 -91.5 -18.5t-83.5 -37.5q-74 -59 -114.5 -149t-48.5 -183q-1 -17 -1 -34q0 -42 7 -88q10 -64 43 -117q10 -14 19 -25.5 t22 -21.5q67 -48 149 -52q12 -1 24 0q70 0 139 23q81 27 152.5 78.5t116.5 114.5q6 10 16.5 4t6.5 -17q-25 -49 -63.5 -97t-86 -90t-100.5 -70.5t-111 -37.5q-38 -6 -75 -6q-81 0 -159 30q-114 44 -179 155q-51 88 -53 186z" />
<glyph unicode="F" horiz-adv-x="819" d="M4 1240v12q0 31 12 61q8 29 21.5 52.5t30.5 39.5q52 57 128 73q61 13 122 14q15 0 30 -1q53 -4 99.5 -20.5t97.5 -26.5q37 -7 75 -7q53 -1 106 13q91 22 177 47q25 6 40 -6t20.5 -30.5t-2 -38t-31.5 -25.5q-82 -27 -170 -43q-51 -9 -102 -9q-36 0 -72 5q-18 2 -52 11 t-71 18.5t-69 17.5t-46 8q6 -47 19.5 -95t23.5 -96q12 -51 25.5 -101t23.5 -101q2 -6 2 -11.5t2 -9.5l62 -8t61 -2q45 0 83 9.5t79 21.5q18 6 31.5 -2.5t19.5 -22.5t3 -30.5t-19 -26.5q-67 -40 -134 -40q-10 0 -18 1q-76 6 -153 24q23 -133 24 -268q2 -70 2 -141.5t-9 -141 t-31.5 -137t-67.5 -127.5q-14 -18 -40 -39.5t-54.5 -35t-59 -16.5t-55.5 16q-29 20 -34 45.5t3 52.5t26.5 50.5t39.5 41.5q35 33 85 47t101 23q0 10 1 18t1 19q2 27 2 54q0 34 -3 68q-5 62 -9 121q-4 63 -7 126t-14 124q-10 63 -24 129q-45 9 -90 9h-10q-50 -1 -97 -21 q-6 -4 -8 1t2 9q47 29 94 41t99 14q-10 37 -17.5 74t-15.5 74q-14 76 -14 145.5t6 143.5q-20 4 -41 5t-43 -3q-47 -4 -87 -35t-59 -74q-14 -33 -15 -59.5t5 -55.5q6 -12 17.5 -23t27.5 -9t34.5 13t22.5 36q0 6 6.5 7t10.5 -3q23 -23 10.5 -54.5t-41.5 -41.5t-59.5 1 t-48.5 36q-19 28 -21 66zM182 84q8 -23 27.5 -24t41 8.5t41 23t27.5 23.5q25 27 39.5 59.5t22.5 67.5q-29 -6 -56.5 -15.5t-54.5 -23.5q-12 -6 -30.5 -19.5t-32.5 -29t-22.5 -34t-2.5 -36.5z" />
<glyph unicode="G" horiz-adv-x="942" d="M-20 620q-1 27 -1 53q0 64 9 129q14 91 43 177q27 82 68.5 164t99 150.5t131 118.5t166.5 67q35 6 74 7h8q34 0 67 -8q37 -8 67.5 -28t51.5 -57q32 -55 32 -129q0 -68 -28 -123q-16 -31 -42 -55q-24 -21 -58 -21h-6q-43 2 -78 21.5t-49 64.5q-4 14 -5.5 32.5t3 35 t16.5 26.5t33 8q12 -4 12 -16q-3 -16 -3 -30q0 -34 17 -62q18 -29 48 -45q10 -6 21 -6q19 0 38 20q14 16 26.5 46t17.5 62q4 28 4 55v11q-1 33 -13 55q-23 43 -63 69t-89 26h-12q-45 0 -88 -12q-49 -15 -93.5 -41.5t-82 -62.5t-68.5 -77q-53 -74 -94 -161t-65.5 -179 t-30.5 -186q-1 -18 -1 -36q0 -76 19 -151q23 -90 63.5 -170.5t114.5 -138.5q37 -29 81 -49t92 -32q44 -10 89 -10h8q48 1 93 13q86 25 142 95.5t64 160.5q1 17 1 35q0 26 -2 52q-3 44 -17 85t-40 76t-66 58q-45 25 -101 34q-31 5 -62 5q-25 0 -50 -4q-56 -7 -106 -30.5 t-83 -62.5q-14 -23 -25.5 -46t-15.5 -45.5t3 -45.5t30 -41q18 -14 42.5 -17t48.5 3t42 20.5t27 36.5q2 4 6 4t6 -4q6 -21 6 -38q0 -21 -9 -36q-18 -28 -52 -40q-22 -7 -46 -7q-13 0 -27 2q-40 6 -71 25q-23 14 -43 45t-20 72q0 78 25.5 131t67.5 85.5t96 46.5q48 11 97 11 h15q57 -2 113.5 -17.5t101.5 -39.5q92 -49 128 -135.5t40 -186.5q1 -13 1 -27q0 -40 -5 -81q-6 -54 -26.5 -102t-55.5 -88t-88 -64q-86 -39 -179 -42h-17q-83 0 -161 26q-86 28 -159.5 85.5t-120.5 136.5q-45 80 -68.5 167t-29.5 177z" />
<glyph unicode="H" horiz-adv-x="819" d="M-5 378q44 152 169 275v60q-4 129 -13.5 254t-17.5 252q-4 59 -10 119q-4 36 -4 71q0 24 2 47q-23 4 -42.5 5t-41.5 -5q-10 -2 -15.5 9.5t5.5 15.5q35 16 65.5 28.5t69.5 14.5q16 2 26.5 -10.5t12.5 -28.5q2 -78 13 -157t17 -157q10 -111 16.5 -217t10.5 -217 q80 63 169 111.5t187 73.5q-4 31 -7 62.5t-7 62.5q-4 39 -9 93q-4 39 -4 78q0 16 1 32q2 56 12 108.5t37 93.5q-12 2 -24.5 3t-24.5 5q-8 2 -8 9.5t8 9.5q29 8 57.5 16t56.5 14q20 4 36 -16t-5 -39q-4 -4 -9 -10t-9 -14q-21 -58 -21 -124v-11q2 -72 8 -138q10 -113 25 -217 q10 0 22.5 1t24.5 1q10 0 11 -11t-9 -16q-18 -2 -45 -10l12 -86q8 -57 15 -125q6 -68 9 -134q2 -50 2 -96v-32q-1 -62 -7 -106q-6 -31 -14.5 -61.5t-20.5 -59.5q-10 -25 -32.5 -62t-54.5 -69q-32 -30 -68 -46q-15 -7 -29 -7q-20 0 -39 12q-23 12 -34 47t-11 59q2 20 7 39 t19 35q31 37 74 59.5t90 38.5q8 53 8 105.5v103.5q-4 90 -14 177t-22 173q-98 -33 -189.5 -80t-171.5 -106v-26.5t2 -24.5v-43q0 -96 -7 -196q-9 -122 -48 -232q-10 -33 -26.5 -64.5t-45.5 -52.5q-25 -18 -53 -18h-13.5t-15.5 2q-4 2 -7 3t-7 3q-2 0 -4 2q-18 0 -25 18 q-34 97 -34 189q0 69 19 134zM10 224q4 -70 39 -138q18 -2 33.5 -3t32.5 19q23 31 31 70t12 74q8 44 8 90v18q-1 28 -1 56t1 55v135q-49 -53 -86 -114q-38 -62 -56 -128q-15 -54 -15 -110q0 -12 1 -24zM497 147q1 -29 27 -49q8 -6 24.5 7.5t32 33t28 40t14.5 26.5 q16 43 22 84q-41 -14 -77 -35t-56 -51q-16 -27 -15 -56z" />
<glyph unicode="I" horiz-adv-x="673" d="M-20 1286q-1 8 -1 16q1 38 25 74q30 43 64 70q31 25 68.5 40t78.5 24.5t83 12.5t79 3q45 0 88 -5t84 -18q53 -15 107 -31q36 -11 72 -11q18 0 36 3q20 2 34.5 -8t18.5 -25.5t-2 -31t-27 -21.5q-30 -8 -57 -8q-9 0 -17 1q-34 3 -69 12.5t-68.5 20.5t-70.5 17 q-47 10 -90 13q-27 -8 -45.5 -24.5t-26.5 -47.5q-11 -43 -11 -88v-7q1 -48 7 -96q8 -72 25.5 -141t36 -139t37 -139.5t28.5 -139.5q16 -104 17 -227v-5q0 -120 -46 -222l37 -13q37 -11 71 -11q20 0 40 4q50 12 106 38q4 2 8.5 -2t-0.5 -8q-23 -18 -47 -32.5t-53 -20.5 q-24 -5 -46 -5t-42 5q-41 10 -82 26q-10 -16 -19.5 -30.5t-21.5 -28.5q-39 -46 -99 -62q-41 -11 -80 -11q-19 0 -38 3q-25 4 -48.5 15.5t-38.5 29t-19.5 40t8.5 48.5q14 31 39.5 49.5t56.5 25.5q24 5 50 5h14q34 -2 63 -10q20 -4 38.5 -11t37.5 -16q20 57 20 124 q-1 10 -1 21q-4 79 -17 140q-31 135 -62.5 267t-60.5 268q-10 43 -19.5 90t-12.5 94q-1 18 -1 35q0 29 3 59q5 47 26 88q18 35 39 60q-16 -2 -31.5 -3.5t-32.5 -3.5q-49 -8 -104.5 -24.5t-83.5 -61.5q-12 -20 -8 -39.5t18 -34t35.5 -21.5t44.5 -1q30 10 30 31q0 9 -5 20 q-6 12 -15.5 18.5t-21.5 10.5q-2 0 -2 4q6 16 18 21.5t25.5 2.5t24.5 -12.5t18 -23.5q10 -29 -0.5 -58.5t-38.5 -39.5q-23 -10 -53.5 -14.5t-61.5 5.5q-25 8 -41 25.5t-22 52.5zM92 99q6 -17 21.5 -29.5t37 -17.5t39.5 -5q72 0 113 33t64 86q-47 20 -91 29q-23 4 -49 6 t-51.5 -3t-47.5 -18.5t-32 -38.5t-4 -42z" />
<glyph unicode="J" horiz-adv-x="593" d="M-18 1161q-2 16 -2 32q0 25 6 49q10 38 30.5 73t48 65.5t56.5 57.5t70.5 52.5t88.5 40.5q38 13 76 13q8 0 15 -1q45 -3 80 -36q53 -47 73.5 -120.5t24.5 -149.5q10 -72 10 -143.5v-141.5q1 -41 1 -82q0 -82 -3 -162q-4 -122 -20 -245q-4 -20 -7.5 -50t-13.5 -65 q-12 -63 -35.5 -120.5t-66.5 -106.5q-45 -53 -108 -88q-48 -26 -100 -26q-18 0 -36 3q-53 10 -96 50t-60 92q-5 16 -5 30q0 29 19 50q29 30 80.5 49.5t112 28.5t109.5 14q29 4 40 8t27 12q10 31 16.5 61.5t14.5 61.5q16 78 25.5 154.5t13.5 154.5q6 121 13 240q2 40 2 79 q0 80 -9 160q-4 16 -5 35t-5 41q-10 45 -30.5 83t-55.5 65q-20 5 -42 5q-13 0 -27 -2q-36 -5 -69.5 -18.5t-65.5 -34t-54 -43.5q-16 -16 -38 -39.5t-40 -51t-26.5 -56.5t1.5 -55q14 -37 46 -39h7q28 0 56 14q14 10 28.5 19.5t18.5 27.5q4 16 -2 39t-29 27q-8 0 -12 7t2 13 q25 20 50.5 14t41.5 -34q12 -27 12 -54q0 -8 -1 -16q-4 -34 -37 -59q-18 -16 -52 -28.5t-68 -14.5t-61.5 11t-33.5 50zM88 181q4 -23 24.5 -42.5t49 -32t55.5 -8.5q35 4 57.5 25.5t42.5 50.5q45 57 68 133q-12 -4 -34.5 -10t-44 -10t-41 -8.5t-25.5 -4.5q-8 -2 -25.5 -6 t-38 -10t-39 -14t-28.5 -17q-25 -23 -21 -46z" />
<glyph unicode="K" horiz-adv-x="839" d="M-22.5 54.5q-0.5 19.5 22.5 17.5q7 -1 13 0q40 0 67 22q31 26 48 64.5t24.5 84.5t11.5 83q6 63 6 126q0 24 -1 47q-3 87 -9 173q-8 86 -12.5 175t-8.5 185q-4 68 -10 135.5t-10 135.5q-2 23 -3 53l-2 60t-2 50.5t-3 20.5q-2 2 -7.5 -2t-10.5 -8t-10 -4t-9 10 q-10 27 11 45t42 22q27 6 41 -14q20 -29 32.5 -63.5t19.5 -71.5t11 -74t9 -70q8 -74 13 -146.5t9 -145.5q0 -4 1 -9.5t1 -9.5q12 18 23.5 36.5t23.5 37.5q59 96 119.5 192.5t138.5 182.5q18 18 42 40.5t50.5 41t55 30t53.5 4.5q33 -8 52.5 -31.5t29.5 -45.5q6 -16 9 -38 t0 -42.5t-14 -37t-32 -22.5q-33 -10 -60.5 5.5t-17.5 54.5q2 6 8.5 7t8.5 -5q6 -12 21 -15.5t28 0.5q20 8 24 25.5t0 36.5q-4 20 -19 36.5t-36.5 23.5t-47.5 0t-50 -36q-78 -88 -138.5 -185t-119.5 -198q-35 -53 -70 -107t-76 -101q0 -8 1 -15.5t1 -15.5q45 -35 83 -79 t65 -85q51 -82 86 -171t80 -175q18 -35 42.5 -81t57.5 -73q27 -23 52.5 -12.5t47 34t38 54.5t26.5 49q4 4 9 2t3 -8q-8 -33 -25.5 -71.5t-44 -69.5t-61.5 -47q-21 -10 -44 -10q-15 0 -32 4q-37 8 -66.5 38.5t-53 68.5t-41 80t-31.5 73q-16 37 -34.5 88t-41.5 107.5 t-50.5 111.5t-60.5 102q4 -41 6.5 -83t4.5 -85q4 -92 4 -195.5t-35 -193.5q-16 -39 -41 -74.5t-58.5 -59.5t-74.5 -30q-10 -1 -20 -1q-32 0 -66 14q-16 8 -16.5 27.5z" />
<glyph unicode="L" horiz-adv-x="878" d="M-21 91q-4 28 5.5 54.5t28 51t38.5 39.5q86 65 187 65h14q27 57 39 119.5t22 122.5q16 123 18.5 241.5t6.5 241.5q2 55 5 129t17.5 146.5t47 132t94.5 88.5q39 19 82 19q20 -1 42 -5q66 -14 105 -72q16 -25 24.5 -51.5t4.5 -51t-20.5 -44t-49.5 -27.5q-4 0 0 4 q36 16 48 48q4 11 4 23q0 21 -15 44q-16 23 -36.5 41t-49.5 16q-43 -2 -82 -12t-63 -51q-37 -61 -46.5 -133t-13.5 -144q-4 -94 -5 -188t-5 -190q-6 -111 -21.5 -232t-62.5 -229q12 -4 24.5 -8.5t24.5 -8.5q59 -27 116.5 -55.5t117.5 -56.5q29 -14 62.5 -23.5t68.5 -10.5h6 q32 0 62 9q32 10 59 35q10 8 19 1t1 -17q-18 -27 -48 -45.5t-64.5 -31t-70.5 -17.5q-20 -3 -38 -3q-15 0 -29 2q-88 8 -160.5 49t-148.5 82q-10 6 -21.5 11.5t-21.5 9.5q-43 -68 -108 -121q-20 -16 -53.5 -31.5t-59.5 -21.5q-18 -4 -36 -4t-34 12q-27 20 -31 48zM20.5 138.5 q-8.5 -21.5 2.5 -48.5q6 -18 30.5 -8t54 34.5t58.5 56.5t43 56q-39 0 -78 -12q-20 -6 -42.5 -16.5t-41 -25.5t-27 -36.5z" />
<glyph unicode="M" horiz-adv-x="1009" d="M-37 165q4 46 19 87q12 35 33.5 71.5t56.5 55.5q25 12 44 -4.5t26.5 -43t-1 -52t-37.5 -29.5q-6 -2 -12 4t-6 12q2 12 5 24.5t3 24.5q-2 18 -10 18.5t-17.5 -8t-18.5 -20.5t-11 -18q-23 -53 -29 -109q-2 -14 -2 -28q0 -39 14 -66q10 -18 31 -20t43.5 7t42 24.5t27.5 29.5 q23 39 33 82t18 84q20 123 36.5 243.5t24.5 243.5t12.5 245t28.5 245q6 27 37 31t43 -21q76 -154 112 -324t54 -340q8 12 10 21q12 27 19.5 53.5t13.5 54.5q10 53 16.5 106.5t12.5 106.5q16 127 20 252t19 250q4 27 26 21q37 -10 64 -24.5t47 -39.5q10 -10 17.5 -19.5 t13.5 -17.5q31 -49 47 -100t24 -109q14 -97 13 -194q0 -44 -2 -87q-9 -140 -25 -280q-10 -74 -17.5 -147.5t-11.5 -147.5q0 -12 -5 -56q-4 -37 -4 -73v-15q1 -44 12.5 -75t39.5 -16q8 6 11.5 9t7.5 7q16 23 27.5 47.5t19.5 51.5q10 37 20.5 74.5t26.5 74.5q4 6 10 2t2 -10 q-8 -18 -9 -41t-3 -43q-4 -29 -12 -56.5t-19 -54.5q-16 -39 -40.5 -69.5t-69.5 -40.5q-11 -2 -21 -2q-26 0 -42 14q-24 20 -37 57t-18 84t-5 93.5t3 85t3 57.5q6 295 25 586q4 60 6 122v20q0 52 -8 103q-4 20 -10.5 46t-15.5 51.5t-22.5 48t-31.5 35.5 q-18 -129 -26.5 -258.5t-25.5 -258.5q-6 -53 -13 -105t-19 -103q-12 -47 -23.5 -95.5t-38.5 -89.5q-10 -16 -30.5 -14t-24.5 22q-37 141 -58.5 284.5t-68.5 283.5q-4 -53 -6 -104.5t-5 -104.5q-4 -80 -13 -159t-19 -157q-10 -72 -23.5 -142.5t-29.5 -141.5 q-10 -51 -27.5 -102.5t-52.5 -92.5q-18 -23 -49 -42q-31 -18 -65 -26q-15 -3 -29 -4q-18 0 -34 6q-30 10 -48 46q-20 40 -20 79q0 7 1 14z" />
<glyph unicode="N" horiz-adv-x="890" d="M-98 1332.5q0 31.5 10 58.5q8 16 19.5 32.5t27.5 24.5q31 27 72 29h7q37 0 68 -21q41 -31 61.5 -81t31.5 -103q70 -102 124 -216t95 -229q29 -86 56.5 -170t62.5 -170q33 -78 68.5 -155.5t82.5 -147.5q14 -18 29.5 -38.5t36.5 -34.5q3 50 3 101q1 79 -7 158 q-12 130 -21 257q-7 119 -17 237q-7 80 -7 159q0 38 2 77v28q-1 60 -7 124q-2 23 -2 45q0 55 15 106q10 29 27.5 54.5t50.5 29.5q12 2 22 2q57 0 74 -64q4 -10 -3 -23t-20 -18q-10 -2 -21.5 2.5t-17.5 -6.5q-8 -12 -8 -32.5t-2 -36.5q0 -51 3 -100.5t3 -100.5q-1 -25 -1 -50 q0 -38 2 -76q3 -62 7 -126q5 -152 13 -301q4 -77 4 -154q0 -73 -4 -147q-2 -27 -3 -77t-13 -93q-12 -44 -38 -62q-8 -6 -18 -5q-24 0 -59 28q-53 41 -90 100.5t-68 118.5q-37 78 -69.5 157t-61.5 161q-53 147 -100.5 292.5t-110.5 286.5q2 -14 2 -26.5v-26.5q8 -129 12 -256 t4 -256q0 -86 -1 -172v-34q0 -69 3 -138q0 -31 -2 -61.5t-2 -61.5q0 -16 -1 -27.5t1 -27.5q2 -8 3 -14.5t-1 -14.5q-4 -25 -28 -29q-18 0 -33.5 11.5t-26 29t-16.5 37t-8 35.5q-3 47 -3 94v23v40q0 39 -1 79q0 135 -3.5 268t-3.5 268q-1 59 -1 117v59v16q0 80 -9 160 q-4 35 -7 74t-19 68t-41 31t-46.5 -11.5t-36 -38t-14.5 -49.5q4 -14 13 -20q14 -10 36.5 -10.5t28.5 18.5q8 18 21 2q14 -18 7 -42t-32 -30q-10 -3 -20 -3q-35 0 -64 34q-20 23 -20 54.5z" />
<glyph unicode="O" horiz-adv-x="782" d="M-23 575q0 78 6.5 154t16.5 154q6 92 21.5 185t50.5 179q10 23 24.5 50.5t32.5 54.5q37 55 88 100t115 49q11 1 21 1q42 0 80 -13q48 -16 93 -47q29 -18 45.5 -47t40.5 -49q4 -4 -2 -5q-33 10 -57.5 36t-54.5 42q-68 33 -132 35h-4q-62 0 -114 -61q-29 -35 -48.5 -76 t-31.5 -84q-16 -51 -28.5 -103.5t-20.5 -105.5q-12 -129 -13 -258q0 -86 1.5 -173t13.5 -173q8 -53 15 -114.5t34 -108.5q41 -74 117 -107q11 -1 21 -1q26 0 52 7q36 10 68 27q94 51 139 143q61 119 75.5 254t19.5 266q4 63 7 130q1 13 1 25q0 54 -11 103v5 q-66 -27 -132 -33q-8 -1 -17 -1q-58 0 -121 36q-8 4 -13 12t-3 18q0 57 29 101q28 46 71 66q31 15 67 14q13 0 26 -2q50 -8 93 -52q37 -37 58 -94q16 6 33.5 12.5t35.5 10.5q10 4 16.5 -9.5t-5.5 -17.5q-16 -8 -35 -15.5t-35 -15.5q6 -29 6 -53q4 -52 4 -103q0 -25 -1 -51 q-3 -76 -9 -153q-8 -96 -26.5 -210t-60.5 -213t-115.5 -172t-192.5 -87q-26 -4 -50 -4q-76 0 -130 40q-70 52 -109 136t-52.5 184.5t-13.5 181.5zM446 1104q-2 -12 13.5 -19.5t36 -9.5t41 -1t26.5 1q23 4 43.5 8t40.5 9q-13 42 -41 72q-24 27 -64 26h-10q-35 -4 -57 -27.5 t-29 -58.5z" />
<glyph unicode="P" horiz-adv-x="860" d="M-18 1192q-6 24 -6 47q0 59 38 104q57 68 136 89.5t165 25.5q17 1 35 1q70 0 140 -13q88 -16 159 -70q76 -59 125.5 -141t67.5 -178q9 -49 9 -96q-1 -40 -7 -79q-14 -85 -86 -149q-61 -53 -139 -75q-57 -16 -115 -15q-22 0 -43 2q-43 4 -71 13.5t-50 33.5 q0 -127 -12 -246q-4 -33 -11.5 -84t-13.5 -79q-16 -84 -49 -156q-12 -29 -35.5 -57.5t-52.5 -42.5q-35 -16 -60.5 -14.5t-56.5 16.5q-10 4 -17 15t-7 22q-2 33 10 61.5t33.5 51t49 41t56.5 34.5q16 59 25.5 120.5t13.5 123.5q8 104 10 206q1 51 1 103t-1 104q-2 113 -8 223 q-3 47 -3 96q0 64 5 128q0 10 6 17t15.5 8t18.5 -3t13 -14q43 -111 56.5 -223.5t15.5 -229.5q35 35 92 48q6 2 9 -5.5t-3 -11.5q-37 -16 -62.5 -41.5t-35.5 -56.5v-76q6 -27 29 -55q12 -18 35.5 -24.5t51 -6.5t54.5 4t45 8q55 14 107.5 53t76.5 93q23 50 23 108q0 12 -1 22 q-5 70 -28 130q-45 135 -145.5 213t-241.5 92q-68 6 -136 9h-9q-63 0 -119 -40q-25 -18 -50.5 -41.5t-29.5 -54.5q-6 -29 1 -57.5t15 -40.5q8 -10 21.5 -16.5t28.5 -2.5q10 2 26.5 9.5t14.5 17.5q0 10 8 12t12 -2q18 -18 5 -35.5t-30 -27.5q-20 -10 -42.5 -13.5t-38.5 6.5 q-12 10 -23.5 23.5t-19.5 38.5zM72 104q10 -10 25.5 1.5t27.5 27.5q10 14 18.5 31.5t14.5 36.5q-37 -25 -67 -55.5t-19 -41.5z" />
<glyph unicode="Q" horiz-adv-x="880" d="M-20 646q4 89 14 179q0 8 1 16.5t3 18.5q6 96 22.5 191.5t51.5 183.5q8 25 20 47q29 55 67 102.5t91 79.5q43 27 90 29h11q42 0 82 -13q46 -14 87 -43.5t70 -66.5q23 -29 37 -62.5t18 -72.5v-12.5t-2 -18.5h2q37 -35 54.5 -78t23.5 -91q5 -41 5 -84v-14q-1 -50 -3 -95 q-4 -129 -17.5 -264.5t-54.5 -258.5q-16 -47 -37.5 -89t-50.5 -78q43 -37 103 -50q21 -3 41 -3q40 0 79 13q60 19 113 52q12 6 18 -5.5t-4 -21.5q-23 -18 -46 -30.5t-31 -16.5q-51 -25 -110 -38q-26 -6 -51 -6q-32 0 -63 9q-27 8 -49 20.5t-43 28.5q-43 -39 -92 -65 q-45 -23 -94 -30q-21 -3 -42 -3q-27 0 -53 5q-46 9 -88 34t-71 66q-53 78 -74.5 170t-25.5 184q-4 55 -4 109q0 36 2 72zM105 581q1 -87 14 -173q8 -53 15 -115t34 -109q27 -49 80 -86q26 -8 54 -8q29 0 60 8q62 17 113 52q-47 55 -74 116q-47 106 -61 228q-12 107 -12 208 v29q2 84 12 166t41 160q14 37 38.5 78t55.5 69.5t69 35.5q8 1 16 1q31 0 65 -20q-4 16 -7 22q-25 66 -75.5 122t-122.5 73q-22 4 -42 4q-49 0 -85 -24q-51 -34 -84 -92t-52.5 -128t-29.5 -125q-4 -10 -5 -21.5t-3 -21.5q-8 -70 -10.5 -138.5t-2.5 -137.5q-1 -57 -1 -115v-58 zM402 584q8 -125 47 -236q16 -41 33 -79.5t42 -73.5q16 20 27 34q33 55 53.5 117t32.5 126.5t18.5 130t10.5 126.5q4 68 7 137q1 22 1 45q0 45 -4 88q-4 49 -22.5 99.5t-67.5 72.5q-29 12 -55.5 -13t-43.5 -52q-37 -63 -55 -135t-23 -144q-4 -60 -4 -123q0 -59 3 -120z" />
<glyph unicode="R" horiz-adv-x="739" d="M-26 1353q8 42 49 72q47 35 117 49q54 10 102 10q14 0 28 -1q80 -8 151 -55.5t123 -117t82 -152.5q28 -78 27 -151v-10q-2 -66 -24.5 -120t-59.5 -96t-86 -73.5t-104 -54.5q4 -14 9 -27.5t9 -25.5q8 -25 24.5 -69t38 -96t47 -106.5t51.5 -100.5t51.5 -77.5t45.5 -37.5 q16 -5 31 -5q18 0 35 7q31 12 31 43q0 20 -7.5 40.5t-35.5 16.5q-11 0 -7 8q14 23 33 27t35 -5t26.5 -28.5t8.5 -44.5q-4 -55 -46 -85t-95 -32q-47 0 -86 21.5t-68 56.5q-23 23 -48.5 72t-50 105.5t-43 111.5t-26.5 90q-6 29 -12 59.5t-11 61.5q-2 0 -13 -3t-26.5 -6 t-33 -6.5t-29.5 -3.5q1 -45 1 -91v-45q-1 -68 -7 -136q-2 -33 -5 -77t-13.5 -87t-30 -79t-56.5 -50q-25 -10 -39 -8t-18 11t2 21.5t23 22.5q29 14 32 41q6 51 6 106v9q0 60 -4 123t-7 125q-1 26 -1 51q0 34 2 67q-50 14 -82 52q-24 28 -24 77q0 16 2 33q0 6 6 7t6 -7 q0 -63 25.5 -93t66.5 -38q-2 68 -8 139.5t-10 144.5q-3 49 -3 98q0 25 1 49q2 74 18 147q4 18 18.5 25.5t29 5t26.5 -13.5t12 -27q6 -109 13 -211q4 -88 9 -184.5t9 -168.5q12 2 27.5 8.5t31 10.5t25.5 8t12 4q-2 20 -2 39q0 15 1 29q3 32 14 65q4 6 10 5t6 -7 q0 -27 5 -53.5t15 -54.5q82 39 149 102t75 160q1 11 1 23q-1 56 -17 114q-20 72 -58.5 135.5t-94 112.5t-122.5 67q-45 15 -97 17h-17q-43 0 -81 -11q-12 -4 -24.5 -7t-24.5 -7q-18 -10 -32.5 -22.5t-18.5 -34.5q-4 -23 9.5 -50.5t45.5 -21.5q10 4 16.5 18.5t2.5 20.5v4 q0 6 6 6q14 4 19 -4t6 -20.5t-2 -24.5t-7 -18q-10 -16 -24.5 -20.5t-29.5 -1.5t-29.5 11.5t-22.5 20.5q-19 26 -19 56q1 10 3 21z" />
<glyph unicode="S" horiz-adv-x="716" d="M-18 1130q12 84 53 150q35 59 94 110.5t133 55.5h13q65 0 121 -37q62 -41 87 -106q13 -31 15 -68v-14q0 -29 -8 -55q-10 -32 -33 -58.5t-60 -36.5q-19 -5 -41 -5q-19 0 -39 4q-43 9 -65 44q-17 26 -17 50q-1 8 1 16q8 30 30 63q4 8 11.5 4t3.5 -14q-10 -25 -2 -46.5 t26.5 -35.5t43 -17.5t44.5 11.5q23 16 32 46t7 58q-2 31 -15.5 58.5t-35 48t-49 32t-60.5 9.5q-59 -4 -104 -45t-72.5 -98.5t-33.5 -121.5q-1 -13 -1 -25q0 -48 17 -89q18 -47 56 -80t82 -60.5t91 -52t84 -51.5q43 -31 88 -66.5t84 -76.5t69 -88t44 -103q14 -54 14 -108 q0 -31 -4 -62q-14 -84 -80 -147q-63 -59 -144 -89t-167 -34q-11 -1 -21 -1q-70 -1 -128 23q-66 26 -113 99q-42 59 -42 121q0 8 1 16q6 72 67 125q27 23 62 32q29 7 58 7h13q36 -2 72.5 -13.5t63.5 -29.5q29 -20 47 -47t21 -55.5t-8.5 -57.5t-45.5 -49q-20 -12 -34.5 4 t-4.5 35q10 23 16.5 45t-16.5 43q-16 16 -38.5 26.5t-45.5 16.5q-29 6 -59.5 6t-56 -11t-42 -35t-14.5 -60q2 -61 44 -116.5t104 -72.5q24 -6 50 -7q35 0 73 12q68 18 118 42q43 20 80 47t60.5 63t30.5 79q2 13 2 27q0 32 -11 67q-18 55 -51 104.5t-74 93.5t-89 80.5 t-95 67.5q-39 27 -81 51.5t-81 52t-71.5 61.5t-53.5 81q-24 52 -24 111q1 23 4 46z" />
<glyph unicode="T" horiz-adv-x="591" d="M-242 1473q12 37 45 43q9 2 19 2q23 0 45 -11q35 -14 63.5 -35.5t55.5 -46.5q59 4 116.5 9.5t114.5 13.5q66 8 129.5 18.5t126.5 22.5q35 9 80 23q35 11 66 11q8 0 16 -1q27 -4 43 -30t-10 -48q-37 -29 -92.5 -36t-100.5 -13q-53 -10 -108.5 -18.5t-110.5 -14.5 q2 -48 2 -97q0 -81 -6 -161q-10 -129 -16 -258q-4 -111 -8 -221.5t-11 -221.5q-2 -35 -5 -75q-2 -30 -2 -58v-20q1 -39 9 -77t29 -69q16 -25 41.5 -28.5t52.5 4.5t52.5 23.5t41.5 29.5q45 39 77 85t67 91q8 10 20 6t6 -16q-23 -53 -57.5 -105.5t-80.5 -93.5t-101.5 -66.5 t-116.5 -25.5q-51 0 -80 33t-42 80t-16 97q-2 30 -2 55q0 17 1 32q4 117 7 233.5t11 233.5q10 147 20.5 292.5t32.5 291.5q-55 -4 -133 -10q-18 -1 -34 -1q-58 0 -109 15q-16 2 -32 5t-32 9q-14 6 -31.5 15.5t-30.5 21.5t-20.5 27.5t-1.5 34.5zM-199 1468q-8 -16 9.5 -29.5 t39.5 -21.5q29 -4 62 0t55 6q-23 14 -47 33t-47 29t-42.5 8t-29.5 -25z" />
<glyph unicode="U" horiz-adv-x="634" d="M-18 309q-3 32 -3 64q0 56 9 112q14 88 24 179q8 84 12.5 166.5t12.5 166.5q7 84 21 167q11 65 11 131q0 18 -1 36q-2 39 -9.5 69.5t-25.5 63.5q-8 16 2 25.5t28.5 9.5t40 -13t33.5 -42q16 -41 22.5 -82t6.5 -83t-5 -84t-9 -85q-10 -94 -16.5 -186.5t-14.5 -186.5 q-6 -92 -21.5 -182t-17.5 -182q0 -45 6 -92.5t45 -75.5q35 -29 77 -36q17 -3 35 -3q25 0 50 6q68 16 111 55t67 97q-2 20 -2 39.5v37.5v187.5t-4 185.5q-4 90 -9 182.5t-7 184.5q-1 26 -1 53q0 66 4 131q5 92 23 180q4 16 19.5 22.5t29.5 -1.5q18 -14 33.5 -27.5t28.5 -30.5 q12 -16 -2.5 -30.5t-30.5 -3.5q-2 2 -3 2t-3 2q6 -72 7 -144.5t5 -146.5q4 -88 6 -174t6 -174t6.5 -175t2.5 -175v-97.5t-3.5 -119t-10.5 -101.5t-21 -45q-23 -6 -37 14q-20 29 -24.5 62t-6.5 65v13.5t-2 15.5q-47 -80 -136 -122q-85 -40 -178 -40h-9q-39 0 -70 21.5 t-52.5 53.5t-34.5 69.5t-15 70.5z" />
<glyph unicode="V" horiz-adv-x="858" d="M-19 1342q7 50 39 104q23 39 24 19.5t11 -99.5q8 -53 36 -98t50 -94q23 -49 43.5 -100.5t36.5 -104.5q39 -117 72 -232.5t59 -234.5q12 -55 23.5 -109.5t27.5 -107.5q4 -10 6.5 -18.5t6.5 -16.5q4 16 8 30.5t8 28.5q16 41 33 90q-8 20 -12 47q-6 36 -6 74q0 27 3 54 q7 67 13 128q8 70 17 137.5t24 135.5q14 74 34.5 145.5t51.5 139.5q23 53 58.5 111.5t88.5 88.5q25 14 63 19.5t58 -17.5q14 -6 16 -20q6 -16 3 -38t-11 -44.5t-17 -44t-13 -35.5q-29 -86 -60 -172t-65 -172q-43 -104 -84 -209.5t-76 -214.5l-37 -123q8 -14 21.5 -26.5 t25.5 -23.5t20.5 -20.5t4.5 -19.5q-2 -8 -12.5 -5t-24.5 12t-27.5 21.5t-21.5 20.5q-4 -12 -7.5 -26.5t-7.5 -26.5q-9 -37 -27 -83q-10 -26 -11 -50q0 -18 6 -35q8 -20 -4.5 -38.5t-32.5 -25.5l-4 -2q-25 -4 -43 7q-27 13 -33 36q-10 59 -32.5 122t-37.5 124 q-16 74 -32.5 146.5t-36.5 144.5q-23 80 -45.5 160t-51.5 157q-25 70 -54.5 136.5t-51.5 138.5q-15 44 -15 83q0 13 2 26zM487 489.5q0 -10.5 2 -20.5q4 10 7.5 19.5t7.5 19.5q39 104 72.5 207.5t66.5 208.5q27 88 56.5 174t58.5 172q10 29 18 56.5t17 55.5q4 10 6 18.5 t4 18.5q0 4 -1 6t1 -2q0 2 -1 4.5t-1 6.5q-6 -2 -12.5 -4.5t-14.5 -6.5q-43 -25 -74.5 -61.5t-54.5 -81.5q-49 -92 -75.5 -192.5t-43.5 -202.5q-16 -92 -27.5 -187.5t-11.5 -187.5v-20.5z" />
<glyph unicode="W" horiz-adv-x="993" d="M-19.5 1396.5q-7.5 55.5 5.5 57.5q23 4 38 -2t25 -19.5t16.5 -31t12.5 -33.5q31 -74 52.5 -140.5t39.5 -130t34.5 -125t33.5 -126.5q29 -111 61.5 -218.5t67.5 -215.5q16 -53 33.5 -106.5t33.5 -106.5q4 -10 5 -18.5t3 -16.5q0 2 2 2q10 23 20.5 46.5t22.5 45.5 q16 35 29.5 67.5t28.5 67.5l-6 19q-23 76 -46.5 151.5t-43.5 151.5q-16 67 -33 135q-12 49 -12 95q0 19 2 38q2 14 8 35.5t17 41t26.5 32t38.5 10.5q94 -12 135 -74.5t46 -146.5q1 -16 1 -33q0 -68 -16 -146q-20 -96 -50 -172q10 -37 21.5 -73.5t21.5 -75.5q12 -41 26.5 -81 t31.5 -81q41 100 65.5 203.5t46.5 210.5l-12 92q-12 92 -21.5 183t-13.5 184q-2 33 -5 71.5t-3 78.5t7.5 75.5t27.5 64.5q16 23 39.5 35.5t49.5 14.5t49.5 -8.5t41.5 -32.5q18 -25 24.5 -55.5t4.5 -63.5t-10.5 -63.5t-14.5 -57.5q-23 -80 -45 -159t-41 -161 q-10 -49 -19.5 -98t-19.5 -100q8 -53 13.5 -108.5t9.5 -108.5q2 -6 -4 -6t-9 4q-18 59 -30 118q-4 -23 -10.5 -45t-10.5 -45q-18 -88 -34.5 -175t-36.5 -175q-6 -31 -36 -32t-46 22q-43 59 -69 131t-46 143q-29 -72 -57.5 -140.5t-53.5 -139.5q-4 -14 -18 -15h6l-8 -4 q-14 -8 -27 0q-10 6 -10 7.5t1 -1t2 -2.5t-5 5q-29 16 -45 45q-18 31 -27.5 68.5t-19.5 72.5q-27 82 -51.5 162t-48.5 161q-12 41 -36 122t-51.5 177.5t-54 199t-45 185t-26 138zM468 954.5q3 -26.5 11.5 -51.5t14.5 -43q18 -57 41.5 -110.5t44.5 -110.5q6 -20 13 -40.5 t13 -43.5q16 61 26.5 123.5t12.5 126.5q0 43 -3 90t-26 88q-6 14 -21 31.5t-33.5 30t-38 14.5t-36.5 -15q-16 -16 -19 -39.5t0 -50zM817 1106q2 -70 6 -139q4 -57 10.5 -112.5t14.5 -111.5v2q16 74 31.5 147.5t31.5 147.5q13 57 27 117q13 53 12 105v14q0 12 -3 30.5t-11 33 t-21.5 21.5t-33.5 -1q-16 -6 -25.5 -18.5t-15.5 -30t-9.5 -34.5t-5.5 -32q-8 -57 -8 -115v-24z" />
<glyph unicode="X" horiz-adv-x="1085" d="M-22.5 58.5q-2.5 7.5 6.5 11.5q36 14 66 22q14 4 27 4q18 0 36 -6q78 156 151.5 311.5t157.5 309.5q-23 55 -46.5 111.5t-45.5 111.5q-41 98 -88 191.5t-95 187.5q-8 14 -8 29.5t6.5 23.5t16.5 9t24 -11q86 -74 139.5 -174t98.5 -201q37 -78 68 -153q20 33 38.5 64.5 t40.5 62.5q53 84 112.5 160.5t125.5 148.5q25 29 53.5 53.5t50.5 52.5q6 8 17.5 18.5t7.5 22.5q-6 14 -22.5 12.5t-36 -12t-37 -24t-21.5 -17.5q-6 -6 -13 0t-3 13q27 35 65 61q23 15 50 15q17 0 36 -7q29 -10 33 -33.5t2 -50.5q-4 -43 -24.5 -82t-47 -73.5t-57.5 -66.5 t-57 -64q-74 -92 -136.5 -190.5t-119.5 -203.5q45 -117 93 -230.5t112 -219.5q29 -49 57.5 -93t79.5 -73q18 -10 44 -3t42 19q47 35 70.5 80t48.5 98q2 4 7 2t5 -8q-12 -49 -40 -104t-70 -93q-42 -37 -93 -47q-9 -2 -19 -2q-43 0 -89 35q-47 35 -85 73t-69 89 q-35 59 -64.5 119.5t-56.5 124.5q-12 27 -23.5 53.5t-21.5 52.5q-76 -139 -151.5 -276t-165.5 -266q-10 -16 -26.5 -18.5t-31.5 9.5q-27 23 -53 33t-61 2q-8 -2 -10.5 5.5z" />
<glyph unicode="Y" horiz-adv-x="675" d="M-12 106q23 41 64.5 67t91 40t99.5 22.5t91 14.5q37 6 72.5 14t70.5 19q10 16 18.5 35.5t14.5 39.5q20 68 20 135.5t-2 139.5q0 61 -6 123q-25 -59 -70 -97q-38 -33 -94 -33q-9 0 -18 1q-82 6 -138.5 56t-93 122t-57 151.5t-31.5 147.5q-2 8 -7 45t-7 85v21q0 38 5 76 q7 49 32 84q14 20 36.5 31.5t45 11.5t44 -11t34.5 -36q10 -18 14 -41.5t-10 -40.5q-8 -8 -16.5 -12t-18.5 4q-8 4 0 8q4 2 0 19.5t-15.5 34t-26.5 23.5t-34 -11q-25 -25 -29 -64q-2 -22 -2 -43q0 -16 1 -31q0 -10 1 -20t1 -20q6 -39 17 -83t28 -98q16 -51 37.5 -103 t50.5 -97q12 -18 28.5 -43t37 -48.5t45 -39t48.5 -15.5q61 2 98.5 45t55.5 101q-2 20 -4 38.5t-6 38.5q-10 72 -20.5 144.5t-20.5 146.5q-2 23 -6 54.5t-4 65.5t7 63.5t25 46.5q10 8 22.5 9t20.5 -9q2 0 2 -2q10 -8 27.5 -12.5t22.5 -0.5h2q10 -12 6 -26q-4 -12 -17 -13h-14 q4 -20 5 -41.5t5 -38.5q8 -41 12.5 -82.5t10.5 -82.5q14 -90 28.5 -177.5t20.5 -177.5q2 -34 2 -67q0 -43 -3 -85q-5 -75 -17.5 -142.5t-30 -124t-37.5 -89.5q-29 -55 -68 -96q-59 -66 -143 -112t-176 -56q-16 -2 -53 0t-71 12.5t-53.5 31t-0.5 54.5zM5 88q-1 -12 11 -22 q14 -12 41 -19q23 -4 47 -4q37 0 74 10q47 14 90 37.5t82 52.5q59 43 103 103q-10 -2 -19.5 -3t-19.5 -5q-43 -8 -91.5 -13.5t-95.5 -12.5t-92 -22.5t-82 -42.5q-6 -4 -17 -13t-20.5 -21.5t-10.5 -24.5z" />
<glyph unicode="Z" horiz-adv-x="983" d="M-20.5 124q2.5 28 16.5 53.5t37 43.5q51 39 116.5 67.5t129.5 33.5q31 0 59 -7q6 6 10 15q66 90 118 184t105 191h-6q-35 4 -78 10q-32 5 -64 5q-11 0 -21 -1q-42 -2 -76.5 -17.5t-53.5 -56.5q-4 -4 -8 -1t-4 7q8 61 43 89t83 36q27 5 58 5q22 0 48 -3l116 -12 q80 137 162 272.5t154 276.5q-57 -47 -130 -79t-145 -44q-42 -7 -82 -7q-141 0 -264 85q-37 24 -84 52q-32 19 -64 19l-30 -4q-16 -4 -32.5 -7t-25 -1t-7.5 12.5t20 32.5q33 33 76 33t92 -15.5t100 -38t101 -36.5q57 -19 113 -19h22q67 4 135 29q59 23 114.5 48.5 t118.5 35.5q20 4 29.5 -12.5t-4.5 -32.5q-6 -23 -12.5 -42t-10.5 -40q-25 -78 -61.5 -153.5t-71.5 -149.5q-29 -55 -55.5 -110.5t-54.5 -108.5q33 0 60.5 6t47.5 23q4 4 10.5 0.5t1.5 -9.5q-23 -47 -64.5 -63.5t-88.5 -20.5q-29 -51 -57.5 -101t-57.5 -101 q-33 -53 -66.5 -110.5t-72.5 -111.5q6 -4 11 -8t11 -8q16 -8 33 -17.5t33 -21.5q66 -49 142 -82q50 -22 103 -21q27 0 54 5q47 16 90 47t82 72q4 4 8 0t0 -9q-57 -72 -130 -130t-171 -62h-14q-28 0 -50 6q-28 8 -57 23q-51 23 -89 57.5t-79 71.5l-4 4l-18 12 q-25 -29 -49.5 -56.5t-53.5 -54.5q-18 -16 -50.5 -38.5t-69.5 -39t-73 -20.5q-5 -1 -10 -1q-30 0 -53 20q-25 20 -34 46.5t-6.5 54.5zM8 127q0 -21 9.5 -38t27.5 -25.5t43 -0.5q39 12 68.5 42t58.5 59q39 43 74 86q-29 8 -60 8q-41 0 -86 -14q-35 -10 -70.5 -27.5 t-54.5 -50.5q-10 -18 -10 -39z" />
<glyph unicode="[" horiz-adv-x="319" d="M4 1135q-4 92 0 185t35 179q10 39 49 33q53 -8 109.5 -22.5t109.5 -16.5q4 0 4 -6t-4 -6q-47 -14 -95 -22.5t-95 -14.5q-10 -88 -7 -175t9 -175t12 -176.5t4 -176.5q-2 -174 -6 -345t12 -343q41 -4 84 -17t68 -48q23 -31 -6 -56q-20 -16 -45 -19t-50.5 0t-52 8t-49.5 3 q-18 0 -34.5 14.5t-20.5 32.5q-31 197 -24 395.5t9 395.5q2 96 -5 187t-11 186z" />
<glyph unicode="\" horiz-adv-x="722" d="M-10 1460q-2 8 7 11.5t13 -3.5q66 -78 106 -168t83 -180q47 -102 92 -201.5t90 -201.5q45 -100 92 -196.5t94 -194.5q20 -41 43 -80t45 -80q8 -12 19.5 -28.5t21 -35t13.5 -37t-2 -32.5q-4 -16 -18.5 -24.5t-31.5 -4.5q-29 8 -45 40t-30 54q-29 45 -57.5 85t-53.5 87 q-47 98 -93 194.5t-89 197.5q-43 100 -84 199.5t-82 201.5q-41 96 -82 194.5t-51 202.5z" />
<glyph unicode="]" horiz-adv-x="319" d="M-4 1487q0 6 4 6q53 2 109.5 16.5t109.5 22.5q39 6 49 -33q31 -86 35 -179t0 -185q-4 -94 -11 -185.5t-5 -187.5q2 -197 9 -395.5t-24 -395.5q-4 -18 -20 -32.5t-35 -14.5q-23 2 -49.5 -3t-52 -8t-50 0t-45.5 19q-29 25 -6 56q25 35 68 48t84 17q16 172 12 343t-6 345 q-2 88 4 176.5t12.5 176.5t8.5 175t-7 175q-47 6 -95 14t-95 23q-4 0 -4 6z" />
<glyph unicode="^" horiz-adv-x="415" d="M2 1245v2q23 20 42 40t38 46q20 29 39.5 57.5t36.5 59.5q12 16 28 6q20 -12 53 -34.5t67 -49t60.5 -55.5t32.5 -53q4 -16 -11.5 -26.5t-27.5 3.5q-20 20 -37.5 42t-41.5 42q-25 23 -49.5 43.5t-51.5 40.5q-18 -29 -37.5 -54.5t-42.5 -49.5q-4 -4 -17 -17.5t-28.5 -26 t-30 -18.5t-22.5 2z" />
<glyph unicode="_" horiz-adv-x="1042" d="M2 -61q-2 4 2 8t8 0q10 -12 34 -14.5t50.5 1t51 8.5t36.5 7q59 10 120 22.5t120 20.5q141 20 279.5 20t281.5 -6q29 -2 43 -20.5t14 -41t-14 -40t-43 -15.5q-94 4 -187 9.5t-188 -0.5q-59 -4 -118.5 -8.5t-118.5 -8.5q-66 -2 -129.5 2t-128.5 15q-25 4 -61 9t-52 32z" />
<glyph unicode="`" horiz-adv-x="256" d="M18.5 1563.5q6.5 7.5 14.5 3.5q57 -25 109.5 -77t82.5 -106q6 -10 3 -19t-10 -15.5t-17.5 -6.5t-16.5 9q-41 49 -77 103t-87 95q-8 6 -1.5 13.5z" />
<glyph unicode="a" d="M0 539q14 76 47 151.5t86 128.5q51 49 101 59q27 5 51 4q22 0 42 -4q42 -8 67.5 -21t27.5 -7q4 18 8 35.5t8 34.5q-8 -4 -14 -6.5t-16 -4.5q-8 -4 -10.5 3.5t3.5 11.5q16 12 32 22t30 23q25 18 39 -11q13 -51 13 -109v-23q-3 -70 -5 -134q0 -57 -2 -113.5t-6 -113.5 q-4 -59 -8 -119q-2 -28 -3 -56q0 -31 3 -63q2 -33 8 -62.5t10 -60.5q0 -6 2 -8q4 -18 3 -48t-21 -36q-12 -4 -28.5 -3t-29.5 5q-27 14 -41 41t-20 62q-4 -45 -48 -75t-85 -34q-16 -3 -30 -3q-40 1 -70 21q-42 28 -69.5 71.5t-44 98t-24.5 101.5q-14 70 -14 138q0 53 8 104z M94 562q-6 -48 -6 -93q0 -54 8 -104q4 -31 9.5 -65t14.5 -67.5t24.5 -64.5t39.5 -51q29 -29 62 -33t60.5 11.5t45 47t17.5 72.5q0 57 1 116.5t5 133.5q4 59 8 120.5t14 121.5q4 14 7.5 39.5t5.5 39.5q-12 14 -45 24q-30 9 -65 8h-7q-39 -1 -77 -16.5t-60 -51.5 q-48 -82 -62 -188z" />
<glyph unicode="b" horiz-adv-x="491" d="M-2 1217.5q0 58.5 1 104.5t5 52q4 16 10 36t15.5 35t19.5 23.5t25 -0.5q14 -6 20 -36.5t9 -73.5q2 -32 2 -69v-25q-1 -50 -3 -96t-4 -83.5t-2 -56.5q3 -36 3 -71v-18q-1 -44 -1 -89q0 -6 4 -3t12.5 11t19.5 16.5t24 14.5q25 10 52 10q17 0 34 -4q45 -10 80 -37 q41 -29 65.5 -86t38.5 -118.5t18.5 -117t4.5 -81.5q-2 -51 -8.5 -106.5t-21.5 -109t-41 -100.5t-67 -82q-29 -27 -69 -43q-41 -22 -85 -28q-6 -1 -11 -1q-37 0 -68 33q-39 43 -53.5 102.5t-18.5 115.5q-3 41 -3 82q0 20 1 40q1 31 1 61.5t-1 61.5q-3 108 -3 214v52.5v52.5 q0 105 -3 212q0 33 -1 90t-1 115.5zM96 252v-16q0 -59 13 -111q4 -16 12 -41t31 -27q29 0 59.5 18.5t50.5 41.5q30 33 53 76q25 57 34 141t11 162q1 31 1 58q0 42 -2 76q-3 58 -5 64q-67 -28 -112 -28q-9 0 -17 2q-49 6 -76.5 26.5t-38 43t-10.5 24.5q0 -37 1 -87t1 -103.5 v-103.5t-2 -87q-2 -61 -4 -129zM140 816q-3 -15 7.5 -32.5t36.5 -29.5q47 -23 105 -27q16 -2 29.5 -2h27.5q-12 53 -39 84q-41 41 -98 49h-8q-27 -2 -42.5 -14.5t-18.5 -27.5z" />
<glyph unicode="c" horiz-adv-x="450" d="M4 454q6 96 25.5 178.5t40.5 125.5q14 31 34.5 64.5t45.5 61.5q26 26 59 44q30 16 66 17q4 0 8 -1q27 -2 51 -15.5t42.5 -35t27 -48t6.5 -52.5q-4 -23 -13.5 -44.5t-24 -37t-35 -22.5t-44.5 1q35 4 60.5 21.5t33.5 54.5q4 27 1 57.5t-26 46.5q-25 18 -53 19.5t-56 -10 t-49.5 -32t-31.5 -42.5q-4 -12 -9 -23.5t-9 -21.5q-27 -74 -35 -144q-9 -66 -11 -129q0 -15 -1 -29q0 -49 4 -100q4 -53 17 -119.5t52 -107.5q42 -46 89 -46h2q48 1 94 28q10 6 18 14t14 12q40 38 40 15q0 -17 -29 -54q-66 -70 -118 -86t-95 -16q-47 0 -81 26.5t-53 63.5 q-41 76 -52 173q-7 63 -7 125q0 34 2 68z" />
<glyph unicode="d" horiz-adv-x="653" d="M5 408q5 62 19.5 123t34.5 114q16 43 42 83t59 71.5t72.5 52t89.5 25.5q8 1 16 0q38 -1 64 -15q32 -18 55 -51l5 -8t11 -21.5t11 -28t8 -22.5q2 -6 3 -11t3 -11q2 8 3 16t3 18q6 41 8 103.5t2 134.5t-3 145.5t-6 134t-6 101.5t-3 49q0 10 8 24.5t20.5 24.5t27.5 13.5 t32 -9.5q16 -12 23 -34.5t10.5 -47t3.5 -50t2 -46.5q4 -59 4 -122.5t-2 -147.5q-4 -104 -5.5 -200.5t-7.5 -217.5q-2 -39 -4 -95.5t-4 -117.5t-6 -122.5t-11 -112t-16 -86t-24 -44.5q-23 -12 -37 -12t-22.5 11.5t-12.5 29t-8 39.5q-29 -41 -78 -62.5t-103 -22.5h-6 q-52 -1 -101 17q-52 18 -85 58q-10 10 -18 21.5t-15 23.5q-4 8 -11 20.5t-11 20.5q-25 54 -32 118q-4 37 -4 74q0 26 2 52zM114 402q-2 -21 -2 -42q0 -91 33 -174q16 -41 48 -79.5t79 -47.5q8 -1 16 -1q42 0 86 27q52 32 97 83q4 68 8 121t6 104t4.5 104.5t2.5 118.5 q-10 33 -22.5 71t-33 67.5t-49.5 43.5q-14 7 -30 7q-18 0 -40 -8q-59 -25 -97 -72t-60 -107q-36 -102 -46 -216z" />
<glyph unicode="e" horiz-adv-x="372" d="M-6 424q3 67 3 134v34v6q0 81 26 160q8 25 22 55.5t33.5 57t46.5 43t61 14.5q31 -2 55.5 -17.5t42 -40t28 -53.5t10.5 -57v-8q0 -72 -34 -142q-36 -74 -79 -135q-29 -41 -60.5 -87t-68.5 -87v-8q0 -23 -1 -53.5t2 -62.5t11 -60.5t29 -44.5q37 -31 67 -32q10 0 19 4 q37 13 64.5 52t50 86t45.5 72q4 4 10 -1t-4 -28q-8 -18 -12.5 -25t-7.5 -12.5t-7 -12.5t-12 -23q-25 -53 -53.5 -96.5t-92.5 -53.5q-17 -3 -33 -3q-45 -1 -77 21q-44 28 -68 95l-4 8q-4 29 -11 101q-4 38 -4 93q0 47 3 107zM82 340q31 45 61.5 92t54.5 98q24 50 38 102 q13 46 12 94v13q0 18 -7.5 42t-19.5 41.5t-28.5 21.5t-34.5 -19q-25 -29 -39.5 -63.5t-20.5 -72.5t-7 -77t-1 -73q0 -49 -3 -97.5t-5 -101.5z" />
<glyph unicode="f" horiz-adv-x="403" d="M-154 750q0 6 4 2q8 -8 21.5 -10.5t28 -1.5t28 3t23.5 2q18 4 35.5 5.5t33.5 5.5q-2 16 -3 32.5t-3 32.5q-6 70 -9 141q-1 23 -1 47q0 47 4 95q6 66 17.5 133.5t56.5 120.5q20 25 51 39t63 17q14 1 28 1q19 0 38 -2q33 -4 62 -16q72 -29 94 -97q11 -33 11 -67.5 t-11 -69.5q-2 -6 -8.5 -4t-3.5 8q4 20 4 40q0 36 -12 71q-17 57 -72 84q-43 20 -94 22h-5q-49 0 -82 -38q-43 -53 -57 -121q-12 -56 -12 -116q0 -13 1 -25q3 -74 15 -146t21 -133q2 -10 2 -17.5t2 -15.5q68 14 135 37q25 10 51.5 20.5t52.5 6.5q23 -4 30 -27t-3 -41 q-16 -29 -57 -39t-70 -16q-33 -10 -64.5 -17.5t-64.5 -11.5q8 -74 14.5 -147.5t12.5 -147.5q6 -78 12 -179t10 -202q2 -55 2 -111.5t-4 -111.5q0 -14 -2 -43t-5 -63.5t-11.5 -69.5t-20.5 -62q-4 -4 -4 -8l-2 -2q-4 -8 -9 -15t-14 -16q-23 -23 -50 -29.5t-53 -0.5t-47.5 24.5 t-27.5 50.5q-4 17 -4 35q0 22 6 44q13 40 34.5 79t47 75t43.5 69q4 4 8 12q1 58 1 116q0 145 -7 289q-10 201 -28 402q-29 -2 -58.5 -1t-56.5 9t-45.5 24.5t-22.5 45.5zM-23 -416q4 -35 20.5 -30.5t35.5 24.5q4 14 7 27.5t7 27.5q8 41 10 84t4 84q-10 -20 -20 -38.5 t-21 -38.5q-16 -31 -32 -67q-12 -29 -12 -58q0 -7 1 -15z" />
<glyph unicode="g" horiz-adv-x="542" d="M-350 -380q2 32 24 61q35 41 83 70.5t91 58.5q61 41 133 64.5t142 45.5q59 20 119.5 44t113.5 59q20 14 43 36v21q-43 -45 -101 -64q-19 -7 -39 -7l-77 26q-63 43 -101 108.5t-56.5 142t-19.5 155.5v12q0 72 11 137q12 70 39 140.5t82 119.5q43 39 103 64q38 16 74 16 q23 0 46 -6q14 -2 29 -11q-23 27 -55 58q-10 8 -6 19t14 16q15 4 29 4q22 0 39 -10q28 -17 44.5 -47.5t23.5 -68.5t7 -69q0 -72 3.5 -151.5t3.5 -202.5q0 -41 -2.5 -97.5t-4.5 -115t-4 -112.5t-4 -91q-2 -10 -3 -19.5t-1 -19.5q-12 -104 -50 -189t-114 -157 q-76 -70 -171 -120t-199 -54q-35 -2 -72 -2t-73 6t-67.5 21.5t-56.5 46.5q-21 26 -21 55q0 3 1 7zM-316.5 -385.5q1.5 -24.5 17.5 -45t44 -33.5t54 -13h27q103 0 202 27q113 30 205 108q70 59 106 133t50 160q-41 -31 -85 -52.5t-91 -41.5q-68 -29 -137.5 -58.5 t-141.5 -50.5q-59 -16 -118.5 -28.5t-106.5 -55.5q-27 -25 -25.5 -49.5zM94 580q-1 -21 -1 -44q0 -34 2 -71q3 -62 15.5 -122t37 -114.5t65.5 -91.5q18 -16 42.5 -26.5t51.5 -6.5q33 4 56.5 29t37.5 53q0 166 -2 331v21q0 155 27 308q-25 41 -64 49q-29 6 -59.5 -1 t-59 -23.5t-52 -39t-35.5 -45.5q-59 -98 -62 -206z" />
<glyph unicode="h" horiz-adv-x="563" d="M20 224q4 98 8.5 198t10.5 198.5t6 192.5q0 76 1 122t1 81t1 65.5t3 77.5q0 45 1 67.5t1 36t1 24.5t1 34v37.5t3 48.5t8.5 44t17.5 30q25 20 42 12t27.5 -31.5t14.5 -55.5t2 -58q-4 -35 -7 -83t-7 -83q-10 -83 -10 -158q0 -18 1 -36q1 -34 1 -71q0 -60 -3 -126 q4 10 13.5 24t18.5 26.5t17 21.5l9 9q51 61 107 77q31 9 57 9q20 0 36 -6q53 -18 89 -73.5t40 -112.5q1 -20 1 -38t-1 -34q-2 -30 -5 -58t-8 -54.5t-9 -59.5q-8 -59 -18.5 -119.5t-18.5 -119.5q-4 -31 -8 -63t-6 -62q0 -10 -1 -25.5t-1 -30t1 -23.5t7 -7q10 4 15 12t9 12 q20 41 27 63.5t23 18.5q8 -2 6 -23.5t-12.5 -49t-31 -55t-50.5 -40.5q-2 -2 -7 -2q-2 -2 -6 -2h-2q-39 -6 -58 14q-20 18 -27 52q-5 26 -5 58v18q2 42 9 82t15.5 74l12.5 50q18 74 38.5 146.5t31.5 148.5q4 37 6 79v14q0 35 -8 67q0 2 -1 3t-1 3q-10 23 -26.5 47.5 t-45.5 28.5q-35 6 -55.5 -6.5t-34.5 -40.5q-51 -94 -91 -197.5t-67 -208.5q-6 -102 -12 -202.5t-11 -202.5q-2 -20 -15 -31.5t-28.5 -11.5t-29 10t-13.5 33q-2 49 -2 100q0 45 2 91z" />
<glyph unicode="i" horiz-adv-x="229" d="M2 172q2 41 3 83t1 83q2 66 4 130t13 130q2 14 6 39t8 47q6 27 10 57l-2 2q0 25 13.5 40.5t25.5 33.5q6 8 17.5 8t13.5 -12q6 -33 6 -66q0 -12 -1 -25q-3 -46 -5 -91q-6 -102 -6 -201q-1 -74 -5 -148q-2 -39 -2 -79q0 -35 2 -70v-14t1 -19.5t5.5 -15.5t14.5 -2 q25 14 41 25.5t39 29.5q37 31 46 3q2 -5 2 -11q0 -26 -30 -70q-16 -23 -41.5 -42t-54.5 -27t-56.5 -1t-45.5 42q-19 33 -23 69q-2 19 -2 38q0 17 2 34zM40 1006.5q-1 11.5 9 15.5q29 10 52.5 43t31.5 61q4 12 1 25.5t-17 22.5q-18 10 -32.5 -6.5t-25.5 -30.5q-4 -4 -10 0 t-4 10q4 27 28.5 49.5t51.5 28.5q35 10 57.5 -16.5t22.5 -59.5q0 -27 -13.5 -54.5t-35 -51t-48 -37t-55.5 -13.5q-12 2 -13 13.5z" />
<glyph unicode="j" horiz-adv-x="319" d="M-576 -382q3 34 25 63q43 51 96.5 86.5t112.5 61.5t120.5 46.5t123.5 40.5q59 23 119.5 45.5t113.5 56.5q25 18 45 39v79q0 157 -6 312q-4 87 -4 174q0 109 6 218q-23 -23 -45 -42.5t-42.5 -29.5t-38 -6t-27.5 29q-2 4 1 6t7 -2q14 -14 37.5 7t48 55t46 69t32.5 45 q16 18 39.5 8t25.5 -35q2 -123 3 -244v-80q0 -81 -1 -163q-2 -82 -4 -194.5t-8 -223.5q-2 -10 -2 -18.5t-2 -16.5q-14 -102 -58.5 -193.5t-114 -161t-159.5 -112.5t-197 -47q-37 -2 -73 -3h-15q-29 0 -57 3q-35 4 -66.5 18.5t-56.5 45.5q-25 27 -25 58v6zM-533 -377.5 q-4 -21.5 6.5 -42t33 -36t47.5 -19.5q47 -9 93 -9q68 0 135 20q112 33 204 99q86 66 131 145t59 177q-41 -33 -85 -55.5t-91 -40.5q-68 -29 -137.5 -56.5t-138.5 -56.5q-53 -23 -116 -37t-110 -49q-27 -18 -31 -39.5zM62 1216q-7 35 4 62q16 47 67 70q25 12 53.5 10 t51.5 -23q12 -12 20 -29.5t9 -36t-5 -35t-22 -24.5q-12 -8 -23.5 -4t-19.5 15q-10 12 -9.5 24t0.5 27q0 -6 -3 3t1 3q0 2 -1 3t-1 3h-2q-2 2 -2 4q-2 0 -4 2h-2h-2q0 2 -4 2l-12 3t-15 -1q-14 -2 -26.5 -13t-18.5 -24q-10 -25 -6 -46t8 -46q0 -2 -6 -2q-23 18 -30 53z" />
<glyph unicode="k" horiz-adv-x="518" d="M-6 330q0 78 4 154.5t10 154.5q8 115 12.5 225.5t14.5 222.5q8 98 10 162t25 117q14 33 26.5 46t55.5 9q12 1 14 -37q1 -12 1 -28q0 -30 -3 -70q-4 -60 -11.5 -133.5t-15.5 -146t-15 -135t-10 -101.5q0 -12 4.5 -10t12.5 9t15.5 19.5l13.5 22.5q53 85 133 143 q67 48 151 49q16 0 33 -2q10 0 20.5 -7t10.5 -16t-13.5 -19.5t-48.5 -18.5q-76 -23 -127 -78t-98 -117q-18 -25 -35.5 -49t-33.5 -49q18 8 38 10q10 0 30 -3t36 -11q29 -10 51.5 -29.5t40.5 -42.5q54 -67 62 -149q4 -39 4 -79q0 -42 -4 -85q-2 -24 -8 -64q-4 -26 -3 -51 q0 -14 1 -28q3 -39 19.5 -62.5t57.5 -11.5t59.5 3t-10.5 -21q-44 -22 -85 -22h-10q-46 3 -73 58q-14 33 -19 69t-6 73q0 18 -0.5 36.5t0.5 36.5q1 36 1 70q0 47 -14.5 81t-45.5 71q-18 20 -40.5 36.5t-45 21.5t-45 -4t-41.5 -38q0 -2 -2 -2v-16q-4 -66 -5 -132v-26 q0 -52 3 -105q6 -59 19.5 -118.5t13.5 -118.5q0 -27 -24.5 -32t-38.5 15q-29 41 -43.5 93.5t-22.5 107.5q0 14 -1 34.5t-2 42t-2 42t-1 33.5z" />
<glyph unicode="l" horiz-adv-x="290" d="M-1 1212v19q0 46 4 92q5 55 22 90q4 10 16 14.5t24.5 1t22.5 -16.5t10 -38q6 -102 7 -205.5t1 -207.5q0 -141 6 -292q2 -62 2 -125q0 -92 -5 -186q0 -10 1 -56t4 -97t7 -92t10 -37q33 12 56.5 36.5t42 54.5t33 61.5t28.5 60.5q4 8 13 6t9 -10q-4 -39 -21.5 -75t-31.5 -71 q-16 -37 -35.5 -79t-60.5 -58q-21 -9 -39 -9q-11 0 -23 4q-28 11 -48.5 35.5t-31 55.5t-12.5 53q0 6 -1 18.5t-2 27t-2 24.5t-1 14q-3 166 -3 333v84q1 210 5 419q0 10 -3 52.5t-4 98.5z" />
<glyph unicode="m" horiz-adv-x="839" d="M0 825q18 29 36.5 56.5t35.5 60.5q10 23 29.5 13.5t21.5 -27.5q4 -23 6 -46.5t4 -47.5q39 53 80 90q33 30 67 30q1 0 2 -1q32 0 62 -15q31 -16 54.5 -47t33.5 -64q2 -6 3 -11t1 -11q29 41 66 71.5t78 45.5q26 10 49 10q21 0 37 -8q36 -16 61 -48t37 -77t12 -86v-17 q0 -108 -24 -212q-26 -112 -41 -226q-2 -10 -6.5 -40t-6.5 -60.5t2.5 -52t20.5 -15.5q20 8 33.5 19.5t22.5 24.5t18.5 29t23.5 32q6 8 13.5 1.5t3.5 -14.5q-14 -25 -34 -61.5t-46 -64.5q-24 -28 -56 -34q-5 -1 -10 0q-27 0 -59 31q-18 16 -24.5 39t-7.5 47.5t2 48t7 45.5 q4 47 15.5 94.5t21.5 94.5q14 59 26.5 117.5t16.5 117.5q4 43 4 98.5t-26 92.5q-25 33 -52.5 37t-57.5 -12.5t-57.5 -48t-52.5 -66.5q11 -64 11 -128q1 -21 -1 -42q-4 -86 -14 -168q-4 -51 -12 -99.5t-22 -97.5q-12 -37 -34 -40h-2q-20 0 -30 50q-8 47 -8 95q0 46 7 90 q15 92 21 184q2 23 2 72q0 3 1 6q1 46 -7 92q-8 49 -28 86q-19 35 -58 35h-4q-41 -4 -72.5 -34t-57.5 -71q8 -101 7 -201v-39q-2 -120 -7 -241q-2 -35 -3.5 -70.5t-1.5 -70.5v-35.5t5 -36.5v-4h3q14 -4 22.5 -18.5t4.5 -28.5q-8 -25 -24.5 -34t-35 -7t-36 14.5t-25.5 30.5 q-23 45 -23 97q0 10 -1 20q0 40 2 78q14 307 36 614q-12 -10 -24 -21.5t-27 -21.5q-4 -4 -9 1t-1 11z" />
<glyph unicode="n" horiz-adv-x="499" d="M-12 825q18 29 36.5 56.5t34.5 60.5q10 23 30 13.5t22 -27.5q4 -35 7 -69t7 -68q29 47 67.5 81.5t81.5 49.5q27 10 51 10q20 0 37 -8q37 -16 62 -48t37 -77t12 -86v-17q1 -108 -23 -212q-26 -112 -42 -226q-2 -10 -7.5 -39t-6.5 -59.5t3 -53t21 -16.5q27 10 42 30.5 t44 55.5q4 8 13 4t1 -14q-16 -25 -33.5 -56.5t-41 -54t-51.5 -27.5q-4 -1 -8 -1q-25 0 -56 26q-18 16 -25.5 38t-7.5 46.5t3 49t7 46.5q4 47 15.5 94.5t21.5 94.5q14 59 26.5 117.5t16.5 117.5q4 43 4 98.5t-27 92.5q-28 37 -58 38h-2q-30 0 -60 -20q-32 -20 -61 -57 t-52 -74q3 -73 3 -144q0 -36 -1 -71q-2 -106 -6 -213q-2 -35 -3 -70.5t-1 -70.5v-35.5t4 -36.5v-4h4q14 -4 22.5 -18.5t4.5 -28.5q-8 -25 -24.5 -34t-35 -7t-36 14.5t-25.5 30.5q-23 45 -24 97v33q0 33 1 65q14 307 37 614q-12 -10 -24.5 -21.5t-26.5 -21.5q-4 -4 -9 1 t-1 11z" />
<glyph unicode="o" horiz-adv-x="593" d="M-6 496q6 90 37 172q27 68 68.5 125t111.5 86q27 12 56.5 19t56 4t48 -18.5t31.5 -45.5q45 -10 80 -45q10 -8 18.5 -18.5t16.5 -22.5q12 6 22.5 13t20.5 11q6 4 10 -1t0 -9q-10 -10 -19 -17.5t-22 -17.5q33 -59 41 -130q5 -47 5 -91q0 -22 -1 -43q-4 -96 -32.5 -188.5 t-96.5 -163.5q-27 -27 -60.5 -52.5t-70 -41t-76.5 -16.5h-3q-38 0 -76 22q-37 23 -63.5 56.5t-46 72.5t-32 81t-18.5 82q-8 57 -8 117q0 30 2 60zM101 410q5 -72 24 -136q8 -35 26.5 -70.5t44.5 -61.5q27 -26 61 -36q10 -3 21 -3q26 0 56 16q59 33 97 79t67 103 q29 71 36 151q2 23 2 47q0 56 -12 109q-4 25 -12 51.5t-18 49.5q-29 -12 -61 -18.5t-60 1.5q-16 4 -38 11.5t-24 23.5q-4 18 -4 38.5t10 37.5q12 23 31.5 32t42.5 5q-29 31 -60 31l-1 -1q-32 0 -72 -18q-16 -8 -30.5 -18.5t-28.5 -20.5q-39 -55 -61 -121q-22 -67 -32 -139 q-6 -47 -7 -94q0 -24 2 -49zM341 767q-1 -13 7 -27.5t31 -16.5q16 -2 31 -2q35 0 69 12q-31 53 -94 66q-18 2 -30.5 -8.5t-13.5 -23.5z" />
<glyph unicode="p" d="M2 595.5q0 53.5 6 106.5q8 63 26.5 134t67.5 118q47 45 106 45h6q62 -2 118 -36q59 -37 99 -97.5t61.5 -133.5t27.5 -148q3 -33 3 -63q0 -40 -5 -77q-8 -72 -27.5 -141.5t-64.5 -126.5q-18 -23 -43 -43t-54.5 -34.5t-60 -18.5t-61.5 6q-23 6 -40 18.5t-32 28.5v-43 q-2 -47 -9 -109.5t-7 -115.5q0 -41 5 -91q3 -31 3 -61q0 -18 -1 -35q-3 -47 -21.5 -78.5t-63.5 -33.5q-12 0 -17.5 53t-6.5 136q-1 41 -1 87.5t1 97.5q1 103 1 205.5t-3 193.5t-11 150q-2 53 -2 106.5zM104 571q2 -43 5.5 -85t7.5 -85q25 74 63 123q4 4 10.5 0t2.5 -8 q-33 -47 -51 -102q-14 -46 -14 -93q0 -11 1 -22q0 -20 4 -46t13.5 -50.5t25.5 -42t41 -23.5q14 -3 27 -3q32 0 59 18q37 26 63.5 67t42 90t21.5 84q8 49 12 103q2 32 2 63q0 23 -1 46q-3 54 -14 106.5t-34 95.5q-23 41 -56.5 74.5t-82.5 44.5q-14 3 -27 3q-66 0 -92 -71 q-25 -68 -28 -142q-2 -44 -2 -87q0 -29 1 -58z" />
<glyph unicode="q" horiz-adv-x="593" d="M-13 482q1 77 17 147q29 143 143 233q45 35 109 46q15 2 29 2q46 0 84 -25q31 -20 43 -41q6 47 13 94t17 94q2 8 10.5 13.5t16.5 1.5q45 -16 80 -49t39 -83q0 -4 -3 -5t-5 3q-14 27 -38 51.5t-53 34.5q8 -66 14.5 -130t8.5 -130q4 -68 5 -135t3 -133q4 -117 6.5 -233.5 t14.5 -233.5q2 -23 10 -74t15 -113.5t12 -128.5q4 -42 4 -79q0 -21 -1 -40q-3 -54 -17.5 -89t-45.5 -35q-37 0 -52 36t-20 86q-5 42 -5 90v17v38q0 36 -1 67q-2 76 -10 149.5t-14 147.5q-20 -41 -58 -64q-31 -18 -61.5 -20t-60 7t-57 27.5t-50.5 41.5q-49 53 -81 121.5 t-47 142.5q-14 69 -14 141v9zM88 406v-20q0 -58 10 -112q11 -65 41.5 -116.5t91.5 -71.5q29 -10 52 -10q20 0 35 7q34 15 52.5 53t25.5 92.5t8 112.5q1 22 1 44q0 36 -1 73q-3 58 -3 103q-1 31 -1 61.5t1 61.5q2 61 9 121q-25 43 -62 61q-29 12 -58.5 5t-56 -24.5t-48 -42 t-31.5 -48.5q-23 -51 -38.5 -112.5t-21.5 -117.5q-4 -53 -6 -120z" />
<glyph unicode="r" horiz-adv-x="419" d="M10 514q-2 37 -2 74.5t2 75.5q4 43 9.5 86t9.5 84q2 23 3 45t-1 45q-2 12 -6.5 25.5t-1.5 25.5q0 4 4 8q16 6 28.5 -6t21.5 -33.5t15 -51.5t10 -61q2 2 2 4.5t2 4.5q10 18 21.5 37.5t26 37t33 30.5t40.5 18q13 2 25 2q44 0 81 -28q47 -36 70 -87q23 -46 23 -90 q0 -19 -4 -37q-14 -61 -84 -92q-10 -4 -19.5 1t-5.5 15q12 33 12 68q0 17 -2 33q-8 54 -32 94q-10 16 -22.5 42.5t-32.5 30.5q-18 4 -35 -8t-29 -24q-20 -23 -35.5 -48.5t-30.5 -54.5q4 -33 4 -56.5t3 -33.5q2 -76 8 -151.5t10 -151.5q2 -47 4 -92l4 -90q2 -43 5 -88 q1 -8 0 -16q0 -36 -11 -70q-6 -18 -20.5 -28.5t-30.5 -10.5t-30.5 9t-20.5 30q-9 37 -9 78v8v22q0 33 -2 66q-2 41 -4 80t-2 80q0 75 -4 149z" />
<glyph unicode="s" horiz-adv-x="409" d="M-8 166q-3 20 -3 39q1 41 15 79q22 56 59 97q23 25 48.5 47.5t50.5 44.5q-18 23 -37 46.5t-35 45.5q-23 33 -44 68t-33.5 72.5t-14.5 76.5v9q0 35 14 71q10 29 33 54.5t51 41.5q28 15 60 18h9q27 0 54 -15q51 -33 61 -83q4 -19 4 -37q0 -32 -10 -66q-18 -54 -52 -103 t-66 -82q14 -20 26.5 -39t26.5 -37l32.5 32.5t32.5 35.5q4 4 10.5 0t2.5 -11q-14 -20 -29.5 -38.5t-32.5 -38.5q37 -46 66 -91q41 -59 73 -127q23 -48 24 -99q0 -22 -5 -44q-13 -78 -67 -126q-46 -41 -113 -41q-11 0 -23 1q-66 6 -115 54.5t-65 109.5q-4 14 -8 35zM69 773 q4 -46 29 -91q12 -23 25.5 -43.5t28.5 -42.5q34 50 68 112q30 56 30 108v13q-2 29 -21.5 47.5t-44 23.5t-50 -3t-40.5 -33q-25 -40 -25 -80v-11zM80 240q-1 -15 -1 -29q0 -25 4 -49q7 -37 29.5 -65.5t65.5 -37.5q13 -2 26 -2q30 1 59 13q42 18 52 65q6 23 6 46q0 19 -4 38 q-8 43 -28 82q-23 41 -50.5 77t-56.5 71q-29 -33 -52.5 -66t-35.5 -72q-10 -31 -14 -71z" />
<glyph unicode="t" horiz-adv-x="454" d="M-104 766q0 6 4 2q8 -8 21 -10t27.5 -1t28 3t23.5 2q16 2 31.5 4t31.5 4q2 16 3.5 32.5t3.5 33.5q6 57 9 114.5t11 114.5q-25 -16 -53 -45q-8 -8 -15.5 -2t-3.5 16q20 45 43 76t62 59q20 16 37.5 1t21.5 -33q4 -38 4 -76t-4 -76q-8 -76 -14 -149q0 -12 -1 -23.5t-3 -24.5 q68 14 137 37q25 8 51.5 19.5t53.5 7.5q23 -4 29.5 -26.5t-3.5 -41.5q-8 -14 -23.5 -22t-34 -14.5t-37 -10.5t-32.5 -8q-37 -10 -73.5 -18.5t-73.5 -12.5q-2 -35 -4 -69.5t-4 -69.5q-4 -72 -7.5 -145.5t-5.5 -145.5q0 -27 1 -56.5t7.5 -56t21.5 -48t44 -31.5q30 -10 55 -10 q16 0 29 4q35 10 62.5 34.5t50 58t47.5 64.5q8 10 18 4t6 -16q-23 -53 -45 -85t-50 -54.5t-64.5 -39t-88.5 -38.5q-27 -11 -50 -11q-15 0 -27 4q-34 11 -57 40.5t-37.5 67.5t-18.5 71q-7 52 -7 106q0 27 2 54q5 82 9 159q0 49 3 99.5t7 99.5h-14q-46 0 -88 12q-49 14 -57 66 z" />
<glyph unicode="u" horiz-adv-x="450" d="M4 281v35q0 60 5 120q7 78 19.5 155t26 152.5t23.5 153.5q-25 -16 -47.5 -21.5t-16.5 31.5q4 4 4 0q4 -12 14.5 -8t22 16.5t20.5 25.5t13 17q8 10 21.5 5t15.5 -15q7 -35 7 -72q0 -18 -2 -36q-5 -56 -7 -109q-4 -84 -9 -166t-8 -166q-1 -30 0 -61v-80q2 -72 25 -137 q4 -16 11.5 -33.5t23.5 -28.5q18 -10 34.5 -6t31 15.5t28.5 27t27 27.5q2 16 2 30.5v28.5q0 123 6 250q2 63 4 124.5t4 125.5q1 39 1 79v39v18q0 51 5 102q4 23 23 28q29 10 51 27q10 6 15 -1t1 -16q-6 -12 -11 -24t-15 -23q16 -55 23 -117q7 -60 8 -122q1 -23 1 -46 q1 -38 -1 -76q-2 -60 -5 -118q-2 -63 -3 -125.5t-1 -124.5q0 -28 3 -62q1 -15 1 -29q0 -20 -2 -40q-4 -16 -13 -37.5t-13 -25.5q-6 -8 -17.5 -10.5t-19.5 4.5q-20 12 -29.5 32.5t-13.5 44.5q-20 -16 -44 -30.5t-40 -20.5q-29 -10 -60.5 -11t-56.5 21q-55 49 -69.5 121 t-16.5 142z" />
<glyph unicode="v" horiz-adv-x="614" d="M10 895q0 49 27 63q12 6 21.5 -7t16.5 -34.5t12 -46t11 -39.5q8 -27 25.5 -73.5t35 -94t32 -86t16.5 -47.5q23 -90 54.5 -180t47.5 -182q6 14 11.5 26.5t9.5 22.5q31 72 58.5 144.5t55.5 144.5q27 72 50.5 144.5t37.5 148.5q2 14 8.5 36.5t9.5 46t1 44t-14 32.5 q-8 8 -3 16.5t15 6.5q20 -4 32.5 -19.5t17.5 -36t6 -42t-1 -37.5q-4 -76 -26.5 -150.5t-47.5 -146.5q-29 -84 -60.5 -165t-63.5 -163q-29 -68 -50 -131q-6 -16 -17 -41.5t-13 -34.5q0 -14 -7.5 -26.5t-23.5 -16.5h-6q-18 -4 -34.5 4.5t-21.5 26.5q-35 145 -77.5 288.5 t-83.5 287.5q-14 53 -25.5 107t-23.5 108q-13 51 -13 102z" />
<glyph unicode="w" horiz-adv-x="708" d="M12 561v42q0 63 4 128q4 39 11.5 96.5t33.5 98.5q-16 4 -26 4q-10 2 -10 11t10 11q20 4 39.5 7.5t40.5 7.5q18 2 28.5 -17.5t-10.5 -29.5q-6 -4 -9 -14.5t-4 -24t-2 -25.5t-1 -18q-1 -34 -1 -67t1 -66q2 -70 6 -138.5t6 -138.5q2 -35 2 -70q0 -26 -1 -52q-1 -14 0 -29 q0 -47 7 -95q4 -31 11.5 -64.5t25.5 -62.5q14 -23 33.5 -31t39 -6t40 13.5t37.5 27.5q-25 33 -30 74t-7 80q-1 35 -1 71v36q1 54 1 108q0 72 1 145.5t5 147.5q4 49 9 99t22 98h-19q-8 0 -11 9t5 13q14 8 26.5 13t24.5 14q12 6 25.5 1t17.5 -20q8 -46 8 -93v-19 q-2 -58 -4 -115q-2 -63 -2 -124.5v-123.5q0 -90 -4 -180q-1 -26 -1 -51q0 -64 7 -129q2 -16 11.5 -33t23.5 -28t30.5 -15t35.5 6q23 12 37 29.5t24 40.5q-10 23 -17 45t-12 43q-14 55 -19 108t-7 111q-2 60 -7 118q-3 32 -3 65q0 26 2 52q4 47 12 93.5t31 87.5 q14 23 35.5 49t50.5 26q14 0 23 -11t14.5 -26.5t8.5 -31t3 -25.5q4 -42 4 -84q0 -21 -1 -41q-3 -62 -9 -127q-8 -74 -13.5 -148.5t-21.5 -148.5q-6 -35 -15.5 -74.5t-25.5 -76.5q10 -25 2 -36t-19 3q-8 -14 -18 -26.5t-20 -22.5q-41 -35 -96.5 -35t-96.5 35 q-20 -35 -57 -52.5t-78 -18.5h-4q-39 0 -75 16q-38 18 -60 53q-27 39 -38.5 83t-15.5 90q-3 37 -3 74v19q1 47 1 92q0 86 -2 170zM563 229q2 -18 6 -35.5t9 -33.5q18 53 27 110.5t13 112.5q6 88 16 177q9 75 9 149v28q0 29 -2 60.5t-12 60.5q-4 12 -11.5 6t-14.5 -19.5 t-12 -27.5t-5 -16q-8 -41 -11.5 -81t-3.5 -81q-2 -55 -4 -109q-1 -27 -1 -54.5t1 -55.5q0 -48 -4 -96q-2 -24 -2 -47.5t2 -47.5z" />
<glyph unicode="x" horiz-adv-x="552" d="M-7 776q-1 33 17 60q23 33 37 23.5t2 -32.5q-12 -29 -5 -57.5t22 -52.5q29 -45 62.5 -84t64.5 -82q6 6 22 22.5t34.5 36t36 38t25.5 26.5q29 35 59.5 72.5t51.5 78.5q8 16 15 35t5 37q-2 23 -17 33t-36 16q-12 4 -11 17.5t15 13.5q35 -2 69 -16.5t40 -55.5q1 -13 1 -25 q0 -22 -4 -44q-7 -34 -24 -66q-41 -86 -101.5 -156.5t-123.5 -138.5q55 -76 102 -152.5t80 -166.5q8 -23 18.5 -48.5t26.5 -44.5q23 -23 45 -12t45 29q20 16 28.5 13t5.5 -15t-20.5 -30.5t-48.5 -35.5q-23 -12 -43 -9t-37.5 14.5t-31.5 30t-23 36.5q-37 74 -68.5 146.5 t-78.5 140.5q-10 16 -21.5 30.5t-21.5 28.5q-39 -41 -73 -84t-56 -98q-16 -35 -28 -77q-8 -28 -9 -56q0 -13 2 -27q6 -49 41 -57q23 -5 49 -5q13 0 27 1q2 0 2 -1t-2 -1q-35 -19 -64 -19q-24 0 -44 12q-46 28 -50 99q-1 13 -1 28q0 21 2 45q3 40 11.5 80.5t21.5 77.5t34 66 q16 23 35.5 44t39.5 44q-20 23 -39.5 46t-35.5 48q-16 20 -34 51t-30 63.5t-13 65.5z" />
<glyph unicode="y" horiz-adv-x="483" d="M-383 -326q43 51 96.5 87t111.5 62.5t120.5 47t122.5 41.5q59 20 119.5 42.5t113.5 57.5q25 18 45 39q0 29 1 55.5t1 55.5q-29 -45 -78 -82t-98 -45q-20 -4 -37 -4q-46 0 -73 27q-39 36 -50 104q-7 45 -7 91v12q1 52 5 103.5t9.5 103.5t7.5 103q4 74 9 152t38 143 q-8 -4 -16.5 -9t-16.5 -11q-2 -2 -5 0t-1 6q16 23 38.5 39t43.5 37q16 16 33.5 2t7.5 -35q-16 -37 -23.5 -77t-9.5 -82t-2 -83v-82q0 -82 -11.5 -161.5t-11.5 -161.5q0 -33 2 -70t13 -67q10 -29 24.5 -36t42.5 1q49 16 90 47t76 72q0 100 -4 200.5t-4 200.5t6 200.5 t23 198.5q-4 -4 -8.5 -7t-8.5 -7q-2 -4 -6 -2t-2 6q6 20 16.5 34.5t22.5 31.5q10 12 21.5 4t13.5 -19q16 -137 17 -276v-92q0 -92 -1 -183q0 -45 -2 -106t-5 -125.5t-5 -124t-4 -98.5q0 -10 -1 -18.5t-1 -18.5q-10 -100 -56.5 -192.5t-118 -163t-163.5 -114.5t-195 -46 q-35 -2 -73 -3h-12q-31 0 -60 4q-35 5 -66.5 19.5t-56.5 44.5q-22 30 -22 62q0 36 24 65zM-370 -392.5q-1 -23.5 13.5 -43t39 -32.5t51.5 -17q34 -5 69 -5q82 0 165 28q118 38 210 112q76 61 112 135t48 162q-41 -33 -88 -55.5t-94 -43.5q-135 -59 -277 -110 q-27 -10 -56.5 -17.5t-59 -15.5t-58.5 -19.5t-49 -31.5q-25 -23 -26 -46.5z" />
<glyph unicode="z" horiz-adv-x="745" d="M-7 127.5q7 26.5 25 52.5q45 59 123 99t158 63q31 66 62.5 130.5t66.5 129.5q23 45 44.5 90t47.5 86q8 16 17.5 31.5t19.5 32.5q-66 -33 -132.5 -61.5t-135.5 -43.5q-29 -6 -59.5 -9t-60.5 -1t-58.5 14.5t-49.5 36.5q-14 16 -10 39t13.5 38t15.5 18.5t-4 -19.5 q-12 -25 0 -44t39 -26q26 -10 50 -10q9 0 19 2q32 6 68 19q98 35 189 75.5t184 79.5q20 10 38.5 -2t12.5 -35q-2 -14 -8 -22q-4 -51 -29 -101.5t-47 -97.5q-18 -45 -39 -87t-43 -83l-80 -160q37 0 79 -9t81 -29.5t71.5 -50t53.5 -70.5q17 -39 17 -85q0 -23 -4 -47 q-12 -73 -46 -126q-16 -31 -42 -54.5t-54.5 -35t-59 -5t-59.5 36.5q-25 29 -27 62v8q0 27 12 55q14 30 37 57t46 46q29 23 58.5 44t59.5 42q-10 18 -26 30q-51 43 -111 55q-45 9 -91 10q-15 0 -30 -1q-16 -27 -29.5 -51.5t-29.5 -48.5q-25 -37 -56.5 -70t-64.5 -64 q-29 -27 -58.5 -45t-68.5 -18q-31 0 -57.5 22.5t-34.5 51.5q-10 29 -3 55.5zM31 106q0 -20 14 -40.5t37 -24.5q9 -1 18 -1q32 0 54 16q28 22 49.5 59t36 80t26.5 77q-4 -4 -10 -4q-49 -14 -98 -36.5t-86 -59.5q-12 -12 -26.5 -28.5t-14.5 -37.5zM467 -8.5q-6 -22.5 2 -44.5 q8 -25 25.5 -37t37 -14t40 6t36.5 26q18 23 33.5 53.5t25 64.5t10.5 67.5t-11 62.5q-29 -16 -57.5 -35.5t-55.5 -42.5q-16 -12 -33.5 -28.5t-32 -36t-20.5 -42z" />
<glyph unicode="{" horiz-adv-x="415" d="M5 655.5q-11 32.5 5 67.5q16 33 47 52.5t45 47.5q2 6 2 21.5t-2 32t-5 33t-3 24.5q-2 29 -3 55.5t-3 52.5q-6 111 -7 229t38 222q4 16 14 26.5t27 8.5q57 -8 117.5 -22.5t119.5 -16.5q4 0 4 -5t-4 -5q-49 -14 -99 -21.5t-101 -13.5q-10 -109 -5 -211.5t13 -212.5 q4 -53 12 -114.5t-2 -114.5q-4 -35 -27.5 -57.5t-46.5 -45.5q-2 0 -6 -4q14 -10 27.5 -19.5t23.5 -23.5q29 -39 28 -79t-1 -89q-4 -109 -4 -217t10 -217q53 4 111.5 -4t87.5 -49q6 -10 4 -22.5t-8 -20.5q-23 -23 -53.5 -29t-64.5 -7t-67.5 1t-60.5 -2q-20 -2 -37.5 13 t-21.5 36q-16 123 -18.5 247t1.5 251q0 8 2 24.5t3 32.5t0 29.5t-5 17.5q-12 12 -25.5 21.5t-27.5 21.5q-23 23 -34 55.5z" />
<glyph unicode="|" horiz-adv-x="137" d="M2 1544q-10 39 10 70q12 23 41 16q25 -6 37 -24.5t19.5 -42t9.5 -48t4 -45.5q6 -61 8 -122.5t2 -120.5q-2 -147 1 -290.5t1 -291.5q-4 -170 -10 -339t-19 -341q-4 -51 -6 -104.5t-16 -102.5q-4 -14 -14.5 -18t-20.5 6q-4 4 0 7t8 -1q2 -2 3 7.5t1 21.5v23.5v13.5 q0 20 -1 39.5t-1 40.5q-4 72 -8 144.5t-8 145.5q-8 143 -7 286.5t-1 287.5q-2 125 -4 249t-6 246q0 53 -1 106.5t-8 106.5q-4 35 -14 74z" />
<glyph unicode="}" horiz-adv-x="415" d="M-6 -37q-2 12 4 23q29 41 87.5 49t111.5 4q10 109 10 217.5t-4 216.5q0 49 -1 89t27 79q10 14 23.5 23.5t28.5 19.5q-4 4 -7 4q-23 23 -46 45.5t-27 57.5q-10 53 -2 114.5t12 114.5q8 111 13 213t-5 211q-51 6 -101 13t-100 22q-4 0 -4 5t4 5q59 2 120 16.5t118 22.5 q16 2 26.5 -8.5t14.5 -26.5q39 -104 38 -222t-7 -229q-2 -27 -3 -53t-3 -55q0 -8 -3.5 -24.5t-5.5 -33t-3 -32t3 -21.5q14 -29 45 -48t48 -52q16 -35 4.5 -67.5t-33.5 -55.5q-14 -12 -27.5 -21.5t-25.5 -21.5q-4 -4 -5.5 -17.5t-0.5 -29.5t3.5 -32.5t2.5 -24.5 q4 -127 2 -251t-19 -247q-4 -20 -21.5 -35.5t-37.5 -13.5q-27 4 -60.5 2t-67.5 -1t-65.5 7t-52.5 29q-6 8 -8 20z" />
<glyph unicode="~" horiz-adv-x="1042" d="M2 731q-2 4 2 10.5t8 3.5q10 -4 34 8.5t50 24.5q27 14 51.5 23.5t36.5 13.5q59 16 120 16t120 -10q70 -14 140.5 -37.5t140 -40t139 -16.5t141.5 35q57 27 57 -25q0 -23 -14 -50.5t-43 -43.5q-47 -23 -94 -29t-93 -1t-93.5 18.5t-94.5 25.5q-59 16 -118.5 35t-118.5 33 q-66 16 -129.5 26.5t-128.5 -1.5q-25 -4 -61 -17.5t-52 -1.5z" />
<glyph unicode="&#xa0;" />
<glyph unicode="&#xa1;" horiz-adv-x="165" d="M13 196q-1 40 1 77.5t4 70.5q4 104 6.5 205.5t8.5 206.5q8 111 19 221t28 221q2 8 4 29.5t8 42t16.5 33t26.5 0.5q4 -4 2 -7.5t-6 -1.5t-5 -12t-1 -32.5v-36v-21.5q4 -47 5 -92t3 -90q4 -92 0 -184.5t-6 -184.5q-2 -78 -1 -155.5t-1 -155.5q-2 -61 1 -120t15 -118 q4 -20 -5 -35.5t-24.5 -21.5t-33 -3t-29.5 21q-18 29 -26.5 66t-9.5 77zM37 1407q-2 16 5 29.5t17 25.5q14 14 38 25.5t42 1.5q4 -4 4 -6q10 -2 21 -13q10 -10 13 -25t-1 -30q-10 -29 -34.5 -50t-55.5 -13q-18 6 -32.5 20t-16.5 35z" />
<glyph unicode="&#xa2;" horiz-adv-x="450" d="M4 454.5q6 96.5 25.5 178.5t40.5 125q18 41 44.5 83t65.5 70l-6 52q-4 23 -13 50t9 50q16 18 37 12q25 -4 37 -17.5t18 -29.5t8 -33.5t4 -31.5q0 -12 2 -19h7q27 -2 51 -15.5t42.5 -35t27 -48t6.5 -52.5q-4 -23 -13.5 -44.5t-24 -37t-35 -22.5t-44.5 1q35 4 60.5 21.5 t33.5 54.5q4 27 1 57.5t-26 46.5q-18 14 -38.5 18.5t-42.5 0.5q2 -27 3 -51t1 -47q-4 -104 0 -207t2 -207q-4 -72 -7.5 -144.5t-7.5 -146.5q45 -2 93 27q10 6 18 14t14 12q37 35 40 18.5t-29 -57.5q-39 -41 -74 -62.5t-66 -31.5l-8 -110q-4 -35 -6 -73t-16 -73 q-4 -10 -13.5 -13t-19.5 5q-4 4 0 6t8 0q4 -4 4 18.5v26.5q0 16 -1 27.5t-1 27.5q-10 78 -12 150h-8q-47 0 -81 26.5t-53 63.5q-41 76 -52 173t-5 193.5zM107.5 487q-1.5 -63 3.5 -129q4 -53 17 -119.5t52 -107.5q4 -4 8.5 -8t8.5 -8q-4 86 -3 173t-1 175q0 88 -3.5 174 t-7.5 176v10q-8 -12 -10 -18q-4 -12 -9 -23.5t-9 -21.5q-27 -74 -35 -144q-10 -66 -11.5 -129z" />
<glyph unicode="&#xa3;" horiz-adv-x="878" d="M-21 91q-4 28 5.5 54.5t28 51t38.5 39.5q92 70 201 65q27 57 39 119.5t22 122.5q4 35 7.5 69.5t7.5 69.5q-29 -4 -57.5 -6t-57.5 -2q-37 -4 -74 0t-73 12q-14 2 -35 6t-29 25q-2 4 0 6t4 -2q6 -8 19.5 -9t29 1t29.5 5t20 5q35 10 69 18.5t69 14.5q23 4 45 6t45 6l6 258 q2 55 5 129t17.5 146.5t47 132t94.5 88.5q59 29 124.5 14.5t104.5 -72.5q16 -25 24.5 -51.5t4.5 -51t-20.5 -44t-49.5 -27.5q-4 0 0 4q35 16 47.5 48t-10.5 67q-16 23 -36.5 41t-49.5 16q-43 -2 -82 -12t-63 -51q-37 -61 -46.5 -133t-13.5 -144q-4 -88 -5 -176t-5 -178 q35 0 67.5 -1t67.5 -3q16 -2 24.5 -16.5t8.5 -30.5t-8 -29.5t-25 -13.5q-35 0 -69.5 3t-69.5 5q-6 -98 -22.5 -202.5t-57.5 -196.5q12 -4 24.5 -8.5t24.5 -8.5q59 -27 116.5 -55.5t117.5 -56.5q29 -14 62.5 -23.5t68.5 -10.5t67.5 9t59.5 35q10 8 19 1t1 -17 q-18 -27 -48 -45.5t-64.5 -31t-70.5 -17.5t-67 -1q-88 8 -160.5 49t-148.5 82q-10 6 -21.5 11.5t-21.5 9.5q-43 -68 -108 -121q-20 -16 -53.5 -31.5t-59.5 -21.5q-18 -4 -35.5 -4t-34.5 12q-27 20 -31 48zM20.5 138.5q-8.5 -21.5 2.5 -48.5q6 -18 30.5 -8t54 34.5t58.5 56.5 t43 56q-39 0 -78 -12q-20 -6 -42.5 -16.5t-41 -25.5t-27 -36.5z" />
<glyph unicode="&#xa6;" horiz-adv-x="137" d="M2 1544q-10 39 10 70q12 23 41 16q25 -6 37 -24.5t19.5 -42t9.5 -48t4 -45.5q6 -61 8 -122.5t2 -120.5q-2 -147 1 -290.5t1 -291.5q-4 -170 -10 -339t-19 -341q-4 -51 -6 -104.5t-16 -102.5q-4 -14 -14.5 -18t-20.5 6q-4 4 0 7t8 -1q2 -2 3 7.5t1 21.5v23.5v13.5 q0 20 -1 39.5t-1 40.5q-4 72 -8 144.5t-8 145.5q-8 143 -7 286.5t-1 287.5q-2 125 -4 249t-6 246q0 53 -1 106.5t-8 106.5q-4 35 -14 74z" />
<glyph unicode="&#xa7;" horiz-adv-x="579" d="M49.5 673.5q9.5 57.5 36.5 104.5q27 41 67 76t91 39q49 2 91 -24.5t60 -73.5q16 -45 5 -95.5t-62 -64.5q-8 -4 -12 -4q-12 -14 -27 -25q-14 -10 -23.5 1t-3.5 26v4q-20 2 -36 27q-16 23 -9 55l-14 4q-27 6 -57.5 2t-46.5 -25q-10 -59 8 -102q4 -14 12 -26.5t18 -22.5 q10 -8 22.5 -15.5t27.5 -11.5q39 -8 86 5.5t82 29.5q59 27 96 75t14 120q-25 78 -86 137t-127 102q-27 16 -55.5 32.5t-56 36t-50 44t-37.5 55.5q-23 49 -13.5 107.5t36.5 103.5q27 41 67 77t91 38q49 4 91 -23.5t60 -75.5q8 -23 9.5 -47t-5 -46.5t-22 -40t-39.5 -25.5 q-27 -6 -56.5 0t-45.5 28q-14 25 -9.5 46.5t19.5 44.5q4 6 9 3t3 -10q-8 -16 -3 -31.5t17.5 -25.5t29.5 -12t32 8q16 12 22 31.5t4 40.5q-2 41 -32.5 73.5t-77.5 28.5q-41 -4 -72 -31.5t-49 -67.5t-22.5 -84t10.5 -79q12 -31 38.5 -54.5t57.5 -42t62.5 -36t58.5 -35.5 q59 -43 116.5 -98.5t79.5 -130.5q14 -59 6 -118t-55 -102q-43 -41 -99 -61t-116 -23q-18 -2 -35 0q27 -16 53.5 -29.5t49.5 -29.5q59 -45 116.5 -100.5t79.5 -130.5q14 -57 6 -115.5t-55 -103.5q-43 -41 -99 -60.5t-116 -23.5q-57 -4 -102 15t-78 66t-29 96.5t47 86.5 q18 14 42 21t49.5 5t50 -9t43.5 -19q39 -29 47 -72t-37 -74q-14 -8 -23.5 3.5t-3.5 23.5q6 16 10.5 31.5t-10.5 29.5q-10 10 -26.5 17.5t-32.5 11.5q-18 6 -39.5 5t-39 -8t-29 -23.5t-9.5 -41.5q2 -43 31 -80.5t70 -50.5q39 -10 86 3.5t82 29.5q59 29 96 76t14 119 q-25 78 -86 138t-127 101q-27 18 -55.5 35t-56 36t-50 43t-37.5 56q-23 49 -13.5 106.5zM133 770q37 14 81 7t75 -27q18 -12 29.5 -30t15.5 -36q16 12 22 31.5t4 42.5q-2 41 -32.5 72.5t-77.5 27.5q-37 -2 -66.5 -27.5t-50.5 -60.5zM258 705q6 -6 10 -11.5t13 -9.5 q-2 4 -4.5 5t-4.5 5z" />
<glyph unicode="&#xa8;" horiz-adv-x="290" d="M27 1485q-6 23 8 40t37 19q4 0 5 -1t5 -1q2 0 3 1t5 1q6 0 8 -2q6 0 19 -8q18 -23 6 -45l-6 -8q-8 -16 -23 -23q-10 -6 -22 -6q-14 0 -23 6q-14 8 -22 27zM111 1473l2 2q-2 0 -2 -2zM170 1485q-6 23 8.5 40t36.5 19q2 0 4 -1t4 -1q4 0 5 1t5 1q6 0 9 -2q6 0 18 -8 q18 -23 6 -45l-6 -8q-4 -6 -9 -12.5t-13 -10.5q-10 -6 -23 -6q-12 0 -25 6q-12 8 -20 27zM254 1473q0 2 2 2z" />
<glyph unicode="&#xa9;" horiz-adv-x="364" d="M0 1389.5q8 66.5 43 119.5q18 27 45 46.5t57.5 28.5t62 7t60.5 -18q53 -31 77 -88.5t-5 -116.5q-27 -53 -69 -69.5t-99 -8.5q-25 4 -44 17.5t-31.5 33t-13.5 42t11 47.5q10 18 33 35.5t48.5 25.5t49 1t35.5 -36q6 -14 5 -31.5t-7 -31t-18.5 -17.5t-30.5 8q-4 4 -1 9.5 t9 1.5q41 0 29 35q-10 49 -74 18q-10 -10 -22.5 -30.5t-6.5 -37.5q6 -18 24.5 -34.5t37.5 -20.5q43 -10 70.5 14.5t37 61.5t-1 74.5t-45.5 58.5q-41 23 -81 18.5t-72.5 -27t-53 -59t-22.5 -80.5q-4 -45 14.5 -79.5t59.5 -55.5q47 -23 88 -18.5t88 22.5q4 2 7 -3t-1 -9 q-27 -25 -62.5 -35t-72.5 -7t-71 19.5t-54 47.5q-41 55 -33 121.5z" />
<glyph unicode="&#xaa;" horiz-adv-x="288" d="M12 1288q8 35 23.5 70t44.5 59q27 23 52.5 27t47 0t34.5 -10.5t13 -3.5q2 10 4 17t5 15q-8 -4 -17 -4q-4 -4 -5 0t3 6q8 4 16.5 9.5t14.5 11.5q14 6 20 -6q10 -29 7 -61t-3 -60q0 -25 -1 -50.5t-3 -52.5q-4 -27 -5 -53t1 -55q0 -14 3 -27.5t5 -27.5q0 -1 2 -5q2 -8 1 -20 t-11 -16q-14 -4 -28 0q-14 6 -20.5 18t-10.5 29q-2 -20 -24.5 -33.5t-43.5 -15.5q-31 -4 -51 8t-34.5 32.5t-23 45t-12.5 45.5q-12 57 -4 108zM59 1299q-6 -48 2 -89q4 -29 12.5 -60.5t32.5 -51.5q14 -12 31 -14.5t31 5t23.5 21.5t9.5 33v52t2 60q2 55 12 111q2 6 3 17.5 t3 17.5q-6 6 -22.5 11t-37 4t-39 -8t-30.5 -24q-27 -37 -33 -85z" />
<glyph unicode="&#xab;" horiz-adv-x="778" d="M-8 754.5q6 21.5 22 31.5q74 43 143.5 91.5t141.5 95.5q39 27 75 53.5t70 56.5q23 20 35.5 42t30.5 42q0 6 6 0q20 -20 4 -56t-46 -73t-61.5 -67.5t-43.5 -42.5q-59 -55 -124 -102.5t-130 -94.5q49 -63 100 -123.5t102 -120.5q25 -29 49.5 -57t53.5 -55 q27 -25 54.5 -45.5t53.5 -42.5q16 -14 17.5 -32.5t-8 -34t-26.5 -25t-38 -2.5q-37 10 -71.5 34.5t-65.5 57t-58.5 66.5t-52.5 63q-59 74 -118.5 147.5t-110.5 155.5q-10 16 -4 37.5zM217 754.5q6 21.5 23 31.5q74 43 143.5 91.5t140.5 95.5q39 27 75 53.5t71 56.5 q23 20 35 42t30 42q0 6 6 0q20 -20 4 -56t-45.5 -73t-61.5 -67.5t-44 -42.5q-59 -55 -123.5 -102.5t-130.5 -94.5q49 -63 100.5 -123.5t102.5 -120.5q25 -29 49 -57t53 -55q27 -25 54.5 -45.5t54.5 -42.5q16 -14 17 -32.5t-8 -34t-26.5 -25t-38.5 -2.5q-37 10 -71.5 34.5 t-65.5 57t-58.5 66.5t-51.5 63q-59 74 -119 147.5t-111 155.5q-10 16 -4 37.5z" />
<glyph unicode="&#xad;" horiz-adv-x="579" d="M2 723q-2 4 0 5t4 -1q6 -8 19.5 -9t28 0t27.5 5t19 4q31 8 64 16.5t65 14.5q78 14 151.5 14t151.5 -4q14 -2 22.5 -15.5t8.5 -27.5t-8 -26.5t-23 -10.5q-51 2 -101 6t-101 0q-33 -4 -65 -7t-62 -5q-72 -4 -142 12q-14 2 -32.5 6.5t-26.5 22.5z" />
<glyph unicode="&#xae;" horiz-adv-x="364" d="M4 1360q-10 41 0 83t33.5 75.5t59.5 53t81 17.5q43 -4 89 -22.5t69 -59.5q18 -39 15 -75.5t-17 -77.5q-4 -10 -12.5 -24.5t-18.5 -26t-22.5 -17.5t-26.5 -2q-6 2 -16.5 10.5t-21.5 18.5t-21.5 18t-16.5 12q-8 -4 -14 -4q4 -18 8 -35.5t4 -35.5q2 -4 -2 -6t-8 2 q-18 39 -42 84t-20 90q2 31 24 58.5t56 19.5q25 -6 38.5 -22.5t14.5 -39t-6.5 -45.5t-21.5 -41q8 -6 15 -14t16 -17q14 -16 26.5 -11t20.5 18.5t14 32t8 30.5q8 41 -6 75t-55 50q-39 16 -76 13t-66.5 -21.5t-47 -50t-17.5 -74.5q2 -45 23.5 -86t62.5 -62q29 -12 65.5 -22 t65.5 6q8 4 11 -3t-1 -11q-31 -23 -76 -19t-77 17q-47 18 -74 56t-37 85zM147 1425q2 -10 3.5 -21t3.5 -24q8 6 18 6q27 19 23 58q-2 18 -10.5 24.5t-16.5 1t-14.5 -17.5t-6.5 -27z" />
<glyph unicode="&#xb0;" horiz-adv-x="344" d="M16 1221.5q0 54.5 17 105.5q10 31 25.5 61.5t41.5 53.5q6 6 21.5 14t32 12.5t30 3t19.5 -13.5h4q18 2 43 -10q18 -14 27.5 -35.5t17.5 -42.5q12 -31 18 -64.5t5 -67.5t-14 -66.5t-40 -59.5q-23 -25 -55.5 -41t-75.5 -10q-35 6 -55.5 22.5t-32.5 36.5q-29 47 -29 101.5z M57 1222.5q0 -24.5 6 -51.5q4 -18 14.5 -38.5t33.5 -32.5q35 -18 69.5 -6t55.5 34q20 25 30.5 53.5t12.5 55.5q0 35 -6.5 66.5t-16.5 64.5q-8 29 -23 49q-4 14 -18 17q-8 4 -17.5 -2.5t-13.5 -10.5q-6 -4 -13 0t-3 9l14 14t19 12q-18 4 -38 -7t-30 -22q-14 -12 -24.5 -25 t-20.5 -28q-20 -43 -27 -100q-4 -27 -4 -51.5z" />
<glyph unicode="&#xb1;" horiz-adv-x="1048" d="M0 708.5q0 22.5 14.5 40t42.5 17.5q86 -4 170 -10t170 -2q-4 84 -2 164.5t6 166.5q2 29 20.5 43.5t41 14.5t40 -14.5t17.5 -43.5q-2 -80 -8 -160.5t-4 -162.5q41 4 81 7t81 3q66 4 129 -1t129 -15q12 -2 29.5 -2t35 -2t31.5 -8.5t23 -18.5q6 -20 -20 -31.5t-69 -18.5 t-97 -9t-104 -2h-88t-51 -2q-27 -4 -51 -6.5t-51 -4.5q4 -45 7 -89t3 -89q4 -66 -1 -129t-15 -129q-4 -25 -9 -60.5t-32 -52.5q-4 -2 -7 2.5t1 8.5q12 10 13 33.5t-2 50t-8 51t-7 37.5q-10 59 -21.5 119.5t-21.5 119.5q-4 31 -6 60.5t-7 58.5q-86 -4 -171 -2t-175 6 q-29 2 -43 20.5t-14 41zM2 -61q-2 4 2 8t8 0q10 -12 34 -14.5t50.5 1t51 8.5t36.5 7q59 10 120 22.5t120 20.5q141 20 279.5 20t281.5 -6q29 -2 43 -20.5t14 -41t-14 -40t-43 -15.5q-94 4 -187 9.5t-188 -0.5q-59 -4 -118.5 -8.5t-118.5 -8.5q-66 -2 -129.5 2t-128.5 15 q-25 4 -61 9t-52 32z" />
<glyph unicode="&#xb2;" horiz-adv-x="288" d="M-2.5 1037.5q-9.5 11.5 0.5 21.5q6 6 12 9t10 7q14 12 25.5 27.5t22.5 32.5q16 25 33.5 47t33.5 47q20 31 39 60.5t29 64.5q4 16 8 30.5t-2 28.5q-4 16 -18.5 24.5t-32.5 10.5q-16 2 -43 -4t-37 -23q-2 -4 -6 -13t-6.5 -18.5t-1 -16.5t9.5 -7q2 0 2 -2t-2 -2 q-16 -4 -21.5 12.5t-3.5 28.5q2 23 16.5 38t32.5 23q20 10 46 12.5t48.5 -5t39 -23.5t16.5 -45q2 -41 -17.5 -82t-42.5 -76q-20 -33 -41.5 -63.5t-44.5 -61.5q-6 -10 -11 -17t-13 -16q16 -2 35.5 -5t36.5 -7q27 -4 59.5 -1t42.5 32q4 8 9 8t9 -8q6 -18 -1 -30.5t-21.5 -22 t-31.5 -14.5t-30 -5q-18 0 -36.5 5t-37 9.5t-37 4.5t-34.5 -9l-18 -12q-16 -6 -25.5 5.5z" />
<glyph unicode="&#xb3;" horiz-adv-x="301" d="M-12 1140.5q2 14.5 10 24.5q10 10 21.5 13.5t21.5 7.5q4 4 7 1t1 -7q-6 -8 -16 -14.5t-15 -14.5q-6 -12 -5 -26.5t12 -24.5q12 -16 34.5 -25.5t42.5 -11.5q37 -4 78 4t64 41q23 35 19.5 80t-34.5 74q-23 20 -53.5 27t-58.5 9q-18 -6 -41 -2q-8 0 -8 15v2q0 14 14 14 q2 0 4 -2q18 4 35.5 11t32.5 18q16 10 21 27.5t-13 31.5q-12 10 -30.5 11t-35.5 -1q-16 -2 -34.5 -7t-22.5 -23q0 -4 -3 -4t-5 4q-4 23 15.5 38t39.5 19q23 4 50.5 3t47.5 -17q25 -20 25 -48t-23 -51q-12 -12 -20 -18q29 -4 54.5 -14.5t43.5 -36.5q33 -41 33 -98.5 t-39 -94.5q-39 -35 -93 -44t-102 7q-29 10 -48 27.5t-25 46.5q-4 14 -2 28.5z" />
<glyph unicode="&#xb4;" horiz-adv-x="256" d="M23.5 1365q-3.5 9 3.5 19q31 53 83 105.5t109 77.5q8 4 14 -3.5t-2 -13.5q-51 -41 -86.5 -95t-76.5 -103q-6 -8 -16.5 -8.5t-17.5 6t-10.5 15.5z" />
<glyph unicode="&#xb7;" horiz-adv-x="149" d="M27 727q-6 23 8 40t37 19q4 0 5 -1t5 -1q2 0 3 1t5 1q6 0 8 -2q6 0 19 -8q18 -23 6 -45l-6 -8q-8 -16 -23 -23q-10 -6 -22 -6q-14 0 -23 6q-14 8 -22 27zM111 715l2 2q-2 0 -2 -2z" />
<glyph unicode="&#xb8;" horiz-adv-x="198" d="M20.5 -175q-6.5 11 10.5 23q4 4 9 3t3 -5q-4 -14 4 -18t20.5 -1t23.5 10t13 18q4 23 -14 40t-33 37q-10 12 -6 32t18.5 34t38 19.5t56.5 -9.5q4 -4 0 -7t-10 -1q-23 6 -37.5 4t-21.5 -8t-11 -14.5t-4 -14.5q0 -20 20 -41q10 -8 20.5 -16t16.5 -19q14 -18 10 -38.5 t-26 -36.5q-16 -10 -39 -11.5t-39 4t-22.5 16.5z" />
<glyph unicode="&#xb9;" horiz-adv-x="108" d="M-10 1360q0 2 4 2q10 8 18 16l19 19q22 19 30 39q4 12 16.5 11t12.5 -13q-2 -27 -3 -51.5t-5 -49.5t-4 -49t-2 -49q-4 -47 -8.5 -97.5t-14.5 -97.5q-2 -8 -8 -11t-12 -1t-10.5 7t-2.5 14q10 47 13.5 96t7.5 96q2 25 2 49.5t4 48.5q2 10 3 18.5t5 18.5q-14 -10 -29.5 -17 t-31.5 -3q-4 2 -4 4z" />
<glyph unicode="&#xba;" horiz-adv-x="344" d="M16 1221.5q0 54.5 17 105.5q10 31 25.5 61.5t41.5 53.5q6 6 21.5 14t32 12.5t30 3t19.5 -13.5h4q18 2 43 -10q18 -14 27.5 -35.5t17.5 -42.5q12 -31 18 -64.5t5 -67.5t-14 -66.5t-40 -59.5q-23 -25 -55.5 -41t-75.5 -10q-35 6 -55.5 22.5t-32.5 36.5q-29 47 -29 101.5z M57 1222.5q0 -24.5 6 -51.5q4 -18 14.5 -38.5t33.5 -32.5q35 -18 69.5 -6t55.5 34q20 25 30.5 53.5t12.5 55.5q0 35 -6.5 66.5t-16.5 64.5q-8 29 -23 49q-4 14 -18 17q-8 4 -17.5 -2.5t-13.5 -10.5q-6 -4 -13 0t-3 9l14 14t19 12q-18 4 -38 -7t-30 -22q-14 -12 -24.5 -25 t-20.5 -28q-20 -43 -27 -100q-4 -27 -4 -51.5z" />
<glyph unicode="&#xbb;" horiz-adv-x="790" d="M7 254q1 18 18 33q27 23 54 43t54 45q29 27 53.5 55.5t49.5 56.5q51 59 102 120t100 124q-66 47 -130 94t-124 103q-12 12 -43.5 42.5t-61.5 67.5t-46.5 73t4.5 56q6 6 6 0q18 -20 30.5 -41.5t35.5 -42.5q35 -31 70.5 -57.5t74.5 -52.5q72 -47 141.5 -95.5t143.5 -91.5 q16 -10 22 -31.5t-4 -37.5q-51 -82 -110.5 -156t-118.5 -147q-25 -29 -52.5 -63t-58.5 -66.5t-65.5 -57t-71.5 -34.5q-20 -6 -37.5 3t-27 24.5t-8.5 33.5zM232 254q1 18 18 33q27 23 54 43t54 45q29 27 53.5 55.5t49.5 56.5q51 59 102 120t101 124q-66 47 -130.5 94 t-123.5 103q-12 12 -44 42.5t-62 67.5t-46 73t4 56q6 6 6 0q18 -20 30.5 -41.5t35.5 -42.5q35 -31 70.5 -57.5t74.5 -52.5q72 -47 141.5 -95.5t143.5 -91.5q16 -10 22.5 -31.5t-4.5 -37.5q-51 -82 -110.5 -156t-118.5 -147q-25 -29 -52.5 -63t-58 -66.5t-65.5 -57t-72 -34.5 q-20 -6 -37.5 3t-27 24.5t-8.5 33.5z" />
<glyph unicode="&#xbf;" horiz-adv-x="692" d="M29 378q-2 91 22.5 178t67.5 149q23 33 52.5 57t60 44.5t63.5 40t61 46.5q80 72 90 176q4 49 16.5 95t24.5 96q2 4 7.5 4t7.5 -4q10 -35 25.5 -74t11.5 -76q-4 -41 -8.5 -85t-18.5 -85q-25 -66 -69 -109t-103 -77q-59 -35 -103 -75t-67 -106t-30 -135t5 -137 q6 -35 15.5 -70.5t27 -67.5t43 -55.5t64.5 -33.5q27 -8 62.5 -14.5t72.5 -8.5t71 3t60 22q74 45 92.5 124t-10.5 156q-10 31 -26.5 49.5t-51.5 18.5q-23 0 -39 2t-34 12q-14 8 -3 21q20 25 48 37t57 11t53.5 -15.5t40.5 -42.5q18 -35 25.5 -76t4.5 -83t-15.5 -82t-32.5 -73 q-39 -63 -97.5 -94t-132.5 -33q-72 -2 -147.5 10.5t-134.5 57.5q-66 49 -96.5 130t-32.5 172zM424 1401q-2 27 22 55q14 14 37 25.5t43 1.5q2 -2 2 -6q14 -4 23 -13q20 -23 10 -55q-8 -29 -32.5 -50t-57.5 -13q-18 6 -32.5 20t-14.5 35z" />
<glyph unicode="&#xc0;" horiz-adv-x="901" d="M-21 206q7 52 39 85q33 33 80 18q16 -6 34 -23.5t15 -37.5q-2 -10 -6 -21.5t-12 -19.5t-18.5 -10t-22.5 6q-6 4 -5 11t9 9q12 4 16.5 19.5t2.5 25.5q0 14 -14.5 19.5t-24.5 1.5q-33 -8 -47.5 -34t-22.5 -54q-6 -23 -2 -45.5t14 -38.5q16 -27 38 -35t43.5 -4t42 19.5 t34.5 35.5q59 86 86 191.5t41 207.5q4 31 7 62t7 59q-59 4 -103 31t-60 94q-2 4 2 6t6 -2q29 -53 71.5 -65t89.5 -4q8 90 13.5 179t15.5 179q2 29 6 75t12.5 97t22.5 101.5t38 88t58.5 56t83.5 6.5q35 -10 58.5 -27.5t42.5 -44.5q14 -14 24 -32q23 -35 41.5 -69t32.5 -73 q35 -100 47.5 -210t20.5 -214q10 -129 6 -257t-6 -257q-2 -63 1 -125.5t-3 -126.5q-2 -20 -20.5 -33.5t-41 -16.5t-41 3t-18.5 25q-8 180 -1 358t3 359q-63 -18 -150.5 -50t-173.5 -45q-18 -123 -49 -247q-23 -86 -55.5 -174t-102.5 -148q-25 -20 -52.5 -31.5t-55 -10.5 t-51 16.5t-37.5 50.5q-16 39 -9 91zM401 735q14 4 26.5 9.5t25.5 9.5q66 23 128 56.5t130 49.5q-2 66 -5.5 131.5t-7.5 130.5q-2 33 -5 74t-10 82t-22.5 78t-42.5 61q-35 33 -61.5 20.5t-44.5 -43t-29.5 -69.5t-15.5 -59q-16 -86 -24.5 -170t-18.5 -170q-6 -47 -11.5 -95.5 t-11.5 -95.5zM490 1768.5q6 7.5 14 3.5q57 -25 109.5 -77.5t82.5 -105.5q6 -10 3 -19t-10 -15.5t-17 -6.5t-17 8q-41 49 -76.5 103.5t-86.5 95.5q-8 6 -2 13.5z" />
<glyph unicode="&#xc1;" horiz-adv-x="901" d="M-21 206q7 52 39 85q33 33 80 18q16 -6 34 -23.5t15 -37.5q-2 -10 -6 -21.5t-12 -19.5t-18.5 -10t-22.5 6q-6 4 -5 11t9 9q12 4 16.5 19.5t2.5 25.5q0 14 -14.5 19.5t-24.5 1.5q-33 -8 -47.5 -34t-22.5 -54q-6 -23 -2 -45.5t14 -38.5q16 -27 38 -35t43.5 -4t42 19.5 t34.5 35.5q59 86 86 191.5t41 207.5q4 31 7 62t7 59q-59 4 -103 31t-60 94q-2 4 2 6t6 -2q29 -53 71.5 -65t89.5 -4q8 90 13.5 179t15.5 179q2 29 6 75t12.5 97t22.5 101.5t38 88t58.5 56t83.5 6.5q35 -10 58.5 -27.5t42.5 -44.5q14 -14 24 -32q23 -35 41.5 -69t32.5 -73 q35 -100 47.5 -210t20.5 -214q10 -129 6 -257t-6 -257q-2 -63 1 -125.5t-3 -126.5q-2 -20 -20.5 -33.5t-41 -16.5t-41 3t-18.5 25q-8 180 -1 358t3 359q-63 -18 -150.5 -50t-173.5 -45q-18 -123 -49 -247q-23 -86 -55.5 -174t-102.5 -148q-25 -20 -52.5 -31.5t-55 -10.5 t-51 16.5t-37.5 50.5q-16 39 -9 91zM394 1570q-3 9 3 19q31 53 83 105.5t110 77.5q8 4 14 -3.5t-2 -13.5q-51 -41 -87 -95t-77 -104q-6 -8 -16 -8t-17.5 6.5t-10.5 15.5zM401 735q14 4 26.5 9.5t25.5 9.5q66 23 128 56.5t130 49.5q-2 66 -5.5 131.5t-7.5 130.5q-2 33 -5 74 t-10 82t-22.5 78t-42.5 61q-35 33 -61.5 20.5t-44.5 -43t-29.5 -69.5t-15.5 -59q-16 -86 -24.5 -170t-18.5 -170q-6 -47 -11.5 -95.5t-11.5 -95.5z" />
<glyph unicode="&#xc2;" horiz-adv-x="901" d="M-21 206q7 52 39 85q33 33 80 18q16 -6 34 -23.5t15 -37.5q-2 -10 -6 -21.5t-12 -19.5t-18.5 -10t-22.5 6q-6 4 -5 11t9 9q12 4 16.5 19.5t2.5 25.5q0 14 -14.5 19.5t-24.5 1.5q-33 -8 -47.5 -34t-22.5 -54q-6 -23 -2 -45.5t14 -38.5q16 -27 38 -35t43.5 -4t42 19.5 t34.5 35.5q59 86 86 191.5t41 207.5q4 31 7 62t7 59q-59 4 -103 31t-60 94q-2 4 2 6t6 -2q29 -53 71.5 -65t89.5 -4q8 90 13.5 179t15.5 179q2 29 6 75t12.5 97t22.5 101.5t38 88t58.5 56t83.5 6.5q35 -10 58.5 -27.5t42.5 -44.5q14 -14 24 -32q23 -35 41.5 -69t32.5 -73 q35 -100 47.5 -210t20.5 -214q10 -129 6 -257t-6 -257q-2 -63 1 -125.5t-3 -126.5q-2 -20 -20.5 -33.5t-41 -16.5t-41 3t-18.5 25q-8 180 -1 358t3 359q-63 -18 -150.5 -50t-173.5 -45q-18 -123 -49 -247q-23 -86 -55.5 -174t-102.5 -148q-25 -20 -52.5 -31.5t-55 -10.5 t-51 16.5t-37.5 50.5q-16 39 -9 91zM377 1608q20 39 60 74t81 51q8 4 12.5 -4.5t-2.5 -12.5q-35 -31 -58.5 -69.5t-51.5 -71.5q-16 -18 -33.5 -3t-7.5 36zM401 735q14 4 26.5 9.5t25.5 9.5q66 23 128 56.5t130 49.5q-2 66 -5.5 131.5t-7.5 130.5q-2 33 -5 74t-10 82 t-22.5 78t-42.5 61q-35 33 -61.5 20.5t-44.5 -43t-29.5 -69.5t-15.5 -59q-16 -86 -24.5 -170t-18.5 -170q-6 -47 -11.5 -95.5t-11.5 -95.5zM586 1728.5q4 8.5 12 4.5q41 -16 80 -51t61 -74q6 -10 3 -19.5t-10 -15.5t-17 -7t-19 9q-29 33 -51 71.5t-57 69.5q-6 4 -2 12.5z " />
<glyph unicode="&#xc3;" horiz-adv-x="901" d="M-21 206q7 52 39 85q33 33 80 18q16 -6 34 -23.5t15 -37.5q-2 -10 -6 -21.5t-12 -19.5t-18.5 -10t-22.5 6q-6 4 -5 11t9 9q12 4 16.5 19.5t2.5 25.5q0 14 -14.5 19.5t-24.5 1.5q-33 -8 -47.5 -34t-22.5 -54q-6 -23 -2 -45.5t14 -38.5q16 -27 38 -35t43.5 -4t42 19.5 t34.5 35.5q59 86 86 191.5t41 207.5q4 31 7 62t7 59q-59 4 -103 31t-60 94q-2 4 2 6t6 -2q29 -53 71.5 -65t89.5 -4q8 90 13.5 179t15.5 179q2 29 6 75t12.5 97t22.5 101.5t38 88t58.5 56t83.5 6.5q35 -10 58.5 -27.5t42.5 -44.5q14 -14 24 -32q23 -35 41.5 -69t32.5 -73 q35 -100 47.5 -210t20.5 -214q10 -129 6 -257t-6 -257q-2 -63 1 -125.5t-3 -126.5q-2 -20 -20.5 -33.5t-41 -16.5t-41 3t-18.5 25q-8 180 -1 358t3 359q-63 -18 -150.5 -50t-173.5 -45q-18 -123 -49 -247q-23 -86 -55.5 -174t-102.5 -148q-25 -20 -52.5 -31.5t-55 -10.5 t-51 16.5t-37.5 50.5q-16 39 -9 91zM373.5 1563.5q9.5 23.5 36 38t61.5 17.5t59 -5q35 -14 69 -33.5t75 -13.5q16 2 29.5 13t17.5 22.5t-3 19.5t-32 4q-6 0 -8 5t4 9q25 16 44 10.5t29.5 -23t8.5 -39t-23 -38.5q-29 -23 -66.5 -26.5t-70.5 10.5q-18 6 -33.5 15.5t-31.5 19.5 t-34 16t-38 4q-12 0 -27.5 -3t-27 -10t-15 -21t8.5 -37q4 -6 -3.5 -10.5t-11.5 -0.5q-27 33 -17.5 56.5zM401 735q14 4 26.5 9.5t25.5 9.5q66 23 128 56.5t130 49.5q-2 66 -5.5 131.5t-7.5 130.5q-2 33 -5 74t-10 82t-22.5 78t-42.5 61q-35 33 -61.5 20.5t-44.5 -43 t-29.5 -69.5t-15.5 -59q-16 -86 -24.5 -170t-18.5 -170q-6 -47 -11.5 -95.5t-11.5 -95.5z" />
<glyph unicode="&#xc4;" horiz-adv-x="901" d="M-21 206q7 52 39 85q33 33 80 18q16 -6 34 -23.5t15 -37.5q-2 -10 -6 -21.5t-12 -19.5t-18.5 -10t-22.5 6q-6 4 -5 11t9 9q12 4 16.5 19.5t2.5 25.5q0 14 -14.5 19.5t-24.5 1.5q-33 -8 -47.5 -34t-22.5 -54q-6 -23 -2 -45.5t14 -38.5q16 -27 38 -35t43.5 -4t42 19.5 t34.5 35.5q59 86 86 191.5t41 207.5q4 31 7 62t7 59q-59 4 -103 31t-60 94q-2 4 2 6t6 -2q29 -53 71.5 -65t89.5 -4q8 90 13.5 179t15.5 179q2 29 6 75t12.5 97t22.5 101.5t38 88t58.5 56t83.5 6.5q35 -10 58.5 -27.5t42.5 -44.5q14 -14 24 -32q23 -35 41.5 -69t32.5 -73 q35 -100 47.5 -210t20.5 -214q10 -129 6 -257t-6 -257q-2 -63 1 -125.5t-3 -126.5q-2 -20 -20.5 -33.5t-41 -16.5t-41 3t-18.5 25q-8 180 -1 358t3 359q-63 -18 -150.5 -50t-173.5 -45q-18 -123 -49 -247q-23 -86 -55.5 -174t-102.5 -148q-25 -20 -52.5 -31.5t-55 -10.5 t-51 16.5t-37.5 50.5q-16 39 -9 91zM401 735q14 4 26.5 9.5t25.5 9.5q66 23 128 56.5t130 49.5q-2 66 -5.5 131.5t-7.5 130.5q-2 33 -5 74t-10 82t-22.5 78t-42.5 61q-35 33 -61.5 20.5t-44.5 -43t-29.5 -69.5t-15.5 -59q-16 -86 -24.5 -170t-18.5 -170q-6 -47 -11.5 -95.5 t-11.5 -95.5zM436 1587q-6 23 8.5 40.5t36.5 19.5q4 0 5 -1t6 -1q2 0 3 1t5 1q6 0 8 -2q6 0 18 -9q18 -23 6 -45l-6 -8q-8 -16 -22 -22q-10 -6 -23 -7q-14 0 -22 7q-14 8 -23 26zM487 1640l2 2zM520 1575l2 2q-2 0 -2 -2zM580 1587q-6 23 8 40.5t37 19.5q2 0 4 -1t4 -1 q4 0 5 1t5 1q6 0 8 -2q6 0 19 -9q18 -23 6 -45l-6 -8q-4 -6 -9.5 -12t-13.5 -10q-10 -6 -22 -7q-12 0 -25 7q-12 8 -20 26zM631 1640l2 2zM664 1575q0 2 2 2z" />
<glyph unicode="&#xc5;" horiz-adv-x="901" d="M-21 206q7 52 39 85q33 33 80 18q16 -6 34 -23.5t15 -37.5q-2 -10 -6 -21.5t-12 -19.5t-18.5 -10t-22.5 6q-6 4 -5 11t9 9q12 4 16.5 19.5t2.5 25.5q0 14 -14.5 19.5t-24.5 1.5q-33 -8 -47.5 -34t-22.5 -54q-6 -23 -2 -45.5t14 -38.5q16 -27 38 -35t43.5 -4t42 19.5 t34.5 35.5q59 86 86 191.5t41 207.5q4 31 7 62t7 59q-59 4 -103 31t-60 94q-2 4 2 6t6 -2q29 -53 71.5 -65t89.5 -4q8 90 13.5 179t15.5 179q2 33 7 86t15.5 110.5t29 111t51.5 85.5q-14 20 -17 39q-12 51 11.5 99.5t72.5 70.5q53 23 108.5 1.5t71.5 -79.5q6 -27 7.5 -53 t-9.5 -51q-14 -33 -39 -51q72 -82 111 -191q35 -100 47.5 -210t20.5 -214q10 -129 6 -257t-6 -257q-2 -63 1 -125.5t-3 -126.5q-2 -20 -20.5 -33.5t-41 -16.5t-41 3t-18.5 25q-8 180 -1 358t3 359q-63 -18 -150.5 -50t-173.5 -45q-18 -123 -49 -247q-23 -86 -55.5 -174 t-102.5 -148q-25 -20 -52.5 -31.5t-55 -10.5t-51 16.5t-37.5 50.5q-16 39 -9 91zM401 735l52 19q66 23 128 56.5t130 49.5q-2 66 -5.5 131.5t-7.5 130.5q-2 33 -5 74t-10 82t-22.5 78t-42.5 61q-35 33 -61.5 20.5t-44.5 -43t-29.5 -69.5t-15.5 -59q-16 -86 -24.5 -170 t-18.5 -170zM473 1528q0 -20 14 -39q37 16 82 6q14 -4 26.5 -9t22.5 -13q10 8 19.5 16t13.5 20q4 14 5 29.5t-5 28.5q-16 29 -41.5 49t-60.5 10t-57.5 -35.5t-18.5 -62.5z" />
<glyph unicode="&#xc6;" horiz-adv-x="1499" d="M-21 206q7 52 39 85q33 33 80 18q16 -6 34 -23.5t15 -37.5q-2 -10 -6 -21.5t-12 -19.5t-18.5 -10t-22.5 6q-6 4 -5 11t9 9q12 4 16.5 19.5t2.5 25.5q0 14 -14.5 19.5t-24.5 1.5q-33 -8 -47.5 -34t-22.5 -54q-6 -23 -2 -45.5t14 -38.5q16 -27 38 -35t43.5 -4t42 19.5 t34.5 35.5q59 86 86 191.5t41 207.5q4 31 7 62t7 59q-59 4 -103 31t-60 94q-2 4 2 6t6 -2q29 -53 71.5 -65t89.5 -4q8 90 13.5 179t15.5 179q2 29 6 75t12.5 97t22.5 101.5t38 88t58.5 56t83.5 6.5q35 -10 58.5 -27.5t42.5 -44.5q14 -14 24 -32q23 -35 41.5 -69t32.5 -73 q35 -100 47 -209.5t21 -214.5q2 -27 3 -51t1 -51q35 41 76.5 74.5t91.5 56.5q-45 31 -77 72t-49.5 90t-17.5 103.5t19 107.5q14 43 35.5 83t54.5 73.5t81 59t120 42.5q49 12 99 5t97 -26q57 -23 93 -67.5t48.5 -99t0 -112t-51.5 -106.5q-41 -49 -101.5 -67.5t-117.5 22.5 q-53 39 -70.5 96.5t17.5 116.5q8 14 20.5 16.5t23.5 -3t18 -16.5t5 -25q-10 -41 6.5 -74t57.5 -43q117 -25 141 98q23 88 -21 153.5t-136 76.5q-84 10 -168 -29t-129 -113q-35 -59 -40 -126.5t19.5 -127t75.5 -100.5t127 -43q14 0 20 -8.5t6 -19.5t-6 -20t-20 -9 q-47 -4 -91 -18.5t-83 -37.5q-74 -59 -115 -149t-49 -183q-4 -59 6 -122.5t43 -116.5q10 -14 19.5 -25.5t21.5 -21.5q68 -47 149.5 -51.5t162.5 22.5t153 78.5t117 114.5q6 10 16 4t6 -17q-25 -49 -63.5 -97t-85.5 -90t-100.5 -70.5t-110.5 -37.5q-94 -16 -186.5 6.5 t-161.5 88.5v-26.5t-2 -25.5q-2 -20 -20.5 -33.5t-41 -16.5t-41 3t-18.5 25q-8 180 -1 358t3 359q-63 -18 -150.5 -50t-173.5 -45q-18 -123 -49 -247q-23 -86 -55.5 -174t-102.5 -148q-25 -20 -52.5 -31.5t-55 -10.5t-51 16.5t-37.5 50.5q-16 39 -9 91zM401 735l52 19 q66 23 128 56.5t130 49.5q-2 66 -5.5 131.5t-7.5 130.5q-2 33 -5 74t-10 82t-22.5 78t-42.5 61q-35 33 -61.5 20.5t-44.5 -43t-29.5 -69.5t-15.5 -59q-16 -86 -24.5 -170t-18.5 -170z" />
<glyph unicode="&#xc7;" horiz-adv-x="798" d="M-21.5 475.5q5.5 112.5 19.5 222.5q18 129 63 246q6 23 13.5 44.5t15.5 43.5q23 61 53.5 125t71.5 121t94 101t121 65q63 18 125.5 7t118.5 -46q25 -16 46 -40t33.5 -52.5t10.5 -60t-23 -60.5q-37 -53 -98 -67.5t-119 5.5q-23 8 -47 28t-38.5 42.5t-12.5 45t37 38.5 q8 4 14 0t4 -14q-4 -18 5.5 -32.5t26.5 -27t35.5 -20.5t33.5 -10q47 -12 75.5 -5t55.5 48q31 45 15.5 82.5t-53.5 65.5t-87 42t-86 12q-78 -4 -127 -49t-90 -106q-10 -14 -25.5 -48t-31 -73t-29 -74t-17.5 -51q-16 -66 -36.5 -131.5t-30.5 -132.5q-6 -47 -11.5 -94.5 t-7.5 -94.5q0 -41 2 -79.5t8 -79.5q4 -37 14.5 -80t28 -83t45 -72t68.5 -46q98 -35 176 -5t143.5 91.5t122 138t115.5 133.5q8 8 18.5 1t4.5 -17q-49 -68 -95.5 -139.5t-98.5 -134t-117.5 -109.5t-153.5 -65q-2 0 -3 -1t-3 -1q16 -14 21 -35t-5 -35q-14 -20 -32.5 -37.5 t-14.5 -40.5q2 -10 13.5 -17.5t23.5 -10.5t20.5 1.5t3.5 18.5q-2 4 3.5 5t9.5 -3q14 -20 7 -33.5t-24.5 -19.5t-39 -3t-35.5 17q-31 31 -22 61.5t44 55.5q20 20 21 41q-2 8 -6.5 17t-14.5 15q-33 -4 -57 0q-109 -2 -179.5 62.5t-101.5 171.5q-33 109 -27.5 221.5z" />
<glyph unicode="&#xc8;" horiz-adv-x="786" d="M-20.5 381q-2.5 98 32.5 190.5t102.5 167t155.5 115.5q-45 31 -76.5 72t-49 90t-17.5 103.5t18 107.5q14 43 36 83t54.5 73.5t81 59t119.5 42.5q49 12 99.5 5t97.5 -26q57 -23 93 -67.5t48 -99t0 -112t-51 -106.5q-41 -49 -101.5 -67.5t-117.5 22.5q-53 39 -70.5 96.5 t17.5 116.5q8 14 20 16.5t23.5 -3t18.5 -16.5t5 -25q-10 -41 6.5 -74t57.5 -43q117 -25 141 98q23 88 -21.5 153.5t-136.5 76.5q-84 10 -168 -29t-129 -113q-35 -59 -40 -126.5t19.5 -127t76 -100.5t127.5 -43q14 0 20 -8.5t6 -19.5t-6 -20t-20 -9q-47 -4 -91.5 -18.5 t-83.5 -37.5q-74 -59 -114.5 -149t-48.5 -183q-4 -59 6 -122.5t43 -116.5q10 -14 19 -25.5t22 -21.5q68 -47 149.5 -51.5t162.5 22.5t152.5 78.5t116.5 114.5q6 10 16.5 4t6.5 -17q-25 -49 -63.5 -97t-86 -90t-100.5 -70.5t-111 -37.5q-121 -20 -234.5 24t-178.5 155 q-51 88 -53.5 186zM408 1768.5q6 7.5 14 3.5q57 -25 109.5 -77.5t82.5 -105.5q6 -10 3 -19t-10 -15.5t-17 -6.5t-17 8q-41 49 -76.5 103.5t-86.5 95.5q-8 6 -2 13.5z" />
<glyph unicode="&#xc9;" horiz-adv-x="786" d="M-20.5 381q-2.5 98 32.5 190.5t102.5 167t155.5 115.5q-45 31 -76.5 72t-49 90t-17.5 103.5t18 107.5q14 43 36 83t54.5 73.5t81 59t119.5 42.5q49 12 99.5 5t97.5 -26q57 -23 93 -67.5t48 -99t0 -112t-51 -106.5q-41 -49 -101.5 -67.5t-117.5 22.5q-53 39 -70.5 96.5 t17.5 116.5q8 14 20 16.5t23.5 -3t18.5 -16.5t5 -25q-10 -41 6.5 -74t57.5 -43q117 -25 141 98q23 88 -21.5 153.5t-136.5 76.5q-84 10 -168 -29t-129 -113q-35 -59 -40 -126.5t19.5 -127t76 -100.5t127.5 -43q14 0 20 -8.5t6 -19.5t-6 -20t-20 -9q-47 -4 -91.5 -18.5 t-83.5 -37.5q-74 -59 -114.5 -149t-48.5 -183q-4 -59 6 -122.5t43 -116.5q10 -14 19 -25.5t22 -21.5q68 -47 149.5 -51.5t162.5 22.5t152.5 78.5t116.5 114.5q6 10 16.5 4t6.5 -17q-25 -49 -63.5 -97t-86 -90t-100.5 -70.5t-111 -37.5q-121 -20 -234.5 24t-178.5 155 q-51 88 -53.5 186zM331 1570q-3 9 3 19q31 53 83 105.5t109 77.5q8 4 14.5 -3.5t-1.5 -13.5q-51 -41 -87 -95t-77 -104q-6 -8 -16.5 -8t-17.5 6.5t-10 15.5z" />
<glyph unicode="&#xca;" horiz-adv-x="786" d="M-20.5 381q-2.5 98 32.5 190.5t102.5 167t155.5 115.5q-45 31 -76.5 72t-49 90t-17.5 103.5t18 107.5q14 43 36 83t54.5 73.5t81 59t119.5 42.5q49 12 99.5 5t97.5 -26q57 -23 93 -67.5t48 -99t0 -112t-51 -106.5q-41 -49 -101.5 -67.5t-117.5 22.5q-53 39 -70.5 96.5 t17.5 116.5q8 14 20 16.5t23.5 -3t18.5 -16.5t5 -25q-10 -41 6.5 -74t57.5 -43q117 -25 141 98q23 88 -21.5 153.5t-136.5 76.5q-84 10 -168 -29t-129 -113q-35 -59 -40 -126.5t19.5 -127t76 -100.5t127.5 -43q14 0 20 -8.5t6 -19.5t-6 -20t-20 -9q-47 -4 -91.5 -18.5 t-83.5 -37.5q-74 -59 -114.5 -149t-48.5 -183q-4 -59 6 -122.5t43 -116.5q10 -14 19 -25.5t22 -21.5q68 -47 149.5 -51.5t162.5 22.5t152.5 78.5t116.5 114.5q6 10 16.5 4t6.5 -17q-25 -49 -63.5 -97t-86 -90t-100.5 -70.5t-111 -37.5q-121 -20 -234.5 24t-178.5 155 q-51 88 -53.5 186zM295 1608q20 39 60 74t81 51q8 4 12.5 -4.5t-2.5 -12.5q-35 -31 -58 -69.5t-52 -71.5q-16 -18 -33.5 -3t-7.5 36zM504 1728.5q4 8.5 12 4.5q41 -16 80 -51t61 -74q6 -10 3 -19.5t-10 -15.5t-17 -7t-19 9q-29 33 -51 71.5t-57 69.5q-6 4 -2 12.5z" />
<glyph unicode="&#xcb;" horiz-adv-x="786" d="M-20.5 381q-2.5 98 32.5 190.5t102.5 167t155.5 115.5q-45 31 -76.5 72t-49 90t-17.5 103.5t18 107.5q14 43 36 83t54.5 73.5t81 59t119.5 42.5q49 12 99.5 5t97.5 -26q57 -23 93 -67.5t48 -99t0 -112t-51 -106.5q-41 -49 -101.5 -67.5t-117.5 22.5q-53 39 -70.5 96.5 t17.5 116.5q8 14 20 16.5t23.5 -3t18.5 -16.5t5 -25q-10 -41 6.5 -74t57.5 -43q117 -25 141 98q23 88 -21.5 153.5t-136.5 76.5q-84 10 -168 -29t-129 -113q-35 -59 -40 -126.5t19.5 -127t76 -100.5t127.5 -43q14 0 20 -8.5t6 -19.5t-6 -20t-20 -9q-47 -4 -91.5 -18.5 t-83.5 -37.5q-74 -59 -114.5 -149t-48.5 -183q-4 -59 6 -122.5t43 -116.5q10 -14 19 -25.5t22 -21.5q68 -47 149.5 -51.5t162.5 22.5t152.5 78.5t116.5 114.5q6 10 16.5 4t6.5 -17q-25 -49 -63.5 -97t-86 -90t-100.5 -70.5t-111 -37.5q-121 -20 -234.5 24t-178.5 155 q-51 88 -53.5 186zM334 1587q-6 23 8 40.5t37 19.5q4 0 5 -1t5 -1q2 0 3 1t5 1q6 0 9 -2q6 0 18 -9q18 -23 6 -45l-6 -8q-8 -16 -23 -22q-10 -6 -22 -7q-14 0 -23 7q-14 8 -22 26zM418 1575l2 2q-2 0 -2 -2zM477 1587q-6 23 8.5 40.5t36.5 19.5q2 0 4 -1t4 -1q4 0 5.5 1 t5.5 1q6 0 8 -2q6 0 18 -9q18 -23 6 -45l-6 -8q-4 -6 -9 -12t-13 -10q-10 -6 -23 -7q-12 0 -24 7q-12 8 -21 26zM561 1575q0 2 2 2z" />
<glyph unicode="&#xcc;" horiz-adv-x="673" d="M-20 1286q-6 47 23.5 90t64.5 70q31 25 68.5 40t78.5 24.5t83 12.5t79 3q45 0 88 -5t84 -18q53 -14 106.5 -30.5t108.5 -8.5q20 2 34.5 -8t18.5 -25.5t-2 -31t-27 -21.5q-39 -10 -73.5 -7t-69.5 12.5t-68.5 20.5t-70.5 17q-47 10 -90 13q-27 -8 -45.5 -24.5t-26.5 -47.5 q-12 -47 -11 -95t7 -96q8 -72 25.5 -141t36 -139t37 -139.5t28.5 -139.5q16 -104 17 -227t-46 -227l37 -13q61 -18 111.5 -6.5t105.5 37.5q4 2 8.5 -2t-0.5 -8q-23 -18 -47 -32.5t-53 -20.5q-47 -10 -88 0t-82 26q-10 -16 -19.5 -30.5t-21.5 -28.5q-39 -45 -99.5 -61.5 t-117.5 -8.5q-25 4 -48.5 15.5t-38.5 29t-19.5 40t8.5 48.5q14 31 39.5 49.5t56.5 25.5t64.5 5t62.5 -10q20 -4 38.5 -11t37.5 -16q23 66 19.5 145t-17.5 140q-31 135 -62.5 267t-60.5 268q-10 43 -19.5 90t-12.5 94t2 94t26 88q18 35 39 60q-16 -2 -31.5 -3.5t-32.5 -3.5 q-49 -8 -104.5 -24.5t-83.5 -61.5q-12 -20 -8 -39.5t18 -34t35.5 -21.5t44.5 -1q43 14 25 51q-6 12 -15.5 18.5t-21.5 10.5q-2 0 -2 4q6 16 18 21.5t25.5 2.5t24.5 -12.5t18 -23.5q10 -29 -0.5 -58.5t-38.5 -39.5q-23 -10 -53.5 -14.5t-61.5 5.5q-25 8 -41 25.5t-22 52.5z M92 99q6 -17 21.5 -29.5t37 -17.5t39.5 -5q72 0 113 33t64 86q-47 20 -91 29q-23 4 -49 6t-51.5 -3t-47.5 -18.5t-32 -38.5t-4 -42zM305 1809.5q6 7.5 14 2.5q57 -25 109.5 -77t83.5 -105q6 -10 3 -19t-10 -15.5t-17.5 -6.5t-16.5 8q-41 49 -77 103.5t-87 95.5q-8 6 -2 13.5 z" />
<glyph unicode="&#xcd;" horiz-adv-x="673" d="M-20 1286q-6 47 23.5 90t64.5 70q31 25 68.5 40t78.5 24.5t83 12.5t79 3q45 0 88 -5t84 -18q53 -14 106.5 -30.5t108.5 -8.5q20 2 34.5 -8t18.5 -25.5t-2 -31t-27 -21.5q-39 -10 -73.5 -7t-69.5 12.5t-68.5 20.5t-70.5 17q-47 10 -90 13q-27 -8 -45.5 -24.5t-26.5 -47.5 q-12 -47 -11 -95t7 -96q8 -72 25.5 -141t36 -139t37 -139.5t28.5 -139.5q16 -104 17 -227t-46 -227l37 -13q61 -18 111.5 -6.5t105.5 37.5q4 2 8.5 -2t-0.5 -8q-23 -18 -47 -32.5t-53 -20.5q-47 -10 -88 0t-82 26q-10 -16 -19.5 -30.5t-21.5 -28.5q-39 -45 -99.5 -61.5 t-117.5 -8.5q-25 4 -48.5 15.5t-38.5 29t-19.5 40t8.5 48.5q14 31 39.5 49.5t56.5 25.5t64.5 5t62.5 -10q20 -4 38.5 -11t37.5 -16q23 66 19.5 145t-17.5 140q-31 135 -62.5 267t-60.5 268q-10 43 -19.5 90t-12.5 94t2 94t26 88q18 35 39 60q-16 -2 -31.5 -3.5t-32.5 -3.5 q-49 -8 -104.5 -24.5t-83.5 -61.5q-12 -20 -8 -39.5t18 -34t35.5 -21.5t44.5 -1q43 14 25 51q-6 12 -15.5 18.5t-21.5 10.5q-2 0 -2 4q6 16 18 21.5t25.5 2.5t24.5 -12.5t18 -23.5q10 -29 -0.5 -58.5t-38.5 -39.5q-23 -10 -53.5 -14.5t-61.5 5.5q-25 8 -41 25.5t-22 52.5z M92 99q6 -17 21.5 -29.5t37 -17.5t39.5 -5q72 0 113 33t64 86q-47 20 -91 29q-23 4 -49 6t-51.5 -3t-47.5 -18.5t-32 -38.5t-4 -42zM228 1611q-3 9 3 19q31 53 83.5 105.5t109.5 76.5q8 4 14 -3t-2 -13q-51 -41 -87 -95t-77 -104q-6 -8 -16 -8t-17.5 6.5t-10.5 15.5z" />
<glyph unicode="&#xce;" horiz-adv-x="673" d="M-20 1286q-6 47 23.5 90t64.5 70q31 25 68.5 40t78.5 24.5t83 12.5t79 3q45 0 88 -5t84 -18q53 -14 106.5 -30.5t108.5 -8.5q20 2 34.5 -8t18.5 -25.5t-2 -31t-27 -21.5q-39 -10 -73.5 -7t-69.5 12.5t-68.5 20.5t-70.5 17q-47 10 -90 13q-27 -8 -45.5 -24.5t-26.5 -47.5 q-12 -47 -11 -95t7 -96q8 -72 25.5 -141t36 -139t37 -139.5t28.5 -139.5q16 -104 17 -227t-46 -227l37 -13q61 -18 111.5 -6.5t105.5 37.5q4 2 8.5 -2t-0.5 -8q-23 -18 -47 -32.5t-53 -20.5q-47 -10 -88 0t-82 26q-10 -16 -19.5 -30.5t-21.5 -28.5q-39 -45 -99.5 -61.5 t-117.5 -8.5q-25 4 -48.5 15.5t-38.5 29t-19.5 40t8.5 48.5q14 31 39.5 49.5t56.5 25.5t64.5 5t62.5 -10q20 -4 38.5 -11t37.5 -16q23 66 19.5 145t-17.5 140q-31 135 -62.5 267t-60.5 268q-10 43 -19.5 90t-12.5 94t2 94t26 88q18 35 39 60q-16 -2 -31.5 -3.5t-32.5 -3.5 q-49 -8 -104.5 -24.5t-83.5 -61.5q-12 -20 -8 -39.5t18 -34t35.5 -21.5t44.5 -1q43 14 25 51q-6 12 -15.5 18.5t-21.5 10.5q-2 0 -2 4q6 16 18 21.5t25.5 2.5t24.5 -12.5t18 -23.5q10 -29 -0.5 -58.5t-38.5 -39.5q-23 -10 -53.5 -14.5t-61.5 5.5q-25 8 -41 25.5t-22 52.5z M92 99q6 -17 21.5 -29.5t37 -17.5t39.5 -5q72 0 113 33t64 86q-47 20 -91 29q-23 4 -49 6t-51.5 -3t-47.5 -18.5t-32 -38.5t-4 -42zM156 1655q20 39 60 74t81 51q8 4 12 -4.5t-2 -12.5q-35 -31 -58.5 -69.5t-51.5 -71.5q-16 -18 -34 -3t-7 36zM365 1775.5q4 8.5 12 4.5 q41 -16 80 -51t61 -74q6 -10 3 -19.5t-10 -15.5t-17.5 -7t-18.5 9q-29 33 -51 71.5t-57 69.5q-6 4 -2 12.5z" />
<glyph unicode="&#xcf;" horiz-adv-x="673" d="M-20 1286q-6 47 23.5 90t64.5 70q31 25 68.5 40t78.5 24.5t83 12.5t79 3q45 0 88 -5t84 -18q53 -14 106.5 -30.5t108.5 -8.5q20 2 34.5 -8t18.5 -25.5t-2 -31t-27 -21.5q-39 -10 -73.5 -7t-69.5 12.5t-68.5 20.5t-70.5 17q-47 10 -90 13q-27 -8 -45.5 -24.5t-26.5 -47.5 q-12 -47 -11 -95t7 -96q8 -72 25.5 -141t36 -139t37 -139.5t28.5 -139.5q16 -104 17 -227t-46 -227l37 -13q61 -18 111.5 -6.5t105.5 37.5q4 2 8.5 -2t-0.5 -8q-23 -18 -47 -32.5t-53 -20.5q-47 -10 -88 0t-82 26q-10 -16 -19.5 -30.5t-21.5 -28.5q-39 -45 -99.5 -61.5 t-117.5 -8.5q-25 4 -48.5 15.5t-38.5 29t-19.5 40t8.5 48.5q14 31 39.5 49.5t56.5 25.5t64.5 5t62.5 -10q20 -4 38.5 -11t37.5 -16q23 66 19.5 145t-17.5 140q-31 135 -62.5 267t-60.5 268q-10 43 -19.5 90t-12.5 94t2 94t26 88q18 35 39 60q-16 -2 -31.5 -3.5t-32.5 -3.5 q-49 -8 -104.5 -24.5t-83.5 -61.5q-12 -20 -8 -39.5t18 -34t35.5 -21.5t44.5 -1q43 14 25 51q-6 12 -15.5 18.5t-21.5 10.5q-2 0 -2 4q6 16 18 21.5t25.5 2.5t24.5 -12.5t18 -23.5q10 -29 -0.5 -58.5t-38.5 -39.5q-23 -10 -53.5 -14.5t-61.5 5.5q-25 8 -41 25.5t-22 52.5z M92 99q6 -17 21.5 -29.5t37 -17.5t39.5 -5q72 0 113 33t64 86q-47 20 -91 29q-23 4 -49 6t-51.5 -3t-47.5 -18.5t-32 -38.5t-4 -42zM217 1628q-6 23 8.5 40.5t36.5 19.5q4 0 5 -1t5 -1q2 0 3.5 1t5.5 1q6 0 8 -2q6 0 18 -9q18 -23 6 -45l-6 -8q-8 -16 -22 -22q-10 -6 -23 -7 q-14 0 -22 7q-14 8 -23 26zM301 1616l2 2q-2 0 -2 -2zM360 1628q-6 23 8.5 40.5t37.5 19.5q2 0 4 -1t4 -1q4 0 5 1t5 1q6 0 8 -2q6 0 19 -9q18 -23 6 -45l-6 -8q-4 -6 -9.5 -12t-13.5 -10q-10 -6 -22 -7q-12 0 -25 7q-12 8 -21 26zM444 1616q0 2 2 2z" />
<glyph unicode="&#xd0;" horiz-adv-x="819" d="M-24.5 1204.5q-0.5 28.5 6.5 57.5q10 55 48 95t90 63.5t112.5 30.5t113.5 -1q80 -12 148.5 -57t122 -107.5t91 -137.5t56.5 -149q20 -84 27.5 -178t-1 -187t-35 -182.5t-73.5 -162.5q-49 -78 -112.5 -134.5t-149.5 -91.5q-33 -14 -71 -26t-78 -16.5t-78.5 1t-71.5 25.5 q-72 45 -84 121t39 143q33 41 84 86t110 62q4 55 6.5 111.5t2.5 111.5q-25 -4 -47.5 -6t-45.5 -2q-33 -4 -64.5 0t-64.5 12q-12 2 -30.5 6t-26.5 25q0 4 2 6t4 -2q6 -8 17.5 -9t24.5 1t25.5 5t18.5 5q29 10 59.5 18.5t59.5 14.5q16 4 32.5 6t32.5 4q-4 82 -10 163t-22 158 q-4 16 -11.5 45t-19.5 57t-29.5 46t-42.5 14q-4 0 -6 4t2 7q31 14 55.5 3.5t43 -34t32 -52t21.5 -51.5q29 -86 44 -174t23 -180q35 0 68 -1t68 -3q14 -2 21 -16.5t7 -30.5t-7 -29.5t-21 -13.5q-33 0 -66 4t-66 6q6 -117 0 -231q39 -16 39 -57.5t-39 -63.5l-16 -6 q-2 -16 -4 -29.5t-6 -28.5q-8 -27 -19.5 -58.5t-33.5 -49.5q-18 -14 -34 -18.5t-38 -0.5q-29 4 -38 29t-5 47q0 12 13.5 16.5t21.5 -6.5q10 -12 19 3.5t11 19.5q4 14 8.5 26.5t8.5 26.5q-14 0 -21 -2q-29 -2 -61.5 -2t-59.5 -12q-27 -35 -39 -77t11 -83q27 -49 73 -65.5 t97 -13.5t102 23.5t88 45.5q78 53 138.5 136t89.5 173q29 88 31.5 184.5t-3.5 188.5q-6 94 -27.5 185t-74.5 169q-55 86 -139 147.5t-189 63.5q-29 0 -63.5 -3t-68.5 -11t-62.5 -23.5t-44.5 -40.5q-12 -20 -21.5 -40.5t-9.5 -45.5q0 -20 7 -36.5t30 -20.5q29 -4 45 10 q2 2 8 -2q4 -20 -11.5 -32.5t-33.5 -14.5q-41 0 -57 45q-6 23 -6.5 51.5zM135 326q29 8 58.5 11t58.5 7h4q4 20 4 31l6 43q-29 -10 -54.5 -26t-41.5 -32q-18 -16 -35 -34zM352 377q10 10 14 22.5t-10 20.5q0 -10 -1 -21.5t-3 -21.5z" />
<glyph unicode="&#xd1;" horiz-adv-x="890" d="M-98 1332.5q0 31.5 10 58.5q8 16 19.5 32.5t27.5 24.5q31 27 72 29t75 -21q41 -31 61.5 -81t31.5 -103q70 -102 124 -216t95 -229q29 -86 56.5 -170t62.5 -170q33 -78 68.5 -155.5t82.5 -147.5q14 -18 29.5 -38.5t36.5 -34.5q8 129 -4.5 259t-20.5 257 q-6 119 -16.5 236.5t-5.5 236.5q2 74 -6.5 152.5t12.5 150.5q10 29 27.5 54.5t50.5 29.5q76 14 96 -62q4 -10 -3 -23t-20 -18q-10 -2 -21.5 2.5t-17.5 -6.5q-8 -12 -8 -32.5t-2 -36.5q0 -51 3 -100.5t3 -100.5q-2 -63 1 -125.5t7 -126.5q4 -152 12.5 -301t0.5 -301 q-2 -27 -3 -77t-12.5 -93t-38 -61.5t-77.5 22.5q-53 41 -90 100.5t-68 118.5q-37 78 -69.5 157t-61.5 161q-53 147 -100.5 292.5t-110.5 286.5q2 -14 2 -26.5v-26.5q8 -129 12 -256t4 -256q0 -86 -1 -172t3 -172q0 -31 -2 -61.5t-2 -61.5q0 -16 -1 -27.5t1 -27.5 q2 -8 3 -14.5t-1 -14.5q-4 -25 -28 -29q-18 0 -33.5 11.5t-26 29t-16.5 37t-8 35.5q-4 59 -3 117.5t-1 118.5q0 135 -3.5 268t-3.5 268q-2 88 -1 176t-9 176q-4 35 -7 74t-19 68t-41 31t-46.5 -11.5t-36 -38t-14.5 -49.5q4 -14 13 -20q14 -10 36.5 -10.5t28.5 18.5 q8 18 21 2q14 -18 7 -42t-32 -30q-47 -12 -84 31q-20 23 -20 54.5zM252.5 1563.5q9.5 23.5 36 38t61.5 17.5t60 -5q35 -14 68.5 -33.5t74.5 -13.5q16 2 29.5 13t17.5 22.5t-3 19.5t-32 4q-6 0 -8 5t4 9q25 16 44.5 10.5t29.5 -23t8 -39t-22 -38.5q-29 -23 -67 -26.5 t-71 10.5q-18 6 -33.5 15.5t-31.5 19.5t-33.5 16t-38.5 4q-12 0 -27.5 -3t-26.5 -10t-15 -21t8 -37q4 -6 -3.5 -10.5t-11.5 -0.5q-27 33 -17.5 56.5z" />
<glyph unicode="&#xd2;" horiz-adv-x="782" d="M-23 575q0 78 6.5 154t16.5 154q6 92 21.5 185t50.5 179q10 23 24.5 50.5t32.5 54.5q37 55 88 100t115 49q53 4 101 -12t93 -47q29 -18 45.5 -47t40.5 -49q4 -4 -2 -5q-33 10 -57.5 36t-54.5 42q-68 33 -132.5 35t-117.5 -61q-29 -35 -48.5 -76t-31.5 -84 q-16 -51 -28.5 -103.5t-20.5 -105.5q-12 -129 -13 -258q0 -86 1.5 -173t13.5 -173q8 -53 15 -114.5t34 -108.5q41 -74 117 -107q37 -4 73.5 6t67.5 27q94 51 139 143q61 119 75.5 254t19.5 266q4 63 7 130t-10 128v5q-66 -27 -132 -33t-138 35q-8 4 -13 12t-3 18 q0 57 28.5 101.5t71.5 65t93 13t93 -52.5q37 -37 58 -94q16 6 33.5 12.5t35.5 10.5q10 4 16.5 -9.5t-5.5 -17.5q-16 -8 -35 -15.5t-35 -15.5q6 -29 6 -53q6 -78 3 -154.5t-9 -152.5q-8 -96 -26.5 -210t-60.5 -213t-115.5 -172t-192.5 -87q-111 -16 -180.5 36t-108.5 136 t-52.5 184.5t-13.5 181.5zM367 1768.5q6 7.5 14 3.5q57 -25 109.5 -77.5t82.5 -105.5q6 -10 3 -19t-10 -15.5t-17 -6.5t-17 8q-41 49 -76.5 103.5t-86.5 95.5q-8 6 -2 13.5zM446 1104q-2 -12 13.5 -19.5t36 -9.5t41 -1t26.5 1q23 4 43.5 8t40.5 9q-14 41 -41.5 71.5 t-73.5 26.5q-35 -4 -57 -27.5t-29 -58.5z" />
<glyph unicode="&#xd3;" horiz-adv-x="782" d="M-23 575q0 78 6.5 154t16.5 154q6 92 21.5 185t50.5 179q10 23 24.5 50.5t32.5 54.5q37 55 88 100t115 49q53 4 101 -12t93 -47q29 -18 45.5 -47t40.5 -49q4 -4 -2 -5q-33 10 -57.5 36t-54.5 42q-68 33 -132.5 35t-117.5 -61q-29 -35 -48.5 -76t-31.5 -84 q-16 -51 -28.5 -103.5t-20.5 -105.5q-12 -129 -13 -258q0 -86 1.5 -173t13.5 -173q8 -53 15 -114.5t34 -108.5q41 -74 117 -107q37 -4 73.5 6t67.5 27q94 51 139 143q61 119 75.5 254t19.5 266q4 63 7 130t-10 128v5q-66 -27 -132 -33t-138 35q-8 4 -13 12t-3 18 q0 57 28.5 101.5t71.5 65t93 13t93 -52.5q37 -37 58 -94q16 6 33.5 12.5t35.5 10.5q10 4 16.5 -9.5t-5.5 -17.5q-16 -8 -35 -15.5t-35 -15.5q6 -29 6 -53q6 -78 3 -154.5t-9 -152.5q-8 -96 -26.5 -210t-60.5 -213t-115.5 -172t-192.5 -87q-111 -16 -180.5 36t-108.5 136 t-52.5 184.5t-13.5 181.5zM187 1570q-3 9 3 19q31 53 83.5 105.5t109.5 77.5q8 4 14 -3.5t-2 -13.5q-51 -41 -87 -95t-77 -104q-6 -8 -16 -8t-17.5 6.5t-10.5 15.5zM446 1104q-2 -12 13.5 -19.5t36 -9.5t41 -1t26.5 1q23 4 43.5 8t40.5 9q-14 41 -41.5 71.5t-73.5 26.5 q-35 -4 -57 -27.5t-29 -58.5z" />
<glyph unicode="&#xd4;" horiz-adv-x="782" d="M-23 575q0 78 6.5 154t16.5 154q6 92 21.5 185t50.5 179q10 23 24.5 50.5t32.5 54.5q37 55 88 100t115 49q53 4 101 -12t93 -47q29 -18 45.5 -47t40.5 -49q4 -4 -2 -5q-33 10 -57.5 36t-54.5 42q-68 33 -132.5 35t-117.5 -61q-29 -35 -48.5 -76t-31.5 -84 q-16 -51 -28.5 -103.5t-20.5 -105.5q-12 -129 -13 -258q0 -86 1.5 -173t13.5 -173q8 -53 15 -114.5t34 -108.5q41 -74 117 -107q37 -4 73.5 6t67.5 27q94 51 139 143q61 119 75.5 254t19.5 266q4 63 7 130t-10 128v5q-66 -27 -132 -33t-138 35q-8 4 -13 12t-3 18 q0 57 28.5 101.5t71.5 65t93 13t93 -52.5q37 -37 58 -94q16 6 33.5 12.5t35.5 10.5q10 4 16.5 -9.5t-5.5 -17.5q-16 -8 -35 -15.5t-35 -15.5q6 -29 6 -53q6 -78 3 -154.5t-9 -152.5q-8 -96 -26.5 -210t-60.5 -213t-115.5 -172t-192.5 -87q-111 -16 -180.5 36t-108.5 136 t-52.5 184.5t-13.5 181.5zM197 1614q20 39 60 74t81 51q8 4 12 -4.5t-2 -12.5q-35 -31 -58.5 -69.5t-51.5 -71.5q-16 -18 -34 -3t-7 36zM406 1734.5q4 8.5 12 4.5q41 -16 80 -51t61 -74q6 -10 3 -19.5t-10 -15.5t-17.5 -7t-18.5 9q-29 33 -51 71.5t-57 69.5q-6 4 -2 12.5z M446 1104q-2 -12 13.5 -19.5t36 -9.5t41 -1t26.5 1q23 4 43.5 8t40.5 9q-14 41 -41.5 71.5t-73.5 26.5q-35 -4 -57 -27.5t-29 -58.5z" />
<glyph unicode="&#xd5;" horiz-adv-x="782" d="M-23 575q0 78 6.5 154t16.5 154q6 92 21.5 185t50.5 179q10 23 24.5 50.5t32.5 54.5q37 55 88 100t115 49q53 4 101 -12t93 -47q29 -18 45.5 -47t40.5 -49q4 -4 -2 -5q-33 10 -57.5 36t-54.5 42q-68 33 -132.5 35t-117.5 -61q-29 -35 -48.5 -76t-31.5 -84 q-16 -51 -28.5 -103.5t-20.5 -105.5q-12 -129 -13 -258q0 -86 1.5 -173t13.5 -173q8 -53 15 -114.5t34 -108.5q41 -74 117 -107q37 -4 73.5 6t67.5 27q94 51 139 143q61 119 75.5 254t19.5 266q4 63 7 130t-10 128v5q-66 -27 -132 -33t-138 35q-8 4 -13 12t-3 18 q0 57 28.5 101.5t71.5 65t93 13t93 -52.5q37 -37 58 -94q16 6 33.5 12.5t35.5 10.5q10 4 16.5 -9.5t-5.5 -17.5q-16 -8 -35 -15.5t-35 -15.5q6 -29 6 -53q6 -78 3 -154.5t-9 -152.5q-8 -96 -26.5 -210t-60.5 -213t-115.5 -172t-192.5 -87q-111 -16 -180.5 36t-108.5 136 t-52.5 184.5t-13.5 181.5zM164.5 1584.5q9.5 23.5 36 37.5t61.5 17t60 -5q35 -14 68.5 -33.5t74.5 -13.5q16 2 29.5 13.5t17.5 22.5t-3 19.5t-32 4.5q-6 0 -8 5t4 9q25 16 44.5 10t29.5 -23.5t8 -39t-23 -37.5q-29 -23 -66.5 -27t-70.5 10q-18 6 -33.5 15.5t-31.5 19.5 t-33.5 16.5t-38.5 4.5q-12 0 -27.5 -3t-26.5 -10.5t-15 -21.5t8 -37q4 -6 -3.5 -10t-11.5 0q-27 33 -17.5 56.5zM446 1104q-2 -12 13.5 -19.5t36 -9.5t41 -1t26.5 1q23 4 43.5 8t40.5 9q-14 41 -41.5 71.5t-73.5 26.5q-35 -4 -57 -27.5t-29 -58.5z" />
<glyph unicode="&#xd6;" horiz-adv-x="782" d="M-23 575q0 78 6.5 154t16.5 154q6 92 21.5 185t50.5 179q10 23 24.5 50.5t32.5 54.5q37 55 88 100t115 49q53 4 101 -12t93 -47q29 -18 45.5 -47t40.5 -49q4 -4 -2 -5q-33 10 -57.5 36t-54.5 42q-68 33 -132.5 35t-117.5 -61q-29 -35 -48.5 -76t-31.5 -84 q-16 -51 -28.5 -103.5t-20.5 -105.5q-12 -129 -13 -258q0 -86 1.5 -173t13.5 -173q8 -53 15 -114.5t34 -108.5q41 -74 117 -107q37 -4 73.5 6t67.5 27q94 51 139 143q61 119 75.5 254t19.5 266q4 63 7 130t-10 128v5q-66 -27 -132 -33t-138 35q-8 4 -13 12t-3 18 q0 57 28.5 101.5t71.5 65t93 13t93 -52.5q37 -37 58 -94q16 6 33.5 12.5t35.5 10.5q10 4 16.5 -9.5t-5.5 -17.5q-16 -8 -35 -15.5t-35 -15.5q6 -29 6 -53q6 -78 3 -154.5t-9 -152.5q-8 -96 -26.5 -210t-60.5 -213t-115.5 -172t-192.5 -87q-111 -16 -180.5 36t-108.5 136 t-52.5 184.5t-13.5 181.5zM231 1587q-6 23 8.5 40.5t36.5 19.5q4 0 5.5 -1t5.5 -1q2 0 3 1t5 1q6 0 8 -2q6 0 19 -9q18 -23 6 -45l-6 -8q-8 -16 -23 -22q-10 -6 -23 -7q-14 0 -22 7q-14 8 -23 26zM315 1575l2 2q-2 0 -2 -2zM375 1587q-6 23 8 40.5t37 19.5q2 0 4 -1t4 -1 q4 0 5 1t5 1q6 0 8 -2q6 0 19 -9q18 -23 6 -45l-6 -8q-4 -6 -9 -12t-14 -10q-10 -6 -22 -7q-12 0 -25 7q-12 8 -20 26zM446 1104q-2 -12 13.5 -19.5t36 -9.5t41 -1t26.5 1q23 4 43.5 8t40.5 9q-14 41 -41.5 71.5t-73.5 26.5q-35 -4 -57 -27.5t-29 -58.5zM459 1575q0 2 2 2z " />
<glyph unicode="&#xd7;" horiz-adv-x="665" d="M1 469q-7 18 9 39q59 80 122 158.5t128 154.5q-57 61 -115.5 120.5t-124.5 113.5q-4 4 -0.5 9t7.5 1q70 -47 136 -99.5t132 -105.5q4 6 12 14q37 41 75 83t79 83q33 31 70.5 68t78.5 53q4 2 6 0t0 -6q-18 -41 -51 -82t-61 -76l-74 -94t-72 -94h-2q70 -59 136.5 -120.5 t130.5 -125.5q4 -4 4 -6q8 -8 14 -12h-2q16 -16 14 -36t-14 -33t-31.5 -16t-38.5 15q-70 63 -130 136t-122 145q-111 -147 -215 -301q-14 -23 -36.5 -24t-40 9.5t-24.5 28.5z" />
<glyph unicode="&#xd8;" horiz-adv-x="735" d="M-18 569.5q-2 92.5 10 184.5t31 178q23 106 62.5 210.5t115.5 188.5q16 18 53 46t77 45.5t75.5 12.5t48.5 -51v-2q4 0 6 1t4 1q61 10 106 -32q8 -10 16.5 -18.5t14.5 -18.5q23 41 46.5 80t51.5 73q4 6 13.5 3t7.5 -11q-6 -63 -25.5 -122.5t-42.5 -118.5q12 -35 21.5 -70 t19.5 -68q27 -106 45.5 -224t14.5 -236.5t-35 -230t-101 -206.5q-31 -41 -66.5 -77.5t-78.5 -61.5t-91 -34t-103 3q-45 10 -83 32t-67 52q-16 -23 -31.5 -54.5t-44.5 -39.5q-16 -4 -30.5 4t-18.5 25q-6 14 -2 32.5t13.5 37t20.5 35l19 28.5l11 18q-4 8 -7.5 15.5t-7.5 17.5 q-37 82 -52 171t-17 181.5zM84 573.5q-2 -88.5 14 -174.5q4 -27 10.5 -53.5t16.5 -54.5l18 35q47 98 94.5 194t92.5 197q45 102 90 201.5t92 201.5l41 88l-7 17.5t-7 15.5q-8 16 -19.5 35.5t-27.5 30.5q-12 6 -24.5 2t-23 -13.5t-20.5 -20.5t-16 -18q-14 -14 -31 -0.5 t-6 29.5q14 23 32.5 51.5t45.5 40.5q-25 4 -48.5 -5t-46 -25.5t-42 -36t-33.5 -35.5q-35 -41 -60.5 -87t-46.5 -93q-33 -84 -51.5 -171t-26.5 -177q-8 -86 -10 -174.5zM184 180q8 -10 16.5 -17t18.5 -16q43 -35 90 -39t90 13.5t80 50.5t64 74q53 86 78.5 184.5t29.5 198.5 q4 115 -12 225.5t-45 220.5l-6 -12q-41 -102 -82 -201.5t-84 -199.5t-89 -196.5t-93 -195.5q-12 -25 -25.5 -46t-30.5 -44z" />
<glyph unicode="&#xd9;" horiz-adv-x="634" d="M-18 309q-8 88 6 176t24 179q8 84 12.5 166.5t12.5 166.5q6 84 20.5 167t10.5 167q-2 39 -9.5 69.5t-25.5 63.5q-8 16 2 25.5t28.5 9.5t40 -13t33.5 -42q16 -41 22.5 -82t6.5 -83t-5 -84t-9 -85q-10 -94 -16.5 -186.5t-14.5 -186.5q-6 -92 -21.5 -182t-17.5 -182 q0 -45 6 -92.5t45 -75.5q35 -29 77 -36t85 3q68 16 111 55t67 97q-2 20 -2 39.5v37.5v187.5t-4 185.5q-4 90 -9 182.5t-7 184.5t3 184t23 180q4 16 19.5 22.5t29.5 -1.5q18 -14 33.5 -27.5t28.5 -30.5q12 -16 -2.5 -30.5t-30.5 -3.5q-2 2 -3 2t-3 2q6 -72 7 -144.5t5 -146.5 q4 -88 6 -174t6 -174t6.5 -175t2.5 -175v-97.5t-3.5 -119t-10.5 -101.5t-21 -45q-23 -6 -37 14q-20 29 -24.5 62t-6.5 65v13.5t-2 15.5q-47 -80 -136 -122t-187 -40q-39 0 -70 21.5t-52.5 53.5t-34.5 69.5t-15 70.5zM182 1768.5q6 7.5 15 3.5q57 -25 109 -77.5t83 -105.5 q6 -10 3 -19t-10 -15.5t-17.5 -6.5t-16.5 8q-41 49 -77 103.5t-87 95.5q-8 6 -2 13.5z" />
<glyph unicode="&#xda;" horiz-adv-x="634" d="M-18 309q-8 88 6 176t24 179q8 84 12.5 166.5t12.5 166.5q6 84 20.5 167t10.5 167q-2 39 -9.5 69.5t-25.5 63.5q-8 16 2 25.5t28.5 9.5t40 -13t33.5 -42q16 -41 22.5 -82t6.5 -83t-5 -84t-9 -85q-10 -94 -16.5 -186.5t-14.5 -186.5q-6 -92 -21.5 -182t-17.5 -182 q0 -45 6 -92.5t45 -75.5q35 -29 77 -36t85 3q68 16 111 55t67 97q-2 20 -2 39.5v37.5v187.5t-4 185.5q-4 90 -9 182.5t-7 184.5t3 184t23 180q4 16 19.5 22.5t29.5 -1.5q18 -14 33.5 -27.5t28.5 -30.5q12 -16 -2.5 -30.5t-30.5 -3.5q-2 2 -3 2t-3 2q6 -72 7 -144.5t5 -146.5 q4 -88 6 -174t6 -174t6.5 -175t2.5 -175v-97.5t-3.5 -119t-10.5 -101.5t-21 -45q-23 -6 -37 14q-20 29 -24.5 62t-6.5 65v13.5t-2 15.5q-47 -80 -136 -122t-187 -40q-39 0 -70 21.5t-52.5 53.5t-34.5 69.5t-15 70.5zM222 1570q-3 9 3 19q31 53 83 105.5t110 77.5 q8 4 14 -3.5t-2 -13.5q-51 -41 -87 -95t-77 -104q-6 -8 -16 -8t-17.5 6.5t-10.5 15.5z" />
<glyph unicode="&#xdb;" horiz-adv-x="634" d="M-18 309q-8 88 6 176t24 179q8 84 12.5 166.5t12.5 166.5q6 84 20.5 167t10.5 167q-2 39 -9.5 69.5t-25.5 63.5q-8 16 2 25.5t28.5 9.5t40 -13t33.5 -42q16 -41 22.5 -82t6.5 -83t-5 -84t-9 -85q-10 -94 -16.5 -186.5t-14.5 -186.5q-6 -92 -21.5 -182t-17.5 -182 q0 -45 6 -92.5t45 -75.5q35 -29 77 -36t85 3q68 16 111 55t67 97q-2 20 -2 39.5v37.5v187.5t-4 185.5q-4 90 -9 182.5t-7 184.5t3 184t23 180q4 16 19.5 22.5t29.5 -1.5q18 -14 33.5 -27.5t28.5 -30.5q12 -16 -2.5 -30.5t-30.5 -3.5q-2 2 -3 2t-3 2q6 -72 7 -144.5t5 -146.5 q4 -88 6 -174t6 -174t6.5 -175t2.5 -175v-97.5t-3.5 -119t-10.5 -101.5t-21 -45q-23 -6 -37 14q-20 29 -24.5 62t-6.5 65v13.5t-2 15.5q-47 -80 -136 -122t-187 -40q-39 0 -70 21.5t-52.5 53.5t-34.5 69.5t-15 70.5zM94 1614q20 39 60.5 74t81.5 51q8 4 12 -4.5t-2 -12.5 q-35 -31 -58.5 -69.5t-52.5 -71.5q-16 -18 -33.5 -3t-7.5 36zM303 1734.5q4 8.5 12 4.5q41 -16 80 -51t62 -74q6 -10 3 -19.5t-10.5 -15.5t-17.5 -7t-18 9q-29 33 -51.5 71.5t-57.5 69.5q-6 4 -2 12.5z" />
<glyph unicode="&#xdc;" horiz-adv-x="634" d="M-18 309q-8 88 6 176t24 179q8 84 12.5 166.5t12.5 166.5q6 84 20.5 167t10.5 167q-2 39 -9.5 69.5t-25.5 63.5q-8 16 2 25.5t28.5 9.5t40 -13t33.5 -42q16 -41 22.5 -82t6.5 -83t-5 -84t-9 -85q-10 -94 -16.5 -186.5t-14.5 -186.5q-6 -92 -21.5 -182t-17.5 -182 q0 -45 6 -92.5t45 -75.5q35 -29 77 -36t85 3q68 16 111 55t67 97q-2 20 -2 39.5v37.5v187.5t-4 185.5q-4 90 -9 182.5t-7 184.5t3 184t23 180q4 16 19.5 22.5t29.5 -1.5q18 -14 33.5 -27.5t28.5 -30.5q12 -16 -2.5 -30.5t-30.5 -3.5q-2 2 -3 2t-3 2q6 -72 7 -144.5t5 -146.5 q4 -88 6 -174t6 -174t6.5 -175t2.5 -175v-97.5t-3.5 -119t-10.5 -101.5t-21 -45q-23 -6 -37 14q-20 29 -24.5 62t-6.5 65v13.5t-2 15.5q-47 -80 -136 -122t-187 -40q-39 0 -70 21.5t-52.5 53.5t-34.5 69.5t-15 70.5zM182 1587q-6 23 8.5 40.5t36.5 19.5q4 0 5 -1t6 -1 q2 0 3 1t5 1q6 0 8 -2q6 0 18 -9q18 -23 7 -45l-7 -8q-8 -16 -22 -22q-10 -6 -23 -7q-14 0 -22 7q-14 8 -23 26zM266 1575l2 2q-2 0 -2 -2zM326 1587q-6 23 8 40.5t37 19.5q2 0 4 -1t4 -1q4 0 5 1t5 1q6 0 8 -2q6 0 19 -9q18 -23 6 -45l-6 -8q-4 -6 -9.5 -12t-13.5 -10 q-10 -6 -22 -7q-12 0 -25 7q-12 8 -20 26zM410 1575q0 2 2 2z" />
<glyph unicode="&#xdd;" horiz-adv-x="675" d="M-12 106q23 41 64.5 67t91 40t99.5 22.5t91 14.5q37 6 72.5 14t70.5 19q10 16 18.5 35.5t14.5 39.5q20 68 20 135.5t-2 139.5q0 61 -6 123q-25 -59 -69.5 -97t-112.5 -32q-82 6 -138.5 56t-93 122t-57 151.5t-31.5 147.5q-2 8 -7 45t-7 85t5 97t32 84q14 20 36.5 31.5 t45 11.5t44 -11t34.5 -36q10 -18 14 -41.5t-10 -40.5q-8 -8 -16.5 -12t-18.5 4q-8 4 0 8q4 2 0 19.5t-15.5 34t-26.5 23.5t-34 -11q-25 -25 -29 -64t-1 -74q0 -10 1 -20t1 -20q6 -39 17 -83t28 -98q16 -51 37.5 -103t50.5 -97q12 -18 28.5 -43t37 -48.5t45 -39t48.5 -15.5 q61 2 98.5 45t55.5 101q-2 20 -4 38.5t-6 38.5q-10 72 -20.5 144.5t-20.5 146.5q-2 23 -6 54.5t-4 65.5t7 63.5t25 46.5q10 8 22.5 9t20.5 -9q2 0 2 -2q10 -8 27.5 -12.5t22.5 -0.5h2q10 -12 6 -26q-4 -12 -17 -13h-14q4 -20 5 -41.5t5 -38.5q8 -41 12.5 -82.5t10.5 -82.5 q14 -90 28.5 -177.5t20.5 -177.5q4 -76 -1 -151.5t-17.5 -143t-30 -124t-37.5 -89.5q-29 -55 -68 -96q-59 -66 -143 -112t-176 -56q-16 -2 -53 0t-71 12.5t-53.5 31t-0.5 54.5zM5 88q-1 -12 11 -22q14 -12 41 -19q61 -10 121 6q47 14 90 37.5t82 52.5q59 43 103 103 q-10 -2 -19.5 -3t-19.5 -5q-43 -8 -91.5 -13.5t-95.5 -12.5t-92 -22.5t-82 -42.5q-6 -4 -17 -13t-20.5 -21.5t-10.5 -24.5zM269 1529q-3 9 3 19q31 53 83.5 105.5t109.5 77.5q8 4 14 -3.5t-2 -13.5q-51 -41 -87 -95t-77 -103q-6 -8 -16 -8.5t-17.5 6t-10.5 15.5z" />
<glyph unicode="&#xe0;" d="M0 539q14 76 47 151.5t86 128.5q51 49 101.5 58.5t92.5 1t67.5 -21.5t27.5 -7q4 18 8 35.5t8 34.5q-8 -4 -14 -6.5t-16 -4.5q-8 -4 -10.5 3.5t3.5 11.5q16 12 32 22t30 23q25 18 39 -11q16 -61 13 -131.5t-5 -134.5q0 -57 -2 -113.5t-6 -113.5q-4 -59 -8.5 -118.5 t0.5 -119.5q2 -33 8 -62.5t10 -60.5q0 -6 2 -8q4 -18 3 -48t-21 -36q-12 -4 -28.5 -3t-29.5 5q-27 14 -41 41t-20 62q-4 -45 -48 -75t-85 -34q-59 -10 -100.5 17.5t-69 71.5t-44 98.5t-24.5 101.5q-25 123 -6 242zM93.5 562.5q-13.5 -105.5 2.5 -197.5q4 -31 9.5 -65 t14.5 -67.5t24.5 -64.5t39.5 -51q29 -29 62 -33t60.5 11.5t45 47t17.5 72.5q0 57 1 116.5t5 133.5q4 59 8 120.5t14 121.5q4 14 7.5 39.5t5.5 39.5q-12 14 -45 23.5t-72 8.5t-77 -16.5t-60 -51.5q-49 -82 -62.5 -187.5zM127 1215.5q6 7.5 14 3.5q57 -25 109.5 -77t83.5 -106 q6 -10 3 -19t-10.5 -15.5t-17.5 -6.5t-16 9q-41 49 -77 103t-87 95q-8 6 -2 13.5z" />
<glyph unicode="&#xe1;" d="M0 539q14 76 47 151.5t86 128.5q51 49 101.5 58.5t92.5 1t67.5 -21.5t27.5 -7q4 18 8 35.5t8 34.5q-8 -4 -14 -6.5t-16 -4.5q-8 -4 -10.5 3.5t3.5 11.5q16 12 32 22t30 23q25 18 39 -11q16 -61 13 -131.5t-5 -134.5q0 -57 -2 -113.5t-6 -113.5q-4 -59 -8.5 -118.5 t0.5 -119.5q2 -33 8 -62.5t10 -60.5q0 -6 2 -8q4 -18 3 -48t-21 -36q-12 -4 -28.5 -3t-29.5 5q-27 14 -41 41t-20 62q-4 -45 -48 -75t-85 -34q-59 -10 -100.5 17.5t-69 71.5t-44 98.5t-24.5 101.5q-25 123 -6 242zM93.5 562.5q-13.5 -105.5 2.5 -197.5q4 -31 9.5 -65 t14.5 -67.5t24.5 -64.5t39.5 -51q29 -29 62 -33t60.5 11.5t45 47t17.5 72.5q0 57 1 116.5t5 133.5q4 59 8 120.5t14 121.5q4 14 7.5 39.5t5.5 39.5q-12 14 -45 23.5t-72 8.5t-77 -16.5t-60 -51.5q-49 -82 -62.5 -187.5zM132 1017q-3 9 3 19q31 53 83 105.5t110 77.5 q8 4 14 -3.5t-2 -13.5q-51 -41 -87 -95t-77 -103q-6 -8 -16 -8.5t-17.5 6t-10.5 15.5z" />
<glyph unicode="&#xe2;" d="M0 539q14 76 47 151.5t86 128.5q51 49 101.5 58.5t92.5 1t67.5 -21.5t27.5 -7q4 18 8 35.5t8 34.5q-8 -4 -14 -6.5t-16 -4.5q-8 -4 -10.5 3.5t3.5 11.5q16 12 32 22t30 23q25 18 39 -11q16 -61 13 -131.5t-5 -134.5q0 -57 -2 -113.5t-6 -113.5q-4 -59 -8.5 -118.5 t0.5 -119.5q2 -33 8 -62.5t10 -60.5q0 -6 2 -8q4 -18 3 -48t-21 -36q-12 -4 -28.5 -3t-29.5 5q-27 14 -41 41t-20 62q-4 -45 -48 -75t-85 -34q-59 -10 -100.5 17.5t-69 71.5t-44 98.5t-24.5 101.5q-25 123 -6 242zM88 1059q20 39 60 74t81 51q8 4 12.5 -4.5t-1.5 -12.5 q-35 -31 -58.5 -69.5t-52.5 -71.5q-16 -18 -33.5 -3t-7.5 36zM93.5 562.5q-13.5 -105.5 2.5 -197.5q4 -31 9.5 -65t14.5 -67.5t24.5 -64.5t39.5 -51q29 -29 62 -33t60.5 11.5t45 47t17.5 72.5q0 57 1 116.5t5 133.5q4 59 8 120.5t14 121.5q4 14 7.5 39.5t5.5 39.5 q-12 14 -45 23.5t-72 8.5t-77 -16.5t-60 -51.5q-49 -82 -62.5 -187.5zM297 1179.5q4 8.5 12 4.5q41 -16 80 -51t62 -74q6 -10 3 -19.5t-10.5 -15.5t-17.5 -7t-18 9q-29 33 -51.5 71.5t-57.5 69.5q-6 4 -2 12.5z" />
<glyph unicode="&#xe3;" d="M0 539q14 76 47 151.5t86 128.5q51 49 101.5 58.5t92.5 1t67.5 -21.5t27.5 -7q4 18 8 35.5t8 34.5q-8 -4 -14 -6.5t-16 -4.5q-8 -4 -10.5 3.5t3.5 11.5q16 12 32 22t30 23q25 18 39 -11q16 -61 13 -131.5t-5 -134.5q0 -57 -2 -113.5t-6 -113.5q-4 -59 -8.5 -118.5 t0.5 -119.5q2 -33 8 -62.5t10 -60.5q0 -6 2 -8q4 -18 3 -48t-21 -36q-12 -4 -28.5 -3t-29.5 5q-27 14 -41 41t-20 62q-4 -45 -48 -75t-85 -34q-59 -10 -100.5 17.5t-69 71.5t-44 98.5t-24.5 101.5q-25 123 -6 242zM86.5 1051.5q9.5 23.5 36.5 38t61.5 17.5t59.5 -5 q35 -14 68.5 -33.5t74.5 -13.5q16 2 29.5 13t17.5 22.5t-3 19.5t-32 4q-6 0 -8 5t4 9q25 16 44.5 10.5t29.5 -23t8 -39t-22 -38.5q-29 -23 -67 -26.5t-71 10.5q-18 6 -33.5 15.5t-31.5 19.5t-33.5 16t-38.5 4q-12 0 -27.5 -3t-26.5 -10t-15 -21t8 -37q4 -6 -3 -10.5 t-12 -0.5q-27 33 -17.5 56.5zM93.5 562.5q-13.5 -105.5 2.5 -197.5q4 -31 9.5 -65t14.5 -67.5t24.5 -64.5t39.5 -51q29 -29 62 -33t60.5 11.5t45 47t17.5 72.5q0 57 1 116.5t5 133.5q4 59 8 120.5t14 121.5q4 14 7.5 39.5t5.5 39.5q-12 14 -45 23.5t-72 8.5t-77 -16.5 t-60 -51.5q-49 -82 -62.5 -187.5z" />
<glyph unicode="&#xe4;" d="M0 539q14 76 47 151.5t86 128.5q51 49 101.5 58.5t92.5 1t67.5 -21.5t27.5 -7q4 18 8 35.5t8 34.5q-8 -4 -14 -6.5t-16 -4.5q-8 -4 -10.5 3.5t3.5 11.5q16 12 32 22t30 23q25 18 39 -11q16 -61 13 -131.5t-5 -134.5q0 -57 -2 -113.5t-6 -113.5q-4 -59 -8.5 -118.5 t0.5 -119.5q2 -33 8 -62.5t10 -60.5q0 -6 2 -8q4 -18 3 -48t-21 -36q-12 -4 -28.5 -3t-29.5 5q-27 14 -41 41t-20 62q-4 -45 -48 -75t-85 -34q-59 -10 -100.5 17.5t-69 71.5t-44 98.5t-24.5 101.5q-25 123 -6 242zM93.5 562.5q-13.5 -105.5 2.5 -197.5q4 -31 9.5 -65 t14.5 -67.5t24.5 -64.5t39.5 -51q29 -29 62 -33t60.5 11.5t45 47t17.5 72.5q0 57 1 116.5t5 133.5q4 59 8 120.5t14 121.5q4 14 7.5 39.5t5.5 39.5q-12 14 -45 23.5t-72 8.5t-77 -16.5t-60 -51.5q-49 -82 -62.5 -187.5zM125 1034q-6 23 8 40.5t37 19.5q4 0 5 -1t5 -1 q2 0 3 1t5 1q6 0 9 -2q6 0 18 -9q18 -23 6 -45l-6 -8q-8 -16 -22 -22q-10 -6 -23 -7q-14 0 -23 7q-14 8 -22 26zM209 1022l2 2q-2 0 -2 -2zM268 1034q-6 23 8.5 40.5t36.5 19.5q2 0 4 -1t5 -1q4 0 5 1t5 1q6 0 8 -2q6 0 18 -9q18 -23 7 -45l-7 -8q-4 -6 -9 -12t-13 -10 q-10 -6 -23 -7q-12 0 -24 7q-12 8 -21 26zM352 1022q0 2 2 2z" />
<glyph unicode="&#xe5;" d="M0 539q14 76 47 151.5t86 128.5q6 6 12.5 11.5t12.5 9.5v2q-16 6 -29.5 23.5t-17.5 35.5q-12 51 11 99.5t73 70.5q53 23 108 1.5t72 -79.5q6 -27 7 -53.5t-9 -50.5l-11 -21q27 -8 42.5 -15t17.5 -3q4 18 8 35.5t8 34.5q-8 -4 -14 -6.5t-16 -4.5q-8 -4 -10.5 3.5t3.5 11.5 q16 12 32 22t30 23q25 18 39 -11q16 -61 13 -131.5t-5 -134.5q0 -57 -2 -113.5t-6 -113.5q-4 -59 -8.5 -118.5t0.5 -119.5q2 -33 8 -62.5t10 -60.5q0 -6 2 -8q4 -18 3 -48t-21 -36q-12 -4 -28.5 -3t-29.5 5q-27 14 -41 41t-20 62q-4 -45 -48 -75t-85 -34 q-59 -10 -100.5 17.5t-69 71.5t-44 98.5t-24.5 101.5q-25 123 -6 242zM93.5 562.5q-13.5 -105.5 2.5 -197.5q4 -31 9.5 -65t14.5 -67.5t24.5 -64.5t39.5 -51q29 -29 62 -33t60.5 11.5t45 47t17.5 72.5q0 57 1 116.5t5 133.5q4 59 8 120.5t14 121.5q4 14 7.5 39.5t5.5 39.5 q-12 14 -45 23.5t-72 8.5t-77 -16.5t-60 -51.5q-49 -82 -62.5 -187.5zM150 926q4 -58 57 -58q27 10 52.5 13.5t47.5 -0.5q14 8 21 26q4 14 6 29.5t-6 28.5q-16 29 -42 49t-61 10t-57.5 -35.5t-17.5 -62.5z" />
<glyph unicode="&#xe6;" horiz-adv-x="794" d="M0 539q14 76 47 151.5t86 128.5q51 49 101.5 58.5t92.5 1t67.5 -21.5t27.5 -7q4 18 8 35.5t8 34.5q-8 -4 -14 -6.5t-16 -4.5q-8 -4 -10.5 3.5t3.5 11.5q16 12 32 22t30 23q25 18 39 -11q12 -53 12 -108q23 35 52.5 58.5t70.5 19.5q31 -2 55.5 -17.5t42 -40t27.5 -53.5 t10 -57q2 -76 -34 -149.5t-79 -135.5q-29 -41 -60.5 -87t-68.5 -87v-8q0 -23 -1 -53.5t2.5 -62.5t11.5 -60.5t28 -44.5q49 -41 86 -28t65 52t50 86t45 72q4 4 10.5 -1t-4.5 -28q-8 -18 -12 -25t-7 -12.5t-7 -12.5t-13 -23q-25 -53 -53.5 -96.5t-91.5 -53.5q-76 -12 -127 29 q-4 -14 -16 -19q-12 -4 -28.5 -3t-29.5 5q-27 14 -41 41t-20 62q-4 -45 -48 -75t-85 -34q-59 -10 -100.5 17.5t-69 71.5t-44 98.5t-24.5 101.5q-25 123 -6 242zM93.5 562.5q-13.5 -105.5 2.5 -197.5q4 -31 9.5 -65t14.5 -67.5t24.5 -64.5t39.5 -51q29 -29 62 -33t60.5 11.5 t45 47t17.5 72.5q0 57 1 116.5t5 133.5q4 59 8 120.5t14 121.5q4 14 7.5 39.5t5.5 39.5q-12 14 -45 23.5t-72 8.5t-77 -16.5t-60 -51.5q-49 -82 -62.5 -187.5zM532 340q31 45 62 92t54.5 97.5t37.5 102.5t12 107q0 18 -7 42t-19.5 41.5t-29 21.5t-34.5 -19 q-25 -29 -39 -63.5t-20 -72.5t-7 -77t-1 -73q0 -49 -3 -97.5t-6 -101.5z" />
<glyph unicode="&#xe7;" horiz-adv-x="450" d="M4 454.5q6 96.5 25.5 178.5t40.5 125q14 31 34.5 64.5t46 61t58.5 45t74 15.5q27 -2 51 -15.5t42.5 -35t27 -48t6.5 -52.5q-4 -23 -13.5 -44.5t-24 -37t-35 -22.5t-44.5 1q35 4 60.5 21.5t33.5 54.5q4 27 1 57.5t-26 46.5q-25 18 -53 19.5t-56 -10t-49.5 -32t-31.5 -42.5 q-4 -12 -9 -23.5t-9 -21.5q-27 -74 -35 -144q-10 -66 -11.5 -129t3.5 -129q4 -53 17 -119.5t52 -107.5q43 -47 91 -46t94 28q10 6 18 14t14 12q37 35 40 18.5t-29 -57.5q-61 -66 -111.5 -83t-91.5 -19q-2 -4 -2 -10q0 -20 20 -41q45 -35 52.5 -61.5t-7 -45t-41 -27t-49 -5 t-33 17.5t8.5 43q4 4 9 3t3 -5q-4 -14 4 -18.5t20.5 -1.5t23.5 10.5t13 17.5q4 23 -14 40t-33 38q-14 23 -2 47q-41 4 -70.5 28.5t-46.5 59.5q-41 76 -52 173t-5 193.5z" />
<glyph unicode="&#xe8;" horiz-adv-x="372" d="M-6 424q4 84 3 168t26 166q8 25 22 55.5t33.5 57t46.5 43t61 14.5q31 -2 55.5 -17.5t42 -40t28 -53.5t10.5 -57q2 -76 -34 -149.5t-79 -135.5q-29 -41 -60.5 -87t-68.5 -87v-8q0 -23 -1 -53.5t2 -62.5t11 -60.5t29 -44.5q49 -41 86 -28t64.5 52t50 86t45.5 72q4 4 10 -1 t-4 -28q-8 -18 -12.5 -25t-7.5 -12.5t-7 -12.5t-12 -23q-25 -53 -53.5 -96.5t-92.5 -53.5q-66 -10 -110.5 18.5t-67.5 94.5l-4 8q-4 29 -11 100.5t-1 200.5zM66 1215.5q6 7.5 14 3.5q57 -25 109.5 -77t82.5 -106q6 -10 3 -19t-10 -15.5t-17 -6.5t-17 9q-41 49 -76.5 103 t-86.5 95q-8 6 -2 13.5zM82 340q31 45 61.5 92t54 97.5t38 102.5t12.5 107q0 18 -7.5 42t-19.5 41.5t-28.5 21.5t-34.5 -19q-25 -29 -39.5 -63.5t-20.5 -72.5t-7 -77t-1 -73q0 -49 -3 -97.5t-5 -101.5z" />
<glyph unicode="&#xe9;" horiz-adv-x="372" d="M-6 424q4 84 3 168t26 166q8 25 22 55.5t33.5 57t46.5 43t61 14.5q31 -2 55.5 -17.5t42 -40t28 -53.5t10.5 -57q2 -76 -34 -149.5t-79 -135.5q-29 -41 -60.5 -87t-68.5 -87v-8q0 -23 -1 -53.5t2 -62.5t11 -60.5t29 -44.5q49 -41 86 -28t64.5 52t50 86t45.5 72q4 4 10 -1 t-4 -28q-8 -18 -12.5 -25t-7.5 -12.5t-7 -12.5t-12 -23q-25 -53 -53.5 -96.5t-92.5 -53.5q-66 -10 -110.5 18.5t-67.5 94.5l-4 8q-4 29 -11 100.5t-1 200.5zM71 1017q-3 9 3 19q31 53 83 105.5t109 77.5q8 4 14.5 -3.5t-1.5 -13.5q-51 -41 -87 -95t-77 -103 q-6 -8 -16.5 -8.5t-17.5 6t-10 15.5zM82 340q31 45 61.5 92t54 97.5t38 102.5t12.5 107q0 18 -7.5 42t-19.5 41.5t-28.5 21.5t-34.5 -19q-25 -29 -39.5 -63.5t-20.5 -72.5t-7 -77t-1 -73q0 -49 -3 -97.5t-5 -101.5z" />
<glyph unicode="&#xea;" horiz-adv-x="372" d="M-6 424q4 84 3 168t26 166q8 25 22 55.5t33.5 57t46.5 43t61 14.5q31 -2 55.5 -17.5t42 -40t28 -53.5t10.5 -57q2 -76 -34 -149.5t-79 -135.5q-29 -41 -60.5 -87t-68.5 -87v-8q0 -23 -1 -53.5t2 -62.5t11 -60.5t29 -44.5q49 -41 86 -28t64.5 52t50 86t45.5 72q4 4 10 -1 t-4 -28q-8 -18 -12.5 -25t-7.5 -12.5t-7 -12.5t-12 -23q-25 -53 -53.5 -96.5t-92.5 -53.5q-66 -10 -110.5 18.5t-67.5 94.5l-4 8q-4 29 -11 100.5t-1 200.5zM-2 1018q20 39 60 74t81 51q8 4 12.5 -4.5t-1.5 -12.5q-35 -31 -58.5 -69.5t-52.5 -71.5q-16 -18 -33.5 -3t-7.5 36 zM82 340q31 45 61.5 92t54 97.5t38 102.5t12.5 107q0 18 -7.5 42t-19.5 41.5t-28.5 21.5t-34.5 -19q-25 -29 -39.5 -63.5t-20.5 -72.5t-7 -77t-1 -73q0 -49 -3 -97.5t-5 -101.5zM207 1138.5q4 8.5 12 4.5q41 -16 80 -51t61 -74q6 -10 3 -19.5t-10 -15.5t-17 -7t-19 9 q-29 33 -51 71.5t-57 69.5q-6 4 -2 12.5z" />
<glyph unicode="&#xeb;" horiz-adv-x="372" d="M-6 424q4 84 3 168t26 166q8 25 22 55.5t33.5 57t46.5 43t61 14.5q31 -2 55.5 -17.5t42 -40t28 -53.5t10.5 -57q2 -76 -34 -149.5t-79 -135.5q-29 -41 -60.5 -87t-68.5 -87v-8q0 -23 -1 -53.5t2 -62.5t11 -60.5t29 -44.5q49 -41 86 -28t64.5 52t50 86t45.5 72q4 4 10 -1 t-4 -28q-8 -18 -12.5 -25t-7.5 -12.5t-7 -12.5t-12 -23q-25 -53 -53.5 -96.5t-92.5 -53.5q-66 -10 -110.5 18.5t-67.5 94.5l-4 8q-4 29 -11 100.5t-1 200.5zM57 1034q-6 23 8.5 40.5t36.5 19.5q4 0 5.5 -1t5.5 -1q2 0 3 1t5 1q6 0 8 -2q6 0 18 -9q18 -23 7 -45l-7 -8 q-8 -16 -22 -22q-10 -6 -23 -7q-14 0 -22 7q-14 8 -23 26zM82 340q31 45 61.5 92t54 97.5t38 102.5t12.5 107q0 18 -7.5 42t-19.5 41.5t-28.5 21.5t-34.5 -19q-25 -29 -39.5 -63.5t-20.5 -72.5t-7 -77t-1 -73q0 -49 -3 -97.5t-5 -101.5zM141 1022l2 2q-2 0 -2 -2zM201 1034 q-6 23 8 40.5t37 19.5q2 0 4 -1t4 -1q4 0 5 1t5 1q6 0 8 -2q6 0 19 -9q18 -23 6 -45l-6 -8q-4 -6 -9.5 -12t-13.5 -10q-10 -6 -22 -7q-12 0 -25 7q-12 8 -20 26zM285 1022q0 2 2 2z" />
<glyph unicode="&#xec;" horiz-adv-x="229" d="M-41 1215.5q6 7.5 14 3.5q57 -25 109.5 -77t83.5 -106q6 -10 3 -19t-10 -15.5t-17.5 -6.5t-16.5 9q-41 49 -77 103t-87 95q-8 6 -2 13.5zM2 172q2 41 3 83t1 83q2 66 4 130t13 130q2 14 6 39t8 47q6 27 10 57l-2 2q0 25 13.5 40.5t25.5 33.5q6 8 17.5 8t13.5 -12 q8 -45 5 -91t-5 -91q-6 -102 -6 -201q0 -74 -4.5 -148.5t-0.5 -148.5v-14t1 -19.5t5.5 -15.5t14.5 -2q25 14 41 25.5t39 29.5q37 31 46 3.5t-28 -81.5q-16 -23 -41.5 -42t-54.5 -27t-56.5 -1t-45.5 42q-18 33 -22.5 68.5t-0.5 72.5z" />
<glyph unicode="&#xed;" horiz-adv-x="229" d="M2 172q2 41 3 83t1 83q2 66 4 130t13 130q2 14 6 39t8 47q6 27 10 57l-2 2q0 25 13.5 40.5t25.5 33.5q6 8 17.5 8t13.5 -12q8 -45 5 -91t-5 -91q-6 -102 -6 -201q0 -74 -4.5 -148.5t-0.5 -148.5v-14t1 -19.5t5.5 -15.5t14.5 -2q25 14 41 25.5t39 29.5q37 31 46 3.5 t-28 -81.5q-16 -23 -41.5 -42t-54.5 -27t-56.5 -1t-45.5 42q-18 33 -22.5 68.5t-0.5 72.5zM5 1017q-3 9 3 19q31 53 83 105.5t110 77.5q8 4 14 -3.5t-2 -13.5q-51 -41 -87 -95t-77 -103q-6 -8 -16 -8.5t-17.5 6t-10.5 15.5z" />
<glyph unicode="&#xee;" horiz-adv-x="229" d="M-76 1038q20 39 60.5 74t81.5 51q8 4 12 -4t-2 -12q-35 -31 -58.5 -70t-52.5 -71q-16 -18 -33.5 -3t-7.5 35zM2 172q2 41 3 83t1 83q2 66 4 130t13 130q2 14 6 39t8 47q6 27 10 57l-2 2q0 25 13.5 40.5t25.5 33.5q6 8 17.5 8t13.5 -12q8 -45 5 -91t-5 -91 q-6 -102 -6 -201q0 -74 -4.5 -148.5t-0.5 -148.5v-14t1 -19.5t5.5 -15.5t14.5 -2q25 14 41 25.5t39 29.5q37 31 46 3.5t-28 -81.5q-16 -23 -41.5 -42t-54.5 -27t-56.5 -1t-45.5 42q-18 33 -22.5 68.5t-0.5 72.5zM133 1159q4 8 12 4q41 -16 80 -51t62 -74q6 -10 3 -19 t-10.5 -15.5t-17.5 -7.5t-18 10q-29 33 -51.5 71.5t-57.5 69.5q-6 4 -2 12z" />
<glyph unicode="&#xef;" horiz-adv-x="229" d="M-12 1034q-6 23 8 40.5t37 19.5q4 0 5 -1t5 -1q2 0 3 1t5 1q6 0 8 -2q6 0 19 -9q18 -23 6 -45l-6 -8q-8 -16 -23 -22q-10 -6 -22 -7q-14 0 -23 7q-14 8 -22 26zM2 172q2 41 3 83t1 83q2 66 4 130t13 130q2 14 6 39t8 47q6 27 10 57l-2 2q0 25 13.5 40.5t25.5 33.5 q6 8 17.5 8t13.5 -12q8 -45 5 -91t-5 -91q-6 -102 -6 -201q0 -74 -4.5 -148.5t-0.5 -148.5v-14t1 -19.5t5.5 -15.5t14.5 -2q25 14 41 25.5t39 29.5q37 31 46 3.5t-28 -81.5q-16 -23 -41.5 -42t-54.5 -27t-56.5 -1t-45.5 42q-18 33 -22.5 68.5t-0.5 72.5zM72 1022l2 2 q-2 0 -2 -2zM131 1034q-6 23 8.5 40.5t36.5 19.5q2 0 4 -1t4 -1q4 0 5.5 1t5.5 1q6 0 8 -2q6 0 18 -9q18 -23 6 -45l-6 -8q-4 -6 -9 -12t-13 -10q-10 -6 -23 -7q-12 0 -24 7q-12 8 -21 26zM215 1022q0 2 2 2z" />
<glyph unicode="&#xf0;" horiz-adv-x="593" d="M-6 495.5q6 90.5 37 172.5q27 68 68.5 125t111.5 86q27 12 56.5 19t56 4t48 -18.5t31.5 -45.5q45 -10 80 -45q10 -8 18.5 -18.5t16.5 -22.5q12 6 22.5 13t20.5 11q6 4 10 -1t0 -9q-10 -10 -19 -17.5t-22 -17.5q33 -59 41 -130t4 -134q-4 -96 -32.5 -188.5t-96.5 -163.5 q-27 -27 -60.5 -52.5t-70 -41t-76.5 -16.5t-79 22q-37 23 -63.5 56.5t-46 72.5t-32 81t-18.5 82q-12 86 -6 176.5zM101 409.5q5 -71.5 24 -135.5q8 -35 26.5 -70.5t45 -62t60.5 -36t77 13.5q59 33 97 79t67 103q29 72 36 151.5t-10 155.5q-4 25 -12 51.5t-18 49.5 q-29 -12 -61 -18.5t-60 1.5q-16 4 -38 11.5t-24 23.5q-4 18 -4 38.5t10 37.5q12 23 31.5 32t42.5 5q-29 31 -60.5 30.5t-72.5 -18.5q-16 -8 -30.5 -18.5t-28.5 -20.5q-39 -55 -61.5 -121.5t-32 -138.5t-4.5 -143.5zM168 990q-6 7 2 14q41 35 72 77q-39 43 -66 88 q-6 8 -3 18.5t10 16.5t17.5 6t16.5 -8q16 -18 29.5 -37.5t27.5 -40.5q27 39 60 78q6 8 16 8t17.5 -6t10.5 -16t-3 -19q-14 -23 -30.5 -44t-37.5 -44q16 -23 33.5 -42t40.5 -35q8 -6 2 -13.5t-14 -3.5q-25 10 -48.5 26.5t-46.5 35.5q-23 -18 -46 -35t-46 -27q-8 -4 -14 3z M341 767q-1 -13 7 -27.5t31 -16.5q51 -8 100 10q-31 53 -94 66q-18 2 -30.5 -8.5t-13.5 -23.5z" />
<glyph unicode="&#xf1;" horiz-adv-x="499" d="M-12 825q18 29 36.5 56.5t34.5 60.5q10 23 30 13.5t22 -27.5q4 -35 7 -69t7 -68q29 47 67.5 81.5t81.5 49.5q51 18 88 2.5t62 -48t37 -77.5t12 -86q2 -117 -23.5 -228.5t-41.5 -226.5q-2 -10 -7.5 -39t-6.5 -59.5t3 -53t21 -16.5q27 10 42 30.5t44 55.5q4 8 13 4t1 -14 q-16 -25 -33.5 -56.5t-41 -54t-51 -27.5t-64.5 25q-18 16 -25.5 38t-7.5 46.5t3 49t7 46.5q4 47 15.5 94.5t21.5 94.5q14 59 26.5 117.5t16.5 117.5q4 43 4 98.5t-27 92.5t-57.5 38t-62 -19.5t-61 -57.5t-52.5 -74q4 -109 2 -215t-6 -213q-2 -35 -3 -70.5t-1 -70.5v-35.5 t4 -36.5v-4h4q14 -4 22.5 -18.5t4.5 -28.5q-8 -25 -24.5 -34t-35 -7t-36 14.5t-25.5 30.5q-23 45 -24 96.5t1 98.5q14 307 37 614q-12 -10 -24.5 -21.5t-26.5 -21.5q-4 -4 -9 1t-1 11zM86.5 1051.5q9.5 23.5 36.5 38t61.5 17.5t59.5 -5q35 -14 68.5 -33.5t74.5 -13.5 q16 2 29.5 13t17.5 22.5t-3 19.5t-32 4q-6 0 -8 5t4 9q25 16 44.5 10.5t29.5 -23t8 -39t-22 -38.5q-29 -23 -67 -26.5t-71 10.5q-18 6 -33.5 15.5t-31.5 19.5t-33.5 16t-38.5 4q-12 0 -27.5 -3t-26.5 -10t-15 -21t8 -37q4 -6 -3 -10.5t-12 -0.5q-27 33 -17.5 56.5z" />
<glyph unicode="&#xf2;" horiz-adv-x="593" d="M-6 495.5q6 90.5 37 172.5q27 68 68.5 125t111.5 86q27 12 56.5 19t56 4t48 -18.5t31.5 -45.5q45 -10 80 -45q10 -8 18.5 -18.5t16.5 -22.5q12 6 22.5 13t20.5 11q6 4 10 -1t0 -9q-10 -10 -19 -17.5t-22 -17.5q33 -59 41 -130t4 -134q-4 -96 -32.5 -188.5t-96.5 -163.5 q-27 -27 -60.5 -52.5t-70 -41t-76.5 -16.5t-79 22q-37 23 -63.5 56.5t-46 72.5t-32 81t-18.5 82q-12 86 -6 176.5zM101 409.5q5 -71.5 24 -135.5q8 -35 26.5 -70.5t45 -62t60.5 -36t77 13.5q59 33 97 79t67 103q29 72 36 151.5t-10 155.5q-4 25 -12 51.5t-18 49.5 q-29 -12 -61 -18.5t-60 1.5q-16 4 -38 11.5t-24 23.5q-4 18 -4 38.5t10 37.5q12 23 31.5 32t42.5 5q-29 31 -60.5 30.5t-72.5 -18.5q-16 -8 -30.5 -18.5t-28.5 -20.5q-39 -55 -61.5 -121.5t-32 -138.5t-4.5 -143.5zM168 1215.5q6 7.5 14 3.5q57 -25 109.5 -77t83.5 -106 q6 -10 3 -19t-10.5 -15.5t-17.5 -6.5t-16 9q-41 49 -77 103t-87 95q-8 6 -2 13.5zM341 767q-1 -13 7 -27.5t31 -16.5q51 -8 100 10q-31 53 -94 66q-18 2 -30.5 -8.5t-13.5 -23.5z" />
<glyph unicode="&#xf3;" horiz-adv-x="593" d="M-6 495.5q6 90.5 37 172.5q27 68 68.5 125t111.5 86q27 12 56.5 19t56 4t48 -18.5t31.5 -45.5q45 -10 80 -45q10 -8 18.5 -18.5t16.5 -22.5q12 6 22.5 13t20.5 11q6 4 10 -1t0 -9q-10 -10 -19 -17.5t-22 -17.5q33 -59 41 -130t4 -134q-4 -96 -32.5 -188.5t-96.5 -163.5 q-27 -27 -60.5 -52.5t-70 -41t-76.5 -16.5t-79 22q-37 23 -63.5 56.5t-46 72.5t-32 81t-18.5 82q-12 86 -6 176.5zM101 409.5q5 -71.5 24 -135.5q8 -35 26.5 -70.5t45 -62t60.5 -36t77 13.5q59 33 97 79t67 103q29 72 36 151.5t-10 155.5q-4 25 -12 51.5t-18 49.5 q-29 -12 -61 -18.5t-60 1.5q-16 4 -38 11.5t-24 23.5q-4 18 -4 38.5t10 37.5q12 23 31.5 32t42.5 5q-29 31 -60.5 30.5t-72.5 -18.5q-16 -8 -30.5 -18.5t-28.5 -20.5q-39 -55 -61.5 -121.5t-32 -138.5t-4.5 -143.5zM173 1017q-3 9 3 19q31 53 83 105.5t110 77.5q8 4 14 -3.5 t-2 -13.5q-51 -41 -87 -95t-77 -103q-6 -8 -16.5 -8.5t-17.5 6t-10 15.5zM341 767q-1 -13 7 -27.5t31 -16.5q51 -8 100 10q-31 53 -94 66q-18 2 -30.5 -8.5t-13.5 -23.5z" />
<glyph unicode="&#xf4;" horiz-adv-x="593" d="M-6 495.5q6 90.5 37 172.5q27 68 68.5 125t111.5 86q27 12 56.5 19t56 4t48 -18.5t31.5 -45.5q45 -10 80 -45q10 -8 18.5 -18.5t16.5 -22.5q12 6 22.5 13t20.5 11q6 4 10 -1t0 -9q-10 -10 -19 -17.5t-22 -17.5q33 -59 41 -130t4 -134q-4 -96 -32.5 -188.5t-96.5 -163.5 q-27 -27 -60.5 -52.5t-70 -41t-76.5 -16.5t-79 22q-37 23 -63.5 56.5t-46 72.5t-32 81t-18.5 82q-12 86 -6 176.5zM101 409.5q5 -71.5 24 -135.5q8 -35 26.5 -70.5t45 -62t60.5 -36t77 13.5q59 33 97 79t67 103q29 72 36 151.5t-10 155.5q-4 25 -12 51.5t-18 49.5 q-29 -12 -61 -18.5t-60 1.5q-16 4 -38 11.5t-24 23.5q-4 18 -4 38.5t10 37.5q12 23 31.5 32t42.5 5q-29 31 -60.5 30.5t-72.5 -18.5q-16 -8 -30.5 -18.5t-28.5 -20.5q-39 -55 -61.5 -121.5t-32 -138.5t-4.5 -143.5zM102 1059q20 39 60.5 74t81.5 51q8 4 12 -4.5t-2 -12.5 q-35 -31 -58.5 -69.5t-52.5 -71.5q-16 -18 -33.5 -3t-7.5 36zM311 1179.5q4 8.5 13 4.5q41 -16 79.5 -51t61.5 -74q6 -10 3 -19.5t-10 -15.5t-17.5 -7t-18.5 9q-29 33 -51.5 71.5t-57.5 69.5q-6 4 -2 12.5zM341 767q-1 -13 7 -27.5t31 -16.5q51 -8 100 10q-31 53 -94 66 q-18 2 -30.5 -8.5t-13.5 -23.5z" />
<glyph unicode="&#xf5;" horiz-adv-x="593" d="M-6 495.5q6 90.5 37 172.5q27 68 68.5 125t111.5 86q27 12 56.5 19t56 4t48 -18.5t31.5 -45.5q45 -10 80 -45q10 -8 18.5 -18.5t16.5 -22.5q12 6 22.5 13t20.5 11q6 4 10 -1t0 -9q-10 -10 -19 -17.5t-22 -17.5q33 -59 41 -130t4 -134q-4 -96 -32.5 -188.5t-96.5 -163.5 q-27 -27 -60.5 -52.5t-70 -41t-76.5 -16.5t-79 22q-37 23 -63.5 56.5t-46 72.5t-32 81t-18.5 82q-12 86 -6 176.5zM86.5 1051.5q9.5 23.5 36.5 38t61.5 17.5t59.5 -5q35 -14 68.5 -33.5t74.5 -13.5q16 2 29.5 13t17.5 22.5t-3 19.5t-32 4q-6 0 -8 5t4 9q25 16 44.5 10.5 t29.5 -23t8 -39t-22 -38.5q-29 -23 -67 -26.5t-71 10.5q-18 6 -33.5 15.5t-31.5 19.5t-33.5 16t-38.5 4q-12 0 -27.5 -3t-26.5 -10t-15 -21t8 -37q4 -6 -3 -10.5t-12 -0.5q-27 33 -17.5 56.5zM101 409.5q5 -71.5 24 -135.5q8 -35 26.5 -70.5t45 -62t60.5 -36t77 13.5 q59 33 97 79t67 103q29 72 36 151.5t-10 155.5q-4 25 -12 51.5t-18 49.5q-29 -12 -61 -18.5t-60 1.5q-16 4 -38 11.5t-24 23.5q-4 18 -4 38.5t10 37.5q12 23 31.5 32t42.5 5q-29 31 -60.5 30.5t-72.5 -18.5q-16 -8 -30.5 -18.5t-28.5 -20.5q-39 -55 -61.5 -121.5t-32 -138.5 t-4.5 -143.5zM341 767q-1 -13 7 -27.5t31 -16.5q51 -8 100 10q-31 53 -94 66q-18 2 -30.5 -8.5t-13.5 -23.5z" />
<glyph unicode="&#xf6;" horiz-adv-x="593" d="M-6 495.5q6 90.5 37 172.5q27 68 68.5 125t111.5 86q27 12 56.5 19t56 4t48 -18.5t31.5 -45.5q45 -10 80 -45q10 -8 18.5 -18.5t16.5 -22.5q12 6 22.5 13t20.5 11q6 4 10 -1t0 -9q-10 -10 -19 -17.5t-22 -17.5q33 -59 41 -130t4 -134q-4 -96 -32.5 -188.5t-96.5 -163.5 q-27 -27 -60.5 -52.5t-70 -41t-76.5 -16.5t-79 22q-37 23 -63.5 56.5t-46 72.5t-32 81t-18.5 82q-12 86 -6 176.5zM101 409.5q5 -71.5 24 -135.5q8 -35 26.5 -70.5t45 -62t60.5 -36t77 13.5q59 33 97 79t67 103q29 72 36 151.5t-10 155.5q-4 25 -12 51.5t-18 49.5 q-29 -12 -61 -18.5t-60 1.5q-16 4 -38 11.5t-24 23.5q-4 18 -4 38.5t10 37.5q12 23 31.5 32t42.5 5q-29 31 -60.5 30.5t-72.5 -18.5q-16 -8 -30.5 -18.5t-28.5 -20.5q-39 -55 -61.5 -121.5t-32 -138.5t-4.5 -143.5zM168 1034q-6 23 8 40.5t37 19.5q4 0 5 -1t5 -1q2 0 3 1 t5 1q6 0 9 -2q6 0 18 -9q18 -23 6 -45l-6 -8q-8 -16 -22 -22q-10 -6 -23 -7q-14 0 -23 7q-14 8 -22 26zM252 1022l2 2q-2 0 -2 -2zM311 1034q-6 23 8.5 40.5t36.5 19.5q2 0 4 -1t5 -1q4 0 5 1t5 1q6 0 8 -2q6 0 18 -9q18 -23 7 -45l-7 -8q-4 -6 -9 -12t-13 -10 q-10 -6 -23 -7q-12 0 -24 7q-12 8 -21 26zM341 767q-1 -13 7 -27.5t31 -16.5q51 -8 100 10q-31 53 -94 66q-18 2 -30.5 -8.5t-13.5 -23.5zM395 1022q0 2 2 2z" />
<glyph unicode="&#xf7;" horiz-adv-x="1042" d="M2 731q-2 4 2 7t8 -1q10 -12 34 -13t50.5 2t51 8t36.5 7q59 10 120 21.5t120 21.5q141 20 279.5 20.5t281.5 -5.5q29 -2 43 -20.5t14 -41t-14 -40t-43 -17.5q-94 4 -187 10t-188 0q-59 -4 -118.5 -9t-118.5 -7q-66 -4 -129.5 1t-128.5 15q-25 4 -61 9.5t-52 31.5z M445.5 367.5q-3.5 15.5 0.5 29.5q10 29 35 50.5t56 13.5q18 -6 32.5 -20.5t16.5 -34.5q2 -16 -5.5 -30t-17.5 -26q-14 -14 -37.5 -25.5t-42.5 -0.5q-4 4 -4 6q-10 2 -20 12t-13.5 25.5zM445.5 1041.5q-3.5 15.5 0.5 29.5q10 29 35 50.5t56 13.5q18 -6 32.5 -20.5t16.5 -35.5 q2 -16 -5.5 -29.5t-17.5 -23.5q-14 -16 -37.5 -27.5t-42.5 -1.5q-4 4 -4 7q-10 2 -20 12t-13.5 25.5z" />
<glyph unicode="&#xf8;" horiz-adv-x="593" d="M-6 495.5q6 90.5 37 172.5q27 68 68.5 125t111.5 86q27 12 56.5 19t56 4t48 -18.5t31.5 -45.5q31 -6 60 -29q16 25 32.5 47.5t39.5 42.5q4 4 10 2t4 -6q-8 -66 -41 -129l10 -14q12 6 22.5 13t20.5 11q6 4 10 -1t0 -9q-10 -10 -19 -17.5t-22 -17.5q33 -59 41.5 -130 t3.5 -134q-4 -96 -32.5 -188.5t-96.5 -163.5q-27 -27 -60.5 -52.5t-70 -41t-76.5 -16.5t-79 22q-14 8 -25.5 17t-21.5 19q-2 -2 -2 -4q-10 -14 -21.5 -32.5t-34.5 -24.5q-12 -4 -22 1t-15 15q-10 20 8.5 43t28.5 39q8 12 15 19q-29 47 -45.5 99t-24.5 101q-12 86 -6 176.5z M101 409.5q5 -71.5 24 -135.5q4 -10 7 -21t7 -22q31 51 61.5 102.5t59.5 104.5q33 63 65.5 124t67.5 124v2q-8 0 -20 4q-16 4 -38 11.5t-24 23.5q-4 18 -4 38.5t10 37.5q12 23 31.5 32t42.5 5q-29 31 -60.5 30.5t-72.5 -18.5q-16 -8 -30.5 -18.5t-28.5 -20.5 q-39 -55 -61.5 -121.5t-32 -138.5t-4.5 -143.5zM184 154q27 -33 65 -46.5t85 11.5q59 33 97 79t67 103q29 72 36 151.5t-10 155.5q-4 25 -12 51.5t-18 49.5l-17 -9q-8 -12 -14 -24t-12 -25q-59 -127 -123 -245q-66 -123 -135 -240q-4 -4 -9 -12zM341 767q-1 -13 7 -27.5 t31 -16.5q20 -4 33 -4l30 55q-12 8 -26.5 14.5t-30.5 10.5q-18 2 -30.5 -8.5t-13.5 -23.5z" />
<glyph unicode="&#xf9;" horiz-adv-x="450" d="M4 281q-2 78 5 155.5t19.5 154.5t26 152.5t23.5 153.5q-25 -16 -47.5 -21.5t-16.5 31.5q4 4 4 0q4 -12 14.5 -8t22 16.5t20.5 25.5t13 17q8 10 21.5 5t15.5 -15q10 -53 5 -108.5t-7 -108.5q-4 -84 -9 -166t-8 -166q-2 -68 0.5 -140.5t24.5 -137.5q4 -16 11.5 -33.5 t23.5 -28.5q18 -10 34.5 -6t31 15.5t28.5 27t27 27.5q2 16 2 30.5v28.5q0 123 6 250q2 63 4 124.5t4 125.5q2 59 1 118.5t5 119.5q4 23 23 28q29 10 51 27q10 6 15 -1t1 -16q-6 -12 -11 -24t-15 -23q16 -55 23 -116.5t8.5 -123t-1 -122t-4.5 -117.5q-2 -63 -3 -125.5 t-1 -124.5q0 -27 3 -61.5t-1 -69.5q-4 -16 -13 -37.5t-13 -25.5q-6 -8 -17.5 -10.5t-19.5 4.5q-20 12 -29.5 32.5t-13.5 44.5q-20 -16 -44 -30.5t-40 -20.5q-29 -10 -60.5 -11t-56.5 21q-55 49 -69.5 121t-16.5 142zM66 1215.5q6 7.5 14 3.5q57 -25 109.5 -77t82.5 -106 q6 -10 3 -19t-10 -15.5t-17 -6.5t-17 9q-41 49 -76.5 103t-86.5 95q-8 6 -2 13.5z" />
<glyph unicode="&#xfa;" horiz-adv-x="450" d="M4 281q-2 78 5 155.5t19.5 154.5t26 152.5t23.5 153.5q-25 -16 -47.5 -21.5t-16.5 31.5q4 4 4 0q4 -12 14.5 -8t22 16.5t20.5 25.5t13 17q8 10 21.5 5t15.5 -15q10 -53 5 -108.5t-7 -108.5q-4 -84 -9 -166t-8 -166q-2 -68 0.5 -140.5t24.5 -137.5q4 -16 11.5 -33.5 t23.5 -28.5q18 -10 34.5 -6t31 15.5t28.5 27t27 27.5q2 16 2 30.5v28.5q0 123 6 250q2 63 4 124.5t4 125.5q2 59 1 118.5t5 119.5q4 23 23 28q29 10 51 27q10 6 15 -1t1 -16q-6 -12 -11 -24t-15 -23q16 -55 23 -116.5t8.5 -123t-1 -122t-4.5 -117.5q-2 -63 -3 -125.5 t-1 -124.5q0 -27 3 -61.5t-1 -69.5q-4 -16 -13 -37.5t-13 -25.5q-6 -8 -17.5 -10.5t-19.5 4.5q-20 12 -29.5 32.5t-13.5 44.5q-20 -16 -44 -30.5t-40 -20.5q-29 -10 -60.5 -11t-56.5 21q-55 49 -69.5 121t-16.5 142zM173 1017q-3 9 3 19q31 53 83 105.5t110 77.5 q8 4 14 -3.5t-2 -13.5q-51 -41 -87 -95t-77 -103q-6 -8 -16.5 -8.5t-17.5 6t-10 15.5z" />
<glyph unicode="&#xfb;" horiz-adv-x="450" d="M4 281q-2 78 5 155.5t19.5 154.5t26 152.5t23.5 153.5q-25 -16 -47.5 -21.5t-16.5 31.5q4 4 4 0q4 -12 14.5 -8t22 16.5t20.5 25.5t13 17q8 10 21.5 5t15.5 -15q10 -53 5 -108.5t-7 -108.5q-4 -84 -9 -166t-8 -166q-2 -68 0.5 -140.5t24.5 -137.5q4 -16 11.5 -33.5 t23.5 -28.5q18 -10 34.5 -6t31 15.5t28.5 27t27 27.5q2 16 2 30.5v28.5q0 123 6 250q2 63 4 124.5t4 125.5q2 59 1 118.5t5 119.5q4 23 23 28q29 10 51 27q10 6 15 -1t1 -16q-6 -12 -11 -24t-15 -23q16 -55 23 -116.5t8.5 -123t-1 -122t-4.5 -117.5q-2 -63 -3 -125.5 t-1 -124.5q0 -27 3 -61.5t-1 -69.5q-4 -16 -13 -37.5t-13 -25.5q-6 -8 -17.5 -10.5t-19.5 4.5q-20 12 -29.5 32.5t-13.5 44.5q-20 -16 -44 -30.5t-40 -20.5q-29 -10 -60.5 -11t-56.5 21q-55 49 -69.5 121t-16.5 142zM37 1059q20 39 60 74t81 51q8 4 12.5 -4.5t-2.5 -12.5 q-35 -31 -58.5 -69.5t-51.5 -71.5q-16 -18 -33.5 -3t-7.5 36zM246 1179.5q4 8.5 12 4.5q41 -16 80 -51t61 -74q6 -10 3 -19.5t-10 -15.5t-17 -7t-19 9q-29 33 -51 71.5t-57 69.5q-6 4 -2 12.5z" />
<glyph unicode="&#xfc;" horiz-adv-x="450" d="M4 281q-2 78 5 155.5t19.5 154.5t26 152.5t23.5 153.5q-25 -16 -47.5 -21.5t-16.5 31.5q4 4 4 0q4 -12 14.5 -8t22 16.5t20.5 25.5t13 17q8 10 21.5 5t15.5 -15q10 -53 5 -108.5t-7 -108.5q-4 -84 -9 -166t-8 -166q-2 -68 0.5 -140.5t24.5 -137.5q4 -16 11.5 -33.5 t23.5 -28.5q18 -10 34.5 -6t31 15.5t28.5 27t27 27.5q2 16 2 30.5v28.5q0 123 6 250q2 63 4 124.5t4 125.5q2 59 1 118.5t5 119.5q4 23 23 28q29 10 51 27q10 6 15 -1t1 -16q-6 -12 -11 -24t-15 -23q16 -55 23 -116.5t8.5 -123t-1 -122t-4.5 -117.5q-2 -63 -3 -125.5 t-1 -124.5q0 -27 3 -61.5t-1 -69.5q-4 -16 -13 -37.5t-13 -25.5q-6 -8 -17.5 -10.5t-19.5 4.5q-20 12 -29.5 32.5t-13.5 44.5q-20 -16 -44 -30.5t-40 -20.5q-29 -10 -60.5 -11t-56.5 21q-55 49 -69.5 121t-16.5 142zM104 1034q-6 23 8.5 40.5t37.5 19.5q4 0 5 -1t5 -1 q2 0 3 1t5 1q6 0 8 -2q6 0 19 -9q18 -23 6 -45l-6 -8q-8 -16 -23 -22q-10 -6 -22 -7q-14 0 -23 7q-14 8 -23 26zM188 1022l2 2q-2 0 -2 -2zM248 1034q-6 23 8 40.5t37 19.5q2 0 4 -1t4 -1q4 0 5 1t5 1q6 0 8 -2q6 0 19 -9q18 -23 6 -45l-6 -8q-4 -6 -9 -12t-14 -10 q-10 -6 -22 -7q-12 0 -25 7q-12 8 -20 26zM332 1022q0 2 2 2z" />
<glyph unicode="&#xfd;" horiz-adv-x="483" d="M-407 -388q1 34 24 62q43 51 96.5 87t111.5 62.5t120.5 47t122.5 41.5q59 20 119.5 42.5t113.5 57.5q25 18 45 39q0 29 1 55.5t1 55.5q-29 -45 -78 -82t-98 -45q-72 -14 -110.5 22.5t-49.5 104.5q-8 51 -7 103t5 103.5t9.5 103.5t7.5 103q4 74 9 152t38 143 q-8 -4 -16.5 -9t-16.5 -11q-2 -2 -5 0t-1 6q16 23 38.5 39t43.5 37q16 16 33.5 2t7.5 -35q-16 -37 -23.5 -77t-9.5 -82t-2 -83v-82q0 -82 -11.5 -161.5t-11.5 -161.5q0 -33 2 -70t13 -67q10 -29 24.5 -36t42.5 1q49 16 90 47t76 72q0 100 -4 200.5t-4 200.5t6 200.5 t23 198.5q-4 -4 -8.5 -7t-8.5 -7q-2 -4 -6 -2t-2 6q6 20 16.5 34.5t22.5 31.5q10 12 21.5 4t13.5 -19q16 -137 17 -275.5t-1 -275.5q0 -45 -2 -106t-5 -125.5t-5 -124t-4 -98.5q0 -10 -1 -18.5t-1 -18.5q-10 -100 -56.5 -192.5t-118 -163t-163.5 -114.5t-195 -46 q-35 -2 -72.5 -3t-72.5 4t-66.5 19.5t-56.5 44.5q-23 31 -22 65zM-370 -392.5q-1 -23.5 13.5 -43t39 -32.5t51.5 -17q117 -16 234.5 22.5t209.5 112.5q76 61 112 135t48 162q-41 -33 -88 -55.5t-94 -43.5q-135 -59 -277 -110q-27 -10 -56.5 -17.5t-59 -15.5t-58.5 -19.5 t-49 -31.5q-25 -23 -26 -46.5zM173 1017q-3 9 3 19q31 53 83 105.5t110 77.5q8 4 14 -3.5t-2 -13.5q-51 -41 -87 -95t-77 -103q-6 -8 -16.5 -8.5t-17.5 6t-10 15.5z" />
<glyph unicode="&#xff;" horiz-adv-x="483" d="M-407 -388q1 34 24 62q43 51 96.5 87t111.5 62.5t120.5 47t122.5 41.5q59 20 119.5 42.5t113.5 57.5q25 18 45 39q0 29 1 55.5t1 55.5q-29 -45 -78 -82t-98 -45q-72 -14 -110.5 22.5t-49.5 104.5q-8 51 -7 103t5 103.5t9.5 103.5t7.5 103q4 74 9 152t38 143 q-8 -4 -16.5 -9t-16.5 -11q-2 -2 -5 0t-1 6q16 23 38.5 39t43.5 37q16 16 33.5 2t7.5 -35q-16 -37 -23.5 -77t-9.5 -82t-2 -83v-82q0 -82 -11.5 -161.5t-11.5 -161.5q0 -33 2 -70t13 -67q10 -29 24.5 -36t42.5 1q49 16 90 47t76 72q0 100 -4 200.5t-4 200.5t6 200.5 t23 198.5q-4 -4 -8.5 -7t-8.5 -7q-2 -4 -6 -2t-2 6q6 20 16.5 34.5t22.5 31.5q10 12 21.5 4t13.5 -19q16 -137 17 -275.5t-1 -275.5q0 -45 -2 -106t-5 -125.5t-5 -124t-4 -98.5q0 -10 -1 -18.5t-1 -18.5q-10 -100 -56.5 -192.5t-118 -163t-163.5 -114.5t-195 -46 q-35 -2 -72.5 -3t-72.5 4t-66.5 19.5t-56.5 44.5q-23 31 -22 65zM-370 -392.5q-1 -23.5 13.5 -43t39 -32.5t51.5 -17q117 -16 234.5 22.5t209.5 112.5q76 61 112 135t48 162q-41 -33 -88 -55.5t-94 -43.5q-135 -59 -277 -110q-27 -10 -56.5 -17.5t-59 -15.5t-58.5 -19.5 t-49 -31.5q-25 -23 -26 -46.5zM63 1034q-6 23 8.5 40.5t37.5 19.5q4 0 5 -1t5 -1q2 0 3 1t5 1q6 0 8 -2q6 0 19 -9q18 -23 6 -45l-6 -8q-8 -16 -23 -22q-10 -6 -22 -7q-14 0 -23 7q-14 8 -23 26zM147 1022q1 0 3 2q-2 0 -3 -2zM207 1034q-6 23 8 40.5t37 19.5q2 0 4 -1t4 -1 q4 0 5 1t5 1q6 0 9 -2q6 0 18 -9q18 -23 6 -45l-6 -8q-4 -6 -9 -12t-14 -10q-10 -6 -22 -7q-12 0 -25 7q-12 8 -20 26zM291 1022q0 2 2 2z" />
<glyph unicode="&#x152;" horiz-adv-x="1351" d="M-23 575q0 78 6.5 154t16.5 154q6 92 21.5 185t50.5 179q10 23 24.5 50.5t32.5 54.5q37 55 88 100t115 49q53 4 101 -12t93 -47q29 -18 45.5 -47t40.5 -49q4 -4 -2 -5q-33 10 -57.5 36t-54.5 42q-68 33 -132.5 35t-117.5 -61q-29 -35 -48.5 -76t-31.5 -84 q-16 -51 -28.5 -103.5t-20.5 -105.5q-12 -129 -13 -258q0 -86 1.5 -173t13.5 -173q8 -53 15 -114.5t34 -108.5q41 -74 117 -107q37 -4 73.5 6t67.5 27q94 51 139 143q10 18 17 35q-23 94 -2.5 189.5t73.5 179.5l7 116q4 63 7 130t-10 128v5q-66 -27 -132 -33t-138 35 q-8 4 -13 12t-3 18q0 57 28.5 101.5t71.5 65t93 13t93 -52.5q37 -37 58 -94l4 2q0 29 4 55.5t14 55.5q14 43 36 83t54.5 73.5t80.5 59t120 42.5q49 12 99.5 5t97.5 -26q57 -23 93 -67.5t48 -99t0 -112t-51 -106.5q-41 -49 -101.5 -67.5t-117.5 22.5q-53 39 -70.5 96.5 t16.5 116.5q8 14 20.5 16.5t24 -3t18.5 -16.5t5 -25q-10 -41 6.5 -74t57.5 -43q117 -25 141 98q23 88 -21.5 153.5t-136.5 76.5q-84 10 -168 -29t-129 -113q-35 -59 -40 -126.5t19.5 -127t76 -100.5t126.5 -43q14 0 20.5 -8.5t6.5 -19.5t-6 -20t-21 -9q-47 -4 -91 -18.5 t-83 -37.5q-74 -59 -114.5 -149t-48.5 -183q-4 -59 6 -122.5t43 -116.5q10 -14 19 -25.5t22 -21.5q68 -47 149.5 -51.5t162.5 22.5t152.5 78.5t116.5 114.5q6 10 16.5 4t6.5 -17q-25 -49 -64 -97t-86 -90t-100 -70.5t-111 -37.5q-121 -20 -234.5 24t-178.5 155 q-12 18 -19 36q-43 -78 -110.5 -130t-165.5 -64q-111 -16 -180.5 36t-108.5 136t-52.5 184.5t-13.5 181.5zM446 1104q-2 -12 13.5 -19.5t36 -9.5t41 -1t26.5 1q23 4 43.5 8t40.5 9q-14 41 -41.5 71.5t-73.5 26.5q-35 -4 -57 -27.5t-29 -58.5zM729 760q59 59 135 94 q-98 66 -131 178v-6q4 -66 2 -133.5t-6 -132.5z" />
<glyph unicode="&#x153;" horiz-adv-x="894" d="M-6 495.5q6 90.5 37 172.5q27 68 68.5 125t111.5 86q27 12 56.5 19t56 4t48 -18.5t31.5 -45.5q45 -10 80 -45q10 -8 18.5 -18.5t16.5 -22.5q12 6 22.5 13t20.5 11q6 4 10 -1t0 -9q-10 -10 -19 -17.5t-22 -17.5q16 -29 25 -57q4 23 7 42t11 42q8 25 22.5 55.5t34 57t46 43 t61.5 14.5q31 -2 55.5 -17.5t42 -40t27.5 -53.5t10 -57q2 -76 -33.5 -149.5t-78.5 -135.5q-29 -41 -60.5 -87t-68.5 -87v-8q0 -23 -1 -53.5t2 -62.5t11 -60.5t29 -44.5q49 -41 86 -28t64.5 52t50 86t45.5 72q4 4 10 -1t-4 -28q-8 -18 -12.5 -25t-7.5 -12.5t-7 -12.5t-12 -23 q-25 -53 -53.5 -96.5t-92.5 -53.5q-66 -10 -110.5 18.5t-67.5 94.5l-4 8q-4 18 -8 57t-6 99q-16 -45 -39 -87t-58 -77q-27 -27 -60.5 -52.5t-70 -41t-76.5 -16.5t-79 22q-37 23 -63.5 56.5t-46 72.5t-32 81t-18.5 82q-12 86 -6 176.5zM101 409.5q5 -71.5 24 -135.5 q8 -35 26.5 -70.5t45 -62t60.5 -36t77 13.5q59 33 97 79t67 103q29 72 36 151.5t-10 155.5q-4 25 -12 51.5t-18 49.5q-29 -12 -61 -18.5t-60 1.5q-16 4 -38 11.5t-24 23.5q-4 18 -4 38.5t10 37.5q12 23 31.5 32t42.5 5q-29 31 -60.5 30.5t-72.5 -18.5q-16 -8 -30.5 -18.5 t-28.5 -20.5q-39 -55 -61.5 -121.5t-32 -138.5t-4.5 -143.5zM341 767q-1 -13 7 -27.5t31 -16.5q51 -8 100 10q-31 53 -94 66q-18 2 -30.5 -8.5t-13.5 -23.5zM633 340q31 45 61.5 92t54 97.5t38 102.5t12.5 107q0 18 -7.5 42t-19.5 41.5t-28.5 21.5t-34.5 -19 q-25 -29 -39.5 -63.5t-20.5 -72.5t-7 -77t-1 -73q0 -49 -3 -97.5t-5 -101.5z" />
<glyph unicode="&#x178;" horiz-adv-x="675" d="M-12 106q23 41 64.5 67t91 40t99.5 22.5t91 14.5q37 6 72.5 14t70.5 19q10 16 18.5 35.5t14.5 39.5q20 68 20 135.5t-2 139.5q0 61 -6 123q-25 -59 -69.5 -97t-112.5 -32q-82 6 -138.5 56t-93 122t-57 151.5t-31.5 147.5q-2 8 -7 45t-7 85t5 97t32 84q14 20 36.5 31.5 t45 11.5t44 -11t34.5 -36q10 -18 14 -41.5t-10 -40.5q-8 -8 -16.5 -12t-18.5 4q-8 4 0 8q4 2 0 19.5t-15.5 34t-26.5 23.5t-34 -11q-25 -25 -29 -64t-1 -74q0 -10 1 -20t1 -20q6 -39 17 -83t28 -98q16 -51 37.5 -103t50.5 -97q12 -18 28.5 -43t37 -48.5t45 -39t48.5 -15.5 q61 2 98.5 45t55.5 101q-2 20 -4 38.5t-6 38.5q-10 72 -20.5 144.5t-20.5 146.5q-2 23 -6 54.5t-4 65.5t7 63.5t25 46.5q10 8 22.5 9t20.5 -9q2 0 2 -2q10 -8 27.5 -12.5t22.5 -0.5h2q10 -12 6 -26q-4 -12 -17 -13h-14q4 -20 5 -41.5t5 -38.5q8 -41 12.5 -82.5t10.5 -82.5 q14 -90 28.5 -177.5t20.5 -177.5q4 -76 -1 -151.5t-17.5 -143t-30 -124t-37.5 -89.5q-29 -55 -68 -96q-59 -66 -143 -112t-176 -56q-16 -2 -53 0t-71 12.5t-53.5 31t-0.5 54.5zM5 88q-1 -12 11 -22q14 -12 41 -19q61 -10 121 6q47 14 90 37.5t82 52.5q59 43 103 103 q-10 -2 -19.5 -3t-19.5 -5q-43 -8 -91.5 -13.5t-95.5 -12.5t-92 -22.5t-82 -42.5q-6 -4 -17 -13t-20.5 -21.5t-10.5 -24.5zM215 1505q-6 23 8.5 40.5t36.5 19.5q4 0 5 -1t5 -1q2 0 3.5 1t5.5 1q6 0 8 -2q6 0 18 -9q18 -23 6 -45l-6 -8q-8 -16 -22 -22q-10 -6 -23 -6 q-14 0 -22 6q-14 8 -23 26zM299 1493l2 2q-2 0 -2 -2zM358 1505q-6 23 8.5 40.5t36.5 19.5q2 0 4.5 -1t4.5 -1q4 0 5 1t5 1q6 0 8 -2q6 0 19 -9q18 -23 6 -45l-6 -8q-4 -6 -9.5 -12t-13.5 -10q-10 -6 -23 -6q-12 0 -24 6q-12 8 -21 26zM442 1493q0 2 2 2z" />
<glyph unicode="&#x2c6;" horiz-adv-x="391" d="M2 1311q23 16 41 29.5t37 31.5q18 20 37.5 40t36.5 42q10 10 26 4q18 -8 51 -24.5t66 -35t58.5 -39t31.5 -36.5q4 -12 -11.5 -19t-25.5 3q-20 14 -37.5 29.5t-40.5 29.5q-25 16 -48 30.5t-50 28.5q-35 -43 -76 -73q-4 -4 -16 -12.5t-27.5 -17.5t-30 -13t-22.5 2z" />
<glyph unicode="&#x2dc;" horiz-adv-x="1042" d="M2 731q-2 4 2 10.5t8 3.5q10 -4 34 8.5t50 24.5q27 14 51.5 23.5t36.5 13.5q59 16 120 16t120 -10q70 -14 140.5 -37.5t140 -40t139 -16.5t141.5 35q57 27 57 -25q0 -23 -14 -50.5t-43 -43.5q-47 -23 -94 -29t-93 -1t-93.5 18.5t-94.5 25.5q-59 16 -118.5 35t-118.5 33 q-66 16 -129.5 26.5t-128.5 -1.5q-25 -4 -61 -17.5t-52 -1.5z" />
<glyph unicode="&#x2000;" horiz-adv-x="907" />
<glyph unicode="&#x2001;" horiz-adv-x="1814" />
<glyph unicode="&#x2002;" horiz-adv-x="907" />
<glyph unicode="&#x2003;" horiz-adv-x="1814" />
<glyph unicode="&#x2004;" horiz-adv-x="604" />
<glyph unicode="&#x2005;" horiz-adv-x="453" />
<glyph unicode="&#x2006;" horiz-adv-x="302" />
<glyph unicode="&#x2007;" horiz-adv-x="302" />
<glyph unicode="&#x2008;" horiz-adv-x="226" />
<glyph unicode="&#x2009;" horiz-adv-x="362" />
<glyph unicode="&#x200a;" horiz-adv-x="100" />
<glyph unicode="&#x2010;" horiz-adv-x="1042" d="M2 731q-2 4 2 7t8 -1q10 -12 34 -13t50.5 2t51 8t36.5 7q59 10 120 21.5t120 21.5q141 20 279.5 20.5t281.5 -5.5q29 -2 43 -20.5t14 -41t-14 -40t-43 -17.5q-94 4 -187 10t-188 0q-59 -4 -118.5 -9t-118.5 -7q-66 -4 -129.5 1t-128.5 15q-25 4 -61 9.5t-52 31.5z" />
<glyph unicode="&#x2011;" horiz-adv-x="1042" d="M2 731q-2 4 2 7t8 -1q10 -12 34 -13t50.5 2t51 8t36.5 7q59 10 120 21.5t120 21.5q141 20 279.5 20.5t281.5 -5.5q29 -2 43 -20.5t14 -41t-14 -40t-43 -17.5q-94 4 -187 10t-188 0q-59 -4 -118.5 -9t-118.5 -7q-66 -4 -129.5 1t-128.5 15q-25 4 -61 9.5t-52 31.5z" />
<glyph unicode="&#x2012;" horiz-adv-x="1042" d="M2 731q-2 4 2 7t8 -1q10 -12 34 -13t50.5 2t51 8t36.5 7q59 10 120 21.5t120 21.5q141 20 279.5 20.5t281.5 -5.5q29 -2 43 -20.5t14 -41t-14 -40t-43 -17.5q-94 4 -187 10t-188 0q-59 -4 -118.5 -9t-118.5 -7q-66 -4 -129.5 1t-128.5 15q-25 4 -61 9.5t-52 31.5z" />
<glyph unicode="&#x2013;" horiz-adv-x="1042" d="M2 731q-2 4 2 7t8 -1q10 -12 34 -13t50.5 2t51 8t36.5 7q59 10 120 21.5t120 21.5q141 20 279.5 20.5t281.5 -5.5q29 -2 43 -20.5t14 -41t-14 -40t-43 -17.5q-94 4 -187 10t-188 0q-59 -4 -118.5 -9t-118.5 -7q-66 -4 -129.5 1t-128.5 15q-25 4 -61 9.5t-52 31.5z" />
<glyph unicode="&#x2014;" horiz-adv-x="1042" d="M2 731q-2 4 2 7t8 -1q10 -12 34 -13t50.5 2t51 8t36.5 7q59 10 120 21.5t120 21.5q141 20 279.5 20.5t281.5 -5.5q29 -2 43 -20.5t14 -41t-14 -40t-43 -17.5q-94 4 -187 10t-188 0q-59 -4 -118.5 -9t-118.5 -7q-66 -4 -129.5 1t-128.5 15q-25 4 -61 9.5t-52 31.5z" />
<glyph unicode="&#x2018;" horiz-adv-x="143" d="M2 1490.5q0 14.5 9 26t24 15.5t31 -2q27 -12 45 -37t25 -53.5t6 -59t-13 -57.5q-6 -16 -18.5 -31.5t-27.5 -25t-32.5 -9.5t-34.5 17q-4 4 -1 7t8 1q16 -4 26 3t16.5 20.5t8.5 29t2 27.5q0 35 -19.5 57.5t-42.5 44.5q-12 12 -12 26.5z" />
<glyph unicode="&#x2019;" horiz-adv-x="143" d="M2 1490.5q0 14.5 9 26t24 15.5t31 -2q27 -12 45 -37t25 -53.5t6 -59t-13 -57.5q-6 -16 -18.5 -31.5t-27.5 -25t-32.5 -9.5t-34.5 17q-4 4 -1 7t8 1q16 -4 26 3t16.5 20.5t8.5 29t2 27.5q0 35 -19.5 57.5t-42.5 44.5q-12 12 -12 26.5z" />
<glyph unicode="&#x201a;" horiz-adv-x="143" d="M2 122.5q0 14.5 9 26t24 15.5t31 -2q27 -12 45 -37t25 -53.5t6 -59t-13 -57.5q-6 -16 -18.5 -31.5t-27.5 -25t-32.5 -9.5t-34.5 17q-4 4 -1 7t8 1q16 -4 26 3t16.5 20.5t8.5 29t2 27.5q0 35 -19.5 57.5t-42.5 44.5q-12 12 -12 26.5z" />
<glyph unicode="&#x201c;" horiz-adv-x="348" d="M2 1490.5q0 14.5 9 26t24 15.5t31 -2q27 -12 45 -37t25 -53.5t6 -59t-13 -57.5q-6 -16 -18.5 -31.5t-27.5 -25t-32.5 -9.5t-34.5 17q-4 4 -1 7t8 1q16 -4 26 3t16.5 20.5t8.5 29t2 27.5q0 35 -19.5 57.5t-42.5 44.5q-12 12 -12 26.5zM207 1490.5q0 14.5 9 26t23.5 15.5 t30.5 -2q27 -12 45.5 -37t25.5 -53.5t6 -59t-13 -57.5q-6 -16 -18.5 -31.5t-28 -25t-32.5 -9.5t-34 17q-4 4 -1 7t7 1q16 -4 26.5 3t16.5 20.5t8.5 29t2.5 27.5q0 35 -19.5 57.5t-42.5 44.5q-12 12 -12 26.5z" />
<glyph unicode="&#x201d;" horiz-adv-x="348" d="M2 1490.5q0 14.5 9 26t24 15.5t31 -2q27 -12 45 -37t25 -53.5t6 -59t-13 -57.5q-6 -16 -18.5 -31.5t-27.5 -25t-32.5 -9.5t-34.5 17q-4 4 -1 7t8 1q16 -4 26 3t16.5 20.5t8.5 29t2 27.5q0 35 -19.5 57.5t-42.5 44.5q-12 12 -12 26.5zM207 1490.5q0 14.5 9 26t23.5 15.5 t30.5 -2q27 -12 45.5 -37t25.5 -53.5t6 -59t-13 -57.5q-6 -16 -18.5 -31.5t-28 -25t-32.5 -9.5t-34 17q-4 4 -1 7t7 1q16 -4 26.5 3t16.5 20.5t8.5 29t2.5 27.5q0 35 -19.5 57.5t-42.5 44.5q-12 12 -12 26.5z" />
<glyph unicode="&#x201e;" horiz-adv-x="317" d="M2 122.5q0 14.5 9 26t24 15.5t31 -2q27 -12 45 -37t25 -53.5t6 -59t-13 -57.5q-6 -16 -18.5 -31.5t-27.5 -25t-32.5 -9.5t-34.5 17q-4 4 -1 7t8 1q16 -4 26 3t16.5 20.5t8.5 29t2 27.5q0 35 -19.5 57.5t-42.5 44.5q-12 12 -12 26.5zM166 122.5q0 14.5 9 26t23.5 15.5 t30.5 -2q27 -12 45.5 -37t25.5 -53.5t6 -59t-13 -57.5q-6 -16 -18.5 -31.5t-28 -25t-32.5 -9.5t-34 17q-4 4 -1 7t7 1q16 -4 26.5 3t17 20.5t8.5 29t2 27.5q0 35 -19.5 57.5t-42.5 44.5q-12 12 -12 26.5z" />
<glyph unicode="&#x2022;" horiz-adv-x="143" d="M1 594.5q-3 15.5 1 30.5q10 29 34.5 50t55.5 13q18 -6 32.5 -20.5t16.5 -34.5q2 -16 -5 -29.5t-17 -25.5q-14 -14 -38 -25.5t-42 -1.5q-4 4 -4 6q-10 2 -21 12q-10 10 -13 25.5z" />
<glyph unicode="&#x202f;" horiz-adv-x="362" />
<glyph unicode="&#x2039;" horiz-adv-x="559" d="M4 754.5q6 21.5 23 31.5q74 43 143.5 91.5t140.5 95.5q39 27 75 53.5t71 56.5q23 20 35 42t30 42q0 6 6 0q20 -20 4 -56t-45.5 -73t-61.5 -67.5t-44 -42.5q-59 -55 -123.5 -102.5t-130.5 -94.5q49 -63 100.5 -123.5t102.5 -120.5q25 -29 49 -57t53 -55q27 -25 54.5 -45.5 t54.5 -42.5q16 -14 17 -32.5t-8 -34t-26.5 -25t-38.5 -2.5q-37 10 -71.5 34.5t-65.5 57t-58.5 66.5t-51.5 63q-59 74 -119 147.5t-111 155.5q-10 16 -4 37.5z" />
<glyph unicode="&#x203a;" horiz-adv-x="559" d="M1 254q1 18 17 33q27 23 54.5 43t54.5 45q29 27 53.5 55.5t48.5 56.5q51 59 102.5 120t100.5 124q-66 47 -130 94t-124 103q-12 12 -44 42.5t-61.5 67.5t-46 73t4.5 56q6 6 6 0q18 -20 30.5 -41.5t34.5 -42.5q35 -31 71 -57.5t75 -52.5q72 -47 141.5 -95.5t142.5 -91.5 q16 -10 22.5 -31.5t-3.5 -37.5q-51 -82 -110.5 -156t-118.5 -147q-25 -29 -52.5 -63t-58.5 -66.5t-65.5 -57t-71.5 -34.5q-20 -6 -38 3t-27 24.5t-8 33.5z" />
<glyph unicode="&#x205f;" horiz-adv-x="453" />
<glyph unicode="&#x2122;" horiz-adv-x="520" d="M-27 1430.5q-4 21.5 4.5 44t30.5 28.5q16 4 35.5 1t40 -9t39 -12t35.5 -8q55 -8 100 8t92 45q10 6 16.5 -3t0.5 -18q-33 -37 -76 -61.5t-92 -20.5q-10 0 -21.5 1.5t-21.5 3.5q8 -18 16 -35t14 -33q10 -29 18.5 -60.5t4.5 -60.5q-4 -20 -13.5 -40.5t-33.5 -24.5 q-25 -2 -36 7t-11 36q0 4 5 4t5 -4q4 -23 17.5 -15t13.5 21q0 12 -4 32t-8.5 40t-8.5 38q-6 25 -12 51.5t-10 51.5q-12 8 -28.5 13t-33.5 11q-18 8 -33.5 -1t-20.5 -24.5t2 -28.5t30 -13q8 0 2 -6q-25 -8 -39.5 6t-18.5 35.5zM235.5 1180q-2.5 4 2.5 8q18 8 26 33.5t9 54.5 t-4 56.5t-13 43.5q-4 8 1 17.5t15 5.5q29 -12 46.5 -34t31.5 -48q16 66 39 126t62 118q6 10 19 7t13 -18q-2 -59 -9 -117.5t-9 -117.5q-2 -23 0 -44.5t12 -41.5q10 -23 14.5 -26t14.5 26q2 6 7 5t5 -7q2 -16 -1 -38t-25 -26q-18 -2 -34 11.5t-24 29.5q-29 59 -18.5 127 t20.5 133q-23 -49 -38 -100t-27 -104q-2 -10 -14.5 -11.5t-16.5 8.5q-10 23 -19.5 47.5t-25.5 43.5q4 -25 5 -52.5t-5 -52t-18.5 -43t-34.5 -24.5q-4 0 -6.5 4z" />
<glyph unicode="&#x25fc;" horiz-adv-x="972" d="M0 0v973h973v-973h-973z" />
</font>
</defs>
</svg>
