<?xml version="1.0" standalone="no"?>
<!DOCTYPE svg PUBLIC "-//W3C//DTD SVG 1.1//EN" "http://www.w3.org/Graphics/SVG/1.1/DTD/svg11.dtd" >
<svg xmlns="http://www.w3.org/2000/svg" xmlns:xlink="http://www.w3.org/1999/xlink" version="1.1">
<metadata></metadata>
<defs>
<font id="carakaregular" horiz-adv-x="765" >
<font-face units-per-em="2048" ascent="1536" descent="-512" />
<missing-glyph horiz-adv-x="307" />
<glyph unicode="&#xfb01;" horiz-adv-x="493" d="M-262 1192q4 -2 15 8t18 10q39 2 76.5 6.5t76.5 10.5q-2 145 10.5 286.5t59.5 280.5q16 41 36.5 66.5t49.5 48.5q23 23 57.5 39t68.5 17t60.5 -17.5t30.5 -67.5q4 -53 -2 -106.5t-21.5 -105.5t-37 -102t-48.5 -96q-23 -41 -53.5 -75.5t-62.5 -69.5v-63q20 4 61 13t84 14 t79 -2t46 -38t15 -84t7.5 -117.5t1.5 -132t-3.5 -126t-3.5 -102.5t1 -58q4 -37 14.5 -80t29 -80t47 -60.5t69.5 -19.5q47 51 74 125q0 2 7 4t7 4q6 -59 -18.5 -91t-69.5 -58q-20 -12 -44.5 -26.5t-50.5 -25t-52.5 -12.5t-50.5 13q-47 25 -70 70.5t-31 100t-6 109.5t2 100 q4 121 13.5 246t25.5 250h-2q-47 -6 -91 -3t-89 5q0 -25 1 -48.5t1 -47.5q4 -127 3 -276.5t-5 -305t-11.5 -305t-13.5 -276.5q-2 -41 -3 -87.5t-10 -89.5t-30.5 -79.5t-66.5 -59.5q-14 -8 -34 -21.5t-40.5 -22.5t-41 -10t-36.5 17q-35 37 -43 80t0 86t24.5 87t32.5 85 q33 90 58.5 186.5t60.5 188.5q4 80 7 161t5 161v123.5t-2 151.5t-3 152.5t-3 125.5q-49 -14 -93 -13.5t-93 29.5zM-173 -239.5q-3 -28.5 9 -55.5q25 -59 66 -74q18 6 20 43t-2 89.5t-9 107.5t-1 98q-6 -12 -11.5 -24.5t-11.5 -22.5q-12 -23 -25.5 -50.5t-22.5 -55t-12 -56z M71 1472.5q-1 -67.5 1 -135.5v2q41 51 69.5 114t44.5 126q6 29 13.5 83t4.5 107.5t-20.5 95.5t-60.5 48q-18 -31 -27.5 -71t-12.5 -81t-4 -80.5t-3 -72.5q-4 -68 -5 -135.5z" />
<glyph horiz-adv-x="0" />
<glyph unicode="&#xd;" horiz-adv-x="307" />
<glyph horiz-adv-x="0" />
<glyph horiz-adv-x="0" />
<glyph unicode=" "  horiz-adv-x="307" />
<glyph unicode="&#x09;" horiz-adv-x="307" />
<glyph unicode="&#xa0;" horiz-adv-x="307" />
<glyph unicode="!" horiz-adv-x="280" d="M22.5 14q4.5 9 45.5 43q20 16 49.5 27.5t52.5 -4.5q33 -29 66 -60q16 -16 17 -32.5t5 -38.5l-11 -9q-11 -8 -26.5 -17t-29 -15t-15.5 -6q-16 4 -35.5 7t-34.5 13q-8 6 -15 13.5t-15 15.5q-10 8 -17.5 15t-15.5 16q-25 23 -20.5 32zM43 1534q23 12 42 24.5t42 24.5 q14 10 25.5 16.5t15.5 6.5q29 6 44 -27t21.5 -88t5.5 -123t-5.5 -129t-9.5 -110.5t-5 -65.5q-14 -207 -16 -409.5t-25 -407.5q0 -4 -20.5 -12.5t-20.5 -10.5q-41 84 -59.5 178.5t-21.5 191.5t3.5 195.5t14.5 190.5q6 80 14 161t6 160q0 23 -1 57t-6 67.5t-15.5 63.5 t-28.5 46z" />
<glyph unicode="&#x22;" horiz-adv-x="487" d="M20 1735q2 -2 18.5 8t35 22.5t35 22.5t18.5 8q23 -29 38 -63.5t32 -65.5q18 -33 37.5 -66.5t27.5 -68.5q0 -4 -28.5 -19.5t-57.5 -29.5q-8 -4 -16 -10.5t-17 -10.5q-16 33 -33.5 65t-33.5 66q-23 49 -23 88q-8 14 -15 27.5t-18 26.5zM225 1735q2 -2 18.5 8t35 22.5 t35 22.5t18.5 8q23 -29 38 -63.5t31 -65.5q18 -33 38 -66.5t28 -68.5q0 -4 -28.5 -19.5t-57.5 -29.5q-8 -4 -16.5 -10.5t-16.5 -10.5q-16 33 -33.5 65t-33.5 66q-23 49 -23 88q-8 14 -15 27.5t-18 26.5z" />
<glyph unicode="#" horiz-adv-x="1318" d="M23.5 375q-5.5 10 11.5 39q4 4 8 4q35 2 67.5 15t67.5 16q29 0 58.5 1t58.5 3q2 2 6 2q16 59 31.5 117.5t32.5 117.5q29 96 60.5 190.5t61.5 190.5h-44t-44 2q-8 0 -23.5 -1t-31.5 -1t-30.5 3t-20.5 11q-12 29 -47 23q4 0 10 5t10 7q66 6 126.5 16.5t123.5 16.5 q18 55 36.5 111.5t37.5 113.5q4 14 8 34t12 34q4 4 6 8q4 4 27 16.5t47.5 26.5t44 24.5t19.5 12.5q6 -10 1 -31.5t-14.5 -46t-19.5 -46t-12 -32.5q-18 -55 -37 -110.5t-39 -112.5h213h4q18 57 36.5 112.5t37.5 110.5q4 14 7 34t13 34q4 4 6 8t24.5 16.5t48.5 26.5t45 24.5 t19 12.5q6 -10 0 -31.5t-15 -46t-18.5 -46t-13.5 -32.5q-18 -55 -36.5 -110.5t-36.5 -112.5q35 0 68.5 1t68.5 1q47 0 99 3t95 -15q-6 2 -19 -6.5t-28.5 -20.5t-31 -22.5t-23.5 -12.5q-63 -10 -129 -13t-131 -3q-29 -84 -55.5 -167t-49.5 -169q-16 -66 -33.5 -130 t-35.5 -130q170 0 346 -6q-18 0 -35.5 -12.5t-35 -27.5t-35 -28.5t-35.5 -13.5q-57 -2 -114.5 -1t-115.5 5q-6 -29 -14 -45q-18 -61 -39.5 -125.5t-56.5 -118.5q-12 -23 -27.5 -43t-34.5 -37q-2 0 -4 -2l8 4l-16 -10t-33.5 -19t-34.5 -20q20 20 28.5 64.5t18.5 73.5 q20 59 39 119.5t35 121.5q4 10 6 20.5t6 20.5q-109 4 -212 0q-4 -12 -7.5 -24.5t-7.5 -24.5q-20 -61 -40.5 -125.5t-55.5 -118.5q-14 -23 -29.5 -43t-34.5 -37l-2 -2l-10 -6q-16 -10 -33.5 -19t-33.5 -20q20 20 28 64.5t19 73.5q20 59 38.5 119.5t36.5 121.5q4 20 9 31h-2 q-78 -10 -156 -12q-18 0 -41 -4.5t-39 -2t-21.5 12.5zM168 -16q2 4 6 5t8 5q-8 -4 -14 -10zM426 463q53 2 106.5 4t106.5 2q14 55 28.5 110.5t30.5 110.5q29 96 59.5 189.5t63.5 189.5q-41 2 -82 3t-82 1h-25.5t-25.5 -2q-29 -84 -57.5 -169t-50.5 -171q-16 -68 -35 -135 t-37 -133zM502 -16q2 4 14 10q-14 -8 -14 -10z" />
<glyph unicode="$" horiz-adv-x="1075" d="M22.5 449.5q6.5 89.5 46.5 174.5t109 152q8 8 22.5 14.5t30 12.5t28.5 13t17 18q-20 -43 -40.5 -86t-38 -88.5t-26.5 -91.5t-5 -97q6 -70 31.5 -130t66.5 -111.5t95.5 -90.5t117.5 -65q2 0 3 -1t3 -1q2 53 3 102t1 96q-2 117 -1 234t1 233v168q-49 33 -95 68t-81 80 q-27 33 -54.5 78t-43.5 94t-14 98t34 88q20 25 53 50.5t70 46t75 34.5t73 21q8 70 31 135q0 2 9 7l18 10t16 9l8 5q18 -35 28.5 -78t14.5 -88q115 -16 176 -95t39 -219q0 -2 -8.5 -5t-8.5 -5q-23 72 -74 126t-118 85q0 -53 -1 -104.5t-1 -98.5v-252q16 -10 30.5 -19.5 t30.5 -19.5q47 -29 99.5 -61.5t99.5 -71.5t85 -85t56 -103q18 -61 18.5 -125t-16 -124t-50.5 -114.5t-79 -97.5q-57 -55 -132 -103t-150 -79q-4 -37 -9.5 -74t-15.5 -72q0 -4 -13.5 -11t-28.5 -14t-26.5 -13.5t-11.5 -8.5q-16 37 -22 79t-11 85q-96 -4 -184 38t-158 114 t-99.5 158.5t-23 176zM349 1357q11 -71 44 -128q20 -35 44 -64.5t50 -56.5v100q2 68 2 138.5t7 142.5q-62 6 -123 -6q-35 -55 -24 -126zM629 43q47 0 96 16q-6 0 3 8.5t22.5 19.5t29 24.5t23.5 23.5q23 31 43.5 63.5t32.5 67.5q51 143 12 268t-160 218q-23 16 -47.5 32.5 t-50.5 32.5v-39q0 -117 1 -232.5t-3 -232.5q0 -68 1 -135t-3 -135z" />
<glyph unicode="%" horiz-adv-x="1120" d="M20 1181.5q0 88.5 30 158t81 116.5t111.5 63.5t124 0t116.5 -73.5q35 -37 54.5 -98.5t19.5 -127t-20.5 -127t-63.5 -98.5q-45 -37 -103.5 -69.5t-116.5 -42t-109.5 14.5t-82.5 97q-41 98 -41 186.5zM164 1290q0 -61 11 -127.5t48 -120.5q25 -35 62 -57t80 -27l12 25 q33 82 32 175t-40 173q-16 33 -41 64.5t-62 46.5q-31 12 -63 12q-6 -12 -13.5 -23.5t-11.5 -21.5q-14 -55 -14 -119zM242 -29q23 20 30 64.5t17 73.5q20 59 39.5 119.5t36.5 121.5q25 86 45 170t47 170q35 117 72.5 230.5t76.5 230.5l74 227q4 14 8 34t12 34l9 8 q2 4 24.5 16.5t47 26.5t44 24.5t19.5 12.5q6 -10 1 -31.5t-14.5 -46t-19.5 -46t-12 -32.5q-20 -59 -39 -116.5t-39 -116.5q-35 -104 -70 -206.5t-63 -207.5q-25 -98 -50.5 -194.5t-56.5 -194.5q-18 -61 -39.5 -125.5t-56.5 -118.5q-27 -45 -63 -80l-3 -2q8 4 7.5 4 t-17.5 -10q-16 -10 -33.5 -19t-33.5 -20zM258 -16q2 4 6 5t8 5q-12 -8 -14 -10zM569 357.5q0 82.5 23.5 155.5t68 128t101.5 79.5t124.5 10.5t137.5 -82q37 -35 55.5 -96t18.5 -128t-20.5 -128t-63.5 -98q-45 -39 -103.5 -71t-117 -41t-109.5 14.5t-82 97.5 q-33 76 -33 158.5zM705 494q0 -61 11 -128t48 -120q25 -35 61.5 -58.5t79.5 -25.5l13 24q33 82 31.5 175.5t-40.5 173.5q-16 33 -40.5 64.5t-61.5 45.5q-35 14 -55.5 10t-32.5 -43q-14 -55 -14 -118z" />
<glyph unicode="&#x26;" horiz-adv-x="1282" d="M25 260q14 92 62 164t110 135q53 55 109 113.5t110 122.5q-16 20 -27 34q-35 47 -76 106.5t-71.5 124t-43 131t8.5 130.5q16 55 53 92t84 66q10 6 19.5 12t19.5 12q12 12 23 15q35 23 72.5 41t74.5 22q45 4 86 -8t73.5 -39t51 -65.5t18.5 -86.5q-2 -104 -42 -201.5 t-97 -183.5q-20 -31 -40.5 -59.5t-43.5 -56.5q82 -104 170 -202.5t170 -205.5q4 -6 8 -11t8 -11q47 66 91.5 132t78.5 136q4 4 11.5 5t9.5 5q-25 -88 -61.5 -169t-88.5 -152q37 -37 76 -71t76 -69q23 -23 49.5 -48t49 -53t38 -58.5t17.5 -65.5q0 -8 -21.5 -19.5t-47.5 -22.5 t-47.5 -21.5t-19.5 -16.5q-12 49 -40.5 93t-66.5 84t-80 76t-83 73q-70 -66 -156 -119q-55 -35 -115.5 -72t-125 -63.5t-133 -37.5t-136.5 7q-86 23 -132 93.5t-33 162.5zM173 264q5 -41 23.5 -77.5t55.5 -61.5q63 -41 141 -44t150 17q86 25 151.5 90.5t122.5 135.5 q-20 18 -38.5 37.5t-35.5 39.5q-72 92 -147.5 176.5t-146.5 174.5l-43 -43l-63 -63t-61.5 -66.5t-53 -72.5t-38.5 -79q-12 -37 -17 -80t0 -84zM347 1279.5q11 -62.5 37 -123t61.5 -117t72.5 -105.5q41 63 69.5 131t39.5 139q6 41 5 88t-16.5 89t-46 73t-82.5 41 q-18 4 -38.5 5t-38.5 -3h-7q-16 -20 -30.5 -42.5t-20.5 -49.5q-16 -63 -5 -125.5z" />
<glyph unicode="'" horiz-adv-x="282" d="M20 1735q2 -2 18.5 8t35 22.5t35 22.5t18.5 8q23 -29 38 -63.5t32 -65.5q18 -33 37.5 -66.5t27.5 -68.5q0 -4 -28.5 -19.5t-57.5 -29.5q-8 -4 -16 -10.5t-17 -10.5q-16 33 -33.5 65t-33.5 66q-23 49 -23 88q-8 14 -15 27.5t-18 26.5z" />
<glyph unicode="(" horiz-adv-x="475" d="M51 543q-61 262 6 520q14 55 34 115.5t47.5 117t65.5 105.5t87 86q12 8 32.5 24.5t44 32t46 25.5t41.5 8q-4 0 -10.5 -5t-10.5 -7q-74 -31 -123 -105t-80.5 -163t-47 -181t-21.5 -162q-10 -109 -1 -231.5t40.5 -239t91 -218t151.5 -171.5q-4 2 -15 -9t-15 -9 q-70 25 -129.5 76t-106.5 114.5t-79.5 136t-47.5 140.5z" />
<glyph unicode=")" horiz-adv-x="475" d="M20 1577q18 2 41 -8t45.5 -25.5t44 -32t33.5 -24.5q49 -37 87 -86t66 -105.5t47 -117t34 -115.5q68 -258 6 -520q-16 -68 -48 -140.5t-79 -136t-106.5 -115t-129.5 -75.5q-4 -2 -15 9t-15 9q92 70 151.5 171.5t91 218t40 239.5t-0.5 231q-6 70 -21.5 162t-47 181 t-80.5 163t-123 105q-4 2 -10 7t-11 5z" />
<glyph unicode="*" horiz-adv-x="356" d="M20 1714q4 2 9.5 7t9.5 5q27 -8 52.5 -20t51.5 -29q0 23 4.5 44.5t20.5 31.5l4 -4q10 -20 16.5 -43t10.5 -45q61 43 131 65q4 0 8 -5t6 -7q-33 -18 -56.5 -49t-47.5 -59q8 -8 12 -11q20 -18 39.5 -36.5t36.5 -40.5q16 -16 5 -24.5t-28 -18.5q-6 -4 -12 -7.5t-12 -5.5 q-18 -6 -21.5 -1t-15.5 18l-21 20q2 -20 2 -41.5t-22 -27.5q-2 0 -10.5 3t-17.5 9t-17 11t-11 7q-4 6 -6 14.5t-4 18.5l-12 -14q-12 -12 -15.5 -17.5t-21.5 0.5q-6 2 -12 5t-13 8q-16 10 -27 18t5 25q16 23 35.5 41t40.5 36q4 2 5 4.5t5 6.5q-23 29 -47.5 59.5t-59.5 48.5z " />
<glyph unicode="+" horiz-adv-x="653" d="M20 840q8 0 17.5 8t17.5 12q88 37 172 51q-2 53 7.5 105.5t37.5 105.5q2 2 12.5 8.5t24.5 14.5t35 18q18 -23 24.5 -52.5t7.5 -63t-1 -66.5t0 -59v-4h6q16 0 54 1t80 2t76 -2.5t42 -11.5l-13 -7q-14 -7 -31.5 -17.5t-31.5 -19.5t-18 -11q-39 -14 -77 -19.5t-77 -5.5 q4 -43 9 -85t7 -85q0 -8 -22.5 -19t-49 -23.5t-49 -22.5t-20.5 -17q-16 61 -21.5 128t-9.5 131q-53 4 -104 7t-105 -1z" />
<glyph unicode="," horiz-adv-x="327" d="M22.5 371q-4.5 4 8.5 12q16 10 30.5 18.5t30.5 16.5q16 10 31.5 13t32.5 7q2 4 2 8.5t2 8.5q6 43 -6 82q-8 29 -22.5 50t-33.5 42q-8 -4 -8 -6q0 8 2 12v2h2q10 16 36 26.5t36 16.5q20 12 40.5 18t43.5 -4q18 -8 30.5 -27.5t18.5 -44t7 -49t-3 -41.5q-10 -47 -59 -75 q-14 -10 -29 -17q-133 -86 -100 -57q-10 -6 -21.5 -11t-23.5 -7h-13.5t-20.5 1t-13.5 5z" />
<glyph unicode="-" horiz-adv-x="630" d="M23 893q2 0 4 2q2 0 3 1t3 1q90 29 175 34t179 5q23 0 53.5 3t62.5 4t60.5 -3t46.5 -16q-4 2 -17 -6.5t-29.5 -19.5t-32 -21.5t-21.5 -10.5q-66 -14 -133.5 -14h-134.5q-12 0 -49 -2t-76 0t-69 11t-25 32z" />
<glyph unicode="." horiz-adv-x="278" d="M22.5 630q4.5 9 45.5 44q18 16 48.5 27t53.5 -5q16 -14 32.5 -28.5t33.5 -30.5q16 -16 17 -32.5t5 -39.5l-12 -8q-13 -8 -28 -17.5t-28.5 -15.5t-15.5 -6q-16 4 -34.5 7t-33.5 14q-8 6 -15 13t-17 15l-31 31q-25 23 -20.5 32z" />
<glyph unicode="/" horiz-adv-x="647" d="M20 33q23 23 30 65.5t18 71.5q20 59 38.5 120.5t36.5 121.5q25 86 45.5 170t44.5 170q35 117 74 230.5t76 229.5q20 57 38.5 113.5t37.5 114.5q4 14 8 34.5t12 32.5q4 5 6 9q4 6 27 18t47.5 25.5t44 23.5t19.5 12q6 -10 0.5 -31.5t-14.5 -46t-19 -46t-12 -31.5 q-20 -59 -40 -116.5t-38 -117.5q-35 -104 -71 -205.5t-62 -205.5q-25 -98 -51.5 -195.5t-55.5 -196.5q-20 -61 -40.5 -124.5t-55.5 -118.5q-12 -20 -28.5 -42t-35.5 -38h-2q8 4 7 3t-17 -11t-33.5 -19.5t-34.5 -19.5zM37 47q2 2 6 3t8 5q-16 -8 -14 -8z" />
<glyph unicode="0" horiz-adv-x="919" d="M25.5 726q-9.5 124 4 246t56.5 230q33 86 95.5 146.5t144.5 95.5q37 20 74.5 35.5t76.5 21.5t79 -1t81 -32q72 -43 119 -105.5t75.5 -136t43 -153.5t18.5 -158q6 -84 6 -175t-10 -182t-34 -178t-67 -163q-20 -37 -55 -78t-77 -75.5t-89 -59t-92 -31.5q-59 -8 -110.5 18.5 t-93.5 72t-74.5 98.5t-53.5 100q-47 100 -77.5 220t-40 244zM133 722.5q17 -151.5 72 -289.5t151.5 -243.5t237.5 -142.5q45 49 75.5 111.5t50 131t30 139.5t14.5 134q6 76 7 157t-7 163t-27.5 159.5t-56.5 145.5q-25 49 -63.5 97t-87 84t-104.5 51.5t-118 -1.5 q-23 -23 -41 -47v-2q-10 -29 -26.5 -59.5t-24.5 -50.5q-55 -125 -76 -259q-23 -127 -6 -278.5z" />
<glyph unicode="1" horiz-adv-x="479" d="M20 1073q8 4 15.5 9t15.5 10q53 20 101.5 58t85 86t59 103.5t22.5 114.5q0 6 17.5 17.5t42 23.5t47.5 23.5t33 17.5q0 -244 -8.5 -486.5t-18.5 -486.5q-8 -174 -12 -352v-96t-12 -92q0 -4 -14.5 -13.5t-31 -18.5t-33 -17.5t-20.5 -8.5q-23 0 -31 22.5t-9 53.5t2 60.5 t3 45.5q2 90 5.5 177.5t7.5 177.5q10 188 17 375.5t11 375.5q-66 -61 -142.5 -107t-152.5 -73z" />
<glyph unicode="2" horiz-adv-x="790" d="M20 1123.5q0 58.5 16.5 112.5t49.5 93q41 49 94 81t107 60q49 27 107.5 28t112.5 -16.5t100 -53t73 -82.5q31 -53 39 -108.5t3 -112t-20.5 -113t-33.5 -109.5q-45 -129 -105.5 -246.5t-136.5 -234.5q-41 -61 -81 -122.5t-79 -125.5q-4 -8 -13 -28.5t-20.5 -42t-22.5 -39 t-20 -19.5q10 4 19.5 6t19.5 6q20 6 72.5 16.5t118 19.5t133.5 11t120 -7t78.5 -34.5t10.5 -74.5q0 -4 -16.5 -14.5t-35 -20.5t-33.5 -18.5t-18 -6.5q-25 14 -44 29.5t-38.5 29t-43 21.5t-54.5 12q-127 8 -258 -16q-31 -4 -61.5 -10t-59.5 -17q-14 -4 -26.5 -9t-18.5 -7 t-5 5t13 28q51 88 106.5 173t111.5 171q49 76 98 159t90 171t69.5 179t36.5 183q10 86 -11 167t-93 138q-57 45 -119.5 70t-132.5 10q-47 -49 -72.5 -107.5t-37 -123t-14.5 -132t-5 -132.5q0 -2 -2 -2h-2q-33 39 -49.5 93t-16.5 112.5z" />
<glyph unicode="3" horiz-adv-x="933" d="M22.5 422q-4.5 74 22.5 141q12 31 43 67t71 64.5t83 42t77 -3.5q-4 2 -12 -3t-17 -12t-18.5 -14.5t-15.5 -7.5q-14 -2 -28.5 -3t-28.5 -5q-31 -43 -39 -101.5t-2 -117.5t25.5 -115.5t45.5 -93.5q23 -31 50.5 -62.5t60.5 -57t69.5 -41t79.5 -15.5q16 0 34 1t34 5q4 2 7 2 t7 2q23 20 41.5 42t34.5 46q49 74 82 168t45 192.5t2 196t-45 181.5q-20 45 -53 87t-76 75.5t-93 57t-101 31.5q-12 -6 -49 -22t-76 -30.5t-70 -20.5t-31 6q0 16 18.5 32.5t43 31t48 25.5t36.5 17q41 16 81 29.5t89 7.5q35 33 67.5 66t67.5 67q12 12 24.5 26.5t26.5 27.5 q39 27 -18 18q-92 6 -183.5 9t-191.5 -3q-14 -2 -27.5 -4t-27.5 -6q31 -23 69 -45q-2 2 -9 -4t-11 -6q-43 -4 -78 -2t-76 18q4 -2 12.5 3t20.5 11q-18 -6 -31 -12q66 47 139.5 70.5t153.5 34t164 11.5t168 1q8 0 23.5 3t28.5 3t18.5 -4t-7.5 -19q-14 -12 -26.5 -25 t-26.5 -28q-31 -33 -61.5 -64.5t-63.5 -60.5q-29 -25 -58.5 -46t-58.5 -44q7 0 23 -4q186 -41 275 -171t89 -318q0 -84 -11 -172.5t-38.5 -171t-78 -153.5t-126.5 -118q-49 -31 -102 -62.5t-109.5 -51t-114 -16.5t-112.5 44t-99 100.5t-69.5 129t-30 143.5zM578 98 q16 6 18 10t-18 -10z" />
<glyph unicode="4" horiz-adv-x="784" d="M41 309l37 74q12 29 25.5 55.5t25.5 55.5q29 57 55.5 112.5t57.5 110.5q57 109 122.5 209t137.5 198q57 78 109.5 158t78.5 172q2 4 9.5 4t9.5 4q-4 -47 -22.5 -90t-43.5 -85t-52.5 -82t-51.5 -77q-59 -90 -108.5 -187t-94.5 -196q-29 -63 -58.5 -126.5t-60.5 -126.5 q-12 -29 -25.5 -55.5t-25.5 -53.5q-12 -25 -10 -34t13 -10t28.5 3t35.5 4q94 4 188.5 8t188.5 8q-2 47 -2 93.5v93.5q-10 104 -16 208.5t16 211.5q2 6 18.5 16t38 21.5t44 22t36.5 18.5q6 -125 6.5 -248t-0.5 -246t0 -247t11 -249q0 -10 -21.5 -20t-48 -20.5t-48 -20.5 t-21.5 -19q-10 156 -13 314q-137 -10 -272 -14.5t-275 -2.5q-74 -23 -22 35z" />
<glyph unicode="5" horiz-adv-x="870" d="M23 268q-2 43 1 90.5t15 91.5t33.5 83.5t58.5 70.5q14 12 36.5 27.5t47.5 28t48.5 20.5t43.5 6q-18 2 -41.5 -20.5t-42.5 -26.5q-4 -2 -9 -2t-9 -2q-43 -49 -60.5 -122t-11.5 -146.5t36 -139t81 -102.5q31 -23 65.5 -39t75.5 -16q23 0 42.5 1t41.5 5q6 2 15.5 7t18.5 9 t14 6t1 -4q66 59 105 134t55 161q14 74 24.5 169t4.5 190.5t-37 179.5t-101 137q-43 33 -87 44t-88 7t-89 -17.5t-92 -27.5q-16 -4 -27.5 -10t-19.5 -6t-14 6t-13 26q-23 78 -27.5 161t9.5 173q0 4 18.5 16.5t40 25t41 22.5t25.5 10q53 2 122.5 12.5t139.5 12.5t132.5 -11.5 t105.5 -56.5q-2 2 -12.5 -8t-14.5 -8q-121 18 -239.5 12t-239.5 -16q-4 -59 0 -118t18 -116q6 -25 10.5 -40t12.5 -20t21.5 -3t39.5 10q29 10 59.5 21.5t63.5 17.5q68 14 126 3t104.5 -44t78 -85t45.5 -118q20 -104 22.5 -223t-23 -232.5t-84 -211t-158.5 -156.5 q-33 -18 -68 -40t-71.5 -40.5t-74.5 -29.5t-77 -11q-55 0 -103.5 21.5t-84 58.5t-57 86t-23.5 106z" />
<glyph unicode="6" horiz-adv-x="874" d="M22.5 508q-4.5 78 4 157.5t24.5 155.5q14 74 38 151t57.5 149.5t79.5 137t108 113.5q29 23 63.5 47.5t71.5 42t76 20.5t76 -16q-4 2 -14.5 -7t-14.5 -9q-63 10 -111.5 -2t-89.5 -59q-70 -78 -117 -181q-18 -37 -32.5 -75.5t-24.5 -79.5q53 45 119 82q41 23 86 47t94 20 q66 -8 120 -47t91 -94q98 -145 119.5 -313t-19.5 -338q-29 -109 -77 -179.5t-129 -126.5q2 -2 -5.5 -8t-16.5 -12t-17.5 -9t-8.5 1q-4 -2 -5 -3t-5 -3q-59 -35 -124.5 -39t-127 16.5t-115 62.5t-87.5 101q-41 68 -61.5 143.5t-25 153.5zM169 548.5q1 -59.5 15.5 -118.5 t48.5 -117q25 -41 65 -84t89 -74.5t102.5 -48t106.5 -4.5q4 6 10 12.5t10 12.5q16 20 31 41.5t25 44.5q25 53 42 111.5t23 117.5q16 125 3 250t-81 236q-25 39 -57.5 80t-74.5 71.5t-89 45t-98 -0.5q-16 -8 -31.5 -28.5t-29.5 -36.5q-20 -29 -38 -61.5t-28 -67.5t-17.5 -68 t-11.5 -67q-4 -63 -10 -125t-5 -121.5z" />
<glyph unicode="7" horiz-adv-x="782" d="M23 -14q-4 8 3 31.5t19 49t23.5 50t15.5 35.5q39 113 88 244.5t106.5 266t121 264.5t130.5 238q27 41 56.5 90.5t36.5 100.5q2 25 -1.5 36t-12.5 14t-24.5 3h-37.5h-78t-78 4q-61 4 -122.5 7t-121.5 24q4 -2 10.5 5t10.5 7q94 8 188.5 13.5t188.5 9.5q43 2 86 3t86 1 q35 -2 41 -9.5t-2 -41.5q-16 -59 -46 -110.5t-61 -104.5q-55 -90 -99 -189.5t-84 -201l-80 -203t-85 -197.5q-20 -43 -35.5 -95t-34 -104.5t-42 -99.5t-60.5 -78q-4 -4 -20.5 -13t-36 -20.5t-34.5 -20.5z" />
<glyph unicode="8" horiz-adv-x="993" d="M23 401q2 57 16 119t37.5 120t58.5 109.5t80 90.5q39 35 90 68.5t107 54.5q-23 12 -45.5 26.5t-42.5 30.5q-29 23 -61 51.5t-58.5 62t-44 70.5t-17.5 76q2 72 42 113t98 73q57 35 126.5 66t139 38t132 -18.5t105.5 -105.5q37 -66 42.5 -127.5t-9 -120.5t-45.5 -116.5 t-67 -112.5q37 -20 69.5 -44t61.5 -55q59 -68 89.5 -153.5t41.5 -177.5q14 -160 -36 -283t-190 -205q-51 -31 -103 -54.5t-106.5 -35.5t-111.5 -10t-117 24q-66 25 -120 68t-91 99.5t-56.5 122t-14.5 136.5zM139.5 505q-6.5 -61 0.5 -119t28.5 -112.5t64.5 -101.5t97.5 -81 t114 -52.5t123 -19.5t124.5 18q10 4 19.5 8t13.5 8q12 10 23 23q23 27 44 55.5t31 63.5q29 88 29 183t-23 185q-23 92 -65.5 164t-124.5 121q-8 4 -10 6q-16 -23 -31.5 -46.5t-28.5 -47.5q-4 -6 -16 -11.5t-25.5 -10.5t-24.5 -10t-14 -13q14 47 36 88t46 82 q-33 16 -66.5 31.5t-66.5 31.5q-53 -10 -99 -32.5t-81 -73.5q-35 -49 -59.5 -104.5t-40.5 -114.5q-12 -57 -18.5 -118zM295 1317q29 -78 88 -142.5t131 -105.5q29 -18 61.5 -33.5t65.5 -31.5q37 72 54.5 151.5t-17.5 159.5q-16 39 -41 72.5t-56.5 58t-70.5 39t-84 12.5 q-47 0 -90 -12q0 -2 -13.5 -12.5t-19.5 -22.5q-33 -67 -8 -133z" />
<glyph unicode="9" horiz-adv-x="854" d="M22.5 827q-2.5 72 6 143.5t31 138.5t63.5 120q31 37 79 75.5t103 70.5t111.5 54.5t105.5 26.5q111 10 175.5 -35t95 -120.5t36 -169t-1.5 -177.5q-10 -123 -14 -247.5t-29 -245.5q-23 -117 -79 -202t-160 -144q-51 -29 -123 -64t-142.5 -49t-129 7.5t-82.5 105.5l24 16 q20 14 27 14q41 -16 86 -41.5t90 -25.5q37 0 75 2t74 10q16 4 32 7t32 7q20 16 37 41q37 49 59.5 103.5t34.5 113.5q-68 -47 -146.5 -74.5t-146.5 -17.5q-80 12 -135 53.5t-92 99.5t-57.5 129t-28.5 142q-8 61 -10.5 133zM158 848q6 -102 30.5 -212t90.5 -194 q33 -41 77 -72.5t97 -37.5q57 -6 102 5t86 40q4 25 7 49.5t7 48.5q8 92 13.5 183.5t15.5 183.5q6 57 11 131t-3 145.5t-36.5 133t-90.5 96.5q-59 33 -125.5 34.5t-130.5 -24.5q-4 -4 -8 -6l-31 -31q-10 -14 -20 -29.5t-19 -31.5q-47 -94 -63 -201t-10 -211z" />
<glyph unicode=":" horiz-adv-x="278" d="M22.5 630q4.5 9 45.5 44q18 16 48.5 27t53.5 -5q16 -14 32.5 -28.5t33.5 -30.5q16 -16 17 -32.5t5 -39.5l-12 -8q-13 -8 -28 -17.5t-28.5 -15.5t-15.5 -6q-16 4 -34.5 7t-33.5 14q-8 6 -15 13t-17 15l-31 31q-25 23 -20.5 32zM22.5 1176.5q2.5 7.5 13.5 16.5t32 26 q18 16 48.5 27t53.5 -5q16 -14 32.5 -28.5t33.5 -30.5q16 -16 17 -32.5t5 -39.5l-12 -8q-13 -8 -28 -17.5t-28.5 -15.5t-15.5 -6q-16 4 -34.5 7t-33.5 13q-8 8 -15 15.5t-17 15.5q-8 6 -15.5 13.5l-15.5 15.5q-12 12 -17.5 19t-3 14.5z" />
<glyph unicode=";" horiz-adv-x="333" d="M22.5 371q-4.5 4 8.5 12q16 10 30.5 18.5t30.5 16.5q16 10 31.5 13t32.5 7q2 4 2 8.5t2 8.5q6 43 -6 82q-8 29 -22.5 50t-33.5 42q-8 -4 -8 -6q0 8 2 12v2h2q10 16 36 26.5t36 16.5q20 12 40.5 18t43.5 -4q18 -8 30.5 -27.5t18.5 -44t7 -49t-3 -41.5q-10 -47 -59 -75 q-14 -10 -29 -17q-133 -86 -100 -57q-10 -6 -21.5 -11t-23.5 -7h-13.5t-20.5 1t-13.5 5zM78 1176.5q2 7.5 13 16.5t32 26q18 16 48.5 27t53.5 -5q16 -14 32.5 -28.5t33.5 -30.5q16 -16 17 -32.5t5 -39.5l-12 -8t-27.5 -17.5t-29 -15.5t-15.5 -6q-16 4 -34.5 7t-32.5 13 l-15.5 15.5t-17.5 15.5q-8 6 -15.5 13.5l-15.5 15.5q-12 12 -17 19t-3 14.5z" />
<glyph unicode="&#x3c;" horiz-adv-x="692" d="M21.5 854q1.5 8 15.5 20q16 16 34.5 32t37.5 32q35 29 67.5 55.5t65.5 55.5q74 66 138 136t105 163q2 4 8.5 5t8.5 5q-23 -76 -66 -139.5t-102 -116.5q-35 -29 -68 -58.5t-67 -60.5q-2 -2 -12.5 -11t-22.5 -20.5t-17 -15.5l-14 -14q12 -10 25.5 -22.5t25.5 -25.5 q70 -66 132.5 -139t122 -151t116.5 -156t117 -154q-2 2 -19.5 -8t-38 -24.5t-38 -25.5t-21.5 -7q-76 61 -136.5 136t-116.5 155t-113.5 158.5t-125.5 146.5q-10 12 -21 19t-16.5 14.5t-4 15.5z" />
<glyph unicode="=" horiz-adv-x="688" d="M20 762q4 0 7.5 4t7.5 6q92 6 177 21.5t177 15.5q20 0 59 3t79 4t75 -3t49 -20q-2 2 -14 -6.5t-27.5 -17.5t-30 -18.5t-18.5 -9.5q-78 -18 -157.5 -17t-159.5 1q-10 0 -33 -2t-48.5 -3t-47 1t-27.5 10q-16 20 -27.5 24.5t-40.5 6.5zM68.5 931q-11.5 9 1.5 30q2 4 20.5 8 t44 9t54 9t50 8t32 6.5t-0.5 2.5q100 4 199.5 4t198.5 -4q-2 0 -3 -1.5t-3 -1.5q4 0 6 3q-8 -4 -15 -7q-8 -4 -18 -11t-23 -15q-16 -14 -31.5 -26.5t-31.5 -18.5t-21 -4q-61 -2 -122.5 -2h-122.5h-60.5t-60.5 2q-4 0 -23.5 -2t-39 0t-31 11zM178 999q82 6 92 5 q-23 0 -46 -1.5t-46 -3.5z" />
<glyph unicode="&#x3e;" horiz-adv-x="624" d="M20 1286q0 -2 7.5 2t15.5 10.5t15.5 11.5t11.5 5q63 -6 111 -26.5t90 -51.5t80 -69l81 -81q18 -18 49 -44.5t58.5 -56.5t47 -61.5t15.5 -62.5q-4 -35 -26.5 -67.5t-52 -64.5t-61.5 -61.5t-52 -56.5q-66 -86 -128.5 -170t-142.5 -153q-6 -6 -19.5 -11.5t-26.5 -11.5 t-24.5 -12t-13.5 -14q20 47 61.5 87t69.5 81q29 39 59.5 77.5t59.5 79.5q16 23 46 51.5t56.5 61.5t42 65.5t3.5 63.5q-14 33 -36 61.5t-47.5 55t-52 52t-51.5 50.5q-59 66 -121.5 130.5t-124.5 129.5z" />
<glyph unicode="?" horiz-adv-x="884" d="M25.5 1450q17.5 55 66.5 99t115 76t117 50q96 35 180 26t150.5 -53t113.5 -119t70 -169q20 -86 24 -182.5t-14.5 -187.5t-63.5 -171t-122 -135q-41 -27 -85.5 -51.5t-89.5 -46.5l-9 -13.5l-9 -13.5q-10 -23 -17.5 -45t-11.5 -47q-10 -68 -15 -124t-34 -118q-2 -4 -12 -9 t-25 -13q-16 -8 -35 -19q-35 45 -35.5 93.5t9.5 107.5q10 41 24.5 77t47.5 64q39 31 87 54.5t93 46.5h2l2 2q12 12 24.5 23.5t22.5 25.5q23 29 40 57.5t32 63.5q27 72 40 146.5t9 152.5q-4 68 -19.5 148.5t-48.5 156.5t-86 133t-129 78q-41 10 -80 12t-80 -6 q-18 -4 -36.5 -7t-34.5 -9q-4 -2 -8 -2l-5 -5q-57 -51 -89.5 -114.5t-24.5 -141.5q0 -2 -13 -6q-6 -2 -10 -6q-45 66 -27.5 121zM235.5 14q4.5 9 45.5 43q20 16 49.5 27.5t52.5 -4.5q33 -29 66 -60q16 -16 17 -32.5t5 -38.5l-13 -9q-12 -8 -26 -17t-27.5 -15t-15.5 -6 q-16 4 -35.5 7t-34.5 13q-8 6 -15 13.5t-15 15.5q-10 8 -17.5 15t-15.5 16q-25 23 -20.5 32z" />
<glyph unicode="@" horiz-adv-x="1308" d="M21.5 684q1.5 137 36 269t105 248t175.5 196q55 43 124.5 82t143.5 66.5t149.5 38.5t146.5 -2t131.5 -56t105.5 -123q63 -115 77.5 -251t-2.5 -263q-10 -57 -24 -124t-45 -124q-4 -43 -41 -76q2 2 8 2q-10 -6 -20 -10q-4 -4 -7.5 -5t-7.5 -5q-31 -18 -75 -46t-82 -24 q-66 8 -100 43t-44 88q-8 -6 -15 -12t-18 -12q2 0 3.5 1t3.5 1q-8 -4 -13 -8q-12 -8 -20 -13q-16 -10 -38 -24.5t-46.5 -28.5t-49 -21.5t-44.5 -1.5q-59 20 -88 79t-39 114q-12 55 -14.5 119.5t10 125t41 114t79.5 87.5l-4 -2q4 2 6 4.5t7 4.5q2 0 6 4q16 10 39.5 25.5 t48 29.5t49.5 22.5t47 6.5q39 -6 61.5 -25.5t36.5 -48.5q4 4 14.5 8t20.5 8q8 4 16.5 9.5t18.5 9.5q0 -63 2 -131t-2 -135q4 -43 10 -85t13 -83q10 -66 38.5 -123.5t90.5 -65.5q8 10 14 27q12 31 18 64.5t9.5 67.5t5.5 65.5t2 54.5q4 123 -15.5 247.5t-85.5 233.5t-174 156 t-235 26q-59 -6 -109 -26q-10 -10 -19 -17.5t-20 -17.5q-86 -84 -139 -180q-57 -102 -93 -227.5t-41 -252.5t25.5 -249.5t106.5 -223.5q47 -61 110.5 -108t135 -78t149.5 -45.5t156 -9.5q35 2 67.5 5t65.5 11q6 6 17.5 14t19.5 17q29 33 53 65q53 72 105.5 133.5 t128.5 114.5q16 12 35.5 20.5t35.5 20.5q-29 -23 -51 -50.5t-43.5 -58t-41 -61.5t-42.5 -57q-39 -47 -81 -82t-95 -66q-59 -35 -121.5 -66.5t-134.5 -39.5q-94 -10 -190.5 2t-184.5 51q-125 57 -212 153.5t-124 229.5q-35 123 -33.5 260zM553 934.5q-4 -62.5 1 -124.5 t21.5 -113.5t43 -85t63.5 -38.5q29 35 50.5 77t37.5 89q6 76 21.5 156t25.5 147q-16 31 -35.5 59.5t-52.5 39.5q-29 10 -58.5 13t-60.5 -1q-25 -41 -39 -98.5t-18 -120z" />
<glyph unicode="A" horiz-adv-x="1699" d="M42 288v5q0 63 20 121q22 60 64 113t99 89l66 40t67 31q27 9 56 9q8 0 16 -1q37 -3 74 -25q50 -33 66 -75q10 -26 10 -52q0 -16 -4 -32q-10 -42 -39 -78t-67 -56.5t-81 -20.5t-78 33q2 -2 9.5 5t11.5 5q43 -23 84 -23q26 0 51 9q35 31 55 78q9 22 8 43q0 25 -12 49 q-35 68 -106 86q-35 10 -65 13t-58 -13q-61 -35 -91 -105q-28 -65 -28 -136v-10q2 -77 39 -149.5t110 -113.5q20 -12 61.5 -23.5t86.5 -16.5q25 -3 49 -2q19 0 37 1q41 4 63 27q14 14 27.5 29.5t24.5 31.5q18 29 34.5 59.5t26.5 65.5q33 104 43 213t21 219q-35 4 -69 19.5 t-67 48.5q2 -2 9.5 5t9.5 5q57 -31 121 -41q8 76 19 149.5t34 145.5q31 96 74 179t125 144q37 29 79.5 51.5t83.5 45.5q51 28 86 28q8 1 16 -1q38 -8 59.5 -43t27.5 -89.5t6 -112t-5 -109.5t-5 -83q0 -10 -3 -42t-8 -79q29 6 50.5 3t27.5 -19q-20 -12 -37 -23 q-14 -10 -26 -17t-17 -7h-2q-4 -72 -7 -158q-2 -64 -2 -130v-43q1 -87 10.5 -170t28 -147.5t49 -103.5t77.5 -39q21 25 21 58q-1 6 -1 12q-4 41 -13 79t-11 63.5t31 21.5t55 -26.5t32 -54.5q5 -18 5 -38q0 -15 -3 -30q-7 -36 -36 -62q-23 -23 -57.5 -38t-63.5 -32 q-47 -26 -85 -26q-10 -1 -19 1q-45 8 -78 41t-51.5 82.5t-24.5 100.5q-11 107 -11 214q0 46 2 92q7 152 15 306q-84 -14 -159.5 -51t-157.5 -61q-4 -68 -9.5 -136.5t-18.5 -135t-36.5 -129t-66.5 -113.5q-39 -45 -97.5 -90.5t-127.5 -79.5q-70 -36 -145 -54 q-57 -14 -109 -13q-18 0 -34 1q-68 6 -124 43t-88 115q-29 64 -30 130zM930 776q80 16 154.5 52t162.5 77q2 10 2 20.5v20.5q3 94 11 196q2 29 3 56q0 71 -14 137q-9 55 -39 75q-22 15 -51 15q-10 0 -20 -2q-55 -53 -90 -124.5t-57.5 -149.5t-35 -158t-20.5 -151 q-2 -16 -3 -32t-3 -32z" />
<glyph unicode="B" horiz-adv-x="1398" d="M41 1074v12q0 46 14 90q27 72 86.5 128t134 98t155.5 68.5t151 36.5q52 7 110 11q22 1 45 1q35 -1 70 -3q57 -6 111.5 -22.5t101.5 -49.5q47 -35 78 -83q32 -47 46 -101q8 -32 7 -66q0 -22 -3 -44q-9 -56 -42 -108q-47 -68 -103.5 -112.5t-125.5 -83.5q-6 -4 -13.5 -7.5 t-15.5 -7.5q57 9 114 9q54 0 106 -8q110 -17 192 -99q39 -41 61 -89q23 -48 31 -102q5 -29 4 -58q0 -24 -3 -49q-7 -54 -30 -105q-33 -74 -92.5 -137.5t-132 -111.5t-154.5 -82t-160 -50q-92 -19 -208 -29q-35 -3 -69 -3q-79 1 -151 15q-104 22 -182 86t-96 191q-2 17 -2 34 q0 25 5 50q9 41 29.5 75.5t52.5 62.5t73 44q29 10 52 5t37.5 -22.5t13.5 -44t-22 -57.5q-4 -4 -13 -6t-13 -8q8 21 8 38q-1 24 -17 40q-26 25 -65 24h-6q-32 -48 -32 -99q1 -13 3 -29q12 -68 54.5 -127.5t104.5 -104.5t122 -61q53 -15 135 -21q46 -4 94 -3q37 0 75 2 q87 5 165 22.5t125 50.5q12 10 22.5 20t20.5 21q23 31 43 63.5t35 67.5q25 66 33 142q2 16 2 32q0 58 -23 110q-25 59 -71 107.5t-106.5 82.5t-128 51t-132.5 17q-52 -23 -108 -34q-22 -4 -42 -4q-30 0 -53 10v-35q2 -92 4 -181t4 -182v-12q1 -84 -25 -146 q-28 -66 -104 -122q-4 -4 -11 -6t-11 -6q18 22 22 54q2 18 2 37q0 15 -1 29q-3 34 -10 67.5t-7 59.5q-4 92 -6.5 184.5t-2.5 184.5q0 80 -4 170q-2 38 -2 76q-1 52 3 103q6 89 28.5 172t75.5 151q0 2 2 2q4 0 4 2q0 -61 20.5 -120.5t22.5 -123.5q0 -82 -1 -164t-1 -163 q16 12 20 12q72 2 152 13t147.5 42t113.5 86t50 148v15q0 67 -32 122q-36 61 -95 106t-130.5 71t-139.5 30q-24 1 -49 1q-46 -1 -92 -5q-70 -8 -138 -23q-18 -4 -37.5 -9t-41.5 -14q-20 -20 -39 -40.5t-29 -47.5q-12 -27 -20.5 -71.5t-8.5 -94t9.5 -98.5t30 -84t54.5 -50 q16 -7 36 -7q21 0 46 8q6 4 14.5 8t14.5 11q-27 -28 -69 -46q-38 -17 -74 -16h-8q-31 0 -62 5t-55.5 17.5t-42 34t-23.5 58.5q-10 49 -12 101z" />
<glyph unicode="C" horiz-adv-x="1132" d="M44 810q3 91 22.5 177t60.5 165t111 144q39 37 88 75t103 68.5t111.5 51t112.5 25.5q18 1 36 1q55 1 107 -9q70 -12 127.5 -45t98.5 -86.5t57 -131.5q11 -54 11 -101q0 -61 -18 -111q-32 -89 -140 -150q-18 -10 -39 -22.5t-42.5 -22t-43 -12.5t-41.5 5q-74 25 -98 87 q-9 22 -9 45q0 41 27 84q4 4 11.5 5t9.5 5q-12 -31 -8.5 -56.5t20 -45t42 -33t54.5 -21.5q23 -6 50.5 -10t52.5 0q4 0 7 5t7 9q32 66 32 142q0 17 -2 33q-8 96 -44 173q-25 51 -65 89t-89 62q-48 24 -104 34q-35 7 -71 6q-20 0 -40 -2q-29 -4 -56.5 -7t-56.5 -14 q-12 -4 -23.5 -13t-29.5 -28q-47 -47 -84 -102t-59 -117q-50 -131 -54 -270q-1 -25 0 -49q0 -114 17 -228q8 -59 22.5 -126.5t37 -132t57 -121t83.5 -95.5q88 -72 201 -80q17 -1 34 -1q95 0 181 38q55 25 97 76t71 113.5t46.5 128t25.5 121.5q0 4 13 7t11 7q6 -38 6 -72 q0 -41 -8 -77q-14 -66 -49 -121.5t-88 -100.5t-121 -84q-53 -31 -113 -60q-60 -28 -124 -46q-57 -16 -114 -15h-14q-64 2 -124 33q-80 41 -133.5 114t-86 159t-47 178t-20.5 174q-4 59 -4 119q0 30 1 60z" />
<glyph unicode="D" horiz-adv-x="1329" d="M46 1137q13 82 61.5 156.5t113.5 117.5q147 92 303 123q47 9 95 10q112 0 229 -51q188 -78 298.5 -221.5t133.5 -347.5q6 -64 6 -130v-33q-2 -83 -20.5 -164t-53 -155.5t-88.5 -138.5q-37 -45 -87 -87t-105 -78t-113.5 -64.5t-116.5 -44.5q-82 -25 -176 -25t-177 29.5 t-145.5 91t-80.5 160.5q-10 51 -10 99q1 85 33 161q52 119 161 196q16 10 32.5 19.5t33.5 19.5q27 14 54.5 21.5t59.5 3.5l2 -2q-6 70 -14 140.5t-11 140.5q-1 23 -1 46q0 46 4 92q6 68 29 136q0 2 8 6t17 9t17 9l9 4q29 -53 47 -134t28.5 -169t14.5 -174t6 -149 q33 -14 57.5 -36t36.5 -50q0 -2 -6 -4t-12 -6q-8 -4 -17 -11q-12 16 -26 30.5t-31 27.5v-144.5t-4 -144.5q-2 -59 -16.5 -122.5t-51.5 -113.5q-4 -4 -20 -10t-16 -10q-2 53 -21.5 104.5t-19.5 106.5q-1 33 -1 65q0 66 3 130q1 28 1 55q0 70 -7 141q-19 2 -39 2 q-54 0 -109 -16q-35 -35 -56.5 -78t-30.5 -91q-8 -43 -8 -88v-11q1 -50 11 -95q29 -123 116 -204t214 -97q44 -7 87 -7q22 0 43 2q64 5 128 28q35 12 62.5 34.5t52.5 53.5q72 86 115.5 187t56.5 212q7 59 7 117q0 74 -12 145q-20 127 -77.5 235.5t-152.5 191.5t-228 132 q-61 23 -130 39q-53 12 -104 12q-16 0 -30 -2q-64 -4 -119.5 -34.5t-87.5 -98.5q-25 -51 -43 -111q-17 -60 -19 -122v-14q1 -55 15 -106q16 -58 59 -103q-2 2 -15.5 -9.5t-17.5 -9.5q-90 41 -118 117q-20 52 -20 107q0 25 4 51z" />
<glyph unicode="E" horiz-adv-x="1181" d="M45 1288q8 58 33.5 110t66.5 89q4 4 11.5 6t11.5 6q-52 -55 -62 -119q-3 -18 -4 -36q0 -44 18 -88q24 -60 76 -106t119 -67v8q0 82 39 153q41 75 119 124q49 31 101.5 62.5t107.5 52.5q31 12 77 21q34 7 68 7q11 0 22 -1q44 -3 80 -22.5t48 -66.5q9 -36 10 -69 q0 -31 -9 -58q-17 -57 -57 -105t-97.5 -85t-118.5 -64q-51 -23 -101.5 -36t-95.5 -21q66 -53 136.5 -83t164.5 -42q-16 2 -33.5 -10t-36 -27.5t-36 -29t-33.5 -13.5q-59 0 -121 13q-39 -10 -78 -22.5t-72.5 -31t-60.5 -46t-39 -66.5q-29 -80 -29 -171.5t41 -168.5 q33 -61 108 -113q75 -50 162 -72q51 -12 100 -13q36 1 71 7q84 16 135 86q16 23 32.5 46.5t26.5 49.5q22 48 40 104q14 43 14 87q0 12 -1 25q-6 86 -59 133q-44 39 -103 39q-13 0 -26 -2q-53 -53 -91 -121t-77 -129q-4 -4 -12 -7.5t-10 -7.5q29 63 46 108.5t40.5 81.5 t60 64.5t104.5 61.5q52 27 108 35l18 2q45 0 81 -35q39 -37 51 -91q8 -35 9 -71q-1 -19 -3 -39q-6 -57 -26 -111.5t-45 -93.5q-45 -70 -112.5 -118t-143.5 -89q-93 -54 -205 -78q-56 -12 -109 -12q-55 0 -108 13q-61 14 -112.5 50t-86.5 86q-34 51 -50 111q-11 41 -12 83 q0 21 3 42q10 80 47 143.5t90 114t121 86t139 58.5q-47 12 -86 37q-43 29 -64.5 59.5t-37.5 75.5q-76 0 -147.5 20.5t-104.5 73.5q-29 47 -39 105q-6 32 -6 66q0 26 4 52zM427 1103.5q1 -26.5 9 -46.5q39 -5 82 -9q30 -2 60 -3q13 1 25 1q42 2 81 10.5t74 30.5 q35 23 58.5 63t30.5 84q3 16 3 31q0 28 -8 55q-12 42 -45 73q-48 43 -110 43q-12 0 -25 -2q-23 -4 -45.5 -7.5t-45.5 -11.5q-43 -23 -75.5 -70t-46.5 -94q-4 -16 -9.5 -40.5t-9.5 -52.5t-3 -54.5z" />
<glyph unicode="F" horiz-adv-x="1624" d="M44 1312q3 54 56 89q86 57 188 83q38 9 78 9q66 0 136 -27q72 -29 138.5 -61.5t135.5 -61.5q8 6 16.5 12.5t18.5 12.5q49 31 99.5 60.5t104.5 54t110.5 41t115.5 20.5q10 1 21 0q27 0 61 -3q47 -5 92 -17.5t84 -34t61 -51.5q22 -29 22 -69q0 -43 -34 -97 q-18 -31 -54 -61.5t-77 -55.5t-85 -42t-81 -19q-26 -2 -51 -2q-101 0 -201 32q-125 40 -245 88q-29 -94 -35 -188q-4 -56 -4 -115q0 -39 2 -78q73 -2 145 -9q27 -3 52 -3q44 0 85 8q27 14 53.5 25.5t47.5 30.5q-23 -20 -51.5 -43t-61.5 -43.5t-66.5 -34.5t-64.5 -21 q-36 -6 -68 -7h-13q-26 0 -54 3q6 -77 10 -153q2 -38 2 -76.5t-2 -77.5q-2 -37 -5 -76t-12 -77.5t-25.5 -74.5t-43.5 -63q-75 -77 -157 -109q-54 -21 -101 -21q-26 1 -50 7q-69 18 -109 84q-30 51 -30 134q0 27 3 57q0 6 9 10t20.5 8t20.5 8.5t9 8.5v-8q0 -26 10 -62 q12 -41 35 -82t52.5 -74.5t61.5 -49.5q19 -9 37 -9q12 0 26 5q32 11 59 60q35 72 47 153t13 164v33q0 67 -3 134q-4 84 -4 164q-23 4 -46.5 9t-45.5 3q-6 -4 -18.5 -10t-18.5 -13q29 35 61.5 53.5t71.5 26.5q4 109 18.5 217.5t67.5 198.5q-8 4 -29 12q-49 18 -110.5 51 t-128.5 64q-66 30 -134 48q-39 10 -74 11q-27 0 -52 -6q-40 -41 -46 -88q-1 -7 0 -15q0 -41 29 -91q14 -23 32.5 -48.5t42.5 -47t51.5 -34t58.5 -8.5q-4 0 -9.5 -4t-9.5 -6q-29 -8 -56 -8q-47 1 -89 25q-68 40 -99 114q-17 44 -17 91v13zM813 1329q14 -6 28.5 -11t28.5 -9 q43 -12 115 -45t148.5 -60.5t148.5 -39.5q23 -4 43 -4q43 0 72 18t39 50q6 20 6 41q0 13 -2 25q-6 34 -27.5 66.5t-54.5 50.5q-63 37 -139 49q-41 7 -82 7q-34 -1 -69 -5q-75 -10 -142.5 -43t-112.5 -90z" />
<glyph unicode="G" horiz-adv-x="1103" d="M43 614v23q0 91 15 183q16 102 51 192q59 160 158.5 262t244.5 182q53 29 125 46q53 13 104 13q19 0 39 -1q70 -7 126.5 -41.5t78.5 -110.5q18 -55 18 -109q0 -22 -3 -45q-11 -75 -45.5 -138.5t-90 -111t-121.5 -65.5q-20 -10 -61 -15h-11q-35 0 -65 25q-29 25 -43 58.5 t-17 69.5q-1 12 -1 24q0 24 4 49q6 37 18 70q0 2 4 2t4 2v-54.5t3.5 -59.5t13.5 -56.5t33 -44.5q35 -29 77 -34q15 -2 29 -2q28 0 57 7q27 31 43.5 72t23.5 84q5 33 5 67v19q-2 43 -12 77q-16 51 -48 89t-74 59.5t-92 28.5q-24 4 -49 4q-26 0 -53 -4q-49 -10 -87.5 -37 t-69.5 -64t-55.5 -82t-43.5 -90q-84 -208 -84 -429q0 -53 5 -107q6 -72 20 -141.5t41 -134t67 -122t97 -102.5q53 -41 116 -63q44 -14 88 -14q21 0 42 3q47 4 79.5 19.5t65.5 54.5q31 41 62.5 102.5t50.5 128.5q15 57 15 112v18q-3 65 -40 114q-23 31 -55.5 53.5t-68.5 31.5 q-25 6 -50 6q-11 0 -23 -1q-36 -4 -67 -24q-25 -16 -35 -54q-9 -34 -9 -69v-7q1 -40 15.5 -75t42.5 -45q29 -6 50.5 0t39 17t32.5 19.5t30 6.5q16 -4 -1.5 -20.5t-52 -38t-80.5 -40t-89 -26.5q-20 -4 -38 -4q-21 0 -38 5q-33 9 -41 44q-5 25 -5 49t5 45q10 43 32.5 78 t55.5 62.5t67 49.5q12 8 25.5 15.5t26.5 15.5q53 29 118 39q26 4 52 4q37 0 71 -8q86 -20 120 -67q30 -41 30 -114v-18q-2 -94 -27.5 -166.5t-69.5 -132t-107.5 -108.5t-139.5 -92q-86 -49 -173 -57q-22 -3 -43 -3q-63 0 -121 19q-77 26 -141.5 86.5t-107.5 150.5 q-43 88 -64.5 188.5t-23.5 202.5z" />
<glyph unicode="H" horiz-adv-x="1484" d="M43 1223q-1 8 -1 15q0 28 12 58q16 36 50 60q37 23 73 45t73 39q24 10 68 18q16 3 32 3q29 0 60 -9q54 -16 114 -28q28 -6 56 -7q31 0 61 8q6 23 11 55.5t22 51.5q8 6 27.5 20.5t42 25.5t42 13t27.5 -16q10 -33 -9.5 -57.5t-47.5 -42.5q13 -47 13 -98q0 -13 -1 -25 q-4 -64 -6 -125q0 -92 3 -180.5t3 -178.5q25 2 50 2q37 0 74 -4t74 -4q25 0 50 2q10 0 20.5 1t20.5 3q-5 78 -9 154q-2 30 -1 59q0 46 4 93q6 66 8 136t20 130q2 6 21.5 19.5t43 26.5t44 23.5t26.5 8.5q27 -6 48.5 -17.5t50.5 -11.5q-6 0 -12.5 -5t-10.5 -7 q-23 -8 -44 -12.5t-44 -8.5q-12 -77 -12 -159v-23q2 -94 6 -180q4 -41 4 -81v-81q29 16 61.5 30.5t30.5 18.5q8 -16 -20.5 -39.5t-69.5 -48.5q0 -76 -1 -150.5t-1 -152.5q0 -18 -1 -68v-25q0 -39 2 -85q3 -60 10.5 -124.5t22.5 -117.5t43 -85q25 -28 60 -29q4 0 9 1 q41 43 51 99q4 23 4 46q0 33 -8 68q-2 0 10 9q6 4 10 6q27 -39 29 -78v-9q0 -34 -14 -64q-16 -34 -47 -62.5t-70 -44.5q-37 -17 -75 -19h-13q-31 0 -57 10q-32 12 -57.5 43t-33.5 82q-14 82 -18 165q-3 66 -3 133v33q1 83 3 166t2 165v20q-31 -14 -41 -16 q-59 -18 -121.5 -18t-128.5 4v-36t-2 -36q-3 -62 -3 -133v-36v-12q1 -85 -13 -166q-14 -87 -50 -164t-112 -126h-2q-37 -25 -79 -52.5t-85 -39.5q-35 -11 -67 -11q-49 0 -89 27q-66 45 -94 129q-18 54 -18 105q0 31 6 62q18 81 88 128q4 4 10 8t14 9q4 4 9.5 4t11.5 4 q-16 -8 -25 -15q-26 -18 -28 -54q-1 -9 0 -17q0 -28 6 -58q8 -39 26.5 -75.5t36.5 -55.5q47 -47 97 -84q44 -33 96 -32h14q35 47 56.5 103t29.5 112q16 109 18.5 219t4.5 219v74q-18 -4 -38 -5.5t-36 -11.5q-16 -8 -26.5 -21.5t-20.5 -29.5q-2 -4 -8.5 -5t-6.5 -3 q2 20 16.5 38.5t35 32t43 24.5t41.5 17q-3 101 -7 199q-2 52 -2 104q0 47 2 95q2 90 19 176q-41 -25 -83 -44.5t-89 -23.5q-11 -1 -22 -1q-55 0 -109 18q-64 20 -127 24q-15 -36 -17 -76q0 -4 -1 -8q-1 -35 13 -62q14 -30 44 -44q13 -7 30 -7q19 0 43 9q20 14 40 28.5 t40 30.5q4 4 9.5 5t9.5 6q-35 -29 -76 -61t-86 -46q-24 -8 -58 -12q-14 -2 -27 -2q-21 0 -41 4q-34 6 -59.5 24.5t-27.5 55.5z" />
<glyph unicode="I" horiz-adv-x="847" d="M45 1214q-2 16 -2 32q0 24 5 49q9 42 38 71q18 18 48 42t63.5 44.5t68.5 33.5t62 11q31 -2 61.5 -11t61 -19.5t61.5 -16.5t63 -2q8 0 25 4q10 29 27 49q23 23 52 36.5t58 27.5q31 14 53.5 14t12.5 -29t-37 -47t-57 -33q2 -37 10 -75.5t12 -73.5q8 -63 14.5 -125.5 t8.5 -128.5q2 -111 2 -221.5v-220.5v-36q0 -85 -8 -176q-10 -110 -62 -202q-31 -51 -67.5 -83t-71.5 -54q-33 -20 -71 -42t-80 -35t-85 -17q-7 -1 -15 0q-35 0 -69 14q-35 12 -56 37.5t-29 56.5q-5 18 -5 37q0 13 2 27q6 34 31 63q31 35 76 58.5t84 43.5q25 8 39 -3 t21 -32.5t8 -48t1 -47.5q0 -2 -20 -10q-8 -4 -19 -10q-16 25 -33.5 48.5t-39.5 35.5q-7 -25 -6 -50q0 -13 1 -26q5 -39 29 -61q37 -33 87 -43q27 -6 55 -6q23 0 47 4q55 63 78.5 145t29.5 171q4 59 4 119q0 30 -1 59q-3 89 -3 169q0 129 -10 256q-7 91 -7 181q0 36 1 73 q1 14 1 30q0 23 -2 50q-1 19 -1 38q0 25 2 50q-63 -33 -131 -41q-15 -2 -29 -2q-18 0 -36 3q-32 5 -63.5 14.5t-62 17.5t-61.5 10q-23 -40 -23 -80q0 -17 4 -33q10 -44 44 -74q25 -22 57 -23q11 0 22 3q18 16 37 32.5t41 31.5q4 4 9.5 6t9.5 6q-25 -18 -47.5 -40.5t-47 -43 t-53.5 -36t-65 -19.5q-23 -4 -47.5 -3t-46 8t-37 23.5t-21.5 44.5z" />
<glyph unicode="J" horiz-adv-x="911" d="M44 1283q-2 10 -2 20q0 32 17 61q12 18 32 35.5t42.5 31t46 24.5t43.5 20q35 14 70 16q10 1 20 1q25 0 49 -4q33 -5 67 -12.5t71 -7.5q29 -2 55.5 -2t52.5 4q8 66 53.5 102t102.5 64q2 2 15.5 7.5t27.5 7.5t25.5 -3.5t11.5 -19.5q-2 -45 -40 -75.5t-77 -53.5 q23 -72 25 -141.5t6 -143.5q4 -41 7 -80.5t7 -80.5q10 10 20.5 22t20.5 25q10 10 30.5 15.5t26.5 17.5q-18 -39 -41.5 -73t-52.5 -67q8 -82 14 -163q3 -46 3 -93q0 -34 -2 -69q-6 -127 -31 -260.5t-96 -243.5q-20 -33 -60.5 -67t-91.5 -63.5t-107.5 -50t-109.5 -25.5 q-14 -1 -28 -1q-37 0 -71 9q-46 14 -75 54q-37 51 -51 100q-9 34 -9 67q0 16 3 32q6 49 27.5 98.5t55.5 98.5q49 72 107.5 136t121 123.5t127 118t128.5 117.5q-8 104 -15.5 210t-11.5 212q0 20 -1 44t1 50q-25 -14 -50.5 -23t-51.5 -13q-54 -8 -106 -8q-3 0 -6 1 q-56 0 -111 11q-29 4 -60 10t-59 8q-22 -38 -22 -80v-10q3 -47 26.5 -82t64.5 -51q19 -8 42 -8q25 0 55 10q12 10 23 19.5t22 19.5q4 4 9 6t9 6q-18 -27 -46 -45t-56 -31q-29 -12 -59.5 -21t-60.5 -7t-56.5 16t-42.5 49q-18 35 -24 79zM196 332q-4 -24 -4 -47q0 -67 39 -131 q27 -43 52.5 -69t55.5 -36q27 -9 60 -9h7q36 1 90 9q29 35 51 78t37.5 89t26 92t16.5 89q16 113 18 225v38q0 95 -8 194q-49 -43 -99.5 -84t-98.5 -84t-92 -89t-79 -97q-53 -76 -72 -168z" />
<glyph unicode="K" horiz-adv-x="1474" d="M44 1218q-2 11 -2 22q0 41 32 83q33 43 81 81t102 69.5t111.5 57t106.5 44.5q18 6 56 21.5t78 25.5q31 8 59 8q8 0 16 -1q35 -3 47 -30q15 -33 15 -73v-6q-1 -44 -1 -82q2 -53 3.5 -103.5t3.5 -103.5q0 -27 1 -52.5t1 -52.5q39 39 83 94.5t77 117.5q32 62 44 130 q4 22 5 46q0 45 -17 90l29 16q10 6 18 11t11 5q50 -40 50 -101q0 -63 -31 -129q-30 -64 -75 -123.5t-80 -96.5q25 7 48 7q30 -1 58 -13q48 -22 89 -97q66 -127 102.5 -262t55.5 -276q8 -70 20 -142.5t47 -134.5q20 -33 49 -74.5t66 -62.5q4 4 6 8q4 4 14.5 7.5t10.5 7.5 q-2 -16 -15.5 -30.5t-31 -26t-37 -17.5t-33.5 -6q-63 0 -105.5 31.5t-68 79.5t-39.5 104.5t-21 107.5q-16 123 -39.5 243t-70.5 237q-10 23 -23.5 61.5t-33 78.5t-44 73.5t-53.5 46.5q-31 -31 -63 -58q4 -92 9 -183t7 -183q0 -49 1 -103v-28q0 -42 -2 -82q-3 -54 -14.5 -107 t-35.5 -98q-39 -72 -92.5 -119t-122.5 -88q-50 -30 -108 -62q-46 -25 -96 -26q-13 0 -26 2q-98 12 -148 64q-50 54 -64 124q-6 30 -5 61q1 43 11 89q18 80 57 149q45 80 101.5 145.5t120 124t131 113t132.5 111.5q-4 59 -5 119.5t-3 122.5q-2 41 -2 79.5t-2 79.5q0 12 1 30 t1 37t-3 36.5t-13 28.5q-18 18 -44 23t-51.5 2t-52 -11t-49.5 -17q-27 -10 -52.5 -19t-51.5 -21q-16 -10 -32.5 -23.5t-39.5 -36.5q-18 -23 -33.5 -47.5t-25 -52t-7 -55t20.5 -54.5q12 -18 28.5 -36.5t36 -33t41 -20.5t45.5 -2q10 6 16.5 14.5t12.5 18.5q2 2 6 3t4 3 q-4 -20 -22.5 -34.5t-36.5 -20.5q-33 -15 -68 -15q-19 1 -39 5q-56 12 -96.5 46t-51.5 86zM199 309q4 -57 28.5 -108t79.5 -80q33 -15 69 -27q27 -9 55 -9q10 0 20 1q14 2 30.5 6t24.5 19q61 74 89 161.5t34 181.5q3 45 3 92q0 50 -4 99q-6 96 -10 186q-2 33 -3 66t-3 68 q-63 -51 -123.5 -104.5t-113.5 -117.5q-35 -41 -68 -93t-58.5 -109.5t-39.5 -116.5q-11 -46 -11 -90q0 -13 1 -25z" />
<glyph unicode="L" horiz-adv-x="1388" d="M45 1302q8 60 36 119.5t58 108.5q4 0 6 2q-18 -37 -33.5 -83t-20.5 -93q-2 -14 -1 -28q0 -32 8 -63q12 -44 47 -75q33 -29 74 -43q41 -13 84 -19q25 -3 50 -4q19 0 38 2q45 4 86 11q47 6 94 18q0 45 2 95t12.5 96.5t32 86.5t60.5 66q16 12 44 31.5t58.5 38t59 31 t51.5 6.5q57 -12 61 -56q1 -7 1 -14q1 -39 -19 -83q-22 -52 -57 -99t-58 -66q-35 -31 -72.5 -57.5t-78.5 -48.5q2 -78 9 -157t11 -161q8 -104 13 -210q3 -63 2 -126q0 -42 -1 -84q-2 -29 -3 -59.5t-7 -60.5q57 -25 115.5 -54.5t118.5 -53.5t122 -36q34 -7 69 -6q27 0 54 4 q18 31 27 69q10 39 11 77v12q0 32 -4 64q-5 38 -15 69q14 6 24 14q10 6 17.5 11.5t9.5 5.5q45 -30 79 -62q28 -26 27 -69q0 -10 -1 -21q-6 -51 -41 -97t-85.5 -81t-108.5 -56.5t-110 -23.5h-20q-86 0 -163 30q-85 34 -171 75q-16 -27 -39 -43q-35 -31 -80 -63t-94 -54.5 t-100 -30.5q-17 -3 -34 -3q-34 0 -67 11q-72 23 -95 68q-16 30 -16 63q0 15 4 31q11 49 48 95t88 71q68 31 144 38q23 2 47 2q53 0 106 -11q1 22 1 42.5t-1 39.5q0 166 4 327.5t8 327.5v22q-8 -2 -16 -8q-43 -23 -97.5 -39t-111.5 -22q-26 -3 -52 -3q-30 0 -60 4 q-56 7 -99 36q-61 39 -79 93q-13 38 -13 78q0 17 2 35zM207 213q4 -29 23.5 -53.5t54.5 -40.5q45 -21 95 -31q28 -6 56 -6q21 0 43 4q29 35 45.5 74t24.5 84q-37 16 -74 34.5t-75 32t-78 18.5q-13 2 -26 2q-26 0 -52 -7q-23 -25 -32 -53.5t-5 -57.5zM666 1198q41 35 67 76 q10 14 31.5 51t35.5 76q11 32 11 60q0 7 -1 13q-3 34 -42 46q-8 2 -13 2t-10 2q-4 -6 -9 -11.5t-9 -11.5q-29 -45 -42 -91t-17 -99q-2 -29 -2 -56.5v-56.5z" />
<glyph unicode="M" horiz-adv-x="1679" d="M42 234q1 62 28 122q29 68 78 109t110 76q42 25 77 25h10q38 -4 63.5 -26t37.5 -58q8 -24 7 -49q1 -13 -1 -25q-6 -38 -27.5 -71.5t-62.5 -51.5q2 2 3.5 2t3.5 2q25 12 37 44t12 66.5t-11.5 67.5t-33.5 49q-36 24 -68 24h-3q-34 -1 -62.5 -17.5t-49 -47.5t-30.5 -67 q-10 -35 -14 -76q-2 -20 -2 -40q0 -21 2 -41q4 -40 20 -77t49 -61q53 -37 109 -42q13 -1 27 -1q43 0 87 12q47 47 77 109.5t45 130.5q16 70 20 140q3 49 3 94q0 20 -1 40q-6 100 -18.5 198.5t-22.5 196.5q-4 57 -12.5 118.5t-14.5 122t-7 120.5v18q0 52 5 103q0 4 22.5 17 t49 27.5t48.5 25.5l23 11q51 -47 88 -117.5t72 -131.5q41 -74 82 -146t76 -147q45 164 121 325q27 53 56.5 111.5t82.5 91.5q35 23 70.5 43.5t74.5 40.5q18 8 22.5 -1t1.5 -27.5t-9.5 -38t-8.5 -29.5q-10 -39 -14 -78t-8 -80q-12 -209 -13 -418v-28q0 -195 13 -389 q2 -25 3 -68t6 -93t14.5 -101.5t27 -93.5t45 -68.5t66.5 -26.5q16 23 27.5 48t21.5 54q2 4 12 9.5t22.5 9.5t21.5 9t9 9q0 -37 -13 -64.5t-35.5 -48t-51.5 -38t-59 -33.5q-34 -19 -65 -19q-16 0 -30 4q-44 14 -75 52.5t-50.5 87.5t-23.5 90q-18 174 -23.5 347t-5.5 347 q0 86 2 169t11 169q2 33 5 64.5t9 64.5q-10 -23 -18.5 -43t-18.5 -41q-47 -104 -93 -207.5t-81 -212.5q-2 -2 -2 -4q31 -63 70.5 -151t63.5 -178q20 -75 21 -140q1 -12 -1 -24q-4 -76 -62 -115q-4 -4 -19.5 -12t-33 -18.5t-33.5 -19.5t-22 -11q-20 -7 -38 -7q-20 0 -37 9 q-32 16 -34 94q-1 37 -1 73q0 73 3 143q4 105 21 210q-25 68 -56 135q-41 98 -88 202.5t-110 200.5q2 -23 4 -47t4 -47q4 -88 10 -176t18 -176q16 -100 18 -204v-16q0 -95 -16 -188q-16 -96 -57 -186t-125 -143q-29 -18 -60.5 -39t-66.5 -38.5t-71 -28.5q-30 -9 -59 -9h-11 q-70 2 -117 36t-71 85q-23 49 -22 108v5zM941 400q5 -54 23.5 -90t57.5 -40q12 27 14 61q1 11 1 23q0 22 -3 44q-4 32 -12 63.5t-16 56.5q-10 33 -22.5 65.5t-25.5 67.5q-10 -66 -16 -131q-3 -35 -4 -68q1 -27 3 -52z" />
<glyph unicode="N" horiz-adv-x="1384" d="M42 216q-1 12 -1 24q0 34 10 67q14 43 40 72t61 51q18 16 39.5 27.5t44.5 21.5q32 14 67 14q10 0 19 -1q45 -5 78.5 -29.5t47.5 -63.5q6 -17 7 -36q0 -25 -11 -52q-16 -35 -34.5 -58.5t-53.5 -39.5q4 2 7.5 4t7.5 4q20 10 31.5 34t14.5 50.5t-4 52t-22 39.5 q-62 56 -136 56q-26 0 -54 -7q-23 -30 -29 -64q-3 -19 -3 -38q0 -16 2 -32q5 -36 20.5 -70.5t35.5 -61.5q45 -60 109 -82q42 -15 86 -14q23 0 47 4q37 43 62.5 96.5t41 109.5t25.5 114.5t16 113.5q11 89 11 178q-1 22 -1 44q-4 112 -15 222t-19 222q-4 50 -4 100q0 62 6 125 q0 4 22.5 17.5t49 29t49 26.5t24.5 11q8 -6 34 -40t56.5 -74t56 -75.5t34.5 -45.5q35 -53 66.5 -107.5t62.5 -107.5v57.5t2 56.5q-1 23 -3 61q-2 24 -1 48q1 16 1 30q2 40 8.5 74.5t28.5 50.5q33 23 70 43.5t72 36.5q29 12 59.5 9t58.5 8q-27 -10 -50 -27t-48 -29 q-23 -12 -47 -18q-4 -22 -4 -45q0 -11 1 -23q3 -34 1 -59q-2 -66 -5 -131.5t-5 -130.5q-4 -59 -10.5 -119.5t-12.5 -122.5q33 -72 58.5 -142.5t46.5 -148.5q25 -90 49 -192q18 -77 18 -149q0 -24 -2 -48q-4 -33 -16 -55.5t-33 -38.5q-25 -25 -60.5 -42t-60.5 -30 q-23 -10 -36 4.5t-21 42t-12 63.5t-4 70.5t1 61.5t1 35q2 37 2 74q0 51 -4 101q-6 87 -15 175q-35 98 -82 190.5t-100 184.5q-37 66 -74 130t-84 124q6 -111 17 -221q10 -112 13 -222q1 -21 0 -42q1 -90 -9 -178q-12 -110 -49 -220q-29 -76 -71 -137.5t-97 -95.5 q-31 -16 -60.5 -35t-64.5 -37q-50 -25 -102 -36q-20 -4 -40 -4q-34 0 -71 11q-43 14 -78 45t-55.5 73t-25.5 88zM1149 340q0 -39 1 -76t1 -74q2 -35 11 -73.5t32 -63.5q1 14 1 29q0 32 -6 66q-9 48 -15 77q-8 53 -25 115z" />
<glyph unicode="O" horiz-adv-x="1153" d="M41 685q0 116 22.5 228.5t73.5 212t139 166.5q49 39 111 75t127.5 62.5t133.5 38.5q34 6 67 5q32 0 63 -5q94 -16 167 -70.5t102 -150.5q19 -62 20 -122q1 -11 -1 -23q-4 -72 -58 -127q16 -10 35.5 -26.5t25.5 -35.5q23 -69 34 -149q8 -59 8 -119q0 -22 -1 -44 q-4 -83 -24.5 -161t-59.5 -139q-35 -55 -90 -103t-119.5 -86t-134.5 -65t-133 -37q-50 -8 -95 -8q-44 0 -83 8q-80 16 -146 92q-66 78 -108.5 171.5t-59.5 195.5q-16 100 -16 216zM185 730v-28q0 -133 42 -256q16 -47 42 -105t62 -111.5t82 -93.5t103 -48q35 -6 71 -6 q25 0 51 3q62 7 122 26q47 12 70.5 39.5t52.5 68.5q53 95 69 201q9 59 10 120q0 47 -6 95q-4 45 -11 89t-7 89q0 33 8 61.5t12 59.5q-18 -16 -51 -39t-72.5 -41t-79.5 -30q-28 -8 -53 -8q-11 0 -21 2q-34 5 -54.5 32t-20.5 82q0 31 13.5 73t37 77.5t55.5 57.5q26 18 57 18 q8 0 17 -1q-4 0 -10 -6t-10 -6q-10 -2 -18.5 -3t-18.5 -5q-29 -33 -36 -82q-2 -11 -2 -22q0 -36 18 -66q48 -74 126 -74q11 0 23 2q62 74 64 168v7q0 90 -60 175q-68 96 -178 128q-56 16 -113 16q-55 0 -110 -15q-47 -10 -79 -34.5t-60 -67.5q-37 -59 -64 -123t-41 -133 q-27 -138 -32 -286z" />
<glyph unicode="P" horiz-adv-x="1415" d="M44 314q5 50 26.5 96.5t64.5 81.5q16 12 45 32.5t61.5 38t64.5 26.5t54 -1q49 -23 71 -75q17 -40 17 -82q0 -13 -2 -25q-6 -54 -39.5 -94t-91.5 -40q4 0 9.5 5.5t9.5 5.5q8 0 16 2t17 4q35 35 39 86q1 8 1 15q0 42 -20 77q-23 45 -65 57q-24 7 -50 8q-19 0 -39 -4 q-27 -37 -38 -83q-9 -39 -10 -80q0 -7 1 -15q2 -49 17.5 -94t42.5 -78q33 -40 79 -70q43 -28 94 -28h7q27 0 43 4t33 29q39 63 56 137q18 74 24 150q6 66 5 134v21q-1 78 -1 150q0 90 3 179t7 181q4 82 23.5 158.5t31.5 156.5q0 4 14.5 9.5t14.5 7.5q43 -85 52 -185 q6 -69 6 -140q0 -32 -1 -64l2 2q10 6 21.5 10t17.5 12q-27 -27 -27 -58q1 -4 1 -6q2 -34 21.5 -65t51 -52.5t66.5 -23.5q15 -1 29 -1q64 0 120 22q16 6 34 15t28 20q49 45 82 113q33 70 42 144q3 24 3 48q-1 49 -13 97q-18 71 -71 122q-37 35 -85 58.5t-100.5 37 t-106.5 16.5q-23 1 -45 1q-30 0 -58 -2q-18 0 -50 -3.5t-65 -9.5t-61.5 -14t-41.5 -21q-10 -10 -20 -19t-20 -19q-27 -29 -54.5 -64t-45.5 -73q-18 -39 -24 -79l-2 -18q0 -31 15 -63q10 -23 29.5 -58t44 -69.5t52.5 -60t56 -29.5q-4 0 -10 -5.5t-10 -5.5q-31 -8 -68 -10h-16 q-27 0 -55 5q-34 7 -66.5 23.5t-52.5 45.5q-35 47 -55 107q-8 24 -9 48q0 36 19 72q47 86 108.5 148.5t143.5 109.5q72 47 151.5 84t169.5 53q57 9 127 11h23q57 0 115 -10q68 -12 129 -42t100 -82q63 -86 65 -194v-9q0 -104 -45 -194q-37 -72 -95 -116t-126 -85 q-66 -39 -137.5 -78.5t-149.5 -48.5q-20 -3 -42.5 -3t-45.5 3q0 -63 2 -133q1 -20 0 -41q0 -50 -3 -99q-5 -69 -21.5 -134.5t-49.5 -120.5q-27 -43 -70.5 -83t-96.5 -70q-54 -30 -112 -48q-50 -15 -97 -15h-17q-56 3 -103.5 29.5t-78.5 86.5q-23 45 -34 96q-8 35 -8 70 q0 15 2 31z" />
<glyph unicode="Q" horiz-adv-x="1187" d="M42 810q1 97 24.5 190.5t78.5 168.5q37 51 92.5 104.5t120 99.5t133 81t134.5 49q29 6 59 6t62 -6q63 -12 121.5 -41.5t107.5 -76t78.5 -100.5t34.5 -117q1 -9 1 -19q0 -53 -24 -107q-16 -39 -64.5 -86t-107.5 -80.5t-119 -41.5q-10 -2 -20 -2q-48 0 -82 36 q-27 27 -33 65q-2 13 -2 27q0 24 7 46q11 36 37 65t60 41q2 2 9.5 3t13.5 3q-6 -2 -11 -6t-12 -6q-4 -2 -6 -2t-6 -2q-16 -16 -24.5 -40t-8.5 -46.5t11.5 -44t33.5 -33.5q61 -34 130 -34q11 0 22 1q49 14 61 61q7 24 7 50t-7 55q-12 57 -41.5 115.5t-66.5 95.5 q-61 63 -131 99t-141 39h-11q-65 0 -127 -30q-69 -34 -127 -108q-25 -35 -46 -69.5t-34 -73.5q-29 -86 -37 -171q-3 -36 -3 -72q0 -50 6 -101q8 -86 23 -182.5t46 -187.5t83 -167t136 -123q66 -37 141 -49q29 -4 57 -4q47 0 93 12q-4 10 -10 21q-6 10 -23.5 32.5t-39 45 t-44 38t-43.5 13.5l-6 -6q-4 -4 -8 -4.5t-4 -4.5q12 27 50 40.5t81 15.5h13q36 0 71 -9q41 -12 61 -32q8 -12 23 -39q18 29 31 57q33 76 45 157t24 161q6 42 6 83q0 32 -4 63q-8 71 -43 138q6 4 15 8q2 2 5 3.5t5 3.5t4 2q53 -61 85 -139t39 -160q2 -23 2 -45 q0 -59 -13 -118q-19 -81 -66 -149q-25 -35 -53.5 -60.5t-61.5 -47.5q20 -45 43 -98.5t50.5 -97.5t58.5 -70q21 -17 45 -17q11 0 23 4l10 4l-6 -4q-31 -27 -68 -45t-73 -22q-9 -1 -17 -1q-28 0 -55 11q-35 14 -60 55q-29 47 -45 99.5t-39 99.5q-31 -20 -62.5 -35.5 t-66.5 -26.5q-64 -17 -120 -17q-44 0 -84 10q-91 24 -161.5 83.5t-119.5 147.5t-74 190q-23 86 -38 184q-14 91 -14 182v12z" />
<glyph unicode="R" horiz-adv-x="1421" d="M49 320q14 70 53 138t93 126q84 90 183 155.5t200 132.5q-4 74 -8.5 148t-12.5 145q-4 25 -5 62t-5 76.5t-13.5 75.5t-25.5 57q-10 0 -21.5 -1t-23.5 -3q-47 -8 -103.5 -15.5t-93.5 -44.5q-25 -25 -50.5 -56.5t-40.5 -66.5q-16 -37 -16 -76q0 -36 21 -71q40 -60 98 -60h2 q57 0 103 52q4 4 7 4t5 4q-29 -39 -80 -64.5t-96 -31.5q-15 -2 -29 -2q-55 0 -87 26q-40 32 -47 80q-2 12 -2 24q0 38 18 80q22 56 71 95q61 47 136 92t149 74q61 20 137 35.5t154 18.5q14 1 28 1q63 0 125 -12q74 -14 134 -50q74 -47 80 -100q1 -8 1 -16q0 -44 -28 -90 q-33 -54 -86 -103t-99 -86q-8 -8 -17 -15t-19 -14q34 19 66 19q8 0 14 -1q38 -5 71 -29.5t59.5 -62.5t43.5 -79q45 -111 60 -227q10 -76 10 -153q0 -41 -3 -81q-1 -15 0 -35q0 -31 1 -71q3 -68 18.5 -132.5t49.5 -108.5q29 -37 75 -37q8 0 18 1q10 4 29.5 14.5t29.5 20.5 q-20 -29 -59 -50.5t-72 -35.5q-44 -21 -79 -21q-23 -1 -43 9q-48 24 -75 78q-26 52 -35 120q-6 47 -6 88q0 18 1 35q4 62 4 125q0 42 -2 84q-4 104 -37 207q-8 27 -25.5 72t-42 90t-54.5 79.5t-62 41.5q-18 -18 -38 -37t-42 -35q4 -54 6 -106q1 -18 1 -35q0 -35 -3 -70 q-2 -74 -8.5 -161t-25.5 -171t-58 -156.5t-107 -119.5q-37 -25 -87 -53q-49 -30 -103 -46q-43 -13 -86 -13q-10 0 -21 1q-53 4 -92 47q-59 61 -77 131q-10 39 -9 78q0 31 6 62zM145 330q2 -61 27 -111.5t66 -84.5t93 -47q29 -7 60 -8q23 0 47 5q51 55 80 131t43 158 t17.5 163.5t3.5 149.5q-2 45 -2 89t-2 89q-39 -25 -77 -50.5t-73 -53.5q-47 -37 -98 -84t-92 -102.5t-68 -117.5q-25 -57 -25 -117v-9zM666 1438q16 -57 18 -123t6 -117q4 -57 10.5 -113.5t10.5 -113.5q33 27 72.5 61.5t74.5 73.5t59.5 80t27.5 80v9q-1 33 -21 63 q-24 34 -86 61q-41 16 -84 25.5t-88 13.5z" />
<glyph unicode="S" horiz-adv-x="1058" d="M43 287v10q-1 57 21 105q24 54 67 96.5t102 76.5q27 14 53.5 30t55.5 26t58.5 13t60.5 -5q55 -16 83 -47q30 -31 38 -71q4 -19 4 -39q0 -23 -6 -47q-10 -46 -29 -91q-2 -4 -13.5 -7t-11.5 -7q-4 57 -36.5 112.5t-83.5 83.5q-31 16 -64 28q-25 9 -52 10q-9 0 -18 -1 q-56 -37 -74 -103q-11 -39 -10 -78q0 -26 4 -54q12 -68 53.5 -127.5t104.5 -85.5q72 -31 150 -32h6q74 -1 140 25q68 26 122.5 81t81.5 137q18 59 18 119q0 28 -4 57q-12 90 -78 155q-63 63 -138 91t-156 55q-35 10 -74 23.5t-74 34t-63.5 47t-42.5 65.5q-4 10 -5.5 18 t-5.5 19q-59 27 -106 69.5t-62 114.5q-8 40 -8 78q1 43 11 84q20 76 92 127q2 2 4 2q-46 -35 -56 -86q-5 -23 -4 -47q0 -28 6 -58q12 -54 44 -100.5t73 -71.5q4 47 21.5 93.5t46.5 84.5q39 47 94 92.5t117.5 82t129 62.5t128.5 34q18 3 37 3q25 0 53 -5q49 -8 89 -32 q41 -25 61 -63q12 -23 12 -51q0 -20 -6 -43q-23 -86 -77.5 -155.5t-129.5 -116.5q-82 -53 -167 -91t-177 -44q33 -29 73.5 -47.5t83.5 -30.5t87 -24.5t86 -30t80 -41t69 -58.5q54 -63 76 -143q10 -37 10 -74q0 -43 -14 -86q-25 -74 -67 -130t-96.5 -101t-118 -82t-126.5 -70 q-61 -31 -137 -46q-48 -9 -94 -9q-27 0 -55 3q-74 9 -137.5 46t-96.5 109q-31 68 -33 129zM360 1147q2 -47 23 -90q4 -4 4 -6q49 -13 101 -17q19 -2 37 -1q33 0 67 5q82 12 144.5 47t107.5 117q24 41 26 86v14q0 38 -12 71q-14 40 -48 71t-85 41q-33 6 -71 6t-74.5 -9 t-69 -27.5t-57.5 -49.5q-27 -35 -49 -77t-34 -88q-10 -39 -10 -79v-14z" />
<glyph unicode="T" horiz-adv-x="1601" d="M43 1186v13q0 97 88 151q87 58 191 84q55 14 111 13q51 0 104 -11q55 -12 110 -34t109 -46q63 59 141 107t161 76q82 28 166 32q12 1 23 1q71 0 139 -22q18 -6 49 -16t60 -25.5t47.5 -37t16.5 -50.5q-6 -47 -36 -78.5t-69 -54.5q-76 -45 -154.5 -90t-175.5 -53 q-30 -3 -59 -3q-73 0 -138 18q-91 26 -184 63q-4 -10 -6 -17.5t-6 -15.5q-29 -92 -34 -184q-2 -46 -2.5 -91.5t2.5 -91.5q5 -92 14.5 -184t9.5 -184q0 -37 -1 -84t-7 -93.5t-20.5 -88.5t-43.5 -70q-33 -33 -73.5 -55.5t-81.5 -45.5q-31 -15 -62 -15q-16 -1 -30 3 q-44 12 -71.5 46t-33.5 81q-1 8 -1 17q0 39 23 79q4 4 12.5 6.5t10.5 6.5q-11 -29 -11 -54q0 -15 4 -28q11 -35 39.5 -56.5t69.5 -31.5q31 -7 62 -6h20q33 51 44.5 117.5t11.5 136t-7.5 137l-13.5 121.5q-6 72 -11 148q-4 54 -4 107q0 21 1 43q2 76 16.5 150t46.5 141 q23 43 56 88q-35 16 -71 30.5t-73 27.5q-35 12 -74.5 25.5t-84 22.5t-88.5 13q-15 1 -29 1q-28 0 -53 -5q-33 -39 -51 -90q-8 -23 -9 -46q0 -27 12 -52q2 -6 20.5 -27.5t40 -43t42 -34t31.5 -0.5l8 4v-6q0 -2 -7.5 -5t-9.5 -5q-17 -5 -37 -5q-13 0 -27 2q-38 5 -74 21.5 t-61.5 43t-27.5 59.5zM799 1337q96 -43 191 -77.5t200 -34.5h57.5t63 6t56.5 21t38 44q8 23 8 44q0 12 -3 24q-7 31 -27.5 54.5t-50 39t-62.5 25.5q-69 22 -140 22q-17 1 -34 -1q-88 -6 -168 -42q-39 -16 -71 -50t-58 -75z" />
<glyph unicode="U" horiz-adv-x="1536" d="M42 1109q8 85 58 162t125.5 136t145.5 90q59 27 119 30h15q52 1 94 -19q48 -22 78 -70q28 -44 28 -110v-9q-2 -74 -14.5 -147.5t-28 -145.5t-28.5 -145.5t-16 -147.5q-4 -55 -6 -115q-1 -20 -1 -39q0 -39 3 -79q4 -58 17.5 -114t42.5 -105t73 -90t97 -70q52 -29 112 -41 q30 -6 59 -6t58 6q47 43 78 92t47 121q6 31 6 63q0 22 -3 44q-7 54 -9 114q-10 136 -22 278q-5 62 -4 122q0 79 8 155q4 51 8 109.5t13 116t27.5 110.5t53.5 92q4 4 15.5 8t11.5 8q-6 -34 -6 -71q1 -2 1 -6q0 -40 4.5 -82.5t8.5 -84.5t4 -79q0 -119 5 -235.5t9 -235.5 q2 -35 6 -99.5t11.5 -140.5t19.5 -152.5t30 -134.5q18 -60 42 -90q16 -20 35 -20q10 0 22 6q-25 -14 -52.5 -27.5t-54 -19.5t-52 2t-46.5 37q-35 43 -53 104q-20 -23 -44 -42t-50 -38q-18 -14 -43 -30.5t-52.5 -31.5t-54 -27.5t-51.5 -16.5q-24 -3 -48 -3t-50 3 q-51 6 -101.5 24.5t-94.5 47t-75 65.5q-57 74 -83 169q-25 96 -28 198q-1 19 -1 38q0 84 11 166q13 102 32 187q10 53 25.5 111.5t26.5 119t12 118.5v6q0 55 -17 108q-12 39 -40 62q-29 22 -63 31q-28 7 -59 7h-14q-39 -2 -76 -12q-71 -62 -101 -150q-20 -57 -19 -118 q0 -32 5 -64q6 -37 21.5 -69.5t38.5 -56.5q24 -24 56 -34q16 -5 34 -5q17 0 35 5q57 53 75 121q16 61 15 130v16l4 2q15 -42 15 -85q0 -30 -8 -58q-18 -72 -79 -115q4 0 6 2q-4 -4 -8 -5.5t-8 -5.5q-2 0 -2 -1t-2 -1q-12 -8 -21 -12l-8 -4l-8 -4q2 0 4 2 q-29 -14 -61.5 -25.5t-64.5 -12.5t-61.5 9t-54.5 39q-61 72 -61 148q0 9 1 17z" />
<glyph unicode="V" horiz-adv-x="1251" d="M43 1268q-1 13 -1 25q0 53 28 96q36 53 98 84q20 12 49 24t59.5 18.5t60.5 2t50 -24.5q37 -37 53.5 -88t24.5 -102q18 -141 34.5 -282.5t37 -282t47 -280t67.5 -276.5q23 80 34 164t26 162q27 152 49 301t45 303q6 49 21.5 100.5t40 97.5t59.5 83.5t82 60.5 q25 14 55.5 32.5t59 26t52 -4t35.5 -56.5q-12 -4 -20 -10q-18 -10 -19 -10q-29 26 -61 32q-13 2 -26 3q-20 0 -40 -5q-43 -47 -63 -112.5t-29 -124.5q-14 -98 -26.5 -192.5t-28.5 -190.5q-20 -113 -38.5 -224.5t-41.5 -224.5q-16 -92 -41.5 -178t-83.5 -162q-4 -4 -26.5 -16 t-49.5 -27q-16 -10 -33.5 -19t-33.5 -20l2 2l-2 -2q-82 217 -122 445.5t-69 460.5q-4 31 -6 87t-9 123.5t-19.5 136t-35.5 122.5q-22 52 -58 82q-27 22 -65 23q-13 0 -26 -3q-37 -35 -55 -76t-27 -94q0 -4 -7 -5t-7 -5z" />
<glyph unicode="W" horiz-adv-x="1802" d="M42 1286q-1 11 -1 23q0 27 8 54q12 38 43 58h2q14 12 35 24.5t41 22t35.5 16.5t19.5 11q17 5 33 5q20 0 39 -8q33 -15 55 -81q29 -76 38 -154.5t18 -158.5q10 -100 21 -199.5t24 -202.5q10 -92 19 -182t13 -184q0 -16 1 -33.5t1 -34.5q37 119 67 241t57.5 244.5t58 243.5 t67.5 242q-4 23 -6 47.5t-6 46.5q-8 53 -14 109q-4 37 -4 72q0 18 1 35q3 52 21.5 98.5t61.5 80.5q-2 -2 23.5 17.5t59 39t68.5 31t51 -9.5q14 -18 18.5 -42.5t0.5 -50.5t-11.5 -51.5t-13.5 -45.5q-25 -84 -52.5 -165t-53.5 -163q4 -57 8 -113.5t8 -113.5q16 -166 35.5 -329 t54.5 -325q4 -16 9 -52t14.5 -79t21.5 -86t31 -73q16 59 22.5 122.5t16.5 106.5q29 147 54.5 297.5t41.5 302.5q8 80 18.5 173t34 184.5t66.5 169t121 124.5l4 4q18 12 44.5 31t56.5 35t59.5 25.5t54.5 3.5q49 -12 75 -58q24 -43 23 -87v-7q-2 -43 -35.5 -89t-81.5 -82 q-49 -35 -102 -53q-30 -10 -57 -11q-20 0 -37 6q8 -2 21.5 7t27.5 20.5t28.5 21.5t24.5 10q10 2 21.5 2t21.5 2q17 33 19 73v14q0 33 -10 61q-12 34 -35 58t-58 28q-53 -66 -78 -148q-33 -94 -51 -192.5t-31.5 -197.5t-23.5 -199.5t-27 -198.5q-18 -111 -40.5 -220.5 t-43.5 -220.5q-4 -23 -11 -49t-17.5 -51t-24.5 -44t-33 -28q-18 -10 -44.5 -28.5t-55.5 -30.5t-55.5 -12t-46.5 30q-39 86 -57.5 187.5t-35.5 193.5q-23 121 -35 240t-22 240q-49 -211 -102.5 -418t-139.5 -406q-4 -6 -31.5 -20.5t-56.5 -30.5q-14 -8 -28.5 -16.5 t-28.5 -16.5q-37 88 -39 183.5t-6 189.5q-6 123 -23.5 244t-31.5 241q-2 16 -5.5 60.5t-8.5 100.5t-13 121t-20.5 123t-31 105t-42.5 70q-27 -55 -33 -117q-1 -11 -1 -20q0 -48 24 -82q0 2 -12.5 -7.5t-14.5 -9.5q-37 10 -57.5 43t-25.5 72zM850 1630.5q0 -32.5 2 -65.5 q6 29 10 65q1 12 1 24q0 23 -5 42q-8 -33 -8 -65.5z" />
<glyph unicode="X" horiz-adv-x="1290" d="M42 1256q0 48 24 85q27 39 63.5 61.5t77.5 45.5q53 29 99 29h12q52 -4 94.5 -34t76 -77t58.5 -98q41 -90 68.5 -182.5t56.5 -188.5q29 68 56.5 133.5t57.5 130.5q14 31 28.5 63.5t32 64.5t40 60.5t51.5 47.5q29 20 63.5 39.5t69.5 38.5q8 4 17.5 9t12.5 7t-2 -1t-24 -15 q-37 -29 -64.5 -70t-50 -88t-41 -94t-36.5 -88q-41 -98 -79 -199.5t-85 -198.5q12 -41 31.5 -106.5t45 -139t59.5 -147.5t74 -134t88 -99t105 -39q10 10 20.5 22.5t20.5 24.5q6 8 18.5 13t27 10t25.5 11.5t15 14.5q-41 -92 -105 -133q-62 -40 -128 -40h-4q-68 1 -131.5 43 t-106.5 120q-47 82 -84 168t-69 178q-10 -25 -22.5 -49.5t-25.5 -46.5q-10 -18 -39.5 -66.5t-69.5 -104t-88 -108.5t-96 -84q-45 -29 -83 -29h-5q-40 2 -67 60l12 8q8 6 13 6q16 -12 33.5 -25.5t39.5 -13.5q23 -4 42.5 7.5t35.5 31t30.5 43t26.5 47.5q61 115 112.5 231.5 t102.5 237.5q-18 61 -36.5 124t-34.5 124q-35 127 -84 253t-135 230q-16 18 -37 31.5t-47 11.5q-25 -4 -39.5 -19t-26.5 -42q-8 -20 -14 -45t-7 -49.5t3 -49t18 -44.5q27 -41 60.5 -50.5t78.5 -17.5q-2 0 -4 -2t-4 -2q-25 -4 -56.5 -7t-60 2t-52 19t-36.5 45q-17 43 -17 95z " />
<glyph unicode="Y" horiz-adv-x="1214" d="M42 1155v6q0 48 16 92q18 47 59 80q47 37 98 65.5t102 57.5q27 14 70 30.5t88 23.5q18 2 36 2q26 0 50 -6q41 -9 64 -42q31 -47 37 -101q3 -26 3 -53q0 -29 -3 -58q-7 -58 -18 -113.5t-17 -106.5q-4 -37 -8.5 -77t-4.5 -80.5t8.5 -79.5t26.5 -72q29 -49 77 -75.5 t101 -26.5q37 61 43.5 140t6.5 144q0 51 -1 101q-1 11 -1 22q0 38 4 76q2 35 2 70q0 48 -3 95q-3 42 -3 85q0 39 2 78q0 6 14 15t34.5 19.5t42 20.5t38.5 20q19 -147 19 -290q0 -28 -1 -56q-4 -170 -14 -348q41 72 71.5 146.5t48.5 160.5q2 6 21.5 12.5t19.5 12.5v-12 q0 -47 -13 -93q-15 -51 -39.5 -100t-54.5 -97t-56 -91v-107.5t-2 -107.5q0 -43 -1 -99.5t-10.5 -113t-29 -106.5t-58.5 -81q-41 -33 -85 -58.5t-91 -51.5q-23 -12 -51.5 -24.5t-60 -17.5t-61.5 -1t-50 26q-33 35 -33 75v9q4 45 27.5 89t59.5 84t65 69q41 41 86 75.5t86 75.5 q18 18 33.5 38t29.5 40v33v4q-23 -12 -45 -23.5t-47 -19.5h-2h2q-41 -14 -83 -17q-10 -1 -19 -1q-32 0 -60 8q-37 10 -66.5 35.5t-45.5 72.5q-27 74 -27 151q0 13 1 26q5 90 19 178q4 27 12.5 66.5t13.5 83.5t5 89t-10 82t-35.5 62.5t-71.5 29.5q-15 1 -29 1q-49 0 -93 -11 q-56 -14 -91 -72q-10 -23 -21 -43t-15 -43q-5 -23 -5 -49.5t5 -55.5q10 -58 35.5 -105.5t68.5 -72.5q26 -16 57 -16q20 0 43 7q45 45 58.5 101t19.5 120q0 2 5 3t5 3q4 -29 4 -58q0 -35 -6 -69q-10 -61 -51 -86q-27 -18 -64.5 -34.5t-78.5 -22.5q-17 -3 -33 -3q-23 0 -46 5 q-38 10 -65 45q-29 37 -46 86t-18 100zM561 164q14 -66 64 -94q33 -18 73 -18q21 0 43 5q25 4 40.5 18.5t26.5 34t17 43t11 48.5q18 86 22 171t4 171q-25 -29 -53.5 -57.5t-60.5 -57.5q-23 -18 -58 -49t-66.5 -67t-51.5 -74q-13 -28 -13 -53q0 -11 2 -21z" />
<glyph unicode="Z" horiz-adv-x="1191" d="M41 6q57 123 136 230.5t157 218.5q37 53 71.5 105t69.5 106q-45 16 -87 24q-9 2 -19 2q-32 0 -62 -22q-4 -4 -8 -5t-8 -6q23 29 65.5 50.5t77.5 27.5q35 4 67 5q11 0 21 -1q33 53 64.5 106.5t64.5 106.5q70 119 149 236t189 203q-49 -23 -100 -39q-41 -12 -85 -12 q-12 0 -24 1q-72 4 -138.5 16.5t-133.5 26.5q-56 12 -114 24q-32 7 -63 7q-25 0 -50 -4q-41 -45 -57 -103q-4 -15 -3 -30q0 -42 31 -82q43 -54 102 -54q26 0 56 11q43 31 69 76q2 2 5 2t5 4q-20 -39 -55 -67.5t-76 -43.5q-35 -11 -74 -11q-17 0 -34 2q-57 7 -88 61 q-22 41 -22 85q0 13 2 25q8 58 61 94q35 25 73.5 48.5t81.5 39.5q42 17 88 24q21 3 44 3q25 0 51 -4q66 -12 133 -28.5t135 -25.5t135.5 -9t132.5 22q18 8 35.5 18.5t38.5 14.5q-12 -4 -21 -12q-72 -37 -123 -111t-98 -141q-55 -80 -104 -164t-100 -168q-25 -41 -50.5 -80 t-52.5 -80q6 0 19 -4q25 -4 51 -10t53 -4q4 4 8 16q2 0 11.5 6t11.5 6q6 -6 18 -14q-12 -12 -37.5 -28.5t-54.5 -30t-58.5 -22.5t-52.5 -7q-8 2 -14 3t-14 3q-61 -90 -124 -176t-122 -178q-25 -41 -49.5 -81t-44.5 -85q-6 -12 6 -12t29.5 6t33 14t17.5 8q75 29 153 43 q43 7 86 7q35 0 70 -5q41 -6 89 -20t99 -30q52 -16 102 -26q42 -9 82 -9q8 0 15 1q31 44 45 100q9 35 9 68q0 18 -3 36q-8 48 -40.5 82t-98.5 36q8 -2 16.5 6t16.5 12q34 9 65 9q21 0 41 -4q49 -11 78 -72q18 -43 24 -99q1 -11 1 -20q0 -43 -19 -78q-14 -25 -37.5 -46 t-51 -38.5t-55.5 -31t-52 -25.5q-35 -19 -77 -19h-4q-40 0 -82 10q-44 10 -87 23.5t-80 24.5q-103 27 -200 27q-42 -1 -82 -5q-134 -16 -269 -90h-2z" />
<glyph unicode="[" horiz-adv-x="477" d="M20 12v286.5t3 289.5q4 262 11 519t23 519q0 4 21.5 17.5t47.5 29t48.5 26.5t28.5 11l94 -12t80 -41q-2 2 -19.5 -10.5t-21.5 -14.5q-35 -6 -69 -10t-68 -4q-27 -492 -31 -985q0 -16 -2 -62.5t-4 -105.5t-4 -124t0 -119t7 -91t15 -39q61 -16 138 -23.5t139 17.5 q-37 -16 -71 -41t-71 -41q-12 -4 -59 -9t-99.5 -5t-94.5 4t-42 18z" />
<glyph unicode="\" horiz-adv-x="647" d="M23.5 1563.5q-5.5 21.5 1.5 31.5q0 -2 19 -12t44 -23.5t47.5 -25.5t26.5 -18q2 -4 6 -9q8 -12 12 -32.5t8 -34.5q18 -57 37 -113.5t39 -114.5q37 -117 76 -230.5t74 -229.5q25 -86 45 -170t45 -170q18 -59 36.5 -121t39.5 -121q10 -29 17 -72t30 -65q-16 10 -34 19 t-34 20q-16 10 -17 11t7 -3h-2q-18 16 -34.5 37.5t-29.5 42.5q-35 55 -55 118.5t-41 124.5q-29 98 -55.5 195.5t-50.5 196.5q-27 104 -63 205.5t-71 205.5q-18 59 -37.5 116.5t-39.5 117.5q-4 10 -13.5 31.5t-18.5 46t-14.5 46zM596 55q4 -4 8 -5t6 -3q2 0 -14 8z" />
<glyph unicode="]" horiz-adv-x="477" d="M20 86q61 -25 138.5 -17.5t138.5 23.5q10 2 15 39t7.5 91t0 119t-4.5 124t-4 105t-2 63q-4 494 -30 985q-35 0 -69 4t-69 10q-4 2 -21.5 14.5t-19.5 10.5q33 35 80 41l94 12q6 0 29 -11t48.5 -26.5t47 -29t21.5 -17.5q16 -262 23.5 -519t11.5 -519q2 -145 2 -288.5 v-287.5q0 -14 -42 -18t-94.5 -4t-99.5 5t-59 9q-37 16 -71 41t-71 41z" />
<glyph unicode="^" horiz-adv-x="550" d="M20 1358q29 70 79.5 122t97.5 109q4 4 20 16.5t36.5 23.5t37 20.5t20.5 7.5q39 -16 63.5 -45t47.5 -62q25 -37 54.5 -70.5t53.5 -72.5q-2 2 -20 -10.5t-39.5 -26.5t-41 -25.5t-21.5 -9.5q-27 25 -47.5 55.5t-41 63.5t-42 62.5t-48.5 52.5q-49 -47 -98 -96.5t-92 -104.5 q-4 -4 -10 -5t-9 -5z" />
<glyph unicode="_" horiz-adv-x="1222" d="M20 117q2 -2 6.5 2t6.5 4q127 49 265 56t280.5 1t283 -13t271.5 13q14 -2 29.5 -4t26.5 -7t13 -14.5t-10 -27.5q-4 -6 -17.5 -12t-21.5 -11q-35 -20 -97.5 -24t-132 -1t-137 8t-110.5 3q-98 -6 -195.5 -5t-195.5 1q-63 0 -135 1t-130 30z" />
<glyph unicode="`" horiz-adv-x="356" d="M20 1714q2 -2 8.5 5t10.5 7q57 -16 113.5 -53t99.5 -78q20 -18 39.5 -36.5t36.5 -40.5q16 -16 5 -24.5t-28 -18.5q-6 -4 -12 -7.5t-12 -5.5q-18 -6 -21.5 -1t-15.5 18q-18 23 -38 42t-38 40q-37 37 -68.5 82t-79.5 71z" />
<glyph unicode="a" horiz-adv-x="929" d="M44 657q-1 14 -1 28q-1 62 11 122q14 74 48.5 136.5t96.5 98.5q20 12 50 32t61.5 36t63.5 24.5t58 -1.5q68 -27 94 -91q0 8 8.5 16.5t20.5 14.5t24.5 11.5t20.5 9.5q4 -127 4 -252t19 -260q4 -33 16 -70t31.5 -67.5t46 -52t61.5 -23.5q29 41 41 88t29 102q2 4 13 8t11 6 q17 -41 17 -82q0 -17 -3 -33q-9 -58 -63 -91q-23 -12 -47 -28.5t-50 -30t-54.5 -19.5t-55.5 2q-59 16 -91.5 56t-47.5 93q-14 -14 -29.5 -25.5t-31.5 -21.5q-18 -10 -45 -28.5t-56.5 -35t-58.5 -25.5t-53 1q-31 12 -54.5 36t-41 52.5t-28.5 61t-18 63.5q-14 63 -17 139z M188 764q2 -53 7 -98q6 -35 18 -81t31.5 -89t49.5 -75t68 -34q51 51 77 118.5t38 141.5t19.5 146.5t25.5 138.5q-16 35 -37.5 66.5t-56.5 48.5q-35 16 -76 20q-14 1 -27 1l-55 -5q-31 -39 -48 -89q-16 -50 -26 -104q-8 -46 -9 -92q1 -7 1 -14z" />
<glyph unicode="b" horiz-adv-x="718" d="M43 735v475q0 98 4 205t39 203q16 41 35.5 66.5t46.5 46.5q27 14 59.5 36.5t64.5 32.5t58.5 1t40.5 -58q10 -37 9 -76q0 -17 -1 -35q-6 -58 -24.5 -114t-46 -109t-54.5 -98q-18 -29 -41.5 -55.5t-46.5 -53.5q2 -43 3 -86t1 -86q0 -23 -3 -78t-3 -125.5t5.5 -147.5 t18.5 -142.5t38.5 -110.5t68.5 -53q51 76 72 175t27 183q4 41 5 86v13q0 38 -5 75q-15 -2 -29 -2q-57 0 -100 33q-18 14 -33.5 33.5t-24 41t-4.5 42t25 37.5q10 6 26.5 18t35 21.5t39 15.5t38.5 0q66 -16 95.5 -70.5t37.5 -124.5q35 10 60.5 29.5t58.5 44.5q4 4 21.5 11 t17.5 12q0 -12 -17.5 -27.5t-41 -30t-47 -26t-33.5 -17.5q-4 -2 -8.5 -4t-8.5 -4q3 -30 2 -60q0 -40 -4 -82q-8 -72 -18 -120q-12 -59 -26.5 -127t-49.5 -117q-29 -45 -73 -68.5t-93 -48.5q-38 -17 -67 -17q-14 0 -26 4q-38 12 -61.5 46.5t-36 84.5t-18.5 105.5t-7 107.5 t-1 89zM178 1438q0 -53 2 -106.5t6 -106.5q23 39 36.5 81t23.5 85q6 23 16 74t12 105v18q0 44 -8 82q-10 46 -43 61q-35 -66 -41 -147q-4 -60 -4 -112v-34zM290 1024q11 -32 52 -55q16 -8 31.5 -13.5t32.5 -9.5l-40 82t-71 64q-9 -21 -9 -41q0 -14 4 -27z" />
<glyph unicode="c" horiz-adv-x="702" d="M45 571q-2 25 -2 53q0 35 3 75q5 71 24.5 138.5t53.5 126t87 91.5q33 23 67.5 44t69.5 36q26 10 50 10q10 0 20 -2q33 -6 54.5 -28.5t29.5 -55.5q4 -15 4 -30q0 -19 -6 -40q0 -2 -5.5 -3t-5.5 -3q-4 31 -24.5 50.5t-49 30.5t-63.5 14q-21 2 -40 2q-13 0 -25 -1 q-35 -49 -57.5 -120.5t-28.5 -150.5q-3 -36 -3 -73q0 -43 4 -86q7 -80 29.5 -142.5t60.5 -100.5q36 -36 86 -35h5q29 35 52.5 75.5t47 80.5t52 76t67.5 63q2 2 22.5 17t32.5 17l2 2q-2 0 -2 -2q2 2 5 0h-5q-29 -23 -44 -53.5t-25 -63t-22.5 -65.5t-35.5 -59q-39 -51 -94 -80 t-108 -62q-44 -23 -92 -29q-6 -1 -12 -1q-41 0 -77 37q-47 47 -71.5 114.5t-30.5 132.5z" />
<glyph unicode="d" horiz-adv-x="966" d="M41 623q0 63 9 126.5t31.5 122t61.5 106.5t99 83q20 12 42.5 26.5t46 24.5t48 13t51.5 -5q-10 106 -10 213t14 211q4 23 8 53.5t12.5 61.5t21.5 57.5t34 42.5h2l4 4q6 2 21.5 13.5t32 20.5t32.5 15.5t23 -0.5q37 -34 38 -76v-14q0 -35 -4 -75q-3 -42 -3 -86v-21.5v-21.5 q0 -43 -3 -86q-6 -121 -12 -239t-6 -241q0 -39 -2 -96q-1 -28 -1 -58t1 -62q2 -64 9 -128.5t25.5 -116t51.5 -84t84 -32.5q35 35 58.5 77t31.5 91q0 4 15.5 8t15.5 8q2 -8 2 -17q0 -22 -12 -48q-16 -36 -44 -73.5t-67 -69.5t-80 -47q-31 -11 -60 -11q-10 0 -20 1 q-39 5 -70 42q-20 23 -34.5 48.5t-24.5 53.5q-29 -25 -64.5 -43t-70.5 -39q-52 -31 -100 -31q-15 1 -29 3q-62 12 -108 55t-73.5 107.5t-27.5 132.5zM185 779q-1 -21 -1 -42q0 -27 2 -51q2 -47 20.5 -96t49.5 -90t73 -67.5t91 -26.5q25 33 41 69.5t26 77.5q-8 115 -21 230.5 t-28 244.5q-37 23 -79 32q-25 5 -50 5q-17 0 -33 -2q-31 -37 -49 -84t-28.5 -98.5t-13.5 -101.5zM519 1606q1 -72 9 -131q2 -10 3 -21.5t4 -23.5q4 33 6 63.5t4 62.5q0 8 3 31t5 50.5t1 55t-9 46.5q-26 -59 -26 -128v-5z" />
<glyph unicode="e" horiz-adv-x="665" d="M41 592v24q0 52 7 104q9 64 24 116q23 82 67.5 137t100.5 108q23 23 58.5 41.5t69.5 21.5h10q29 0 53 -14q28 -18 36 -67q3 -19 3 -38q0 -41 -14 -81q-22 -58 -63 -105.5t-97 -79.5t-118 -42v-33.5t2 -34.5q2 -57 24.5 -115.5t58.5 -99.5q36 -40 81 -56q16 -6 33 -6 q30 0 61 17q37 20 60.5 56t39 77t30 86t32.5 84l12 8q6 4 13 7q-2 -96 -29 -165t-69 -115t-94 -73.5t-105 -40.5q-44 -11 -80 -11q-30 0 -56 8q-54 18 -87 59t-47.5 100t-16.5 123zM178 735q27 4 51.5 9.5t49.5 15.5q41 41 61 97q13 37 13 76q0 19 -3 38q-6 35 -21 68.5 t-46 43.5q-57 -72 -79 -164t-26 -184z" />
<glyph unicode="f" horiz-adv-x="686" d="M41 1192q4 -2 15.5 8t17.5 10q39 2 76.5 6.5t76.5 10.5v40q0 125 11 247q12 141 59 280q16 41 36.5 66.5t49.5 48.5q23 23 57.5 39t68.5 17h3q32 0 58 -17q26 -19 30 -68q2 -21 2 -42q0 -32 -4 -64q-6 -54 -21.5 -106t-37 -102t-47.5 -96q-23 -41 -53.5 -75.5 t-63.5 -69.5v-63q20 4 61 13t84 14q18 2 35 2q23 0 44 -4q36 -7 46 -38l-12 -8t-28.5 -17.5t-31 -17.5t-16.5 -8q-31 -4 -61 -4q-15 0 -30 1q-44 3 -89 5q0 -25 1 -48.5t1 -47.5q3 -102 3 -218v-58q-1 -150 -5 -305.5t-11.5 -305t-13.5 -276.5q-2 -41 -3 -87.5t-10 -89.5 t-30.5 -79.5t-66.5 -59.5q-14 -8 -34 -21.5t-40.5 -22.5t-41 -10t-36.5 17q-35 37 -43 80q-4 22 -4 43t4 43q8 43 24.5 87t32.5 85q33 90 58.5 186.5t60.5 188.5q4 80 7 161t6 161v123.5t-2.5 151.5t-3.5 152.5t-3 125.5q-47 -14 -90 -14h-3q-44 1 -93 30zM130 -239.5 q-3 -28.5 9 -55.5q25 -59 66 -74q18 6 20 43q1 12 1 26q0 28 -3 64q-4 52 -9 107q-3 31 -3 57q0 22 2 41q-6 -12 -11.5 -24.5t-11.5 -22.5q-12 -23 -25 -50.5t-22.5 -55t-12.5 -56zM374 1472v-45q0 -45 1 -90v2q41 51 69.5 114t44.5 126q6 29 13 83q6 39 6 77q0 15 -1 31 q-3 53 -20.5 95t-60.5 48q-18 -31 -27.5 -71t-12.5 -81t-4 -80.5t-3 -72.5q-4 -68 -5 -136z" />
<glyph unicode="g" horiz-adv-x="759" d="M43 656v20q0 67 11 133q14 76 48.5 140.5t98.5 101.5q16 10 37.5 25.5t45 30.5t47 24.5t44.5 7.5q43 -4 73.5 -32t51.5 -69q2 12 2 24.5v24.5q2 6 11 12.5t21.5 12.5t24.5 10t19 8q10 -39 10 -76.5v-76.5q8 -150 16 -297.5t8 -294.5q27 33 54 76q2 4 11 8t18.5 7t16.5 7 t7 9q-4 -53 -34 -95.5t-73 -81.5q0 -88 -6 -176q-2 -39 -3 -82t-6 -86t-15.5 -83t-30.5 -74q-29 -45 -72 -74t-94 -57q-23 -10 -49.5 -20.5t-53 -11.5t-50 11t-39.5 45q-29 63 -31 132v9q0 64 26 123q37 78 97.5 129.5t130.5 100.5l55 43q4 47 5 93t3 93q-25 -12 -49 -30.5 t-49 -36t-51.5 -32t-57.5 -16.5q-10 -1 -19 -1q-35 0 -63 12q-36 16 -63 44.5t-44 66.5t-26 79q-12 63 -14 140zM186 739q2 -45 12.5 -104.5t34 -113.5t60.5 -91q35 -35 85 -35h5q37 43 61.5 95.5t40.5 105.5q4 86 5.5 169t5.5 169q-39 57 -98 97q-57 38 -120 38h-6 q-51 -68 -70 -158q-17 -75 -17 -144q0 -14 1 -28zM263 -36q-5 -31 -5 -60.5t5 -57.5q11 -55 45 -93q32 -36 85 -36h6q31 47 46.5 110.5t19.5 131.5t4 132.5v117.5q-47 -33 -89 -66.5t-71 -70.5q-35 -45 -46 -108z" />
<glyph unicode="h" horiz-adv-x="878" d="M42 517v33q0 66 3 132q4 119 11 236.5t12 236.5q4 70 7 148.5t16 154.5t43 142.5t87 113.5q12 8 27.5 18.5t31 19.5t27.5 16.5t17 9.5q27 10 50 6t36 -47q15 -46 15 -95q0 -33 -7 -66q-17 -83 -47 -159q-31 -72 -71 -135t-95 -115q0 -39 -3 -75.5t-5 -77.5q27 39 63 69 q37 33 78 55t81 32q20 5 39 5q20 -1 38 -5q36 -10 67 -42q33 -37 51.5 -80.5t25.5 -91.5q6 -42 6 -87v-12q-1 -50 -5 -97q-4 -32 -6 -92v-26q0 -46 5 -94q7 -60 30.5 -105.5t72.5 -47.5q16 20 31 43.5t31 46.5q4 6 18.5 11.5t14.5 9.5q-4 -37 -20.5 -66.5t-20.5 -33.5 q-20 -14 -44 -27.5t-55 -30.5q-44 -26 -79 -26q-10 0 -19 2q-41 10 -66 42q-26 34 -38 82q-10 41 -9 82v15q2 47 6.5 94t6.5 95q1 19 1 38q0 28 -2 56q-3 46 -18 94q-10 33 -26.5 65.5t-40.5 56.5t-54 38q-21 9 -44 10q-10 0 -21 -2q-57 -51 -102 -129q-4 -72 -7.5 -142.5 t-3.5 -142.5q1 -24 1 -48q0 -36 -2 -74v-18q0 -53 14 -104q2 -4 -18.5 -15t-46.5 -23.5t-46.5 -23t-17.5 -14.5q-23 78 -24 161zM207 1182q45 53 75 121.5t40 134.5q2 18 3 55v11q-1 32 -5 67q-6 41 -16.5 78t-31.5 55q-23 -51 -31 -109.5t-14 -109.5q-8 -76 -12 -152 t-8 -151z" />
<glyph unicode="i" horiz-adv-x="479" d="M43 602q2 55 2 100q2 55 6 110.5t10 109.5q2 12 5.5 48t9.5 73.5t14 66.5t21 29q31 8 49 -20.5t26 -80.5q9 -50 10 -114v-42q0 -42 -1 -82q-1 -60 -5 -106q-2 -30 -3 -48q0 -10 1 -17q4 -37 14.5 -80t29 -80t46.5 -61q24 -20 58 -20q6 0 12 1q47 51 74 125q0 2 7 4t7 4 q1 -12 1 -22q1 -43 -19 -69q-24 -32 -70 -58q-20 -12 -44.5 -26.5t-50.5 -25t-52.5 -12.5t-50.5 13q-47 25 -70 70.5t-31 99.5q-6 44 -6 88v22zM49 1349.5q6 20.5 10 32.5q4 16 4 35t9 35q2 4 11 8t13 6q4 4 12.5 9.5t12.5 5.5q18 0 30.5 -11.5t20.5 -27.5q4 -10 5 -16.5 t1 -16.5q0 -4 -17.5 -21.5t-40 -34t-42 -28.5t-25.5 -6q-10 10 -4 30.5z" />
<glyph unicode="j" horiz-adv-x="696" d="M43 -205q-2 18 -2 35q0 85 42 158q50 86 122 157q39 41 80 72t86 59q0 121 1 241v20q0 111 -10 229q-4 43 -8 91q-3 38 -3 77v19q1 48 9.5 93.5t30.5 86.5q0 2 9.5 7t19.5 11q12 8 26 14q12 -18 21.5 -45.5t14.5 -57.5t8.5 -58.5t5.5 -51.5q6 -57 10 -113.5t6 -113.5 q3 -59 3 -117q0 -29 -1 -58q-2 -87 -2 -175q39 35 68.5 78t58.5 92q2 4 9 5t7 3q-2 -29 -4 -49.5t-8 -39t-20.5 -34.5t-38.5 -37q-16 -12 -35 -22.5t-37 -20.5v-76.5t2 -76.5q2 -45 6 -103q2 -34 2 -68q0 -25 -1 -50q-3 -60 -19.5 -113t-55.5 -86t-84 -57.5t-90 -49.5 q-35 -19 -72 -19h-4q-38 1 -71 19.5t-55.5 50t-26.5 74.5zM152 -111q6 -78 57 -119q47 -38 109 -38h12q31 53 39 118q6 53 6 102v25q-2 72 -3 140.5t-1 140.5q-10 -10 -21.5 -20.5t-23.5 -22.5q-31 -31 -63 -67.5t-58.5 -77.5t-41.5 -86q-12 -36 -12 -75q0 -10 1 -20z M364.5 1363.5q-2.5 18.5 0.5 35.5q4 25 12 46t4 46q0 10 9 10t19.5 -3t20.5 -8t14 -5q8 -4 18.5 -8.5t16.5 -12.5q18 -27 18 -45q0 -10 -5 -17q-15 -22 -42.5 -34t-55 -20.5t-27.5 -20.5q0 18 -2.5 36.5z" />
<glyph unicode="k" horiz-adv-x="866" d="M42 1312v25q0 61 4 121q5 72 24 141q10 41 32.5 84t69.5 66q14 8 37.5 24.5t49.5 30t51.5 19.5t43.5 -6q34 -21 44 -57q7 -26 7 -52q1 -12 -1 -24q-4 -40 -15.5 -80.5t-19.5 -69.5q-25 -102 -66 -187t-108 -157q2 -41 3 -79t1 -79q31 27 67.5 53.5t71.5 45t64.5 28.5 t48.5 4q39 -13 47 -41q4 -13 4 -27q0 -17 -6 -36q-10 -35 -30 -69t-38 -52q-86 -86 -184 -160q4 4 8 5t8 3q29 14 70 36t86 37t88 21q12 1 22 1q30 0 56 -11q35 -16 46 -61t12 -103v-23q0 -47 -3 -95q-2 -27 -2 -53q0 -31 3 -59q6 -50 26 -80q17 -25 55 -26q8 0 16 1 q18 18 33 39.5t31 48.5q2 2 13 6t11 6q2 -31 -9 -51.5t-31.5 -36.5t-45 -28.5t-47.5 -24.5q-37 -20 -67 -20q-5 0 -11 1q-34 4 -59 25.5t-38 59.5t-13 85q0 31 5 71t5 80t-7 76.5t-32 61.5q-23 25 -59 31q-18 3 -36 3t-38 -3q-39 -6 -76 -21.5t-61 -34.5q1 -47 1 -94t-1 -94 q0 -29 -3 -72v-13q0 -34 13 -56l-19 -12q-20 -11 -42.5 -25t-41 -25.5t-20.5 -9.5q-14 20 -20.5 51t-7.5 66v34.5v32.5q1 32 1 56q-3 89 -3 176v44v31q0 94 -5 189q-4 70 -8 142t-5 146zM188 1384v-14q0 -70 5 -141q37 70 55 148.5t22 154.5v49t-4 58.5t-14 55t-29 38.5 q-18 -47 -23 -99.5t-7 -95.5q-5 -78 -5 -154zM199 1004q1 -39 1 -78v-39v-23q0 -47 3 -94q61 51 109 110.5t50 131.5q1 7 1 13q-1 43 -25 65q-9 8 -20 8q-22 0 -52 -31q-16 -16 -33.5 -31.5t-33.5 -31.5z" />
<glyph unicode="l" horiz-adv-x="495" d="M42 652q1 54 1 98q4 131 15.5 262t13.5 262q2 47 3 100t7 105.5t20.5 101.5t42.5 90q35 39 77 63.5t93 53.5q37 20 59.5 11t33 -34.5t12.5 -62.5q1 -15 0 -29q0 -22 -1 -44q-3 -36 -9.5 -67.5t-10.5 -43.5q-29 -98 -82 -182.5t-122 -155.5q-2 -47 -4.5 -91.5t-4.5 -89.5 q-2 -29 -5 -87t-4 -128v-21q0 -61 5 -124q6 -74 23.5 -133.5t49.5 -95.5q27 -30 70 -30q7 0 15 1q29 33 51.5 70.5t42.5 74.5q2 4 11.5 6.5t9.5 6.5q-8 -59 -28.5 -91t-59.5 -61q-18 -12 -55.5 -31.5t-77.5 -31.5q-31 -9 -61 -9q-8 0 -16 1q-38 3 -59 34q-25 39 -37 89 q-12 51 -16 105q-3 44 -3 87v21zM199 1247q20 43 34.5 90.5t28.5 100.5q6 20 13.5 57t9.5 77v17q1 31 -5 59q-8 36 -28 54q-29 -59 -36 -128t-9 -130q-2 -49 -4 -98.5t-4 -98.5z" />
<glyph unicode="m" horiz-adv-x="1052" d="M41 494q2 98 10 196t18.5 197.5t14.5 197.5l12 9q6 4 13 6q33 -33 47 -68q18 18 64 50t98 52q50 20 95 20h4q46 -1 66 -46q8 -16 11 -27q39 35 91 61q52 28 101 38q22 5 43 4q24 0 45 -6q39 -12 53 -54q16 -47 16 -97q-1 -7 -1 -15q-2 -58 -4 -115l-7 -252q0 -27 2.5 -74 t12.5 -94t30.5 -83t57.5 -38q35 35 59 90q2 2 9.5 4.5t7.5 6.5q2 -29 -12.5 -53.5t-36 -45t-47 -36t-48.5 -23.5q-36 -18 -64 -18q-16 -1 -28 5q-35 16 -54.5 57.5t-26.5 95t-7 96.5q2 70 4 138t2 140q0 47 8 103q2 17 2 33q0 37 -12 69q-14 44 -51 76q-26 23 -59 22 q-14 0 -29 -4q-16 -4 -28.5 -16.5t-22.5 -28.5q12 -52 12 -107q0 -18 -1 -36q-5 -74 -9 -142q-6 -56 -6 -111q0 -45 4 -89q5 -66 5 -132q0 -33 -1 -67q0 -10 -22.5 -21.5t-49 -21.5t-48.5 -20.5t-22 -20.5q-5 112 -5 221v36q1 126 5 255q1 16 1 36.5t-1 45.5q-2 51 -14 98 t-38 78q-18 22 -45 22q-12 0 -25 -4q-45 -39 -72 -79q23 -59 24 -128v-23q0 -57 -4 -112q-2 -53 -2 -105q0 -39 1 -79q3 -92 8 -184q0 -10 -22.5 -20.5t-49.5 -21.5t-49.5 -21.5t-20.5 -18.5q-12 88 -12 174v25z" />
<glyph unicode="n" horiz-adv-x="745" d="M41 299q0 199 1 397.5t1 399.5q12 6 24.5 13t22.5 13q16 -2 28.5 -17t22.5 -38q23 14 44.5 31.5t47.5 27.5q39 20 79 30q22 5 41 5q17 0 32 -4q33 -8 56.5 -35.5t33.5 -81.5q17 -90 17 -180v-16q0 -82 -5 -166q-1 -23 -1 -53v-32q1 -50 12.5 -98.5t38 -83t75.5 -36.5 q23 27 39.5 56.5t28.5 64.5q2 4 12 6t10 6q2 -13 2 -25q0 -23 -7 -39q-11 -26 -32.5 -46.5t-49 -36t-54.5 -29.5q-50 -28 -88 -28q-10 0 -18 2q-43 9 -69 45q-26 35 -36 89q-8 45 -8 87v16q0 23 2 76t2 117.5t-6 132t-22 121.5q-14 54 -42 86q-22 26 -56 26q-8 0 -17 -2 q-16 -16 -28.5 -32.5t-22.5 -33.5q2 -8 3 -14t1 -12q16 -154 21 -317q1 -48 1 -95q0 -113 -8 -223q0 -10 -20.5 -19.5t-45 -18.5t-44 -18.5t-19.5 -17.5z" />
<glyph unicode="o" d="M41 662q-1 11 -1 22q0 72 23 139q29 88 73 148.5t108 126.5q4 2 13 6t9 6q2 -20 -16.5 -39.5t-26.5 -40.5q-12 -33 -19 -65.5t-11 -67.5q-11 -68 -11 -137q0 -59 8 -121q6 -45 18.5 -93t34 -89t55.5 -67q32 -24 74 -23h7q53 72 67 164q8 53 7 104q0 38 -4 76 q-2 16 -7.5 67t-17.5 109q-47 4 -74 39q-25 32 -25 59q1 3 1 5q2 30 2 69q0 4 12 11t26.5 14.5t29 14.5t18.5 9q37 16 60.5 8t38.5 -31.5t23.5 -54.5t14.5 -61q20 -1 38 -1q44 0 75 7l30 24q4 4 15.5 8.5t15.5 8.5q-6 -14 -26.5 -29.5t-45 -29t-48 -23.5t-36.5 -16 q-8 -4 -8 -5q11 -71 21 -141q6 -43 6 -86q0 -27 -2 -55q-12 -121 -87 -198t-175 -118q-46 -20 -85 -20q-49 -1 -88 31q-69 56 -92 174q-14 78 -18 162z" />
<glyph unicode="p" horiz-adv-x="735" d="M43 -338q4 86 25.5 176t50.5 178q-2 55 -2 110.5v111.5q2 219 4 435t12 433l7 5t15.5 9t15.5 8.5t9 4.5q35 -4 52.5 -33t27.5 -70q47 43 103.5 68.5t107.5 27.5q84 0 130 -43t66.5 -107.5t22.5 -139.5q1 -37 1 -71.5t-1 -66.5q-4 -63 -15 -132.5t-50 -123.5 q-23 -33 -67 -66.5t-95 -57t-105 -32.5q-17 -4 -34 -4q-33 0 -62 13q0 -86 2 -170t6 -170q2 -31 6 -69q1 -19 1 -38t-1 -38q-4 -37 -13 -72t-32 -62q-8 -10 -23 -22t-33.5 -24.5t-36 -21.5t-32.5 -11q-29 -6 -47 6t-16 59zM107.5 -276.5q-3.5 -28.5 1 -52t18.5 -33.5 q10 34 10 75q0 10 -1 21q-3 53 -7 94q-6 -20 -12 -48t-9.5 -56.5zM264 530q20 -33 42 -64.5t46.5 -56t54 -39t66.5 -14.5q33 51 52.5 127t24.5 159q2 28 2 55q0 55 -7 108q-10 80 -38 140.5t-74 90.5q-32 21 -72 21q-19 0 -39 -4q-16 -14 -29.5 -28.5t-26.5 -31.5 q4 -47 4 -92t-2 -74q-2 -76 -3 -149.5t-1 -147.5z" />
<glyph unicode="q" horiz-adv-x="790" d="M43 621q6 86 27.5 171t70.5 156q16 27 59.5 65t95.5 65.5t104 33.5q7 1 13 1q42 0 70 -32q8 -10 15.5 -18t13.5 -19q6 37 18 70q2 2 16.5 10.5t16.5 8.5q39 -35 55.5 -85.5t19.5 -105.5q1 -24 1 -48q0 -32 -2 -64q-4 -58 -4 -105q0 -117 -4 -231.5t-11 -231.5 q-4 -51 -8 -113.5t-14 -129t-28.5 -130t-49.5 -114.5q35 9 67 9q34 0 65 -10q63 -18 100 -100q0 2 -16.5 -9t-18.5 -11q-61 25 -114.5 49.5t-113.5 28.5q-6 -6 -25.5 -21.5t-42 -32t-44 -30t-31.5 -15.5q-31 -4 -26.5 9.5t22.5 32t40.5 35t31.5 22.5q29 61 42 126.5 t17 133.5q3 55 3 110v28v46q0 45 1 88l6 135q-35 -33 -79 -57.5t-91 -40.5q-43 -16 -78 -16q-28 0 -51 9q-53 23 -86 75.5t-45 120.5q-9 52 -9 100q0 16 1 31zM186 718v-28q0 -40 4 -76q6 -47 22.5 -95t42.5 -84t63 -55q25 -13 57 -13q13 0 28 2q47 45 80 102q2 53 3 105.5 t1 105.5q2 59 2 120.5t5 121.5q-41 47 -95.5 80.5t-113.5 35.5q-31 -43 -52.5 -97t-33 -111.5t-13.5 -113.5z" />
<glyph unicode="r" horiz-adv-x="1062" d="M51 1205q-8 34 3.5 59.5t38 45t63.5 42.5q29 10 57.5 10t60.5 -27q43 -37 80 -96t41 -121q33 -4 54.5 -6t40 1t40 13.5t58.5 28.5q35 16 55.5 11t15.5 -52q-14 -135 -18 -267t-8 -267q0 -43 6 -86t23 -77q16 -33 44 -51q18 -11 43 -12q14 0 31 4q33 29 60.5 64t56.5 70 q4 4 12.5 6t10.5 6q-16 -39 -34 -64.5t-39.5 -45t-49 -37t-62.5 -38.5q-27 -12 -55.5 -22t-58 -12t-56 7t-47.5 36q-29 35 -29 81v89q0 141 7 282q4 61 10 125t8 125q0 53 -22 54h-2q-22 0 -62 -21q-47 -23 -98 -27q-15 -1 -30 -1q-34 1 -68 7q-48 10 -84.5 31t-55.5 47 q-33 51 -41 85zM129 1303q0 -25 23.5 -51.5t57.5 -49t74 -42t74 -32.5q-16 31 -42.5 60t-57.5 53.5t-63.5 41t-65.5 20.5z" />
<glyph unicode="s" horiz-adv-x="735" d="M43 424v7q-1 53 29 99q32 50 80.5 91t105.5 73.5t107 55.5q-41 47 -85 94t-82 92t-67 88t-37 82q-5 24 -5 46q-1 27 7 50q14 43 45 77t74 60.5t86 46.5q36 16 58 16q21 0 31 -14q7 -11 7 -28q0 -26 -18 -64q-23 -53 -57.5 -92t-71.5 -76q10 -10 22.5 -20t24.5 -23 q43 -43 81 -91t77 -95q16 -18 33.5 -38.5t33.5 -41.5q47 18 84 33.5t58 30.5l30 18q-37 -27 -79 -48.5t-87 -41.5q33 -39 61.5 -82t44.5 -88q13 -38 12 -77v-15q-3 -47 -36 -96q-25 -37 -66.5 -72t-91.5 -61q-49 -26 -101 -38q-35 -8 -67 -8q-15 0 -30 2q-29 4 -64.5 14.5 t-68.5 27t-54.5 43t-23.5 63.5zM172 598q-5 -17 -4 -36q0 -23 6 -48q12 -47 41 -74q47 -42 115 -66q50 -18 100 -18q17 0 35 2q37 44 42 92q1 11 1 23q0 37 -12 74q-16 49 -50 98t-75 98q-49 -23 -92 -49q-29 -18 -63 -39.5t-44 -56.5zM186 1237q4 -35 18.5 -56.5 t33.5 -39.5q23 25 41 52.5t30 61.5q9 27 9 46q0 20 -10 32q-13 16 -38 16q-11 0 -24 -3q-25 -23 -44.5 -51.5t-15.5 -57.5z" />
<glyph unicode="t" horiz-adv-x="686" d="M41 1253q4 -2 12 6.5t13 8.5q76 14 153 24v45.5t2 44.5q2 31 2 65t3 68.5t9.5 67.5t20.5 59q25 47 74 82q14 10 30.5 18.5t32.5 18.5q23 12 47.5 8t43 -20t23.5 -48q1 -8 1 -18q0 -26 -10 -57q-16 -47 -37 -92t-45 -88q-14 -20 -28.5 -41t-29.5 -41v-59q22 2 44 2t44 -2 q16 -1 32 -1q32 0 64 3q24 2 48 2t47 -2q6 2 6 6q0 -4 2 -8q0 -4 -15.5 -13.5t-33.5 -19.5t-35.5 -18.5t-23.5 -10.5q-45 -20 -88 -23q-26 -2 -53 -2q-18 0 -38 1q0 -47 2 -73t3.5 -46.5t3.5 -46t2 -72.5v-36q-1 -95 -9 -189q-5 -53 -4 -105q0 -60 6 -119q2 -16 5.5 -40.5 t9.5 -49t17.5 -45t27.5 -28.5q31 -14 63 -14l43 7q27 25 37 51.5t23 65.5q2 6 23.5 13.5t21.5 13.5q1 -7 1 -13q0 -44 -35 -83q-40 -45 -98.5 -72t-120 -27t-95.5 41q-35 37 -48.5 82t-15.5 92q-1 19 -1 38q0 28 2 58q3 50 3 97q0 68 -1 111.5t-2 84.5t-2 85t-1 112v111 q-47 0 -91 5t-87 25zM358 1587q-2 -43 -2 -86t2 -86q14 29 28 55.5t24 55.5q6 23 9 53.5t0 60t-14.5 53t-35.5 29.5q-12 -30 -12 -63z" />
<glyph unicode="u" horiz-adv-x="753" d="M41 750q0 94 2 188t10 186q0 2 14.5 11.5t16.5 7.5q57 -29 80 -89q22 -58 28 -128q4 -41 4 -83q0 -29 -2 -57q-2 -33 -2 -63q0 -32 3 -59q2 -45 7 -103.5t22 -108.5q16 -48 48 -78q23 -21 61 -21q15 0 32 3q10 10 22 27q-27 51 -33 111.5t-8 117.5q0 129 9.5 256 t52.5 250q0 2 7 6t14 8.5t13 7.5l7 3q31 -61 38 -132t7 -142.5t-4 -144.5q-1 -20 0 -40q0 -51 6 -100q2 -25 9 -69t21 -86q14 -41 38 -71q21 -26 52 -26h9q27 29 41 62.5t24 72.5q0 4 10.5 6t10.5 6v-8q0 -61 -27 -99q-29 -40 -86 -65q-25 -12 -50.5 -18t-53.5 4 q-59 20 -91 67q-33 -25 -73.5 -41t-81.5 -22q-20 -3 -39.5 -3t-37.5 3q-36 6 -56 29q-35 37 -44.5 77.5t-13.5 90.5q-4 66 -10 129t-6 127z" />
<glyph unicode="v" horiz-adv-x="911" d="M41 1094q4 0 10 5t10 7q20 4 45 -15.5t49.5 -52t49 -72.5t44 -78t35 -70t21.5 -46q23 -47 41.5 -96t30.5 -98q4 -10 5 -44t5 -73q51 92 90 189.5t68 189.5q10 31 16 69q-10 -2 -18 -2h-19q-39 0 -66.5 18.5t-41 46t-7 58.5t34.5 55q8 4 24.5 16.5t37 25t42 21.5t40.5 9 q33 0 53.5 -16.5t30.5 -41t11 -53t-3 -55.5q-4 -20 -6 -28q53 12 101 32.5t95 46.5l-15 -10t-17 -10q-39 -23 -81 -45.5t-87 -38.5q-16 -66 -39 -130.5t-56 -123.5q-41 -78 -96 -158t-78 -166q0 -4 -17 -15t-37.5 -23.5t-39 -21.5t-24.5 -9q-4 0 -13.5 27.5t-21.5 69.5 t-24.5 91t-25 94t-20.5 79t-10 42q-20 66 -36.5 134.5t-35.5 136.5q-2 8 -6 28.5t-11 43t-16.5 40t-21.5 17.5zM455 1036q-2 -8 -2 -15q0 -24 22 -46q18 -16 42 -23.5t48 -7.5q2 29 0 56.5t-10 50t-23.5 35t-42.5 10.5q-25 -28 -34 -60z" />
<glyph unicode="w" horiz-adv-x="913" d="M41 1083q14 2 29.5 14.5t27.5 18.5q23 12 40 12q19 0 32 -15q23 -28 31 -76q7 -43 7 -89v-12v-33q0 -30 2 -49q0 -16 1.5 -55t4.5 -89.5t9 -106.5t16.5 -107.5t26 -91t35.5 -58.5q20 37 41 86t37 103q-11 33 -17 71q-6 32 -5 63v10q1 36 12.5 64.5t38.5 47.5q4 2 14 9 t21.5 14t21.5 11t16 0q25 -18 33 -43.5t4 -55.5t-15 -60.5t-26 -59.5q6 -10 10 -20q18 -43 37 -85t41 -83q12 -25 22.5 -40.5t22.5 -19.5q14 25 18.5 53.5t8.5 59.5q4 61 10 122.5t10 123.5q1 18 1 49v35q-1 57 -11 117q-30 -5 -56 -5q-7 1 -13 1q-32 2 -56 18 q-39 27 -47 56.5t5.5 57t41.5 50.5q30 24 62 36q30 12 59 12h5q32 -1 50 -22q29 -33 44.5 -71.5t23.5 -79.5q12 4 16 6q10 8 18.5 16.5t16.5 18.5q10 10 28.5 15t24.5 15q-12 -25 -39.5 -46t-62.5 -40q4 -32 4 -66v-23q-2 -46 -6 -87q-4 -39 -4 -84t-2 -90t-9.5 -89 t-21.5 -79q-12 -25 -36.5 -48t-55.5 -43.5t-62.5 -35t-56.5 -20.5q-23 -2 -39 11t-28.5 34.5t-21.5 47.5t-17 48q-8 -23 -28.5 -52.5t-47.5 -55t-57.5 -41t-57.5 -11.5q-47 8 -72.5 46t-38 87.5t-16.5 101.5t-6 89q-2 8 -1 48q0 20 1 44q0 22 -1 50q-1 54 -3 115.5t-7 113 t-14.5 85t-23.5 31.5zM553 1012q10 -36 61 -49q6 -2 13.5 -2t13.5 -3q-10 47 -29.5 82t-52.5 45q-10 -23 -10 -45q0 -14 4 -28z" />
<glyph unicode="x" horiz-adv-x="958" d="M45 999.5q-4 12.5 0 24.5q10 25 34.5 40t53.5 21.5t59.5 2t53.5 -18.5q59 -39 99 -90t75 -119q8 10 15 22.5t18 22.5q35 45 80 78t96 61q4 4 27.5 16.5t35.5 18.5q33 14 59.5 20.5t18.5 -20.5q-2 -4 -15.5 -13t-29.5 -17.5t-30.5 -15.5t-20.5 -9q-31 -4 -56 -6 q-53 -55 -88.5 -124t-64.5 -140q6 -16 11 -29.5t11 -26.5q12 -33 22.5 -70.5t24 -74.5t32 -69.5t42.5 -57.5q20 -20 50 -36.5t63 -26t65 -12.5q9 -1 18 -1q23 0 46 6q19 14 39 37q4 6 14 9.5t15 7.5q-8 -18 -28 -36t-43.5 -31t-48 -24.5t-42.5 -17.5q-66 -22 -120 -22 q-62 0 -110 29q-90 54 -137 190q-4 10 -7 22t-7 25q-31 -72 -90.5 -132.5t-137.5 -90.5q-25 -10 -50 -13.5t-36 25.5q12 6 23.5 12t30.5 8q16 4 31.5 3t31.5 -1q55 78 84 168t66 176q-10 41 -27.5 81t-28.5 81q-18 10 -35.5 19.5t-37.5 15.5q-27 10 -53.5 19.5t-49.5 25.5 q-8 6 -19 14.5t-19.5 19.5t-12.5 23.5zM111 1059q-2 -7 -2 -15q0 -22 17 -45q23 -31 50 -45q10 -8 29.5 -16t42.5 -18q-23 47 -55.5 89t-81.5 50z" />
<glyph unicode="y" horiz-adv-x="737" d="M43 -223q-1 13 -1 26q0 78 22 137q24 70 72 124.5t117 97.5t148 84q4 39 6.5 77.5t4.5 77.5q-27 -23 -60 -43t-64.5 -33.5t-61 -17.5t-52.5 6q-51 25 -74.5 71t-31.5 100q-4 33 -4 68q0 21 2 42q4 57 8 104q6 59 9 117.5t5 118.5q0 8 1 25.5t0 35t-4 32.5t-11 22 q4 -2 11 5t11 7q8 1 15 1q36 0 55 -33q22 -40 29.5 -97.5t7.5 -114.5v-84q0 -39 4 -98.5t17.5 -115.5t41 -96t76.5 -40q33 41 49.5 88t26.5 98q10 129 20 263q4 45 4 90q0 90 -14 180q0 4 25.5 18.5t48.5 24.5q6 4 22 12q20 -35 28.5 -77t9.5 -86v-18q0 -35 -3 -70 q-4 -44 -6 -83q-4 -61 -12.5 -123.5t-17.5 -125t-14 -126.5q-2 -28 -2 -57q0 -34 3 -67q47 41 86 89.5t68 114.5q2 4 16 9.5t14 9.5q1 -9 1 -18q0 -31 -11 -59q-14 -36 -40 -65.5t-60.5 -55t-73.5 -48.5l6 -190q2 -47 3 -101v-16q0 -47 -5 -94q-6 -56 -22.5 -106t-51.5 -87 q-35 -39 -78 -63.5t-90 -46.5q-40 -20 -73 -20q-8 0 -16 1q-40 6 -70.5 33t-49 71t-20.5 95zM111 -152q4 -96 65 -155q51 -50 123 -50q12 0 25 1q47 61 63 135t17 153q1 19 1 39q0 59 -3 118q-3 42 -3 82q0 36 2 71q-55 -29 -108 -66t-95 -86t-67 -110q-21 -50 -21 -108 q0 -12 1 -24z" />
<glyph unicode="z" horiz-adv-x="1089" d="M49 -246q21 66 63 129.5t93 117.5t84 87q70 70 144.5 139.5t152.5 134.5q-31 18 -64 18q-10 0 -20 -2q-43 -7 -90 -20q-29 -6 -57.5 -16t-58.5 -17.5t-60.5 -11.5t-59.5 0q-18 2 -9 23.5t30.5 49.5t46 54.5t35.5 38.5q86 98 162.5 201.5t162.5 202.5q8 10 26.5 29.5 t39 40t39 38t30.5 25.5q-31 -4 -68.5 -12.5t-73.5 -17.5t-66.5 -16t-49.5 -9q-16 -2 -67.5 -8.5t-109.5 -9.5q-22 -1 -42 -1q-34 0 -64 3q-48 5 -59 30q-8 16 -6 31.5t11.5 28t21.5 23.5t27 19q23 12 44 26.5t46 24.5q12 6 41.5 9.5t57.5 -0.5t44 -19.5t2 -48.5 q-6 -18 -20 -33q63 16 129.5 21.5t138.5 15.5q18 2 48 7t60.5 8.5t57 -1t41.5 -18.5q2 -2 0 -2h-2q-16 0 -41 -24.5t-51.5 -60.5t-53 -74t-49.5 -64q-53 -63 -106.5 -126t-106.5 -126q-29 -33 -55.5 -65.5t-48.5 -67.5q-12 -18 -11.5 -27.5t10 -10.5t26 1t32.5 4 q66 10 125 31.5t125 31.5q25 4 43.5 3t34.5 -5q27 18 69.5 48t87.5 54.5t83 37t55 -1.5q-8 6 -46 -16.5t-82 -51.5t-83 -56.5t-50 -29.5q30 -27 30 -74v-9q-3 -54 -24.5 -114.5t-52 -117t-51.5 -88.5q-63 -102 -139 -187.5t-180 -146.5q-16 -10 -60.5 -38t-93.5 -52.5 t-94 -32.5q-9 -2 -17 -2q-32 0 -47 26q-18 32 -18 68q0 24 8 51zM238 1039.5q8 -15.5 30.5 -19.5t50 0t48.5 8q6 16 0 31.5t-31 25.5q-32 8 -63 8q-13 0 -25 -1q-18 -37 -10 -52.5zM242 -176q-2 -16 0 -34.5t8 -33t20.5 -23.5t36.5 -7q8 0 12 2q82 84 148 180.5t113 202.5 q8 18 21 46.5t22.5 59.5t11.5 60.5t-12 52.5q-23 -18 -43.5 -37t-40.5 -39q-43 -41 -92.5 -89t-92.5 -103.5t-74.5 -115t-37.5 -122.5z" />
<glyph unicode="{" horiz-adv-x="749" d="M20 793q0 2 3 2q86 53 133 124.5t57 174.5q10 84 16.5 168t36.5 163q10 25 34 74t57.5 96t73.5 77t83 11q-4 2 -14.5 -8t-14.5 -8q-27 0 -36 -2q-43 -39 -63.5 -99.5t-30 -128t-11.5 -134t-8 -115.5q-6 -68 -25.5 -134.5t-70.5 -115.5q-4 -2 -20.5 -14.5t-33 -27.5 t-26.5 -29.5t2 -22.5q25 -16 49.5 -30.5t50.5 -31.5q76 -43 100.5 -117.5t24.5 -160.5t-10 -174t0 -160q8 -72 44 -112t83 -51t100 6.5t101 64.5q4 4 12 6t12 6q-33 -37 -94.5 -76t-127 -60.5t-125.5 -13t-91 67.5q-33 61 -37 132t1 143.5t9 145.5t-10 140q-10 49 -33.5 81 t-56.5 54.5t-70 43t-74 45.5z" />
<glyph unicode="|" horiz-adv-x="192" d="M20 120.5q0 61.5 2.5 123t2.5 116.5q-2 117 -1 233t1 232q0 119 -1 237t1 234q2 123 6 249t41 243q0 2 8 7t17 9t17.5 8.5t8.5 6.5q25 -49 35 -110.5t12 -126t0 -127t-2 -118.5q0 -117 1 -234.5t1 -236.5q0 -117 1 -232.5t-3 -232.5q-2 -117 -1 -234.5t-30 -232.5 q0 -4 -13 -11t-28.5 -14t-28 -13.5t-12.5 -8.5q-20 51 -27.5 111.5t-7.5 122z" />
<glyph unicode="}" horiz-adv-x="749" d="M20 90q4 -4 12.5 -6t12.5 -6q45 -47 99.5 -64.5t101.5 -6.5t82 51t45 112q6 47 3 103.5t-7 114.5t-5.5 115.5t9 110t37 96.5t77.5 72q27 16 51.5 30.5t49.5 31.5q12 8 2 22.5t-26.5 29.5t-34 27.5t-19.5 14.5q-51 49 -70.5 115.5t-25.5 134.5q-6 49 -8.5 115.5t-11.5 134 t-29.5 128t-63.5 99.5q-10 2 -37 2q-4 -2 -14 8.5t-14 7.5q43 18 82.5 -11.5t73.5 -76.5t57.5 -96t33.5 -74q31 -80 37 -163.5t17 -167.5q10 -102 57 -174t133 -125l2 -2q-37 -25 -74 -45.5t-69.5 -43t-56 -54.5t-33.5 -81q-14 -68 -10.5 -140.5t9 -145t1.5 -143t-37 -132.5 q-31 -59 -91.5 -67.5t-127 13t-127 60.5t-93.5 76z" />
<glyph unicode="~" horiz-adv-x="1101" d="M23 729q-12 59 34.5 111.5t115.5 86.5t142.5 45t116.5 -11q47 -25 88 -61t82 -70.5t87 -62.5t102 -34q16 -4 33.5 -4h33.5q16 4 19 4q14 14 25 29.5t18 34.5q16 41 16 90q2 35 13.5 62.5t23.5 60.5q2 2 11 7t19.5 10t18.5 9t8 6q4 -16 14.5 -26t19.5 -21.5t14 -24 t1 -32.5q-4 -23 -10 -45.5t-20 -40.5q-25 -35 -53.5 -58.5t-63.5 -45.5q-29 -16 -58.5 -36t-61.5 -35t-65.5 -24.5t-66.5 -5.5q-121 12 -213 92q-35 33 -65.5 71t-71.5 64q-49 31 -95.5 34t-86 -16.5t-69.5 -59t-42 -95.5q0 -2 -7 -4t-7 -4z" />
<glyph unicode="&#xa1;" horiz-adv-x="280" d="M22.5 1517q-4.5 9 20.5 31l15.5 15.5t17.5 15.5q8 8 15 15.5t15 13.5q14 10 34 13t36 7q2 0 15.5 -6t29 -15.5t26.5 -17.5l11 -8q-4 -23 -5 -39t-17 -33q-33 -32 -66 -59q-23 -16 -52.5 -5t-49.5 28q-41 35 -45.5 44zM43 -4q18 14 28.5 45t15.5 64.5t6 67.5t1 56 q2 80 -6 161t-14 161q-8 92 -14.5 190.5t-3.5 195.5t21.5 191.5t59.5 178.5q0 -2 20.5 -10.5t20.5 -12.5q23 -205 25 -407.5t16 -409.5q0 -16 5 -65.5t9.5 -111t5.5 -129t-5.5 -122.5t-21.5 -88t-44 -27q-4 0 -15.5 6.5t-25.5 16.5q-23 12 -42 24.5t-42 24.5z" />
<glyph unicode="&#xa2;" horiz-adv-x="690" d="M23 616q-4 119 43 225.5t151 168.5q18 10 36.5 22t39.5 25q6 127 24 260q0 2 12.5 6t12.5 6q20 -53 31.5 -108.5t17.5 -114.5q39 12 74 12t58.5 -14t30.5 -44t-11 -77q0 -2 -5.5 -3t-5.5 -3q-4 25 -46 39t-89 18q6 -70 6 -140.5v-135.5q0 -84 -7 -166t-7 -164 q43 -10 96 0q10 10 21.5 22.5t23.5 22.5q29 27 70 39t70 41q-51 -51 -115 -102l4 4q-4 -4 -8 -6q-37 -29 -78 -53.5t-84 -39.5q-2 -55 -5 -110.5t-19 -110.5q0 -4 -7.5 -6t-7.5 -4q-10 53 -18 108.5t-17 108.5h-16q-123 0 -197.5 77t-78.5 197zM168 723q4 -86 40 -154.5 t95 -107.5q-27 285 -12 569q-6 -2 -9 -4t-6 -2q-16 -16 -24 -31q-41 -59 -64.5 -128.5t-19.5 -141.5z" />
<glyph unicode="&#xa3;" horiz-adv-x="1085" d="M20 733l9 4q4 2 8 6q61 16 122.5 23.5t121.5 11.5q4 45 7 90t7 93q2 57 6 119.5t14.5 123t33 116.5t63.5 103q43 49 97 83t112 63q35 18 81 20t82 -14q29 -14 48.5 -33.5t33 -41t24.5 -47.5t25 -52l-10 -6q-25 33 -61.5 62.5t-78.5 50t-87 29.5t-88 -1q-8 -2 -17.5 -7 t-15.5 -8l-6 -3l10 10q-10 -10 -20.5 -19.5t-20.5 -21.5q-23 -29 -38 -59.5t-21 -65.5q-20 -92 -20.5 -190.5t-6.5 -192.5q-4 -49 -7 -99.5t-7 -99.5h86q39 0 88 4t100 5.5t98.5 -3t81.5 -22.5q-6 2 -18 -5t-26.5 -17.5t-28 -19.5t-19.5 -11q-92 -16 -185 -16.5t-187 -0.5 q-6 -55 -19 -110q-18 -100 -51 -198.5t-92 -184.5q-2 -4 -9.5 -16.5t-16.5 -25t-17 -22.5t-12 -10q16 0 31.5 -1t31.5 -3q35 -4 70.5 -9t70.5 -14q55 -10 113.5 -24.5t120 -24.5t122 -12t117.5 10q29 35 46.5 75t44.5 79q2 4 17 12t32 18l45 25q12 -16 8 -39.5t-18.5 -47.5 t-33 -44.5t-32.5 -30.5q-29 -23 -60.5 -40t-62.5 -36q-6 -4 -11 -5t-9 -5t-8.5 -5t-8.5 -5l4 4q-66 -33 -132 -42t-144 1q-104 12 -206.5 37t-207.5 37q-16 2 -32.5 3t-32.5 3q-43 -10 -2 23q20 25 37.5 50t31.5 54q29 55 52.5 114.5t37.5 121.5q18 72 29.5 143.5 t19.5 142.5q-39 -2 -81.5 -3t-80.5 3t-63.5 13.5t-28.5 27.5z" />
<glyph unicode="&#xa4;" horiz-adv-x="944" d="M2 1113q0 5 6 14.5t19 29.5q6 6 22.5 14.5t35.5 14.5t35.5 8t22.5 -2l20.5 -20.5l20.5 -20.5q23 -23 42.5 -48.5t41.5 -47.5q12 -12 24.5 -25.5t29.5 -21.5q6 4 12 7t12 7q92 45 188.5 46t167.5 -56q8 12 11 14q20 33 40.5 60.5t49.5 52.5q10 6 29.5 17t38 22.5 t33.5 18.5l14 7q2 -2 -8.5 -18.5t-25 -37t-27.5 -37.5t-15 -24q-18 -29 -40 -58.5t-50 -49.5q-2 -2 -4.5 -3t-4.5 -3q31 -37 50 -92q51 -158 -25 -273q20 -2 32.5 -16t28.5 -35q18 -27 36 -54.5t36 -56.5q16 -31 35 -51q10 -12 6 -25.5t-16.5 -23.5t-27.5 -18.5t-24 -14.5 q-4 -2 -14 -5t-22.5 -5t-23.5 -2t-13 4q-10 10 -18.5 22.5t-18.5 24.5q-18 29 -35.5 56.5t-38.5 54.5q-4 6 -13 16t-20 21q-51 -33 -117.5 -59.5t-131.5 -18.5q-96 12 -162 63q-25 -29 -50.5 -56.5t-60.5 -51.5q-29 -16 -59.5 -28.5t-52.5 -33.5q43 39 77.5 86.5t77.5 83.5 q10 8 18.5 14.5t18.5 12.5q-37 43 -53 94q-25 74 -18.5 158t59.5 145q-25 2 -48.5 21.5t-46 47.5t-43 57.5t-40.5 49.5l-17.5 17.5t-5.5 10.5zM277 868q-7 -49 0.5 -99t27 -97t49.5 -80q6 -6 12.5 -13.5t12.5 -11.5q49 -41 113.5 -56t130.5 -5q37 49 50 109.5t5 121 t-37 115.5t-73 92t-103 50.5t-131 -9.5q-4 -8 -27 -27q-23 -41 -30 -90z" />
<glyph unicode="&#xa5;" horiz-adv-x="1067" d="M24.5 1424q-12.5 46 12.5 75q20 25 44.5 23t48.5 -18.5t47.5 -44t43 -57.5t33.5 -54.5t22 -36.5q49 -78 95.5 -159t89.5 -165q4 -8 20.5 -47t32.5 -80q41 70 77 139.5t75 139.5q53 92 119.5 174t119.5 172q8 14 28.5 23.5t42 17.5t41 16t30.5 25q-53 -86 -118 -160 t-114 -162q-49 -86 -94 -174t-96 -174q-14 -23 -25.5 -41t-24.5 -35q49 0 96.5 -1t85.5 -4t61.5 -10t27.5 -20q0 -2 -15.5 -11t-34 -20.5t-36 -20.5t-21.5 -9q-49 -6 -100 -2l-102 8q4 -29 8 -54.5t8 -53.5q78 4 155.5 6t155.5 4q-16 0 -31.5 -10.5t-33 -23.5t-33.5 -25.5 t-31 -16.5q-41 -10 -83 -17.5t-89 -11.5q8 -127 2 -255t-8 -244q0 -10 -22.5 -21.5t-50 -22t-49 -20.5t-21.5 -20q-4 123 0 246.5t0 246.5q-2 23 -3 44.5t-3 43.5q-66 4 -130.5 14.5t-119.5 32.5q4 0 11 6.5t11 8.5q109 14 226 24q0 25 2 49.5t6 47.5q-6 2 -17 22 q-12 0 -23.5 1t-23.5 3q-10 0 -47 5t-75 11.5t-67.5 14.5t-23.5 14q-2 -2 -4 -2t-4 -2q2 12 26.5 19.5t55.5 10.5t59.5 3h36.5q8 2 22.5 2t32.5 2q-43 92 -93 180t-101 176q-14 25 -46 68t-58.5 92t-39 95z" />
<glyph unicode="&#xa6;" horiz-adv-x="96" d="M2 512q-2 37 0 76t11.5 68.5t31.5 25.5q0 -2 2 -4v-4q0 -2 2 -2q29 -90 34 -175.5t5 -179.5q0 -23 3 -53.5t4 -62t-3 -60t-16 -47.5q2 4 -6.5 17.5t-19.5 30t-21.5 31.5t-10.5 22q-14 66 -14 133v135q0 12 -2 49zM2 1249q-2 37 0 76t11.5 68.5t31.5 25.5q0 -2 2 -4v-4 q0 -2 2 -2q29 -90 34 -175t5 -179q0 -23 3 -53.5t4 -62.5t-3 -60.5t-16 -47.5q2 4 -6.5 17.5t-19.5 30t-21.5 32t-10.5 21.5q-14 66 -14 133.5v134.5q0 12 -2 49z" />
<glyph unicode="&#xa7;" horiz-adv-x="811" d="M1 709.5q-7 66.5 42 146.5q27 35 58.5 60.5t66.5 56.5q-37 31 -66.5 66.5t-46 76.5t-17.5 88t19 103q25 66 65 111.5t99 80.5q18 10 39 24.5t44.5 28t46 22.5t44.5 9q78 0 133.5 -44t85 -109.5t29.5 -139t-31 -133.5q-2 -2 -3 -2t-3 -2t-6 -2q0 27 -15.5 59.5t-36 65.5 t-43 62.5t-40.5 47.5q-31 31 -76 66t-90 43q-53 8 -76.5 -36t-28 -105.5t7 -123t29.5 -87.5q49 -74 120 -120t145 -91q35 -20 81 -53t90 -73t80.5 -85t52 -92t5.5 -93.5t-60 -89.5q-74 -66 -161 -96q-2 0 -4 -2q35 -43 53 -88t6 -92q-10 -39 -48 -76t-89 -65.5t-103.5 -48 t-89.5 -21.5q-80 -6 -141.5 24.5t-100 85t-52 125t2.5 142.5q0 4 14.5 11t30 15.5t27.5 14.5t12 8q27 -61 60 -130t76 -123t102 -82t141 -5q6 20 11.5 39.5t1.5 42.5q-12 55 -48 106q-35 49 -77.5 95.5t-96.5 79.5q-59 37 -120.5 81.5t-102.5 100t-48 122zM151 846.5 q-13 -56.5 3 -107.5q16 -49 47.5 -87t71.5 -68.5t84 -58t85 -56.5q47 -27 96.5 -45t102.5 -14q33 53 15.5 113.5t-59.5 115.5t-98.5 102t-101.5 76q-47 29 -100 61.5t-102 71.5q-31 -47 -44 -103.5zM578 348q2 0 2 2z" />
<glyph unicode="&#xa8;" horiz-adv-x="544" d="M22.5 1572q4.5 9 45.5 44q18 16 48.5 27t53.5 -5q16 -14 32.5 -28.5t33.5 -30.5q16 -16 17 -32.5t5 -39.5l-12 -8q-13 -8 -28 -17t-28.5 -15.5t-15.5 -6.5q-16 4 -34.5 7t-33.5 14q-8 6 -15 13t-17 15l-31 31q-25 23 -20.5 32zM288.5 1572q4.5 9 45.5 44q18 16 48.5 27 t53.5 -5q16 -14 32.5 -28.5t33.5 -30.5q16 -16 17 -32.5t5 -39.5l-12 -8q-12 -8 -27.5 -17t-29 -15.5t-15.5 -6.5q-16 4 -34.5 7t-32.5 14q-8 6 -15.5 13t-17.5 15l-31 31q-25 23 -20.5 32z" />
<glyph unicode="&#xa9;" horiz-adv-x="653" d="M21.5 1478.5q5.5 67.5 40 129t93 110.5t124.5 78h4h-2q57 23 114.5 26t108.5 -20q45 -23 77.5 -61.5t44 -84.5t-2 -93t-60.5 -82q-27 -20 -57.5 -40t-64 -35t-69.5 -21.5t-69 1.5q-41 8 -72.5 36t-46 63t-5.5 71.5t50 65.5q8 4 16.5 9t18.5 11t22.5 12.5t22.5 14.5l-7 -7 l-7 -7q31 12 63.5 20t57 2t35 -28.5t-4.5 -67.5q0 2 -6 -4q-4 -2 -6 -2q-25 41 -66.5 55.5t-88.5 5.5q-23 -37 -17 -84t43 -77q55 -49 123 -43q6 0 18.5 4t23.5 6t15 1t-4 -9q25 20 37 41q43 72 30 133t-60.5 102t-116 56.5t-133.5 -3.5q-41 -37 -73 -92t-42 -112.5 t4 -110.5t68 -90q43 -29 94 -43.5t104 -9.5q23 2 43.5 5t40.5 9l13.5 9t11.5 9q14 12 25.5 24.5t23.5 27.5q4 6 21.5 11t19.5 13q-6 -25 -30.5 -48.5t-55.5 -42.5t-62.5 -33.5t-56.5 -20.5q-41 -12 -88 -16.5t-93 4t-86 31t-65 63.5q-39 61 -33.5 128.5z" />
<glyph unicode="&#xaa;" horiz-adv-x="497" d="M0 1357q-2 40 6 78t26.5 71.5t51.5 58.5l-4 -2q4 2 5 3t5 3t6 4t6 4q10 6 30 19.5t41.5 26.5t43 21.5t33.5 4.5q37 -14 47 -54q4 2 5 3t5 4q10 4 17.5 9t17.5 9q0 -33 2 -67.5t2 -69.5v-4q10 -35 13 -70t12 -70q6 -27 18 -48t31 -31q8 16 14 32.5t15 34.5q2 0 4 2l8 4 q6 2 12 6l7 -14t9.5 -23.5t6.5 -24.5t0 -13q-6 -6 -11 -9h2q-2 0 -6 -4q-6 -4 -12 -7l-14 -7q-23 -14 -56.5 -38.5t-62.5 -27.5q-51 -4 -74.5 16.5t-30.5 55.5q-14 -10 -30.5 -22.5t-35 -22.5t-36 -17t-31.5 -5q-37 4 -56 36.5t-30 65.5q-10 39 -12 79zM146.5 1403 q3.5 -47 16.5 -85t40 -52q16 29 28 63q6 45 17.5 92t17.5 86v13.5t2 13.5q-20 29 -43 39q-27 10 -53 10q-14 -37 -21.5 -85t-4 -95z" />
<glyph unicode="&#xab;" horiz-adv-x="925" d="M21.5 854q1.5 8 15.5 20q16 16 34.5 32t37.5 32q35 29 67.5 55.5t65.5 55.5q74 66 138 136t105 163q2 4 8.5 5t8.5 5q-23 -76 -66 -139.5t-102 -116.5q-35 -29 -68 -58.5t-67 -60.5q-2 -2 -12.5 -11t-22.5 -20.5t-17 -15.5l-14 -14q12 -10 25.5 -22.5t25.5 -25.5 q70 -66 132.5 -139t122 -151t116.5 -156t117 -154q-2 2 -19.5 -8t-38 -24.5t-38 -25.5t-21.5 -7q-76 61 -136.5 136t-116.5 155t-113.5 158.5t-125.5 146.5q-10 12 -21 19t-16.5 14.5t-4 15.5zM255 932q1 8 15 20q16 16 35 31.5t37 32.5q35 29 67.5 55.5t65.5 54.5 q74 66 138.5 136.5t105.5 162.5q2 4 8 5.5t8 5.5q-23 -76 -65.5 -139.5t-102.5 -116.5q-35 -29 -67.5 -58.5t-67.5 -60.5q-2 -2 -12 -11.5t-22.5 -20.5t-17.5 -15l-13 -15q12 -10 25.5 -22t25.5 -25q70 -66 132 -139.5t121.5 -151t117 -155.5t116.5 -154q-2 2 -19.5 -8 t-38 -24.5t-37.5 -25.5t-22 -7q-76 61 -136 136t-116.5 154.5t-113.5 158.5t-125 147q-10 12 -21.5 19t-16.5 14.5t-4 15.5z" />
<glyph unicode="&#xac;" horiz-adv-x="829" d="M-33 903l8 6q123 27 245 32t249 5h66.5h116h110.5t49 -2q0 -76 -1 -148.5t-22 -144.5q-2 -4 -17 -12t-32.5 -17.5t-32 -16.5t-14.5 -9q-16 35 -19 66.5t-3 72.5v129q-96 0 -191.5 1t-191.5 1q-33 0 -78 -3t-90 -3t-86 9.5t-66 33.5z" />
<glyph unicode="&#xad;" horiz-adv-x="630" d="M23 893q2 0 4 2q2 0 3 1t3 1q90 29 175 34t179 5q23 0 53.5 3t62.5 4t60.5 -3t46.5 -16q-4 2 -17 -6.5t-29.5 -19.5t-32 -21.5t-21.5 -10.5q-66 -14 -133.5 -14h-134.5q-12 0 -49 -2t-76 0t-69 11t-25 32z" />
<glyph unicode="&#xae;" horiz-adv-x="716" d="M21.5 1473.5q1.5 76.5 35.5 142.5q27 51 63 83t81 58q2 4 15 13.5t17 7.5q1 0 3 2q78 45 158.5 42t146 -43t108.5 -111t45 -161q2 -41 -10 -66.5t-35 -45.5q2 2 3 2t3 2q-4 -4 -12 -8q-16 -14 -37.5 -25.5t-46.5 -24.5q-47 -23 -84 -2t-69 54q-20 20 -40 36.5t-42 26.5 q4 -74 -9 -137q-2 -8 -14 -14.5t-29 -10.5l-8 -4l-8 -4q72 -35 152.5 -23.5t146.5 66.5q10 10 24.5 14.5t22.5 14.5q-47 -53 -125 -96t-158.5 -55.5t-154.5 14t-113 110.5q-31 66 -29.5 142.5zM122 1545q-3 -44 5 -88t33 -81q29 -49 71 -76q-14 78 -9 161t16 161 q-16 -6 -35 -16.5t-37 -20.5q-4 -4 -6 -4q14 8 34.5 20.5t45.5 26.5q2 10 3 20.5t3 20.5q0 2 7 6t15 8.5t14.5 7.5t6.5 5q4 -16 8 -41q51 20 95 23t65 -36q16 -33 -21 -65.5t-86 -56.5q51 -4 88 -27.5t78 -58.5q18 -14 36.5 -26.5t39.5 -16.5q12 37 7 85t-23.5 94t-45 84 t-53.5 54q-49 29 -104.5 49.5t-112.5 11.5q-10 -2 -20.5 -3t-20.5 -5q-10 -12 -21.5 -23.5t-19.5 -25.5q-23 -37 -38 -80t-18 -87zM301 1636q12 -61 18 -114q10 2 29 12t32 23.5t14 29t-19 27.5q-35 22 -74 22z" />
<glyph unicode="&#xb0;" horiz-adv-x="397" d="M23 1595q8 35 27.5 57.5t47.5 41.5q0 -2 -2 -2q2 2 4 3t4 3q16 8 25 14q6 4 13.5 8t17.5 9q2 0 3 1t3 1q4 4 6 4h-2l2 2q0 -2 -2 -2l-4 -4q27 12 55.5 21t55 8t48 -15t35.5 -49q10 -29 14.5 -60.5t-5.5 -60.5q-14 -33 -37 -49.5t-51 -32.5q-31 -16 -65 -36.5t-73 -14.5 q-78 10 -94 74q-16 14 -23.5 34.5t-2.5 44.5zM94 1599q2 0 2 1.5t2 1.5l2 2q23 -33 66 -63t86 -36q4 10 6 19.5t4 19.5q2 31 -5 61.5t-24.5 54t-42 36t-55.5 8.5q-20 -20 -32.5 -46t-8.5 -56v-3zM279 1505q31 4 30 10t-30 -10z" />
<glyph unicode="&#xb1;" horiz-adv-x="653" d="M20 840q8 0 17.5 8t17.5 12q88 37 172 51q-2 53 7.5 105.5t37.5 105.5q2 2 12.5 8.5t24.5 14.5t35 18q18 -23 24.5 -52.5t7.5 -63t-1 -66.5t0 -59v-4h6q16 0 54 1t80 2t76 -2.5t42 -11.5l-13 -7q-14 -7 -31.5 -17.5t-31.5 -19.5t-18 -11q-39 -14 -77 -19.5t-77 -5.5 q4 -43 9 -85t7 -85q0 -8 -22.5 -19t-49 -23.5t-49 -22.5t-20.5 -17q-16 61 -21.5 128t-9.5 131q-53 4 -104 7t-105 -1zM23 463q2 0 4 2q2 0 3 1t3 1q90 29 175 34t179 5q23 0 53.5 3t62.5 4t60.5 -3t46.5 -16q-4 2 -17 -6.5t-29.5 -19.5t-32 -21.5t-21.5 -10.5 q-66 -14 -133.5 -14h-134.5q-12 0 -49 -2t-76 0t-69 11t-25 32z" />
<glyph unicode="&#xb2;" horiz-adv-x="344" d="M2 928q2 6 12 24q14 20 27.5 41t28.5 43q27 41 52 85t42 91q6 18 14 41t12.5 46.5t3.5 46t-14 40.5q-16 20 -32.5 36t-38.5 24q-16 -35 -25.5 -73t-24.5 -79l-2 -2q-47 25 -49 58.5t21.5 67.5t66.5 61.5t88 39t83 1t55 -51.5q18 -49 9 -99t-32 -99t-52.5 -95.5 t-53.5 -84.5q-4 -4 -10.5 -17.5t-14.5 -29t-16.5 -26.5t-12.5 -13q10 4 22.5 7t22.5 5q29 6 63.5 11t63.5 -5q33 -10 32 -23.5t-17.5 -27t-40 -25.5t-35.5 -20q-12 -6 -22.5 -6t-18.5 5t-18.5 10t-22.5 7q-66 6 -125 -8q-12 -2 -22.5 -6t-15.5 -5t-3 5z" />
<glyph unicode="&#xb3;" horiz-adv-x="432" d="M1 1065q3 55 46 88q2 2 18.5 13.5t36 23.5t38 22.5t24.5 10.5q6 -6 6 -15q0 -2 -12.5 -9t-26.5 -15q-10 -29 -5 -68t15 -61q16 -35 44 -59.5t63 -30.5q33 51 42 113.5t-1 121.5q-10 53 -47 97t-88 55q-16 -10 -33 -17q-8 -4 -22.5 -7t-25 -3t-13.5 2t12 12q4 0 21.5 10.5 t39 22.5t43 24.5t33.5 18.5q18 18 34.5 32.5t20.5 12.5q-55 8 -112 13v-5q0 -2 -8.5 -6t-12.5 -6q-25 -4 -53.5 -5t-24.5 3q45 33 89 50.5t108 19.5h34.5t45 1t41 3t24.5 8q-29 -29 -57.5 -58.5t-63.5 -52.5q0 -2 -2 -2q37 -4 70 -19t51 -48q20 -37 30.5 -83t7.5 -94.5 t-20.5 -92.5t-50.5 -74q-37 -35 -84 -60.5t-90 -50.5q-53 -31 -98 -7t-67.5 70t-19.5 101z" />
<glyph unicode="&#xb4;" horiz-adv-x="356" d="M23.5 1493q-11.5 8 5.5 25q16 23 35.5 41t39.5 36q43 41 99.5 78t113.5 53q4 0 10.5 -7t8.5 -5q-47 -27 -79 -72t-69 -81q-18 -20 -37.5 -40t-37.5 -42q-12 -12 -15.5 -17.5t-21.5 0.5q-6 2 -12.5 5t-12.5 8q-16 10 -27.5 18z" />
<glyph unicode="&#xb5;" horiz-adv-x="761" d="M0 352q0 154 9 304.5t9 304.5q0 6 18.5 17t43 23.5t48.5 24.5t34 18v-20q0 -70 25.5 -155t70.5 -157.5t108.5 -119.5t143.5 -39q27 37 43 84t23.5 97t10.5 100.5t7 93.5q0 10 23.5 21.5t52.5 23.5q16 10 33.5 19.5t33.5 19.5q18 -203 6 -402.5t-16 -402.5 q0 -12 -22.5 -22.5t-49 -20.5t-49 -20.5t-22.5 -20.5q2 117 8 231.5t10 231.5q-35 -27 -74 -47.5t-75 -40.5q-47 -27 -90.5 -31t-82 9t-72.5 42t-63 66q-4 -76 0 -150q0 -74 3.5 -150.5t-13.5 -150.5q-2 -6 -12 -38t-21.5 -66.5t-21.5 -62t-10 -25.5q-8 -4 -15.5 -8.5 t-15.5 -8.5l-12 -8q-2 0 -5.5 28.5t-6.5 73.5t-5 98.5t-5 102.5t-4 85t-1 48z" />
<glyph unicode="&#xb7;" horiz-adv-x="278" d="M22.5 630q4.5 9 45.5 44q18 16 48.5 27t53.5 -5q16 -14 32.5 -28.5t33.5 -30.5q16 -16 17 -32.5t5 -39.5l-12 -8q-13 -8 -28 -17.5t-28.5 -15.5t-15.5 -6q-16 4 -34.5 7t-33.5 14q-8 6 -15 13t-17 15l-31 31q-25 23 -20.5 32z" />
<glyph unicode="&#xb8;" horiz-adv-x="399" d="M35 0q-37 70 24 113h-2q2 0 2 1t2 1q4 2 9 6q35 20 72.5 46t78.5 38q14 4 38 8t47.5 4t43 -6t27.5 -25l-9 -7q-10 -7 -23 -14t-25.5 -14.5t-14.5 -7.5q-35 -6 -69.5 -6t-69.5 -2q0 -29 16 -55q10 -16 18.5 -14.5t26.5 -2.5q57 -10 90 -51q35 -45 27 -90t-55 -74 q-29 -18 -57.5 -36.5t-57.5 -30.5t-59.5 -15.5t-63.5 13.5q6 -4 20.5 9t22.5 15q55 4 101 15q18 49 -11 94q-16 29 -42.5 46t-59.5 22q-23 4 -30 3t-17 17zM219 -176q4 2 9.5 2t9.5 2q41 14 29.5 17t-48.5 -21z" />
<glyph unicode="&#xb9;" horiz-adv-x="219" d="M0 1337q8 4 15.5 8.5t15.5 8.5q23 23 37 50t14 60q0 10 22.5 20.5t49.5 20.5q16 10 31.5 18.5t31.5 18.5q2 -111 -2 -222.5t-8 -223.5q-2 -33 -2 -56.5t-5 -42t-18.5 -34t-42.5 -31.5q-20 -12 -37 -21q-14 -6 -26.5 -10t-12.5 2q-2 35 -1 68t4 67q4 86 6 168t6 168 q-31 -18 -62 -31l-2 -2l2 2q-12 -4 -16 -6z" />
<glyph unicode="&#xba;" horiz-adv-x="397" d="M23 1595q8 35 27.5 57.5t47.5 41.5q0 -2 -2 -2q2 2 4 3t4 3q16 8 25 14q6 4 13.5 8t17.5 9q2 0 3 1t3 1q4 4 6 4h-2l2 2q0 -2 -2 -2l-4 -4q27 12 55.5 21t55 8t48 -15t35.5 -49q10 -29 14.5 -60.5t-5.5 -60.5q-14 -33 -37 -49.5t-51 -32.5q-31 -16 -65 -36.5t-73 -14.5 q-78 10 -94 74q-16 14 -23.5 34.5t-2.5 44.5zM94 1599q2 0 2 1.5t2 1.5l2 2q23 -33 66 -63t86 -36q4 10 6 19.5t4 19.5q2 31 -5 61.5t-24.5 54t-42 36t-55.5 8.5q-20 -20 -32.5 -46t-8.5 -56v-3zM279 1505q31 4 30 10t-30 -10z" />
<glyph unicode="&#xbb;" horiz-adv-x="870" d="M20 1202q0 -2 7.5 2t15.5 10.5t15.5 11.5t11.5 5q63 -6 111 -26.5t90 -51.5t80 -68.5t81 -80.5q18 -18 49 -45t58.5 -57t47 -61.5t15.5 -62.5q-4 -35 -26.5 -67.5t-52 -64.5t-61.5 -61.5t-52 -56.5q-66 -86 -128.5 -170t-142.5 -153q-6 -6 -19.5 -11.5t-26.5 -11.5 t-24.5 -12t-13.5 -14q20 47 61.5 87t69.5 81q29 39 59.5 77.5t59.5 79.5q16 23 46 51.5t56.5 61.5t42 65.5t3.5 63.5q-14 33 -36 61.5t-47.5 55t-52 52.5t-51.5 50q-59 66 -121.5 130.5t-124.5 129.5zM266 1286q0 -2 7.5 2t15.5 10.5t15 11.5t11 5q63 -6 111.5 -26.5 t90.5 -51.5t80 -69l81 -81q18 -18 49 -44.5t58.5 -56.5t47 -61.5t15.5 -62.5q-4 -35 -26.5 -67.5t-52.5 -64.5t-61.5 -61.5t-52.5 -56.5q-66 -86 -128 -170t-142 -153q-6 -6 -19.5 -11.5t-26.5 -11.5t-24.5 -12t-13.5 -14q20 47 61 87t70 81q29 39 59.5 77.5t59.5 79.5 q16 23 46 51.5t56.5 61.5t42 65.5t2.5 63.5q-14 33 -35.5 61.5t-47 55t-52 52t-51.5 50.5q-59 66 -121.5 130.5t-124.5 129.5z" />
<glyph unicode="&#xbc;" horiz-adv-x="647" d="M0 1337q8 4 15.5 8.5t15.5 8.5q23 23 37 50t14 60q0 10 22.5 20.5t49.5 20.5q16 10 31.5 18.5t31.5 18.5q2 -111 -2 -222.5t-8 -223.5q-2 -33 -2 -56.5t-5 -42t-18.5 -34t-42.5 -31.5q-20 -12 -37 -21q-14 -6 -26.5 -10t-12.5 2q-2 35 -1 68t4 67q4 86 6 168t6 168 q-31 -18 -62 -31l-2 -2l2 2q-12 -4 -16 -6zM20 33q23 23 30 65.5t18 71.5q20 59 38.5 120.5t36.5 121.5q25 86 45.5 170t44.5 170q35 117 74 230.5t76 229.5q20 57 38.5 113.5t37.5 114.5q4 14 8 34.5t12 32.5q4 5 6 9q4 6 27 18t47.5 25.5t44 23.5t19.5 12q6 -10 0.5 -31.5 t-14.5 -46t-19 -46t-12 -31.5q-20 -59 -40 -116.5t-38 -117.5q-35 -104 -71 -205.5t-62 -205.5q-25 -98 -51.5 -195.5t-55.5 -196.5q-20 -61 -40.5 -124.5t-55.5 -118.5q-12 -20 -28.5 -42t-35.5 -38h-2q8 4 7 3t-17 -11t-33.5 -19.5t-34.5 -19.5zM37 47q2 2 6 3t8 5 q-16 -8 -14 -8zM266 61q33 61 72 120t78 117t75.5 116.5t65.5 120.5q2 4 9 6t7 4q0 -27 -14 -63t-33.5 -73.5t-39 -73.5t-31.5 -61q-20 -49 -39 -78.5t-22 -45t17.5 -18.5t77.5 3v10q-4 47 -6 91.5t6 91.5q2 6 18.5 17t39 21.5t44.5 20.5t32 16q0 -92 1 -186t5 -197 q0 -10 -20.5 -19t-46 -19.5t-46 -20.5t-20.5 -18q-2 31 -3 61.5t-1 61.5h-48h-75t-70 -1.5t-33 -3.5z" />
<glyph unicode="&#xbd;" horiz-adv-x="647" d="M0 1337q8 4 15.5 8.5t15.5 8.5q23 23 37 50t14 60q0 10 22.5 20.5t49.5 20.5q16 10 31.5 18.5t31.5 18.5q2 -111 -2 -222.5t-8 -223.5q-2 -33 -2 -56.5t-5 -42t-18.5 -34t-42.5 -31.5q-20 -12 -37 -21q-14 -6 -26.5 -10t-12.5 2q-2 35 -1 68t4 67q4 86 6 168t6 168 q-31 -18 -62 -31l-2 -2l2 2q-12 -4 -16 -6zM20 33q23 23 30 65.5t18 71.5q20 59 38.5 120.5t36.5 121.5q25 86 45.5 170t44.5 170q35 117 74 230.5t76 229.5q20 57 38.5 113.5t37.5 114.5q4 14 8 34.5t12 32.5q4 5 6 9q4 6 27 18t47.5 25.5t44 23.5t19.5 12q6 -10 0.5 -31.5 t-14.5 -46t-19 -46t-12 -31.5q-20 -59 -40 -116.5t-38 -117.5q-35 -104 -71 -205.5t-62 -205.5q-25 -98 -51.5 -195.5t-55.5 -196.5q-20 -61 -40.5 -124.5t-55.5 -118.5q-12 -20 -28.5 -42t-35.5 -38h-2q8 4 7 3t-17 -11t-33.5 -19.5t-34.5 -19.5zM37 47q2 2 6 3t8 5 q-16 -8 -14 -8zM299 -43q2 6 12 25q14 20 27.5 40.5t28.5 43.5q27 41 52 85t42 91q6 18 14 40.5t12.5 46t3 46t-13.5 41.5q-16 20 -32.5 35.5t-38.5 23.5q-16 -35 -25.5 -72.5t-24.5 -78.5l-2 -2q-47 25 -49 58.5t21.5 67t66.5 61.5t88 39t83 1t54 -51q18 -49 9 -99.5 t-31.5 -99.5t-52 -95t-54.5 -85q-4 -4 -10 -17.5t-14 -29t-16.5 -26.5t-12.5 -13q10 4 22.5 7t22.5 5q29 6 63.5 11t63.5 -5q33 -10 32 -23.5t-17.5 -26.5t-40 -25.5t-35.5 -20.5q-12 -6 -22.5 -6t-18.5 5t-18.5 10t-22.5 7q-66 6 -125 -8q-12 -2 -22.5 -6t-15.5 -5t-3 5z " />
<glyph unicode="&#xbe;" horiz-adv-x="720" d="M1 1110q3 49 42 80q2 2 16.5 11t33 20.5t34.5 20.5t20 9q6 -4 7 -12q0 -2 -11.5 -8t-23.5 -14q-10 -27 -6 -61t14 -56q33 -70 98 -82q29 47 38 104.5t-1 110.5q-10 47 -43 87t-80 50q-8 -4 -15 -8t-15 -8q-8 -2 -20.5 -5t-22 -4.5t-11.5 2t11 11.5q2 0 18 9t35.5 20.5 t39 22.5t29.5 17q16 16 32 28.5t20 10.5q-51 8 -103 13v-4q0 -2 -7 -5.5l-11 -5.5q-23 -4 -48.5 -5t-21.5 3q41 29 80 45.5t96 18.5h31.5t41 1t38 3t22.5 6q-27 -27 -53 -52.5t-57 -47.5q0 -2 -2 -2q35 -4 64.5 -18.5t45.5 -43.5q18 -33 27.5 -75t6.5 -85t-19.5 -84 t-44.5 -67q-33 -33 -75 -55.5t-83 -44.5q-49 -27 -89 -5.5t-60.5 63.5t-17.5 91zM115 33q23 23 30 65.5t17 71.5q20 59 38.5 120.5t37.5 121.5q25 86 45 170t45 170q35 117 73.5 230.5t75.5 229.5q20 57 39 113.5t37 114.5q4 14 8 34.5t12 32.5q5 5 7 9q4 6 26.5 18t47 25.5 t44 23.5t19.5 12q6 -10 1 -31.5t-14.5 -46t-19.5 -46t-12 -31.5q-20 -59 -40 -116.5t-38 -117.5q-35 -104 -71 -205.5t-62 -205.5q-25 -98 -51.5 -195.5t-55.5 -196.5q-20 -61 -40.5 -124.5t-55.5 -118.5q-12 -20 -28.5 -42t-34.5 -38h-2q8 4 7 3t-18 -11 q-16 -10 -33.5 -19.5t-33.5 -19.5zM131 47q2 2 6 3t8 5q-16 -8 -14 -8zM356 61q33 61 72 120t78 117t75.5 116.5t65.5 120.5q2 4 9.5 6t7.5 4q0 -27 -14.5 -63t-34 -73.5t-39 -73.5t-31.5 -61q-20 -49 -39 -78.5t-22 -45t17.5 -18.5t78.5 3v10q-4 47 -6.5 91.5t6.5 91.5 q2 6 18 17t38.5 21.5t44.5 20.5t32 16q0 -92 1 -186t5 -197q0 -10 -20.5 -19t-46 -19.5t-46 -20.5t-20.5 -18q-2 31 -3 61.5t-1 61.5h-48h-75t-70 -1.5t-33 -3.5z" />
<glyph unicode="&#xbf;" horiz-adv-x="884" d="M27 245.5q-4 96.5 14 187.5t63.5 171t122.5 135q41 27 85 51.5t89 47.5q4 6 9.5 13t9.5 13q10 23 17 45.5t12 46.5q10 68 15 124.5t34 117.5q0 2 11 8t26 15q16 8 34 18q35 -45 36 -93t-9 -108q-10 -41 -24.5 -76.5t-47.5 -64.5q-39 -31 -87 -54.5t-93 -45.5h-2l-2 -2 q-12 -12 -24.5 -23.5t-22.5 -26.5q-23 -29 -40 -57.5t-32 -62.5q-27 -72 -40 -147t-9 -152q2 -68 18.5 -149t49 -156.5t85 -133t130.5 -77.5q41 -10 79.5 -12.5t79.5 5.5q18 4 37 7.5t35 9.5q4 2 8 2l4 4q57 51 90 114.5t25 141.5l2 2l8 4q6 2 13 6q45 -66 27.5 -121 t-66.5 -99t-115 -76t-117 -50q-96 -35 -180 -25.5t-150.5 53.5t-113.5 117.5t-70 169.5q-20 86 -24 182.5zM418 1475l12 8t26.5 17t28 15.5t15.5 6.5q16 -4 35.5 -7.5t33.5 -13.5q8 -6 15.5 -13t15.5 -15q10 -8 17.5 -15.5l15.5 -15.5q25 -23 20.5 -32t-45.5 -44 q-20 -16 -49.5 -27.5t-52.5 4.5q-35 27 -66 60q-16 16 -17 32.5t-5 39.5z" />
<glyph unicode="&#xc0;" horiz-adv-x="1699" d="M42 287.5q-1 66.5 20.5 127t63.5 113t99 88.5l66 40t67.5 31t71.5 8t74 -25q51 -33 66.5 -75t6 -84t-39 -78t-67.5 -56.5t-81 -20.5t-78 33q2 -2 9.5 5t11.5 5q70 -37 135 -14q35 31 54.5 78t-3.5 92q-35 68 -106 86q-35 10 -65 13t-58 -13q-61 -35 -91 -104.5 t-28 -146.5t39 -149.5t110 -113.5q20 -12 61.5 -23.5t86.5 -16.5t86 -1t63 27q14 14 27.5 29.5t24.5 31.5q18 29 34.5 59.5t26.5 65.5q33 104 43 213t21 219q-35 4 -69 19.5t-67 48.5q2 -2 9.5 5t9.5 5q57 -31 121 -41q8 76 19 149.5t34 145.5q31 96 74 179t125 144 q37 29 79.5 51.5t83.5 45.5q63 35 101.5 26.5t60 -43t27.5 -89t6 -112t-5 -109.5t-5 -83q0 -10 -3 -42t-8 -79q29 6 50.5 3t27.5 -19q-20 -12 -37 -23q-14 -10 -26 -17t-17 -7h-2q-4 -72 -7 -158t-2 -173t10.5 -170t28 -147.5t49 -103.5t77.5 -39q25 29 20.5 70t-13.5 79 t-11 63.5t31 21.5t55 -26.5t31.5 -54.5t2.5 -68t-36 -62q-23 -23 -57.5 -38t-63.5 -32q-59 -33 -104 -24.5t-78 41t-51.5 82t-24.5 100.5q-16 154 -9 306.5t15 305.5q-84 -14 -159.5 -51t-157.5 -61q-4 -68 -9.5 -136.5t-18.5 -135t-36.5 -129t-66.5 -113.5 q-39 -45 -97.5 -90.5t-128 -80t-144.5 -53t-142.5 -12.5t-124 43t-88.5 115q-29 63 -30 129.5zM758 1714q2 -2 8 5t10 7q57 -16 113.5 -53t99.5 -78q20 -18 40 -36.5t36 -40.5q16 -16 5 -24.5t-28 -18.5q-6 -4 -12 -7.5t-12 -5.5q-18 -6 -21.5 -1t-15.5 18q-18 23 -37.5 42 t-38.5 40q-37 37 -68.5 82t-78.5 71zM930 776q80 16 154.5 52t162.5 77q2 10 2 20.5v20.5q4 94 11.5 195.5t-11.5 193.5q-10 55 -39.5 75t-70.5 13q-55 -53 -90 -124.5t-57.5 -149.5t-35 -158t-20.5 -151q-2 -16 -3 -32t-3 -32z" />
<glyph unicode="&#xc1;" horiz-adv-x="1699" d="M42 287.5q-1 66.5 20.5 127t63.5 113t99 88.5l66 40t67.5 31t71.5 8t74 -25q51 -33 66.5 -75t6 -84t-39 -78t-67.5 -56.5t-81 -20.5t-78 33q2 -2 9.5 5t11.5 5q70 -37 135 -14q35 31 54.5 78t-3.5 92q-35 68 -106 86q-35 10 -65 13t-58 -13q-61 -35 -91 -104.5 t-28 -146.5t39 -149.5t110 -113.5q20 -12 61.5 -23.5t86.5 -16.5t86 -1t63 27q14 14 27.5 29.5t24.5 31.5q18 29 34.5 59.5t26.5 65.5q33 104 43 213t21 219q-35 4 -69 19.5t-67 48.5q2 -2 9.5 5t9.5 5q57 -31 121 -41q8 76 19 149.5t34 145.5q31 96 74 179t125 144 q37 29 79.5 51.5t83.5 45.5q63 35 101.5 26.5t60 -43t27.5 -89t6 -112t-5 -109.5t-5 -83q0 -10 -3 -42t-8 -79q29 6 50.5 3t27.5 -19q-20 -12 -37 -23q-14 -10 -26 -17t-17 -7h-2q-4 -72 -7 -158t-2 -173t10.5 -170t28 -147.5t49 -103.5t77.5 -39q25 29 20.5 70t-13.5 79 t-11 63.5t31 21.5t55 -26.5t31.5 -54.5t2.5 -68t-36 -62q-23 -23 -57.5 -38t-63.5 -32q-59 -33 -104 -24.5t-78 41t-51.5 82t-24.5 100.5q-16 154 -9 306.5t15 305.5q-84 -14 -159.5 -51t-157.5 -61q-4 -68 -9.5 -136.5t-18.5 -135t-36.5 -129t-66.5 -113.5 q-39 -45 -97.5 -90.5t-128 -80t-144.5 -53t-142.5 -12.5t-124 43t-88.5 115q-29 63 -30 129.5zM910.5 1493q-11.5 8 4.5 25q16 23 36 41l40 36q43 41 99.5 78t113.5 53q4 0 10.5 -7t8.5 -5q-47 -27 -79 -72t-69 -81q-18 -20 -37.5 -40t-38.5 -42q-12 -12 -15 -17.5t-21 0.5 q-6 2 -12.5 5t-12.5 8q-16 10 -27.5 18zM930 776q80 16 154.5 52t162.5 77q2 10 2 20.5v20.5q4 94 11.5 195.5t-11.5 193.5q-10 55 -39.5 75t-70.5 13q-55 -53 -90 -124.5t-57.5 -149.5t-35 -158t-20.5 -151q-2 -16 -3 -32t-3 -32z" />
<glyph unicode="&#xc2;" horiz-adv-x="1699" d="M42 287.5q-1 66.5 20.5 127t63.5 113t99 88.5l66 40t67.5 31t71.5 8t74 -25q51 -33 66.5 -75t6 -84t-39 -78t-67.5 -56.5t-81 -20.5t-78 33q2 -2 9.5 5t11.5 5q70 -37 135 -14q35 31 54.5 78t-3.5 92q-35 68 -106 86q-35 10 -65 13t-58 -13q-61 -35 -91 -104.5 t-28 -146.5t39 -149.5t110 -113.5q20 -12 61.5 -23.5t86.5 -16.5t86 -1t63 27q14 14 27.5 29.5t24.5 31.5q18 29 34.5 59.5t26.5 65.5q33 104 43 213t21 219q-35 4 -69 19.5t-67 48.5q2 -2 9.5 5t9.5 5q57 -31 121 -41q8 76 19 149.5t34 145.5q31 96 74 179t125 144 q37 29 79.5 51.5t83.5 45.5q29 16 52 22q-29 39 -52.5 82t-58.5 72q-41 -41 -81 -80t-75 -84q-2 -4 -7 -4t-7 -4q23 55 65 98t78 90q2 4 16.5 13.5t30 18.5t30 16.5t18.5 5.5q31 -10 51 -35t37 -49q23 -31 46 -60t44 -59q-2 2 -17.5 -9.5t-33.5 -23.5q33 -25 45 -81 t13 -119.5t-4 -124t-5 -95.5q0 -10 -3 -42t-8 -79q29 6 50.5 3t27.5 -19q-20 -12 -37 -23q-14 -10 -26 -17t-17 -7h-2q-4 -72 -7 -158t-2 -173t10.5 -170t28 -147.5t49 -103.5t77.5 -39q25 29 20.5 70t-13.5 79t-11 63.5t31 21.5t55 -26.5t31.5 -54.5t2.5 -68t-36 -62 q-23 -23 -57.5 -38t-63.5 -32q-59 -33 -104 -24.5t-78 41t-51.5 82t-24.5 100.5q-16 154 -9 306.5t15 305.5q-84 -14 -159.5 -51t-157.5 -61q-4 -68 -9.5 -136.5t-18.5 -135t-36.5 -129t-66.5 -113.5q-39 -45 -97.5 -90.5t-128 -80t-144.5 -53t-142.5 -12.5t-124 43 t-88.5 115q-29 63 -30 129.5zM930 776q80 16 154.5 52t162.5 77q2 10 2 20.5v20.5q4 94 11.5 195.5t-11.5 193.5q-10 55 -39.5 75t-70.5 13q-55 -53 -90 -124.5t-57.5 -149.5t-35 -158t-20.5 -151z" />
<glyph unicode="&#xc3;" horiz-adv-x="1699" d="M42 287.5q-1 66.5 20.5 127t63.5 113t99 88.5l66 40t67.5 31t71.5 8t74 -25q51 -33 66.5 -75t6 -84t-39 -78t-67.5 -56.5t-81 -20.5t-78 33q2 -2 9.5 5t11.5 5q70 -37 135 -14q35 31 54.5 78t-3.5 92q-35 68 -106 86q-35 10 -65 13t-58 -13q-61 -35 -91 -104.5 t-28 -146.5t39 -149.5t110 -113.5q20 -12 61.5 -23.5t86.5 -16.5t86 -1t63 27q14 14 27.5 29.5t24.5 31.5q18 29 34.5 59.5t26.5 65.5q33 104 43 213t21 219q-35 4 -69 19.5t-67 48.5q2 -2 9.5 5t9.5 5q57 -31 121 -41q8 76 19 149.5t34 145.5q31 96 74 179t125 144 q37 29 79.5 51.5t83.5 45.5q63 35 101.5 26.5t60 -43t27.5 -89t6 -112t-5 -109.5t-5 -83q0 -10 -3 -42t-8 -79q29 6 50.5 3t27.5 -19q-20 -12 -37 -23q-14 -10 -26 -17t-17 -7h-2q-4 -72 -7 -158t-2 -173t10.5 -170t28 -147.5t49 -103.5t77.5 -39q25 29 20.5 70t-13.5 79 t-11 63.5t31 21.5t55 -26.5t31.5 -54.5t2.5 -68t-36 -62q-23 -23 -57.5 -38t-63.5 -32q-59 -33 -104 -24.5t-78 41t-51.5 82t-24.5 100.5q-16 154 -9 306.5t15 305.5q-84 -14 -159.5 -51t-157.5 -61q-4 -68 -9.5 -136.5t-18.5 -135t-36.5 -129t-66.5 -113.5 q-39 -45 -97.5 -90.5t-128 -80t-144.5 -53t-142.5 -12.5t-124 43t-88.5 115q-29 63 -30 129.5zM930 776q80 16 154.5 52t162.5 77q2 10 2 20.5v20.5q4 94 11.5 195.5t-11.5 193.5q-10 55 -39.5 75t-70.5 13q-55 -53 -90 -124.5t-57.5 -149.5t-35 -158t-20.5 -151 q-2 -16 -3 -32t-3 -32zM983 1593q4 16 23 35h-5q4 0 9 4q29 25 63 35q76 23 150 -10q23 -10 44 -18.5t44 -12.5q10 12 17 24.5t18 26.5q2 4 15 12.5t15 6.5q25 -12 12.5 -29.5t-30.5 -30.5l-2 -2q-8 -4 -21 -12q-23 -12 -45 -26.5t-45 -24.5q-41 -14 -76.5 -1t-70.5 32 q-16 8 -35 18t-39 10q-6 -6 -18 -22q-4 -4 -12.5 -7.5t-10.5 -7.5z" />
<glyph unicode="&#xc4;" horiz-adv-x="1699" d="M42 287.5q-1 66.5 20.5 127t63.5 113t99 88.5l66 40t67.5 31t71.5 8t74 -25q51 -33 66.5 -75t6 -84t-39 -78t-67.5 -56.5t-81 -20.5t-78 33q2 -2 9.5 5t11.5 5q70 -37 135 -14q35 31 54.5 78t-3.5 92q-35 68 -106 86q-35 10 -65 13t-58 -13q-61 -35 -91 -104.5 t-28 -146.5t39 -149.5t110 -113.5q20 -12 61.5 -23.5t86.5 -16.5t86 -1t63 27q14 14 27.5 29.5t24.5 31.5q18 29 34.5 59.5t26.5 65.5q33 104 43 213t21 219q-35 4 -69 19.5t-67 48.5q2 -2 9.5 5t9.5 5q57 -31 121 -41q8 76 19 149.5t34 145.5q31 96 74 179t125 144 q37 29 79.5 51.5t83.5 45.5q63 35 101.5 26.5t60 -43t27.5 -89t6 -112t-5 -109.5t-5 -83q0 -10 -3 -42t-8 -79q29 6 50.5 3t27.5 -19q-20 -12 -37 -23q-14 -10 -26 -17t-17 -7h-2q-4 -72 -7 -158t-2 -173t10.5 -170t28 -147.5t49 -103.5t77.5 -39q25 29 20.5 70t-13.5 79 t-11 63.5t31 21.5t55 -26.5t31.5 -54.5t2.5 -68t-36 -62q-23 -23 -57.5 -38t-63.5 -32q-59 -33 -104 -24.5t-78 41t-51.5 82t-24.5 100.5q-16 154 -9 306.5t15 305.5q-84 -14 -159.5 -51t-157.5 -61q-4 -68 -9.5 -136.5t-18.5 -135t-36.5 -129t-66.5 -113.5 q-39 -45 -97.5 -90.5t-128 -80t-144.5 -53t-142.5 -12.5t-124 43t-88.5 115q-29 63 -30 129.5zM930 776q80 16 154.5 52t162.5 77q2 10 2 20.5v20.5q4 94 11.5 195.5t-11.5 193.5q-10 55 -39.5 75t-70.5 13q-55 -53 -90 -124.5t-57.5 -149.5t-35 -158t-20.5 -151z M1022 1598.5q2 5.5 31 29.5q14 12 35.5 19.5t35.5 -2.5q12 -10 23.5 -20.5t23.5 -20.5q10 -12 11.5 -23.5t3.5 -26.5l-8 -6q-9 -6 -19 -12t-19.5 -10t-11.5 -4q-10 4 -23 5t-24 7l-22 20l-23 23q-16 16 -14 21.5zM1207.5 1598.5q2.5 5.5 31.5 29.5q12 12 33.5 19.5 t38.5 -2.5l45 -41q12 -12 12 -23.5t4 -26.5l-9 -6q-9 -6 -19.5 -12t-19.5 -10t-11 -4q-10 4 -23.5 5t-23.5 7l-23 20l-20 23q-18 16 -15.5 21.5z" />
<glyph unicode="&#xc5;" horiz-adv-x="1699" d="M42 287.5q-1 66.5 20.5 127t63.5 113t99 88.5l66 40t67.5 31t71.5 8t74 -25q51 -33 66.5 -75t6 -84t-39 -78t-67.5 -56.5t-81 -20.5t-78 33q2 -2 9.5 5t11.5 5q70 -37 135 -14q35 31 54.5 78t-3.5 92q-35 68 -106 86q-35 10 -65 13t-58 -13q-61 -35 -91 -104.5 t-28 -146.5t39 -149.5t110 -113.5q20 -12 61.5 -23.5t86.5 -16.5t86 -1t63 27q14 14 27.5 29.5t24.5 31.5q18 29 34.5 59.5t26.5 65.5q33 104 43 213t21 219q-35 4 -69 19.5t-67 48.5q2 -2 9.5 5t9.5 5q57 -31 121 -41q8 76 19 149.5t34 145.5q31 96 74 179t125 144 q25 18 51 34t55 32q-37 16 -43 55q-33 31 -25 74q6 33 24.5 53.5t43.5 36.5v-2l6 6q8 2 23 13l28 14q2 0 3.5 1t3.5 1q25 12 50 20.5t48.5 7.5t44 -14.5t33.5 -44.5q10 -27 14 -55t-6 -55q-10 -25 -25.5 -39.5t-36.5 -26.5q35 -23 48.5 -78t15.5 -120.5t-3 -128t-5 -97.5 q0 -10 -3 -42t-8 -79q29 6 50.5 3t27.5 -19q-20 -12 -37 -23q-14 -10 -26 -17t-17 -7h-2q-4 -72 -7 -158t-2 -173t10.5 -170t28 -147.5t49 -103.5t77.5 -39q25 29 20.5 70t-13.5 79t-11 63.5t31 21.5t55 -26.5t31.5 -54.5t2.5 -68t-36 -62q-23 -23 -57.5 -38t-63.5 -32 q-59 -33 -104 -24.5t-78 41t-51.5 82t-24.5 100.5q-16 154 -9 306.5t15 305.5q-84 -14 -159.5 -51t-157.5 -61q-4 -68 -9.5 -136.5t-18.5 -135t-36.5 -129t-66.5 -113.5q-39 -45 -97.5 -90.5t-128 -80t-144.5 -53t-142.5 -12.5t-124 43t-88.5 115q-29 63 -30 129.5zM930 776 q80 16 154.5 52t162.5 77q2 10 2 20.5v20.5q4 94 11.5 195.5t-11.5 193.5q-10 55 -39.5 75t-70.5 13q-55 -53 -90 -124.5t-57.5 -149.5t-35 -158t-20.5 -151zM1153 1585l4 4q16 -27 46 -49t65 -35q10 4 17 4h15l5 25q2 29 -5.5 57.5t-21.5 49t-36.5 31.5t-51.5 7 q-18 -18 -29.5 -40.5t-7.5 -51.5v-2zM1219 1704q0 2 2 4h2q-4 0 -4 -4z" />
<glyph unicode="&#xc6;" horiz-adv-x="2246" d="M21 287.5q-1 66.5 20.5 127t63.5 113t100 88.5q33 20 65.5 40t67.5 31t71.5 8t73.5 -25q51 -33 66.5 -75t6.5 -84t-39 -78t-67.5 -56.5t-80.5 -20.5t-78 33q2 -2 9 5t11 5q70 -37 135 -14q35 31 54.5 78t-2.5 92q-35 68 -107 86q-35 10 -64.5 13t-58.5 -13 q-61 -35 -91 -104.5t-27.5 -146.5t39 -149.5t110.5 -113.5q20 -12 61 -23.5t86.5 -16.5t86 -1t63.5 27q14 14 27.5 29.5t23.5 31.5q18 29 34.5 59.5t27.5 65.5q33 104 43 213t20 219q-35 4 -68.5 19.5t-66.5 48.5q2 -2 9 5t9 5q57 -31 121 -41q8 76 19.5 149.5t33.5 145.5 q31 96 74 179t125 144q37 29 80 51.5t84 45.5q63 35 101 26.5t59.5 -43t27.5 -89t6 -112t-5 -109.5t-5 -83q0 -10 -3 -42t-7 -79q39 8 64 -2l-7 21q-4 2 -7 20.5t-5 40t-4 37.5t-6 14q-2 86 39 161t119 124q49 31 101 62.5t107 52.5q31 12 77 21t90 6t80 -22.5t48 -66.5 q18 -70 1 -127t-57 -105t-97.5 -85t-118.5 -64q-51 -23 -101.5 -36t-95.5 -21q66 -53 136.5 -83t164.5 -42q-16 2 -33.5 -10t-36 -27.5t-35.5 -29t-34 -13.5q-59 0 -121 13q-39 -10 -77.5 -22.5t-72.5 -31t-60.5 -46t-39.5 -66.5q-29 -82 -28 -170q2 -18 3 -37t5 -37 q10 -53 33 -96q35 -63 88 -96t112 -68q49 -20 102.5 -29.5t103.5 -4.5t94.5 27.5t74.5 65.5q16 23 32.5 46.5t27.5 49.5q23 49 40 104.5t13 111.5q-6 86 -59.5 133t-129.5 37q-53 -53 -91 -121t-76 -129q-4 -4 -12.5 -7.5t-10.5 -7.5q29 63 46 108.5t41 81.5t60.5 64.5 t104.5 61.5q53 27 108.5 35t98.5 -33q39 -37 51 -90.5t6 -110.5t-26.5 -111.5t-45.5 -93.5q-45 -70 -112.5 -118t-143.5 -89q-92 -53 -204.5 -77.5t-216.5 0.5q-84 16 -134.5 64t-77 116.5t-34.5 151.5t-7 170t4 173t1 162q-84 -14 -160 -51t-158 -61q-4 -68 -9 -136.5 t-18.5 -135t-37 -129t-66.5 -113.5q-39 -45 -97 -90.5t-128 -80t-144.5 -53t-142 -12.5t-124 43t-89.5 115q-29 63 -30 129.5zM909 776q80 16 155 52t163 77q2 10 2 20.5v20.5q4 94 11 195.5t-11 193.5q-10 55 -40 75t-71 13q-55 -53 -90 -124.5t-57.5 -149.5t-34.5 -158 t-21 -151zM1352 653q53 51 120.5 87t139.5 59q-47 12 -86 37q-35 23 -54.5 45t-33.5 51q-6 -4 -17.5 -11.5t-23 -13.5t-21.5 -12t-12 -6h-2q-4 -53 -7 -112.5t-3 -123.5zM1512 1103.5q1 -26.5 10 -46.5q39 -6 82 -9.5t85 -2t80.5 10.5t73.5 31q35 23 58.5 63t30.5 84t-5 86 t-45 73q-57 51 -135 41q-23 -4 -45.5 -7.5t-44.5 -11.5q-43 -23 -76 -70t-47 -94q-4 -16 -9 -40.5t-9.5 -52.5t-3.5 -54.5z" />
<glyph unicode="&#xc7;" horiz-adv-x="1132" d="M44 810q3 91 22.5 177t60.5 165t111 144q39 37 88 75t103 68.5t111.5 51t112.5 25.5q74 4 143.5 -8.5t127 -45t98.5 -86t57 -131.5q25 -123 -7 -212t-140 -150q-18 -10 -39 -22.5t-42.5 -22t-43 -12.5t-41.5 5q-74 25 -98.5 86.5t18.5 129.5q4 4 11.5 5t9.5 5 q-12 -31 -8.5 -56.5t20 -45t42 -33t54.5 -21.5q23 -6 50.5 -10t52.5 0q4 0 7 5t7 9q39 80 30.5 175.5t-44.5 172.5q-25 51 -65 89t-89 61.5t-104.5 34t-110.5 4.5q-29 -4 -56.5 -7t-56.5 -14q-12 -4 -23.5 -13t-29.5 -28q-47 -47 -84 -102t-59 -117q-49 -131 -53.5 -270 t16.5 -277q8 -59 22.5 -126.5t37 -132t57 -121t83.5 -95.5q39 -31 78 -47t79 -22.5t83 -6.5t92 5q41 8 84 28q55 25 97 76t71 113.5t46.5 128t25.5 121.5q0 4 13 7t11 7q12 -82 -2 -148.5t-49 -122t-88 -100.5t-121 -84l-67 -37q-41 -20 -66.5 -31.5t-41 -17.5t-26 -9 t-20.5 -5l-47 -12q4 -23 16 -45q10 -16 18.5 -14.5t26.5 -2.5q57 -10 91 -51q35 -45 26.5 -90t-55.5 -74q-29 -18 -57.5 -36.5t-57 -31t-59.5 -15.5t-64 13q6 -4 20.5 9.5t22.5 15.5q55 4 101 14q18 49 -11 95q-16 29 -42.5 46t-59.5 21q-23 4 -30 3t-17 18q-37 70 25 112 h-3q2 0 2.5 1t2.5 1q2 2 4 2q-31 2 -62 10.5t-59 22.5q-80 41 -133.5 114t-86 159t-47 178t-20.5 174q-6 88 -3 179zM608 -319l19 4q41 14 29.5 17t-48.5 -21z" />
<glyph unicode="&#xc8;" horiz-adv-x="1181" d="M45 1287.5q8 58.5 33.5 110.5t66.5 89q4 4 11.5 6t11.5 6q-53 -55 -62.5 -119.5t15 -124t76 -105.5t118.5 -67q-2 86 39 161t119 124q49 31 101.5 62.5t107.5 52.5q31 12 77 21t90 6t80 -22.5t48 -66.5q18 -70 1 -127t-57 -105t-97.5 -85t-118.5 -64q-51 -23 -101.5 -36 t-95.5 -21q66 -53 136.5 -83t164.5 -42q-16 2 -33.5 -10t-36 -27.5t-36 -29t-33.5 -13.5q-59 0 -121 13q-39 -10 -78 -22.5t-72.5 -31t-60.5 -46t-39 -66.5q-29 -80 -29 -171.5t41 -168.5q33 -61 108 -112.5t162 -73t171 -6t135 86.5q16 23 32.5 46.5t26.5 49.5 q23 49 40.5 104.5t12.5 111.5q-6 86 -59 133t-129 37q-53 -53 -91 -121t-77 -129q-4 -4 -12 -7.5t-10 -7.5q29 63 46 108.5t40.5 81.5t60 64.5t104.5 61.5q53 27 108.5 35t98.5 -33q39 -37 51.5 -90.5t6 -110.5t-26.5 -111.5t-45 -93.5q-45 -70 -112.5 -118t-143.5 -89 q-92 -53 -204.5 -77.5t-217.5 0.5q-61 14 -112.5 50t-86 86t-51 110.5t-8.5 125.5q10 80 47 143.5t90 114t121 86t139 58.5q-47 12 -86 37q-43 29 -64.5 59.5t-37.5 75.5q-76 0 -147.5 20.5t-104.5 73.5q-29 47 -39 105.5t-2 117zM246 1714q2 -2 8 5t10 7q57 -16 113.5 -53 t99.5 -78q20 -18 40 -36.5t36 -40.5q16 -16 5 -24.5t-28 -18.5q-6 -4 -12 -7.5t-12 -5.5q-18 -6 -21.5 -1t-15.5 18q-18 23 -37.5 42t-38.5 40q-37 37 -68.5 82t-78.5 71zM427 1103.5q1 -26.5 9 -46.5q39 -6 82 -9.5t85 -2t81 10.5t74 31q35 23 58.5 63t30.5 84t-5.5 86 t-44.5 73q-57 51 -135 41q-23 -4 -45.5 -7.5t-45.5 -11.5q-43 -23 -75.5 -70t-46.5 -94q-4 -16 -9.5 -40.5t-9.5 -52.5t-3 -54.5z" />
<glyph unicode="&#xc9;" horiz-adv-x="1181" d="M45 1287.5q8 58.5 33.5 110.5t66.5 89q4 4 11.5 6t11.5 6q-53 -55 -62.5 -119.5t15 -124t76 -105.5t118.5 -67q-2 86 39 161t119 124q49 31 101.5 62.5t107.5 52.5q31 12 77 21t90 6t80 -22.5t48 -66.5q18 -70 1 -127t-57 -105t-97.5 -85t-118.5 -64q-51 -23 -101.5 -36 t-95.5 -21q66 -53 136.5 -83t164.5 -42q-16 2 -33.5 -10t-36 -27.5t-36 -29t-33.5 -13.5q-59 0 -121 13q-39 -10 -78 -22.5t-72.5 -31t-60.5 -46t-39 -66.5q-29 -80 -29 -171.5t41 -168.5q33 -61 108 -112.5t162 -73t171 -6t135 86.5q16 23 32.5 46.5t26.5 49.5 q23 49 40.5 104.5t12.5 111.5q-6 86 -59 133t-129 37q-53 -53 -91 -121t-77 -129q-4 -4 -12 -7.5t-10 -7.5q29 63 46 108.5t40.5 81.5t60 64.5t104.5 61.5q53 27 108.5 35t98.5 -33q39 -37 51.5 -90.5t6 -110.5t-26.5 -111.5t-45 -93.5q-45 -70 -112.5 -118t-143.5 -89 q-92 -53 -204.5 -77.5t-217.5 0.5q-61 14 -112.5 50t-86 86t-51 110.5t-8.5 125.5q10 80 47 143.5t90 114t121 86t139 58.5q-47 12 -86 37q-43 29 -64.5 59.5t-37.5 75.5q-76 0 -147.5 20.5t-104.5 73.5q-29 47 -39 105.5t-2 117zM384.5 1493q-11.5 8 4.5 25q16 23 36 41 l40 36q43 41 99.5 78t113.5 53q4 0 10 -7t8 -5q-47 -27 -78.5 -72t-68.5 -81q-18 -20 -37.5 -40t-38.5 -42q-12 -12 -15 -17.5t-22 0.5q-6 2 -12 5t-12 8q-16 10 -27.5 18zM427 1103.5q1 -26.5 9 -46.5q39 -6 82 -9.5t85 -2t81 10.5t74 31q35 23 58.5 63t30.5 84t-5.5 86 t-44.5 73q-57 51 -135 41q-23 -4 -45.5 -7.5t-45.5 -11.5q-43 -23 -75.5 -70t-46.5 -94q-4 -16 -9.5 -40.5t-9.5 -52.5t-3 -54.5z" />
<glyph unicode="&#xca;" horiz-adv-x="1181" d="M45 1287.5q8 58.5 33.5 110.5t66.5 89q4 4 9.5 4t9.5 4q-51 -55 -59.5 -119.5t16 -123t76 -103.5t118.5 -66q-2 86 39 161t119 124q49 31 101.5 62.5t107.5 52.5q10 4 24.5 8t30.5 8q-31 39 -55.5 85t-60.5 75q-41 -41 -81 -80t-75 -84q-2 -4 -7 -4t-7 -4q23 55 64.5 98 t78.5 90q2 4 16.5 13.5t29.5 18.5t29.5 16.5t18.5 5.5q31 -10 51.5 -35t36.5 -49q23 -31 46.5 -60t43.5 -59q-6 0 -28 -17q47 0 86 -19.5t53 -68.5q18 -70 1 -127t-57 -105t-97.5 -85t-118.5 -64q-51 -23 -101.5 -36t-95.5 -21q66 -53 136.5 -83t164.5 -42q-16 2 -33.5 -10 t-36 -27.5t-36 -29t-33.5 -13.5q-59 0 -121 13q-39 -10 -78 -22.5t-72.5 -31t-60.5 -46t-39 -66.5q-29 -80 -29 -171.5t41 -168.5q33 -61 108 -112.5t162 -73t171 -6t135 86.5q16 23 32.5 46.5t26.5 49.5q23 49 40.5 104.5t12.5 111.5q-6 86 -59 133t-129 37 q-53 -53 -91 -121t-77 -129q-4 -4 -12 -7.5t-10 -7.5q29 63 46 108.5t40.5 81.5t60.5 64.5t104 61.5q53 27 108.5 35t98.5 -33q39 -37 51.5 -90.5t6 -110.5t-26.5 -111.5t-45 -93.5q-45 -70 -112.5 -118t-143.5 -89q-92 -53 -204.5 -77.5t-217.5 0.5q-61 14 -112.5 50 t-86 86t-51 110.5t-8.5 125.5q10 80 47 143.5t90 114t121 86t139 58.5q-47 12 -86 37q-43 29 -64.5 59.5t-37.5 75.5q-76 0 -147.5 20.5t-104.5 73.5q-29 47 -39 105.5t-2 117zM427 1103.5q1 -26.5 9 -46.5q39 -6 82 -9.5t85 -2t81 10.5t74 31q35 23 58.5 63t30.5 84 t-5.5 86t-44.5 73q-57 51 -135 41q-23 -4 -45.5 -7.5t-45.5 -11.5q-43 -23 -75.5 -70t-46.5 -94q-4 -16 -9.5 -40.5t-9.5 -52.5t-3 -54.5z" />
<glyph unicode="&#xcb;" horiz-adv-x="1181" d="M45 1287.5q8 58.5 33.5 110.5t66.5 89q4 4 11.5 6t11.5 6q-53 -55 -62.5 -119.5t15 -124t76 -105.5t118.5 -67q-2 86 39 161t119 124q49 31 101.5 62.5t107.5 52.5q31 12 77 21t90 6t80 -22.5t48 -66.5q18 -70 1 -127t-57 -105t-97.5 -85t-118.5 -64q-51 -23 -101.5 -36 t-95.5 -21q66 -53 136.5 -83t164.5 -42q-16 2 -33.5 -10t-36 -27.5t-36 -29t-33.5 -13.5q-59 0 -121 13q-39 -10 -78 -22.5t-72.5 -31t-60.5 -46t-39 -66.5q-29 -80 -29 -171.5t41 -168.5q33 -61 108 -112.5t162 -73t171 -6t135 86.5q16 23 32.5 46.5t26.5 49.5 q23 49 40.5 104.5t12.5 111.5q-6 86 -59 133t-129 37q-53 -53 -91 -121t-77 -129q-4 -4 -12 -7.5t-10 -7.5q29 63 46 108.5t40.5 81.5t60 64.5t104.5 61.5q53 27 108.5 35t98.5 -33q39 -37 51.5 -90.5t6 -110.5t-26.5 -111.5t-45 -93.5q-45 -70 -112.5 -118t-143.5 -89 q-92 -53 -204.5 -77.5t-217.5 0.5q-61 14 -112.5 50t-86 86t-51 110.5t-8.5 125.5q10 80 47 143.5t90 114t121 86t139 58.5q-47 12 -86 37q-43 29 -64.5 59.5t-37.5 75.5q-76 0 -147.5 20.5t-104.5 73.5q-29 47 -39 105.5t-2 117zM427 1103.5q1 -26.5 9 -46.5q39 -6 82 -9.5 t85 -2t81 10.5t74 31q35 23 58.5 63t30.5 84t-5.5 86t-44.5 73q-57 51 -135 41q-23 -4 -45.5 -7.5t-45.5 -11.5q-43 -23 -75.5 -70t-46.5 -94q-4 -16 -9.5 -40.5t-9.5 -52.5t-3 -54.5zM428 1598.5q2 5.5 31 29.5q14 12 35.5 19.5t35.5 -2.5q12 -10 23.5 -20.5t24.5 -20.5 q10 -12 11 -23.5t3 -26.5l-8 -6q-9 -6 -19 -12t-19 -10t-11 -4q-10 4 -23.5 5t-24.5 7l-22 20l-23 23q-16 16 -14 21.5zM613.5 1598.5q2.5 5.5 31.5 29.5q12 12 33.5 19.5t38.5 -2.5l45 -41q12 -12 12 -23.5t4 -26.5l-9 -6q-9 -6 -19.5 -12t-19.5 -10t-11 -4q-10 4 -23.5 5 t-23.5 7l-23 20l-20 23q-18 16 -15.5 21.5z" />
<glyph unicode="&#xcc;" horiz-adv-x="847" d="M45 1214q-6 39 3 81t38 71q18 18 48 42t63.5 44.5t68.5 33.5t62 11q31 -2 61.5 -11t61 -19.5t61.5 -16.5t63 -2q8 0 25 4q10 29 27 49q23 23 52 36.5t58 27.5q31 14 53.5 14t12.5 -29t-37 -47t-57 -33q2 -37 10 -75.5t12 -73.5q8 -63 14.5 -125.5t8.5 -128.5 q2 -111 2 -221.5v-220.5q2 -102 -7.5 -212t-62.5 -202q-31 -51 -67.5 -83t-71.5 -54q-33 -20 -71 -42t-80 -35t-85 -16.5t-84 13.5q-35 12 -56 37.5t-29.5 56.5t-2.5 64.5t31 62.5q31 35 76 58.5t84 43.5q25 8 39 -3t21 -32.5t8 -48t1 -47.5q0 -2 -20 -10q-8 -4 -19 -10 q-16 25 -33.5 48.5t-39.5 35.5q-10 -37 -5 -76t29 -61q37 -33 87.5 -43.5t101.5 -1.5q55 63 78.5 145t29.5 171t3 178t-3 169q0 129 -10 256t-6 254q2 35 -1 80t1 88q-63 -33 -131 -41q-33 -4 -64.5 1t-63.5 14.5t-62.5 17.5t-61.5 10q-33 -57 -19 -113q10 -45 44 -74.5 t79 -19.5q18 16 37 32.5t41 31.5q4 4 9.5 6t9.5 6q-25 -18 -47.5 -40.5t-47 -43t-53.5 -36t-65 -19.5q-23 -4 -47.5 -3t-46 8t-37 23.5t-21.5 44.5zM264 1755q2 -2 8.5 5t10.5 7q57 -16 113.5 -53t99.5 -78q20 -18 39.5 -36.5t35.5 -40.5q16 -16 5 -24.5t-27 -18.5 q-6 -4 -12.5 -7.5t-12.5 -5.5q-18 -6 -21 -1t-16 18q-18 23 -37.5 42t-37.5 40q-37 37 -69 82t-79 71z" />
<glyph unicode="&#xcd;" horiz-adv-x="847" d="M45 1214q-6 39 3 81t38 71q18 18 48 42t63.5 44.5t68.5 33.5t62 11q31 -2 61.5 -11t61 -19.5t61.5 -16.5t63 -2q8 0 25 4q10 29 27 49q23 23 52 36.5t58 27.5q31 14 53.5 14t12.5 -29t-37 -47t-57 -33q2 -37 10 -75.5t12 -73.5q8 -63 14.5 -125.5t8.5 -128.5 q2 -111 2 -221.5v-220.5q2 -102 -7.5 -212t-62.5 -202q-31 -51 -67.5 -83t-71.5 -54q-33 -20 -71 -42t-80 -35t-85 -16.5t-84 13.5q-35 12 -56 37.5t-29.5 56.5t-2.5 64.5t31 62.5q31 35 76 58.5t84 43.5q25 8 39 -3t21 -32.5t8 -48t1 -47.5q0 -2 -20 -10q-8 -4 -19 -10 q-16 25 -33.5 48.5t-39.5 35.5q-10 -37 -5 -76t29 -61q37 -33 87.5 -43.5t101.5 -1.5q55 63 78.5 145t29.5 171t3 178t-3 169q0 129 -10 256t-6 254q2 35 -1 80t1 88q-63 -33 -131 -41q-33 -4 -64.5 1t-63.5 14.5t-62.5 17.5t-61.5 10q-33 -57 -19 -113q10 -45 44 -74.5 t79 -19.5q18 16 37 32.5t41 31.5q4 4 9.5 6t9.5 6q-25 -18 -47.5 -40.5t-47 -43t-53.5 -36t-65 -19.5q-23 -4 -47.5 -3t-46 8t-37 23.5t-21.5 44.5zM464.5 1534q-11.5 8 4.5 25q16 23 36 41l40 36q43 41 99 78t114 53q4 0 10 -7t8 -5q-47 -27 -78.5 -72t-68.5 -81 q-18 -20 -38 -40t-38 -42q-12 -12 -15 -17.5t-22 0.5q-6 2 -12 5t-12 8q-16 10 -27.5 18z" />
<glyph unicode="&#xce;" horiz-adv-x="847" d="M45 1214q-6 39 3 81t38 71q14 14 37.5 33.5t51.5 38t57.5 34t56.5 21.5q25 53 64.5 95t76.5 87q2 4 16.5 13.5t30 18.5t29.5 16.5t18 5.5q31 -10 51.5 -35t36.5 -49q18 -27 39 -51.5t39 -51.5l47 23q31 14 53.5 14t12.5 -29t-37 -47t-57 -33q2 -37 10 -75.5t12 -73.5 q8 -63 14.5 -125.5t8.5 -128.5q2 -111 2 -221.5v-220.5q2 -102 -7.5 -212t-62.5 -202q-31 -51 -67.5 -83t-71.5 -54q-33 -20 -71 -42t-80 -35t-85 -16.5t-84 13.5q-35 12 -56 37.5t-29.5 56.5t-2.5 64.5t31 62.5q31 35 76 58.5t84 43.5q25 8 39 -3t21 -32.5t8 -48t1 -47.5 q0 -2 -20 -10q-8 -4 -19 -10q-16 25 -33.5 48.5t-39.5 35.5q-10 -37 -5 -76t29 -61q37 -33 87.5 -43.5t101.5 -1.5q55 63 78.5 145t29.5 171t3 178t-3 169q0 129 -10 256t-6 254q2 35 -1 80t1 88q-63 -33 -131 -41q-33 -4 -64.5 1t-63.5 14.5t-62.5 17.5t-61.5 10 q-33 -57 -19 -113q10 -45 44 -74.5t79 -19.5q18 16 37 32.5t41 31.5q2 0 6 4q-23 -18 -44 -40t-44.5 -40t-50.5 -32.5t-61 -18.5q-23 -4 -47.5 -3t-46 8t-37 23.5t-21.5 44.5zM301 1495q6 2 13.5 2h13.5q31 -2 61.5 -11t61 -19.5t61.5 -16.5t63 -2q8 0 25 4l6 16q-4 -4 -4 0 q-23 18 -39 44t-32.5 52.5t-34 51t-39.5 43.5q-41 -41 -81 -80t-75 -84zM399 1272q3 4 11 8z" />
<glyph unicode="&#xcf;" horiz-adv-x="847" d="M45 1214q-6 39 3 81t38 71q18 18 48 42t63.5 44.5t68.5 33.5t62 11q31 -2 61.5 -11t61 -19.5t61.5 -16.5t63 -2q8 0 25 4q10 29 27 49q23 23 52 36.5t58 27.5q31 14 53.5 14t12.5 -29t-37 -47t-57 -33q2 -37 10 -75.5t12 -73.5q8 -63 14.5 -125.5t8.5 -128.5 q2 -111 2 -221.5v-220.5q2 -102 -7.5 -212t-62.5 -202q-31 -51 -67.5 -83t-71.5 -54q-33 -20 -71 -42t-80 -35t-85 -16.5t-84 13.5q-35 12 -56 37.5t-29.5 56.5t-2.5 64.5t31 62.5q31 35 76 58.5t84 43.5q25 8 39 -3t21 -32.5t8 -48t1 -47.5q0 -2 -20 -10q-8 -4 -19 -10 q-16 25 -33.5 48.5t-39.5 35.5q-10 -37 -5 -76t29 -61q37 -33 87.5 -43.5t101.5 -1.5q55 63 78.5 145t29.5 171t3 178t-3 169q0 129 -10 256t-6 254q2 35 -1 80t1 88q-63 -33 -131 -41q-33 -4 -64.5 1t-63.5 14.5t-62.5 17.5t-61.5 10q-33 -57 -19 -113q10 -45 44 -74.5 t79 -19.5q18 16 37 32.5t41 31.5q4 4 9.5 6t9.5 6q-25 -18 -47.5 -40.5t-47 -43t-53.5 -36t-65 -19.5q-23 -4 -47.5 -3t-46 8t-37 23.5t-21.5 44.5zM293 1598.5q2 5.5 31 29.5q14 12 35.5 19.5t35.5 -2.5q12 -10 23.5 -20.5t23.5 -20.5q10 -12 11.5 -23.5t3.5 -26.5l-9 -6 q-8 -6 -18 -12t-19.5 -10t-11.5 -4q-10 4 -23.5 5t-23.5 7l-22 20l-23 23q-16 16 -14 21.5zM478.5 1598.5q2.5 5.5 31.5 29.5q12 12 33.5 19.5t38.5 -2.5l45 -41q12 -12 12 -23.5t4 -26.5l-9 -6q-9 -6 -19.5 -12t-19.5 -10t-11 -4q-10 4 -23.5 5t-23.5 7l-23 20l-20 23 q-18 16 -15.5 21.5z" />
<glyph unicode="&#xd0;" horiz-adv-x="1329" d="M46 1137q13 82 61.5 156.5t113.5 117.5q147 92 303 123t324 -41q188 -78 298.5 -221.5t133.5 -347.5q8 -80 6 -163t-20.5 -164t-53 -155.5t-88.5 -138.5q-37 -45 -87 -87t-105 -78t-113.5 -64.5t-116.5 -44.5q-82 -25 -176 -25t-177 29.5t-145.5 91t-80.5 160.5 q-29 141 22.5 260t161.5 196l43 25q-41 2 -73.5 11t-28.5 34q2 0 4 2q2 0 3 1t3 1q57 16 112.5 24.5t112.5 12.5q-14 129 -21 255t34 251q0 2 8 6t17 9t17 9l9 4q25 -45 41 -109.5t26.5 -136t16.5 -146t8 -140.5q25 2 74 4t103 2t100.5 -4t62.5 -14q-4 2 -17.5 -6.5 t-30 -19.5t-31.5 -21.5t-21 -10.5q-12 -2 -46 -4t-72 -4t-72 -3t-46 -1v-12q33 -14 57.5 -36t36.5 -50q0 -2 -6 -4t-12 -6q-8 -4 -17 -11q-12 16 -26 30.5t-31 27.5v-144.5t-4 -144.5q-2 -59 -16.5 -122.5t-51.5 -113.5q-4 -4 -19 -10t-17 -10q-2 53 -21.5 104.5 t-19.5 106.5q-2 98 2 194.5t-6 196.5q-4 0 -9.5 1t-9.5 1h-6h-14q-10 -2 -22.5 -2t-29.5 -2q-31 -4 -57 -12q-35 -35 -56.5 -78t-30.5 -91t-8 -98.5t11 -95.5q29 -123 116 -204t214 -97q66 -10 130 -5t128 28q35 12 62.5 34.5t52.5 53.5q72 86 115.5 187t56.5 212 q16 135 -4.5 262t-78 235.5t-152.5 191.5t-228 132q-61 23 -130 38.5t-133.5 11t-120 -35t-87.5 -98.5q-25 -51 -42.5 -111.5t-19.5 -122t14.5 -119.5t59.5 -103q-2 2 -15.5 -9.5t-17.5 -9.5q-90 41 -118.5 117t-15.5 158z" />
<glyph unicode="&#xd1;" horiz-adv-x="1384" d="M42 216q-5 46 9 91q14 43 40 72t61 51q18 16 39.5 27.5t44.5 21.5q41 18 86 13t78.5 -29.5t48 -63.5t-4.5 -88q-16 -35 -34.5 -58.5t-53.5 -39.5q4 2 7.5 4t7.5 4q20 10 31.5 34t14.5 50.5t-4 52t-22 39.5q-84 76 -190 49q-23 -29 -29 -63.5t-1 -70.5t20.5 -70.5 t35.5 -61.5q45 -59 109.5 -81.5t132.5 -10.5q37 43 62.5 96.5t41 109.5t25.5 114.5t16 113.5q14 111 10.5 222.5t-15 222t-19.5 222t2 224.5q0 4 22.5 17.5t49 29t49 26.5t24.5 11q8 -6 34 -40t56.5 -74t56 -75.5t34.5 -45.5q35 -53 66.5 -107.5t62.5 -107.5v57.5t2 56.5 q0 23 -2.5 61t-1 77.5t8.5 74.5t29 51q33 23 70 43.5t72 36.5q29 12 59.5 9t58.5 8q-27 -10 -50 -27t-48 -29q-23 -12 -47 -18q-6 -33 -3 -67.5t1 -59.5q-2 -66 -5 -131.5t-5 -130.5q-4 -59 -10.5 -119.5t-12.5 -122.5q33 -72 58.5 -142.5t46.5 -148.5q25 -90 49 -192.5 t16 -196.5q-4 -33 -16 -55.5t-33 -38.5q-25 -25 -60.5 -42t-60.5 -30q-23 -10 -36 4.5t-21 42t-12 63.5t-4 70.5t1 61.5t1 35q4 88 -1.5 175t-15.5 175q-35 98 -82 190.5t-100 184.5q-37 66 -74 130t-84 124q6 -111 16.5 -221.5t13.5 -221t-9.5 -220t-48.5 -220.5 q-29 -76 -71 -137.5t-97 -95.5q-31 -16 -60.5 -35t-64.5 -37q-49 -25 -101.5 -36t-111.5 7q-43 14 -78 45t-55.5 73t-25.5 88zM784 1552q4 16 23 35h-4q4 0 8 4q29 25 63 35q76 23 150 -10q23 -10 44.5 -18.5t43.5 -12.5q10 12 17.5 24.5t17.5 26.5q2 4 15.5 12.5t15.5 6.5 q25 -12 12.5 -29.5t-31.5 -30.5l-2 -2q-8 -4 -20 -12q-23 -12 -45.5 -26.5t-44.5 -24.5q-41 -14 -77 -1t-71 32q-16 8 -34.5 18t-39.5 10q-6 -6 -18 -22q-4 -4 -12.5 -7.5t-10.5 -7.5zM1149 340q0 -39 1 -76t1 -74q2 -35 11 -73.5t32 -63.5q4 47 -5 95.5t-15 76.5 q-8 53 -25 115z" />
<glyph unicode="&#xd2;" horiz-adv-x="1153" d="M41 685q0 116 22.5 228.5t73.5 212t139 166.5q49 39 111 75t127.5 62.5t133 38t130.5 0.5q94 -16 167 -70.5t102 -150.5q23 -74 18.5 -145.5t-57.5 -126.5q16 -10 35.5 -26.5t25.5 -35.5q23 -68 34 -148.5t7 -163.5t-24.5 -161t-59.5 -139q-35 -55 -90 -103t-119.5 -86 t-134.5 -65t-133 -37q-98 -16 -178 -0.5t-146 92.5q-66 78 -108.5 171.5t-59.5 195.5q-16 100 -16 216zM185 730.5q-5 -148.5 42 -284.5q16 -47 42 -105t62 -111.5t82 -93.5t103 -48q59 -10 121.5 -3t122.5 26q47 12 70.5 39.5t52.5 68.5q53 96 69.5 201.5t3.5 214.5 q-4 45 -11 89t-7 89q0 33 8 61.5t12 59.5q-18 -16 -51 -39t-72.5 -41t-79.5 -29.5t-74 -6.5t-54.5 32t-20.5 82q0 31 13.5 71.5t37 77.5t56 59.5t71.5 16.5q-4 -2 -9 -7t-9 -5q-10 -2 -18.5 -3t-18.5 -5q-29 -33 -36 -82t16 -88q55 -84 149 -72q61 74 63.5 168t-59.5 182 q-68 96 -178.5 128t-222.5 1q-47 -10 -79 -34.5t-60 -67.5q-37 -59 -64 -123t-41 -133q-27 -137 -32 -285.5zM348 1714q4 2 9 7t10 5q57 -16 113.5 -53t99.5 -78q20 -18 39.5 -36.5t35.5 -40.5q16 -16 5 -24.5t-27 -18.5q-6 -4 -12.5 -7.5t-12.5 -5.5q-18 -6 -21 -1t-16 18 q-18 23 -37.5 42t-37.5 40q-37 37 -69 82t-79 71z" />
<glyph unicode="&#xd3;" horiz-adv-x="1153" d="M41 685q0 116 22.5 228.5t73.5 212t139 166.5q49 39 111 75t127.5 62.5t133 38t130.5 0.5q94 -16 167 -70.5t102 -150.5q23 -74 18.5 -145.5t-57.5 -126.5q16 -10 35.5 -26.5t25.5 -35.5q23 -68 34 -148.5t7 -163.5t-24.5 -161t-59.5 -139q-35 -55 -90 -103t-119.5 -86 t-134.5 -65t-133 -37q-98 -16 -178 -0.5t-146 92.5q-66 78 -108.5 171.5t-59.5 195.5q-16 100 -16 216zM185 730.5q-5 -148.5 42 -284.5q16 -47 42 -105t62 -111.5t82 -93.5t103 -48q59 -10 121.5 -3t122.5 26q47 12 70.5 39.5t52.5 68.5q53 96 69.5 201.5t3.5 214.5 q-4 45 -11 89t-7 89q0 33 8 61.5t12 59.5q-18 -16 -51 -39t-72.5 -41t-79.5 -29.5t-74 -6.5t-54.5 32t-20.5 82q0 31 13.5 73t37 77.5t56 58t73.5 16.5q-4 0 -10 -6t-10 -6q-10 -2 -18.5 -3t-18.5 -5q-29 -33 -36 -82t16 -88q55 -84 149 -72q61 74 63.5 168t-59.5 182 q-68 96 -178.5 128t-222.5 1q-47 -10 -79 -34.5t-60 -67.5q-37 -59 -64 -123t-41 -133q-27 -137 -32 -285.5zM425.5 1493q-11.5 8 4.5 25q16 23 36 41l40 36q43 41 99.5 78t113.5 53q4 0 10 -7t8 -5q-47 -27 -78.5 -72t-68.5 -81q-18 -20 -38 -40t-38 -42q-12 -12 -15 -17.5 t-22 0.5q-6 2 -12 5t-12 8q-16 10 -27.5 18z" />
<glyph unicode="&#xd4;" horiz-adv-x="1153" d="M41 685q0 116 22.5 228.5t73.5 212t139 166.5q43 33 96.5 66t111 58.5t116.5 41t119 15.5q-20 20 -36.5 44.5t-32 50t-33 49t-37.5 42.5q-41 -41 -81 -80t-75 -84q-2 -4 -7 -4t-7 -4q23 55 64.5 98t78.5 90q2 4 16.5 13.5t29.5 18.5t29.5 16.5t18.5 5.5q31 -10 51.5 -35 t36.5 -49q23 -31 46.5 -60t43.5 -59l-10 -6q-10 -7 -24.5 -15t-28.5 -17t-25 -15l41 -5q94 -16 167 -70.5t102 -150.5q23 -74 18.5 -145.5t-57.5 -126.5q16 -10 35.5 -26.5t25.5 -35.5q23 -68 34 -148.5t7 -163.5t-24.5 -161t-59.5 -139q-35 -55 -90 -103t-119.5 -86 t-134.5 -65t-133 -37q-98 -16 -178 -0.5t-146 92.5q-66 78 -108.5 171.5t-59.5 195.5q-16 100 -16 216zM185 730.5q-5 -148.5 42 -284.5q16 -47 42 -105t62 -111.5t82 -93.5t103 -48q59 -10 121.5 -3t122.5 26q47 12 70.5 39.5t52.5 68.5q53 96 69.5 201.5t3.5 214.5 q-4 45 -11 89t-7 89q0 33 8 61.5t12 59.5q-18 -16 -51 -39t-72.5 -41t-79.5 -29.5t-74 -6.5t-54.5 32t-20.5 82q0 31 13.5 71.5t37 77.5t56 59.5t71.5 16.5q-4 -2 -9 -7t-9 -5q-10 -2 -18.5 -3t-18.5 -5q-29 -33 -36 -82t16 -88q55 -84 149 -72q61 74 63.5 168t-59.5 182 q-68 96 -178.5 128t-222.5 1q-47 -10 -79 -34.5t-60 -67.5q-37 -59 -64 -123t-41 -133q-27 -137 -32 -285.5z" />
<glyph unicode="&#xd5;" horiz-adv-x="1153" d="M41 685q0 116 22.5 228.5t73.5 212t139 166.5q49 39 111 75t127.5 62.5t133 38t130.5 0.5q94 -16 167 -70.5t102 -150.5q23 -74 18.5 -145.5t-57.5 -126.5q16 -10 35.5 -26.5t25.5 -35.5q23 -68 34 -148.5t7 -163.5t-24.5 -161t-59.5 -139q-35 -55 -90 -103t-119.5 -86 t-134.5 -65t-133 -37q-98 -16 -178 -0.5t-146 92.5q-66 78 -108.5 171.5t-59.5 195.5q-16 100 -16 216zM185 730.5q-5 -148.5 42 -284.5q16 -47 42 -105t62 -111.5t82 -93.5t103 -48q59 -10 121.5 -3t122.5 26q47 12 70.5 39.5t52.5 68.5q53 96 69.5 201.5t3.5 214.5 q-4 45 -11 89t-7 89q0 33 8 61.5t12 59.5q-18 -16 -51 -39t-72.5 -41t-79.5 -29.5t-74 -6.5t-54.5 32t-20.5 82q0 31 13.5 73t37 77.5t56 58t73.5 16.5q-4 0 -10 -6t-10 -6q-10 -2 -18.5 -3t-18.5 -5q-29 -33 -36 -82t16 -88q55 -84 149 -72q61 74 63.5 168t-59.5 182 q-68 96 -178.5 128t-222.5 1q-47 -10 -79 -34.5t-60 -67.5q-37 -59 -64 -123t-41 -133q-27 -137 -32 -285.5zM369 1552q4 16 22 35h-4q4 0 8 4q29 25 64 35q76 23 149 -10q23 -10 44.5 -18.5t43.5 -12.5q10 12 17.5 24.5t17.5 26.5q2 4 15.5 12.5t15.5 6.5 q25 -12 12.5 -29.5t-31.5 -30.5l-2 -2q-8 -4 -20 -12q-23 -12 -45.5 -26.5t-44.5 -24.5q-41 -14 -77 -1t-71 32q-16 8 -34.5 18t-38.5 10q-6 -6 -19 -22q-4 -4 -12 -7.5t-10 -7.5z" />
<glyph unicode="&#xd6;" horiz-adv-x="1153" d="M41 685q0 116 22.5 228.5t73.5 212t139 166.5q49 39 111 75t127.5 62.5t133 38t130.5 0.5q94 -16 167 -70.5t102 -150.5q23 -74 18.5 -145.5t-57.5 -126.5q16 -10 35.5 -26.5t25.5 -35.5q23 -68 34 -148.5t7 -163.5t-24.5 -161t-59.5 -139q-35 -55 -90 -103t-119.5 -86 t-134.5 -65t-133 -37q-98 -16 -178 -0.5t-146 92.5q-66 78 -108.5 171.5t-59.5 195.5q-16 100 -16 216zM185 730.5q-5 -148.5 42 -284.5q16 -47 42 -105t62 -111.5t82 -93.5t103 -48q59 -10 121.5 -3t122.5 26q47 12 70.5 39.5t52.5 68.5q53 96 69.5 201.5t3.5 214.5 q-4 45 -11 89t-7 89q0 33 8 61.5t12 59.5q-18 -16 -51 -39t-72.5 -41t-79.5 -29.5t-74 -6.5t-54.5 32t-20.5 82q0 31 13.5 73t37 77.5t56 58t73.5 16.5q-4 0 -10 -6t-10 -6q-10 -2 -18.5 -3t-18.5 -5q-29 -33 -36 -82t16 -88q55 -84 149 -72q61 74 63.5 168t-59.5 182 q-68 96 -178.5 128t-222.5 1q-47 -10 -79 -34.5t-60 -67.5q-37 -59 -64 -123t-41 -133q-27 -137 -32 -285.5zM387 1598.5q2 5.5 31 29.5q14 12 35.5 19.5t35.5 -2.5q12 -10 23.5 -20.5t24.5 -20.5q10 -12 11 -23.5t3 -26.5l-8 -6t-18.5 -12t-19.5 -10t-11 -4q-10 4 -23.5 5 t-24.5 7l-22 20l-23 23q-16 16 -14 21.5zM572.5 1598.5q2.5 5.5 31.5 29.5q12 12 33.5 19.5t38.5 -2.5l45 -41q12 -12 12 -23.5t4 -26.5l-9 -6q-9 -6 -19.5 -12t-19.5 -10t-11 -4q-10 4 -23.5 5t-23.5 7l-23 20l-20 23q-18 16 -15.5 21.5z" />
<glyph unicode="&#xd7;" horiz-adv-x="464" d="M23 1010q-2 2 2 15t8 28q6 16 10 37q29 -2 54.5 -19.5t50 -40t46 -47.5t42.5 -43q2 0 2 -1t2 -1l4 4q12 10 37.5 39t54.5 58.5t55.5 52t38.5 20.5q-2 0 -6 -14.5t-8 -32.5t-8.5 -35.5t-6.5 -21.5q-35 -70 -92 -127q35 -27 68 -53.5t65 -55.5q6 -6 -2 -29.5t-19 -51 t-19.5 -50.5t-2.5 -25q-55 31 -105 74t-97 86q-41 -35 -80 -69.5t-74 -75.5q6 8 6 19.5t4 21.5q18 45 40 83t46 72q-41 39 -70.5 81t-45.5 102z" />
<glyph unicode="&#xd8;" horiz-adv-x="1153" d="M41 685q0 116 22.5 228.5t73.5 212t139 166.5q49 39 111 75t127.5 62.5t133 38t130.5 0.5q2 -2 10 -2q14 8 35 19.5t40.5 22l32.5 17.5t13 9q6 -12 -3 -42t-19 -58q57 -29 98 -75t62 -112q23 -74 18.5 -145.5t-57.5 -126.5q16 -10 35.5 -26.5t25.5 -35.5 q23 -68 34 -148.5t7 -163.5t-24.5 -161t-59.5 -139q-35 -55 -90 -103t-119.5 -86t-134.5 -65t-133 -37q-49 -8 -92 -9t-84 7q-16 -8 -32.5 -17t-33.5 -20q14 18 25 49q-57 25 -107 82q-66 78 -108.5 171.5t-59.5 195.5q-16 100 -16 216zM185 730q-5 -149 42 -284 q20 -61 57.5 -138t90.5 -136l55 178q25 86 45.5 170t44.5 170q23 72 45.5 140.5t44.5 138.5q6 39 25 78l35 104l67 201q-63 31 -134 36t-142 -14q-47 -10 -79 -34.5t-60 -67.5q-37 -59 -64 -123t-41 -133q-27 -137 -32 -286zM324 -14l4 4zM457 109q14 -8 28.5 -13.5 t30.5 -7.5q59 -10 121.5 -3t122.5 26q47 12 70.5 39.5t52.5 68.5q53 96 69.5 201.5t3.5 214.5q-4 45 -11 89t-7 89q0 33 8 61.5t12 59.5q-18 -16 -53 -39t-74.5 -42t-80.5 -29.5t-74 -4.5q-6 -23 -12.5 -43t-10.5 -43q-25 -98 -51.5 -195.5t-54.5 -195.5q-20 -59 -40 -119.5 t-50 -113.5zM719 950q55 -68 139 -55q61 74 63 168t-59 182q-8 10 -15 19.5t-16 17.5q-12 -35 -23 -68.5t-22 -68.5z" />
<glyph unicode="&#xd9;" horiz-adv-x="1536" d="M41.5 1109q7.5 85 58 162t126 136t145.5 90q59 27 119.5 30t108.5 -19.5t78 -69.5t28 -119q-2 -74 -14.5 -147.5t-28 -145.5t-28.5 -145.5t-16 -147.5q-4 -55 -6 -114.5t2 -118t17.5 -114.5t42.5 -105t73 -90t97 -70t112.5 -41t116.5 0q47 43 78 92t47 121q10 53 3 106.5 t-9 114.5q-10 135 -21.5 277.5t3.5 277.5q4 51 8 109.5t13 116t27.5 110.5t53.5 92q4 4 15.5 8t11.5 8q-6 -37 -5.5 -77.5t5 -82.5t8.5 -84t4 -79q0 -119 5 -235.5t9 -235.5q2 -35 6 -99.5t11.5 -140.5t19.5 -152.5t29.5 -135t42 -89t57.5 -14.5q-25 -14 -52.5 -27.5 t-54 -19.5t-52 2t-46.5 37q-35 43 -53 104q-20 -23 -44 -42t-50 -38q-18 -14 -43 -30.5t-52.5 -31.5t-54 -27.5t-51.5 -16.5q-47 -6 -98 0t-101.5 24.5t-94.5 47t-75 65.5q-57 74 -82.5 169t-28.5 197.5t10 204t32 187.5q10 53 25.5 111.5t26.5 119t12 118.5t-17 114 q-12 39 -40 61.5t-62.5 31.5t-73.5 7t-76 -12q-70 -63 -100.5 -150.5t-14.5 -181.5q6 -37 21.5 -69.5t39 -56t55.5 -34t69 -0.5q57 53 74.5 121t15.5 146l4 2q25 -72 7.5 -143.5t-79.5 -114.5q4 0 6 2q-4 -4 -8 -5.5t-8 -5.5q-2 0 -2 -1t-2 -1q-12 -8 -21 -12l-8 -4l-8 -4 q2 0 4 2q-29 -14 -61.5 -25.5t-64.5 -12.5t-61.5 9t-54.5 39q-68 80 -60.5 165zM737 1714q2 -2 8.5 5t10.5 7q57 -16 113.5 -53t99.5 -78q20 -18 39.5 -36.5t35.5 -40.5q16 -16 5 -24.5t-27 -18.5q-6 -4 -12 -7.5t-13 -5.5q-18 -6 -21 -1t-15 18q-18 23 -38 42t-38 40 q-37 37 -69 82t-79 71z" />
<glyph unicode="&#xda;" horiz-adv-x="1536" d="M41.5 1109q7.5 85 58 162t126 136t145.5 90q59 27 119.5 30t108.5 -19.5t78 -69.5t28 -119q-2 -74 -14.5 -147.5t-28 -145.5t-28.5 -145.5t-16 -147.5q-4 -55 -6 -114.5t2 -118t17.5 -114.5t42.5 -105t73 -90t97 -70t112.5 -41t116.5 0q47 43 78 92t47 121q10 53 3 106.5 t-9 114.5q-10 135 -21.5 277.5t3.5 277.5q4 51 8 109.5t13 116t27.5 110.5t53.5 92q4 4 15.5 8t11.5 8q-6 -37 -5.5 -77.5t5 -82.5t8.5 -84t4 -79q0 -119 5 -235.5t9 -235.5q2 -35 6 -99.5t11.5 -140.5t19.5 -152.5t29.5 -135t42 -89t57.5 -14.5q-25 -14 -52.5 -27.5 t-54 -19.5t-52 2t-46.5 37q-35 43 -53 104q-20 -23 -44 -42t-50 -38q-18 -14 -43 -30.5t-52.5 -31.5t-54 -27.5t-51.5 -16.5q-47 -6 -98 0t-101.5 24.5t-94.5 47t-75 65.5q-57 74 -82.5 169t-28.5 197.5t10 204t32 187.5q10 53 25.5 111.5t26.5 119t12 118.5t-17 114 q-12 39 -40 61.5t-62.5 31.5t-73.5 7t-76 -12q-70 -63 -100.5 -150.5t-14.5 -181.5q6 -37 21.5 -69.5t39 -56t55.5 -34t69 -0.5q57 53 74.5 121t15.5 146l4 2q25 -72 7.5 -143.5t-79.5 -114.5q4 0 6 2q-4 -4 -8 -5.5t-8 -5.5q-2 0 -2 -1t-2 -1q-12 -8 -21 -12l-8 -4l-8 -4 q2 0 4 2q-29 -14 -61.5 -25.5t-64.5 -12.5t-61.5 9t-54.5 39q-68 80 -60.5 165zM892.5 1493q-11.5 8 4.5 25q16 23 36 41l40 36q43 41 99 78t114 53q4 0 10 -7t8 -5q-47 -27 -78.5 -72t-68.5 -81q-18 -20 -38 -40t-38 -42q-12 -12 -15 -17.5t-22 0.5q-6 2 -12 5t-12 8 q-16 10 -27.5 18z" />
<glyph unicode="&#xdb;" horiz-adv-x="1536" d="M41.5 1109q7.5 85 58 162t126 136t145.5 90q59 27 119.5 30t108.5 -19.5t78 -69.5t28 -119q-2 -74 -14.5 -147.5t-28 -145.5t-28.5 -145.5t-16 -147.5q-4 -55 -6 -114.5t2 -118t17.5 -114.5t42.5 -105t73 -90t97 -70t112.5 -41t116.5 0q47 43 78 92t47 121q10 53 3 106.5 t-9 114.5q-10 135 -21.5 277.5t3.5 277.5q4 51 8 109.5t13 116t27.5 110.5t53.5 92q4 4 15.5 8t11.5 8q-6 -37 -5.5 -77.5t5 -82.5t8.5 -84t4 -79q0 -119 5 -235.5t9 -235.5q2 -35 6 -99.5t11.5 -140.5t19.5 -152.5t29.5 -135t42 -89t57.5 -14.5q-25 -14 -52.5 -27.5 t-54 -19.5t-52 2t-46.5 37q-35 43 -53 104q-20 -23 -44 -42t-50 -38q-18 -14 -43 -30.5t-52.5 -31.5t-54 -27.5t-51.5 -16.5q-47 -6 -98 0t-101.5 24.5t-94.5 47t-75 65.5q-57 74 -82.5 169t-28.5 197.5t10 204t32 187.5q10 53 25.5 111.5t26.5 119t12 118.5t-17 114 q-12 39 -40 61.5t-62.5 31.5t-73.5 7t-76 -12q-70 -63 -100.5 -150.5t-14.5 -181.5q6 -37 21.5 -69.5t39 -56t55.5 -34t69 -0.5q57 53 74.5 121t15.5 146l4 2q25 -72 7.5 -143.5t-79.5 -114.5q4 0 6 2q-4 -4 -8 -5.5t-8 -5.5q-2 0 -2 -1t-2 -1q-12 -8 -21 -12l-8 -4l-8 -4 q2 0 4 2q-29 -14 -61.5 -25.5t-64.5 -12.5t-61.5 9t-54.5 39q-68 80 -60.5 165zM758 1487q23 55 64.5 98t78.5 90q2 4 16.5 13.5t30 18.5t29.5 16.5t18 5.5q31 -10 51.5 -35t36.5 -49q23 -31 46.5 -60t44.5 -59q0 2 -15.5 -8.5t-34 -21.5t-34 -20.5t-17.5 -7.5 q-23 18 -39 44t-32.5 52.5t-34 51t-39.5 43.5q-41 -41 -81 -80t-75 -84q-2 -4 -7 -4t-7 -4z" />
<glyph unicode="&#xdc;" horiz-adv-x="1536" d="M41.5 1109q7.5 85 58 162t126 136t145.5 90q59 27 119.5 30t108.5 -19.5t78 -69.5t28 -119q-2 -74 -14.5 -147.5t-28 -145.5t-28.5 -145.5t-16 -147.5q-4 -55 -6 -114.5t2 -118t17.5 -114.5t42.5 -105t73 -90t97 -70t112.5 -41t116.5 0q47 43 78 92t47 121q10 53 3 106.5 t-9 114.5q-10 135 -21.5 277.5t3.5 277.5q4 51 8 109.5t13 116t27.5 110.5t53.5 92q4 4 15.5 8t11.5 8q-6 -37 -5.5 -77.5t5 -82.5t8.5 -84t4 -79q0 -119 5 -235.5t9 -235.5q2 -35 6 -99.5t11.5 -140.5t19.5 -152.5t29.5 -135t42 -89t57.5 -14.5q-25 -14 -52.5 -27.5 t-54 -19.5t-52 2t-46.5 37q-35 43 -53 104q-20 -23 -44 -42t-50 -38q-18 -14 -43 -30.5t-52.5 -31.5t-54 -27.5t-51.5 -16.5q-47 -6 -98 0t-101.5 24.5t-94.5 47t-75 65.5q-57 74 -82.5 169t-28.5 197.5t10 204t32 187.5q10 53 25.5 111.5t26.5 119t12 118.5t-17 114 q-12 39 -40 61.5t-62.5 31.5t-73.5 7t-76 -12q-70 -63 -100.5 -150.5t-14.5 -181.5q6 -37 21.5 -69.5t39 -56t55.5 -34t69 -0.5q57 53 74.5 121t15.5 146l4 2q25 -72 7.5 -143.5t-79.5 -114.5q4 0 6 2q-4 -4 -8 -5.5t-8 -5.5q-2 0 -2 -1t-2 -1q-12 -8 -21 -12l-8 -4l-8 -4 q2 0 4 2q-29 -14 -61.5 -25.5t-64.5 -12.5t-61.5 9t-54.5 39q-68 80 -60.5 165zM776.5 1598.5q1.5 5.5 30.5 29.5q14 12 36 19.5t36 -2.5q12 -10 23 -20.5t24 -20.5q10 -12 11 -23.5t3 -26.5l-8 -6t-18.5 -12t-19.5 -10t-11 -4q-10 4 -23.5 5t-23.5 7l-23 20l-22 23 q-16 16 -14.5 21.5zM962 1598.5q3 5.5 31 29.5q12 12 34 19.5t38 -2.5l45 -41q12 -12 12 -23.5t4 -26.5l-9 -6q-9 -6 -19.5 -12t-19.5 -10t-11 -4q-10 4 -23.5 5t-23.5 7l-23 20l-20 23q-18 16 -15 21.5z" />
<glyph unicode="&#xdd;" horiz-adv-x="1214" d="M42 1155q-1 51 16.5 98t58.5 80q47 37 98 65.5t102 57.5q27 14 70 30.5t88 23t86 -3t64 -42.5q31 -47 37 -101t-0.5 -111.5t-17.5 -113t-17 -106.5q-4 -37 -8.5 -77t-4.5 -80.5t8.5 -79.5t26.5 -72q29 -49 77 -75.5t101 -26.5q37 61 43.5 140t6.5 144q0 51 -1.5 100.5 t3.5 98.5q4 84 -1.5 165t-0.5 163q0 6 14 15t34.5 19.5t42 20.5t38.5 20q23 -176 18.5 -346t-14.5 -348q41 72 71.5 146.5t48.5 160.5q2 6 21.5 12.5t19.5 12.5q2 -53 -13 -104.5t-39.5 -100.5t-54.5 -97t-56 -91v-107.5t-2 -107.5q0 -43 -1 -99.5t-10.5 -113t-29 -106.5 t-58.5 -81q-41 -33 -85 -58.5t-91 -51.5q-23 -12 -51.5 -24.5t-60 -17.5t-61.5 -1t-50 26q-37 39 -33 84t27.5 89t59.5 84t65 69q41 41 86 75.5t86 75.5q18 18 33.5 38t29.5 40v33v4q-23 -12 -45 -23.5t-47 -19.5h-2h2q-41 -14 -83 -17t-79 7t-66.5 35.5t-45.5 72.5 q-31 86 -26 176.5t19 178.5q4 27 12.5 66.5t13.5 83.5t5 89t-10 82t-35.5 62.5t-71.5 29.5q-66 4 -122 -10t-91 -72q-10 -23 -21 -43t-15 -43q-10 -47 0 -105t35.5 -105.5t68.5 -73t100 -8.5q45 45 58.5 101t19.5 120q0 2 5 3t5 3q8 -66 -2 -127t-51 -86 q-27 -18 -64.5 -34.5t-78.5 -23t-79 3t-65 44.5q-29 37 -46 86t-18 100zM561 164q14 -66 64 -93.5t116 -13.5q25 4 40.5 18.5t26.5 34t17 43t11 48.5q18 86 22 171t4 171q-25 -29 -53.5 -57.5t-60.5 -57.5q-23 -18 -58 -49t-66.5 -67t-51 -74.5t-11.5 -73.5zM709.5 1493 q-11.5 8 5.5 25q16 23 36 41l40 36q43 41 99 78t114 53q4 0 10 -7t8 -5q-47 -27 -79 -72t-69 -81q-18 -20 -37.5 -40t-37.5 -42q-12 -12 -15.5 -17.5t-21.5 0.5q-6 2 -12.5 5t-12.5 8q-16 10 -27.5 18z" />
<glyph unicode="&#xde;" horiz-adv-x="722" d="M2 1280q2 47 10 93t31 87q0 2 11.5 9.5t23.5 14.5t23.5 12t13.5 5q29 -20 38 -67.5t9 -102.5t-5 -110.5t-5 -90.5t-1 -70.5t-1 -70.5q57 10 120.5 19.5t127 7.5t120.5 -19.5t103 -60.5q37 -35 62.5 -82t34.5 -97t-4.5 -99.5t-56.5 -88.5q-57 -49 -129.5 -92t-144.5 -67 q-49 -16 -99.5 -27.5t-103.5 -13.5h-35v-27q0 -88 -6 -168t-37 -164q0 -2 -8 -7t-17 -9t-15 -8l-7 -4q-25 37 -34 76.5t-10 80.5t0 84t-1 84q-6 98 -3 195.5t1 195.5q-4 98 -3 196.5t1 197.5q0 45 -3 93t-1 95zM147 473q70 -31 158 -24.5t158 24.5q51 12 83 53t32 99 q-2 96 -41 154.5t-99.5 92t-136.5 50t-151 26.5v-211q0 -66 -1.5 -132t-1.5 -132z" />
<glyph unicode="&#xdf;" horiz-adv-x="970" d="M0 467v182t2 182q2 68 5 148t16.5 159t44 149.5t90.5 117.5q37 29 83 55.5t95 44t100 20.5t99 -16q61 -25 103 -76t61.5 -115.5t12.5 -131t-46 -121.5q-14 -20 -40 -49t-49.5 -61.5t-38 -65.5t-6.5 -62q8 -31 35 -49t58.5 -29.5t65.5 -20.5t59 -21q61 -31 110 -81.5 t78 -112.5t33 -131t-27 -136q-18 -43 -51 -80t-73 -67.5t-85 -54.5t-88 -40q-39 -16 -102.5 -28.5t-126 -10.5t-112.5 24.5t-62 80.5q0 2 17.5 13t40 23.5t41.5 21.5l19 9q33 -37 78 -57.5t95.5 -27.5t103.5 -2t102 20q35 37 55.5 85t25.5 99t-4 103.5t-34 97.5 q-39 72 -97 117.5t-134 72.5q-18 6 -49 14.5t-58.5 22.5t-46 33.5t-12.5 48.5q14 63 57 113.5t78 103.5q31 49 39 107.5t-2 115.5q-10 59 -37.5 107.5t-69.5 79t-93.5 43t-106.5 4.5q-41 -51 -61.5 -118t-30.5 -137.5t-12.5 -141t-4.5 -130.5q-4 -104 -5 -205.5t-3 -205.5 q0 -123 -13 -235.5t-42 -235.5q0 -2 -9.5 -5.5t-9.5 -5.5q-35 115 -47 220.5t-14 228.5z" />
<glyph unicode="&#xe0;" horiz-adv-x="929" d="M44 657q-3 76 10.5 150t48 136.5t96.5 98.5q20 12 50 32t61.5 36t63.5 24.5t58 -1.5q68 -27 94 -91q0 8 8.5 16.5t20.5 14.5t24.5 11.5t20.5 9.5q4 -127 4 -252t19 -260q4 -33 16 -70t31.5 -67.5t46 -52t61.5 -23.5q29 41 41 88t29 102q2 4 13 8t11 6q23 -57 14 -114.5 t-63 -91.5q-23 -12 -47 -28.5t-50 -30t-54.5 -19.5t-55.5 2q-59 16 -91.5 56t-47.5 93q-14 -14 -29.5 -25.5t-31.5 -21.5q-18 -10 -45 -28.5t-56.5 -35t-58.5 -25.5t-53 1q-31 12 -54.5 36t-41 52.5t-28.5 61t-18 63.5q-14 63 -17 139zM104 1481q2 -2 8.5 5t10.5 7 q57 -16 113.5 -53t99.5 -78q20 -18 39.5 -36.5t36.5 -41.5q16 -16 5 -24.5t-28 -18.5q-6 -4 -12 -7t-12 -5q-18 -6 -21.5 -1t-15.5 17q-18 23 -38 42.5t-38 39.5q-37 37 -68.5 82t-79.5 72zM187.5 764q1.5 -53 7.5 -98q6 -35 18 -81t31.5 -89t49.5 -75t68 -34 q51 51 77 118.5t38 141.5t19.5 146.5t25.5 138.5q-16 35 -37.5 66.5t-56.5 48.5q-35 16 -76 20t-82 -4q-31 -39 -48 -89t-26.5 -103.5t-8 -106.5z" />
<glyph unicode="&#xe1;" horiz-adv-x="929" d="M44 657q-3 76 10.5 150t48 136.5t96.5 98.5q20 12 50 32t61.5 36t63.5 24.5t58 -1.5q68 -27 94 -91q0 8 8.5 16.5t20.5 14.5t24.5 11.5t20.5 9.5q4 -127 4 -252t19 -260q4 -33 16 -70t31.5 -67.5t46 -52t61.5 -23.5q29 41 41 88t29 102q2 4 13 8t11 6q23 -57 14 -114.5 t-63 -91.5q-23 -12 -47 -28.5t-50 -30t-54.5 -19.5t-55.5 2q-59 16 -91.5 56t-47.5 93q-14 -14 -29.5 -25.5t-31.5 -21.5q-18 -10 -45 -28.5t-56.5 -35t-58.5 -25.5t-53 1q-31 12 -54.5 36t-41 52.5t-28.5 61t-18 63.5q-14 63 -17 139zM187.5 764q1.5 -53 7.5 -98 q6 -35 18 -81t31.5 -89t49.5 -75t68 -34q51 51 77 118.5t38 141.5t19.5 146.5t25.5 138.5q-16 35 -37.5 66.5t-56.5 48.5q-35 16 -76 20t-82 -4q-31 -39 -48 -89t-26.5 -103.5t-8 -106.5zM201.5 1259.5q-11.5 8.5 5.5 24.5q16 23 36 41.5t40 36.5q43 41 99 78t114 53 q4 0 10 -7t8 -5q-47 -27 -79 -72t-68 -82q-18 -20 -38 -39.5t-38 -42.5q-12 -12 -15.5 -17t-21.5 1q-6 2 -12 5t-13 7q-16 10 -27.5 18.5z" />
<glyph unicode="&#xe2;" horiz-adv-x="929" d="M44 657q-3 76 10.5 150t48 136.5t96.5 98.5q20 12 50 32t61.5 36t63.5 24.5t58 -1.5q68 -27 94 -91q0 8 8.5 16.5t20.5 14.5t24.5 11.5t20.5 9.5q4 -127 4 -252t19 -260q4 -33 16 -70t31.5 -67.5t46 -52t61.5 -23.5q29 41 41 88t29 102q2 4 13 8t11 6q23 -57 14 -114.5 t-63 -91.5q-23 -12 -47 -28.5t-50 -30t-54.5 -19.5t-55.5 2q-59 16 -91.5 56t-47.5 93q-14 -14 -29.5 -25.5t-31.5 -21.5q-18 -10 -45 -28.5t-56.5 -35t-58.5 -25.5t-53 1q-31 12 -54.5 36t-41 52.5t-28.5 61t-18 63.5q-14 63 -17 139zM172 1200q23 55 65 98t78 91 q2 4 16.5 13t30 18.5t30 16.5t18.5 5q31 -10 51 -35t37 -49q23 -31 46 -59.5t44 -59.5q0 2 -15.5 -8t-34 -21.5t-34 -20.5t-17.5 -7q-23 18 -39 43.5t-32.5 52.5t-33.5 51.5t-40 42.5q-41 -41 -81 -80t-75 -84q-2 -4 -7 -4t-7 -4zM187.5 764q1.5 -53 7.5 -98q6 -35 18 -81 t31.5 -89t49.5 -75t68 -34q51 51 77 118.5t38 141.5t19.5 146.5t25.5 138.5q-16 35 -37.5 66.5t-56.5 48.5q-35 16 -76 20t-82 -4q-31 -39 -48 -89t-26.5 -103.5t-8 -106.5z" />
<glyph unicode="&#xe3;" horiz-adv-x="929" d="M44 657q-3 76 10.5 150t48 136.5t96.5 98.5q20 12 50 32t61.5 36t63.5 24.5t58 -1.5q68 -27 94 -91q0 8 8.5 16.5t20.5 14.5t24.5 11.5t20.5 9.5q4 -127 4 -252t19 -260q4 -33 16 -70t31.5 -67.5t46 -52t61.5 -23.5q29 41 41 88t29 102q2 4 13 8t11 6q23 -57 14 -114.5 t-63 -91.5q-23 -12 -47 -28.5t-50 -30t-54.5 -19.5t-55.5 2q-59 16 -91.5 56t-47.5 93q-14 -14 -29.5 -25.5t-31.5 -21.5q-18 -10 -45 -28.5t-56.5 -35t-58.5 -25.5t-53 1q-31 12 -54.5 36t-41 52.5t-28.5 61t-18 63.5q-14 63 -17 139zM143 1245q4 16 23 35h-4q4 0 8 4 q29 25 63 35q76 23 150 -10q23 -10 44.5 -18.5t43.5 -12.5q10 12 17.5 24.5t17.5 26.5q2 4 15.5 12.5t15.5 6.5q25 -12 12.5 -30t-31.5 -30l-2 -2q-8 -4 -20 -12q-23 -12 -45.5 -26.5t-44.5 -24.5q-41 -14 -77 -1t-71 31q-16 8 -34.5 18.5t-39.5 10.5q-6 -6 -18 -22 q-4 -4 -12.5 -7.5t-10.5 -7.5zM187.5 764q1.5 -53 7.5 -98q6 -35 18 -81t31.5 -89t49.5 -75t68 -34q51 51 77 118.5t38 141.5t19.5 146.5t25.5 138.5q-16 35 -37.5 66.5t-56.5 48.5q-35 16 -76 20t-82 -4q-31 -39 -48 -89t-26.5 -103.5t-8 -106.5z" />
<glyph unicode="&#xe4;" horiz-adv-x="929" d="M44 657q-3 76 10.5 150t48 136.5t96.5 98.5q20 12 50 32t61.5 36t63.5 24.5t58 -1.5q68 -27 94 -91q0 8 8.5 16.5t20.5 14.5t24.5 11.5t20.5 9.5q4 -127 4 -252t19 -260q4 -33 16 -70t31.5 -67.5t46 -52t61.5 -23.5q29 41 41 88t29 102q2 4 13 8t11 6q23 -57 14 -114.5 t-63 -91.5q-23 -12 -47 -28.5t-50 -30t-54.5 -19.5t-55.5 2q-59 16 -91.5 56t-47.5 93q-14 -14 -29.5 -25.5t-31.5 -21.5q-18 -10 -45 -28.5t-56.5 -35t-58.5 -25.5t-53 1q-31 12 -54.5 36t-41 52.5t-28.5 61t-18 63.5q-14 63 -17 139zM182.5 1291q1.5 5 30.5 30 q14 12 36 19t36 -3q12 -10 23 -20t24 -21q10 -12 11 -23t3 -26l-8 -6t-18.5 -12t-19.5 -10.5t-11 -4.5q-10 4 -23.5 5.5t-23.5 7.5l-23 20l-22 23q-16 16 -14.5 21zM187.5 764q1.5 -53 7.5 -98q6 -35 18 -81t31.5 -89t49.5 -75t68 -34q51 51 77 118.5t38 141.5t19.5 146.5 t25.5 138.5q-16 35 -37.5 66.5t-56.5 48.5q-35 16 -76 20t-82 -4q-31 -39 -48 -89t-26.5 -103.5t-8 -106.5zM368 1291q3 5 31 30q12 12 34 19.5t38 -3.5l45 -41q12 -12 12 -23t4 -26l-9 -6q-9 -6 -19 -12t-19.5 -10.5t-11.5 -4.5q-10 4 -23.5 5.5t-23.5 7.5l-23 20l-20 23 q-18 16 -15 21z" />
<glyph unicode="&#xe5;" horiz-adv-x="929" d="M44 657q-3 76 10.5 150t48 136.5t96.5 98.5q16 10 39.5 24.5t50.5 31.5q-14 14 -21 37q-12 10 -18 27.5t-2 39.5q6 29 23.5 47.5t39.5 34.5l4 4q6 4 11.5 6t9.5 6q6 2 12 5.5t14 7.5q2 0 3.5 1t3.5 1q23 12 46 19t45.5 6t41 -13t30.5 -41q10 -23 13.5 -50t-6.5 -52 q-10 -29 -30 -41.5t-42 -28.5q39 -25 59 -72q0 8 8.5 16.5t20.5 14.5t24.5 11.5t20.5 9.5q4 -127 4 -252t19 -260q4 -33 16 -70t31.5 -67.5t46 -52t61.5 -23.5q29 41 41 88t29 102q2 4 13 8t11 6q23 -57 14 -114.5t-63 -91.5q-23 -12 -47 -28.5t-50 -30t-54.5 -19.5t-55.5 2 q-59 16 -91.5 56t-47.5 93q-14 -14 -29.5 -25.5t-31.5 -21.5q-18 -10 -45 -28.5t-56.5 -35t-58.5 -25.5t-53 1q-31 12 -54.5 36t-41 52.5t-28.5 61t-18 63.5q-14 63 -17 139zM187.5 764q1.5 -53 7.5 -98q6 -35 18 -81t31.5 -89t49.5 -75t68 -34q51 51 77 118.5t38 141.5 t19.5 146.5t25.5 138.5q-16 35 -37.5 66.5t-56.5 48.5q-35 16 -76 20t-82 -4q-31 -39 -48 -89t-26.5 -103.5t-8 -106.5zM307 1204q2 0 2 1t2 1l2 2q14 -20 37 -39.5t51 -31.5q20 0 31 -4q4 -4 8 -5q4 6 5 13.5t4 17.5q2 27 -4.5 52.5t-20.5 45t-34.5 29.5t-47.5 6 q-16 -16 -27.5 -37.5t-7.5 -48.5v-2zM369 1315q0 4 4 4h-2l2 2q0 -2 -2 -2q-2 -2 -2 -4z" />
<glyph unicode="&#xe6;" horiz-adv-x="976" d="M44 657q-3 76 10.5 150t48 136.5t96.5 98.5q20 12 50 32t61.5 36t63.5 24.5t58 -1.5q68 -27 94 -91q0 8 8.5 16.5t20.5 14.5t24.5 11.5t20.5 9.5v-38t2 -42q31 33 68 67q23 23 58.5 41.5t70.5 21.5t62.5 -14.5t35.5 -66.5q10 -61 -10.5 -118.5t-61.5 -104.5t-96 -79 t-115 -44q4 -61 7 -96q2 -23 2 -39q-2 0 -2 -2q12 -49 36.5 -94.5t57.5 -74t71.5 -36.5t81.5 14q37 20 60.5 56t39 77t30 86t32.5 84l12 8q6 4 13 7q-2 -96 -29 -165t-69 -115t-94 -73.5t-105 -40.5q-57 -14 -101.5 -9t-77 24.5t-54 51.5t-33.5 71l-15 -11 q-14 -14 -29.5 -25.5t-31.5 -21.5q-18 -10 -45 -28.5t-56.5 -35t-58.5 -25.5t-53 1q-31 12 -54.5 36t-41 52.5t-28.5 61t-18 63.5q-14 63 -17 139zM187.5 764q1.5 -53 7.5 -98q6 -35 18 -81t31.5 -89t49.5 -75t68 -34q49 55 74 120.5t37 136.5t20.5 144.5t28.5 143.5 q-16 35 -37.5 66.5t-56.5 48.5q-35 16 -76 20t-82 -4q-31 -39 -48 -89t-26.5 -103.5t-8 -106.5zM610 793l4 -58q25 4 48.5 9.5t46.5 15.5q41 41 61.5 97t9.5 114q-6 35 -21 68.5t-46 43.5q-47 -59 -71 -136t-32 -154z" />
<glyph unicode="&#xe7;" horiz-adv-x="702" d="M45 571q-4 57 1 128t24.5 138.5t53.5 126t87 91.5q33 23 67.5 44t69.5 36q37 14 70 8t54.5 -28.5t29.5 -55.5t-2 -70q0 -2 -5.5 -3t-5.5 -3q-4 31 -24.5 50.5t-49 30.5t-63.5 14t-65 1q-33 -45 -54.5 -109.5t-29.5 -137t-5 -146.5t19 -137.5t45 -109.5t72 -62 q14 4 28.5 6t30.5 2q27 35 48.5 73t45 75.5t51 71.5t64.5 61q2 2 22.5 17t32.5 17q-29 -23 -44 -53.5t-25 -63t-22.5 -65.5t-35.5 -59q-20 -27 -36.5 -48.5t-44.5 -37.5q-45 -29 -73 -40t-45.5 -15.5t-28.5 -6.5t-21 -14q2 -12 10 -23q8 -14 14.5 -12t22.5 0q20 -4 38.5 -14 t32.5 -27q27 -35 21 -71.5t-43 -59.5q-25 -14 -47.5 -28.5t-45 -24.5t-47 -12t-51.5 10q4 -4 16.5 7t18.5 11q39 2 80 13q14 37 -8 75q-31 47 -82 54q-16 4 -23.5 2t-13.5 14q-31 53 10 84q-16 8 -37 29q-47 47 -71.5 114.5t-30.5 132.5zM319 70l17 4q33 10 23.5 13 t-40.5 -17zM657 700h2h-2zM657 700q0 2 2 2z" />
<glyph unicode="&#xe8;" horiz-adv-x="665" d="M41 592.5q-2 64.5 7 128t24 115.5q23 82 67.5 137t100.5 108q23 23 58.5 41.5t70 21.5t62.5 -14.5t36 -66.5q10 -61 -11.5 -119.5t-62.5 -105.5t-97 -79t-118 -42v-33.5t2 -34.5q2 -57 24.5 -115.5t58.5 -99.5t81 -56.5t94 11.5q37 20 60.5 56t39 77t30 86t32.5 84l12 8 q6 4 13 7q-2 -96 -29 -165t-69 -115t-94 -73.5t-105 -40.5q-82 -20 -136.5 -2.5t-87 58.5t-47 100t-16.5 123.5zM84 1481q2 -2 8 5t10 7q57 -16 113.5 -53t99.5 -78q20 -18 40 -36.5t36 -41.5q16 -16 5 -24.5t-27 -18.5q-6 -4 -12.5 -7t-12.5 -5q-18 -6 -21.5 -1t-15.5 17 q-18 23 -37.5 42.5t-38.5 39.5q-37 37 -68.5 82t-78.5 72zM178 735q27 4 51.5 9.5t49.5 15.5q41 41 61 97t10 114q-6 35 -21 68.5t-46 43.5q-57 -72 -79 -164t-26 -184z" />
<glyph unicode="&#xe9;" horiz-adv-x="665" d="M41 592.5q-2 64.5 7 128t24 115.5q23 82 67.5 137t100.5 108q23 23 58.5 41.5t70 21.5t62.5 -14.5t36 -66.5q10 -61 -11.5 -119.5t-62.5 -105.5t-97 -79t-118 -42v-33.5t2 -34.5q2 -57 24.5 -115.5t58.5 -99.5t81 -56.5t94 11.5q37 20 60.5 56t39 77t30 86t32.5 84l12 8 q6 4 13 7q-2 -96 -29 -165t-69 -115t-94 -73.5t-105 -40.5q-82 -20 -136.5 -2.5t-87 58.5t-47 100t-16.5 123.5zM178 735q27 4 51.5 9.5t49.5 15.5q41 41 61 97t10 114q-6 35 -21 68.5t-46 43.5q-57 -72 -79 -164t-26 -184zM201.5 1259.5q-11.5 8.5 5.5 24.5q16 23 36 41.5 t40 36.5q43 41 99 78t114 53q4 0 10 -7t8 -5q-47 -27 -79 -72t-68 -82q-18 -20 -38 -39.5t-38 -42.5q-12 -12 -15.5 -17t-21.5 1q-6 2 -12 5t-13 7q-16 10 -27.5 18.5z" />
<glyph unicode="&#xea;" horiz-adv-x="665" d="M41 592.5q-2 64.5 7 128t24 115.5q23 82 67.5 137t100.5 108q29 27 71.5 46.5t81.5 15.5q-33 41 -57.5 89t-63.5 79q-41 -41 -80.5 -80t-74.5 -84q-2 -4 -7.5 -4t-7.5 -4q23 55 65 98t79 90q2 4 16 13.5t29.5 18.5t30 16t18.5 5q31 -10 51.5 -34.5t36.5 -49.5 q23 -31 46.5 -59.5t43.5 -58.5l-9 -6q-9 -5 -21.5 -13t-27 -17t-24.5 -16q25 -25 31 -63q10 -61 -11.5 -119.5t-62.5 -105.5t-97 -79t-118 -42v-33.5t2 -34.5q2 -57 24.5 -115.5t58.5 -99.5t81 -56.5t94 11.5q37 20 60.5 56t39 77t30 86t32.5 84l12 8q6 4 13 7 q-2 -96 -29 -165t-69 -115t-94 -73.5t-105 -40.5q-82 -20 -136.5 -2.5t-87 58.5t-47 100t-16.5 123.5zM178 735q27 4 51.5 9.5t49.5 15.5q41 41 61 97t10 114q-6 35 -21 68.5t-46 43.5q-57 -72 -79 -164t-26 -184z" />
<glyph unicode="&#xeb;" horiz-adv-x="665" d="M41 592.5q-2 64.5 7 128t24 115.5q23 82 67.5 137t100.5 108q23 23 58.5 41.5t70 21.5t62.5 -14.5t36 -66.5q10 -61 -11.5 -119.5t-62.5 -105.5t-97 -79t-118 -42v-33.5t2 -34.5q2 -57 24.5 -115.5t58.5 -99.5t81 -56.5t94 11.5q37 20 60.5 56t39 77t30 86t32.5 84l12 8 q6 4 13 7q-2 -96 -29 -165t-69 -115t-94 -73.5t-105 -40.5q-82 -20 -136.5 -2.5t-87 58.5t-47 100t-16.5 123.5zM141.5 1291q1.5 5 30.5 30q14 12 36 19t36 -3q12 -10 23.5 -20t23.5 -21q10 -12 11 -23t3 -26l-8 -6t-18.5 -12t-19.5 -10.5t-11 -4.5q-10 4 -23.5 5.5 t-23.5 7.5l-23 20l-22 23q-16 16 -14.5 21zM178 735q27 4 51.5 9.5t49.5 15.5q41 41 61 97t10 114q-6 35 -21 68.5t-46 43.5q-57 -72 -79 -164t-26 -184zM327 1291q3 5 31 30q12 12 34 19.5t38 -3.5l45 -41q12 -12 12 -23t5 -26l-10 -6q-9 -6 -19 -12t-19.5 -10.5 t-11.5 -4.5q-10 4 -23.5 5.5t-23.5 7.5l-23 20l-20 23q-18 16 -15 21z" />
<glyph unicode="&#xec;" horiz-adv-x="479" d="M-80 1481q2 -2 8 5t11 7q57 -16 113.5 -53t99.5 -78q20 -18 39.5 -36.5t35.5 -41.5q16 -16 5 -24.5t-27 -18.5q-6 -4 -12.5 -7t-12.5 -5q-18 -6 -21 -1t-16 17q-18 23 -37.5 42.5t-37.5 39.5q-37 37 -69 82t-79 72zM43 602q2 55 2 100q2 55 6 110.5t10 109.5q2 12 5.5 48 t9.5 73.5t14 66.5t21 29q31 8 49 -20.5t26.5 -80t9.5 -115t-1 -123t-5.5 -106.5t-1.5 -65q4 -37 14.5 -80t29 -80t47 -60.5t69.5 -19.5q47 51 74 125q0 2 7 4t7 4q6 -59 -18.5 -91t-69.5 -58q-20 -12 -44.5 -26.5t-50.5 -25t-52.5 -12.5t-50.5 13q-47 25 -70 70.5t-31 100 t-6 109.5z" />
<glyph unicode="&#xed;" horiz-adv-x="479" d="M43 602q2 55 2 100q2 55 6 110.5t10 109.5q2 12 5.5 48t9.5 73.5t14 66.5t21 29q31 8 49 -20.5t26.5 -80t9.5 -115t-1 -123t-5.5 -106.5t-1.5 -65q4 -37 14.5 -80t29 -80t47 -60.5t69.5 -19.5q47 51 74 125q0 2 7 4t7 4q6 -59 -18.5 -91t-69.5 -58q-20 -12 -44.5 -26.5 t-50.5 -25t-52.5 -12.5t-50.5 13q-47 25 -70 70.5t-31 100t-6 109.5zM58.5 1259.5q-11.5 8.5 4.5 24.5q16 23 36 41.5t40 36.5q43 41 99.5 78t113.5 53q4 0 10.5 -7t8.5 -5q-47 -27 -79 -72t-69 -82q-18 -20 -37.5 -39.5t-38.5 -42.5q-12 -12 -15 -17t-21 1q-6 2 -12.5 5 t-12.5 7q-16 10 -27.5 18.5z" />
<glyph unicode="&#xee;" horiz-adv-x="479" d="M-61 1262q23 55 64.5 98t78.5 90q2 4 16.5 13.5t29.5 18.5t29.5 16t18.5 5q31 -10 51.5 -34.5t36.5 -49.5q23 -31 46.5 -59.5t43.5 -59.5q0 2 -15 -8t-33.5 -21t-34 -20.5t-17.5 -7.5q-23 18 -39 44t-32.5 52.5t-34 51t-39.5 43.5q-41 -41 -81 -80t-75 -84q-2 -4 -7 -4 t-7 -4zM43 602q2 55 2 100q2 55 6 110.5t10 109.5q2 12 5.5 48t9.5 73.5t14 66.5t21 29q31 8 49 -20.5t26.5 -80t9.5 -115t-1 -123t-5.5 -106.5t-1.5 -65q4 -37 14.5 -80t29 -80t47 -60.5t69.5 -19.5q47 51 74 125q0 2 7 4t7 4q6 -59 -18.5 -91t-69.5 -58 q-20 -12 -44.5 -26.5t-50.5 -25t-52.5 -12.5t-50.5 13q-47 25 -70 70.5t-31 100t-6 109.5z" />
<glyph unicode="&#xef;" horiz-adv-x="479" d="M-43 1291q2 5 31 30q14 12 35.5 19t35.5 -3q12 -10 23.5 -20t23.5 -21q10 -12 11.5 -23t3.5 -26l-9 -6q-8 -6 -18 -12t-19 -10.5t-12 -4.5q-10 4 -23 5.5t-24 7.5l-22 20l-23 23q-16 16 -14 21zM43 602q2 55 2 100q2 55 6 110.5t10 109.5q2 12 5.5 48t9.5 73.5t14 66.5 t21 29q31 8 49 -20.5t26.5 -80t9.5 -115t-1 -123t-5.5 -106.5t-1.5 -65q4 -37 14.5 -80t29 -80t47 -60.5t69.5 -19.5q47 51 74 125q0 2 7 4t7 4q6 -59 -18.5 -91t-69.5 -58q-20 -12 -44.5 -26.5t-50.5 -25t-52.5 -12.5t-50.5 13q-47 25 -70 70.5t-31 100t-6 109.5z M142.5 1291q2.5 5 31.5 30q12 12 33.5 19.5t38.5 -3.5l45 -41q12 -12 12 -23t4 -26l-9 -6q-9 -6 -19.5 -12t-19.5 -10.5t-11 -4.5q-10 4 -23.5 5.5t-23.5 7.5l-23 20l-20 23q-18 16 -15.5 21z" />
<glyph unicode="&#xf0;" d="M41 661.5q-4 83.5 22 161.5q29 86 72 146.5t107 126.5q0 14 4 18q10 29 22.5 50.5t28.5 43.5q-25 23 -42 49.5t-28 61.5q-2 2 6 24q4 8 7 23q35 -4 63.5 -36t50.5 -54h2q2 0 4 2q6 6 22.5 23.5l33 35t33 30.5t22.5 13l-3 -9t-5 -20.5t-5 -21.5t-3 -12q-20 -41 -56 -76 q20 -16 40 -32.5t40 -32.5q4 -4 -3 -21.5t-15 -36.5q20 -2 35.5 -17.5t25.5 -37t17.5 -46t11.5 -48.5q70 -4 113 6l30 24q4 4 15.5 8.5t15.5 8.5q-6 -14 -26.5 -29.5t-45 -29t-48 -23.5t-36.5 -16l-8 -5q12 -70 21.5 -140.5t3.5 -141.5q-12 -121 -87 -198t-175 -118 q-104 -45 -173 11.5t-92 173.5q-14 78 -18 161.5zM190 639q6 -45 18.5 -93t34 -89t55.5 -66.5t81 -23.5q53 72 66.5 164t3.5 180q-2 16 -7.5 67t-17.5 109q-47 4 -74 39t-24.5 64.5t2.5 68.5q0 4 11 11t25.5 14.5t28 13.5t19.5 8q-23 16 -42.5 34.5t-37.5 37.5 q-49 -37 -84 -78q4 2 11 5t7 5q2 -20 -16.5 -39.5t-26.5 -40.5q-12 -33 -19 -65.5t-11 -67.5q-20 -125 -3 -258zM451 1081h2h-2z" />
<glyph unicode="&#xf1;" horiz-adv-x="745" d="M41 299q0 199 1 397.5t1 399.5q12 6 24.5 13t22.5 13q16 -2 28.5 -17t22.5 -38q23 14 44.5 31.5t47.5 27.5q39 20 79 29.5t73 1.5t56.5 -35.5t33.5 -81.5q16 -90 16.5 -180t-4.5 -182q-2 -35 -1 -85t12.5 -98.5t38 -83t75.5 -36.5q23 27 39.5 56.5t28.5 64.5q2 4 12 6 t10 6q6 -37 -5 -63.5t-32.5 -47t-49 -36t-54.5 -29.5q-63 -35 -106 -26t-69 45t-36 89.5t-8 102.5q0 23 2 76t2 117.5t-6 132t-21.5 121.5t-43 86t-72.5 24q-16 -16 -28.5 -32.5t-22.5 -33.5q2 -8 3 -14t1 -12q16 -154 21 -317t-7 -318q0 -10 -20.5 -19.5t-45 -18.5 t-44 -18.5t-19.5 -17.5zM102 1245q4 16 23 35h-4q4 0 8 4q29 25 64 35q76 23 149 -10q23 -10 44.5 -18.5t43.5 -12.5q10 12 17.5 24.5t17.5 26.5q2 4 15.5 12.5t15.5 6.5q25 -12 12.5 -30t-31.5 -30l-2 -2q-8 -4 -20 -12q-23 -12 -45.5 -26.5t-44.5 -24.5q-41 -14 -77 -1 t-71 31q-16 8 -34.5 18.5t-39.5 10.5q-6 -6 -18 -22q-4 -4 -12.5 -7.5t-10.5 -7.5z" />
<glyph unicode="&#xf2;" d="M41 661.5q-4 83.5 22 161.5q29 88 73 148.5t108 126.5q4 2 13 6t9 6q2 -20 -16.5 -39.5t-26.5 -40.5q-12 -33 -19 -65.5t-11 -67.5q-20 -125 -3 -258q6 -45 18.5 -93t34 -89t55.5 -66.5t81 -23.5q53 72 66.5 164t3.5 180q-2 16 -7.5 67t-17.5 109q-47 4 -74 39 t-24.5 64.5t2.5 68.5q0 4 12 11t26.5 14.5t29 14.5t18.5 9q37 16 60.5 8t38.5 -31.5t23.5 -54.5t14.5 -61q70 -4 113 6l30 24q4 4 15.5 8.5t15.5 8.5q-6 -14 -26.5 -29.5t-45 -29t-48 -23.5t-36.5 -16q-8 -4 -8 -5q12 -70 21.5 -140.5t3.5 -141.5q-12 -121 -87 -198 t-175 -118q-104 -45 -173 11.5t-92 173.5q-14 78 -18 161.5zM104 1481q2 -2 8.5 5t10.5 7q57 -16 113.5 -53t99.5 -78q20 -18 39.5 -36.5t36.5 -41.5q16 -16 5 -24.5t-28 -18.5q-6 -4 -12 -7t-12 -5q-18 -6 -21.5 -1t-15.5 17q-18 23 -38 42.5t-38 39.5q-37 37 -68.5 82 t-79.5 72z" />
<glyph unicode="&#xf3;" d="M41 661.5q-4 83.5 22 161.5q29 88 73 148.5t108 126.5q4 2 13 6t9 6q2 -20 -16.5 -39.5t-26.5 -40.5q-12 -33 -19 -65.5t-11 -67.5q-20 -125 -3 -258q6 -45 18.5 -93t34 -89t55.5 -66.5t81 -23.5q53 72 66.5 164t3.5 180q-2 16 -7.5 67t-17.5 109q-47 4 -74 39 t-24.5 64.5t2.5 68.5q0 4 12 11t26.5 14.5t29 14.5t18.5 9q37 16 60.5 8t38.5 -31.5t23.5 -54.5t14.5 -61q70 -4 113 6l30 24q4 4 15.5 8.5t15.5 8.5q-6 -14 -26.5 -29.5t-45 -29t-48 -23.5t-36.5 -16q-8 -4 -8 -5q12 -70 21.5 -140.5t3.5 -141.5q-12 -121 -87 -198 t-175 -118q-104 -45 -173 11.5t-92 173.5q-14 78 -18 161.5zM222.5 1259.5q-11.5 8.5 4.5 24.5q16 23 36 41.5t40 36.5q43 41 99.5 78t113.5 53q4 0 10 -7t9 -5q-47 -27 -79 -72t-69 -82q-18 -20 -37.5 -39.5t-38.5 -42.5q-12 -12 -15 -17t-22 1q-6 2 -12 5t-12 7 q-16 10 -27.5 18.5z" />
<glyph unicode="&#xf4;" d="M41 661.5q-4 83.5 22 161.5q29 88 73 148.5t108 126.5q4 2 13 6t9 6q2 -20 -16.5 -39.5t-26.5 -40.5q-12 -33 -19 -65.5t-11 -67.5q-20 -125 -3 -258q6 -45 18.5 -93t34 -89t55.5 -66.5t81 -23.5q53 72 66.5 164t3.5 180q-2 16 -7.5 67t-17.5 109q-47 4 -74 39 t-24.5 64.5t2.5 68.5q0 4 12 11t26.5 14.5t29 14.5t18.5 9q37 16 60.5 8t38.5 -31.5t23.5 -54.5t14.5 -61q70 -4 113 6l30 24q4 4 15.5 8.5t15.5 8.5q-6 -14 -26.5 -29.5t-45 -29t-48 -23.5t-36.5 -16q-8 -4 -8 -5q12 -70 21.5 -140.5t3.5 -141.5q-12 -121 -87 -198 t-175 -118q-104 -45 -173 11.5t-92 173.5q-14 78 -18 161.5zM131 1180q23 55 65 98t78 90q2 4 16.5 13.5t30 18.5t30 16t18.5 5q31 -10 51 -34.5t37 -49.5q23 -31 46 -59.5t44 -58.5q0 2 -15.5 -8.5t-34 -21.5t-33.5 -20.5t-18 -7.5q-23 18 -39 44t-32.5 52.5t-33.5 51 t-40 43.5q-41 -41 -81 -80t-75 -84q-2 -4 -7 -4t-7 -4z" />
<glyph unicode="&#xf5;" d="M41 661.5q-4 83.5 22 161.5q29 88 73 148.5t108 126.5q4 2 13 6t9 6q2 -20 -16.5 -39.5t-26.5 -40.5q-12 -33 -19 -65.5t-11 -67.5q-20 -125 -3 -258q6 -45 18.5 -93t34 -89t55.5 -66.5t81 -23.5q53 72 66.5 164t3.5 180q-2 16 -7.5 67t-17.5 109q-47 4 -74 39 t-24.5 64.5t2.5 68.5q0 4 12 11t26.5 14.5t29 14.5t18.5 9q37 16 60.5 8t38.5 -31.5t23.5 -54.5t14.5 -61q70 -4 113 6l30 24q4 4 15.5 8.5t15.5 8.5q-6 -14 -26.5 -29.5t-45 -29t-48 -23.5t-36.5 -16q-8 -4 -8 -5q12 -70 21.5 -140.5t3.5 -141.5q-12 -121 -87 -198 t-175 -118q-104 -45 -173 11.5t-92 173.5q-14 78 -18 161.5zM143 1204q4 16 23 35h-4q4 0 8 4q29 25 63 35q76 23 150 -10q23 -10 44.5 -18.5t43.5 -12.5q10 12 17.5 24.5t17.5 26.5q2 4 15.5 12.5t15.5 6.5q25 -12 12.5 -29.5t-31.5 -30.5l-2 -2q-8 -4 -20 -12 q-23 -12 -45.5 -26.5t-44.5 -24.5q-41 -14 -77 -1t-71 31q-16 8 -34.5 18.5t-39.5 10.5q-6 -6 -18 -22q-4 -4 -12.5 -7.5t-10.5 -7.5z" />
<glyph unicode="&#xf6;" d="M41 661.5q-4 83.5 22 161.5q29 88 73 148.5t108 126.5q4 2 13 6t9 6q2 -20 -16.5 -39.5t-26.5 -40.5q-12 -33 -19 -65.5t-11 -67.5q-20 -125 -3 -258q6 -45 18.5 -93t34 -89t55.5 -66.5t81 -23.5q53 72 66.5 164t3.5 180q-2 16 -7.5 67t-17.5 109q-47 4 -74 39 t-24.5 64.5t2.5 68.5q0 4 12 11t26.5 14.5t29 14.5t18.5 9q37 16 60.5 8t38.5 -31.5t23.5 -54.5t14.5 -61q70 -4 113 6l30 24q4 4 15.5 8.5t15.5 8.5q-6 -14 -26.5 -29.5t-45 -29t-48 -23.5t-36.5 -16q-8 -4 -8 -5q12 -70 21.5 -140.5t3.5 -141.5q-12 -121 -87 -198 t-175 -118q-104 -45 -173 11.5t-92 173.5q-14 78 -18 161.5zM162 1270.5q2 5.5 31 29.5q14 12 35.5 19.5t35.5 -2.5q12 -10 23.5 -20.5t23.5 -20.5q10 -12 11.5 -23.5t3.5 -25.5l-8 -7q-9 -6 -19 -12t-19.5 -10t-11.5 -4q-10 4 -23.5 5t-23.5 7l-22 21l-23 22 q-16 16 -14 21.5zM347 1270.5q3 5.5 32 29.5q12 12 33.5 19.5t38.5 -2.5l45 -41q12 -12 12 -23.5t4 -25.5l-9 -7q-9 -6 -19.5 -12t-19.5 -10t-11 -4q-10 4 -23.5 5t-23.5 7l-23 21l-21 22q-18 16 -15 21.5z" />
<glyph unicode="&#xf7;" horiz-adv-x="630" d="M23 893q2 0 4 2q2 0 3 1t3 1q90 29 175 34t179 5q23 0 53.5 3t62.5 4t60.5 -3t46.5 -16q-4 2 -17 -6.5t-29.5 -19.5t-32 -21.5t-21.5 -10.5q-66 -14 -133.5 -14h-134.5q-12 0 -49 -2t-76 0t-69 11t-25 32zM198.5 630q4.5 9 45.5 44q18 16 48.5 27t53.5 -5 q16 -14 32.5 -28.5t33.5 -30.5q16 -16 17 -32.5t5 -39.5l-12 -8t-27.5 -17.5t-29 -15.5t-15.5 -6q-16 4 -34.5 7t-32.5 14q-8 6 -15.5 13t-17.5 15l-31 31q-25 23 -20.5 32zM199 1176.5q2 7.5 13 16.5t32 26q18 16 48.5 27t53.5 -5q16 -14 32.5 -28.5t33.5 -30.5 q16 -16 17 -32.5t5 -39.5l-12 -8q-12 -8 -27.5 -17.5t-29 -15.5t-15.5 -6q-16 4 -34.5 7t-32.5 13l-15.5 15.5t-17.5 15.5q-8 6 -15.5 13.5l-15.5 15.5q-12 12 -17 19t-3 14.5z" />
<glyph unicode="&#xf8;" d="M41 661.5q-4 83.5 22 161.5q29 88 73 148.5t108 126.5q4 2 13 6t9 6q2 -20 -16.5 -39.5t-26.5 -40.5q-12 -33 -19 -65.5t-11 -67.5q-20 -125 -3 -258q6 -53 23 -113q10 35 19.5 70t19.5 70l88 274q-16 29 -14 56.5t2 62.5q0 4 22.5 16t40.5 23l17 43q4 10 6 23.5t8 23.5 q2 0 2 2l2 4q2 2 17.5 11t33 18.5t30.5 16.5l13 7q4 -6 0 -20.5t-10 -31.5t-12 -32.5t-9 -21.5l-10 -29q35 -14 49.5 -57t22.5 -86q70 -4 113 6l30 24q4 4 15.5 8.5t15.5 8.5q-6 -14 -26.5 -29.5t-45 -29t-48 -23.5t-36.5 -16l-8 -5q12 -70 21.5 -140.5t3.5 -141.5 q-12 -121 -87 -198t-175 -118q-29 -12 -53.5 -16t-47.5 -2q-4 -10 -9 -19.5t-11 -19.5q-8 -14 -19.5 -29.5t-21.5 -25.5q2 0 -10 -6l-48 -27q16 16 21.5 46t11.5 48l19 58q-74 51 -97 178q-14 78 -18 161.5zM117 180l6 4l-4 -2q-2 0 -2 -2zM268 418q43 -53 111 -51 q53 72 66.5 164t3.5 180q-2 16 -7.5 67.5t-17.5 108.5q-14 0 -21 2q-16 -47 -32.5 -95.5t-26.5 -97.5q-16 -68 -34.5 -136t-39.5 -134q-2 -2 -2 -8z" />
<glyph unicode="&#xf9;" horiz-adv-x="753" d="M23 1481q2 -2 8 5t10 7q57 -16 113.5 -53t99.5 -78q20 -18 39.5 -36.5t36.5 -41.5q16 -16 5 -24.5t-28 -18.5q-6 -4 -12 -7t-12 -5q-18 -6 -21.5 -1t-15.5 17q-18 23 -38 42.5t-38 39.5q-37 37 -68.5 82t-78.5 72zM41 750q0 94 2 188t10 186q0 2 14.5 11.5t16.5 7.5 q57 -29 79.5 -88.5t29 -129t2 -140t0.5 -121.5q2 -45 7 -103.5t21.5 -108t49 -79t92.5 -17.5q10 10 22 27q-27 51 -33 111.5t-8 117.5q0 129 9.5 256t52.5 250q0 2 7 6t14 8.5t13 7.5l7 3q31 -61 38 -132t7 -142.5t-3.5 -144.5t5.5 -140q2 -25 9 -69t21.5 -86t38 -71.5 t60.5 -25.5q27 29 41 62.5t24 72.5q0 4 10.5 6t10.5 6q2 -66 -27 -106.5t-86 -65.5q-25 -12 -50.5 -18t-53.5 4q-59 20 -91 67q-33 -25 -73.5 -41t-81.5 -22t-77 0t-56 29q-35 37 -44.5 77.5t-13.5 90.5q-4 66 -10 129t-6 127z" />
<glyph unicode="&#xfa;" horiz-adv-x="753" d="M41 750q0 94 2 188t10 186q0 2 14.5 11.5t16.5 7.5q57 -29 79.5 -88.5t29 -129t2 -140t0.5 -121.5q2 -45 7 -103.5t21.5 -108t49 -79t92.5 -17.5q10 10 22 27q-27 51 -33 111.5t-8 117.5q0 129 9.5 256t52.5 250q0 2 7 6t14 8.5t13 7.5l7 3q31 -61 38 -132t7 -142.5 t-3.5 -144.5t5.5 -140q2 -25 9 -69t21.5 -86t38 -71.5t60.5 -25.5q27 29 41 62.5t24 72.5q0 4 10.5 6t10.5 6q2 -66 -27 -106.5t-86 -65.5q-25 -12 -50.5 -18t-53.5 4q-59 20 -91 67q-33 -25 -73.5 -41t-81.5 -22t-77 0t-56 29q-35 37 -44.5 77.5t-13.5 90.5q-4 66 -10 129 t-6 127zM201.5 1259.5q-11.5 8.5 5.5 24.5q16 23 36 41.5t40 36.5q43 41 99 78t114 53q4 0 10 -7t8 -5q-47 -27 -79 -72t-68 -82q-18 -20 -38 -39.5t-38 -42.5q-12 -12 -15.5 -17t-21.5 1q-6 2 -12 5t-13 7q-16 10 -27.5 18.5z" />
<glyph unicode="&#xfb;" horiz-adv-x="753" d="M41 750q0 94 2 188t10 186q0 2 14.5 11.5t16.5 7.5q57 -29 79.5 -88.5t29 -129t2 -140t0.5 -121.5q2 -45 7 -103.5t21.5 -108t49 -79t92.5 -17.5q10 10 22 27q-27 51 -33 111.5t-8 117.5q0 129 9.5 256t52.5 250q0 2 7 6t14 8.5t13 7.5l7 3q31 -61 38 -132t7 -142.5 t-3.5 -144.5t5.5 -140q2 -25 9 -69t21.5 -86t38 -71.5t60.5 -25.5q27 29 41 62.5t24 72.5q0 4 10.5 6t10.5 6q2 -66 -27 -106.5t-86 -65.5q-25 -12 -50.5 -18t-53.5 4q-59 20 -91 67q-33 -25 -73.5 -41t-81.5 -22t-77 0t-56 29q-35 37 -44.5 77.5t-13.5 90.5q-4 66 -10 129 t-6 127zM111 1200q23 55 64.5 98t78.5 91q2 4 16.5 13t29.5 18.5t29.5 16.5t18.5 5q31 -10 51.5 -35t36.5 -49q23 -31 46.5 -59.5t43.5 -59.5q0 2 -15 -8t-33.5 -21.5t-34 -20.5t-17.5 -7q-23 18 -39 43.5t-32.5 52.5t-34 51.5t-39.5 42.5q-41 -41 -81 -80t-75 -84 q-2 -4 -7 -4t-7 -4z" />
<glyph unicode="&#xfc;" horiz-adv-x="753" d="M41 750q0 94 2 188t10 186q0 2 14.5 11.5t16.5 7.5q57 -29 79.5 -88.5t29 -129t2 -140t0.5 -121.5q2 -45 7 -103.5t21.5 -108t49 -79t92.5 -17.5q10 10 22 27q-27 51 -33 111.5t-8 117.5q0 129 9.5 256t52.5 250q0 2 7 6t14 8.5t13 7.5l7 3q31 -61 38 -132t7 -142.5 t-3.5 -144.5t5.5 -140q2 -25 9 -69t21.5 -86t38 -71.5t60.5 -25.5q27 29 41 62.5t24 72.5q0 4 10.5 6t10.5 6q2 -66 -27 -106.5t-86 -65.5q-25 -12 -50.5 -18t-53.5 4q-59 20 -91 67q-33 -25 -73.5 -41t-81.5 -22t-77 0t-56 29q-35 37 -44.5 77.5t-13.5 90.5q-4 66 -10 129 t-6 127zM100.5 1291q1.5 5 30.5 30q14 12 36 19t36 -3q12 -10 23.5 -20t23.5 -21q10 -12 11 -23t3 -26l-8 -6t-18.5 -12t-19.5 -10.5t-11 -4.5q-10 4 -23.5 5.5t-23.5 7.5l-23 20l-22 23q-16 16 -14.5 21zM286 1291q3 5 31 30q12 12 34 19.5t38 -3.5l45 -41q12 -12 12 -23 t5 -26l-9 -6l-20 -12t-19.5 -10.5t-11.5 -4.5q-10 4 -23.5 5.5t-23.5 7.5l-22 20l-21 23q-18 16 -15 21z" />
<glyph unicode="&#xfd;" horiz-adv-x="737" d="M43 -223q-4 94 20.5 163.5t72.5 124t117 97.5t148 84q4 39 6.5 77.5t4.5 77.5q-27 -23 -60 -43t-64.5 -33.5t-61 -17.5t-52.5 6q-51 25 -74.5 71t-31 99.5t-3 110.5t8.5 104q6 59 9 117.5t5 118.5q0 8 1 25.5t0 35t-4 32.5t-11 22q4 -2 11 5t11 7q47 8 69.5 -32t30 -97.5 t7.5 -114.5v-84q0 -39 4 -98.5t17.5 -115.5t41 -96t76.5 -40q33 41 49.5 88t26.5 98q10 129 20.5 263.5t-10.5 269.5q0 4 25.5 18.5t48.5 24.5q6 4 22 12q20 -35 28.5 -77t9.5 -86t-3 -88t-6 -83q-4 -61 -12.5 -123.5t-17.5 -125t-14 -126t1 -124.5q47 41 86 89.5t68 114.5 q2 4 16 9.5t14 9.5q4 -41 -10 -77t-40 -65.5t-60.5 -55t-73.5 -48.5l6 -190q2 -47 3 -101.5t-5 -110t-22.5 -105.5t-51.5 -87q-35 -39 -78 -63.5t-90 -46.5q-49 -25 -89 -19t-70.5 33t-49 71t-20.5 95zM111 -152q4 -96 64.5 -155t148.5 -49q47 61 63 135t17.5 152.5 t-3 157.5t-0.5 153q-55 -29 -108 -66t-95 -86t-67 -109.5t-20 -132.5zM201.5 1177.5q-11.5 8.5 5.5 24.5q16 23 36 41.5t40 36.5q43 41 99 78t114 53q4 0 10 -7t8 -5q-47 -27 -79 -72t-68 -82q-18 -20 -38 -39.5t-38 -42.5q-12 -12 -15.5 -17t-21.5 1q-6 2 -12 5t-13 7 q-16 10 -27.5 18.5z" />
<glyph unicode="&#xfe;" horiz-adv-x="745" d="M2 1280q2 47 10 93t31 87q2 2 12.5 9.5t23.5 14.5t23.5 12t12.5 5q29 -20 38 -67.5t9 -102.5t-5 -110.5t-5 -90.5q0 -49 -1 -99t-1 -101q41 55 98 97t125 77q33 16 70.5 28.5t75.5 15.5t75 -8.5t68 -39.5q55 -55 71.5 -131t9.5 -150q-6 -66 -23.5 -135.5t-64.5 -118.5 q-35 -37 -79 -61.5t-87 -48.5q-41 -23 -96 -30t-106 21q-33 18 -69 45t-71 60v-104.5t-2 -104.5q0 -88 -6 -168t-37 -164q0 -2 -8 -7t-17 -9t-15 -8l-7 -4q-25 37 -34 76.5t-10 80.5t0 84t-1 84q-6 98 -3 195.5t1 195.5q-4 98 -3 196.5t1 197.5q0 45 -3 93t-1 95zM150 778 q43 -27 87 -75t89 -94t93 -78.5t103 -32.5q33 45 53.5 104.5t26.5 121.5t-3 121.5t-34 104.5q-41 70 -89 95.5t-97 19.5t-96 -41t-84 -86l-49 -68v-92z" />
<glyph unicode="&#xff;" horiz-adv-x="737" d="M43 -223q-4 94 20.5 163.5t72.5 124t117 97.5t148 84q4 39 6.5 77.5t4.5 77.5q-27 -23 -60 -43t-64.5 -33.5t-61 -17.5t-52.5 6q-51 25 -74.5 71t-31 99.5t-3 110.5t8.5 104q6 59 9 117.5t5 118.5q0 8 1 25.5t0 35t-4 32.5t-11 22q4 -2 11 5t11 7q47 8 69.5 -32t30 -97.5 t7.5 -114.5v-84q0 -39 4 -98.5t17.5 -115.5t41 -96t76.5 -40q33 41 49.5 88t26.5 98q10 129 20.5 263.5t-10.5 269.5q0 4 25.5 18.5t48.5 24.5q6 4 22 12q20 -35 28.5 -77t9.5 -86t-3 -88t-6 -83q-4 -61 -12.5 -123.5t-17.5 -125t-14 -126t1 -124.5q47 41 86 89.5t68 114.5 q2 4 16 9.5t14 9.5q4 -41 -10 -77t-40 -65.5t-60.5 -55t-73.5 -48.5l6 -190q2 -47 3 -101.5t-5 -110t-22.5 -105.5t-51.5 -87q-35 -39 -78 -63.5t-90 -46.5q-49 -25 -89 -19t-70.5 33t-49 71t-20.5 95zM102.5 1270.5q1.5 5.5 30.5 29.5q14 12 36 19.5t36 -2.5 q12 -10 23.5 -20.5t23.5 -20.5q10 -12 11 -23.5t3 -25.5l-8 -7q-8 -6 -18.5 -12t-19.5 -10t-11 -4q-10 4 -23.5 5t-23.5 7l-23 21l-22 22q-16 16 -14.5 21.5zM111 -152q4 -96 64.5 -155t148.5 -49q47 61 63 135t17.5 152.5t-3 157.5t-0.5 153q-55 -29 -108 -66t-95 -86 t-67 -109.5t-20 -132.5zM288 1270.5q3 5.5 31 29.5q12 12 34 19.5t38 -2.5l45 -41q12 -12 12.5 -23.5t4.5 -25.5l-9 -7l-20 -12t-19.5 -10t-11.5 -4q-10 4 -23.5 5t-23.5 7l-22 21l-21 22q-18 16 -15 21.5z" />
<glyph unicode="&#x152;" horiz-adv-x="1959" d="M20.5 685q-0.5 116 22.5 228.5t74 212t139 166.5q49 39 110.5 75t127 62.5t133 38t131.5 0.5q94 -16 166.5 -70.5t101.5 -150.5q23 -74 18.5 -145.5t-57.5 -126.5q16 -10 35.5 -26.5t26.5 -35.5q35 -111 41 -237q51 41 110.5 70.5t124.5 52.5q-47 12 -86 37 q-43 29 -64.5 59.5t-37.5 75.5q-10 6 -14.5 24.5t-6.5 37t-2 33.5v17q-2 86 39 161t119 124q49 31 101 62.5t108 52.5q31 12 77 21t90 6t79.5 -22.5t48.5 -66.5q18 -70 0.5 -127t-57.5 -105t-97 -85t-119 -64q-51 -23 -101 -36t-95 -21q66 -53 136 -83t165 -42 q-16 2 -34 -10t-36 -27.5t-35.5 -29t-34.5 -13.5q-59 0 -120 13q-135 -16 -212 -105.5t-67 -224.5q0 -47 9 -91t32 -85q33 -61 107.5 -112.5t161.5 -73t171 -6t136 86.5q16 23 32.5 46.5t26.5 49.5q23 49 40 104.5t13 111.5q-6 86 -59 133t-129 37q-53 -53 -91 -121 t-77 -129q-4 -4 -12.5 -7.5t-10.5 -7.5q29 63 46.5 108.5t41 81.5t60 64.5t104.5 61.5q53 27 108.5 35t98.5 -33q39 -37 51.5 -90.5t6 -110.5t-27 -111.5t-44.5 -93.5q-45 -70 -113 -118t-143 -89q-92 -53 -205 -77.5t-217 0.5q-82 18 -144.5 73.5t-93.5 130.5 q-41 -41 -91 -77.5t-106.5 -65.5t-113.5 -48.5t-109 -27.5q-98 -16 -178 -0.5t-145 92.5q-66 78 -109 171.5t-59 195.5q-16 100 -16.5 216zM165 730.5q-5 -148.5 42 -284.5q16 -47 41.5 -105t61.5 -111.5t82 -93.5t104 -48q59 -10 121.5 -3t121.5 26q47 12 70.5 39.5 t52.5 68.5q47 88 66 184l4 25q16 106 4 207q-4 45 -11 89t-7 89q0 33 8 61.5t12 59.5q-18 -16 -51 -39t-73 -41t-80 -29.5t-73.5 -6.5t-54 32t-20.5 82q0 31 13 71.5t36.5 77.5t56.5 59.5t72 16.5q-4 -2 -9 -7t-10 -5q-10 -2 -18 -3t-18 -5q-29 -33 -36 -82t15 -88 q55 -84 150 -72q61 74 63 168t-59 182q-68 96 -178.5 128t-223.5 1q-47 -10 -78.5 -34.5t-60.5 -67.5q-37 -59 -63.5 -123t-40.5 -133q-27 -137 -32 -285.5zM1226 1103.5q1 -26.5 9 -46.5q39 -6 82 -9.5t85 -2t81 10.5t73 31q35 23 58.5 63t31 84t-5 86t-45.5 73 q-57 51 -135 41q-23 -4 -45 -7.5t-45 -11.5q-43 -23 -76 -70t-47 -94q-4 -16 -9 -40.5t-9 -52.5t-3 -54.5z" />
<glyph unicode="&#x153;" horiz-adv-x="964" d="M41 661.5q-4 83.5 22 161.5q29 88 73 148.5t108 126.5q4 2 13 6t9 6q2 -20 -16.5 -39.5t-26.5 -40.5q-12 -33 -19 -65.5t-11 -67.5q-20 -125 -3 -258q6 -45 18.5 -93t34 -89t55.5 -66.5t81 -23.5q53 72 66.5 164t3.5 180q-2 16 -7.5 67t-17.5 109q-47 4 -74 39 t-24.5 64.5t2.5 68.5q0 4 12 11t26.5 14.5t29 14.5t18.5 9q37 16 60.5 8t38.5 -31.5t23.5 -54.5t14.5 -61q23 31 48.5 57.5t53.5 54.5q23 23 59 41.5t70.5 21.5t62 -14.5t36.5 -66.5q10 -61 -11.5 -119.5t-62.5 -105.5t-97.5 -79t-117.5 -42v-33.5t2 -34.5 q2 -57 24.5 -115.5t58.5 -99.5t81 -56.5t94 11.5q37 20 60.5 56t39 77t29.5 86t33 84l12 8q6 4 12 7q-2 -96 -28.5 -165t-68.5 -115t-94 -73.5t-106 -40.5q-104 -25 -164.5 8t-89.5 99q-35 -35 -75.5 -60.5t-87.5 -44.5q-104 -45 -173 11.5t-92 173.5q-14 78 -18 161.5z M592 735q27 4 51.5 9.5t48.5 15.5q41 41 61.5 97t10.5 114q-6 35 -21.5 68.5t-46.5 43.5q-57 -72 -78.5 -164t-25.5 -184z" />
<glyph unicode="&#x178;" horiz-adv-x="1214" d="M42 1155q-1 51 16.5 98t58.5 80q47 37 98 65.5t102 57.5q27 14 70 30.5t88 23t86 -3t64 -42.5q31 -47 37 -101t-0.5 -111.5t-17.5 -113t-17 -106.5q-4 -37 -8.5 -77t-4.5 -80.5t8.5 -79.5t26.5 -72q29 -49 77 -75.5t101 -26.5q37 61 43.5 140t6.5 144q0 51 -1.5 100.5 t3.5 98.5q4 84 -1.5 165t-0.5 163q0 6 14 15t34.5 19.5t42 20.5t38.5 20q23 -176 18.5 -346t-14.5 -348q41 72 71.5 146.5t48.5 160.5q2 6 21.5 12.5t19.5 12.5q2 -53 -13 -104.5t-39.5 -100.5t-54.5 -97t-56 -91v-107.5t-2 -107.5q0 -43 -1 -99.5t-10.5 -113t-29 -106.5 t-58.5 -81q-41 -33 -85 -58.5t-91 -51.5q-23 -12 -51.5 -24.5t-60 -17.5t-61.5 -1t-50 26q-37 39 -33 84t27.5 89t59.5 84t65 69q41 41 86 75.5t86 75.5q18 18 33.5 38t29.5 40v33v4q-23 -12 -45 -23.5t-47 -19.5h-2h2q-41 -14 -83 -17t-79 7t-66.5 35.5t-45.5 72.5 q-31 86 -26 176.5t19 178.5q4 27 12.5 66.5t13.5 83.5t5 89t-10 82t-35.5 62.5t-71.5 29.5q-66 4 -122 -10t-91 -72q-10 -23 -21 -43t-15 -43q-10 -47 0 -105t35.5 -105.5t68.5 -73t100 -8.5q45 45 58.5 101t19.5 120q0 2 5 3t5 3q8 -66 -2 -127t-51 -86 q-27 -18 -64.5 -34.5t-78.5 -23t-79 3t-65 44.5q-29 37 -46 86t-18 100zM561 164q14 -66 64 -93.5t116 -13.5q25 4 40.5 18.5t26.5 34t17 43t11 48.5q18 86 22 171t4 171q-25 -29 -53.5 -57.5t-60.5 -57.5q-23 -18 -58 -49t-66.5 -67t-51 -74.5t-11.5 -73.5zM588 1598.5 q2 5.5 30 29.5q14 12 36 19.5t36 -2.5q12 -10 23.5 -20.5t23.5 -20.5q10 -12 11.5 -23.5t3.5 -26.5l-8 -6q-9 -6 -19 -12t-19.5 -10t-11.5 -4q-10 4 -23.5 5t-23.5 7l-22 20l-23 23q-16 16 -14 21.5zM773 1598.5q3 5.5 32 29.5q12 12 33.5 19.5t38.5 -2.5l45 -41 q12 -12 12 -23.5t4 -26.5l-9 -6q-9 -6 -19.5 -12t-19.5 -10t-11 -4q-10 4 -23.5 5t-24.5 7l-22 20l-21 23q-18 16 -15 21.5z" />
<glyph unicode="&#x2c6;" horiz-adv-x="456" d="M20 1487q23 55 65 98t79 90q2 4 16.5 13.5t29.5 18.5t29.5 16.5t18.5 5.5q31 -10 51.5 -35t36.5 -49q23 -31 46.5 -60t43.5 -59q0 2 -15 -8.5t-33.5 -21.5t-34 -20.5t-17.5 -7.5q-23 18 -39 44t-32.5 52.5t-34 51t-40.5 43.5q-41 -41 -80.5 -80t-74.5 -84q-2 -4 -7 -4 t-8 -4z" />
<glyph unicode="&#x2dc;" horiz-adv-x="450" d="M20 1614q4 16 23 35h-4q4 0 8 4q29 25 64 35q76 23 149 -11q23 -10 44.5 -18t43.5 -12q10 12 17.5 24t17.5 27q2 4 15.5 12t15.5 6q25 -12 12.5 -29.5t-31.5 -29.5l-2 -2q-8 -4 -20 -13q-23 -12 -45.5 -26t-44.5 -25q-41 -14 -77 -0.5t-71 31.5q-16 8 -34.5 18.5 t-39.5 10.5q-6 -6 -18 -23q-4 -4 -12 -7t-11 -7z" />
<glyph unicode="&#x2000;" horiz-adv-x="982" />
<glyph unicode="&#x2001;" horiz-adv-x="1965" />
<glyph unicode="&#x2002;" horiz-adv-x="982" />
<glyph unicode="&#x2003;" horiz-adv-x="1965" />
<glyph unicode="&#x2004;" horiz-adv-x="655" />
<glyph unicode="&#x2005;" horiz-adv-x="491" />
<glyph unicode="&#x2006;" horiz-adv-x="327" />
<glyph unicode="&#x2007;" horiz-adv-x="327" />
<glyph unicode="&#x2008;" horiz-adv-x="245" />
<glyph unicode="&#x2009;" horiz-adv-x="393" />
<glyph unicode="&#x200a;" horiz-adv-x="109" />
<glyph unicode="&#x2010;" horiz-adv-x="630" d="M23 893q2 0 4 2q2 0 3 1t3 1q90 29 175 34t179 5q23 0 53.5 3t62.5 4t60.5 -3t46.5 -16q-4 2 -17 -6.5t-29.5 -19.5t-32 -21.5t-21.5 -10.5q-66 -14 -133.5 -14h-134.5q-12 0 -49 -2t-76 0t-69 11t-25 32z" />
<glyph unicode="&#x2011;" horiz-adv-x="630" d="M23 893q2 0 4 2q2 0 3 1t3 1q90 29 175 34t179 5q23 0 53.5 3t62.5 4t60.5 -3t46.5 -16q-4 2 -17 -6.5t-29.5 -19.5t-32 -21.5t-21.5 -10.5q-66 -14 -133.5 -14h-134.5q-12 0 -49 -2t-76 0t-69 11t-25 32z" />
<glyph unicode="&#x2012;" horiz-adv-x="630" d="M23 893q2 0 4 2q2 0 3 1t3 1q90 29 175 34t179 5q23 0 53.5 3t62.5 4t60.5 -3t46.5 -16q-4 2 -17 -6.5t-29.5 -19.5t-32 -21.5t-21.5 -10.5q-66 -14 -133.5 -14h-134.5q-12 0 -49 -2t-76 0t-69 11t-25 32z" />
<glyph unicode="&#x2013;" horiz-adv-x="630" d="M23 893q2 0 4 2q2 0 3 1t3 1q90 29 175 34t179 5q23 0 53.5 3t62.5 4t60.5 -3t46.5 -16q-4 2 -17 -6.5t-29.5 -19.5t-32 -21.5t-21.5 -10.5q-66 -14 -133.5 -14h-134.5q-12 0 -49 -2t-76 0t-69 11t-25 32z" />
<glyph unicode="&#x2014;" horiz-adv-x="1222" d="M20 834q2 -2 6.5 2t6.5 4q127 49 265 56t280.5 1t283 -13t271.5 13q14 -2 29.5 -4t26.5 -7t13 -14.5t-10 -27.5q-4 -6 -17.5 -12.5t-21.5 -10.5q-35 -20 -97.5 -24t-132 -1t-137 8t-110.5 3q-98 -6 -195.5 -5t-195.5 1q-63 0 -135 1t-130 30z" />
<glyph unicode="&#x2018;" horiz-adv-x="327" d="M21.5 1540.5q-1.5 24.5 3.5 40.5q10 47 59 76q14 10 29 16q133 86 100 58q10 6 21.5 11t23.5 7h13.5t20.5 -1t13 -5t-8 -12q-16 -10 -30.5 -18.5t-30.5 -16.5q-16 -10 -32 -13.5t-32 -7.5q-2 -4 -2 -8t-2 -8q-6 -43 6 -82q8 -29 22.5 -50.5t32.5 -41.5q8 4 9 6 q0 -8 -2 -12v-2h-3q-10 -16 -35.5 -26.5t-35.5 -16.5q-20 -12 -40.5 -18.5t-43.5 3.5q-18 8 -30.5 27.5t-18.5 44.5t-7.5 49.5z" />
<glyph unicode="&#x2019;" horiz-adv-x="327" d="M22.5 1415q-4.5 4 8.5 12q16 10 30.5 18.5t30.5 16.5q16 10 31.5 13.5t32.5 7.5q2 4 2 8t2 8q6 43 -6 82q-8 29 -22.5 50.5t-33.5 41.5q-8 -4 -8 -6q0 8 2 12v2h2q10 16 36 26.5t36 16.5q20 12 40.5 18.5t43.5 -3.5q18 -8 30.5 -27.5t18.5 -44.5t7 -49.5t-3 -40.5 q-10 -47 -59 -76q-14 -10 -29 -16q-133 -86 -100 -58q-10 -6 -21.5 -11t-23.5 -7h-13.5t-20.5 1t-13.5 5z" />
<glyph unicode="&#x201a;" horiz-adv-x="327" d="M22.5 2q-4.5 4 8.5 12q16 10 30.5 18.5t30.5 16.5q16 10 31.5 13.5t32.5 7.5q2 4 2 8t2 8q6 43 -6 82q-8 29 -22.5 50.5t-33.5 41.5q-8 -4 -8 -6q0 8 2 12v2h2q10 16 36 26.5t36 16.5q20 12 40.5 18.5t43.5 -3.5q18 -8 30.5 -27.5t18.5 -44.5t7 -49.5t-3 -40.5 q-10 -47 -59 -76q-14 -10 -29 -16q-133 -86 -100 -58q-10 -6 -21.5 -11t-23.5 -7h-13.5t-20.5 1t-13.5 5z" />
<glyph unicode="&#x201c;" horiz-adv-x="532" d="M21.5 1540.5q-1.5 24.5 3.5 40.5q10 47 59 76q14 10 29 16q133 86 100 58q10 6 21.5 11t23.5 7h13.5t20.5 -1t13 -5t-8 -12q-16 -10 -30.5 -18.5t-30.5 -16.5q-16 -10 -32 -13.5t-32 -7.5q-2 -4 -2 -8t-2 -8q-6 -43 6 -82q8 -29 22.5 -50.5t32.5 -41.5q8 4 9 6 q0 -8 -2 -12v-2h-3q-10 -16 -35.5 -26.5t-35.5 -16.5q-20 -12 -40.5 -18.5t-43.5 3.5q-18 8 -30.5 27.5t-18.5 44.5t-7.5 49.5zM226 1540.5q-1 24.5 3 40.5q10 47 60 76q14 10 28 16q133 86 101 58q10 6 21.5 11t23.5 7h13t20.5 -1t13.5 -5t-8 -12q-16 -10 -30.5 -18.5 t-31.5 -16.5q-16 -10 -31.5 -13.5t-31.5 -7.5q-2 -4 -2 -8t-2 -8q-6 -43 6 -82q8 -29 22.5 -50.5t32.5 -41.5q8 4 8 6q0 -8 -2 -12v-2h-2q-10 -16 -35.5 -26.5t-35.5 -16.5q-20 -12 -40.5 -18.5t-43.5 3.5q-18 8 -30.5 27.5t-19 44.5t-7.5 49.5z" />
<glyph unicode="&#x201d;" horiz-adv-x="532" d="M22.5 1415q-4.5 4 8.5 12q16 10 30.5 18.5t30.5 16.5q16 10 31.5 13.5t32.5 7.5l4 16q6 43 -6 82q-8 29 -22.5 50.5t-33.5 41.5q-8 -4 -8 -6q0 8 2 12v2h2q10 16 36 26.5t36 16.5q20 12 40.5 18.5t43.5 -3.5q31 -16 45 -62l2 2v2h2q10 16 35.5 26.5t36.5 16.5 q20 12 40.5 18.5t43.5 -3.5q18 -8 30.5 -27.5t18.5 -44.5t7 -49.5t-3 -40.5q-10 -47 -59 -76q-14 -10 -29 -16q-63 -41 -89 -55.5t-16 -4.5q-20 -14 -41 -16h-13t-20.5 1t-13.5 5t9 12q16 10 30.5 18.5t30.5 16.5q16 10 31.5 13.5t31.5 7.5l5 16q6 43 -7 82q-8 29 -22 50.5 t-33 41.5q-2 -2 -6 -2q8 -27 9 -52.5t-3 -41.5q-10 -47 -59 -76q-14 -10 -29 -16q-63 -41 -89 -55.5t-15 -4.5q-20 -14 -41 -16h-13.5t-20.5 1t-13.5 5z" />
<glyph unicode="&#x201e;" horiz-adv-x="532" d="M22.5 2q-4.5 4 8.5 12q16 10 30.5 18.5t30.5 16.5q16 10 31.5 13.5t32.5 7.5l4 16q6 43 -6 82q-8 29 -22.5 50.5t-33.5 41.5q-8 -4 -8 -6q0 8 2 12v2h2q10 16 36 26.5t36 16.5q20 12 40.5 18.5t43.5 -3.5q31 -16 45 -62l2 2v2h2q10 16 35.5 26.5t36.5 16.5 q20 12 40.5 18.5t43.5 -3.5q18 -8 30.5 -27.5t18.5 -44.5t7 -49.5t-3 -40.5q-10 -47 -59 -76q-14 -10 -29 -16q-63 -41 -89 -55.5t-16 -4.5q-20 -14 -41 -16h-13t-20.5 1t-13.5 5t9 12q16 10 30.5 18.5t30.5 16.5q16 10 31.5 13.5t31.5 7.5l5 16q6 43 -7 82q-8 29 -22 50.5 t-33 41.5q-2 -2 -6 -2q8 -27 9 -52.5t-3 -41.5q-10 -47 -59 -76q-14 -10 -29 -16q-63 -41 -89 -55.5t-15 -4.5q-20 -14 -41 -16h-13.5t-20.5 1t-13.5 5z" />
<glyph unicode="&#x2022;" horiz-adv-x="278" d="M22.5 630q4.5 9 45.5 44q18 16 48.5 27t53.5 -5q16 -14 32.5 -28.5t33.5 -30.5q16 -16 17 -32.5t5 -39.5l-12 -8q-13 -8 -28 -17.5t-28.5 -15.5t-15.5 -6q-16 4 -34.5 7t-33.5 14q-8 6 -15 13t-17 15l-31 31q-25 23 -20.5 32z" />
<glyph unicode="&#x2026;" horiz-adv-x="770" d="M2 630q4 9 45 44q18 16 49 27t54 -5q16 -14 32.5 -28.5t32.5 -30.5t17 -32.5t6 -39.5l-12 -8q-13 -8 -28.5 -17.5t-28.5 -15.5t-15 -6q-16 4 -35 7t-33 14q-8 6 -15.5 13t-17.5 15l-30 31q-25 23 -21 32zM268 630q4 9 45 44q18 16 49 27t54 -5q16 -14 32.5 -28.5 t32.5 -30.5t17.5 -32.5t5.5 -39.5l-12 -8q-13 -8 -28 -17.5t-28.5 -15.5t-15.5 -6q-16 4 -34.5 7t-33.5 14q-8 6 -15 13t-18 15l-30 31q-25 23 -21 32zM534.5 630q4.5 9 45.5 44q18 16 48.5 27t53.5 -5q16 -14 32.5 -28.5t33.5 -30.5q16 -16 17 -32.5t5 -39.5l-12 -8 q-13 -8 -28 -17.5t-28.5 -15.5t-15.5 -6q-16 4 -34.5 7t-33.5 14q-8 6 -15 13t-17 15l-31 31q-25 23 -20.5 32z" />
<glyph unicode="&#x202f;" horiz-adv-x="393" />
<glyph unicode="&#x2039;" horiz-adv-x="692" d="M21.5 854q1.5 8 15.5 20q16 16 34.5 32t37.5 32q35 29 67.5 55.5t65.5 55.5q74 66 138 136t105 163q2 4 8.5 5t8.5 5q-23 -76 -66 -139.5t-102 -116.5q-35 -29 -68 -58.5t-67 -60.5q-2 -2 -12.5 -11t-22.5 -20.5t-17 -15.5l-14 -14q12 -10 25.5 -22.5t25.5 -25.5 q70 -66 132.5 -139t122 -151t116.5 -156t117 -154q-2 2 -19.5 -8t-38 -24.5t-38 -25.5t-21.5 -7q-76 61 -136.5 136t-116.5 155t-113.5 158.5t-125.5 146.5q-10 12 -21 19t-16.5 14.5t-4 15.5z" />
<glyph unicode="&#x203a;" horiz-adv-x="624" d="M20 1286q0 -2 7.5 2t15.5 10.5t15.5 11.5t11.5 5q63 -6 111 -26.5t90 -51.5t80 -69l81 -81q18 -18 49 -44.5t58.5 -56.5t47 -61.5t15.5 -62.5q-4 -35 -26.5 -67.5t-52 -64.5t-61.5 -61.5t-52 -56.5q-66 -86 -128.5 -170t-142.5 -153q-6 -6 -19.5 -11.5t-26.5 -11.5 t-24.5 -12t-13.5 -14q20 47 61.5 87t69.5 81q29 39 59.5 77.5t59.5 79.5q16 23 46 51.5t56.5 61.5t42 65.5t3.5 63.5q-14 33 -36 61.5t-47.5 55t-52 52t-51.5 50.5q-59 66 -121.5 130.5t-124.5 129.5z" />
<glyph unicode="&#x205f;" horiz-adv-x="491" />
<glyph unicode="&#x20ac;" horiz-adv-x="837" d="M20 850q2 12 22.5 19.5t48.5 10.5t54.5 4t42.5 1q8 55 20.5 109.5t34 104.5t55.5 93t83 74q25 14 79 47t113.5 56.5t108.5 23.5t61 -52l-7 -5t-16 -11t-18.5 -10t-11.5 -4q-57 -6 -113.5 -5t-111.5 -10q-72 -76 -105.5 -183t-46.5 -222q59 2 132 4t136.5 0t107.5 -9 t48 -24q0 -2 -15 -11t-33.5 -20.5t-36 -20.5t-21.5 -9q-57 -8 -115.5 -2t-118.5 6h-90q-2 -51 -1 -99.5t3 -91.5q113 8 224.5 11.5t222.5 7.5q-16 0 -31.5 -10.5t-33 -23.5t-34 -25.5t-30.5 -16.5q-68 -16 -147 -25.5t-161 -7.5q10 -74 38 -145.5t85 -124.5q37 -35 82 -59.5 t94 -34.5q33 -8 66 -11t66 5q12 4 34.5 12t32.5 2q-4 2 -15 -5t-25.5 -16.5t-28 -17.5t-17.5 -10q-90 -41 -178 -49.5t-180 45.5q-51 29 -91 70.5t-65 97.5q-27 61 -38 126.5t-15 133.5q-31 4 -58.5 12t-54.5 18q4 0 11.5 6.5t11.5 8.5q23 4 44 6t44 6q2 47 6 96t8 97 q2 8 2 24q-25 4 -52.5 8t-51 9.5t-36.5 10.5t-9 11q0 -2 -4.5 -3t-4.5 -3z" />
<glyph unicode="&#x2122;" horiz-adv-x="882" d="M20 1606q8 23 29 43q-4 0 -6 -2q8 4 10 6q16 16 37 26.5t41 16.5q45 14 93 10t91 -23q16 -8 35 -16t37 -12l2 4q0 4 15.5 10t15.5 8q2 -6 4 -11t4 -11q10 14 18.5 26.5t18.5 28.5q2 4 19.5 14.5t19.5 8.5q31 -16 15.5 -37t-40.5 -37h2q-2 0 -2 -1t-2 -1q-6 -4 -12 -7 t-10 -8q-4 -4 -8.5 -5t-8.5 -5q20 -57 27 -133q4 8 8 25q14 31 29.5 67.5t46.5 55.5h-2l4 4h2q2 0 2 1t2 1q4 2 7 4t7 4l-2 -2q31 14 58 -17q14 -16 24 -30q20 33 47 51q2 0 2 1t2 1l3 2h2q4 4 8 5t8 5q-2 -2 -3 -2t-3 -2q31 14 57.5 5t45 -31.5t28.5 -54t10 -62.5 q0 -10 1 -32.5t1 -46.5t-4 -43t-12 -26q-10 -6 -23.5 -15t-29 -17.5t-29.5 -11.5t-23 5q-10 10 -9 39t5 66t9.5 77t4.5 72.5t-10.5 52t-31.5 15.5q-16 -14 -26.5 -31.5t-21.5 -38.5q23 -41 22 -89t-17 -101q-4 -12 -22.5 -19.5t-41.5 -15.5q-10 -6 -21.5 -13t-21.5 -14 q2 53 1 107.5t11 103.5q2 6 5.5 22.5t5.5 33t-2.5 29t-16.5 12.5q-10 -12 -22.5 -35t-24.5 -49.5t-24.5 -56t-20.5 -56.5q0 -23 -2 -45.5t-6 -44.5h-2v-2h-4q-8 -6 -25 -14q-10 -6 -17 -12.5t-12 -8.5q-2 0 -4 2l-4 -4l4 4q-6 4 -11 26.5t-9 48.5t-7 49.5t-3 31.5 q-4 29 -3 54.5t5 51.5q-12 -8 -27 -12q-23 -8 -49 -8q2 -16 2 -31.5t4 -26.5q4 -20 10 -44.5t9.5 -50t2 -49t-9.5 -42.5q-2 -2 -11 -9t-20.5 -13.5t-22.5 -11.5t-13 -5q-29 8 -31 33t-2 53q0 55 6 115q2 23 2 47.5t4 48.5q-16 6 -30.5 13.5t-30.5 15.5q-20 12 -44 24.5 t-48 12.5q-10 -10 -23 -29q-4 -4 -14 -7t-13 -9z" />
<glyph unicode="&#x25fc;" horiz-adv-x="1105" d="M0 0v1106h1106v-1106h-1106z" />
</font>
</defs>
</svg>
