<?xml version="1.0" standalone="no"?>
<!DOCTYPE svg PUBLIC "-//W3C//DTD SVG 1.1//EN" "http://www.w3.org/Graphics/SVG/1.1/DTD/svg11.dtd" >
<svg xmlns="http://www.w3.org/2000/svg">
<metadata></metadata>
<defs>
<font id="glyttenregular" horiz-adv-x="620" >
<font-face units-per-em="2048" ascent="1536" descent="-512" />
<missing-glyph horiz-adv-x="735" />
<glyph horiz-adv-x="0" />
<glyph horiz-adv-x="682" />
<glyph unicode=" "  horiz-adv-x="735" />
<glyph unicode="&#x09;" horiz-adv-x="735" />
<glyph unicode="&#xa0;" horiz-adv-x="735" />
<glyph unicode="!" horiz-adv-x="444" d="M0 358q1 24 20 43t38 26l18 7q5 0 13.5 -1t29.5 -7t37 -15.5t29.5 -29t13.5 -45.5q0 -32 -13 -53.5t-31.5 -28.5t-40 -10t-38.5 2q-34 4 -56 37.5t-20 74.5zM29 567q0 3 1 72.5t3.5 137.5t7.5 147.5t16.5 133.5t28.5 64q7 -4 17.5 -11.5t39 -29t51 -42.5t42.5 -49t24 -52 q9 -56 -35.5 -214t-64.5 -183q-10 -12 -49.5 -22t-42.5 -23q-4 -17 -19 1q-22 27 -20 70z" />
<glyph unicode="&#x22;" horiz-adv-x="667" d="M4 1266q9 43 40 68t65 16q14 -5 32 -19q15 -10 23 -18q58 -72 2 -301l-51 12q20 83 24 154q-32 -47 -82 -37q-33 9 -48.5 46t-4.5 79zM233 1266q9 43 40 68t65 16q18 -6 31 -19q14 -7 22 -18q59 -74 4 -301l-53 12q24 99 27 154q-36 -46 -82 -37q-33 9 -49 46t-5 79z" />
<glyph unicode="#" horiz-adv-x="1218" d="M0 432q-3 19 16 23q190 21 226 24q12 4 14 10q2 4 160 308q5 11 -2 20t-19 8q-146 -6 -291 -20q-18 0 -22 18q0 8 5.5 14.5t12.5 6.5q92 11 340 24q10 0 17 11q97 190 143 284q11 18 27 8q7 -3 10 -10.5t0 -13.5q-56 -109 -125 -246q-5 -11 0.5 -20t17.5 -9q182 7 297 5 q12 0 19 10q40 73 92 160q6 16 27 8q7 -4 9 -12.5t-3 -14.5q-12 -25 -72 -125q-5 -9 0.5 -19.5t15.5 -11.5q133 -7 185 -24q7 -1 11 -9t1 -16v-2q-3 -6 -10.5 -9.5t-14.5 -0.5q-74 22 -213 25q-11 0 -18 -11q-6 -10 -78 -141q-8 -16 -36 -67.5t-40 -75.5q-4 -10 2 -19.5 t17 -9.5q153 3 229 -14q8 -2 13 -10t2 -15q-6 -16 -25 -12q-74 17 -260 10q-9 0 -16 -10q-64 -137 -68 -176q0 -13 -14 -17q-9 -3 -17.5 5t-7.5 18q8 47 53 149q5 9 -1.5 18.5t-16.5 8.5q-55 -2 -305 -23q-12 0 -15 -10q-101 -189 -108 -201q-5 -8 -13 -10t-16 2q-6 5 -8 13 t2 14l84 154q5 11 -1.5 20t-18.5 8q-154 -16 -170 -18q-19 -3 -23 16zM315 518q-6 -10 1 -20.5t18 -8.5q200 17 295 21q18 0 18 16q4 39 -14.5 106.5t-57.5 128.5t-83 68q-14 3 -23 -10q-29 -58 -87 -170.5t-67 -130.5z" />
<glyph unicode="$" horiz-adv-x="679" d="M0 508q-2 90 119 170q15 8 22 -6q8 -13 -4 -21q-22 -14 -42.5 -31.5t-42 -49.5t-21.5 -62q3 -77 49 -117q50 -47 123 -41q7 65 26 312q0 6 5.5 10t11.5 4q7 0 11.5 -5.5t2.5 -11.5q-3 -69 -24 -303q26 4 69 17q4 86 19 235q0 6 5 10t11 3q6 0 10 -5.5t4 -11.5 q-14 -128 -18 -219q61 25 85 61.5t15.5 74t-35.5 78t-64 75t-73.5 63.5t-60.5 45.5t-29 18.5q-25 8 -59.5 79t-24.5 107q3 15 58.5 48.5t109.5 45.5q0 71 -4 121q0 14 14 17q15 0 19 -15q0 -10 1 -51t1 -66q18 3 33 0q8 0 20 -4q0 96 2 119q0 6 4 11.5t10 5.5q7 0 12 -5.5 t5 -11.5q0 -10 -1 -55t-1 -72q42 -20 57 -49q31 -51 8 -135q-1 -7 -7.5 -10t-12.5 0q-14 3 -10 18q8 22 8 50.5t-13 60.5q-13 20 -30 28q0 -43 2 -57q0 -6 -5 -11t-12 -5q-12 0 -16 14v74q-4 1 -11.5 2t-11.5 2q-5 0 -15 1t-15 1q0 -29 -2 -39q0 -7 -5.5 -11.5t-13.5 -2.5 q-12 0 -12 16q0 4 1 14t1 17q-16 -6 -22 -25q-6 -25 10 -58t30 -38q18 -6 61.5 -40t86.5 -77q120 -120 115 -209q-3 -100 -107 -190q-39 -36 -96 -64q-3 -66 2 -100q0 -16 -12 -19q-19 0 -19 15q-4 25 -4 92q-24 -10 -72 -18q-1 -13 -10 -91q-4 -19 -20 -12q-14 5 -11 17 q1 6 5 34t6 49h-4q-84 0 -138 48q-56 53 -59 141z" />
<glyph unicode="%" horiz-adv-x="692" d="M0 313q-3 34 85 205.5t148 267.5q13 20 42 64t46.5 71.5t37 62t27 60t3.5 41.5q-12 56 -121 60q10 -20 17 -27q11 -11 4 -24q-1 -2 -4.5 -1.5t-7 0.5t-3.5 -3q1 -26 -54 -73q-66 -56 -109 -53q-38 3 -29 64q10 70 51.5 104.5t97.5 41.5q41 6 91 -20.5t90 -66.5t69 -80.5 t35 -64.5q7 -31 -70.5 -164.5t-197 -314.5t-127.5 -195q-15 -24 -29.5 -34t-25 -5.5t-17.5 11.5t-14 18t-8 12zM109 1024q-4 -32 21 -30q35 3 81 52q51 53 51 101q-21 0 -29 -2q-14 0 -29.5 -4t-36 -15t-36.5 -37.5t-22 -64.5zM244 276q-27 45 2 107q16 31 43 51.5t43 25.5 t22 5l4 2l4 -2l6 -4q7 -4 15 -10t17.5 -14.5t17.5 -20t12 -23.5q6 -29 -8 -55q-25 -45 -64.5 -65.5t-72.5 -20.5q-26 0 -41 24zM266 291q12 -12 19 -12q25 0 58.5 17t55.5 54q9 19 4 35q-8 26 -49 51q-10 -1 -22.5 -6.5t-31 -21t-28.5 -37.5q-23 -45 -6 -80z" />
<glyph unicode="&#x26;" horiz-adv-x="989" d="M2 455q-13 94 35 182q49 84 123 123q-7 9 -15.5 20t-13.5 17.5t-8 9.5q-14 22 11 76t72.5 126t49.5 76q25 48 76 48q56 0 86 -37q39 -48 24 -131q-8 -44 -33 -75t-49 -46q38 -49 133 -159.5t134 -160.5q4 4 4 6q50 56 67 67q9 5 17 7q56 12 162 -29q11 -4 15.5 -9t2.5 -9 t-6 -7.5t-8 -5.5l-4 -1q-3 1 -16.5 6.5t-23 9t-26 8.5t-30 7t-30 2t-30.5 -3q-15 -4 -66 -63q-6 -6 -8 -10q102 -127 107 -185q3 -33 -34.5 -57.5t-76.5 -32.5l-39 -8q-2 3 -17.5 21t-43.5 51t-54 65q-115 -75 -241 -75q-4 0 -12.5 1t-12.5 1q-92 4 -149.5 50t-71.5 124z M33 459q12 -66 62.5 -105t129.5 -43q130 -8 246 68q-182 219 -293 356q-73 -37 -115 -116.5t-30 -159.5zM270.5 1003.5q2.5 -38.5 22.5 -67.5q10 -19 49 -68q58 39 70 103q12 67 -19 106q-22 25 -61 25q-32 0 -49 -33q-15 -27 -12.5 -65.5z" />
<glyph unicode="'" horiz-adv-x="364" d="M4 1266q9 43 40 68t65 16q14 -5 32 -19q15 -10 23 -18q58 -72 2 -301l-51 12q20 83 24 154q-32 -47 -82 -37q-33 9 -48.5 46t-4.5 79z" />
<glyph unicode="(" horiz-adv-x="503" d="M6 627q21 230 111 424q28 61 62 116.5t61.5 89.5t54 61.5t38.5 38t17 13.5l23 15q23 11 21 -13q-1 -16 -13 -45q-15 -38 -25.5 -52t-16.5 -12t-19 -4t-29 -26q-70 -84 -129 -207q-173 -390 -72 -915q2 -11 16 -24t19.5 -28t-0.5 -67q-5 -30 -13.5 -40t-17.5 -3.5t-17 17 t-13 21.5l-5 11q-78 330 -53 629z" />
<glyph unicode=")" horiz-adv-x="505" d="M0 -36q1 16 12 44q15 38 25.5 52t17 12t20 4t29.5 26q76 96 127 207q34 74 58 159t40 199t10.5 257.5t-34.5 300.5q-2 10 -10.5 18.5l-16 16t-12 28.5t1.5 55q5 30 14 40t18 3t17 -18t13 -22l6 -11q78 -340 51 -626q-18 -230 -108 -424q-16 -35 -34 -68.5t-35.5 -60 t-35 -50.5t-33 -43t-30 -34.5t-26.5 -27.5t-20.5 -19.5t-14.5 -11.5l-5 -5l-23 -16q-25 -12 -22 15z" />
<glyph unicode="*" horiz-adv-x="903" d="M0 688v14q0 13 12 13q144 8 258 12q10 0 13 10q6 42 28 70q6 10 0 16q-89 105 -114 135q-6 10 0 19l12 10q8 6 16 -2q7 -8 47 -54t70 -81q6 -8 14 -4q14 7 35 14q10 0 10 10v248q0 4 4 8t9 4h14q12 0 12 -12v-248q0 -3 3.5 -6.5t7.5 -3.5q32 -8 63 -35q7 -7 16 2 q107 113 146 158q7 11 16 2l13 -10q8 -11 0 -19q-49 -56 -154 -167q-6 -6 -2 -13q8 -25 10 -35q3 -10 12 -10q180 0 240 -16q15 -4 8 -17l-4 -14q-5 -9 -14 -6q-42 10 -230 14q-12 0 -12 -10q-7 -34 -24 -57q-7 -7 0 -15q112 -145 135 -196q6 -13 -6 -17l-15 -6q-7 -3 -16 6 q-16 39 -127 185q-8 8 -17 2q-27 -13 -38 -15q-11 -4 -11 -12v-323q0 -13 -12 -13h-14q-4 0 -8.5 4.5t-4.5 8.5v323q0 9 -10 12q-18 3 -35 13q-8 4 -14 -2q-38 -36 -90 -80q-93 -74 -129 -74q-6 0 -10 5.5t-2 10.5l8 17q3 5 8 8q42 6 182 137q9 6 2 17q-20 27 -26 55 q-3 10 -13 10q-186 -7 -258 -12q-11 0 -14 12z" />
<glyph unicode="+" horiz-adv-x="600" d="M0 776q0 12 12 12h166q4 237 27 240q11 1 41.5 26t60 43.5t43.5 6.5q19 -17 15 -305q76 9 116 24q14 5 17 -6q8 -11 -6 -18q-41 -17 -127 -27l-9 -237q-13 -9 -45 -35q-80 -64 -108 -67q-27 -3 -32 31q-1 11 -1 25q2 47 6 273h-70h-94q-12 4 -12 14z" />
<glyph unicode="," horiz-adv-x="360" d="M1 306.5q-5 39.5 17 76.5q20 38 57 54t66 -1q16 -8 27 -26q10 -10 16 -25q38 -87 -80 -291l-47 27q47 79 68 141q-42 -34 -90 -14q-29 19 -34 58.5z" />
<glyph unicode="-" d="M0 297l10 57q256 40 525 25l-9 -64q-20 2 -46.5 4t-33.5 3q-184 0 -227 -3q-127 -7 -219 -22z" />
<glyph unicode="." horiz-adv-x="364" d="M1 306.5q-5 39.5 17 76.5q20 38 57 54t66 -1q30 -17 35.5 -56t-16.5 -77q-23 -39 -58.5 -54.5t-66.5 -0.5q-29 19 -34 58.5z" />
<glyph unicode="/" horiz-adv-x="837" d="M0 14l598 1350l49 -23l-598 -1347z" />
<glyph unicode="0" horiz-adv-x="798" d="M2 735q11 245 94 427q79 173 189 194q68 12 141 -39q16 -10 39.5 -27t67 -62t51.5 -81q7 -30 9 -123t-7 -225q-26 -324 -131 -471q-66 -90 -156 -105q-3 0 -9.5 -1t-10.5 -1q-77 6 -130 27t-81 76q-78 152 -66 411zM192 544.5q-16 -149.5 9 -225.5t94 -67q77 12 133 92 q101 144 127 457q9 126 7 218.5t-9 119.5q-9 39 -48.5 80.5t-72.5 64.5q-32 -32 -72 -123q-49 -116 -98 -280q-54 -187 -70 -336.5z" />
<glyph unicode="1" horiz-adv-x="464" d="M0 1079q177 195 238 277q4 6 24 -0.5t38 -25t15 -40.5q-30 -230 -25.5 -432.5t14 -379t1.5 -202.5q-6 -21 -29.5 -30.5t-52 -8t-56.5 6.5t-47 10l-18 6l19 909l-103 -108z" />
<glyph unicode="2" horiz-adv-x="983" d="M0.5 246.5q-3.5 9.5 5.5 15.5l12 8q11 7 31.5 20.5t47 32t60 44t68.5 53t74.5 62t75.5 69.5q158 152 237 289q96 174 72 319q-24 143 -102 164q-88 25 -242 -102q-35 -29 -129 -123q-6 -10 -18 -2q-5 3 -5 9t5 9q19 22 45 49t72 67.5t90.5 69.5t96.5 45t93 5 q15 -5 44.5 -21.5t68 -47.5t75 -70.5t61.5 -93t32 -110.5t-18 -128t-85 -142q-62 -73 -188 -195t-252 -218q-8 -6 -4 -15t14 -8q78 12 178.5 6t204.5 -39q12 -4 8 -16q-4 -14 -16 -10q-118 34 -279 30.5t-285.5 -17t-132.5 -17.5q-12 -1 -15.5 8.5z" />
<glyph unicode="3" horiz-adv-x="872" d="M10 356q-34 74 41 168q3 5 9.5 5.5t11.5 -3.5q10 -6 2 -18q-64 -79 -37 -139q19 -46 84.5 -76.5t159.5 -38.5q109 -8 198 18.5t121 75.5q72 110 -143 334q-50 51 -109 102t-93 77t-36 26q-6 4 -5.5 12.5t7.5 11.5q39 20 88.5 48.5t109 68t107.5 78t80.5 78.5t32.5 69 q0 30 -33 47q-34 19 -76 20.5t-80.5 -9.5t-80.5 -32.5t-75 -44.5t-66 -50.5t-52 -45t-33 -32.5q-10 -10 -20 0q-5 3 -5 9.5t5 10.5q87 87 162 136q83 57 164 79q99 24 172 -16q12 -6 36.5 -32t50.5 -66.5t43 -83t8.5 -85.5t-48.5 -71q-30 -20 -52.5 -40t-39.5 -38.5 t-25 -25.5q-12 -12 2 -23q4 -3 19 -13.5t22.5 -16.5t23 -19t26.5 -25t25.5 -30.5t28.5 -40.5q30 -47 44 -88.5t16 -69.5t-9 -59t-21.5 -47.5t-31 -44.5t-28.5 -41q-36 -55 -160 -97.5t-221 -42.5h-51q-93 9 -169 41t-100 90z" />
<glyph unicode="4" horiz-adv-x="827" d="M4 1102q6 105 29 239q3 13 16 13q13 -3 10 -17q-22 -126 -28 -237q-15 -251 49 -291q57 -31 264 -43q23 115 33 178.5t10.5 136t-20.5 103.5q8 -3 22.5 -8t51 -21t65.5 -32.5t54 -39t28 -43.5q1 -16 1 -27.5t-4 -46t-7 -60.5t-9 -72t-10 -80q97 -7 135 -29q6 -3 7.5 -11 t-3.5 -12q-3 -3 -8 -3.5t-8 1.5q-34 20 -127 27q-49 -432 33 -481q-5 -3 -14.5 -7t-38 -10t-57.5 -4.5t-68.5 19.5t-75.5 53q-19 18 -28 53.5t-9.5 72.5t7 98t15 103.5t21.5 114.5q-213 11 -272 47q-82 46 -64 316z" />
<glyph unicode="5" horiz-adv-x="792" d="M0 969q0 18 6.5 72t19 125t37 125t54.5 55q74 3 194 -3q68 -3 120 -1t96 -3t67 -22q6 -3 6 -12l-10 -175q0 -14 -15 -14q-95 10 -249 19q-231 9 -279 -9q-5 -3 -8 -8q-12 -38 -12 -147q3 -65 6 -99q1 -9 8.5 -11.5t13.5 3.5q8 6 21 19q20 20 36.5 35.5t41 36.5t45.5 35.5 t47.5 28t50 20t49.5 6t49 -10.5q52 -21 90.5 -51t61 -59t35.5 -66.5t18 -65t3.5 -65.5t-4 -56t-7.5 -48q-11 -63 -25 -112t-42 -105t-65 -92t-96 -57.5t-133 -16.5q-2 0 -4.5 -1t-3.5 -1q-87 0 -164 186q-4 13 9 16q10 6 18 -6q71 -174 141 -168q51 4 98.5 104.5t75.5 258.5 q25 141 19.5 253.5t-37.5 127.5q-19 9 -42 9t-43 -6t-46 -21.5t-43 -27.5t-43 -35t-37 -33.5l-33 -31.5q-51 -51 -65 -51q-7 0 -13 6q-18 20 -18 150z" />
<glyph unicode="6" horiz-adv-x="641" d="M8 707.5q17 98.5 56.5 200t84.5 178.5t92.5 144t71.5 96t31 36l68 -44q137 -97 104 -142q-3 -5 -29.5 -43t-46.5 -67t-54.5 -82.5t-63.5 -101.5t-63.5 -111t-63.5 -122q148 -31 192 -147q22 -58 8.5 -123t-57.5 -107q-49 -49 -119 -49q-37 0 -74 15q-29 12 -59 59 q-60 93 -77.5 202.5t-0.5 208zM111 307q12 -30 45 -43q93 -38 163 29q37 37 49 92.5t-8 106.5q-39 104 -178 131q-1 -2 -3 -6.5t-3 -6.5q-100 -216 -65 -303z" />
<glyph unicode="7" horiz-adv-x="661" d="M0 1130q-3 6 6 11q313 107 367 188q10 19 24 12q9 -5 87 -96t75 -96t-24.5 -45t-61 -118.5t-76.5 -156.5q15 -2 92 -10q7 0 7 -6l2 -10q0 -8 -9 -8q-30 0 -102 10q-193 -407 -190 -574q0 -4 -4 -7t-9 -1l-159 60q-5 0 -5 6q-10 165 140 551q-28 4 -35 4q-6 0 -6 8v10 q0 8 8 8q11 -3 43 -6q59 145 168 379q3 6 -1.5 10.5t-8.5 -0.5q-117 -76 -314 -137q-10 -3 -10 4z" />
<glyph unicode="8" horiz-adv-x="749" d="M-0.5 406.5q-0.5 52.5 17 105.5t53.5 118.5t73 119t84 116.5q-68 64 -84 142q-24 115 29 192q43 62 131 92q6 1 11.5 -2.5t7.5 -9.5q3 -12 -11 -16q-76 -24 -114 -82q-46 -64 -25 -168q13 -64 74 -125q23 30 66.5 86.5t66 87t33.5 49.5q26 45 30.5 87t-8.5 69.5t-30 48 t-32 29.5l-14 10q106 -28 166.5 -84t77 -122t3 -149.5t-44 -157t-75.5 -153.5q2 -2 10 -11t11 -15q61 -95 22 -222q-53 -159 -159 -202q-28 -11 -45 -13l-17 -2h-10h-8h-25q-93 5 -153 30t-85.5 62t-26 89.5zM301 422q-61 -73 18 -166q18 3 39 10q94 37 142 185 q40 121 -31 213q-74 -127 -168 -242zM322 1280zM322 1280zM322 1280l2 -14z" />
<glyph unicode="9" horiz-adv-x="776" d="M0 580q21 44 29 -13q4 -26 8.5 -51.5t17.5 -68.5t29.5 -74.5t44 -55t59.5 -22.5q29 0 75 50.5t91.5 130t82 193.5t44.5 226q-39 -25 -82 -31q-28 -4 -45 -4q-78 0 -143 39q-86 47 -122 126.5t-5 150.5q31 69 79.5 109t100.5 56q51 15 115 15q10 -2 27 -5.5t61.5 -18 t80 -32t67.5 -49t38 -67.5q7 -43 11.5 -99t7.5 -146.5t-8.5 -180t-34 -180.5t-72 -169.5t-119.5 -125.5q-83 -57 -157 -58.5t-122.5 37t-85.5 98t-54 117.5t-19 103zM111 1163q-28 -64 8.5 -131.5t105.5 -105.5q58 -35 123 -36.5t135 40.5q7 230 -110 397q-54 0 -101 -14 q-111 -37 -161 -150z" />
<glyph unicode=":" horiz-adv-x="493" d="M1 306.5q-5 39.5 17 76.5q20 38 57 54t66 -1q30 -17 35.5 -56t-16.5 -77q-23 -39 -58.5 -54.5t-66.5 -0.5q-29 19 -34 58.5zM109 877q9 42 39.5 66t64.5 15q33 -6 48.5 -42t4.5 -78q-10 -44 -40 -69t-64 -17q-33 9 -48.5 45.5t-4.5 79.5z" />
<glyph unicode=";" horiz-adv-x="495" d="M1 306.5q-5 39.5 17 76.5q20 38 57 54t66 -1q16 -8 27 -26q10 -10 16 -25q38 -87 -80 -291l-47 27q47 79 68 141q-42 -34 -90 -14q-29 19 -34 58.5zM109 877q9 42 39.5 66t64.5 15q33 -6 48.5 -42t4.5 -78q-10 -44 -40 -69t-64 -17q-33 9 -48.5 45.5t-4.5 79.5z" />
<glyph unicode="&#x3c;" horiz-adv-x="548" d="M-0.5 391q0.5 13 14.5 31q147 170 289 309q11 11 25 -16l43 -64q-52 -48 -174.5 -166.5t-126.5 -126.5q3 -7 20 -24.5t44 -43t51.5 -48t56 -52t43.5 -40.5q34 -26 82 -68q5 -5 -5 -23q-8 -13 -12 -12q-193 168 -330 307q-21 24 -20.5 37z" />
<glyph unicode="=" horiz-adv-x="880" d="M1 777q0 37 79 138q44 56 55 72q598 41 633 0q12 -14 -1 -42t-35.5 -55t-43.5 -55.5t-22 -41.5q-1 -6 -15 -11.5t-42 -10t-58.5 -8.5t-76 -7t-81.5 -5t-88.5 -4t-83.5 -3t-80 -2.5t-65 -2.5q-76 -3 -75 38zM14 606q0 7 5.5 12t13.5 5q70 -7 165 -13t236 -6.5t207 14.5 q18 4 21 -12q6 -16 -13 -20q-78 -17 -227 -17q-212 0 -393 19q-6 0 -11 5.5t-4 12.5z" />
<glyph unicode="&#x3e;" horiz-adv-x="520" d="M0 651q27 44 41 64q7 12 13.5 16t9.5 2l2 -2q136 -133 288 -309q15 -17 15.5 -30.5t-19.5 -37.5q-125 -128 -332 -307h-3q-4 2 -9 12q-4 8 -4.5 13.5t0.5 7.5l2 2q15 14 31.5 28t30.5 25t18 15q205 186 217 208q-5 8 -133.5 132t-167.5 161z" />
<glyph unicode="?" horiz-adv-x="677" d="M-0.5 934.5q-4.5 40.5 4.5 89.5q11 76 56.5 112.5t105.5 43.5q44 6 98 -22t97 -70.5t74.5 -86t37.5 -69.5q8 -34 -18.5 -81t-82.5 -118t-81 -112q-25 -40 -62.5 -55t-80 -23t-66.5 -29l-4 -2l-19 -2q-10 0 -10 8q4 61 121 246q46 74 71 118.5t47 99.5t15 83 q-11 42 -51 65t-84 21q-15 -1 -31 -5.5t-39 -17t-40 -40.5t-23 -68q-17 -113 18 -180q8 -16 25 -33q13 -10 6 -25l-2 -4q-5 -9 -12 -2q-9 6 -18 15.5t-22 30t-19.5 46.5t-11 66.5zM59 354q1 23 19 41.5t36 25.5l17 7q5 0 13 -1t29 -7t37 -15t29 -27.5t13 -43.5 q0 -42 -22 -64t-46.5 -26t-52.5 0q-33 6 -53.5 38.5t-18.5 71.5z" />
<glyph unicode="@" horiz-adv-x="942" d="M8 487q-26 153 19 312q41 151 127 243q97 105 229 99q241 -12 342 -125q85 -91 76 -256q-4 -70 -59 -146t-124 -125q-89 -57 -133 -45q-18 6 -28 29q-14 32 6 94q3 12 -8 19t-21 0q-121 -91 -201 -37q-69 48 -24 178q32 91 102 174q71 87 123 82q31 -3 49 -27 q41 -50 29 -178q-4 -19 -20 -16q-7 0 -12 6t-5 12q11 116 -20 154q-9 12 -23 12q-32 4 -94 -69q-68 -82 -94 -162q-38 -101 10 -135q22 -11 44 -12.5t49 10.5t51 28t48.5 38t43 41t34.5 38q11 11 25 4l57 -39q14 -7 6 -22q-39 -81 -40 -131q-1 -34 26 -15q64 44 113.5 113 t52.5 129q9 148 -66 229q-93 104 -317 113q-61 3 -114 -22t-86 -61t-60.5 -85t-39.5 -82t-20 -63q-41 -158 -14.5 -300t105.5 -182q86 -46 183 -53.5t189 23.5q176 61 260 227q7 15 25 8q6 -3 8.5 -11t-0.5 -14q-46 -88 -118 -151t-164 -94q-86 -27 -162 -27q-125 0 -240 59 q-98 53 -125 211z" />
<glyph unicode="A" horiz-adv-x="608" d="M0 393q-1 3 -1 6q0 6 5 11q20 16 62 45q22 195 33.5 294.5t32 261.5t38 243t31.5 92q28 22 62 24q8 1 15 0q23 0 38 -6l20 -8q-2 -1 -10 -17q2 -2 2 -4q1 -6 13 -60.5t22.5 -106.5t27 -137t29.5 -165q5 -34 17 -107.5t18 -113.5q18 3 34 3t31 -3q10 0 10 -14v-2 q-5 -14 -14 -11q-28 3 -59 0q41 -296 41 -497q0 -41 -2 -78q0 -3 -3.5 -6t-7.5 -2q-10 0 -10 10q2 38 2 80q0 204 -41 489q-86 -15 -217 -92q-52 -460 -57 -477q-12 -37 -51 -37q-22 0 -53 12q-44 16 -54 30q-2 3 0 3q5 1 10 15.5t7 28.5l2 14q7 15 38 309q-8 -5 -16 -11.5 t-15.5 -12t-9.5 -7.5q-10 -10 -20 4zM221 555q121 69 213 88q-6 40 -18.5 116.5t-16.5 100.5q-32 189 -84 436q-27 -123 -94 -741z" />
<glyph unicode="B" horiz-adv-x="688" d="M2 168q-1 11 -1 26q-1 56 11 169q14 144 32 283q16 140 24 276q2 39 3 70q0 77 -14 102q7 -3 19.5 -8t43 -24t53.5 -42q23 -22 41 -62q17 -36 18 -75q0 -4 -1 -9q-5 -76 -38 -366q12 78 20 119q64 358 117 526t119 195l13 4q47 0 75 -132l4 -20q25 -125 25 -215 q0 -70 -15 -119q-35 -109 -129 -160h2q76 -26 121 -139q35 -93 37 -211v-14q0 -110 -37 -201q-55 -112 -164 -112h-6q-143 7 -201 125l-2 2q-1 3 -3.5 3.5t-4.5 -0.5t-2 -3q-21 -159 -25 -205q-4 -4 -8 -4l-8 2v-2q-4 2 -11.5 7.5t-26.5 24.5t-34.5 42t-29.5 62.5t-17 84.5z M172 227q2 -22 21 -59q49 -108 182 -111h6q100 0 145 99q36 84 36 188v14q-2 112 -36 197q-16 43 -38 71.5t-41.5 39.5t-39 15t-30 2.5t-15.5 -3.5h-2l-4 27h2q133 44 174 170q13 51 13 102q0 35 -6 71q-15 88 -46.5 156t-54.5 68q-8 0 -21 -15.5t-33.5 -60.5t-43 -114 t-51.5 -190t-56 -273q-36 -183 -61 -392v-2z" />
<glyph unicode="C" horiz-adv-x="679" d="M-1 520v13q0 70 10 153q11 90 31.5 185.5t54 184.5t75 159t97.5 112.5t118 42.5q126 0 176 -113q17 -42 17 -94q0 -72 -31 -164q-18 -61 -53 -131q-1 -4 -7 -5.5t-10 1.5q-6 6 -2 15q11 20 22 44t28 69.5t27 86.5q9 39 9 83q0 50 -18 85q-33 65 -76 65q-38 0 -84 -52 q-93 -104 -173 -354q-82 -256 -82 -445q-1 -169 75 -185q36 -7 70 -7q133 0 235 112q56 61 80 129q6 10 14 6q7 -4 7 -10q0 -2 -1 -4q-25 -72 -86 -140q-57 -63 -127 -90q-61 -24 -131 -24q-30 0 -65 6q-155 23 -187 145q-12 45 -13 121z" />
<glyph unicode="D" horiz-adv-x="729" d="M0 1325q2 3 5.5 8t18.5 13q14 10 32 10h2q18 0 50 -14q33 -14 72 -44q84 -63 88 -421q0 2 1 4.5t1 3.5q62 355 181 422l6 6q6 -3 15.5 -10.5t34 -44t42.5 -89.5q33 -95 57 -247q19 -118 18 -228q0 -32 -1 -63q-12 -267 -78 -385q-50 -95 -148 -115q-14 -3 -28 -3 q-68 0 -146 65q-55 44 -89 102t-42 119q-15 9 -28.5 20t-19.5 18l-7 7q27 35 34 137q3 42 3 86q0 64 -6 134q-10 120 -25 236t-28 192.5t-15 80.5zM115 399q22 -108 121 -188q73 -60 132 -60q13 0 25 3q42 10 72 31.5t60 70.5t49.5 143t27.5 232q1 21 1 43q0 28 -2 58 q-4 52 -13.5 100.5t-22.5 97t-28 90t-30.5 79t-30 66.5t-26.5 50t-20 31q-6 9 -8 9q-48 0 -105 -246q-39 -168 -55 -341q-1 -12 -3 -33t-3 -33l-4 -53h-2q-20 -150 -47 -162q-12 -4 -27 -4q-27 0 -61 16z" />
<glyph unicode="E" horiz-adv-x="587" d="M0 1313l5 10t17 16t31 12h4q16 -1 44 -13q31 -14 67 -48q116 2 197 2t127 -2q5 0 8 -4t2 -10q0 -10 -13 -10q-41 2 -299 2q66 -95 76 -439h72q12 0 12 -10q0 -12 -12 -12h-70q1 -49 1 -98q0 -212 -21 -420q137 31 214 31q16 0 30 -1q11 -3 11 -10q0 -2 -1 -4 q0 -10 -13 -10q-14 1 -29 1q-81 0 -216 -34q-16 -151 -41 -166q-12 -7 -27 -7q-20 0 -44 13q-42 23 -68 54l-27 32q7 14 8 17q-6 -2 -16 -5t-11 -3q-12 -4 -16 8q0 11 8 14q4 1 11 3t16.5 5.5t17.5 5.5q19 75 19 224q0 141 -17 350h-43q-12 0 -12 12q0 10 12 10h41 q-24 273 -49 439q-4 4 -4 8l2 6q-1 8 -2 15.5t-1.5 11t-0.5 4.5z" />
<glyph unicode="F" horiz-adv-x="698" d="M0 1278v2q0 10 10 10h39q-7 51 -8 51q2 4 5.5 10.5t17.5 17.5q16 11 34 12h2q18 0 49 -16q33 -17 72 -56q7 -4 15 -17q327 0 378 -2q4 0 7.5 -3.5t3.5 -6.5v-2q-3 -8 -11 -8q-45 2 -368 2q51 -107 61 -395h170q10 0 10 -11q0 -10 -10 -10h-168q2 -62 2 -124 q1 -180 -15 -354q-20 -234 -52 -251q-12 -7 -27 -7q-19 0 -43 12q-42 22 -69 54l-27 31q37 62 37 268q0 148 -19 371h-45q-10 0 -10 10q0 4 3.5 7.5t6.5 3.5h43q-10 131 -41 393h-43q-10 0 -10 8z" />
<glyph unicode="G" horiz-adv-x="856" d="M1 684v38q0 106 9 198q12 109 41.5 198t75.5 147t117 81q36 11 77 11q40 0 85 -11q123 -30 172 -123q13 -25 20.5 -55.5t9.5 -57.5t-0.5 -58.5t-6.5 -55t-11 -51t-11.5 -42t-10.5 -33.5l-7 -18q-7 -20 -16 -23t-11.5 8t1.5 25q9 21 18 51t21 84q8 40 8 82q0 15 -1 29 q-4 58 -28 102q-45 85 -154 109q-12 3 -23 3q-45 0 -81 -48q-51 -65 -81 -212.5t-30 -336.5q0 -180 27 -335t72 -234q39 -66 82 -66h4q44 5 81.5 30t62.5 60t45 82.5t30.5 89.5t18.5 88.5t10.5 72.5t3.5 48h-5q-68 0 -153 19q-13 3 -10 16q3 10 16 10q28 -7 64 -13 q31 -5 77 -5h16q57 1 97 16q12 4 16 -8q3 -5 1 -10.5t-7 -7.5q-51 -15 -84 -15q-1 -19 -1 -40t1 -45q1 -47 10 -136.5t26 -165t54 -151.5t88 -115q58 -44 122 -44q36 0 73 13q21 7 21 -7q0 -15 -15 -19q-49 -11 -80 -11q-80 0 -137 45q-134 103 -174 406q-4 26 -8 74 q0 3 -3.5 3t-4.5 -3q-1 -8 -11 -37q-29 -106 -80 -172q-75 -92 -159 -95h-27q-93 0 -150 18q-66 21 -139 79l-2 2q-23 136 -36.5 265.5t-15.5 256.5z" />
<glyph unicode="H" horiz-adv-x="935" d="M0 750q0 10 10 10h72q-9 123 -23.5 258t-24 209.5t-11.5 79.5q2 4 5.5 10.5t17.5 16.5q16 12 34 12h1q18 0 50 -17q33 -17 72 -55q42 -43 63.5 -183t24.5 -331h127q94 268 168 383q-2 2 -2 6q6 4 15.5 11t35 24t46.5 29t42 20.5t29 5.5l8 -479h86q10 0 10 -10 q0 -11 -10 -11h-86l10 -573q75 -83 75 -181q0 -91 -65 -194q-61 -93 -136 -110q-15 -4 -26 -4q-23 0 -32 15q-2 5 -2 11q1 24 4 187.5t5.5 412t2.5 436.5h-174q-26 -79 -52.5 -167t-46 -158.5t-35 -129.5t-24 -92t-8.5 -34l-4 2q-13 -61 -27 -70q-12 -7 -27 -7q-20 0 -44 13 q-42 23 -68 54l-27 32q37 62 37 270q0 120 -12 287h-74q-10 0 -10 11zM264 229q41 165 88 322q19 71 60 188h-121v-49q0 -246 -27 -461zM430 760h166q0 254 -8 368q-80 -134 -158 -368zM770 147l6 -329q6 7 14.5 19.5t25 50.5t20.5 76l2 18q0 31 -12 70q-15 51 -56 95z" />
<glyph unicode="I" horiz-adv-x="456" d="M0 154q0 4 4 8t8 4l70 -2q8 453 8 714.5t-8 331.5l-66 -36q-9 -6 -14 4l-2 2q-1 3 -1 6q0 6 7 8l72 41v2q22 13 53 29l168 96q5 3 8 3q5 0 8 -7v-2q4 -9 -4 -13l-65 -38l24 -1143l66 -2q12 0 12 -13q0 -5 -4 -8.5t-8 -3.5l-76 2q-15 -8 -29 -15t-37.5 -18.5t-42.5 -19.5 q-19 -6 -37 -12q-13 -4 -22 -5q-4 0 -6 1q-10 2 -8 12q0 2 0.5 10t1 21t0.5 28l-68 2q-4 0 -8 4t-4 9z" />
<glyph unicode="J" horiz-adv-x="522" d="M8 111q-8 52 -8 127q0 85 10 198q3 10 13 10q11 -4 8 -12q-11 -114 -11 -199q0 -198 62 -239q16 -11 36 -11q27 0 64 21q8 16 14.5 47t11.5 127q4 59 4 132q0 47 -2 100q-3 136 -21.5 382.5t-53.5 557.5q7 -2 20 -5t46 -14t59.5 -24t51.5 -34.5t32 -45.5t17.5 -111 t21.5 -215q11 -122 11 -259v-12q-1 -143 -13 -271.5t-51 -225.5t-101 -125q-62 -51 -112 -51q-28 0 -45 12q-49 37 -64 140z" />
<glyph unicode="K" horiz-adv-x="647" d="M0 1290l11 22q17 24 40 24q32 0 75 -46q16 -17 34 -41q62 -81 76 -485q46 119 126 244q72 109 152 209q8 8 14 2q8 -9 2 -15q-24 -29 -58.5 -74.5t-89.5 -130.5t-91 -159l2 -4q22 -120 69 -246q35 -100 83.5 -172.5t105.5 -79.5q8 0 8 -10q0 -11 -10 -11 q-114 12 -207 265q-42 118 -66 229q-29 -70 -38 -111q1 -69 1 -137q0 -217 -14 -425q-19 -274 -45 -296q-12 -8 -25 -8q-7 0 -13 2q-20 6 -39 25t-34.5 39t-25.5 36l-10 15q25 55 31 212q2 63 2 130q0 101 -5 211q-9 184 -22.5 364t-25 298t-13.5 124z" />
<glyph unicode="L" horiz-adv-x="790" d="M0 1323q2 4 5.5 10.5t18 17t32.5 11.5h3q18 0 49 -16q33 -17 72 -56q48 -48 70 -232q20 -166 20 -348v-42q-2 -205 -22 -369q86 -20 213 -84q93 -45 149 -45q17 0 31 4q29 9 49 45q3 10 15 6q5 -5 5 -10q0 -2 -1 -4q-22 -42 -62 -55q-15 -6 -37 -6q-57 0 -157 47 q-131 64 -207 82q-19 -155 -43 -170q-13 -8 -29 -8q-53 0 -133 92q-4 4 -4 6v4q0 34 22 65q14 93 14 217q0 81 -6 175q-15 238 -38.5 446t-28.5 217z" />
<glyph unicode="M" horiz-adv-x="1284" d="M0 117q0 25 8 67q8 44 21 99t24.5 138t17.5 177q3 49 3 108q0 54 -2 116q-6 130 -25 272l5 5t13.5 12.5t21 18.5t25 20t28 19.5t28.5 15.5t27.5 9.5t24 -0.5t18.5 -12q15 -17 15 -133q-1 -3 -1 -7q0 -122 -10.5 -278.5t-26.5 -302.5q217 715 231 897q8 -4 20.5 -10.5 t44.5 -26.5t57 -40t47 -48.5t24 -54.5q5 -18 5 -145q0 -41 -1 -97q-2 -218 -14 -389q18 53 39 108q121 333 221 408q2 1 7 1.5t19 -2.5t28.5 -10.5t35.5 -27.5t41 -49q18 -27 17 -155q-1 -36 -1 -81q-6 -202 -25 -431t-23 -440v-44q0 -173 26 -219q-3 -2 -7.5 -4.5 t-18.5 -7.5t-28 -5q-1 0 -1 -1q-13 1 -31 7t-33.5 21t-31.5 46.5t-27 76.5q-8 35 -8 94q0 61 8 146q18 169 45 344.5t37 375.5q2 49 2 94q0 139 -23 240q-40 -31 -83 -101.5t-80 -160t-64.5 -166t-51.5 -153.5q-17 -169 -53 -205q-22 -19 -41 -19q-25 0 -47 29 q-38 50 -38 129q0 41 14 72q26 78 26 353q-1 5 -1 11q0 284 -19 457q-36 -247 -258 -938q-17 -139 -33 -152q-9 -7 -21 -23.5t-22.5 -33.5t-24 -34t-26.5 -26.5t-28.5 -9.5t-31.5 15q-14 13 -14 41z" />
<glyph unicode="N" horiz-adv-x="905" d="M2 -245q8 69 28 181.5t37 285.5q17 174 21 406q1 31 1 63q0 210 -23 478q3 4 7.5 10.5t18.5 26.5t28 37t32.5 38.5t35.5 35.5t33 23.5t29 7t20 -18.5q13 -29 13 -194q60 -182 173 -464.5t179 -410.5q5 -9 11.5 -6t6.5 12q0 227 11 506q9 246 28 406q22 196 66 215 q5 2 11 2q18 0 34 -27q4 -5 3.5 -10t-3.5 -10q-8 -5 -15 2q-14 21 -24 16q-6 -3 -13 -15t-17 -51t-19 -99.5t-17.5 -172.5t-13.5 -258q-10 -239 -10 -573q0 -9 -6 -13t-11 2q-24 24 -90 183t-147 336.5t-139 242.5q-8 -334 -31 -694t-41 -385q-3 -4 -55 -96 q-73 -130 -114 -131q-17 0 -30 20q-10 16 -10 52q0 18 2 41z" />
<glyph unicode="O" d="M3 762q14 276 48 356q16 4 32 4q31 0 64 -16l11 33q41 133 143 178q34 15 64 15q52 0 88 -46q79 -91 79 -355q0 -71 -6 -155q-11 -151 -37.5 -293.5t-56.5 -206.5q-59 -125 -125 -137q-3 0 -8 -1t-8 -1q-9 0 -41 13q-6 3 -6 10q-188 118 -224 227q-21 68 -21 221 q0 68 4 154zM170 1096q92 -57 92 -113q0 -20 -12 -39q-28 -44 -41 -231q29 -52 61 -58q3 0 7 -1q61 0 124 153q3 13 17 8q10 -7 6 -18q-42 -102 -82 -138q-35 -31 -66 -31q-5 0 -10 1q-33 6 -61 41q-4 -72 -3 -138q0 -99 8 -187q14 -146 54 -173q13 -7 28 -7q5 0 11 1 q54 9 107 123q29 61 55 200.5t37 288.5q5 73 5 138q-1 94 -11 171q-18 129 -60 183q-31 35 -72 35q-25 0 -53 -13q-91 -41 -131 -164q-2 -5 -5 -16t-5 -16z" />
<glyph unicode="P" horiz-adv-x="677" d="M0 1427q2 4 5.5 10.5t18 17.5t32.5 12h3q18 0 49 -16q33 -17 72 -56q56 -56 80 -375q23 131 68 207q43 72 94 80q16 4 31 4q43 0 71 -33q35 -38 40 -123q2 -27 1 -52q0 -55 -7 -101q-11 -68 -26 -115q-21 -60 -61 -99.5t-92 -48.5q-17 -4 -35 -4q-35 0 -70 15 q2 -83 1 -165q0 -231 -12 -441q-17 -286 -46 -302q-12 -7 -27 -7q-20 0 -44 13q-42 23 -68 54l-27 32q27 45 33 215q2 53 1 111q0 124 -8 268q-12 210 -29 415t-31.5 342.5t-16.5 141.5zM266 926q6 -74 6 -154q37 -16 71 -16q16 0 32 4q46 9 82 44t55 89q28 94 33 184 q1 23 1 43q0 105 -38 146q-20 23 -54 23q-13 0 -28 -3q-111 -21 -156 -336q-1 -4 -2 -12t-2 -12z" />
<glyph unicode="Q" horiz-adv-x="968" d="M2 240q-3 22 -3 52q0 71 15 184q22 160 62 323q111 429 252 524q38 26 76 26l92 -38q88 -76 88 -232q0 -130 -66 -278q-43 -101 -105 -171q-57 -63 -109 -63h-9q-90 9 -105 226q-3 12 13 16q14 3 14 -12q6 -92 28 -144t56 -57h4q41 0 93 58q55 60 96 157q60 131 63 264 q0 143 -80 211q-39 32 -77 32q-30 0 -60 -20q-65 -44 -127 -175.5t-111 -329.5q-39 -156 -60 -313q-15 -115 -15 -186q0 -27 2 -48q4 -30 26 -67.5t58 -67.5t77 -43q13 -4 28 -4q28 0 59 18q46 25 83 92q-45 16 -87 16q-54 0 -103 -26q-10 -3 -16 6q-8 16 6 23q43 21 92 26 q10 1 20 1q53 0 101 -19q8 16 10 24q33 95 70.5 219t76.5 268t64 265.5t32 210.5q2 21 2 37q0 56 -20 67l17 19q8 -6 20.5 -17.5t46.5 -47t61.5 -70t53 -82t33.5 -88.5q3 -18 3 -42q0 -70 -27 -190q-38 -161 -98.5 -317t-109.5 -217q-68 -65 -123 -103q20 -15 21 -16 q101 -93 205 -93q9 0 18 1q38 2 74 20q11 7 18 -4q8 -15 -6 -22q-35 -20 -84 -25q-3 0 -9 -1t-9 -1q-112 0 -224 100q-2 2 -12 10.5t-16 12.5q-77 -52 -145 -73q-48 -15 -86 -15q-16 0 -30 3q-47 8 -85 30.5t-61.5 56.5t-36 64t-15.5 55z" />
<glyph unicode="R" horiz-adv-x="874" d="M0 1466q2 4 5.5 10.5t18 17.5t32.5 12h3q18 0 49 -16q33 -17 72 -56q65 -65 86 -463q25 87 64 159q72 138 194 226l4 2h4q2 0 12.5 -3t31.5 -12t40 -20q91 -56 109 -137q5 -22 5 -45q0 -95 -79 -213q-107 -168 -377 -385l22 -33t32.5 -47t31.5 -39q164 -203 367 -260 q7 -3 7 -8q0 -2 -1 -4q-3 -10 -12 -7q-107 28 -215 109q-95 71 -162 158q-48 59 -70 94q-3 -246 -19.5 -429t-37.5 -196q-12 -7 -27 -7q-20 0 -44 13q-42 23 -68 55l-27 31q27 45 33 215q2 53 1 111q0 125 -8 269q-12 210 -29 414.5t-31.5 342t-16.5 141.5zM270 895 q5 -122 5 -234q0 -48 -1 -94q52 41 85 68.5t87 76.5t83 87.5t61 88.5q33 52 36 96q1 10 1 19q-1 35 -9 73q-10 48 -55 94t-119 87q-79 -87 -116 -170t-58 -192z" />
<glyph unicode="S" horiz-adv-x="835" d="M2 1034q7 64 37.5 138.5t87.5 148.5q7 14 18 22q1 1 3.5 4.5t3.5 4.5v-2q36 31 84 31q8 0 16 -1q55 -6 98 -47t62 -104q10 -38 10 -80q0 -67 -25 -143q-30 -105 -110 -226q236 -302 280 -520q8 -2 23 -5t22 -5q90 -20 140 -28q39 -7 80 -7q12 1 24 1q54 2 74 26 q15 18 12 47l27 2q0 -47 -21 -74q-24 -29 -82 -33q-20 -2 -38 -2q-36 0 -69 6q-50 8 -151 29q-6 1 -18.5 3t-18.5 3q5 -35 5 -68q0 -131 -76 -231q-27 -43 -76 -65.5t-107 -22.5q-51 0 -92 17q-71 27 -108 89q-33 56 -33 131v17q3 90 51 141q60 63 195 62h28 q-31 48 -80.5 118t-86 120t-78 118.5t-65.5 124.5t-38 126q-10 48 -10 91q0 22 2 43zM109 88v-14q-1 -38 9 -70q12 -38 33 -61t40.5 -36.5t41.5 -21.5q42 -16 85 -16q34 0 69 10q72 21 98 78q-5 132 -104 299q-30 2 -56 2q-123 0 -173 -53q-37 -37 -43 -117zM137 1280 q-12 -70 -12 -132q0 -153 74 -253q6 -8 69 -90q92 141 114 243q12 57 13 104q0 36 -8 65q-17 61 -56.5 93.5t-80.5 35.5q-7 1 -14 1q-30 0 -54 -15q-30 -18 -45 -52z" />
<glyph unicode="T" horiz-adv-x="1193" d="M0 1321v4q4 11 10 8q26 -5 153.5 -17t272.5 -20q15 17 28.5 30.5t30 28.5t30.5 24.5t27 14.5q8 3 14 3q6 1 10 -1q10 -4 16 -16q9 -18 12 -94q134 -5 237 -5q185 0 269 17q3 2 5.5 -1t2.5 -7l2 -4q0 -9 -8 -12q-34 -7 -214.5 -21t-233.5 -14q-40 0 -60 2q1 -39 1 -82 q0 -241 -24 -625q-28 -452 -51 -479q-2 -3 -55 -89q-72 -117 -113 -117q-3 0 -6 1q-12 3 -22 17q-11 15 -11 50q0 15 2 35q7 62 27.5 164t37.5 260q16 158 20 368v50q0 193 -23 441q9 11 19 25q-13 0 -19 2q-53 8 -143 18.5t-157.5 18.5t-80.5 10q-6 3 -6 12z" />
<glyph unicode="U" horiz-adv-x="1009" d="M4 301q-4 31 -4 67q0 112 43 265q41 148 131 348q108 230 201 379q5 7 9 7t7 -5q11 -7 2 -21q-96 -158 -196 -374q-172 -377 -172 -598q0 -34 4 -64q12 -108 77 -164q46 -40 95 -40q24 0 49 10q148 62 299 450q22 122 54 259.5t53 214.5l22 77q3 3 9 8.5t24 20t35.5 27 t41.5 26t44 20t40.5 5.5t34.5 -13q-5 -23 -13.5 -62t-31 -154t-40 -221.5t-34.5 -239.5t-22 -234q-2 -31 -2 -59q0 -66 8 -121q12 -79 43 -101q-2 -4 -7 -10.5t-24 -18.5t-44 -16q-7 -1 -16 -1q-22 0 -53 7q-44 10 -96 39q-64 34 -64 203q0 96 21 236q-137 -312 -274 -371 q-30 -10 -57 -10q-55 0 -109 45q-73 64 -88 184z" />
<glyph unicode="V" horiz-adv-x="792" d="M4 1008q-4 44 -4 83q0 42 5 80q9 73 40 95q42 31 78 43q26 9 44 9q7 0 13 -2q21 -4 36.5 -12.5t21.5 -17.5l6 -10q-27 -25 -31 -118q-1 -23 -1 -48q0 -74 9 -159q12 -114 37 -261.5t46 -252t44 -208.5q14 130 53 318q46 206 109 389q75 214 178 379q5 5 8 5t6 -3 q6 -4 6 -11q0 -3 -1 -6q-188 -293 -285 -757q-45 -204 -60 -375l13 -55q-15 -15 -36 -15h-5q-24 2 -51.5 17.5t-51 33t-38.5 31.5l-15 15q-6 20 -16 55t-36.5 137t-48 196.5t-43.5 214.5t-30 210z" />
<glyph unicode="W" horiz-adv-x="1179" d="M0 948q6 12 16.5 22t31.5 21t58.5 10.5t86.5 -14.5q51 -14 84.5 -130.5t45 -247.5t15.5 -290q2 22 8 90t10 107q46 464 119 639v2q2 2 2 6q1 1 10 12t17 20t21.5 23t26 24.5t27 20.5t28.5 14.5t26 2.5q10 -3 10 -10q2 -68 6.5 -150.5t18 -233t42 -263t68.5 -144.5 q9 221 37 453q59 476 180 538q17 9 35 9q24 0 51 -15q5 -3 5 -9q0 -3 -1 -7q-6 -6 -14 -2q-21 12 -40 12q-14 0 -27 -6q-109 -56 -168 -524q-26 -200 -37 -451q0 -4 -4 -8q3 -5 -2 -10q-13 -24 -57 -41q-27 -10 -69 -10q-27 0 -61 4q-47 6 -77.5 83.5t-41.5 198t-13 212.5 l-2 102q0 41 1 82q-40 -131 -72 -378t-42.5 -391.5t-14.5 -242.5q0 -6 -4 -6v-37q0 -4 -2 -6q-86 -130 -142 -130q-8 0 -16 3q-8 0 -8 8q-1 46 -5 131.5t-16.5 239t-30 283.5t-48.5 239t-68 133q-5 3 -5 7q0 2 1 5z" />
<glyph unicode="X" horiz-adv-x="940" d="M0 1194q0 10 8.5 36t26 47.5t58.5 42t100 26.5h5q35 0 78 -48q46 -52 88.5 -131.5t92.5 -195.5q154 245 270 282q21 6 40 6q39 0 71 -26q7 -5 7 -11q0 -4 -3 -10q-7 -11 -17 -4q-28 21 -59 21q-16 0 -33 -6q-109 -33 -264 -283q65 -161 135 -371.5t107 -340.5l37 -130 q-1 -6 -2.5 -16t-7.5 -38.5t-13 -54.5t-18 -57t-23 -52q-12 -22 -30 -36q-14 -11 -29 -11q-3 0 -7 1q-145 450 -305 828q-115 -231 -241 -553q-7 -14 -17 -7q-10 3 -6 21q132 327 227 522q4 8 12.5 23.5t12.5 23.5q-204 481 -301 486q-1 4 -1 10q1 3 1 6z" />
<glyph unicode="Y" horiz-adv-x="849" d="M0 1151q-1 4 -1 7q0 10 9 13q19 9 39 9q104 0 229 -249q43 -86 115 -259q5 -14 15 -38t12 -28q26 372 41 723q8 -4 22.5 -11.5t50.5 -31t65 -47.5t54 -58t29 -65q0 -26 2 -108v-21q0 -77 -10 -187q-10 -127 -23 -268t-42 -285.5t-64.5 -262t-91.5 -197.5t-123 -92 q-63 -29 -108 -29q-17 0 -32 4q-26 6 -49 29q-51 54 -51 188q3 157 66 402l22 -13q-64 -249 -64 -391q0 -115 42 -159q26 -28 67 -28q23 0 51 9q8 12 17.5 33.5t26 83.5t31.5 147.5t33.5 237.5t33.5 342q-42 103 -43 104q-30 73 -49.5 118t-53 117t-61 114t-61 84t-66.5 54 q-16 6 -31 6q-17 0 -33 -7q-10 -3 -14 8z" />
<glyph unicode="Z" horiz-adv-x="1073" d="M0 -67q0 30 18 66q20 38 61 96t91 128t124 191t144 258q-45 14 -78 26q-10 6 -6 25l4 12q19 -9 97 -35q139 278 266 621q-77 -10 -172 -37q-152 -41 -285 -102q-4 -2 -8 2t-4 10q-4 17 6 20q182 73 289 103q142 41 233 41q21 0 39 -2q27 2 52 2h17q32 0 54 -18 q21 -16 21 -47v-5q-6 -83 -304 -647q71 -14 111 -14h14q10 0 13 -15q0 -6 -3.5 -12t-7.5 -6q-3 0 -9 -1t-9 -1q-42 0 -123 18q-253 -476 -360 -633q388 116 552 116q15 0 29 -1q11 0 11 -16v-2q-4 -15 -13 -15q-12 1 -27 1q-174 0 -616 -136q-7 -3 -21 -10q-20 -10 -31 -15 t-32 -14t-33 -13q-13 -2 -31 -6q-9 -2 -16 -2t-13 2q-11 4 -22 10q-10 6 -16 20q-6 18 -6 37z" />
<glyph unicode="[" horiz-adv-x="575" d="M0 -283q42 237 140 962t110 841q113 -39 151 -39q61 0 105 20l10 -57q-29 -23 -84 -23q-38 0 -96 15q-26 -266 -92 -691q-122 -854 -142 -964q33 10 74 10q52 0 96 -20q-14 -53 -16 -64q-48 23 -98 23q-115 0 -158 -13z" />
<glyph unicode="\" horiz-adv-x="739" d="M0 1341l49 23l598 -1350l-49 -20z" />
<glyph unicode="]" horiz-adv-x="579" d="M0 -231q27 24 84 24q56 0 96 -14q25 258 88 694q12 84 44 317.5t59.5 430.5t31.5 225q-30 -10 -73 -10q-53 0 -94 20q3 11 8.5 33.5t7.5 30.5q39 -23 98 -23q28 0 86.5 7t81.5 14q-40 -244 -142.5 -985.5t-111.5 -825.5q-98 27 -149 27q-54 0 -105 -23z" />
<glyph unicode="^" horiz-adv-x="606" d="M121 997q114 86 184 174l45 -2q86 -140 107 -202q-5 -2 -66 -29q-1 2 -7.5 20t-14.5 37t-23 52t-33 65q-5 -6 -34 -39.5t-43.5 -49.5t-37 -38.5t-38.5 -34.5q-6 8 -19.5 23.5t-19.5 23.5z" />
<glyph unicode="_" horiz-adv-x="1026" d="M117 74v71h903v-71h-903z" />
<glyph unicode="`" horiz-adv-x="444" d="M117 1214q0 23 33 37q49 21 92 -6q37 -19 149 -92q45 -31 45 -57q0 -24 -35 -39q-43 -16 -86 6q-77 43 -155 94q-43 30 -43 57z" />
<glyph unicode="a" horiz-adv-x="700" d="M1 371q1 77 25 162q24 87 64 167t80 111q47 10 89 10q46 0 87 -12q30 -9 48 -30t23 -46t5 -47.5t-2 -39.5l-2 -17q-2 -1 -4.5 -1.5t-8 -1t-8.5 1.5t-2 7q3 24 3 53v16q-1 38 -17.5 67.5t-42.5 23.5q-34 -8 -77 -61t-75 -126q-32 -72 -50 -144q-9 -36 -10 -68 q0 -32 10 -60q18 -56 75 -66q17 -3 42 42t44.5 100.5t36 102.5t18.5 46q2 0 5.5 -0.5t8 -7.5t1.5 -21q-13 -73 -73 -192q-58 -115 -91 -115h-2q-6 1 -33.5 2t-44.5 3.5t-42.5 11t-43.5 22.5q-36 26 -36 107zM317 125q-1 24 9 87q10 69 22 136q12 66 16 132q1 16 1 28 q0 40 -11 51q9 0 22.5 -0.5t46.5 -12.5t54 -36q15 -15 15 -61v-6q0 -44 -8 -93q-8 -53 -14.5 -107.5t-9 -86t8.5 -35.5q17 0 114.5 192.5t112.5 202.5q24 17 24 2v-2l-1 -6l-160 -290q-82 -145 -90 -144l-20 -2q-16 -2 -31 -2h-8q-19 0 -41 4q-23 2 -37 14q-16 12 -15 35z " />
<glyph unicode="b" horiz-adv-x="714" d="M2 266q-2 85 -2 169q0 108 4 217q7 194 20.5 330t22.5 161q10 24 27.5 42.5t46 32.5t45.5 20t51 17q38 -15 53 -59q8 -23 11.5 -50t0 -59.5t-7.5 -60.5t-16 -67t-20 -64t-25 -68t-24.5 -62.5t-26 -63t-23.5 -54.5q-6 -112 -6 -213q0 -129 10 -239q47 202 170 221 q16 3 31 3q52 -1 81 -37q38 -46 40 -128q47 59 95.5 106t84 84.5t68.5 87.5l20 -4q-44 -67 -122 -144.5t-132 -145.5q-2 -3 -7 -9.5t-7 -9.5q-8 -104 -49 -209.5t-111 -175.5q-1 -1 -8 5t-14.5 15t-10.5 15q-11 19 -12 42t10.5 52.5t25 55.5t41.5 66t49 67t58 75 q3 33 -1.5 63t-17 58.5t-40.5 41.5q-17 8 -39 8q-13 0 -29 -3q-128 -22 -163 -266q15 -99 39.5 -174.5t41.5 -100.5l17 -26q-9 -39 -35.5 -63t-48.5 -29l-23 -4q-65 37 -101 189.5t-42 344.5zM141 702q119 283 119 420q0 39 -10 66q-6 19 -20 36q-11 14 -22 14q-3 0 -5 -1 q-48 -88 -62 -535zM336 -100q33 36 63.5 126t40.5 162q-127 -160 -127 -238q0 -32 23 -50z" />
<glyph unicode="c" horiz-adv-x="622" d="M0 500q6 80 22.5 162.5t50 157t72.5 104.5q47 10 90 10q47 0 87 -12q41 -14 63 -46q21 -31 21 -65q0 -38 -29 -75q-28 -35 -78 -52l-25 4q-2 1 2 2q105 40 111 118v8q0 46 -33 76q-21 20 -41 15q-48 -12 -110 -138q-73 -149 -91 -293q-4 -33 -4 -61q0 -105 61 -120 q11 -3 24 -2q47 2 113.5 32t131 78.5t119.5 118.5t76 142q3 0 6.5 -1t10.5 -7q3 -3 3 -8t-4 -13q-33 -80 -100.5 -154.5t-135.5 -119.5q-67 -45 -123 -71q-50 -24 -71 -24h-4q-74 8 -135 48.5t-68 62.5q-13 32 -13 85q0 18 1 38z" />
<glyph unicode="d" horiz-adv-x="829" d="M1 444v5q0 75 24 160q25 88 66 169.5t81 112.5q47 11 89 11q46 0 87 -13q39 -11 58.5 -41t19.5 -59t-2 -54t-2 -26l-4 -1q-3 0 -6.5 -0.5t-7 0t-6 2.5t-1.5 5q3 24 3 53v16q-1 38 -17 68.5t-41 24.5q-50 -13 -114 -123q-76 -128 -94 -249q-4 -28 -4 -51q0 -86 62 -97 q10 -1 21 -1q27 1 56.5 20t53 44.5t48.5 61.5t39.5 62t30.5 55.5t18 33.5q-17 243 -17 447v12q0 210 11 249q18 70 159 127h2q-2 0 -2 -2q39 -12 60 -55q18 -42 19 -103v-15q0 -52 -6 -95q-7 -49 -30.5 -129t-34.5 -111.5t-38 -105.5q2 -30 5 -119t6.5 -143t12 -131.5 t24.5 -140.5t40 -113q8 39 18.5 72.5t47 108t98.5 177.5l18 -6q-43 -75 -76 -142t-49.5 -109t-26.5 -73.5t-13 -44.5l-3 -14q-7 -36 -28 -62t-38 -34l-18 -8q-96 54 -139 536q-15 -39 -43 -84t-70 -92.5t-90 -76.5q-50 -29 -106 -37q-10 -1 -19 -1q-47 0 -94 29 q-37 22 -38 100zM580 907q88 256 88 396q0 62 -17 100q-8 18 -23 33q-11 11 -21 11q-3 0 -7 -1q-27 -59 -27 -279q0 -110 7 -260z" />
<glyph unicode="e" horiz-adv-x="595" d="M8 665q18 152 58 205q90 45 170 45q61 0 61 -60q0 -9 -1 -20q-10 -78 -80 -170q-42 -55 -85 -83q-3 -33 -3 -65q0 -31 2 -59q6 -60 18 -107q14 -47 42 -75q26 -25 60 -24h8q65 5 195 120.5t147 186.5q2 2 5.5 4t9 -1t6.5 -17q-27 -44 -55.5 -82t-57 -66.5t-51 -49.5 t-51 -40t-42.5 -28t-41 -23.5t-32 -17.5q-21 -11 -55 -21q-36 -9 -80 -15q-13 -2 -25 -2q-28 0 -49 9q-52 21 -72 163q-10 75 -11 152q1 69 9 141zM133 608q107 83 131 196q5 26 5 46q0 31 -13 46q-6 6 -13 6q-5 0 -10 -3q-34 -18 -61.5 -101t-38.5 -190z" />
<glyph unicode="f" horiz-adv-x="679" d="M14 552q12 14 38.5 39.5t56.5 51.5q12 193 37.5 400.5t46.5 330.5t30 144q6 12 15 16q4 1 8 1q6 0 12 -3q11 -4 22 -12.5t23 -22t21 -25t18 -24.5q22 -20 32 -50q8 -22 8 -48v-18q-4 -37 -11 -70.5t-25 -78.5t-30.5 -73t-33 -70.5t-26.5 -56.5q-4 -37 -14.5 -118.5 t-14.5 -127.5q35 11 73 11q30 0 62 -7q71 -15 121.5 -40.5t110.5 -50t100 -25.5q9 0 9 -7q0 -2 -1 -5q-3 -10 -12 -9q-55 6 -106.5 26t-82.5 40t-76 37.5t-87 18.5q-3 1 -7 1q-41 0 -108 -16q-12 -147 -18 -297q35 -48 66.5 -115t51.5 -147t21 -154q1 -3 1 -6 q0 -71 -32 -132q-33 -64 -100 -96q-116 110 -116 579q0 51 1 106q-2 2 -15 11.5t-26.5 20t-27.5 22t-21 21.5q-6 7 -6 11q0 3 12 17zM63 575q-2 -2 -2 -5q0 -4 5 -10q6 -8 20 -19t16 -13q0 30 4 88q-18 -16 -43 -41zM203 338v-36q0 -427 90 -427h4q27 66 27 136v24 q-6 83 -37 158.5t-84 144.5zM264 1049q57 125 82 212q12 44 12 81t-12 67q-26 -26 -40.5 -92t-41.5 -268z" />
<glyph unicode="g" horiz-adv-x="1011" d="M4 738q7 91 33 134q84 58 164 64q6 1 12 1q26 0 47 -11q25 -12 38.5 -33t21.5 -42t12 -37l4 -17q0 -3 -12 -7.5t-13 3.5q-7 50 -43 101q-25 35 -49 35q-10 0 -20 -7q-44 -32 -62 -173q-8 -59 -8 -112q0 -87 21 -158q28 -99 86 -99q13 0 26 4q6 2 12 5q92 43 119 293 q-2 5 -12 35q1 4 2.5 10.5t9.5 24.5t18 32.5t28 28.5t40 18q7 -15 19.5 -42t46 -110t61.5 -165t57.5 -194t43.5 -209q77 47 147 47q15 0 29 -2q27 -4 53 -15.5t43 -24.5t30.5 -27.5t19.5 -22.5t7 -11l-18 -10q-2 3 -6 8.5t-17 19.5t-28 25.5t-39 22.5t-49 14q-11 1 -23 1 q-72 0 -145 -48q10 -76 10 -142q0 -266 -154 -372q-39 -25 -67 -25q-25 0 -41 19q-21 24 -23 73v9q0 45 14 100q15 59 51 128.5t87 127.5q-46 261 -182 641q-7 -47 -19.5 -92.5t-36.5 -93.5t-55 -82.5t-77 -52.5q-32 -13 -68 -13q-15 0 -31 2q-43 6 -73 77.5t-40 162.5 q-6 52 -6 104q0 39 4 79zM456 -343q-1 -4 -1 -8q0 -48 18 -69q8 -10 22.5 -10t35.5 10q42 19 55 47q17 28 24 71q4 27 4 60q0 21 -2 43q-4 59 -8 91t-12 88q-79 -98 -113 -205q-22 -64 -23 -118z" />
<glyph unicode="h" horiz-adv-x="798" d="M0 315q2 208 27 427.5t54.5 387t43.5 197.5q6 12 15 16q4 2 8 2q5 0 12 -3q11 -5 21.5 -13t23 -21.5t21 -23.5t18.5 -24q23 -23 28 -54q8 -28 8 -62q0 -60 -26 -136q-40 -118 -98 -215q-26 -185 -31 -355q-1 -43 -2 -80q0 -110 12 -165q7 134 48 267t122 218q34 34 75 34 q6 0 13 -1h-2q9 -1 23 -4t45 -21t47 -45q8 -12 8 -38q0 -29 -10 -73q-19 -86 -46.5 -172t-27.5 -98q19 64 56.5 128t73 108t89 94t80 71.5t70.5 55.5q9 9 20 0q4 -4 4 -7.5t-4 -7.5q-5 -7 -38 -29.5t-76.5 -58.5t-93 -87t-99.5 -133t-84 -179q-1 -4 -16.5 -4.5t-37 4 t-42.5 12.5t-34 23.5t-11 34.5q2 22 56 187.5t54 215.5q-8 2 -16 2q-31 0 -62 -28q-72 -68 -127 -254q-42 -142 -42 -256q0 -35 4 -68l10 -33q-8 -24 -24 -38.5t-33.5 -18t-33 -3.5t-25.5 3l-11 2q-38 104 -38 295q1 12 1 24zM166 858q22 49 35 81t29 76.5t22 76.5t6 66.5 t-10 60.5q-26 -24 -40 -88t-42 -273z" />
<glyph unicode="i" horiz-adv-x="522" d="M0 236q-1 19 -1 46q1 80 9 237q12 211 29 216q9 0 22.5 -1t46.5 -13.5t54 -36.5q14 -15 14 -75v-27q-4 -84 -17 -173t-19 -166q-3 -30 -3 -50q0 -30 6 -33q1 -1 3 -1q18 0 100 94q90 102 182.5 215.5t103.5 121.5q24 19 24 3l-1 -9l-294 -341q-152 -173 -161 -173 q-14 0 -55 61q-40 59 -43 105zM51 829q-14 12 -13.5 41t13.5 74q3 8 24 10h6q19 0 42 -8q27 -10 43 -28q24 -30 25 -84q0 -61 -25 -70q-4 -2 -8 -2q-14 0 -34 12q-28 16 -50 36z" />
<glyph unicode="j" horiz-adv-x="636" d="M0 881q1 4 2.5 10.5t9.5 24.5t18 32.5t28 28.5t40 18q7 -15 19.5 -42t46 -110t61.5 -165t57.5 -194t43.5 -210q11 7 29.5 22t28.5 21.5t34 17t51.5 15t75 8.5t110.5 4l-16 -16q-23 1 -45 1q-184 0 -264 -97q10 -76 10 -143q0 -265 -154 -369q-27 -27 -65 -27 q-28 0 -43 19q-20 24 -22 73v9q0 45 14 100q15 60 51 129t86 127q-50 291 -207 713zM75 -182v-5q0 -49 19 -71q10 -11 26 -11t39 13q43 26 50 55q20 59 20 148q0 83 -18 194q-74 -89 -113 -204q-22 -65 -23 -119z" />
<glyph unicode="k" horiz-adv-x="651" d="M2 411q12 192 37 384.5t51 326.5t37 158q20 39 64.5 60.5t115.5 37.5q36 -36 47 -86q6 -29 7 -58q0 -21 -4 -42q-8 -49 -32.5 -112t-49 -109t-56.5 -105t-45 -88q-6 -36 -14 -112q44 67 78 108q86 111 131 111q15 2 50 -29.5t36 -48.5q0 -32 -33.5 -97t-71.5 -106 q-23 -25 -71.5 -53.5t-102.5 -46.5q20 -32 70 -133t90 -166q39 -64 62 -64h1q62 3 159 109t120 174l27 -2q-13 -21 -22.5 -36.5t-48.5 -70.5t-72 -91t-78.5 -69t-82.5 -34h-4q-27 0 -69 63.5t-99.5 176.5t-72.5 139q-8 -4 -15 -4q-4 -76 -4 -141q0 -37 1 -70q4 -91 16 -154 t24 -102.5t22 -57.5l9 -18q-13 -38 -41.5 -59.5t-51.5 -23.5l-22 -3q-60 43 -82 197q-14 99 -14 214q0 64 4 133zM152 598q81 23 151 98q37 40 58.5 83t21.5 69q0 19 -11 19q-12 0 -38 -22q-48 -43 -80 -83q-44 -56 -100 -141q0 -4 -1 -11.5t-1 -11.5zM180 834 q13 28 43.5 89t48.5 100t38.5 95.5t25.5 95.5q2 13 2 26q0 26 -7 54q-10 40 -40 66q-51 -79 -111 -526z" />
<glyph unicode="l" horiz-adv-x="657" d="M0 442q6 129 23.5 260.5t46.5 247t48 183t27 86.5q18 48 77 76t83 28h2q17 -1 25 -21q10 -22 14 -51q12 -69 12 -140q0 -133 -42 -273q-66 -215 -195 -422q-5 -50 -4 -96q-1 -74 11 -136q20 -100 64 -148q37 -41 92 -41q12 -1 22 1q70 10 149 88q68 66 137 240 q32 79 52.5 155.5t25.5 112.5l4 37l20 -2q0 -8 -4 -40t-25 -111t-53 -159q-67 -165 -143 -247q-48 -54 -111 -82q-51 -23 -105 -23q-13 -1 -25 1q-66 6 -113 54q-63 64 -91 178q-24 96 -24 203q-1 20 0 41zM123 459q213 368 213 663q0 65 -10 125q-3 21 -7.5 34.5t-7.5 17.5 t-6 4q-40 0 -70.5 -77t-48 -194t-29.5 -233t-20.5 -217t-13.5 -123z" />
<glyph unicode="m" horiz-adv-x="1185" d="M0 227q3 22 28.5 123t41.5 190q9 50 10 79q0 23 -6 34q11 -1 28 -5t53 -22.5t52 -45.5q10 -13 10 -42q1 -16 -3 -38q-8 -60 -24 -118t-31.5 -114t-15.5 -67q214 665 322 764q8 2 22 3h3q14 0 46 -7q34 -8 58 -29q18 -14 22 -130q1 -40 2 -83q0 -78 -4 -163 q-6 -130 -12 -244q-3 -66 -4 -97q0 -23 2 -27q21 130 50.5 256t42.5 202q12 71 12 156v13q5 5 26 6t56 -8.5t55 -26.5q24 -21 32 -159q6 -98 6 -184q0 -35 -2 -69q-1 -42 -1 -73q0 -54 4 -78q38 29 82 69.5t82.5 81t68.5 73t55.5 62t28.5 32.5q3 1 3 -5t-3 -20 q-10 -14 -31 -40t-103 -109t-185 -170q-9 -8 -26.5 -19.5t-44.5 -26t-48 -13.5t-25 24q-3 17 -3 88v38q0 106 2 215q0 25 1 50q0 82 -4 158q-7 -94 -55.5 -288.5t-63.5 -279.5q-2 -7 -38 -15q-17 -4 -34 -4q-20 0 -40 4q-38 8 -45 40q-1 4 -1 18q0 64 15 332q10 185 10 294 q0 85 -6 124q-12 -17 -62 -121t-129 -292.5t-141 -366.5q-2 -4 -17.5 -4.5t-37 4t-42.5 12.5q-20 8 -33 24q-11 13 -11 30v5z" />
<glyph unicode="n" horiz-adv-x="909" d="M0 291q-1 6 -1 16q0 25 4 75q5 70 11 138q5 56 6 108v24q-2 64 -16 79q5 -2 21.5 0t49.5 -8.5t56 -32.5q22 -22 24 -110q0 -21 1 -41q0 -67 -6 -136q-4 -61 -4 -85q0 -11 1 -15q10 166 89.5 345.5t156.5 254.5v2q9 0 22.5 -1.5t46 -15.5t52.5 -38q7 -8 7 -39 q0 -61 -27 -207q-41 -222 -90.5 -443t-47.5 -233q86 140 249 314.5t306 275.5q11 7 21 -1q2 -1 2 -3q0 -3 -6 -8q-23 -16 -89.5 -74.5t-156.5 -145t-182 -197t-142 -202.5q-6 -11 -30 -14q-8 -1 -16 -1q-16 0 -34 4q-26 6 -47 23q-22 18 -22 43q0 28 92 430q93 408 96 500 q-2 -3 -21 -27.5t-31 -41.5t-35 -53.5t-39 -69t-36.5 -82t-35 -98.5t-26.5 -113t-17 -131q-2 -8 -38 -13q-11 -2 -23 -2q-25 0 -51 8q-38 11 -44 42z" />
<glyph unicode="o" horiz-adv-x="784" d="M0 288q3 73 29 159t64 160t77 128q48 10 91 10t81 -10q-65 40 -92 80q-17 23 -17 42q0 10 5 20q21 27 57 28q7 0 15 -2q48 -7 98.5 -37t68.5 -59q28 -52 31 -119q15 -5 130.5 -30t152.5 -50l4 -20q-42 24 -154 47.5t-133 30.5v-7q0 -79 -22 -161q-24 -86 -62 -154 t-84 -122q-44 -54 -92 -84q-46 -29 -83 -29h-3q-85 5 -125 55q-37 47 -37 114v10zM126 292v-10q0 -52 20 -89q20 -39 61 -39h4q34 1 82.5 47.5t93 117.5t74.5 167q26 85 26 165v21q-38 10 -118 47q14 -16 14 -41q-1 -26 -15 -62q-30 -71 -95 -133t-128 -71q-17 -62 -19 -120 zM150 426q115 44 177 157q32 61 32 102q0 8 -1 16q-4 22 -20 18q-43 -9 -99.5 -99t-88.5 -194zM254 866q-2 -4 -2 -8q0 -12 14 -33q34 -47 87.5 -76t133.5 -57q-3 63 -28 105q-14 24 -54 49t-82 34q-12 3 -22 3q-28 0 -47 -17z" />
<glyph unicode="p" horiz-adv-x="706" d="M-39 -291q69 34 113 43q-24 362 -38 799q-6 215 -6 335q0 126 7 150q2 1 3 1t1 -1q109 -85 109 -114v-367q2 2 2 8q70 248 179 248h3q45 -2 75.5 -45t42 -106.5t14.5 -117.5q2 -28 2 -54q0 -22 -1 -42q175 128 240 230l18 -10q-41 -64 -106 -122.5t-156 -125.5 q-6 -43 -21 -81.5t-48 -69.5q-30 -27 -69 -27h-10q-18 -2 4 47q33 73 88 119q19 16 37 24q0 208 -35 292q-28 67 -77 69h-2q-94 0 -158 -234q-9 -35 -20 -88q4 -437 18 -715q48 -25 67 -68q13 -30 13 -60q0 -14 -3 -28q-9 -43 -40 -82.5t-76 -58.5q-6 -3 -13 -3l-11 2 q-12 5 -13 18q-12 96 -20 260q-54 -10 -103 -41q-5 0 -10 12q-1 2 -1 3t1 1zM172 -268q1 -18 3 -43.5t3 -40.5t2.5 -34t3.5 -30.5t4.5 -23t6 -18t8.5 -9.5q32 55 32 101q0 11 -1 22q-10 55 -62 76zM383 285h1q2 0 5 2q35 31 51 114q-29 -8 -51 -67q-10 -27 -10 -39 q0 -8 4 -10z" />
<glyph unicode="q" horiz-adv-x="839" d="M1 472q0 77 25 162q24 86 64 166t80 111q47 11 89 11q46 0 87 -13q32 -9 50.5 -30.5t23 -46t4.5 -47t-3 -39.5l-3 -17q-2 0 -4.5 -0.5t-8 -1t-8.5 1.5t-2 6q3 24 3 53v16q-1 38 -17.5 68.5t-42.5 24.5q-50 -13 -114 -123q-75 -129 -94 -251q-4 -28 -4 -50q0 -90 63 -101 q10 -1 22 -1q41 1 81 36.5t65.5 76.5t58.5 99.5t49 80.5q110 -60 110 -80q-10 -4 -50.5 -65.5t-95.5 -165t-93 -197.5q108 43 211 114q208 146 299 328l18 -10q-91 -183 -305 -334q-80 -54 -170 -98q44 -15 86 -52q77 -67 77 -158q0 -31 -9 -65q-27 -99 -94 -129 q-23 -8 -47 -8q-46 0 -93 31q-5 3 -14.5 9.5t-32.5 26.5t-40 40.5t-30.5 50.5t-11.5 59q3 53 53.5 196t116.5 289q-47 -52 -90 -86q-41 -34 -58 -34h-1q-4 0 -33 2t-45.5 4.5t-42 10.5t-43.5 22q-36 26 -36 107zM276 -80q-1 -4 -1 -8q0 -30 10 -54q11 -27 32 -48 q61 -42 100 -42q13 0 23 5q58 24 82 112q9 33 9 62q0 82 -68 141q-46 40 -127 66q-15 -38 -20 -52t-19.5 -55.5t-17 -66.5t-3.5 -60z" />
<glyph unicode="r" horiz-adv-x="669" d="M0 197q0 25 10 97q10 79 20.5 156.5t14.5 152.5q1 17 1 30q0 48 -11 59q9 0 23 -0.5t47.5 -12.5t54.5 -36q16 -17 16 -87q0 -4 1 -9q0 -67 -8 -135q-8 -74 -16 -140q-6 -54 -6 -72v-7q20 170 89 402t104 279l2 101q8 2 22 4h6q16 1 48 -7q38 -10 69 -36l-7 -95v-26 q0 -170 60 -170h5q18 2 41 19q-2 -5 -6 -12.5t-21 -23.5t-37.5 -23.5t-57 -2.5t-79.5 29q-41 24 -45 186q-131 -294 -188 -670q-1 -9 -38 -11h-9q-31 0 -65 12q-40 15 -40 49z" />
<glyph unicode="s" horiz-adv-x="829" d="M16 80q-16 23 -16 54q0 111 207 323q-37 117 -117 276q-91 179 -91 279q0 81 60 108q31 15 70 15q38 0 86 -14l4 -1q3 0 13.5 -5t26.5 -22t22 -42q4 -14 4 -30q0 -83 -105 -208q5 -12 50 -108t69 -158q152 152 280 151q22 0 44 -4q107 -24 182 -164q59 -109 59 -132 q0 -12 -22 22q-21 33 -56 100q-71 133 -168 154q-20 4 -41 4q-22 0 -44 -4q-43 -10 -85.5 -37t-72 -51t-68.5 -60q52 -135 52 -236q0 -164 -140 -233v2q-32 -19 -68 -27q-16 -3 -32 -3q-21 -1 -43 5q-38 10 -60 46zM21 128q1 -22 12 -38q24 -32 62 -38q12 -2 23 -2 q25 0 49 8q34 12 69 34q18 48 18 112q0 97 -41 230q-5 -5 -26 -28.5t-35 -39.5t-36.5 -44.5t-37 -50t-30.5 -49.5t-22 -50q-6 -19 -5 -38v-6zM154 926q2 -45 16 -90q93 113 93 185q0 14 -3 26q-8 34 -53 57q-13 -17 -23 -40q-12 -24 -22 -58q-9 -30 -9 -69q1 -5 1 -11z" />
<glyph unicode="t" horiz-adv-x="770" d="M-356 1053q-3 14 -3 25q0 27 15 42q12 14 37 18q8 1 24 1q34 -1 104 -7q103 -10 283 -42q16 48 68 93.5t102 45.5q-13 -11 -36 -150q42 -4 85 -4q53 0 109 6q100 11 143 58q8 10 11.5 20.5t3.5 15.5v5l20 6v-2q1 -3 1 -6v-7.5t-1.5 -9.5t-3 -10.5t-5.5 -12t-9 -12.5 q-61 -70 -266 -70q-43 0 -93 3q-21 -144 -34.5 -318.5t-15.5 -362.5v-24q1 -172 27 -304q28 -142 87 -177q51 0 98 41q6 5 12.5 11t13.5 15t12.5 15.5t13.5 18.5t12 19t13 22t13 21t14 23.5t13 22.5q77 127 113 168q48 52 92 59q9 2 18 2q36 0 70 -30l-12 -17q-33 26 -61 26 q-6 0 -11 -1q-25 -4 -49.5 -22t-52 -55.5t-43 -62.5t-46.5 -77q-77 -136 -122 -174q-54 -45 -105 -45q-138 0 -192 120q-35 75 -47 303q-7 121 -7 244q0 108 5 217q11 233 38 334q-47 7 -108.5 17t-91 14.5t-68.5 10t-58 7t-41.5 1.5t-36.5 -3.5t-26 -9.5q-9 -5 -10.5 -13 t2.5 -24.5t4 -21.5q-18 0 -22 4z" />
<glyph unicode="u" horiz-adv-x="800" d="M2 170q0 77 35.5 276.5t75.5 276.5q4 0 11.5 0.5t28.5 0.5t40 -2t41 -7.5t37 -14t23.5 -24t4.5 -35.5q-5 -24 -30.5 -91t-51 -138.5t-45.5 -146.5q-18 -64 -18 -116v-17q4 -58 39 -81q7 -4 13 -4q26 1 56 59q38 74 69 190t49 194t23 106h-2q11 4 29 8t58.5 1t64.5 -25 q17 -15 17 -78q0 -53 -12 -140q-13 -95 -13 -120q0 -6 1 -8q1 -4 5 -1q16 12 127.5 175t126.5 176q25 22 25 2l-1 -6q-328 -451 -344 -451q-3 0 -15.5 -4.5t-22 -6.5t-20.5 7t-15 33q-1 6 -1 26q1 48 7 170q4 74 4 124q0 69 -8 95q-38 -191 -56 -258q-79 -304 -165 -304h-5 q-11 1 -22 7q-10 6 -29.5 17t-28.5 16t-25 15t-23.5 16t-19 15t-17 16.5t-11.5 17t-8 19t-2 20.5z" />
<glyph unicode="v" horiz-adv-x="686" d="M0 666q8 3 21.5 6t49 1t62.5 -18q26 -16 46 -90t46 -214t49 -226q2 5 25 56t45 107t45 156t33 206q5 51 5 112q1 64 -5 140q-10 148 -47 302h1q4 0 14 -9q12 -11 23 -23l11 -11q5 -20 11.5 -57.5t14.5 -154.5q4 -61 4 -122q0 -57 -4 -115q-7 -120 -44 -292.5t-105 -333.5 q-1 -8 -37 -11q-7 -1 -14 -1q-29 0 -62 10q-40 12 -51 41q-9 22 -33.5 154t-53 252t-50.5 135zM338 895q0 -282 55 -436q47 -135 138 -184q37 -19 69 -19t59 18q52 34 52 117l-21 2q-2 -88 -59 -111q-16 -7 -34 -7q-41 0 -86 38q-62 52 -99 154q-54 151 -54 428 q1 114 11.5 198t21.5 97l-14 14q-35 -37 -39 -309z" />
<glyph unicode="w" horiz-adv-x="763" d="M2 676q-4 10 35 62q32 42 50 42q4 0 7 -2q12 -7 42.5 -87t72.5 -204.5t49 -144.5q3 -6 9 -7t9 5q26 39 26 102q0 51 -17 119l-2 4q-1 5 22 26.5t47 39.5t27 14q3 -11 53 -162.5t57 -212.5q1 -5 7 7q30 57 50 164q12 65 12 120q0 15 -1 29q-1 6 -2 17t-2 16q0 2 -15 14 l-32.5 26t-20.5 17q-45 40 -83.5 89t-53.5 85q0 1 -2.5 10t-3.5 14.5t0.5 13t7.5 11.5q5 4 13 4q26 0 81 -43q103 -80 127 -221q0 -13 90 -46.5t107 -33.5q6 0 8 -5l2 -6q0 -2 -1 -4q-2 -5 -7 -5h-2q-31 0 -178 63q-5 2 -9 -1t-3 -9v-4l2 -40q0 -84 -24 -169 q-30 -105 -52 -127q-13 -14 -38.5 -24.5t-42 -14.5t-20.5 -4h-2v6q0 53 -17 122q-18 73 -46 128q-4 7 -11.5 5.5t-7.5 -9.5q1 -9 1 -19q0 -44 -12 -80q-14 -44 -25.5 -57t-22.5 -22q-2 0 -10 -0.5t-10.5 -1t-10.5 -4.5t-15 -11.5t-18.5 -22t-25.5 -34.5q-2 -5 -6 -5l-2 1 q-6 2 -8 8q-18 101 -63.5 258.5t-88.5 200.5zM365 870q33 -96 161 -198q3 -2 6 -2l6 2q4 3 4 6q0 2 -1 4q-19 66 -63 124t-101 77q-2 1 -3 1q-3 0 -6 -3q-4 -4 -4 -8q0 -1 1 -3z" />
<glyph unicode="x" horiz-adv-x="729" d="M2 319q0 10 11 8q10 -2 10 -12q-5 -17 0 -22q4 -4 10 -4q28 -1 107 81q96 98 147 175q-91 137 -169 231q-78 93 -103 92h-1q3 4 9 9.5t25.5 17.5t40 18t52 3t62.5 -21q55 -31 176 -207q141 244 141 437q0 52 -10 100q-8 30 -14 30q-8 0 -21 -18q-22 -37 -18 -59 q4 -1 8 -7q1 -6 -2 -11t-8 -5q-10 3 -13 6q-6 8 -6 20q0 21 17 56q6 14 19 27q12 12 24 12h2q23 -3 32 -47q9 -49 9 -101q0 -89 -27 -186q-37 -126 -119 -272q81 -118 162.5 -256t103.5 -189q9 -20 10 -47q0 -30 -13 -68q-23 -70 -69.5 -123t-88.5 -53q-16 0 -34 48 q-16 43 -16 100v14q2 67 33 109l2 -2q-63 139 -184 323q-24 -32 -50.5 -65t-69.5 -81t-84 -78t-68 -30t-27 30q0 8 2 17zM492 -35h3q24 0 35 14q11 13 11 38q-1 3 -1 6q-2 29 -12.5 66t-31.5 85q-27 -70 -27 -123q0 -50 23 -86z" />
<glyph unicode="y" horiz-adv-x="653" d="M0 729q5 -1 22 1.5t50 -7t57 -31.5q23 -20 25 -128v-45q0 -81 -4 -147q-2 -19 -2 -35q0 -54 14 -73h2q16 0 58 106q45 114 91.5 236.5t61.5 130.5l-8 115q34 -2 69.5 -18t54.5 -31l19 -15l6 -226v-63q0 -329 -29 -544q12 -4 39.5 -12t42 -13.5t35.5 -15.5t37.5 -24 t30.5 -33l-19 -13q-50 73 -168 90q-22 -209 -137 -299q-59 -47 -120 -47q-20 0 -40 5q-71 18 -95 84q-10 25 -10 55q0 9 1 18q13 93 101.5 148.5t191.5 60.5q17 149 17 340q0 180 -15 397q-202 -477 -213 -477q-2 0 -20 -3.5t-38.5 -5t-42 -0.5t-37 11t-18.5 29q-2 9 -2 31 q0 37 4 107q7 115 7 218t-19 123zM104 -252q-1 -16 7 -43.5t26 -52.5t43 -38q9 -5 21 -5q18 0 39 11q37 19 77 73q38 83 58 246q-42 -3 -84.5 -15.5t-83.5 -35t-69 -59t-34 -81.5z" />
<glyph unicode="z" horiz-adv-x="755" d="M0 944q0 4 4 23.5t16 55t31 69.5t53.5 65.5t77.5 44.5q1 1 3 0q14 0 52 -40q42 -44 50 -62q4 -10 4 -22q0 -31 -24 -79q-33 -67 -72 -118t-64 -74q-4 -4 6 -14t33 -18q24 -7 57 -9q3 0 6 -1q31 0 79 15q52 16 112 51v5q7 -6 16.5 -16t25.5 -42q15 -30 15 -59 q0 -36 -77 -113q-76 -76 -171 -155q7 4 23 12t23 12q122 60 200 61q47 0 78 -22q41 -25 41 -93v-9q109 62 168 71l4 -18q-69 -13 -172 -78q-6 -50 -31 -115q-51 -127 -139 -221q-30 -32 -95 -66q-58 -31 -91.5 -31t-42.5 31q-4 12 -4 27q0 46 66 122.5t157 150.5 q64 52 160 114q1 10 1 20q0 58 -32 79q-27 18 -67 18q-73 0 -191 -59q-98 -51 -162 -109q-7 -6 -35.5 19t-45.5 57q-8 15 -8 30q0 16 9 31q12 14 167.5 142.5t193.5 177.5q0 -2 -2 -2q-52 -28 -98 -41q-42 -12 -74 -12h-8q-36 2 -67 12t-53.5 28t-41 38t-30 41t-19.5 37.5 t-11 27.5zM94 862q7 -21 21 -37q38 38 98 134.5t57 109.5l4 25q0 4 -6 8q-3 3 -8 3q-4 0 -8 -1q-18 -2 -61.5 -44t-77.5 -101q-24 -41 -24 -72q0 -13 5 -25zM215 12q0 -34 31 -34q23 0 62 18q65 30 103 67l3 3q84 91 133 213q18 44 28 94q-58 -36 -145 -105 q-96 -77 -155.5 -148.5t-59.5 -107.5z" />
<glyph unicode="{" horiz-adv-x="565" d="M-0.5 -5.5q-4.5 43.5 10.5 93.5q17 88 43 186q38 144 43 185q7 50 4 90.5t-12.5 71.5t-20 51t-18.5 30l-8 11q14 14 35 36.5t59.5 76t44.5 89.5q14 78 25 197q19 155 26 193q10 59 47.5 102.5t83.5 64t90.5 32t74.5 12.5l30 2q-9 -1 -24 -4.5t-54 -21t-71 -42.5 t-61.5 -74.5t-37.5 -111.5q-2 -22 -9.5 -78t-10.5 -88q-13 -127 -23 -176q-18 -97 -74.5 -147.5t-117.5 -67.5l65 -60q61 -79 35 -229q-12 -76 -41 -172q-35 -144 -39 -164q-13 -94 -4 -158.5t33.5 -104.5t50 -61.5t44.5 -29.5l20 -7l-10 2.5t-26.5 8.5t-38 16t-43 25 t-43 35.5t-38.5 47.5t-28 61.5t-11.5 77z" />
<glyph unicode="|" horiz-adv-x="374" d="M166 0v1358h53v-1358h-53z" />
<glyph unicode="}" horiz-adv-x="577" d="M0 -287q4 -1 11 -1t28.5 3.5t41.5 11.5t46.5 28.5t48 50t41 79.5t29.5 113q4 29 14 168q11 153 14 178q27 153 107 201l80 33q-22 17 -42 38.5t-41 55t-30 80t-2 98.5q8 50 35 174q6 26 16.5 81t16.5 83q11 66 0.5 119t-36 93t-52 66.5t-46.5 39.5l-20 14q11 -5 29 -13.5 t63 -39t78 -65.5t56 -90.5t14 -115.5q-7 -55 -37 -190q-24 -110 -37 -193q-4 -36 13 -97t36 -104l19 -43q-4 -2 -11 -6.5t-26.5 -21.5t-36 -39.5t-34 -62t-26.5 -85.5q-7 -41 -16 -190q-5 -80 -16 -191q-7 -64 -28.5 -113t-51 -76t-63.5 -44.5t-66.5 -23t-59 -6.5t-43.5 1z " />
<glyph unicode="~" horiz-adv-x="782" d="M0 236q4 4 10.5 11t30.5 24.5t50.5 31t69 24.5t87.5 11q53 0 95.5 -18.5t79.5 -37t77 -18.5q45 0 84.5 17.5t55.5 34.5l17 18l11 -6q-2 -5 -6.5 -14t-22.5 -32t-40 -40.5t-60.5 -32t-83.5 -14.5q-47 0 -87.5 12t-64.5 26.5t-58 26.5t-71 12q-40 0 -81 -10.5t-62 -20.5 l-21 -10z" />
<glyph unicode="&#xad;" d="M0 297l10 57q256 40 525 25l-9 -64q-20 2 -46.5 4t-33.5 3q-184 0 -227 -3q-127 -7 -219 -22z" />
<glyph unicode="&#x2000;" horiz-adv-x="767" />
<glyph unicode="&#x2001;" horiz-adv-x="1535" />
<glyph unicode="&#x2002;" horiz-adv-x="767" />
<glyph unicode="&#x2003;" horiz-adv-x="1535" />
<glyph unicode="&#x2004;" horiz-adv-x="511" />
<glyph unicode="&#x2005;" horiz-adv-x="383" />
<glyph unicode="&#x2006;" horiz-adv-x="255" />
<glyph unicode="&#x2007;" horiz-adv-x="255" />
<glyph unicode="&#x2008;" horiz-adv-x="191" />
<glyph unicode="&#x2009;" horiz-adv-x="307" />
<glyph unicode="&#x200a;" horiz-adv-x="85" />
<glyph unicode="&#x2010;" d="M0 297l10 57q256 40 525 25l-9 -64q-20 2 -46.5 4t-33.5 3q-184 0 -227 -3q-127 -7 -219 -22z" />
<glyph unicode="&#x2011;" d="M0 297l10 57q256 40 525 25l-9 -64q-20 2 -46.5 4t-33.5 3q-184 0 -227 -3q-127 -7 -219 -22z" />
<glyph unicode="&#x2012;" d="M0 297l10 57q256 40 525 25l-9 -64q-20 2 -46.5 4t-33.5 3q-184 0 -227 -3q-127 -7 -219 -22z" />
<glyph unicode="&#x2013;" horiz-adv-x="1109" d="M0 297l19 57q490 40 1005 25l-17 -64q-39 2 -89.5 4t-63.5 3q-353 0 -435 -3q-243 -7 -419 -22z" />
<glyph unicode="&#x2014;" horiz-adv-x="2133" d="M0 297l38 57q980 40 2010 25l-34 -64q-77 2 -178.5 4t-128.5 3q-704 0 -869 -3q-486 -7 -838 -22z" />
<glyph unicode="&#x202f;" horiz-adv-x="307" />
<glyph unicode="&#x205f;" horiz-adv-x="383" />
<glyph unicode="&#x25fc;" horiz-adv-x="1280" d="M0 0v1280h1280v-1280h-1280z" />
</font>
</defs>
</svg>
