<?xml version="1.0" standalone="no"?>
<!DOCTYPE svg PUBLIC "-//W3C//DTD SVG 1.1//EN" "http://www.w3.org/Graphics/SVG/1.1/DTD/svg11.dtd" >
<svg xmlns="http://www.w3.org/2000/svg" xmlns:xlink="http://www.w3.org/1999/xlink" version="1.1">
<metadata></metadata>
<defs>
<font id="the_mistieregular" horiz-adv-x="1056" >
<font-face units-per-em="2048" ascent="1536" descent="-512" />
<missing-glyph horiz-adv-x="608" />
<glyph horiz-adv-x="0" />
<glyph horiz-adv-x="682" />
<glyph horiz-adv-x="0" />
<glyph horiz-adv-x="0" />
<glyph unicode="&#xd;" horiz-adv-x="608" />
<glyph unicode=" "  horiz-adv-x="608" />
<glyph unicode="&#x09;" horiz-adv-x="608" />
<glyph unicode="&#xa0;" horiz-adv-x="608" />
<glyph unicode="!" horiz-adv-x="335" d="M43 1206q0 53 8 94q2 7 7.5 15.5t11.5 9.5q69 20 127 31q2 1 12 -4q0 -180 2 -215q1 -36 8.5 -102.5t9.5 -96.5q8 -54 5.5 -122.5t-25.5 -121.5q-46 -111 -23 -225q4 -13 4 -14q-10 -26 -14 -27q-6 -3 -16.5 0t-12.5 8q-28 58 -32 88q-40 254 -56 381q-24 170 -16 301z M49 248q55 9 129 24q-34 37 -74 74q29 7 80.5 20t75.5 19q20 -53 24 -115t-0.5 -105t-15.5 -112q-3 -16 -4 -24q-64 -32 -151 -29q-27 3 -33.5 10.5t-9.5 36.5q-2 28 -21 201z" />
<glyph unicode="&#x22;" horiz-adv-x="540" d="M43 1153q8 33 31 186q29 6 84 -3.5t63 -10.5q2 -48 -8.5 -64.5t-48.5 -25.5q-48 -12 -53 -55q-7 -56 -43 -78q-33 13 -25 51zM244 1116q5 16 15.5 53.5t17 57.5t19.5 48.5t30 49.5q32 43 73 33q19 -5 56.5 -12t48.5 -9q-8 -32 -15 -37q-5 -4 -19 -17t-20.5 -18t-20.5 -11 t-28 -7q-49 -3 -63 -43q-5 -17 -14 -34t-22 -40.5t-19 -35.5q-7 5 -21.5 12.5t-17.5 9.5z" />
<glyph unicode="#" horiz-adv-x="1464" d="M41 907q19 22 39 36t44 21t36 10t42.5 4.5t35.5 2.5q25 2 36 3t28.5 4.5t23 3t17 7t13.5 8t9.5 13t8 15t5.5 22t6 26t6 33.5q15 90 29 146q13 46 45 69t72 15q29 -5 42.5 -21t13 -37t-0.5 -45q-1 -32 -1 -68t0.5 -83.5t0.5 -77.5h242q91 222 118 276q3 6 16 9t39 5t42 5 q-6 -25 -24 -102.5t-28 -125.5q28 6 91.5 22.5t105.5 24.5t82 11q28 2 25 -18q-4 -34 -71 -88q-107 -86 -233 -105q-5 -72 -16 -238t-18 -254q51 -20 115.5 -25t115.5 -0.5t115.5 -1.5t115.5 -28q-48 -26 -108 -34t-108 -3t-108.5 3t-107.5 -19q3 -10 48.5 -136t72.5 -202 q-15 7 -35 15t-30.5 13.5t-16.5 12.5q-1 2 -13 15.5t-14.5 17t-12.5 15.5t-14 18t-10.5 16.5t-11 19t-8.5 17.5q-28 60 -47.5 95t-45.5 64t-49 40.5t-62.5 16t-82 -0.5t-110.5 -17q-16 -43 -19 -111.5t-12 -133t-41 -113.5q-40 19 -47.5 47t1 65.5t5.5 53.5q-20 122 -32 198 q-34 4 -115 16t-125 17v31q39 7 115 22t110 21q-14 252 -24 446h-326zM536 593q-4 -102 15.5 -121.5t139.5 -32.5q37 -4 59 -7q40 -4 71 -6q9 154 33 494h-287q-3 -25 -11 -73t-12.5 -85t-4.5 -70q0 -39 -3 -99z" />
<glyph unicode="$" horiz-adv-x="708" d="M29 616q1 7 6 15q3 1 34 8.5t46 9.5q6 -9 16 -25t14 -22q84 -101 74 -209q-17 -143 113 -256q-2 6 -2 19q-4 39 -10.5 115t-10.5 114q-3 35 -11 107t-11 110q-4 32 -8 92q-53 38 -105 78q-15 12 -26.5 25.5t-23 35.5t-16 32t-16.5 40l-14 35q-34 86 10 215q25 79 113 113 q34 12 65 18v70q19 -2 54.5 -6.5t54.5 -6.5q0 -41 2 -61q37 -7 98 -29q102 -41 117 -149q2 -16 8 -47t8 -47q1 -7 -4 -37q-6 -2 -18 -2q-1 10 -3 19.5t-6 19.5t-6.5 16.5t-9 17t-9 15.5t-10.5 16.5t-10 14.5t-11.5 15.5t-10.5 14.5q-16 22 -41 43q-29 23 -63 47 q-12 9 -27 17q0 -23 1 -66.5t1 -64.5v-238q2 -53 2 -158q65 -34 106 -49q42 -15 144 -69q20 -12 24 -35q1 -5 4.5 -38.5t4.5 -43t3 -37.5t0.5 -43t-3.5 -38t-7.5 -42.5t-13.5 -38.5q-67 -157 -207 -182q-27 -5 -61 -2v-4q-3 -10 -3 -22.5t1.5 -29t1.5 -26.5q-15 3 -33 6 q-1 15 -4 43t-4 43q-4 1 -64 25q-9 3 -17.5 9t-14.5 11t-13 15t-9.5 14.5t-9.5 17t-9 15.5q-12 19 -23.5 42t-24 52t-20.5 45q-30 64 -35 121q-1 17 -8.5 35t-21.5 41t-19 34q-2 3 -6.5 10.5t-6.5 12t-4 11t-1 13.5zM199 969q5 -23 2 -27q-20 -50 -0.5 -88t63.5 -72l8 -8 q-1 18 -2 54.5t-2 54.5q-1 47 0.5 131t1.5 112v21q-26 -47 -26 -100q0 -20 -21 -33q-32 -14 -24 -45zM373 375q2 -12 2 -39q1 -12 1.5 -49t2.5 -56q6 -49 6 -96q1 3 5 9.5t5 9.5q11 16 41 55q61 70 49 158q-2 16 -3.5 58t-4.5 64q-12 92 -92 140q0 -15 -4 -39 q-17 -150 -8 -215z" />
<glyph unicode="%" horiz-adv-x="1144" d="M39 119q3 6 7 17.5t8.5 21t8.5 16.5q102 180 125 215q16 25 164 229q129 185 246 340q22 29 68 77t59 63q125 139 182 207q31 42 74 32q13 -3 37.5 -4t46 -5.5t41.5 -16.5q-169 -204 -193 -232q-20 -24 -60.5 -68t-49.5 -53q-17 -20 -78.5 -88.5t-93.5 -107.5 q-33 -41 -104 -106t-95 -91q-91 -100 -119 -139q-35 -46 -180 -252q-15 -20 -22 -35.5t-6.5 -36t14.5 -39.5q4 -8 4 -10q15 -42 -14 -51q-10 -4 -27 0.5t-23 13.5q-40 59 -20 103zM182 68q2 8 3 20t3 16q6 7 17 20.5t20.5 24t18.5 17.5q42 30 87 70t54 63q5 1 20.5 3t21.5 3 t20 2.5t21.5 1.5t20 -0.5t21 -2.5t18.5 -6t19 -9q93 -52 90 -156q-5 -32 -23 -41q-92 -46 -186 -84q-42 -16 -67 -7.5t-52 44.5q-9 15 -27.5 41.5t-23.5 34.5q-8 -6 -33 -24t-43 -31zM315 1198q9 51 31 85.5t70 53.5q74 26 133 9q37 -13 49 -41q5 -12 19 -40t20 -44 q4 -19 -12 -39q-13 -14 -97 -45t-102 -27q-40 -8 -61 -8q-8 0 -18 5t-13 11q-23 57 -19 80zM352 121q0 -6 5 -13.5t14.5 -18t13.5 -15.5q5 -7 18 -17q53 15 50 49q0 38 -19 97q-8 20 -27 21t-28 -19q-24 -43 -27 -84zM367 1202h88q-6 15 -17.5 40t-17.5 40q-56 -27 -53 -80z " />
<glyph unicode="&#x26;" horiz-adv-x="888" d="M29 395q4 50 7.5 77.5t15.5 67t32 70.5q35 52 68.5 82.5t83.5 38.5q5 1 10.5 5.5t12.5 12.5t11 11q-75 131 -92 164q-52 92 -24 229q21 91 118 164q73 53 150 37q22 -4 70 -8q90 -6 106 -93q13 -43 9.5 -95t-38.5 -89q-2 -2 -39 -63q-7 2 -22 7.5t-25 8.5l28 42t26 40 q17 25 22 42.5t-2 49.5q-4 11 -9 36.5t-14 45t-26 35.5q-88 -45 -135 -111q-65 -93 -47 -254q1 -8 7.5 -23t8.5 -20q19 -53 20 -71q6 -34 33 -31q29 4 83.5 13t78.5 13l25 5t29 5t24.5 -1.5t28.5 -10.5q-16 -20 -55 -29t-50 -16q-14 -10 -106 -57q40 -61 100 -94 q21 -13 65 0q106 33 179 -62q91 -124 45 -286q0 -13 -4 -17q-30 -53 -47.5 -82t-49.5 -69t-67 -68q-106 -80 -219 -22q-15 8 -84 41.5t-96.5 48.5t-77 44.5t-86.5 57.5q-88 65 -82 178zM221 307q-4 -63 31 -104q96 -122 248 -160q34 -10 67 6q7 4 31 17.5t34.5 20.5t28.5 20 t29.5 27.5t20.5 31.5q5 14 26 31q24 19 38 46.5t24.5 64t19.5 54.5q2 8 -2 29q0 82 -49 156q-31 45 -52 51t-67 -20q-1 -1 -8 -15q25 -25 37 -35q-13 -41 -24.5 -47.5t-45.5 4.5q-10 3 -43 17q-60 -53 -96 -172q-105 29 -68 116q4 9 33 56q8 13 25 36.5t24 34.5 q-15 14 -43 39t-41 37q-30 24 -59 -2q-75 -71 -86 -131q-29 -142 -33 -209z" />
<glyph unicode="'" horiz-adv-x="325" d="M31 1114q5 16 15.5 53.5t17 57.5t19.5 48.5t30 49.5q32 43 73 33q39 -10 105 -23q-2 -5 -4.5 -13.5t-4.5 -13.5t-6 -8q-5 -4 -19 -17t-21 -18.5t-20.5 -11.5t-27.5 -6q-49 -3 -63 -45q-7 -22 -29 -61.5t-26 -48.5q-21 12 -39 24z" />
<glyph unicode="(" horiz-adv-x="649" d="M31 598l6 84l-2 49l10 51l31 99l12 20l4 25l37 80l12 34l49 86l13 25l137 147l10 23l17 16l32 15l29 4l47 2l33 -6l27 -9l26 -8l17 -14l16 -12l2 -17l-25 -10l-49 -55l-106 -56l-39 -32l-19 -9l-75 -92l-35 -49l-19 -20l-14 -29l-47 -80l-10 -22l-17 -27l-32 -109l-9 -53 l-8 -37l-2 -26l2 -60l29 -161l33 -80l30 -47l39 -48l76 -67l76 -62l57 -26l37 -19l10 -10l-22 -8l-15 4l-20 12l-27 9l-59 38l-43 33l-90 78l-88 115l-19 45l-33 86l-2 26l-18 58l-2 24z" />
<glyph unicode=")" horiz-adv-x="626" d="M31 66l22 10l49 55l109 53l39 35l18 8l76 90l33 52l20 20l15 29l45 80l10 20l16 29l35 106l8 54l9 36v29l-3 57l-28 164l-31 80l-31 47l-41 45l-73 68l-78 61l-57 27l-37 20l-9 11l23 6l14 -4l19 -11l28 -8l58 -41l45 -30l90 -78l86 -117l20 -43l33 -86l2 -29l17 -57 l2 -23l12 -71l-6 -86v-47l-10 -52l-29 -98l-14 -20l-5 -27l-34 -80l-13 -33l-51 -86l-12 -26l-137 -148l-9 -20l-18 -17l-31 -14l-28 -6l-49 -2l-33 8l-25 6l-26 11l-17 12l-16 12z" />
<glyph unicode="*" horiz-adv-x="1226" d="M31 840v30q42 7 199.5 40.5t201.5 41.5q-9 75 6.5 215t46.5 158q18 11 42 16.5t62 9.5t54 7v-375q144 54 285 139q59 33 79 35t95 -22q-9 -27 -47.5 -49t-89 -38l-101 -32t-90 -38t-49.5 -48q21 -16 70.5 -18t106.5 1t114.5 2.5t105 -19t68.5 -58.5q-382 -13 -492 -17 q43 -116 162.5 -236t261.5 -190q-18 -1 -43 -5t-32.5 -4.5t-26.5 1.5q-95 24 -167 56.5t-128 88.5q-10 11 -24 23t-26.5 21.5t-35 27.5t-39.5 31v-256q-41 3 -61 28t-25 56.5t-22.5 75.5t-49.5 75q-20 -18 -92 -118t-92 -119q-7 -6 -46 -43.5t-62 -54.5q-12 -9 -38 -8.5 t-32 8.5q-11 16 -15 40.5t3 38.5q17 27 58 70t48 51q144 186 176 232q8 12 13 26.5t10.5 42t7.5 35.5q-24 2 -350 25z" />
<glyph unicode="+" horiz-adv-x="1089" d="M33 586q0 8 2 8q14 7 56.5 27.5t63 30t54.5 23t63 21.5q44 -1 74 4.5t47 20.5t25.5 31t9 44.5t-1.5 51t-6.5 61t-5.5 64.5q-7 34 -10 49.5t-2 32.5t5.5 22.5t19 12t31.5 7.5t50 3q16 2 35 2t40.5 -1t32.5 -1v-373q25 -3 81 -10.5t97 -11.5t80 -5q96 -2 133.5 -35.5 t49.5 -132.5q-64 5 -218 17.5t-239 19.5q-2 -7 -12.5 -46t-14.5 -58q-21 -108 -36 -219q-4 -29 -10.5 -91t-10.5 -92q-1 -8 -4.5 -19t-7 -20t-7 -15t-5.5 -5q-22 0 -44 8t-28 19q-17 38 -17 106q1 46 5 166t4 186q0 64 -22.5 85t-84.5 18q-32 -2 -203 -27q-5 0 -15 -2 t-16 -2t-14 1t-14 7t-10 17z" />
<glyph unicode="," horiz-adv-x="395" d="M31 180q11 4 35.5 14t37.5 13q11 3 41 8.5t45 11.5q54 18 93 -24q33 -36 54.5 -84.5t25 -104t-26.5 -104.5q-21 -35 -40.5 -77t-41.5 -94.5t-35 -80.5q-2 -1 -6 -2t-6 -2q0 3 -2.5 14.5t-2.5 15t1 13.5q12 37 59 166q4 12 15.5 33.5t15.5 33.5q13 45 4 63t-53 42 q-19 10 -52 33t-62.5 39.5t-59.5 23.5q-5 2 -10.5 7.5t-15.5 21.5t-13 20z" />
<glyph unicode="-" d="M31 651q5 62 80 78q32 5 61 0.5t74.5 -18.5t56.5 -17q99 -23 180 -4q78 18 181 2q41 -7 85.5 -10t107 -4t87.5 -2q74 -3 74 -74q-5 -1 -39 -6t-51 -6q-47 -1 -141.5 -2t-141.5 -2q-9 0 -33.5 -0.5t-37 -1.5t-31.5 -4t-33 -9q-53 -23 -118.5 -30.5t-106 -6t-119.5 8.5 q-11 1 -127 16q-9 75 -8 92z" />
<glyph unicode="." horiz-adv-x="253" d="M33 203q27 15 76.5 23t91.5 5q4 -23 11 -67t11 -64q-7 -6 -23 -17.5t-20 -14.5q10 -20 10 -21q4 -26 0 -35q-6 -13 -30 -8q-58 6 -88.5 37.5t-36.5 93.5q-2 11 -2 68z" />
<glyph unicode="/" horiz-adv-x="749" d="M41 16q-19 17 0 66q44 85 78 268q8 46 53 166q24 59 69 165.5t62 147.5q11 27 16 45q8 41 20 80t30 80t30 67.5t36.5 74.5t33.5 67q11 25 66 103q9 12 26 12q21 -4 70.5 -13.5t75.5 -13.5q0 -6 0.5 -11t0.5 -7t0.5 -3.5t0.5 -2.5q-119 -227 -136 -263q-36 -70 -61 -157 q-66 -222 -174 -387q-76 -120 -109 -248q-15 -57 -77 -162q-25 -43 -66 -76q-9 -6 -22.5 -5.5t-22.5 7.5z" />
<glyph unicode="0" horiz-adv-x="974" d="M39 604q-21 222 2 381q34 210 195 260q8 3 24 19q64 78 174 84q105 9 213 6q9 0 19 -2.5t23.5 -7.5t19.5 -7q-2 -6 -2 -16q-52 -5 -64 -4q-85 7 -159.5 -25.5t-151.5 -95.5q-85 -67 -76 -184q4 -56 13.5 -161t11.5 -128q8 -78 8 -115q-4 -35 -23 -51q-70 -56 -28 -160 q34 -87 120 -202q10 -16 25 -30t38.5 -33t31.5 -26q43 -38 105.5 -23.5t88.5 69.5q93 190 125 270q23 58 27 125.5t-5 122.5t-28 127q-12 50 -76 239q-41 133 -162 138q-22 1 -37 4.5t-35.5 18t-35.5 40.5h135q112 -8 166 -18q31 -4 82 -33q96 -60 96 -195q1 -46 10 -131.5 t11 -109.5q1 -21 4.5 -60t5.5 -71t2 -60q0 -66 -23 -119q-67 -155 -141 -295q-40 -83 -164 -129q-174 -60 -325 88q-50 50 -60 68q-42 69 -62.5 105.5t-51 97.5t-46 116.5t-20.5 112.5z" />
<glyph unicode="1" horiz-adv-x="600" d="M57 1143q4 4 25 27t33 32t53 37t61 47q31 27 73.5 42.5t70 19.5t82.5 10q41 3 49 -35q26 -100 28 -115q1 -4 5 -28t5 -30.5t4 -26.5t3 -30.5t0.5 -27t-1.5 -30.5t-5 -29q-10 -57 -2 -105q10 -53 10.5 -115t-3.5 -103t-14.5 -115.5t-13.5 -106.5q-2 -19 -10 -79.5 t-10.5 -89.5t-5 -78t1.5 -90t14 -81q1 -5 -8 -43q-73 73 -78 135q-8 50 -8 76q3 76 -39 164q-21 42 -33 98.5t-15 88t-7 104.5q-1 8 -2.5 40.5t-3 46.5t-6 38.5t-11.5 44.5q-4 12 -5.5 28t-1 27.5t2.5 31.5t2 29q7 57 6.5 132t-18.5 135q-70 -12 -142 -80q-21 -20 -40 -18.5 t-46 22.5z" />
<glyph unicode="2" horiz-adv-x="1198" d="M55 1069q5 17 15.5 50.5t15.5 49.5q4 11 29 95q47 34 100 54t118 27.5t107.5 8.5t120.5 0q18 0 72 -33q17 -12 56 -41.5t61 -44.5q119 -77 135 -166q4 -21 5 -48t0.5 -43t-2 -51t-1.5 -44q-3 -23 -27 -39q-33 -23 -62 -57.5t-46 -62t-42.5 -74t-39.5 -68.5 q-6 -10 -19.5 -28t-17.5 -24q-8 -13 -24.5 -40.5t-30 -49t-27.5 -39.5q-53 -71 -113 -137q-17 -20 -53.5 -55t-52.5 -55q-10 -11 -16.5 -29.5t-2.5 -26.5q4 -10 22 -17t32 -5q45 2 135 10t135 10h227q38 0 114 -1t114 -1q8 0 17.5 -1t21 -2.5t18.5 -2.5q-19 -47 -42 -64 t-63 -14q-40 2 -148.5 10.5t-168.5 10.5q-26 1 -113 -8q-13 -1 -114 -12.5t-154 -12.5q-55 0 -113 35q-84 44 -24 119q57 71 139 149q100 93 139 178q13 28 123 254q68 139 -2 334q-10 27 -28 51.5t-33 40t-45.5 36t-43.5 28t-50 28.5q-13 7 -40 -2t-46 -24 q-97 -77 -148 -160.5t-47 -198.5q-113 71 -72 203z" />
<glyph unicode="3" horiz-adv-x="1058" d="M33 1198q10 7 29 21t30 22t27.5 17.5t30.5 15.5q122 49 224 69.5t206 2.5q77 -10 133 -31q69 -26 99.5 -97.5t2.5 -140.5q-1 -5 -4 -11.5t-4 -8.5q-10 -25 -32.5 -78.5t-39.5 -95t-22 -58.5q-9 -30 1.5 -59t39.5 -56t53 -44.5t61 -40.5q46 -25 90 -66q50 -43 56.5 -100.5 t-27.5 -114.5q-119 -209 -287 -299q-156 -86 -315 -18q-29 13 -80.5 45t-77.5 45q-51 24 -67.5 90t-5.5 125q7 34 47 20q0 -2 3 -9.5t3 -12.5q-7 -125 83.5 -207.5t217.5 -67.5q172 21 305 191q16 20 47 59t47 60q100 138 -53 215q-113 57 -260 125q-55 25 -65.5 45t3.5 77 q10 32 15 47t17 40.5t28.5 43t40.5 31.5q38 23 60 59t14 80q-20 111 -121 134q-145 40 -254 -2q-14 -6 -99.5 -33.5t-126.5 -55.5q-37 -25 -73 27z" />
<glyph unicode="4" horiz-adv-x="1013" d="M31 766q-3 35 16 70q19 31 59 85.5t50 69.5q110 164 161 248q8 14 13 31.5t10 42.5t8 37q10 0 42.5 -0.5t48 -1.5t40 -6.5t43.5 -16.5q-6 -50 -59 -115q-60 -77 -88 -110q-71 -90 -76 -187q-1 -23 -11 -64t-12 -54q-6 -50 11.5 -66t64.5 -6q124 27 318 20q44 -1 53.5 8.5 t9.5 55.5q0 162 -2 242q0 29 4 41q6 31 19.5 41.5t44.5 9.5q1 0 4 -1t4 -1q22 -4 68 -12.5t69 -12.5q15 -108 17 -129q17 -202 -27 -342q-12 -37 -55 -80q-39 -39 -56 -78.5t-10 -91.5q7 -48 11 -141.5t5 -110.5q1 -11 8 -32t9 -29q15 -45 -21 -78q-76 0 -88 74 q-7 51 -14 139q-8 170 -10 248v207q-53 24 -144 16q-307 -28 -401 -39q-71 -10 -113 53q-21 31 -24 66z" />
<glyph unicode="5" horiz-adv-x="905" d="M39 733q29 37 108 140.5t123 158.5q66 80 78 187q3 27 -5 42.5t-34 24.5q-11 4 -33.5 18.5t-33.5 20.5q13 2 58.5 9.5t63 9.5t51.5 4.5t60.5 -0.5t52.5 -11q3 -1 13.5 -1.5t15.5 -2.5q36 -17 76.5 -25t93.5 -13t78 -9q16 -3 72 -22q0 -8 -3 -17q-30 -10 -34 -10 q-176 -4 -265 -4q-11 0 -19 -0.5t-15 -0.5t-12.5 -2.5t-9.5 -3t-8.5 -5t-6.5 -6t-7 -8.5t-7 -10t-8 -14t-9 -16q-17 -30 -39.5 -60t-54 -68t-45.5 -56q-8 -10 -33 -42t-43 -54q38 -7 107.5 -18t103.5 -17q94 -17 163.5 -52.5t115.5 -103.5q62 -98 79 -239q7 -67 -36 -107 q-90 -90 -175 -184q-19 -20 -50.5 -59.5t-47.5 -57.5q-23 -23 -49 -29q-216 -59 -373 41q-19 12 -29.5 20.5t-19 27t-2.5 41.5q15 7 28.5 8t26.5 -4t22.5 -11t22.5 -16q101 -77 234 -55q75 10 110 61q70 98 84 160q50 213 -71 475q-22 49 -68 43q-86 -10 -155 -29 q-22 -6 -45 -15.5t-53 -23.5t-44 -20q-22 -8 -33.5 -10.5t-30 1.5t-34.5 19z" />
<glyph unicode="6" horiz-adv-x="802" d="M29 756q3 62 69 65q66 4 101.5 44t52.5 108q11 39 22 106q12 89 88 138q136 90 300 135q62 18 96 -33q-5 -3 -14 -10.5t-16.5 -11.5t-14.5 -5q-281 -46 -377 -291q-10 -26 -24 -53.5t-35 -65.5t-31 -57q18 -4 79 -18.5t95 -20.5q99 -14 223 -100q96 -65 105 -180 q1 -12 5 -49.5t4.5 -49t-1.5 -47.5q-16 -99 -76.5 -169t-161.5 -134q-50 -31 -106.5 -44.5t-106 -11.5t-112.5 13q-10 2 -22 3t-26 1.5t-22 1.5q-29 4 -50.5 83t-29 174.5t-8 177.5t7.5 94q16 20 28 44.5t27 62.5t21 53q-22 12 -52 27.5t-38 19.5zM225 745q4 -109 11.5 -321 t11.5 -322q48 16 94.5 45t72.5 50.5t72 62.5q104 93 91 264q-7 99 -66 142q-90 63 -154 84q-96 30 -133 -5z" />
<glyph unicode="7" horiz-adv-x="923" d="M29 1296q4 2 19 10t22 9q23 1 93.5 5t93 4.5t93.5 -1.5q91 -4 262 23q50 7 226 16q24 1 35 -11t6 -36q0 -1 -31 -115q-37 -137 -60 -194q-52 -131 -92 -199q-23 -42 -81.5 -135.5t-84.5 -145.5q-36 -71 -75 -221q-25 -95 -64 -299q-34 -17 -90 12q-7 5 -15 14.5t-7 12.5 q10 25 3 91t15 91q40 62 51 174q10 102 53 164q34 49 115 197q7 17 12 63q1 22 2 63.5t2 63.5q2 47 13.5 96t32.5 114.5t30 101.5q-45 0 -51 -2q-68 -16 -146 -18.5t-169.5 1t-145.5 0.5q-52 -3 -67 51z" />
<glyph unicode="8" horiz-adv-x="995" d="M37 387q18 86 61 135q49 57 76 87t74.5 72t93.5 69q27 16 83.5 43t74.5 36q-15 8 -43.5 22.5t-45.5 24t-32 19.5q-75 54 -121 100q-64 61 -25 146q15 36 29.5 60.5t37 48t54 34.5t72.5 10q52 -2 147 21q11 2 22 8t26 17t24 16q8 -7 26 -20.5t31 -25t23 -24.5 q62 -70 16 -174q-12 -25 -96 -194q3 -2 14 -11t21 -15.5t20 -10.5q66 -25 88 -99q9 -28 25.5 -57t42 -66t35.5 -53q47 -71 59 -131q32 -162 -90 -303q-100 -120 -215 -149q-43 -12 -115 -19q-15 -1 -60 1.5t-60 -1.5q-116 -16 -289 45q-48 17 -60 68q-47 156 -24 270z M238 115q4 -2 22.5 -9t23.5 -8.5t20.5 -7t22 -7t19.5 -5t21 -4.5t19.5 -2t21.5 -0.5t20 2.5q38 8 55 2q64 -20 120 -2t122 63q114 77 133.5 195t-55.5 229q-50 74 -70 111q-56 96 -180 139q-5 -5 -18 -15.5t-19 -17.5q-13 -16 -88.5 -110.5t-114.5 -145.5q-90 -120 -51 -301 q9 -25 6 -53t-30 -53zM438 1122q0 -62 34.5 -100.5t98.5 -73.5q21 11 37.5 25t28.5 33t19 33t18 39t16 36q4 7 6.5 15t4.5 14t2.5 14.5t1 13.5t-0.5 14.5t-1 13t-2 14t-2.5 13t-3.5 14t-3 13.5q-6 22 -26.5 34t-40.5 7q-46 -16 -70 -16q-84 -6 -104 -82q-13 -50 -13 -74z " />
<glyph unicode="9" horiz-adv-x="917" d="M27 360q0 82 118 58q-13 -36 -14 -71t11 -71.5t23.5 -60.5t33.5 -63q4 -6 9 -11.5t11.5 -10.5t12 -9t15.5 -8.5t15.5 -7t17 -6.5t16 -5.5t17 -6t15.5 -5.5q40 -15 104 -8q16 2 35 12t25 23q60 108 133 268q13 24 10 51q0 6 -29 465q-9 -4 -25 -8.5t-18 -5.5 q-5 -1 -15.5 -5t-19.5 -6.5t-16 -1.5q-188 22 -322 125q-33 25 -86 86q-29 34 -42 77t-5 83q13 67 129 102q56 19 127 19q298 -4 449 -10q101 -5 88 -123q-4 -44 -4 -64t3.5 -65t4.5 -64q1 -38 5.5 -143t5 -143t-2.5 -142q-9 -165 -110 -315q-93 -137 -209 -250 q-35 -35 -88 -35q-182 -3 -305 62q-53 29 -76 69q-47 87 -47 225zM223.5 1220q-6.5 -18 1.5 -53q6 -27 20 -54t26.5 -44t35.5 -45t33 -41q49 -71 113 -63q46 6 139 47q14 6 14 45q-6 67 -22 186q-8 59 -24 77t-71 28q-19 4 -61 8q-15 1 -31.5 -1t-27.5 -4.5t-29.5 -11 t-25.5 -12t-28.5 -15.5t-25.5 -14q-30 -15 -36.5 -33z" />
<glyph unicode=":" horiz-adv-x="358" d="M31 500q-3 12 22 32q60 50 111 55.5t102 -32.5q9 -8 25.5 -26t21.5 -23q-14 -35 -53 -87t-80 -89q-53 34 -117 73q4 12 17 66q-19 0 -23 4q-24 14 -26 27zM41 991v70q36 15 100 24.5t119 6.5q4 -17 14.5 -63.5t16.5 -72.5q-46 -25 -58 -34q2 -3 5.5 -7t6 -6.5t3.5 -5.5 q5 -30 -2 -37q-7 -13 -39 -8q-76 6 -116.5 38.5t-49.5 94.5z" />
<glyph unicode=";" horiz-adv-x="409" d="M31 535q13 4 37.5 13.5t37.5 12.5q15 4 44.5 10.5t44.5 10.5q54 20 94 -23q35 -37 56.5 -87t23.5 -107t-27 -107q-22 -36 -41.5 -78.5t-42.5 -97.5t-35 -82q-2 0 -6 -1t-6 -1q-1 4 -3 14.5t-2 14t1 12.5q31 99 61 170q5 15 17.5 41t13.5 29q13 47 3.5 64.5t-54.5 41.5 q-20 11 -53.5 34.5t-63 40.5t-59.5 25q-6 1 -12 8t-14.5 20.5t-14.5 21.5zM41 991v70q36 15 100 24.5t119 6.5q4 -17 14.5 -63.5t16.5 -72.5q-46 -25 -58 -34q2 -3 5.5 -7t6 -6.5t3.5 -5.5q5 -30 -2 -37q-7 -13 -39 -8q-76 6 -116.5 38.5t-49.5 94.5z" />
<glyph unicode="&#x3c;" horiz-adv-x="1243" d="M32.5 493.5q-11.5 73.5 55.5 127.5q135 109 252 165q259 131 424 283q29 26 45.5 28t77.5 -12q-113 -135 -223 -206q-35 -22 -189 -116t-235 -147q-12 -7 -24 -17t-26.5 -24t-23.5 -22q6 -7 13 -18.5t12.5 -17.5t11.5 -9q185 -68 276 -92q119 -28 166 -51q27 -13 51 -29 q56 -39 195 -94q28 -11 57 -27t49 -28.5t52 -36.5t45.5 -35t50.5 -41.5t47 -38.5q-20 -15 -47.5 -18.5t-47 -0.5t-42.5 -4q-33 -13 -63 -14t-58 9.5t-51 24t-52 36.5q-140 114 -282 155q-27 8 -43 21q-138 106 -318 121q-35 3 -65 18q-79 37 -90.5 110.5z" />
<glyph unicode="=" horiz-adv-x="1226" d="M18 782q4 28 18 36t43 9h7q91 0 238 11q201 17 346 -17q60 -12 116 0q22 4 43.5 6t46 1t41 -2t45 -6t40 -7t44.5 -9t41 -9q5 -15 7 -23q-11 -5 -30.5 -15.5t-35.5 -18.5t-31 -13q-200 -78 -342 -45q-44 9 -88 14t-99 5t-84 -0.5t-99 -5t-88 -5.5q-83 -4 -136 8 q-31 6 -39.5 25.5t-3.5 60.5zM31.5 269q6.5 18 44.5 30q136 50 301 37q35 -2 99.5 1t84.5 3q37 0 110.5 -2t110.5 -2q3 0 162 6q6 0 23 4t26 2q2 -1 15 -3.5t16.5 -3t15 -3t16.5 -3l15 -1.5t16.5 -1t15 0.5t16.5 1.5t16 3q4 2 10.5 -1t19 -11t23.5 -13q-94 -30 -101 -32 q-12 -2 -58 -12t-76 -14.5t-60 -6.5q-116 -6 -330.5 -12t-292.5 -9q-30 -1 -86 -10t-65 -10q-15 -2 -42.5 -7t-39.5 -7q-12 58 -5.5 76z" />
<glyph unicode="&#x3e;" horiz-adv-x="1544" d="M31 57q5 3 34 22.5t44 26.5q76 40 309 156q20 11 62.5 30.5t64.5 31.5q233 125 514 280q11 5 22 14.5t27.5 26t28.5 27.5q-137 73 -138 73q-474 199 -587 248q-78 32 -160 94q65 13 168 -36q56 -25 192.5 -87.5t210.5 -93.5q116 -47 330 -129.5t277 -107.5 q12 -5 36.5 -21.5t42.5 -25.5q-89 -122 -233 -164q-50 -15 -218.5 -63t-279.5 -82t-217 -70q-44 -15 -89.5 -38t-103 -57t-85.5 -49q-75 -39 -107 -49q-34 -12 -50.5 -12t-32.5 9.5t-62 45.5z" />
<glyph unicode="?" horiz-adv-x="507" d="M41 1280q15 56 61 59q21 1 71.5 3.5t71 2.5t70.5 -2q82 -7 131 -114q26 -54 30.5 -111.5t-7 -107t-37.5 -107.5q-38 -83 -160 -235q-55 -66 -77 -195q-1 -11 -17 -59q-1 -3 -6 -11.5t-4 -11.5q8 -25 -11.5 -59t-21.5 -47q-57 9 -78 59q-74 177 64 352q4 8 14 11 q70 19 107 94q9 16 59 94q38 55 61 172q20 105 -67 225q-17 23 -51.5 30t-65.5 -5q-18 -8 -45 -27q-34 -27 -92 -10zM76 193q24 7 51.5 10t60 4.5t50.5 3.5q-11 -43 3 -119.5t15 -93.5q-50 36 -125 39q-43 3 -49 51q-1 5 -6 105z" />
<glyph unicode="@" horiz-adv-x="1042" d="M35 672q18 196 86 315q75 131 151 178q115 75 217 70q226 -13 375 -119q76 -52 101 -147q46 -158 32 -262q-5 -38 -9 -58.5t-15 -50.5t-27 -53q-52 -67 -158 -107q-38 -13 -92 37q-15 13 -53 62q-68 -111 -201 -82q-55 11 -116 37q-35 16 -43.5 41.5t2.5 64.5 q15 55 75 139q66 97 175 49q2 0 14 -4q10 17 20 41q17 43 55.5 55t75.5 -14q29 -21 23 -61q-11 -77 -23 -125q-16 -73 27 -176q2 -8 17 -19t16 -12q27 14 69 35q46 23 82 91t29 120q-3 18 -6 53.5t-7 63.5t-12 53q-2 7 -9.5 30t-11.5 33.5t-12.5 26.5t-17.5 27 q-26 34 -43.5 54t-47 44.5t-60.5 38.5q-9 4 -39.5 16t-46.5 19q-99 46 -199 -33q-88 -69 -156 -201q-20 -38 -32 -78.5t-23.5 -104.5t-15.5 -83q-9 -36 -39 -221v-15q7 -19 15.5 -55.5t18 -65t25.5 -51.5q11 -14 21 -22q18 -12 73 -51t92.5 -64t75.5 -47q51 -27 156 -43 q30 -5 56 9.5t57 43.5q7 7 15 16t13 15t13 18.5t10.5 16t12.5 19.5t11 18q4 8 6 26t5 25q1 7 7 15.5t9 8.5q28 -5 31 -16q12 -35 2 -57q-4 -8 -13 -26.5t-14.5 -29t-14 -25t-17.5 -26t-19 -20.5q-94 -87 -215 -68q-127 18 -258 111q-21 16 -66 46.5t-67 47.5 q-91 69 -119 170q-5 19 -19.5 58t-19.5 59q-21 67 -10 176zM381 557q0 -36 33 -49q33 -8 53 29q58 103 65 178q3 46 -32 63q-15 -4 -27.5 -13t-19.5 -17.5t-17.5 -23.5t-15.5 -22q-46 -56 -39 -145z" />
<glyph unicode="A" horiz-adv-x="681" d="M2 59q2 39 7 110t8 129t3 110q0 179 31 301q3 12 19.5 75.5t23.5 96.5q7 32 18.5 96.5t18.5 95.5q25 118 53 225q9 35 19 41.5t49 1.5q19 -3 40 -3q52 0 122 16q10 2 20 1q29 0 47 -16q45 -33 80 -55q-5 -3 -9 -5t-6.5 -3t-4 -2t-2.5 -2q17 -289 18 -297 q4 -51 14.5 -153.5t14.5 -153.5q6 -53 14 -170q2 -24 7 -72.5t7 -73.5q15 -129 17 -162q4 -51 8 -153q0 -21 -2 -37q-53 16 -57 18q-19 8 -23 27q-3 12 -9.5 37.5t-10 40.5t-7 36.5t-4.5 39.5q-7 87 -37 149q-9 21 -14 45.5t-9 56t-7 48.5q-1 3 -2 10.5t-2 11.5 q-13 6 -27 7.5t-34.5 0t-26.5 -1.5q-9 -1 -150 -18q-27 -3 -34.5 -9t-8.5 -30q0 -19 -6 -34.5t-21 -38.5t-18 -29q-75 -138 -78 -299q0 -6 -6 -48q-34 0 -39.5 5t-3.5 34zM184 576.5q0 -8.5 1 -19t1 -16.5q46 5 135.5 14t135.5 14q-21 291 -23 320q-1 10 -1 22t0.5 27 t0.5 23q3 24 10 57q1 5 1.5 17.5t1.5 21t4 14.5q10 22 11.5 49.5t-1.5 50.5v72q0 25 -2 37q-6 44 -51 47h-8q-52 0 -60 -39q-30 -131 -64 -297q-3 -14 -7 -41.5t-7 -40.5q-66 -272 -76 -317q-2 -7 -2 -15.5z" />
<glyph unicode="B" horiz-adv-x="870" d="M1 1026.5q-1 16.5 3.5 51t6.5 50.5t9.5 50.5t11.5 51t12.5 51.5t12.5 52q28 -2 82 -5t82 -5v-70q44 32 82 60q53 42 114 42q11 0 23 -1q41 -3 150 -21q36 -9 45 -20q57 -73 72 -104q21 -44 21 -90q0 -12 -1 -23q-1 -8 -18 -201q-3 -52 -43 -76q-27 -17 -51.5 -37 t-66 -57.5t-54.5 -48.5q78 -8 96 -8q50 -3 94 -50q122 -140 141 -333q3 -23 3 -45q0 -100 -58 -158q-40 -40 -119 -62q-68 -22 -131 -22q-113 0 -211 70q-11 6 -33 17.5t-36 18.5q3 -15 26 -94q-93 9 -112 13q-45 10 -66.5 42.5t-32.5 84.5q-4 14 -5 29.5t-1.5 38.5t-1.5 32 q-6 111 -12 225q-2 51 -10 148q-20 292 -23 352q0 35 -1 51.5zM178 934q2 -61 10 -168q16 -226 19 -246q15 -138 14 -218q0 -34 -2 -58q0 -10 -1 -25t-1 -20q0 -65 49 -86q16 -7 44 -26t44 -26q81 -40 154 -40q71 0 135 38q4 3 14.5 7.5t14.5 7.5q5 4 19.5 15t23.5 20t12 18 q5 17 7 34.5t2.5 44.5t0.5 36q0 2 -2 4q-53 78 -61 147q-2 6 -10 23q-53 122 -134 200q-26 23 -53 23q-20 -1 -59 0h-30q-22 -1 -40 -1q-30 -2 -57 -7q-21 -7 -39 0q-26 9 -29 24q-1 11 7 15t22 6q16 2 49.5 5t50.5 5q42 7 88 53q24 23 60.5 81t62.5 83q31 29 41 65 q9 33 9 85v11v35q0 30 1 42q0 6 -2 10q-84 122 -94 135q-15 20 -28 22t-33 -10q-153 -86 -211 -211q-8 -19 -29 -55.5t-29 -54.5q-10 -15 -10 -43z" />
<glyph unicode="C" horiz-adv-x="677" d="M0 961q3 122 14 221q4 32 29 106q12 33 63 53q32 13 66 13q2 0 5 -1q33 0 75 -6q46 -7 67 -8q17 -1 34.5 -4t30.5 -6t33 -11.5t28 -11.5t31 -16t27 -15t30.5 -17.5t27.5 -16.5q57 -33 57 -100q0 -12 -2 -25q-18 18 -20 23q-18 84 -98 114q-33 9 -60 29q-9 6 -18 10.5 t-20 7t-18.5 4.5t-20.5 2.5t-18.5 0.5h-21h-18.5h-6q-37 1 -65 -21q-30 -24 -39 -65q-6 -36 -15 -148q-8 -102 -8 -136v-7q0 -1 6 -217q0 -14 -5.5 -39.5t-6.5 -30.5q-2 -14 -6 -40.5t-6 -39.5q-5 -30 -9 -35q-15 -15 -18 -36t0 -39q2 -17 6 -61.5t8 -67.5q25 -107 49 -150 q5 -10 15 -20.5t16 -16t23 -17.5t20 -14q13 -9 38.5 -24t35.5 -21q24 -14 53 -4q101 31 123 146q4 12 2 18v10q0 48 41 103q34 43 58 43h5q11 -2 15 -19q8 -35 9 -75q0 -56 -17 -123q-34 -115 -156 -140q-29 -6 -162 -20h-5q-15 0 -66 4q-50 6 -78 51q-74 124 -92 264 q-13 113 -13 149v11q0 66 -21 182q-22 121 -26 156q-7 53 -7 108q0 18 1 36z" />
<glyph unicode="D" horiz-adv-x="966" d="M0 1346q36 8 39 8h102q16 1 24 -6t15 -23q69 -173 72 -381q0 -5 1 -16.5t1 -16.5q5 -19 6 -28q7 10 39 47t43 63q13 35 30.5 70.5t45.5 86t37 67.5q3 6 14.5 21t15.5 24q8 20 20 33.5t34.5 22.5t31.5 11.5t41 9.5q20 5 39 4q55 0 103 -38q91 -72 137 -207 q48 -139 51 -279q0 -35 -4.5 -98.5t-5.5 -87.5q-6 -92 -33 -174q-6 -21 -6 -45v-5q0 -44 -31 -108q-63 -120 -162 -209q-54 -46 -139 -56q-18 -2 -35 -3q-62 0 -106 28q-10 6 -20.5 14.5t-22.5 19.5t-19 16q-3 2 -49 30q5 -21 14 -61.5t13 -61.5q-17 -8 -46.5 -14.5 t-59.5 -5t-35 19.5q-21 87 -29 150q-4 30 -8 91t-8 91q-2 15 -29 223q-10 77 -21 181q-17 213 -28 309q-17 160 -72 283zM264 760q2 -19 14 -101.5t17 -126.5q1 -7 -4 -47q-2 -15 -8.5 -45.5t-9.5 -49.5t-3 -45.5t6 -49.5q8 -19 5 -35v-8q0 -53 59 -96q86 -60 96 -68 q24 -17 50 -17q14 0 28 5q9 3 28.5 11t28.5 11q4 37 10 49.5t31 42.5q91 118 109 205q2 12 5 33.5t6 39t7 32.5q27 74 39 225q3 40 3 81q0 93 -17 191q-13 74 -86 254q-27 66 -67 66q-31 0 -70 -39q-24 -29 -27 -35q-13 -19 -38.5 -59t-39.5 -60q-74 -104 -96 -237 q-12 -57 -55 -84q-24 -15 -21 -43z" />
<glyph unicode="E" horiz-adv-x="823" d="M0 870q27 23 33 25q9 3 39 8q27 4 33 11.5t4 37.5q0 20 -9 76q-6 37 -17 110.5t-17 110.5q-1 2 -2.5 6t-2.5 7.5t-2 7.5q-7 2 -59 18q124 30 127 31l123 24q67 11 153 12q74 0 162 -9q14 -2 27.5 -7.5t32.5 -16t26 -13.5q30 -17 23 -45q-11 -2 -21 -2q-38 0 -61 30 q-29 34 -86 37q-26 3 -54 3q-80 0 -178 -21q-26 -6 -32.5 -15t-8.5 -36q-2 -31 1.5 -63.5t12 -77t11.5 -62.5q7 -57 14 -96q1 -6 4.5 -21.5t4.5 -24.5q103 3 178 11q29 2 53 3q85 0 115 -28q-13 -9 -55 -9q-14 0 -31 1q-45 3 -67 3q-11 0 -17 -1q-31 -3 -89 -6t-77 -4 q-2 -49 -4 -143.5t-4 -141.5q0 -9 -2 -29t-2.5 -31.5t1 -28t7.5 -30.5q3 -7 0 -14q-9 -56 -8 -99q0 -31 4 -55q2 -7 -2.5 -22t-4.5 -19q-4 -29 -2 -45q3 -20 11.5 -26t31.5 -4q42 4 138 8h18q22 -16 48 -21t61.5 -4.5t50.5 -1.5q28 -6 31 -10q13 -25 52 -25h11q29 2 55 -24 q14 -17 9 -32t-27 -19t-33 -2q-31 2 -62 -0.5t-76.5 -9.5t-60.5 -9q-20 -2 -51 -2t-71 2q-8 0 -17.5 1t-21.5 2.5t-19 2.5q-39 0 -61 -24q-2 -2 -6 -7.5t-6.5 -8t-7 -6.5t-9 -5.5t-10.5 -1.5t-12 2q-23 9 -38 27.5t-14 38.5q1 15 1 33q0 66 -14 171q-15 115 -15 179v20v13 q0 70 -18 189q-20 131 -23 154q0 5 -3.5 14t-4.5 11q-79 13 -111 18z" />
<glyph unicode="F" horiz-adv-x="845" d="M0 838q31 17 96 25t76 11q0 36 -2 54q-3 27 -11.5 82.5t-11.5 83.5q-12 109 -14 168q-3 40 -15 52q-7 7 -18 11q87 15 162 16q20 0 39 -2q195 -13 350 -16q17 -2 49 16q26 18 58 19h3q30 0 60 -10q-16 -27 -32 -39.5t-39 -12.5q-49 -2 -97 -2q-130 0 -258 17 q-14 2 -28.5 3t-32 1.5t-27.5 1.5q-6 -21 -6 -62q-1 -47 7 -120q14 -138 40 -236q151 20 189 21q30 2 192 2q-37 -24 -92 -31q-14 -2 -37 -1.5t-37 -0.5q-26 -3 -176 -23q-34 -5 -31 -47q29 -270 35 -344q8 -105 8 -184v-31q-1 -16 -3.5 -56.5t-3.5 -62t0 -54.5t5 -60 q2 -5 -2 -27q-9 -1 -17 -1q-40 0 -85 26q-23 15 -35 40t-14.5 41t-5.5 52q-9 170 -21 334q-5 68 -22 237q-1 18 -6.5 52t-6.5 44q-20 6 -57 6q-15 0 -35 -1q-16 -1 -30 -1q-40 0 -60 9z" />
<glyph unicode="G" horiz-adv-x="880" d="M4 784q-4 28 -4 61q0 76 23 179q2 10 17 71t21 93q15 68 89 121q38 26 74 26q15 0 30 -4q22 -7 41 2q38 15 102 15q24 0 52 -2h57q69 0 131.5 -55.5t71.5 -125.5q-3 -2 -9 -8q-18 32 -28 55q-62 108 -156 115q-26 0 -47 -6q-1 0 -32.5 -9t-47.5 -9q-27 -2 -56 -13 t-44.5 -19.5t-48.5 -29.5q-20 -13 -27 -43q-3 -34 -13 -97t-12 -79q-3 -20 -8.5 -55.5t-9.5 -65t-6 -55.5v-16q0 -46 14 -99q4 -12 5.5 -26.5t1.5 -24.5t-0.5 -27.5t-0.5 -25.5q0 -64 4 -97q5 -38 17.5 -143t19.5 -162q4 -25 15 -71q17 -73 84 -105q36 -17 72 -17 q31 0 61 13q146 68 190 180q6 14 6 47q0 34 -3 121q-1 62 -1 104v31q0 45 13 201q-128 -9 -152 -10q-19 -1 -36 -1q-67 0 -105 13q82 12 119.5 17t105.5 10q35 3 67 3q29 0 56 -3q56 -4 112 -17q-15 -250 -18 -299q-1 -17 -20 -63q-23 -61 -31 -189q-4 -114 -4 -172 q0 -16 -27 -3q-39 19 -60 62q-7 16 -10 32q-3 12 -10 26q-11 -9 -33 -24.5t-38 -28t-29 -25.5q-51 -51 -146 -51q-73 3 -122 39q-9 5 -26.5 14t-30 16.5t-21.5 16.5q-16 16 -49 55.5t-54 57.5q-4 19 -34 90q-27 65 -27 107v8q0 3 -6 57q-17 77 -17 188v13q0 49 -12 116z" />
<glyph unicode="H" horiz-adv-x="843" d="M0 684l6 12q29 8 37.5 27t5.5 53q-4 53 -8 152t-6 137q-3 87 -15 229q-3 29 4 35.5t35 3.5l39 -3l39 -3q34 -3 37 -37q3 -48 10.5 -184t10.5 -184q4 -56 8 -168q2 -22 8 -28t29 -5q68 0 135 6q38 5 112.5 15.5t112.5 15.5q11 3 29 10q-10 114 -11 133v53q1 15 3.5 48.5 t3.5 52.5q1 23 3 65t4 77t5 65q3 21 33 79q3 6 12 11.5t16 5.5q19 0 58.5 -3t48.5 -3q-1 -6 -1.5 -23.5t-2.5 -25.5q-8 -28 -13 -63t-6.5 -55.5t-3 -67t-2.5 -58.5q-6 -74 -10 -221v-86q0 -4 0.5 -11.5t0.5 -14t-1 -11.5q-4 -72 -4 -117v-16q1 -46 6 -134.5t6 -134.5 q1 -31 1 -60q0 -154 -23 -224q-1 -4 -4.5 -12.5t-4.5 -12.5q-32 5 -39 12t-6 35q0 92 4 139q5 43 5 90q0 118 -31 259q-5 20 -10.5 58t-6.5 44q-3 18 -20 76q-6 -1 -23 -1.5t-24 -2.5q-14 -6 -31 -9t-27.5 -3.5t-32.5 -1.5t-30 -1q-2 0 -35.5 -5.5t-50.5 -6.5q-29 -4 -47 -2 q-78 4 -125 8q-1 -17 -1 -39q0 -54 4 -137.5t4 -136.5v-37q0 -28 1 -170q0 -36 1 -64q0 -86 -5 -108q-44 17 -53 31t-4 57q1 7 2 22t2 23q4 13 4 24q0 32 -29 52q-4 3 -14 27q-1 2 -4 11.5t-6 12.5q-18 20 -27.5 47.5t-11.5 45t-2.5 55t-1.5 49.5q-2 30 -6.5 91t-6.5 91 q-1 4 -4 13.5t-4 13.5q-10 5 -28 10.5t-23 7.5z" />
<glyph unicode="I" horiz-adv-x="227" d="M0 1276v78q29 -2 84.5 -5.5t83.5 -5.5q8 -178 10 -249v-236q1 -38 3 -113.5t3 -113.5q0 -1 -6 -43q-7 -37 -10 -55.5t-7 -49.5t-2.5 -57.5t7.5 -52.5q1 -6 2 -19.5t2 -19.5q1 -12 1 -33.5t1 -39t4 -32.5q6 -41 6 -75q0 -47 -12 -78q-3 -18 -3.5 -24t2.5 -26t3 -28 q-24 3 -51 6q-21 135 -23 150q-6 38 -16 114.5t-16 114.5q-4 30 -17.5 103.5t-17.5 113.5q-26 200 -29 281q-1 19 -1 44q0 37 2 89q3 86 3 112q0 3 -6 150z" />
<glyph unicode="J" horiz-adv-x="645" d="M0 336q6 62 68 108q16 13 41 9q2 0 73 -23q27 -12 15 -39l-7 -14q-25 -41 -30 -91q-2 -20 -2 -38q0 -26 4 -48q7 -36 24 -91q13 -44 37 -57q13 -6 32 -6q16 0 38 5q59 12 82 25q11 6 56 20.5t65 32.5q37 32 37 77q0 6 -1 13q-1 13 -5.5 45.5t-4.5 50.5q-1 42 -21.5 118 t-23.5 89q-16 67 -33 230q-3 20 -5 42.5t-4 50t-3 42.5q-33 290 -35 319q-1 35 -1 48t2 50t3 52q75 -5 156 -15q1 -14 6 -71q0 -74 2 -111q3 -36 15.5 -148.5t17.5 -174.5q3 -10 0.5 -62.5t-2.5 -62.5q1 -30 5 -104.5t5 -104.5v-40.5v-62.5q-2 -74 -31 -241q-10 -68 -69 -84 q-13 -3 -23 -13q-18 -18 -41 -27.5t-57.5 -17.5t-46.5 -12q-16 -4 -32 -4l-58 14q-68 32 -131 54q-59 21 -88 92q-29 70 -29 159v17z" />
<glyph unicode="K" horiz-adv-x="1019" d="M0 1321q0 7 4 31q22 6 48.5 6t58.5 -2.5t53 -1.5q2 -44 4 -155t6 -189t12 -152q58 9 93 47q10 11 34 28.5t31 24.5q6 5 31 35q20 25 24 29q22 24 79 85t87 95q44 52 78 66q9 4 29 13t29 12.5t29.5 10t30.5 5.5t32 -2q20 0 28 -2q14 -5 17.5 -20t-9.5 -21 q-33 -20 -62.5 -47.5t-66.5 -70t-51 -56.5q-106 -109 -221 -175q-17 -9 -45.5 -33t-36.5 -30q35 -25 64 -59.5t60 -78t50 -65.5q147 -173 214 -238q49 -49 97 -87q57 -48 57 -99q0 -12 -3 -24q-2 -7 2 -15q8 -14 20 -45t25 -52.5t33 -35.5q27 -21 16 -53q-15 -6 -29 -6 q-29 0 -51 26q-4 5 -21 23.5t-23.5 26.5t-17 23.5t-16.5 29.5q-4 9 -12 18t-19 20.5t-16 16.5q-220 220 -239 240q-62 64 -91 96t-75.5 88t-79.5 105q-32 55 -80 73q-30 -20 -30 -54q0 -7 1 -15q4 -23 4 -68v-55q0 -21 4 -29q10 -18 10 -39q0 -29 -20 -63q-11 -21 -11 -43 q0 -12 3 -23q2 -16 9.5 -44t8.5 -34q7 -23 7 -46q0 -26 -9 -52q-10 -26 -10 -55q0 -19 4 -39q3 -19 8.5 -57t8.5 -56h-25q-125 0 -129 47q-1 16 -1 36q0 27 2 61q4 59 4 110.5t-13 95.5q-5 14 -5 41q0 17 2 41q4 43 4 66q0 9 -1 16q-2 18 -14.5 102t-16.5 128q-3 22 -3 60 q1 34 3 81q3 69 3 110q0 18 -1 31q-4 93 -8 287z" />
<glyph unicode="L" horiz-adv-x="823" d="M0 1058q0 41 1 90.5t1 76.5q4 82 8 127q22 3 46 3.5t58.5 -0.5t49.5 -1q0 -4 3 -24.5t3 -31.5q0 -49 -1 -148.5t-1 -148.5q0 -26 2 -38q9 -61 12 -137q2 -57 2 -106v-32v-64.5v-70.5t-5.5 -104.5t-6.5 -96.5q-1 -42 -1 -85t1 -85q0 -9 1 -14.5t6 -9.5t8 -6t13 -6.5 t15 -6.5q58 -32 136 -32q39 0 83 8q74 14 191 69q21 9 59 9q11 0 24 -0.5t24 -0.5q39 0 61 9q13 5 9 -6q-7 -26 -65 -79q-88 -81 -151 -83q-40 0 -88 -10q-62 -15 -120 -15q-103 0 -192 49q-16 9 -45 23t-37 18q-53 28 -53 78q0 22 10 47q15 37 15 80v21q0 71 -17 153 q-14 69 -30 203q-25 249 -27 301q-2 36 -2 77z" />
<glyph unicode="M" horiz-adv-x="1210" d="M0 1270q0 3 1 11.5t1 16.5h145q13 -45 13 -148t18 -161q55 103 64 123q3 7 10 24t11.5 26t11.5 22.5t15 24.5t17 20q32 37 74 37q17 0 35 -6q66 -17 102 -103q11 -27 21 -61q37 -148 120 -308q21 -41 29 -60q9 -18 18 -54q6 -25 6 -48q0 -10 -1 -20q-1 -7 9 -14.5 t21.5 -5.5t14.5 18q1 12 6 21.5t19.5 23.5t15.5 15q20 26 34 55q5 10 17.5 39t21.5 43q17 30 17 73q0 20 10 117q3 57 23 107q10 19 10 43q0 15 -4 33q-10 45 -35 167q42 15 135 19q5 0 12.5 -9t8.5 -16q36 -184 43 -241q17 -126 21 -286q2 -75 1 -141q0 -76 -2 -143v-15 q0 -75 8 -278q2 -47 21 -120q4 -12 9.5 -25t14 -29.5t13.5 -27.5q-2 -1 -11.5 -6.5t-15.5 -6.5q-63 -8 -90 -10q-31 -3 -49 27q-41 66 -45 174q-4 152 -4 452q-3 103 -9 209q0 28 -4 90q-5 0 -8 3q-2 -9 -5 -28t-5 -28q-18 -89 -25 -114q-38 -125 -47 -252q-4 -45 -8 -150 q-17 -10 -50.5 -29.5t-51.5 -29.5q-20 -11 -42 -6.5t-32 24.5q-7 15 -24 45t-27.5 54t-14.5 47q-9 56 -30 108.5t-61.5 129t-51.5 99.5q-9 20 -17.5 41t-16 46t-12 41t-13 46t-11.5 42q-31 110 -55 153q-7 -9 -21 -26.5t-22.5 -29.5t-13.5 -24q-24 -46 -95 -207 q-10 -30 -10 -34q1 -17 3 -93t7 -116q18 -142 18 -268q0 -24 -1 -48q0 -77 -25 -133q-14 -32 -14 -68q0 -38 16 -81q6 -15 6 -28q0 -21 -16 -38q-39 5 -47 11t-14 38q-50 245 -68 422q-1 7 -10 189q-4 56 -8 172q-2 36 -7.5 107.5t-7.5 107.5q-1 11 -2 33t-2 34 q-1 24 -3 74.5t-3 75.5z" />
<glyph unicode="N" horiz-adv-x="917" d="M-0.5 1332q0.5 2 2 10t2.5 14h152q25 0 43 -33q31 -66 94 -178q8 -15 25.5 -40.5t21.5 -31.5q7 -10 152 -215q77 -105 131 -174q6 -7 39 -33q-7 85 -9 133q-3 66 -3 155t12 155q6 31 6 63q0 44 -11 90q-6 27 4.5 37.5t38.5 7.5q34 -3 55 -25.5t21 -56.5q0 -1 -1 -3t-1 -3 q1 -54 12.5 -69t65.5 -35v-47q-3 -31 -13.5 -118t-13.5 -134q-4 -42 -14 -250v-40q0 -142 25 -245q7 -30 12 -60t11.5 -77t8.5 -61q1 -4 -10 -41q-88 16 -131 100q-12 21 -25 48.5t-20.5 45.5t-21.5 53t-19 48q-9 25 -13 56t-3 52.5t3.5 58.5t2.5 54q0 34 -11 57t-38 43 q-33 25 -66 62.5t-48.5 59.5t-51.5 75q-10 15 -49 78.5t-62 95.5q-10 14 -23 27.5t-29 29.5t-24 25l-18 -6l-1 -60q0 -60 1 -61v-383q-1 -59 -8.5 -169.5t-9.5 -158.5v-254q-4 -1 -8 -1q-31 0 -52 36q-27 41 -45 49q-62 26 -65 92q-8 91 -11 211q0 203 2 305q0 129 6 258 q2 52 2 100q0 166 -22 271q-1 5 -0.5 7z" />
<glyph unicode="O" horiz-adv-x="821" d="M12 688q-12 81 -12 158q0 125 31 241q16 63 59 162q22 55 88 82q57 23 115 23q50 0 100 -17q28 -9 86 -21.5t86 -21.5q76 -25 123 -90q11 -21 27 -71q-12 -6 -15 -7q-1 2 -4.5 6.5t-6 8t-3.5 6.5q-10 53 -65 86q-81 50 -170 50q-27 0 -56 -5q-84 -14 -112 -100 q-2 -5 -20 -53.5t-23 -75.5q-18 -73 -21 -152q-2 -31 -2 -80q1 -12 1 -25v-41q0 -38 -1 -65q0 -55 -24 -72q-9 -9 -9 -28q0 -65 -16 -140q-10 -52 -25 -88q-13 -32 -13 -65q0 -25 8 -51q16 -60 63 -97q17 -14 50 -37.5t44 -31.5q28 -21 59 -21q22 0 45 11q54 28 78 49 q37 36 58 58t48 57.5t42 70.5q1 2 8 12.5t6 16.5q1 15 4 44.5t4 43.5q1 12 3.5 39t2.5 38t-2 37q-8 38 -8 76q0 33 6 66q3 13 3 26q0 35 -19 74q-43 80 -43 152q0 16 2 32q2 17 2 32q0 91 -86 130q-20 9 -33.5 17.5t-25 27.5t-11.5 45q68 -21 123 -69q14 -13 42.5 -34.5 t49 -40.5t35.5 -42q22 -34 34 -54.5t23.5 -52t12.5 -61.5q0 -27 8 -43q10 -27 15 -61t6 -54q0 -10 0.5 -26.5t-0.5 -39.5q-1 -46 -1 -57q-1 -64 -20.5 -179.5t-22.5 -164.5q-7 -79 -92 -153q-5 -5 -12 -7.5t-19.5 -4.5t-15.5 -3q-12 -3 -37.5 -8t-41 -8.5t-36 -10.5 t-36.5 -16q-40 -20 -84 -20q-51 0 -107 27q-123 62 -174 153q-43 80 -43 139v15q0 131 -33 354z" />
<glyph unicode="P" horiz-adv-x="907" d="M0 1325q99 -6 199 -12q23 -125 73 -418q31 35 35 41q25 49 27 61q4 19 10.5 39t12 35.5t16 37t16 33t19.5 35.5t18.5 32t21 34.5t19.5 32.5q17 29 105 60q57 20 100 20q24 0 43 -6q22 -10 37 -39q71 -154 120 -400q2 -10 2 -22q0 -33 -12 -82q-25 -125 -69 -301 q-13 -42 -49 -64q-25 -15 -53 -15q-13 0 -27 3q-39 8 -61 14t-53 21t-52 37q-8 8 -27.5 19.5t-24.5 15.5q-72 49 -106 71q-33 22 -41 27q-15 -57 -15 -105q0 -13 1 -24q4 -43 7 -92t6 -107.5t5 -91.5q7 -96 49 -156q-4 -4 -14.5 -15.5t-18.5 -19t-16 -12.5 q-14 -10 -27 -12.5t-29.5 4t-23 10t-26.5 15.5q-38 24 -51 45.5t-7 46.5v6q0 35 -28 231q-31 213 -31 239v26q0 245 -55 458q-5 20 -5 25q-10 84 -20 219zM283 850q-4 -28 -4 -53q0 -78 38 -123q11 -12 23 -24t27.5 -25t25.5 -21t29 -22.5t27 -20.5q16 -13 51 -33.5 t51 -33.5q32 -21 64 -21q15 0 30 4q4 70 4 103q-1 14 -5 74q-2 28 -2 46q0 20 3 27q12 69 12 150v13q-1 89 -26 161q-13 36 -36.5 105.5t-31.5 92.5q-103 -90 -151 -219q8 -5 -4.5 -35.5t-28.5 -54.5q-10 -23 -37 -35q-21 -8 -38.5 -23.5t-20.5 -31.5z" />
<glyph unicode="Q" horiz-adv-x="872" d="M2 881q-2 18 -2 37q0 132 74 296q45 97 168 129q44 12 94 13h10q44 0 78 -5q36 -5 90 -16q178 -39 240 -202q3 -10 8 -43q0 -3 -1 -11t-1 -12q-8 -4 -15 -4q-21 41 -22 47q-38 125 -184 184q-31 12 -64 12q-43 0 -89 -22q-81 -38 -110 -115q-58 -159 -58 -270 q0 -15 1 -29q1 -13 1 -39v-45q-1 -37 -1 -60v-26q1 -22 5 -67.5t5 -69.5q1 -17 3.5 -49.5t3.5 -48.5q0 -3 -1 -8.5t-1 -9.5t2 -7q11 -21 17.5 -63t10.5 -55q7 -22 7.5 -48.5t-1.5 -39.5t-8 -46q-2 -13 -2 -26q0 -41 28 -68q25 -23 57 -23q18 0 38 7q26 9 73.5 27.5 t69.5 25.5q-1 5 -1 11.5t-0.5 10t-2.5 5.5q-54 75 -110 143q-10 12 -14 23t-5 18t5 19.5t9.5 18t17 23t19.5 25.5q15 -26 36 -33.5t34 -29.5q13 0 32.5 -37.5t28.5 -38.5q31 -3 44 6t12 37q-3 23 -1 51.5t15 50.5q2 3 2 25q-1 31 -4.5 127t-3.5 149q2 45 25 119q3 11 3 23 q0 21 -10 43q-41 84 -51 127q-4 14 -10.5 26t-16.5 24t-16.5 18.5t-21 20t-19.5 17.5q-3 3 -14.5 11.5t-16 16.5t-2.5 21q22 18 50 -10q8 -9 35 -35t38.5 -39t29.5 -36.5t27.5 -47t14.5 -49.5q6 -20 25 -43q57 -72 81 -158t29 -194q1 -25 17 -201v-8q0 -38 -31 -95 q-35 -65 -74 -104q49 -47 49 -107q0 -9 -1 -19q-5 -45 -28 -54q-6 -2 -12 0q-60 19 -108 57q-23 20 -46 21t-46 -10q-110 -40 -154 -52q-27 -7 -54 -7q-41 0 -83 17q-67 30 -101 93q-79 142 -124 391q-14 73 -17 212t-4 157z" />
<glyph unicode="R" horiz-adv-x="882" d="M-14 1272q-3 39 28 39q25 1 54 1t65 -0.5t57 -0.5q4 -28 12 -89.5t13 -99.5q11 12 25 26t23 23.5t16 18.5q3 4 18.5 21t20 22t18.5 20t21 20.5t20.5 17t24 18t24 14t27.5 12.5q44 16 78 16q27 0 49 -10q10 -5 30.5 -12.5t36 -14.5t27.5 -16q43 -34 51 -129q3 -77 20 -172 q10 -59 10 -106q0 -39 -7 -68q-15 -63 -29 -153q-10 -71 -54.5 -113.5t-121.5 -77.5q-6 -2 -23 -5.5t-28 -6.5q9 -8 29.5 -27t31.5 -28q2 -1 9 -7.5t9.5 -8.5t6.5 -8t4.5 -10.5t-1 -11.5t-6.5 -14v-6q23 -20 44 -83t55 -85q34 -21 92 -69t74 -60q26 -20 9 -41 q-16 -21 -46 -11q-12 5 -23 15q-25 25 -96 68q-107 67 -174 147q-17 21 -39.5 42.5t-51.5 47t-44 39.5q-29 28 -87 67t-89 69q-5 4 -11 10.5t-7.5 7.5t-2.5 0q-2 -10 -16 -74q-8 -35 -7 -63q0 -22 5 -39q2 -7 2 -15q0 -28 -17 -81q-8 -30 -11 -46t1 -40t19 -43q8 -11 -7 -46 q-3 -4 -8.5 -9t-13.5 -10.5t-12 -8.5q-50 9 -56 57q-6 45 -29 177t-28 206q-9 148 -9 277q0 50 1 96q0 40 4 49q14 35 20 69q3 20 3 43q0 17 -2 36q-4 45 -7.5 65.5t-13.5 75.5q-6 30 -10 86zM195 524q58 -5 63 -6q65 -14 84 -24q39 -21 80 -21q51 0 104 33q41 26 46 66 q1 5 1 11q0 35 -30 64q-29 29 -35 74q-4 31 -13.5 97.5t-13.5 101.5q-3 28 -8 82.5t-8 80.5q-5 44 -6 45q-11 37 -34 45t-52 -18q-52 -48 -146 -154q-12 -12 -12 -40q-7 -94 -20 -322v-115z" />
<glyph unicode="S" horiz-adv-x="741" d="M-0.5 599.5q1.5 7.5 6.5 16.5q18 3 50 11l40 10q24 -41 35 -53q84 -99 84 -207q0 -15 -2 -29q-2 -17 -2 -34q0 -142 127 -251q27 -22 40 -18t32 37q13 18 47 61q56 67 56 154q0 12 -1 25q-3 22 -5 68.5t-5 68.5q-15 101 -107 155q-109 64 -231 158q-14 11 -27 26.5 t-21 27t-19 34.5t-14.5 31t-14.5 37t-13 33q-16 39 -17 83v11q0 37 6 67q7 34 22 80q27 87 124 125q60 22 127 22q86 0 183 -36q53 -22 87.5 -65.5t43.5 -102.5q1 -5 18 -107q0 -5 -6 -41q-3 0 -10 -1t-10 -1q-4 32 -19 64.5t-27.5 50t-39.5 53.5q-20 27 -43 47t-72 54 q-33 24 -57.5 19.5t-51.5 -34.5q-73 -73 -73 -170q0 -9 -7.5 -20.5t-15.5 -14.5q-28 -14 -28 -40q0 -6 1 -13q6 -23 3 -28q-9 -24 -9 -48q0 -69 80 -131q125 -100 252 -145q54 -19 160 -80q22 -11 26 -37q0 -4 3.5 -30.5t4 -32.5t3 -30.5t2.5 -33t0.5 -30t-0.5 -32.5 t-2.5 -30.5t-5 -32.5t-8.5 -29.5t-11 -31.5q-72 -175 -229 -207q-14 -2 -30 -2q-65 0 -157 39q-7 3 -13.5 6.5t-12 8.5t-10 9t-10 10.5t-8 10t-8 12t-7 11.5t-7 12.5t-6.5 11.5q-17 28 -41 82.5t-34 73.5q-34 77 -39 137q-2 19 -10.5 39t-24 46t-21.5 38q-1 2 -7.5 11.5 t-8 13t-4 12t-1 16z" />
<glyph unicode="T" horiz-adv-x="1171" d="M0 1143q0 25 2 37q1 4 23 67q22 67 29 76q10 13 49 18q42 5 44 5q82 11 143 11q20 0 38 -1q56 -6 106 -43q52 -36 102 -36q9 0 19 1q82 11 397 49q22 3 45 3q68 0 140 -25q4 -26 8 -39q1 -6 1 -12q0 -29 -36 -31q-9 -1 -29 -1t-30 -1q-67 -4 -192.5 -13.5t-153.5 -11.5 q-11 0 -27 -8q-5 -11 -8 -21.5t-3 -24.5t-0.5 -20.5t3 -23.5t4 -20.5t5.5 -23.5l5 -20q11 -42 19.5 -92t12.5 -86t10 -95.5t9 -88.5q0 -21 2 -29q6 -19 6 -119q-1 -64 -3 -164q-3 -122 -3 -192q0 -75 4 -90q6 -24 3 -36.5t-23 -41.5q-53 13 -70 80q-51 190 -67 307 q-8 52 -28.5 149t-27.5 140q-5 33 -10 95.5t-8 88.5q-3 31 -13.5 88.5t-13.5 77.5q-4 18 -7 39t-6.5 49t-6.5 47q-25 1 -56 1q-73 0 -183 -8q-144 -11 -213 -11h-11z" />
<glyph unicode="U" horiz-adv-x="1038" d="M0 571q2 72 9 218.5t9 218.5q0 27 -1 58t-2.5 69t-2.5 59q0 18 -4 84q159 16 168 16q35 3 45.5 -5t11.5 -42q11 -143 11 -231q1 -26 1 -53q0 -64 -5 -138q-1 -18 -17 -157q-25 -184 -28 -224q-2 -25 -2 -52q0 -104 34 -228q10 -41 42 -70t75 -37q57 -11 101 -13 q7 0 15 -1q38 1 80 11q52 12 95 44q51 36 68 74q9 20 9 44q0 22 -7 48q-3 13 -3 26q0 20 7 42q84 256 84 499v17v37.5v40.5t-1 36t-2.5 40.5t-4.5 35.5t-7 39q-34 144 -37 154q-6 17 -14.5 33t-25.5 43t-21 34q64 13 120 13q24 0 46 -2q12 -2 35 -25q53 -58 81 -139 q11 -30 11 -45q0 -14 -10 -14h-2q-2 1 -3 1q-12 3 -10 -57q2 -48 34 -323q14 -119 14 -163q0 -10 -1 -16q-17 -136 -104 -313q-56 -112 -186 -190q-114 -69 -231 -69q-101 0 -204 52q-88 45 -129 144q-35 91 -63 120q-78 90 -78 241v15z" />
<glyph unicode="V" horiz-adv-x="833" d="M0 1296q4 2 11 6.5t12.5 7t9.5 3.5q9 2 28.5 5t28.5 5q34 4 52 4q12 0 16 -2q8 -5 19 -37q5 -14 9 -24q6 -15 11.5 -34t8.5 -32.5t8 -36.5t7 -33q38 -189 58 -297q9 -53 12 -104q0 -19 -15 -41q-12 -20 -12.5 -41.5t6.5 -44.5q2 -10 13.5 -51t15 -58.5t7 -50t1.5 -59.5 q-2 -32 -2 -62q0 -73 12 -135q14 -79 72 -123q28 -22 57 -2q50 27 68 68q12 30 36 92.5t36 93.5q4 12 4 39q3 63 26 107q23 45 27 125q1 19 19 69q1 8 7 22t7 19q9 45 26.5 134.5t26.5 134.5v10q25 36 25 71v5q-6 126 -52 223q-4 8 -11.5 16t-13.5 12.5t-19 13t-17 11.5 t-10 5.5t-15 6t-16 6.5q19 14 39 14q18 0 37 -11q46 -32 65 -93q62 -201 62 -409v-37q-6 -211 -47 -389q-2 -8 -4 -25t-2 -18q-3 -42 -35 -74q-21 -25 -27 -39q-33 -74 -102 -139q-2 -2 -12 -12.5t-13 -13.5t-11.5 -12t-13 -13t-12.5 -12t-13.5 -12.5t-13.5 -10.5t-15 -11 t-15 -10q-28 -18 -59 -18q-16 0 -30 4q-46 12 -73 55q-49 81 -84 250q-21 105 -92 443q-12 55 -33 164t-33 163q-1 7 -3 15.5t-5.5 21t-5.5 21.5q-4 11 -14 60t-21 71q-3 4 -14 30z" />
<glyph unicode="W" horiz-adv-x="1339" d="M8 1118q-8 28 -8 58q0 34 10 73q17 9 39.5 15t39 9t45 7t42.5 6q10 -35 10 -37q0 -39 -8 -121q0 -33 2 -47q16 -128 35 -229q8 -36 27 -100t26 -93q4 -21 13 -88q5 -31 7 -120t17 -136q16 -43 57 -98q12 -22 37 -4q26 19 39 39q14 22 39.5 69.5t38.5 69.5q34 60 34 136 q0 12 -1 24v11q0 51 31 147q23 1 70.5 4t72.5 4q1 -4 3 -10t3 -10t0 -7q-17 -43 -19 -93q-1 -16 0 -30q0 -31 4 -57q6 -38 17 -92q12 -56 78 -287q14 -54 49 -80q23 -20 51 -6q58 23 97 111q5 13 11 44.5t13 45.5q18 37 25 100q8 67 8 128.5t-8 117.5q-9 59 -39 76 q-23 10 -23 43q8 66 8 94q5 123 5 147q0 4 -1 7.5t-3.5 7t-4 5t-6.5 4.5t-6 4t-7 4t-7 3q-60 25 -111 86q-37 45 -37 101q0 33 13 69q22 61 74 91q35 20 71 21q18 0 37 -5q108 -30 127 -142q4 -22 6 -46.5t3.5 -54.5t2.5 -46q3 -28 6 -68q13 2 25.5 6t26 10.5t20.5 10t23 13 t20 11.5q15 9 35 19q4 -11 4 -21q0 -23 -25 -36q-11 -3 -35 -16t-44 -23.5t-23 -10.5q-12 0 -19 -3t-10.5 -10.5t-4.5 -12.5t-1 -16v-15q-25 -246 -29 -301q-5 -42 -4 -51q1 -15 1 -30q0 -164 -70 -380q-30 -82 -131 -135q-10 -6 -23 -2q-47 12 -75.5 20t-66.5 25.5 t-67 40.5q-6 5 -11.5 10t-10 11.5t-8 11t-7.5 13t-6 12.5t-5.5 14t-5 13t-5 14.5t-4.5 13.5q-6 19 -25.5 78t-32.5 96q-56 -94 -71 -129q-9 -19 -24.5 -34t-39.5 -31t-33 -23q-6 -5 -18 -5q-17 0 -45 9q-75 21 -105 102q-79 202 -102 309q-8 37 -29.5 105t-25.5 82 q-17 59 -23 84q-7 33 -7 76v16q0 5 1 10q0 46 -14 68q-5 16 -9.5 33t-9 39.5t-6.5 33.5zM894 1130q28 -68 99 -94q1 -1 5 1l6 3v18q0 143 -60 251q-5 -6 -21 -22.5t-22 -24.5q-20 -35 -20 -72q1 -30 13 -60z" />
<glyph unicode="X" horiz-adv-x="1402" d="M0 25q1 9 4 24.5t4 18.5q5 47 2 59q-1 7 -1 14q0 27 18 49q21 27 50.5 56t49 46.5t58.5 51t53 45.5q24 21 49 40t69.5 50.5t51.5 36.5q11 8 69 50t88 65q14 12 43 41q-71 104 -137 178q-113 126 -154 186q-82 128 -198 260q-3 4 -9.5 12.5t-9.5 12.5q8 10 19.5 14.5 t25.5 6t21 4.5q32 15 57 10t53 -33q94 -89 183 -223q77 -117 149 -191q16 -16 30.5 -34.5t31.5 -44t26 -37.5q9 -11 25 -37q23 19 87.5 65t94.5 76q29 28 87.5 87t88.5 87q52 56 80 88q17 17 45 82q15 34 15 51q0 16 -13 19q-25 8 -35 10q0 7 3 10q27 8 62 7.5t62 -21.5 q36 -31 44 -79q2 -12 2 -23q0 -36 -19 -72q-7 -14 -8 -15q-25 -28 -75.5 -85t-76.5 -85q-33 -33 -49 -51q-76 -87 -254 -211q-28 -19 -38.5 -26t-22.5 -20t-13 -18t2.5 -20.5t10 -27t22.5 -37.5q81 -139 148 -195q15 -13 45 -41.5t45 -42.5q20 -17 51 -24q23 -6 48 -18 t39 -21t43.5 -30.5t37.5 -27.5q14 -10 29 -23.5t34.5 -32t32.5 -30.5q-91 -48 -106 -55q-13 -5 -24 -5q-26 0 -48 24q-89 95 -172 170q-25 21 -52 48t-45.5 46.5t-49 53.5t-45.5 50q-22 23 -58 72t-49 65q-22 28 -36 29.5t-42 -20.5q-48 -37 -135.5 -103.5t-159 -122 t-133.5 -106.5q-47 -40 -69.5 -60.5t-53.5 -61.5t-45 -85q-26 13 -53 25z" />
<glyph unicode="Y" horiz-adv-x="741" d="M2 1110q0 14 2 42t2.5 45.5t-0.5 41.5t-4 45q-4 31 6 41t45 12q19 1 55 5.5t50 5.5q12 -57 12 -131v-31q-2 -26 -6 -81t-6 -81q-3 -50 -35 -82q-17 -17 -17 -33q2 -20 7.5 -61.5t7.5 -63.5q5 -54 51 -110q4 -5 17 -22t18 -23.5t17 -20.5t20.5 -21.5t21 -17t25.5 -16.5 q52 -30 81 -30q6 0 10 1q30 7 75 70q50 72 50 182q0 26 -3 53q-1 13 -1 28q0 56 15 134q2 17 2 31q0 21 -4 35q-31 153 -67 299q22 2 46 2q40 0 85 -6q10 0 20 -19q27 -51 31 -69q7 -24 18.5 -75t18.5 -75q14 -52 20 -110.5t9.5 -131.5t7.5 -112q4 -31 4 -64 q0 -103 -35 -227q-14 -52 -15 -70q-7 -88 -84 -186q-74 -93 -208 -190q-32 -24 -68 -24q-2 0 -4 1q-38 1 -70 29q-69 57 -88 102q-14 32 -12 45q20 125 39 176q10 24 22 45q9 18 30.5 28t47.5 7q-5 -10 -17 -33t-19.5 -39t-12.5 -32q-30 -91 -39 -150v-10q0 -34 24 -73 q28 -45 64 -60q11 -4 33 0q16 3 29 16q7 7 27 26t29 27.5t25.5 26t26 30t20.5 30t19 34.5q7 15 14 19q30 19 37 65q19 114 19 196v15q-9 2 -17.5 2.5t-18.5 -2t-15 -4t-17.5 -6.5t-15.5 -6q-17 -5 -52 -17.5t-53 -17.5q-31 -7 -55 2q-140 62 -213 176q-34 53 -51 133 q-34 150 -34 280q0 25 1 50z" />
<glyph unicode="Z" horiz-adv-x="1132" d="M-0.5 82.5q-1.5 4.5 1 19t2.5 18.5t4 18t4.5 18t5.5 17.5t6 17.5t6 17t6 17q7 18 17.5 38t23.5 44t20 37q6 10 23 27q8 9 29.5 30t36.5 37.5t26 34.5q21 34 47.5 67t64 74.5t54.5 61.5q7 9 53 59q-18 8 -51 24t-49 23q-43 22 -48 39q-1 3 -1 6q0 19 22 62 q100 -20 189 -43q36 -9 55 16q28 35 65 67.5t86 70t74 59.5q27 24 81.5 68.5t66.5 54.5q3 2 20 26q-10 0 -27.5 1.5t-25.5 0.5q-23 -4 -106 -19t-128 -20q-100 -10 -241 -10q-16 0 -32 -1q-16 0 -34 1q-36 1 -79 3t-66 3h-142v41q3 10 10.5 32t10.5 32q10 42 21 51t53 12h6 q17 0 65 -4q57 -3 76 -43q22 -45 76 -45q25 0 53.5 1t63 2.5t53.5 2.5q54 4 76 13q61 23 104 53q23 20 45 22q22 -1 78 11q42 9 70 9q10 0 18 -1h25q19 -3 25 -12t3 -29q0 -5 -2 -14.5t-2 -14.5q-2 -8 -2 -20q5 -4 15.5 -10t13.5 -9q-1 -2 -2 -5.5t-2 -4.5q-7 -6 -27 -23.5 t-31 -27.5q-36 -32 -108.5 -95.5t-108.5 -95.5q-51 -47 -149 -145q-4 -4 -8.5 -9.5t-10.5 -14.5l-10 -15q39 -21 119.5 -62.5t120.5 -62.5q7 -38 1 -49t-38 -19q-23 -5 -47 -5q-64 0 -135 38q-19 10 -52.5 31t-44.5 27q-34 -29 -65 -60.5t-63 -70.5t-53.5 -66.5t-55 -76.5 t-48 -71t-52 -80t-48.5 -75q81 -20 105 -29q29 -12 66.5 -17.5t59 -6t68.5 -0.5q61 -1 179 -9.5t131 -9.5q23 -2 66 -7t78 -8t66 -3q95 0 148 43q10 7 20 10h9q2 -8 2 -16q0 -26 -19 -45q-6 -5 -21 -18t-26 -20.5t-22 -11.5q-86 -28 -132 -28q-102 2 -184 2q-122 0 -198 -4 q-10 0 -48 -0.5t-55 -1.5t-45.5 -6.5t-50.5 -14.5q-18 -7 -40.5 -7t-49.5 7q-61 18 -203 55q1 15 -0.5 19.5z" />
<glyph unicode="[" horiz-adv-x="739" d="M31 37l28 63l25 25l102 20l15 7l6 2l2 4l8 96l2 102l2 27l4 123l2 31l9 190l-19 289l6 22v15l-2 24l-14 60l6 20v25l4 32l6 25l13 66l20 34l39 13l29 2l32 -6l29 -15l25 -37l8 -22v-27h10l16 -8l52 4l10 2l63 25l33 -37l64 -6l8 -17h2l10 -22l-29 -12l19 -23l-6 -6 l-15 -21l-106 -12l-92 -10l-23 -10l-22 8v-31l-9 -53l-8 -57l-6 -56l2 -26l-6 -43l-6 -105l-4 -33l4 -24v-25l-4 -31l-10 -79l-5 -31l-4 -59l-6 -46l-8 -86l-4 -26l-8 -39l-13 -96l9 -4l98 -7l68 -4l10 -6l24 2l35 -2h27l41 -2h28l25 -31l-10 -41l-27 -16l-61 -6l-109 -14 l-80 -11l-6 -6l-199 -8h-51l-55 14l-12 11z" />
<glyph unicode="\" horiz-adv-x="677" d="M35 1327q0 11 9.5 20t21.5 11q17 1 28 -13.5t17 -33.5q13 -38 36 -82.5t42 -74t53 -79.5q38 -53 75 -149q17 -38 125 -303q14 -33 21 -41q27 -42 51.5 -94t35.5 -80t34 -98.5t28 -84.5q12 -35 25 -112q0 -20 -10 -27q-11 -9 -117 -82l-16 14q-14 43 -43 134t-45 139 q-32 88 -66 149q-106 190 -147 383q-26 132 -95 246q-9 15 -16 29.5t-14 36t-9.5 29.5t-10 37t-7.5 30q-12 49 -6 96z" />
<glyph unicode="]" horiz-adv-x="606" d="M31 1188l8 22h2l6 17l55 6l29 37l51 -25l11 -2l43 -4l14 8h8l2 27l6 22l21 37l24 15l29 6l25 -2l32 -13l17 -34l10 -66l6 -25l4 -32v-25l4 -20l-12 -60l-2 -24v-15l6 -22l-16 -289l8 -190v-31l4 -123l2 -27l2 -102l6 -96l2 -4l4 -2l15 -7l86 -20l20 -25l25 -63l-35 -12 l-10 -11l-47 -14h-43l-170 8l-4 6l-68 11l-94 14l-51 6l-23 16l-8 41l20 31h25l35 2h22l31 2l20 -2l9 6l57 4l84 7l6 4l-10 96l-6 39l-4 26l-9 86l-4 46l-4 59l-2 31l-10 79l-2 31v25l2 24l-2 33l-6 105l-6 43l2 26l-4 56l-7 57l-8 53v31l-18 -8l-19 10l-80 10l-90 12 l-12 21l-6 6l16 23z" />
<glyph unicode="^" horiz-adv-x="684" d="M35 1092q18 41 22 45q91 91 172 161q89 74 207 56q1 -12 3.5 -23t5 -19t9 -19t9.5 -16t12.5 -16t11.5 -13.5t14 -15t13 -13.5q4 -4 14.5 -15.5t15.5 -17t15 -14.5t18 -12.5t18.5 -7.5t22.5 -3.5t25 4.5q-46 -90 -111 -49q-44 27 -135 102q-11 10 -31 32t-28 30 q-20 -16 -66.5 -57t-73 -61t-72 -39t-91.5 -19z" />
<glyph unicode="_" horiz-adv-x="1210" d="M31 90q8 51 92 60q36 4 71 0.5t85.5 -14t66.5 -13.5q109 -19 207 -2q91 13 209 0q47 -5 101 -7t121 -3t103 -2q84 -3 84 -58q-14 -1 -49 -4.5t-55 -3.5q-54 -1 -162.5 -2t-163.5 -2q-117 0 -155 -10q-87 -26 -199 -29t-201 6q-27 1 -79 6t-68 6q-1 7 -5 33t-3 39z" />
<glyph unicode="`" horiz-adv-x="335" d="M29 1327q23 6 60.5 14.5t43.5 10.5q45 10 76 -37q21 -32 34.5 -67.5t27.5 -91.5t20 -75q-6 -4 -13 -8.5t-14.5 -9.5t-11.5 -8q-7 14 -19.5 39.5t-22 45.5t-15.5 38q-13 49 -64 49q-11 1 -21 4.5t-19.5 10.5t-15.5 12.5t-16.5 17t-15.5 16.5q-4 3 -6 8.5t-4 15t-4 15.5z " />
<glyph unicode="a" horiz-adv-x="634" d="M0 315q4 88 18 129q42 116 103 238q8 15 19.5 28.5t31.5 33.5t25 26q10 11 32 31.5t29 27.5q12 12 21 15q62 5 111 5q74 0 120 -11q7 -2 65 -25q25 -10 29.5 -21t-0.5 -49q-6 18 -16.5 31t-17.5 19t-26 12t-23 7t-27 5q-12 3 -52 -2q-22 -5 -30 -12q-61 -51 -102.5 -98.5 t-65.5 -106.5q-6 -14 -21 -49.5t-22.5 -54.5t-17.5 -48.5t-16 -56t-9 -53.5q-2 -20 -2 -41q0 -92 47 -195q15 -30 47 -39q11 -3 21 -3q21 0 42 12q49 25 107 102q-10 12 -14.5 27t-5 23.5t0 30t0.5 26.5q7 116 7 194q0 25 -5 143q-3 29 25 35q40 6 125 17q1 -20 2 -57.5 t2 -55.5q1 -23 4 -66.5t3 -64.5v-47q-29 -173 -29 -178q-3 -15 -19 -150v-47q-30 4 -37.5 12t-9.5 35q-4 44 -8 60q-9 43 -41 14l-55 -55q-37 -32 -79 -32q-22 0 -46 9q-28 11 -74 37q-34 17 -45 49q-4 12 -21 33q-68 82 -84 104q-19 23 -16 47z" />
<glyph unicode="b" horiz-adv-x="722" d="M2 1298q0 14 33 25q19 5 59 11.5t51 8.5q1 -12 4 -33t3 -22v-13t2 -15t7 -10t15 -9q5 -3 10 -22q37 -160 37 -341q0 -59 -4 -120v-51q30 13 33 16q65 65 96 98q10 10 14 10q48 13 69 17.5t58.5 0.5t65.5 -26q39 -31 49 -57q48 -116 78 -324q1 -6 1 -13q0 -39 -28 -110 q-16 -40 -45.5 -81.5t-49 -62.5t-62.5 -66q-62 -67 -193 -78q-24 -3 -47 -3l-47 3h-8q-31 0 -51 -21q-17 -17 -43 -8.5t-35 33.5q-12 29 -12 57q0 6 1 12q1 65 6.5 183.5t6.5 144.5q1 11 1 24q0 29 -5 62q-12 92 -12 166q0 16 1 31q1 43 1 85q0 127 -7 253q-4 72 -32 114 q-23 33 -23 95q0 17 2 36zM139 117q1 -1 1.5 -2t1.5 -2t3 -2q3 -3 15 -11q45 -29 104 -31h13q52 0 96 11q83 14 133 96q40 65 40 129q0 18 -3 35q-27 168 -39 221q-11 47 -49 160q-10 36 -54 61q-26 16 -47 -2q-60 -52 -94 -78q-41 -33 -41 -76q0 -10 2 -20q2 -7 1.5 -20 t0.5 -21q1 -10 1 -20q0 -48 -31 -99q-10 -13 -13 -28q-3 -20 -8 -60t-8 -59q-2 -15 -11 -80t-14 -102z" />
<glyph unicode="c" horiz-adv-x="585" d="M4 721q7 51 39 70q10 6 28.5 22.5t28.5 22.5q9 7 39 12q90 0 135 -2q43 0 115 -41q41 -24 41 -69q0 -10 -2 -21q-17 47 -55 71q-17 13 -41 21t-34.5 9.5t-43.5 6.5q-22 3 -52.5 -23.5t-31.5 -51.5q-5 -64 -5 -122q0 -25 1 -48q3 -142 12 -287q1 -16 7 -45.5t8 -40.5 q1 -7 4 -22.5t4 -22.5q7 -69 43 -105q30 -34 71 -34q24 0 52 12q60 28 112 86q4 4 7.5 9.5t6.5 13.5t5 12q21 47 38 61q5 5 11 8q-16 -46 -27.5 -73.5t-37 -60.5t-60.5 -54q-52 -35 -105 -35q-36 0 -73 16q-6 4 -21 9l-42 14l-36 12q-7 3 -18.5 8t-21 8.5t-17.5 6.5 q-25 11 -36.5 28t-12.5 48q-1 38 -12 108t-13 102q-1 26 -8 120q-7 88 -7 117q0 16 5 124z" />
<glyph unicode="d" horiz-adv-x="733" d="M12 430q-13 65 -13 131q0 75 17 150q15 63 60.5 99t109.5 38q14 1 33 0q38 0 94 -2q52 0 136 -49q7 -3 19.5 -13.5t20.5 -15.5q2 7 3 13.5t2 12.5t2 9q1 7 1 19.5t1 22t4 17.5q10 24 12 52.5t0.5 44.5t-8.5 53.5t-8 46.5q-8 45 -17 166q0 8 4 32q9 39 22.5 49.5t55.5 8.5 q22 0 76 -4q1 0 2 -0.5t4 -1.5l6 -2q-4 -20 -4 -31q-4 -50 -4 -74q4 -130 12 -192q6 -47 6 -104q0 -73 -10 -163q-2 -19 -2 -41t1 -49t1 -41q0 -48 -24 -69q-4 -4 -7.5 -8.5t-6 -8t-4.5 -9t-3.5 -8.5t-2.5 -9.5t-1.5 -9t-1.5 -10t-1 -9t-0.5 -9.5t-0.5 -9 q-1 -20 -5.5 -112.5t-10.5 -141.5q-1 -7 -3 -26t-2.5 -27.5t-0.5 -23.5t2 -27.5t6 -24.5q2 -9 1.5 -26t0.5 -26v-8q0 -36 -41 -53q-29 -12 -41 -3.5t-12 40.5q-1 10 -3 30.5t-2 29.5v30q0 90 9 178q5 52 5 113t-5 131q-2 26 -2 160v79q-73 46 -170 76q-21 6 -39 6 q-63 0 -97 -75q-30 -68 -30 -162v-17q0 -1 -6 -112q0 -31 2 -47q9 -54 14 -78q-40 -31 -40 -81q0 -20 7 -44q9 -29 12.5 -40t14.5 -31.5t24 -33.5q21 -21 39 -34q45 -27 76.5 -29.5t52.5 12.5t45 51q7 10 25 52q15 27 49 22q0 -26 -2 -30q-35 -52 -72 -105q-27 -41 -94 -45 q-8 -1 -16 -1q-62 -1 -116 35q-61 40 -89 109q-30 74 -37 121q-4 32 -17.5 88t-17.5 78z" />
<glyph unicode="e" horiz-adv-x="507" d="M0 582v22q0 48 6 127q5 49 50 86q35 29 75 29q11 0 21.5 -2t32 -2t28.5 -2q118 -18 213 -86q16 -13 23 -37q6 -35 6 -65q0 -63 -25 -109q-5 -10 -16 -30.5t-18 -33t-19 -29.5t-25 -30q-84 -80 -181 -80q-17 0 -34 2q-1 0 -8 -1t-14 -1q-1 -21 -2 -62.5t-2 -62.5 q0 -6 -4.5 -24t-2.5 -27q25 -91 113 -127q16 -5 31 -6q36 0 69 30q11 10 30.5 32t27.5 30q29 -11 10 -33q-37 -46 -77 -70q-34 -21 -76 -21q-7 0 -15 1q-43 6 -70 25q-122 81 -122 230v7q0 58 -11.5 166t-13.5 154zM139 365q21 -8 38 -8q23 0 40 14q1 1 29 12q50 21 70 67 q11 26 12 55q0 20 -6 40q-8 28 -12 80t-7 67q-4 21 4 30t31 15q7 2 23 8t26 9q-41 35 -123 55q-11 3 -22 3q-24 0 -45 -14q-30 -20 -33 -57q-5 -52 -19 -266q-3 -61 -6 -110z" />
<glyph unicode="f" horiz-adv-x="632" d="M0 1030q14 16 42 5.5t40 -5.5q5 27 4 35q0 51 33 160q2 5 12 35q20 35 42.5 54.5t59.5 22.5q20 2 62 8.5t63 8.5q8 1 15 1q32 0 53 -24q-42 -33 -88 -33q-39 0 -53 -36q-34 -86 -34 -169q0 -43 9 -85q76 0 125 49q29 33 61 35q24 4 37 24q17 23 39 17q27 -6 27 -39 q2 -34 -17.5 -59.5t-54.5 -35.5q-82 -26 -158 -26h-16q-10 1 -29 -0.5t-28 -1.5q-16 -231 -17 -258q-1 -22 -4 -92t-6 -109q-2 -22 -15.5 -62t-15.5 -47q-8 -24 -8 -34q-4 -84 -8 -256v-62q3 -31 -20 -43q-19 -12 -37 -8q-12 3 -17 31q0 3 -2 57t-4 82q-2 26 -12.5 117.5 t-13.5 142.5q-2 0 -2 44v35l2 79q4 28 4 43q8 219 14 330q0 29 -4.5 35.5t-30.5 15.5q-14 4 -49 18z" />
<glyph unicode="g" horiz-adv-x="653" d="M-0.5 468q-0.5 16 1.5 32.5t4 30.5t6.5 32.5t7.5 30t9 32.5t9 31q1 6 29 91q11 39 50.5 72.5t78.5 33.5q33 0 213 -10q12 0 36 -8q43 -15 57 -15t52 15q1 -1 4 -2q4 -2 4 -3q1 -12 3.5 -42.5t3.5 -47t0 -41t-5 -45.5q-3 -21 -3 -44q0 -14 1 -29q2 -18 2 -38 q0 -71 -20 -165q-13 -52 -17 -195q-11 -205 -39 -327q-22 -92 -104 -168q-12 -12 -31.5 -24t-29.5 -17t-40.5 -17.5t-33.5 -13.5q-29 -13 -42 -13.5t-48 7.5q0 2 -1.5 8t-0.5 8q1 21 -1 41.5t-9 44.5t-11 36.5t-16 42.5t-15 38q-13 32 -7.5 44t38.5 24q30 6 37 8 q19 -38 21 -45q3 -14 8 -28.5t9 -25t12 -27t12 -24t14.5 -25.5t13.5 -24q16 -28 35 -28q16 0 35 20q40 40 88 98q18 25 18 56q2 18 0.5 60t1.5 60q1 7 1 15q0 23 -9 56q-11 45 -10 65q-2 1 -6 2t-6 2q-4 -6 -13.5 -17.5t-13.5 -17.5q-37 -60 -127 -73q-20 -3 -37 -3 q-64 0 -104 37q-11 10 -20.5 24t-14 23.5t-13 28t-12.5 26.5q-2 4 -2 13q-45 235 -51 282q-2 16 -2.5 32zM121 178.5q2 -30.5 12.5 -54.5t30.5 -52q20 -29 59 -29h8q87 3 127 68q15 20 17 22q12 7 17.5 19t6 19.5t0.5 25.5q1 30 11 172q1 15 4 41t5 47t3 39q5 139 8 155 q5 33 5 59q0 34 -9 56q3 2 41 31q-36 20 -53.5 24t-63.5 6h-12q-98 0 -123 -98q-3 -17 -10 -35q-43 -130 -45 -209q-1 -14 2 -43t1 -51t-13 -41q-3 -3 2 -12q3 -11 3 -24q0 -32 -20 -76q-16 -29 -14 -59.5z" />
<glyph unicode="h" horiz-adv-x="595" d="M2 736q4 114 3 180q0 36 -1 57q-1 14 -1 31q0 40 5 98q7 84 8 108q3 65 58 78q15 4 41 16.5t37 16.5q5 2 16 2.5t14 1.5q-28 -100 -28 -265v-42q1 -26 1 -75q0 -83 -3 -232q0 -7 -7 -20.5t-8 -16.5q-8 -19 -10 -31q4 -2 10 -8q36 32 53 49q55 60 80 90q2 2 6 33 q91 30 123 39q30 12 45 -17q3 -5 28 -40.5t30 -59.5q2 -21 2 -41q0 -32 -6 -59q-5 -19 -13.5 -51t-11.5 -43q-5 -26 1 -40.5t28 -21.5q13 -5 20 -14t8.5 -14.5t4.5 -20.5q0 -31 -5 -51q-29 -116 -36 -281q0 -12 2.5 -25.5t7 -32t6.5 -28.5q-10 -1 -36 -3t-42 -3 q-47 128 -55 185q-4 27 -4 53t4 51q11 70 11 138q0 118 -34 230q-11 38 -30 74q-7 17 -17.5 20t-27.5 -8q-1 -1 -5 -3.5t-6 -4.5q-19 -22 -58 -64t-58 -63q-15 -20 -15 -28q-6 -64 -6 -127t-29 -97q-14 -10 -14 -28q1 -20 -2.5 -55.5t-4.5 -57t5 -57.5q6 -31 6 -97 q-2 -35 -20 -49t-49 -4v137q0 9 -2.5 28t-2.5 28q-8 151 -10 219q-1 14 0 40t0 40q-8 42 -8 137q0 44 2 99z" />
<glyph unicode="i" horiz-adv-x="333" d="M0.5 671q-1.5 22 1 53t2.5 44q0 37 33 45q12 2 139 35q20 -134 25 -293q2 -80 2 -146q0 -67 -2 -119q-4 -106 -17 -290h-53q-41 7 -35 43q3 14 3 27q0 57 -50 102q-14 14 -18 45q-18 152 -21 205v18q0 25 2 61q2 51 2 72q0 45 -4 56q-8 20 -9.5 42zM35 987q9 71 24 143 q4 24 39.5 41.5t57.5 6.5q14 -10 14 -29q0 -28 -8 -82q-2 -10 -8.5 -29.5t-8.5 -29.5q-6 -21 -16 -68q-39 -5 -45 -4q-50 0 -50 41q0 5 1 10z" />
<glyph unicode="j" horiz-adv-x="434" d="M4 -176q6 30 27 84.5t24 64.5q10 31 47 31q-5 -31 -8 -35q-38 -58 -61 -174q-3 -18 -3 -36q0 -22 4 -43q8 -37 38 -72.5t82 -53.5q36 18 59 80q17 43 39 103q21 53 21 100q0 58 -31 107q-27 42 -27 83q-1 33 -6 71.5t-10 65t-15 71.5t-14 67q-19 83 -19 194q0 67 7 144 q0 23 -6 47q-3 21 -11.5 60.5t-11.5 56.5q87 29 160 55q30 -115 30 -190v-9q0 -100 7 -237q3 -44 13 -132t13 -132q1 -13 1 -34q0 -27 -1 -65q-2 -32 -2 -56q0 -28 2 -44q4 -30 4 -59q0 -63 -16 -123q-24 -89 -74 -187q-11 -25 -32 -38.5t-54 -24.5q-24 -6 -53 -6 q-19 -4 -29 6q-99 91 -99 208q0 25 5 52zM109 963q3 63 49 101q33 27 76 27q17 0 36 -4l-30 -81q-11 -4 -36.5 -17.5t-48 -20.5t-46.5 -5z" />
<glyph unicode="k" horiz-adv-x="698" d="M2 438q-4 29 0 41q16 59 16 145q0 41 -4 89q-4 35 -4 106q0 13 2 15q14 12 19.5 27t7.5 37.5t4 31.5q2 8 3 24.5t3 24.5q6 19 6.5 41t-6.5 47q-4 17 0 51q2 14 8.5 38.5t8.5 33.5q12 8 28 16q-1 6 -3 18.5t-3 18.5q8 5 25 12q21 -34 26 -67q4 -23 13.5 -64.5t13.5 -60.5 q5 -35 4 -41q-3 -28 -8 -83.5t-8 -82.5q-5 -15 -5 -73q0 -25 1 -58q2 -82 3 -115q0 -11 -1 -16q2 0 10 -4q8 13 25.5 37t25.5 37q45 72 55 86q9 12 32 29t28 22q8 7 18.5 13.5t18.5 10t22.5 8t20.5 6t23.5 5t21.5 4.5q11 2 20 2q43 0 55 -49q5 -19 5 -38q0 -48 -29 -101 q-6 -15 -23.5 -39.5t-23.5 -36.5q-24 -45 -62.5 -72t-97.5 -51q-7 -3 -53 -19q8 -7 20.5 -19t18.5 -17q60 -45 108 -140q7 -14 17 -28.5t16.5 -24t22 -26.5t20 -22t24 -25.5t21.5 -22.5q17 -19 39 -19q17 0 37 11q1 1 16 6q1 -6 1 -12q0 -31 -28 -31h-4q-36 3 -63 18 q-13 7 -34 24.5l-27 22.5q-3 3 -107 84q-37 30 -37 31q-14 17 -33.5 34t-32.5 26t-41 27t-38 24q-8 -20 -8 -21q-10 -63 -41 -108q-7 -11 -7 -23q-3 -71 -3 -118q0 -24 1 -42q0 -38 -28 -55q-22 -13 -37 -8q-4 1 -8 11t-4 19q-2 54 -4.5 163t-4.5 163q-1 18 -7 49.5t-7 42.5 zM217 475q10 -1 19 -1q50 0 106 38q67 46 82 102q5 19 -8 32t-33 9q-22 -9 -31 -18q-68 -68 -114 -119q-4 -4 -7.5 -11t-7 -16.5t-6.5 -15.5z" />
<glyph unicode="l" horiz-adv-x="477" d="M2 991q-2 12 -2 26q0 33 12 73q24 68 47 155q16 55 58 86q14 14 30 17q27 6 82 10q28 2 39 -6t17 -35q4 -29 4 -88q8 -156 10 -234q1 -14 5 -73q4 -52 4 -69l-3 -75q-17 -139 -67 -233q-10 -21 -15 -23q-21 -21 -25 -50t3 -54q3 -21 3 -39q0 -57 -26 -92q-17 -25 -17 -58 q0 -19 6 -41q16 -58 58 -86q53 -37 110 -38q21 0 42 6q-16 -38 -47 -54.5t-61 -15t-58 15.5q-119 58 -125 191v74q-3 61 -29 135q-22 64 -32 151q-7 41 -11 152q0 6 -1.5 18.5t-1.5 22.5t3 18q7 25 7.5 55t-2 50t-9 56t-8.5 52zM168 793q2 -72 10 -207q0 -9 2.5 -19t6.5 -24 t6 -25q16 19 16 21q7 19 19 53.5t22 62.5t18 52q4 11 0 18q-15 40 -15 83q0 24 5 50q2 10 2 19q0 52 -53 84q-39 -94 -39 -162v-6z" />
<glyph unicode="m" horiz-adv-x="1136" d="M0 680q0 7 -1 16q-1 24 1 54q2 40 2 59q17 6 38 10.5t35 6.5t41 4.5t38 3.5q12 -56 12 -107q0 -19 -2 -37v-6q0 -48 29 -158q20 28 41 76t28 60q9 18 70 129q-4 4 14 17.5t46 27t48 18.5q8 2 16 2q26 0 58 -16q48 -25 61 -84q3 -15 10.5 -48t10.5 -51q47 29 57 88 q8 45 54 62q28 8 84 16q8 1 32.5 0t32.5 2q10 2 19 2l55 -19q37 -26 45 -63q4 -16 6 -26q22 -142 29 -193v-6q0 -18 -4 -69q-15 -193 -27 -390q-1 -14 0.5 -28.5t5 -34.5t4.5 -29q1 -8 3 -23.5t3 -23.5q-6 -3 -15.5 -0.5t-13.5 2t-12 4t-11 5.5t-10.5 7l-10 8t-9.5 8.5 t-10 8.5q-14 -5 -19 27q-2 13 -2 46q0 53 5 156q2 40 2 68q0 51 -6 64q-7 15 -12.5 34t-7.5 33t-5.5 37.5t-5.5 34.5q-2 14 -4 42t-4 42q-13 85 -27 160q-1 9 -12 47q-8 0 -12 1t-8.5 -3t-6.5 -5.5t-5.5 -6.5t-4.5 -7q-75 -110 -135 -194q-35 -47 -35 -114v-11 q1 -16 3 -33.5t5 -38.5t4 -33q6 -28 -8 -53q-8 -16 -8 -59q0 -27 -32 -53t-56 -17q-8 3 -17 12t-10 17q-44 164 -44 271q0 19 1 36q1 13 1 29q0 91 -31 245q0 3 -15 25q-26 -26 -29 -31q-61 -95 -92 -155q-61 -122 -98 -226q-37 -107 -37 -225q0 -37 4 -74q3 -23 -12 -53 q-5 -6 -14.5 -10.5t-16.5 -3.5q-15 3 -26 22q-4 6 -4 23q-12 123 -21 250q-10 152 -41 344q-4 25 -4 55z" />
<glyph unicode="n" horiz-adv-x="647" d="M0 440v256q3 44 6 90q6 35 41 35h100q6 -132 9 -264q1 -1 4 -2t4 -2q15 15 20 25q37 69 64 112q14 24 35 53q13 19 32 35q1 2 5 4t6 4q3 3 15 16t19 19q2 4 17 4q53 6 110 9q1 -4 11 -32.5t12 -43.5q10 -60 11 -94q0 -6 -1 -11q-1 -15 -1 -40q0 -41 3 -111q2 -35 2 -63 q0 -61 -8 -89q-2 -11 -2 -23q0 -33 16 -69q10 -27 15 -43t4.5 -40.5t-12.5 -45.5q-5 -9 -5 -31v-24q0 -29 -6 -31q-55 -30 -88 -41q-26 -9 -30 23q-5 19 0 28q6 19 6 46q0 41 -15 100q-8 32 -12 67t-6 84t-4 68q-3 29 -3 97v57q0 14 1 26q0 92 -10 127q-1 4 -5 15t-6 18 q-10 -3 -19 -9t-13.5 -11t-12 -14.5t-10.5 -12.5q-89 -126 -119 -211q-4 -16 -20 -39q-16 -30 -15 -62q0 -13 2 -26q9 -61 13 -95q4 -31 3 -76q1 -6 1 -12q0 -52 -12 -96q-5 -31 -5 -74q-39 -9 -49 23q-13 41 -13 66q0 6 1 12q4 25 4 47q0 83 -55 141q-35 39 -35 115v16z " />
<glyph unicode="o" horiz-adv-x="686" d="M2 664q4 77 35 120q25 39 67 45q76 14 140 19q9 2 20 1q50 0 121 -36q7 -3 13.5 -8t15 -13.5t12.5 -11.5q-1 -2 -4 -6t-4 -6q-2 1 -13.5 7t-17.5 11q-48 39 -105 39h-8q-40 -2 -67.5 -24t-34.5 -60q-1 -6 -5 -25.5t-5.5 -27.5t-4.5 -25.5t-3.5 -28t-1 -25.5t1 -28.5 t4.5 -27.5q2 -11 -3 -33.5t-5 -32.5q-1 -15 -17 -69q-10 -33 -10 -58q0 -16 4 -28q2 -4 2 -9t-1.5 -11t-2.5 -10.5t-4 -12t-4 -10.5q-6 -23 -6 -47q0 -70 51 -148q21 -30 57 -36q8 -1 17 -1q27 0 51 14q74 39 82 109q0 5 12 29q5 12 16.5 33.5t16.5 33.5q12 25 33.5 74.5 t33.5 73.5q19 30 6 49q-3 3 -4 7t-1 10t-1 9q0 23 -2 27q-11 19 -38.5 69t-43.5 77q-63 -29 -84 -109q-14 0 -18 2q-32 6 -38 19.5t9 41.5q27 47 49 95q10 22 35 22q12 -1 34.5 -1t40.5 -1t34 -4q41 -3 63 -43q53 -98 53 -193q0 -45 -12 -90q-11 -41 -11 -77q0 -8 1 -17v-5 q0 -66 -49 -152q-13 -26 -70 -56q-2 -1 -145 -80q-28 -15 -60 -15q-12 0 -26 2q-48 8 -76 40q-59 67 -78 162q-6 30 -16.5 89.5t-16.5 88.5q-16 83 -16 201q0 39 2 82z" />
<glyph unicode="p" horiz-adv-x="696" d="M-1 -84q2 40 5 64.5t8.5 65t7.5 65.5q10 82 10 162q0 20 -1 40q-1 18 -3.5 62.5t-3.5 68t0 59.5t5 66q3 23 3 43q0 33 -7 62q-4 22 0 44t12.5 48t11.5 41q3 13 31 18q52 6 108 9v-287q6 5 14 11t11.5 9.5t5.5 7.5q8 17 31 74q48 108 170 195q6 4 28 4h70q18 -1 28 -2 t20 -1.5t15.5 -4.5t10 -5t9 -10t6.5 -12.5t8.5 -19t9.5 -23.5q8 -18 12 -59q12 -98 14 -148q1 -11 1 -26q0 -29 -3 -72q0 -8 -1.5 -34.5t-0.5 -41.5q0 -55 -37 -131q-8 -17 -92 -166q-6 -12 -14 -22.5t-23 -27t-18 -19.5q-17 -18 -38.5 -21t-39.5 4q-101 27 -162 86 q-7 7 -37 27q-9 -37 -14 -80.5t-6 -73t-2 -80t-2 -73.5q-2 -45 -2 -86q0 -131 20 -209h-3q-36 0 -67 21q-31 22 -40 56q-2 7 -4.5 23t-4.5 23q-15 44 -22 51q-25 25 -25 69q-2 27 -10 90q-4 18 -4 44q0 10 1 22zM178 438q8 -117 10 -178q3 -84 62 -129q65 -52 94 -70 q26 -16 50 -16q32 0 61 29q9 9 12 20q42 66 42 137q0 12 -1 25q-5 53 -16.5 176t-18.5 189q-2 20 -2 61v15v17.5t-0.5 15t-2 18t-4 15.5t-6.5 18t-9 16q-66 -18 -97 -70q-16 -24 -33.5 -52.5t-38 -63t-32.5 -54.5q-5 -7 -13 -21.5t-15 -25t-15 -14.5q-21 -9 -25 -21.5 t-2 -36.5z" />
<glyph unicode="q" horiz-adv-x="1052" d="M0 572q-2 30 -2 55q0 37 4 59q5 48 33 113q21 47 69 47q156 4 236 4q24 0 70 -4q60 -4 92 -33q15 -12 47 -12q28 0 37 -27q29 -73 29 -136q0 -25 -5 -48t-7 -66t-3 -53q-1 -22 -4 -67t-4 -68l-12 -240q-5 -37 -19 -92q-26 -95 -26 -176q0 -54 12 -102q5 -14 8 -19 q10 0 36.5 -1t45 -0.5t35.5 3.5q14 2 26 2q78 0 123 -63q58 -83 166 -115q18 -4 23 -8q20 -14 0 -31q-93 35 -125 51q-64 31 -117 31q-61 0 -82 43q-12 21 -31 37t-38 16q-14 0 -29 -8q-21 -11 -21 -34q0 -10 4 -23q4 -16 15 -47t16 -45q-122 7 -196 14q-17 1 -23.5 17.5 t2.5 33.5q2 7 10 17.5t11 15.5q11 18 11 42q0 12 -3 26q-26 84 -26 165q0 89 32 174q3 7 8 33q0 1 -4 17q-18 -9 -64 -37q-52 -30 -109 -30q-59 0 -124 32q-12 5 -35 37q-51 65 -61 159q-3 37 -11.5 113.5t-12 113t-7.5 114.5zM109.5 199q-0.5 -12 2 -24t5.5 -21t9 -21.5 t10 -19.5t12.5 -21t11.5 -20q1 -2 10 -11q41 -25 83 -25q22 0 43 6q66 19 85 79q2 8 18.5 53t20.5 72q2 17 3 52.5t3 53.5q8 64 8 164v34q-1 53 -1 97q0 58 1 101q0 13 8 67q-23 8 -50.5 10.5t-46.5 1.5t-52.5 -4t-48.5 -4q-13 0 -35 -22q-58 -56 -58 -140q0 -13 1 -26 q0 -2 1.5 -21t2 -24t1 -21t0 -23.5t-1.5 -20.5t-3.5 -23.5t-6.5 -20.5q-4 -11 0 -33q2 -18 2 -34q0 -53 -20 -84q-6 -10 -6 -37q-2 -8 -3.5 -30.5t-4.5 -35.5q-3 -12 -3.5 -24z" />
<glyph unicode="r" horiz-adv-x="555" d="M0 817q18 9 40 12.5t50 5.5t43 5q23 -37 36.5 -79.5t25 -101.5t18.5 -86q3 5 7 11l6 9t3 7q3 10 9 29.5t10 35.5t6 31q11 71 88 97q19 6 41 9t54.5 4.5t43.5 2.5q21 3 27 -23q5 -17 3 -35.5t-19 -35.5q40 -16 47 -19q5 -29 -0.5 -36t-30.5 -1q-69 18 -102 58q-4 6 -33 35 q-53 -39 -72 -97q-35 -137 -51 -206q-1 -3 -3.5 -18t-8 -21.5t-17.5 -8.5q-8 -4 -8 -18q-3 -27 0 -53q6 -53 6 -110q0 -46 -4 -95v-105q-50 -20 -105 -20h-14q-30 0 -30 31v39q8 50 16 75q13 39 24 52q19 25 19 47q0 20 -16 37q-53 57 -53 141q0 10 1 20v29q0 99 -18 180 q-8 31 -22 92.5t-17 73.5z" />
<glyph unicode="s" horiz-adv-x="524" d="M12 123q-13 31 -13 59q0 39 26 72q5 6 13 12t20 13.5t18 11.5v182q4 1 12.5 3.5t12.5 3t10 -0.5q14 -11 14 -33q-4 -47 -4 -69q1 -3 1 -5q0 -21 5 -73.5t6 -73.5q2 -28 21 -65q17 -35 17 -63q0 -7 -1 -13q-4 -33 25 -39q5 -1 18.5 -5t19 -5t19 -2.5t18.5 0.5 q63 15 106 61t52 105q2 14 2 28q0 51 -31 97q-37 53 -71 98q-22 26 -29 37q-13 27 -39 52.5t-41.5 36t-56.5 36.5q-4 2 -20.5 12t-22.5 13.5t-20 12.5t-21 16t-16.5 17t-16.5 21t-12 24q-13 26 -15 41q-8 26 -3.5 40t28.5 24q3 1 25 18q27 27 65 27q14 -1 39 -1.5t45.5 -1.5 t38.5 -3q33 -1 53.5 -20.5t38.5 -55.5q-1 -1 -4 -3t-4 -3q-9 7 -27.5 22.5t-27.5 22.5q-28 21 -54 21q-30 0 -57 -29q-16 -17 -6 -41q41 -71 98 -109q81 -48 127 -90q15 -13 29 -28.5t31 -36.5t26 -31q22 -28 -2 -49q-16 -22 -10 -35q9 -19 12.5 -43t3 -38.5t-3.5 -44.5 l-4 -40q-5 -97 -104 -174q-33 -25 -113 -41q-8 -2 -27 -2t-47 2q-123 6 -172 125z" />
<glyph unicode="t" horiz-adv-x="520" d="M0 817q28 3 83.5 8.5t80.5 8.5q2 7 5 24t5 25q4 25 23 108q6 17 12 17q63 15 110 24q-32 -81 -32 -186q5 0 14.5 -1t17 -1t13.5 2q14 3 31.5 3t28 -0.5t32 -3t29.5 -3.5q3 -1 9.5 -7.5t8.5 -7.5q-2 -1 -5.5 -4.5t-6.5 -5.5t-6 -2q-9 -1 -29 -2t-29 -2q-32 0 -106 -4 q-1 -8 -1 -19q0 -29 9 -79q4 -36 4.5 -61.5t-4.5 -41.5q-3 -6 -3.5 -13.5t0.5 -18.5t1 -15q-4 -48 -8 -74q-9 -50 -9 -103q0 -15 1 -30q0 -3 -1.5 -6.5t-3 -7.5t-2.5 -6q-1 -4 -4 -12.5t-4 -12.5q-1 -5 -5 -32.5t-5 -38t-3 -32t-1 -38t4 -33.5q7 -38 45 -82q18 -20 54 -20 q11 0 24 2q3 0 5.5 2.5t6.5 7t6 6.5q36 56 41 103q1 16 17 133q3 17 7 19.5t27 4.5q2 -8 2 -24l-18 -135q-6 -47 -51 -127q-14 -23 -47 -23q-46 0 -82 8q-9 1 -33 21q-48 45 -55 137q0 3 -6 180q-6 150 -15 295q-2 28 -9 82.5t-9 69.5q-6 0 -31.5 0.5t-36 1.5t-30.5 3.5 t-35.5 7t-30.5 11.5z" />
<glyph unicode="u" horiz-adv-x="585" d="M0 745q0 34 23 39q65 9 127 15q4 -110 4 -156q4 -113 20 -184q4 -15 6 -33.5t1.5 -32.5t-1 -36.5t-0.5 -34.5v-5q-18 -19 -23.5 -46t-2.5 -50.5t-2 -50.5q-4 -32 12 -58.5t47 -37.5q22 -8 49 -15q12 -3 22 -3q24 0 42 16q6 5 19.5 12t18.5 12q27 22 31 37q19 56 19 100 q0 13 -2 25q-2 22 -2 47t1 56t1 47q0 17 6 26q18 20 27.5 46.5t15.5 61.5t12 52q13 35 15 77v24q0 27 -2 47q-4 28 -13 79q31 17 53 31q2 -16 10 -77t9 -93q2 -35 2 -90q-1 -14 -1 -29v-47q0 -43 1 -72q6 -177 6 -178q1 -11 1 -24q0 -29 -5 -62q-14 -54 -58 -67 q-12 -3 -22 -13q-26 -26 -83.5 -51t-74.5 -37l-12 -6q-11 2 -42 5t-52.5 6.5t-40.5 9.5q-58 18 -78 84q-1 1 -12 53q-3 17 -9.5 49t-9.5 49q-3 14 -9 43.5t-9 44.5q-35 139 -35 351v44z" />
<glyph unicode="v" horiz-adv-x="624" d="M0 801q0 6 4.5 13t9.5 9q15 3 48 11.5t58.5 13t49.5 2.5q18 -40 18 -84q0 -35 -12 -72q-5 -16 -5 -34.5t5 -38.5q2 -9 8.5 -32.5t9.5 -40t3 -32.5q0 -59 -17 -129q-4 -13 -3 -37q0 -17 1 -39q1 -55 24.5 -100t67.5 -100q8 -11 29 -27q25 -20 43 -20q26 0 37 42 q26 101 33 170q3 11 3 43q-1 12 -1 27q-1 33 0 52v18q8 119 26 164q11 29 15 77q1 23 5.5 46.5t14 56.5t12.5 45q6 23 15.5 34t18.5 11t17.5 -4.5t14 -10.5t6.5 -10q8 -26 14 -42.5t8 -17.5t2.5 -5t-0.5 -5t-3.5 -18.5t-4.5 -44.5q-5 -15 -5 -107v-19q0 -109 1 -126 q0 -5 0.5 -13t0.5 -14.5t-1 -11.5q-2 -9 -5.5 -33t-6 -37t-8 -32t-12.5 -33q-6 -12 -22 -46t-24.5 -51.5t-25 -42.5t-33.5 -44q-50 -50 -63 -68q-16 -19 -41 -16q-70 13 -111 57q-110 116 -151 303q-29 143 -56 236q-9 32 -11 70q-1 22 -1 41q0 15 0.5 28t0.5 27q0 19 -1 41 z" />
<glyph unicode="w" horiz-adv-x="1042" d="M0 647v18q0 48 8 97q10 58 43 65q3 0 50 7.5t73 11.5q3 -40 9 -166.5t7 -147.5q2 -30 5.5 -88.5t5.5 -85.5q4 -60 16 -200q4 -43 49 -103q29 -34 59 -34q37 0 76 49q7 8 33 55q10 16 15.5 34.5t6 35.5t1 36.5t0.5 36.5q0 14 -7 41.5t-8 36.5q-3 15 -8.5 40.5t-9.5 46.5 t-6 40q-8 90 -12 266q-3 37 -3 70q39 24 68 24q47 0 68 -63q7 -21 17 -65.5t17 -65.5q15 -44 15 -108q0 -32 -4 -68q-1 -9 -1 -18q0 -63 31 -141q35 -90 91 -157t106 -71q23 -3 49.5 13.5t34.5 37.5q27 73 43 127q4 13 0 39q-14 49 -47 156q-38 123 -74 221q-6 16 -6 34 q0 37 25 82q32 56 70 62q3 1 7 1q35 0 52 -59q4 -11 6 -24q10 -54 24 -292q9 -151 9 -223q0 -41 -3 -56q-16 -76 -38 -113q-34 -57 -93 -57h-6q-25 0 -95 -9.5t-73 -9.5q-14 0 -29 17t-27.5 46t-22 56t-19.5 58t-14 42q-4 6 -15 17q-1 1 -14 8q-6 -14 -16.5 -40.5 t-16.5 -39.5q-21 -44 -31.5 -63.5t-36.5 -49.5t-59 -45t-68 -15q-17 -1 -35 3q-52 12 -87 53q-46 52 -51 58q-16 16 -17 20q-7 27 -22.5 53t-39.5 57t-34 46q-26 40 -29 86q-9 139 -12 274z" />
<glyph unicode="x" horiz-adv-x="864" d="M0 10q34 29 61 56q4 5 27.5 31t32.5 42q22 42 65 68q103 68 181 192q-20 19 -72.5 67t-78.5 74.5t-66.5 69t-70 84.5t-54.5 88q99 18 127 21q7 2 30 -21q35 -40 102.5 -118.5t102.5 -118.5q7 -8 22.5 -22t22.5 -21q13 21 40.5 69.5t43.5 73.5q22 32 65.5 92t51.5 72 q26 38 66 38q8 0 16 -1q16 -2 28.5 -0.5t28 0t27.5 -9.5l-142 -213q-76 -115 -92 -136q-9 -13 -32.5 -32.5t-30.5 -26.5q5 -6 14.5 -18.5t15.5 -20t14.5 -17t16.5 -16.5q127 -107 158 -225q2 -10 29 -33q15 -14 79 -69q-57 -31 -99 -31q-18 0 -32 5q-52 17 -104 106 q11 2 -17.5 57.5t-70 113t-60.5 64.5q-8 3 -19 0.5t-17 -8.5q-59 -59 -82 -92q-25 -41 -45 -66q-24 -30 -73 -81.5t-63 -67.5q-23 -29 -51 -29q-7 0 -14 2q-13 3 -41.5 5t-40.5 3z" />
<glyph unicode="y" horiz-adv-x="784" d="M4 553q4 28 14 186q0 3 1.5 6.5t3.5 8.5l4 10q111 8 170 14q0 -13 1.5 -38.5t1 -42.5t-4.5 -33q-15 -67 -15 -142q0 -140 53 -307q25 -74 39 -102q15 -30 43 -58q21 -21 48 -21q20 0 43 11q33 17 55 43.5t47 69.5q30 53 30 115q0 44 -16 94q-38 112 -53 321 q-2 25 -11.5 77t-11.5 77q-2 19 56 -7q82 -38 133 -97q34 -38 34 -70q0 -6 -1 -11q-6 -37 -6 -78q0 -91 32 -198q47 -170 47 -432q0 -8 2.5 -30.5t1.5 -33.5q-12 -296 -24 -450q-4 -62 -70 -160q-19 -31 -65 -37q-7 -1 -15 -1q-37 0 -101 19q-79 22 -148 61.5t-76 74.5 q-10 41 -14.5 64.5t-9.5 59.5q-6 32 -6 62v6q1 32 7 64q4 27 18.5 43.5t45.5 34.5q-4 -15 -9.5 -37.5t-9 -38.5t-6.5 -31q-2 -30 -3 -47t5.5 -44t11.5 -42t14.5 -42.5t14.5 -45.5q49 -43 97 -54q41 -10 120 -10h29q26 13 40.5 22.5t26 29t7.5 45.5q-2 24 -2 34t2.5 36.5 t3.5 35.5q1 16 1 31q0 87 -20 135q-8 24 -16 80q-3 27 -9.5 83t-9.5 83q-2 21 -5 64.5t-5 64.5q-1 13 -5 41.5t-5 38.5q-44 -61 -66 -90q-35 -45 -74 -60q-21 -7 -41 -7q-17 0 -33 5q-35 12 -67 45q-123 127 -194 215q-80 100 -80 228q0 29 4 59z" />
<glyph unicode="z" horiz-adv-x="811" d="M0 51q3 9 41 121q4 11 10 14q13 2 23.5 9.5t15.5 15t13 20.5t12 19q118 152 149 190q5 7 16.5 22t14.5 19q-10 2 -63 4.5t-83 11t-38 27.5h29q28 -1 47.5 -1t53 2.5t56 6.5t43.5 12.5t29 20.5q6 10 20.5 29t20.5 29q14 22 32 57h-110q-4 0 -11 -0.5t-12.5 -0.5t-9.5 1 q-30 12 -64 14q-19 1 -40 2q-17 0 -37 -1q-28 -1 -47 -1h-17q-6 0 -18 -3t-15 -3q34 126 35 131q7 24 16 28t35 -1q82 -12 123 -12q14 0 52 -1t57.5 -0.5t50 3t55.5 8.5q13 3 27 3q25 0 55 -9q21 -7 33 -35q3 -12 8 -76q1 -10 1 -20q0 -37 -15 -68q-19 -39 -59 -84 q-4 -4 -10 -16t-9 -17q15 -5 64.5 -22t76.5 -25q-2 -2 -2 -8q-94 0 -141 2q-52 0 -80 -33q-58 -64 -112 -108q-18 -13 -54 -33.5t-51 -30.5q-15 -11 -27 -25.5t-16.5 -22t-17 -34t-15.5 -32.5q15 -9 22.5 -27t16.5 -30t29 -13h3q27 0 176 31q158 33 163 51q9 30 17.5 36 t37.5 5q52 -3 119 -13q33 -7 33 -32q0 -9 -4 -19q-6 -18 -22 -49.5t-19 -38.5q-9 -18 -39 -14q-61 8 -82 10q-27 1 -54 -2t-67.5 -9.5t-52.5 -8.5q-150 -20 -266 -23h-14q-86 0 -138 47z" />
<glyph unicode="{" horiz-adv-x="618" d="M33 627q5 3 15.5 11t19 13t16.5 6q14 2 26 6t22.5 12t17.5 13.5t15.5 19.5t12 19t12.5 22t11 21q29 53 41 176q3 27 9.5 111.5t12.5 130.5q4 50 70 104q40 32 72.5 48.5t72.5 15.5q62 -3 101 -62q15 -25 6 -44t-37 -27q-6 -2 -17.5 -4.5t-17.5 -4.5q-49 -13 -72 27 q-12 18 -30 39q-81 -43 -93 -125q-1 -7 -3 -15t-5 -17t-4 -15l-3 -15t-3 -18.5t0 -15.5q10 -95 -27 -291q-3 -15 -11 -30t-23.5 -35.5t-20.5 -28.5q-4 -6 -10.5 -11.5t-15.5 -13t-13 -10.5q3 -2 16.5 -12.5t20.5 -14.5q44 -23 75.5 -97t40.5 -139.5t-1 -78.5 q-47 -58 -70 -107q-21 -40 45 -90q13 -11 86 -59q1 0 14 7q195 108 173 9q-2 -13 -9 -30q-92 -35 -173 -24.5t-137 46.5t-56 74l-1 67q0 68 1 68q3 100 -27 195q-31 87 -98 120q-38 19 -47 54z" />
<glyph unicode="|" horiz-adv-x="266" d="M31 1280v78q29 -2 84 -6t84 -6q8 -176 10 -250v-236q1 -38 3 -112.5t3 -112.5q0 -3 -6 -45q-7 -35 -10.5 -54.5t-6.5 -49.5t-2 -56.5t7 -52.5q1 -7 2 -20.5t2 -20.5q1 -12 1 -33t1 -38.5t4 -33.5q15 -98 -6 -153q-3 -17 -3.5 -23t2 -26.5t3.5 -28.5q-24 3 -51 6 q-21 135 -23 150q-6 37 -16.5 113t-16.5 116q-4 31 -17.5 104.5t-17.5 114.5q-24 183 -28 281q-2 46 1 130.5t3 112.5q0 23 -1 48t-2.5 56t-2.5 48z" />
<glyph unicode="}" horiz-adv-x="626" d="M33 107.5q9 19.5 39 25.5q8 3 32 8q47 15 74 -26q4 -6 15 -19t16 -20q81 44 92 125q3 21 10 47q9 38 8 49q-3 24 -3 50.5t0.5 45.5t4.5 51.5t6.5 45.5t9 51t7.5 47q2 10 6 20t10.5 20.5t11.5 18t15 19.5t14 18q5 7 18.5 19t18.5 16q-26 19 -35 24q-44 23 -75 97.5 t-40 140.5t1 80q45 55 69 104q4 9 5 17.5t-2.5 17t-7.5 16t-14 17t-17 15.5t-21.5 16.5t-22.5 16t-25.5 17.5t-25.5 17q-1 0 -14 -7q-197 -108 -175 -8q2 13 9 29q92 35 173.5 25t137.5 -46t56 -75q3 -68 0 -133q-3 -111 28 -197q26 -84 97 -119q40 -17 47 -55 q-2 -1 -14 -11t-20.5 -14.5t-16.5 -5.5q-16 -2 -30.5 -8.5t-23.5 -12.5t-19.5 -20t-14.5 -21t-14 -25t-13 -23q-29 -55 -41 -178q-4 -40 -11.5 -120t-11.5 -120q-7 -56 -69 -107q-77 -63 -148 -63q-58 2 -98 63q-17 25 -8 44.5z" />
<glyph unicode="~" horiz-adv-x="1038" d="M33 416q17 61 66.5 106.5t103.5 65.5t106 22q45 2 135 -2q32 -2 60.5 -18.5t44 -32.5t41.5 -47q87 -101 201 -78q104 19 172 125q7 13 8.5 31.5t0 44.5t-0.5 39q21 1 29 -14t6 -37q-12 -114 -97 -185q-18 -15 -36.5 -24.5t-42.5 -14.5t-36.5 -7t-44 -4t-38.5 -3 q-20 0 -33 10q-13 9 -29.5 16t-27.5 11t-33 8.5t-29 5.5t-33.5 4.5t-29.5 3.5q-61 9 -109 45q-69 52 -123 47.5t-117 -67.5q-12 -12 -37 -38.5t-40 -41.5q-12 9 -37 29z" />
<glyph unicode="&#xad;" d="M31 651q5 62 80 78q32 5 61 0.5t74.5 -18.5t56.5 -17q99 -23 180 -4q78 18 181 2q41 -7 85.5 -10t107 -4t87.5 -2q74 -3 74 -74q-5 -1 -39 -6t-51 -6q-47 -1 -141.5 -2t-141.5 -2q-9 0 -33.5 -0.5t-37 -1.5t-31.5 -4t-33 -9q-53 -23 -118.5 -30.5t-106 -6t-119.5 8.5 q-11 1 -127 16q-9 75 -8 92z" />
<glyph unicode="&#x2000;" horiz-adv-x="682" />
<glyph unicode="&#x2001;" horiz-adv-x="1365" />
<glyph unicode="&#x2002;" horiz-adv-x="682" />
<glyph unicode="&#x2003;" horiz-adv-x="1365" />
<glyph unicode="&#x2004;" horiz-adv-x="455" />
<glyph unicode="&#x2005;" horiz-adv-x="341" />
<glyph unicode="&#x2006;" horiz-adv-x="227" />
<glyph unicode="&#x2007;" horiz-adv-x="227" />
<glyph unicode="&#x2008;" horiz-adv-x="170" />
<glyph unicode="&#x2009;" horiz-adv-x="273" />
<glyph unicode="&#x200a;" horiz-adv-x="75" />
<glyph unicode="&#x2010;" d="M31 651q5 62 80 78q32 5 61 0.5t74.5 -18.5t56.5 -17q99 -23 180 -4q78 18 181 2q41 -7 85.5 -10t107 -4t87.5 -2q74 -3 74 -74q-5 -1 -39 -6t-51 -6q-47 -1 -141.5 -2t-141.5 -2q-9 0 -33.5 -0.5t-37 -1.5t-31.5 -4t-33 -9q-53 -23 -118.5 -30.5t-106 -6t-119.5 8.5 q-11 1 -127 16q-9 75 -8 92z" />
<glyph unicode="&#x2011;" d="M31 651q5 62 80 78q32 5 61 0.5t74.5 -18.5t56.5 -17q99 -23 180 -4q78 18 181 2q41 -7 85.5 -10t107 -4t87.5 -2q74 -3 74 -74q-5 -1 -39 -6t-51 -6q-47 -1 -141.5 -2t-141.5 -2q-9 0 -33.5 -0.5t-37 -1.5t-31.5 -4t-33 -9q-53 -23 -118.5 -30.5t-106 -6t-119.5 8.5 q-11 1 -127 16q-9 75 -8 92z" />
<glyph unicode="&#x2012;" d="M31 651q5 62 80 78q32 5 61 0.5t74.5 -18.5t56.5 -17q99 -23 180 -4q78 18 181 2q41 -7 85.5 -10t107 -4t87.5 -2q74 -3 74 -74q-5 -1 -39 -6t-51 -6q-47 -1 -141.5 -2t-141.5 -2q-9 0 -33.5 -0.5t-37 -1.5t-31.5 -4t-33 -9q-53 -23 -118.5 -30.5t-106 -6t-119.5 8.5 q-11 1 -127 16q-9 75 -8 92z" />
<glyph unicode="&#x2013;" horiz-adv-x="1092" d="M30 651q5 62 83 78q33 5 63 0.5t77.5 -18.5t58.5 -17q103 -23 187 -4q81 18 188 2q42 -7 88.5 -10t111 -4t90.5 -2q77 -3 77 -74q-5 -1 -40.5 -6t-52.5 -6q-49 -1 -147 -2t-147 -2q-9 0 -34.5 -0.5t-38.5 -1.5t-32.5 -4t-34.5 -9q-55 -23 -123 -30.5t-110 -6t-124 8.5 q-11 1 -132 16q-9 75 -8 92z" />
<glyph unicode="&#x2014;" horiz-adv-x="2116" d="M30 651q11 62 166 78q67 5 127 0.5t154.5 -18.5t117.5 -17q205 -23 373 -4q162 18 376 2q85 -7 177 -10t222 -4t181 -2q154 -3 154 -74q-10 -1 -80.5 -6t-106.5 -6q-97 -1 -293 -2t-294 -2q-19 0 -69.5 -0.5t-76.5 -1.5t-65.5 -4t-68.5 -9q-110 -23 -246 -30.5t-220 -6 t-248 8.5q-23 1 -263 16q-19 75 -17 92z" />
<glyph unicode="&#x202f;" horiz-adv-x="273" />
<glyph unicode="&#x205f;" horiz-adv-x="341" />
<glyph unicode="&#x25fc;" horiz-adv-x="849" d="M0 0v850h850v-850h-850z" />
</font>
</defs>
</svg>
