<?xml version="1.0" standalone="no"?>
<!DOCTYPE svg PUBLIC "-//W3C//DTD SVG 1.1//EN" "http://www.w3.org/Graphics/SVG/1.1/DTD/svg11.dtd" >
<svg xmlns="http://www.w3.org/2000/svg">
<metadata></metadata>
<defs>
<font id="samitha_scriptregular" horiz-adv-x="684" >
<font-face units-per-em="2048" ascent="1536" descent="-512" />
<missing-glyph horiz-adv-x="681" />
<glyph horiz-adv-x="0" />
<glyph unicode="&#xd;" horiz-adv-x="681" />
<glyph horiz-adv-x="0" />
<glyph horiz-adv-x="0" />
<glyph unicode=" "  horiz-adv-x="681" />
<glyph unicode="&#x09;" horiz-adv-x="681" />
<glyph unicode="&#xa0;" horiz-adv-x="681" />
<glyph unicode="!" horiz-adv-x="450" d="M29 186q2 49 12 140.5t39 242.5q27 150 59.5 268.5t60 199.5t47 123t23.5 40q2 -2 31 -23.5t60.5 -47t58 -47t26.5 -23.5t-24.5 -31t-62 -88t-84 -149.5t-89.5 -212.5q-43 -125 -62.5 -212t-26.5 -142.5t-9 -79t-8 -21.5q-4 0 -25 -8q-10 -4 -22 -9q-6 23 -4 80zM42 26.5 q-3 24.5 3 24.5q2 0 24.5 7.5t30.5 11.5q-4 -4 -2 -25q2 -23 7.5 -51.5t10.5 -52t9 -25.5q4 -4 -2 -6t-17 -4q-10 -2 -26 -2q-4 -6 -12.5 16.5t-15.5 52t-10 54zM100 70q0 2 2 2z" />
<glyph unicode="&#x22;" horiz-adv-x="581" d="M127 922l12 118q4 45 8.5 82t2.5 37t20.5 1t50.5 5l74 9l-105 -252h-63zM346 922l12 118q4 45 8.5 82t2.5 37t20.5 1t50.5 5l74 9l-104 -252h-64z" />
<glyph unicode="#" horiz-adv-x="1296" d="M98 272l19 88h245l82 377h-245l18 88h246l59 273h88l-59 -273h328l59 273h88l-59 -273h282l-18 -88h-283l-82 -377h283l-19 -88h-282l-62 -276h-88l62 276h-328l-61 -276h-88l61 276h-246zM451 360h327l82 377h-328z" />
<glyph unicode="&#x26;" horiz-adv-x="1269" d="M16.5 306q8.5 77 37 148.5t69.5 127.5q35 43 82 88q-12 18 -24.5 36.5t-22.5 38.5q-57 98 -58.5 193.5t33.5 177.5t97.5 145.5t133 101.5t138 45t114.5 -24q63 -43 93 -102t14 -135t-83 -169t-198 -202q63 -82 136 -142.5t139.5 -101t120 -64.5t77.5 -32q35 47 62 87 t49 69q49 70 95 142.5t93 135.5l62 -41q-57 -72 -120.5 -163t-133.5 -188t-144.5 -191t-153.5 -171t-163 -127t-170 -59q-117 -12 -192.5 17.5t-118.5 84t-57.5 126t-6 148.5zM88 214q14 -83 92 -161q70 -70 144.5 -77t151.5 27t151.5 100.5t142.5 144.5q-35 12 -95.5 37.5 t-132 69.5t-149 108.5t-147.5 152.5q-39 -41 -83 -105.5t-66.5 -139t-8.5 -157.5zM306 1100q1 -80 46 -174q10 -25 22.5 -46.5t26.5 -43.5q57 47 109.5 95t88.5 99t51 106.5t-3 116.5q-20 68 -62 95.5t-90.5 22.5t-93.5 -39t-70.5 -93t-24.5 -139z" />
<glyph unicode="'" horiz-adv-x="339" d="M127 922l12 118q4 45 8.5 82t2.5 37t20.5 1t50.5 5l74 9l-105 -252h-63z" />
<glyph unicode="(" horiz-adv-x="438" d="M-18 180q-14 152 5 275t55 218t83 161.5t88 107.5t66.5 59.5t39.5 26.5q16 8 23 6q25 -20 45 -39q16 -16 31.5 -29.5t15.5 -15.5t-26.5 -23.5t-67.5 -60.5t-90 -96t-94 -130t-80 -161t-47 -190q-18 -154 14.5 -266.5t79.5 -188.5q53 -88 131 -149l-12 -25 q-63 39 -117 109q-47 59 -88 158.5t-55 252.5z" />
<glyph unicode=")" horiz-adv-x="448" d="M-55 -242q0 2 26.5 23.5t67.5 60.5t90 96.5t94 130t80 160.5t47 191q18 154 -14.5 266.5t-79.5 187.5q-55 88 -131 150l12 25q63 -39 117 -109q45 -59 87 -159.5t56 -252.5t-5 -274.5t-55 -217.5t-83 -163t-88 -106q-41 -41 -66.5 -59.5t-40.5 -26.5q-16 -8 -22 -7 q-27 20 -47 39q-16 16 -30.5 28.5t-14.5 16.5z" />
<glyph unicode="*" horiz-adv-x="387" d="M8 1055v55h115l-86 86l41 39l88 -88v131h55v-123l86 88l41 -39l-96 -94h131v-55h-127l84 -86l-37 -37l-82 80v-109h-55v119l-84 -84l-41 41l76 76h-109z" />
<glyph unicode="+" horiz-adv-x="1153" d="M23 604v90h501v527h90v-527h516v-90h-516v-491h-90v491h-501z" />
<glyph unicode="," horiz-adv-x="167" d="M-23 -35q12 -4 27 -4q12 0 27.5 3t31.5 13t24.5 24.5t12.5 27.5q4 14 4 30l-77 4q2 31 2 56v57q-2 0 16 -5t41 -11l57 -17q0 2 2 0q0 -2 1 -9t-1 -23q-4 -35 -12 -74t-47 -74q-20 -18 -38.5 -23.5t-35.5 -5.5q-18 0 -35 7v24z" />
<glyph unicode="-" horiz-adv-x="1167" d="M23 604v90h1107v-90h-1107z" />
<glyph unicode="." horiz-adv-x="190" d="M18 4v160h160v-160h-160z" />
<glyph unicode="/" horiz-adv-x="602" d="M-74 -82l594 1249l82 -39l-596 -1249z" />
<glyph unicode="0" horiz-adv-x="1069" d="M66 451.5q12 109.5 46.5 219t92 212t132.5 181.5t164 127t189 48q113 0 196 -59.5t103 -178.5q16 -96 7 -208.5t-41.5 -225t-87 -217t-128 -185.5t-166 -130t-198.5 -49q-55 0 -106.5 20.5t-92.5 57t-68.5 85t-37.5 103.5q-16 90 -4 199.5zM211 141q4 -25 19.5 -48 t37 -40.5t46 -29t48.5 -11.5q70 0 135.5 60.5t122 157t101.5 214t74.5 234.5t42 217.5t2.5 161.5q-6 27 -15.5 55.5t-25 52t-40 38t-57.5 14.5q-59 0 -121.5 -63.5t-120 -165t-106.5 -225.5t-83.5 -243t-51 -221t-8.5 -158z" />
<glyph unicode="1" horiz-adv-x="612" d="M-94 -129q33 78 82 179.5t107.5 219t126 250.5t136.5 273q-16 -2 -40.5 -27t-53 -55.5t-57.5 -59t-51 -37.5q12 20 44.5 64.5t77 97.5t93.5 109.5t95 103.5t83 78t55 31l12 -11q-41 -90 -86 -178t-89 -177t-85 -179t-71 -186q-49 -156 -99.5 -250t-98.5 -146.5t-94 -72 t-87 -27.5z" />
<glyph unicode="2" horiz-adv-x="927" d="M-78 -20q-4 23 16.5 57.5t49 69t58.5 65.5t42 45q78 82 161 130t163 95t153.5 114t134.5 187q25 47 43.5 106.5t8.5 119.5q-6 37 -28 67.5t-52.5 52t-66.5 34t-70 12.5q-43 0 -84 -17.5t-72 -48.5t-45.5 -72t-5.5 -88q4 -25 20.5 -48t38.5 -38l-41 -57q-23 20 -36 48 t-19 58q-12 68 14.5 123.5t74.5 96.5t110.5 63.5t121.5 22.5q123 0 206 -73t106 -196q14 -84 -12.5 -152.5t-81 -123.5t-128 -100.5t-150.5 -81t-149.5 -64.5t-126.5 -51q-43 -18 -79.5 -50t-71.5 -63q-6 -6 -19.5 -18t-25.5 -25.5t-21.5 -28t-7.5 -26.5q53 0 101.5 13.5 t99.5 13.5q70 0 141.5 -18.5t143.5 -18.5q27 0 54 11t53 27.5t48.5 37t38.5 36.5l6 -20q8 -49 -16.5 -95t-67.5 -81t-94 -56.5t-96 -21.5q-35 0 -71 7t-71.5 14.5t-70.5 14.5t-68 7q-25 0 -58.5 -1t-68.5 -5t-65.5 -11.5t-48.5 -19.5l-17 14z" />
<glyph unicode="3" horiz-adv-x="995" d="M-14 184q-6 35 0 72l26 -8q-4 -16 -5 -34.5t3 -35.5q16 -86 80 -128t137 -42q80 0 146.5 46t114 116t67.5 153t8 156q-4 29 -20.5 52.5t-39 39t-50 23.5t-54.5 8q-35 0 -63.5 -17.5t-54.5 -33.5l-33 14l473 373q-55 16 -126 32.5t-124 16.5q-59 0 -124.5 -24.5 t-115.5 -47.5q37 88 103.5 148.5t175.5 60.5q39 0 80 -8t82 -17t81 -16.5t81 -7.5q45 0 86 15.5t77 33.5l-548 -444q55 -6 104 -29.5t87 -61.5t62.5 -86t34.5 -104q18 -100 -14.5 -186t-97 -148.5t-153.5 -98.5t-183 -36q-53 0 -103.5 18.5t-91.5 52.5t-69.5 81t-38.5 102z " />
<glyph unicode="4" horiz-adv-x="968" d="M63 338q-4 18 17.5 51t49.5 65.5t55.5 60.5t39.5 40q47 47 109.5 106.5t128 126t130 139t118 149.5t89.5 156t46 157l57 -191q8 -45 -21.5 -103.5t-83 -123t-124 -133t-144 -133t-146.5 -124t-131 -105.5t-94 -77.5t-38 -42.5q-4 -16 18.5 -26.5t52 -15.5t58.5 -7t39 -2 q47 0 91 2t91 6q12 27 39 79t60.5 116.5t72.5 133.5t78 128t73.5 102t61.5 58q-57 -154 -118.5 -303.5t-123.5 -300.5l263 20q-4 -25 -13.5 -49.5t-17.5 -46.5q-59 0 -119.5 3t-120.5 7q-39 -98 -64.5 -160.5t-51 -99.5t-61.5 -56.5t-93 -33.5q0 43 11 91t29.5 95t38 91 t34.5 79q-8 0 -39 -1t-73 0t-88 3t-86 10.5t-67.5 22.5t-32.5 37z" />
<glyph unicode="5" horiz-adv-x="923" d="M-35 199l27 4v-13.5t2 -13.5q8 -47 31.5 -81t55.5 -55.5t70.5 -32.5t79.5 -11q86 0 148.5 47t103.5 118.5t60.5 160t16.5 169t-27.5 145t-69.5 90.5t-111.5 3.5t-154.5 -115.5l-7 7q0 18 5.5 35.5t11.5 33.5l149 379q20 51 71.5 80t109.5 29q49 0 98 -13.5t98 -20.5 t96.5 3t90.5 57l8 -8q-20 -90 -53 -145.5t-85.5 -76t-126 -6t-176.5 65.5q-18 8 -36.5 5t-36 -13t-32.5 -24.5t-30 -26.5l-88 -219q41 18 87 29.5t95 11.5q55 0 106.5 -27t91.5 -70t67.5 -95t36.5 -103q20 -115 -11.5 -214.5t-100.5 -174t-165 -117.5t-207 -43 q-47 0 -96 15.5t-90 44t-72 70.5t-39 95q-2 6 -2 21z" />
<glyph unicode="6" horiz-adv-x="985" d="M106 442q11 113 46.5 223.5t94 212t136.5 179.5t172 124t203 46q45 0 88 -15l-6 -18q-18 6 -39 8t-39 2q-76 0 -137.5 -55t-108.5 -133t-80 -161t-51 -140q39 27 84 43t98 16q51 0 98.5 -23.5t83 -61.5t60.5 -85t33 -94q16 -96 -7.5 -194.5t-79 -179.5t-137 -132 t-182.5 -51q-59 0 -113.5 21.5t-97.5 58.5t-72.5 88t-39.5 110q-18 98 -7 211zM265 217.5q-1 -63.5 7 -108.5q23 -119 136 -119q43 0 82.5 33.5t72.5 88t58.5 122t42 135t21.5 128t-1 99.5q-10 66 -48 100.5t-104 34.5q-57 0 -100 -33.5t-74.5 -88t-51 -123t-30 -137 t-11.5 -132z" />
<glyph unicode="7" horiz-adv-x="892" d="M-57 124q12 93 53 188.5t109.5 186.5t168.5 171q47 37 124 88t155 107.5t144.5 114.5t93.5 110q-39 -12 -89.5 -11.5t-108.5 4.5t-119.5 7.5t-121 -5t-113 -32t-94.5 -70.5q16 49 35 93t46.5 76t68.5 50.5t102 18.5q57 0 116.5 -14.5t119 -23.5t117 -3t108.5 47l25 -17 q2 -12 -1 -38.5t-17.5 -62.5t-44 -77t-79.5 -80q-199 -160 -343 -321.5t-240.5 -303t-147.5 -247t-63 -150.5l-2 19q-14 82 -2 175z" />
<glyph unicode="8" horiz-adv-x="1064" d="M47 281q-16 88 18.5 152.5t94 108.5t135.5 71.5t143 43.5q-35 47 -58.5 98.5t-33.5 104.5q-12 80 8.5 145.5t65.5 110.5t110.5 69.5t141.5 24.5q51 0 106.5 -14t102.5 -43t82 -72t45 -100q12 -72 -16.5 -125t-79 -90t-114 -60.5t-118.5 -35.5q55 -63 104.5 -137 t63.5 -154q16 -94 -9.5 -170t-82 -128t-135 -80t-166.5 -28q-68 0 -134.5 20.5t-123 60.5t-97.5 97.5t-53 129.5zM203 264q6 -43 27.5 -90t53 -86t74.5 -63.5t95 -24.5q61 0 110 29.5t81 77t45 106t3 117.5q-6 37 -31.5 78t-59.5 80.5t-70.5 75.5t-63.5 61q-66 -4 -120 -37 t-90 -82t-51.5 -112.5t-2.5 -129.5zM477 952q6 -31 21.5 -68.5t38 -73.5t51 -66.5t59.5 -45.5q49 18 94 49t78 72t47 92.5t4 112.5q-29 166 -194 166q-43 0 -82 -21.5t-67.5 -55.5t-43 -76t-6.5 -85z" />
<glyph unicode="9" horiz-adv-x="1003" d="M88 31l27 18q18 -23 44.5 -33t57.5 -10q82 0 143.5 49t107.5 122t79 154t55 142q-41 -20 -87 -28.5t-93 -8.5q-51 0 -92 23.5t-72 61.5t-50.5 84t-27.5 89q-18 100 6.5 198.5t83 175.5t144.5 124t188 47q57 0 108.5 -21.5t91.5 -58.5t67.5 -86t37.5 -104q16 -96 4 -206 t-50 -220.5t-97 -212t-137 -179t-171.5 -124.5t-197.5 -47q-37 0 -83 12t-87 39zM327.5 705.5q-8.5 -62.5 0.5 -103.5q10 -53 53 -94t98 -41t98.5 34t76 87t55 121.5t35 138.5t14.5 133.5t-6 110.5q-4 20 -13.5 42.5t-25 41t-35 30t-43.5 11.5q-45 0 -88 -34t-79 -88.5 t-65.5 -122t-48 -136t-27 -131z" />
<glyph unicode=":" horiz-adv-x="194" d="M18 262v160h160v-160h-160zM18 719v160h160v-160h-160z" />
<glyph unicode=";" horiz-adv-x="194" d="M-18 156l10 24q12 -8 28 -14q14 -4 32 -5t40 7q33 12 39 45t6 49h-119v160h160v-131v-29.5t-5 -36t-15.5 -37t-28.5 -32.5q-25 -18 -50.5 -20.5t-47.5 1.5q-25 6 -49 19zM18 719v160h160v-160h-160z" />
<glyph unicode="&#x3c;" horiz-adv-x="849" d="M133 684l25 203l745 213l-16 -144l-600 -172l559 -172l-17 -145z" />
<glyph unicode="=" horiz-adv-x="659" d="M131 604l10 74h535l-10 -74h-535zM166 891l8 74h535l-9 -74h-534z" />
<glyph unicode="&#x3e;" horiz-adv-x="849" d="M106 465l17 143l600 172l-561 172l18 146l694 -217l-22 -203z" />
<glyph unicode="?" horiz-adv-x="739" d="M133 1135l29 256q131 98 313 98q186 0 266 -94q82 -92 68 -224q-16 -135 -121 -233q-109 -100 -231 -182q-125 -82 -125 -203q4 -121 155 -139l-16 -70q-133 -18 -209 51q-78 72 -63 219q20 152 166 260q74 53 122 99.5t72 81.5q49 74 52 155.5t-42 139t-163 47.5 q-125 -10 -201 -107l-19 -155h-53zM164 121q8 63 53 108t102 45t92 -45t27 -108.5t-53 -107.5t-102 -44t-92 44.5t-27 107.5z" />
<glyph unicode="A" horiz-adv-x="960" d="M-618 -440q4 0 8 4h2v-2q12 -29 41.5 -55.5t79.5 -26.5q23 0 59 10q35 12 73 61.5t75.5 121t73.5 154.5t65.5 163t53.5 146.5t36 103.5q12 41 26.5 83t30.5 87q-53 39 -101 86t-89 106q-51 76 -70.5 135.5t-19.5 104.5t14 76.5t31 50.5q35 39 77 54q24 8 42 8q14 0 24 -5 l-8 -22q-10 6 -47 -6.5t-68 -47.5q-14 -16 -26.5 -44.5t-12.5 -69.5t18.5 -96.5t65.5 -125.5q37 -55 83 -100t95 -80q41 104 94.5 220t118 228.5t141 215t163.5 180.5t185.5 124t207.5 46h4q20 4 35 4h4q4 0 9 -1t9 -1l80 -90q-63 -74 -120.5 -184.5t-108 -239.5t-90 -269.5 t-66.5 -275.5t-40 -257q-11 -99 -11 -178q0 -18 1 -36q3 -92 25.5 -147.5t65.5 -57.5q16 0 46 18.5t60.5 51.5t58 79t38.5 99l18 -12q-6 -31 -27.5 -76t-52.5 -87t-67.5 -73.5t-75.5 -38.5h-10q-59 0 -102.5 63.5t-72 152t-44 182.5t-17.5 153q-25 6 -64.5 15.5t-88 24 t-101.5 33.5t-104 46q-14 -47 -35 -131t-50.5 -183.5t-70.5 -201.5t-95 -186t-123 -137.5t-153 -53.5h-6q-53 2 -88 13.5t-58.5 26.5t-35.5 32.5t-18 32.5v2zM125 369q49 -25 100 -44.5t98.5 -34t86.5 -22.5t63 -14v25q-1 133 19 273q22 153 70 303.5t123 292.5t179 269 q-23 -2 -51.5 -14t-71.5 -29q-96 -37 -179 -116.5t-149.5 -181t-118.5 -212t-88 -210t-56.5 -176t-24.5 -109.5z" />
<glyph unicode="B" horiz-adv-x="987" d="M-90 -76q-1 17 -1 36q0 47 7 101q10 76 27.5 157t41 161t46.5 149q25 76 49 142.5t42.5 117t31.5 80.5l12 29h2l12 27q25 59 69 149t100.5 174t123 144.5t137.5 60.5h4q74 -2 101 -57q14 -27 16 -62q1 -10 1 -20q0 -27 -4 -53q-5 -38 -15.5 -76.5t-22.5 -71.5 q-33 -92 -74 -169t-71 -122q-29 -43 -54.5 -74.5t-48.5 -56.5q20 12 44 23.5t51 21.5q29 10 69.5 15.5t83.5 5.5q119 0 154 -39q42 -50 42 -143q0 -25 -3 -52l-4 -28q-18 -119 -80 -258q-39 -88 -84 -150.5t-80 -101.5l-2 2q-25 -27 -54.5 -54.5t-61.5 -49t-64.5 -36 t-63.5 -14.5q-68 0 -115 78q-17 29 -17 61q0 31 16 63q32 68 102.5 138t166 137.5t191.5 126.5q71 152 71 225q0 23 -7 39q-12 20 -35 27q-16 4 -34.5 6t-39.5 2q-43 0 -85 -9t-80 -22.5t-69.5 -27.5t-52.5 -27q-12 -12 -22 -20t-17 -13q-8 -6 -14 -8h-2l-4 17l30 23 q29 24 72 72t93.5 123t95.5 177t62.5 172t19.5 113t-4 61l-6 18q-20 45 -56 46q-33 0 -70.5 -43.5t-74.5 -102.5t-67.5 -122.5t-49.5 -106.5q-35 -82 -70.5 -178.5t-72.5 -206.5q-18 -57 -36 -114.5t-32 -115.5q-25 -90 -42 -175t-30 -167q-27 -174 -26 -286q0 -35 2 -64 q0 -4 4 -20q0 -10 4 -31q2 -8 8 -14q2 -2 2 -5l2 -2h-2q-4 -2 -10 -4q-4 -2 -12 -2h-17q-18 0 -41.5 8.5t-45 36t-39 76.5t-23.5 133zM274 -45q6 -27 35 -33q4 0 7 -1t8 -1q35 0 71.5 27.5t66.5 60.5t50 62l20 28l50 68q41 61 73.5 121.5t61.5 113.5q-66 -39 -118 -73.5 t-91 -63.5q-53 -41 -98 -85t-77 -86q-31 -41 -47 -77q-12 -28 -13 -50q0 -6 1 -11z" />
<glyph unicode="C" horiz-adv-x="854" d="M0 160v17q0 131 30 263q32 140 93 275q53 119 128 224t161 187q-90 47 -187 113v2l11 16v-2q53 -35 100 -63.5t90 -50.5q88 78 173 121t157 43q31 0 61 -11q47 -14 71 -55q18 -31 18 -65q0 -11 -1 -23q-4 -23 -15 -44.5t-34 -37.5t-54.5 -27.5t-76.5 -11.5q-74 0 -162 31 q-29 -35 -75 -93.5t-96 -133t-99 -164.5t-86 -185q-39 -98 -62.5 -203.5t-27.5 -205.5q-1 -23 -1 -44q0 -75 11 -137q14 -79 47 -126q45 -63 113 -64q4 0 7 1t7 1q43 4 98.5 38t116.5 93q53 53 107.5 120t103.5 140q37 57 66.5 109.5t50 92.5t32.5 64l13 25v2l20 -12 q-25 -59 -65.5 -133t-93 -152t-110.5 -151.5t-119.5 -131t-121 -92t-110.5 -34.5q-8 0 -13 2q-47 4 -95 26.5t-88 74.5t-65.5 142t-27.5 230zM575 1075q35 -12 65 -17t56 -5q90 0 133 67q23 35 28 70q1 10 1 19q0 22 -8 36q-8 20 -39 21q-17 0 -37 -6q-27 -10 -80 -59.5 t-119 -125.5z" />
<glyph unicode="D" horiz-adv-x="942" d="M-74 -76q-1 18 -1 37q1 46 7 100q10 76 26.5 157t40.5 161t46 149q25 76 49.5 142.5t44 117t31.5 80.5l12 29l19 41q20 47 55 122t81 151.5t101.5 143t116.5 97.5l45 -47v-2q-6 -8 -13 -15.5t-14 -17.5q55 33 99 33q49 0 88 -45q41 -47 61.5 -132t26.5 -173q4 -59 4 -112 q0 -27 -1 -53q-3 -77 -9 -110q-23 -135 -53.5 -271t-88.5 -271q-41 -88 -85 -150.5t-78 -101.5h-2v2q-25 -27 -54.5 -54.5t-61.5 -49t-64.5 -36t-63.5 -14.5q-72 0 -115 78q-17 29 -17 61q0 31 16 63q32 68 102.5 138t166 137.5t191.5 126.5l6 13q18 49 36.5 126.5t33 169 t22.5 187.5t8 181t-10 152.5t-35 100.5q-12 16 -32 16q-16 0 -38 -9t-46 -21l-29 -13q-41 -66 -79 -140.5t-60 -127.5q-72 -164 -146 -387q-20 -59 -36.5 -117.5t-32.5 -115.5q-23 -92 -41.5 -178.5t-30.5 -168.5q-27 -181 -27 -295q0 -32 2 -59q0 -6 4 -22q0 -23 11 -50v-2 q-2 0 -12.5 -3t-26.5 -3q-18 0 -42 8.5t-46.5 36t-39 76.5t-22.5 133zM176 -45q6 -27 35 -33q4 0 7 -1t7 -1q35 0 72 27.5t66.5 60.5t50.5 62l20 28l49 68q41 61 74 121.5t61 113.5q-66 -39 -117.5 -73.5t-92.5 -63.5q-53 -41 -97.5 -85t-76.5 -86q-30 -41 -46 -77 q-12 -28 -13 -50q0 -6 1 -11z" />
<glyph unicode="E" horiz-adv-x="722" d="M-97 -39q-3 19 -3 41q0 33 6 74q8 66 42 151.5t120 167.5q78 74 125 116t73.5 63.5t35.5 26.5l9 5l21 12h-10q-20 0 -50 8.5t-49 37.5q-27 40 -38 118q-3 21 -3 44q0 59 21 124q14 45 40.5 82t53.5 64v2q-45 23 -92 50.5t-94 61.5h-2l12 17q53 -35 100 -63.5t90 -51.5 q20 18 37 31q8 8 17 12q74 59 145.5 90t130.5 31q27 0 61 -10q47 -14 72 -56q19 -31 19 -66q0 -11 -2 -22q-6 -45 -48.5 -83t-132.5 -38q-74 0 -161 31q-8 -8 -14.5 -15t-12.5 -16v-2l-6 -6q-10 -12 -34 -46t-48 -78q-22 -44 -40 -94q-14 -39 -14 -76q0 -11 1 -21 q6 -43 49 -43q37 0 90 23.5t102 53t84 54.5l35 25h2l10 -17l-2 -2q-27 -20 -57 -43q-29 -20 -64.5 -49t-76.5 -66q-76 -68 -171.5 -171t-168.5 -232q-98 -169 -98 -309q0 -15 1 -31q6 -59 23.5 -95t28.5 -48l4 -4q41 -46 102 -46h12q88 6 215 132q53 53 107.5 119.5 t103.5 140.5q37 57 67 109t50.5 92t32.5 65l12 24l21 -10q-25 -59 -66 -133t-93 -151.5t-110.5 -151.5t-120 -131t-121 -92t-110.5 -35h-12q-84 8 -146 61q-76 66 -106 197q0 2 -7 47zM461 1047q35 -12 64.5 -17.5t56.5 -5.5q90 0 133 68q21 34 27 68q2 11 2 22q0 20 -9 35 q-12 20 -39 20q-19 0 -37 -6q-27 -10 -80 -59.5t-118 -124.5z" />
<glyph unicode="F" horiz-adv-x="528" d="M-170 -203q-1 19 -1 39q0 45 6 98q9 76 26.5 157t41 162t46.5 150q4 6 15 42t30 87q-29 20 -49 48q-41 51 -58 125q-6 31 -6 66q0 63 19 136q29 115 81 205t125 150q61 52 132 76q61 21 123 20h20q35 -2 68.5 -7t68.5 -12l21 -4v-2l82 -18q70 -15 133 -29q44 -9 81 -10 q16 0 31 2q41 6 63.5 14t35.5 17q14 8 18 20l25 -4q0 -2 -4.5 -10t-18.5 -19.5t-40.5 -22.5t-76.5 -18q-19 -3 -40 -3q-34 0 -76 8q-66 14 -138 30q-23 6 -44 11.5t-44 9.5l-26 -41q-10 -12 -22.5 -27.5t-22.5 -32.5q-43 -63 -80 -138t-60 -128q-35 -82 -71.5 -179 t-75.5 -208l-14 -49l28 -6q39 -10 73 -11.5t71 -1.5q57 0 101 9.5t77 19.5q37 12 65 31l6 -4l7 -15h-2l-18 -10q-17 -10 -50 -22.5t-82 -22.5t-111 -10q-35 0 -69.5 3t-69.5 11q-10 2 -17 3t-18 1q-12 -41 -23 -79.5t-22 -79.5q-25 -92 -42 -178.5t-29 -168.5 q-15 -117 -23 -205q-4 -49 -5 -90q0 -32 3 -59q0 -8 4 -20v-2q0 -29 10 -50v-2h-2q-4 -2 -10 -4t-26 -2q-18 0 -42 8.5t-46.5 36t-39 76.5t-22.5 133zM-76 901q-18 -70 -18 -130q0 -106 57 -175q16 -20 41 -39q23 59 48.5 128t51.5 128q18 45 51 115.5t76 143.5t95.5 138.5 t109.5 102.5l19 12q-18 4 -38 6t-38 2h-10q-58 -1 -122 -21q-69 -22 -130.5 -75t-112.5 -136t-80 -200z" />
<glyph unicode="G" horiz-adv-x="831" d="M-45 172v17q0 131 29 263q30 140 94 275q53 119 128 224.5t161 187.5q-90 47 -187 112h-2l12 17q53 -35 100.5 -63.5t90.5 -51.5q88 78 173 121t157 43q28 0 59 -10q47 -14 72 -55q20 -32 20 -67q0 -11 -2 -22q-8 -45 -49 -83t-131 -38q-74 0 -162 31q-29 -35 -75 -93 t-96 -134t-100 -165t-87 -183q-39 -102 -60.5 -211t-25.5 -209q-1 -24 -1 -47q0 -73 10 -135q13 -82 46 -129q37 -53 92 -54q16 0 35 6q86 20 174 211q10 23 19.5 44.5t19.5 43.5q12 51 31 111q45 150 78.5 221.5t35.5 73.5l115 -45v-2q0 -2 -17.5 -39t-42 -96.5t-54 -131 t-55 -142t-43 -133t-17.5 -99.5q-2 -8 -2 -25v-35l2 -4l-2 2q-56 37 -56 161v13q2 18 4.5 39t6.5 43l-21 -41q-100 -190 -203 -190h-4q-113 4 -182 100q-84 119 -88 373zM530 1087q35 -12 65 -17t56 -5q90 0 133 68q20 35 26 69q3 11 3 22q0 19 -8 33q-12 20 -41 21 q-16 0 -35 -6q-27 -10 -80 -59.5t-119 -125.5z" />
<glyph unicode="H" horiz-adv-x="1075" d="M-571 -115q-3 29 -3 60q0 81 20 173q26 128 81 240q59 123 138 199t165 92h2l10 -16h-2q-16 -6 -39 -15q-18 -10 -41.5 -24t-52.5 -37q-49 -43 -110.5 -132t-102.5 -243q-38 -140 -38 -243q0 -78 22 -136q43 -115 166 -153q16 -4 24 -4q57 0 113.5 78.5t109 207.5 t98.5 292t87 331q-41 -14 -72 -33.5t-51 -38.5q-37 -35 -53.5 -62.5t-16.5 -29.5v-2l-45 62q8 12 21 24q10 10 26.5 24.5t38.5 30.5q29 18 69 39t93 31q47 199 82 374t55 283q8 45 13.5 70t8.5 37t4 15l1 3l225 -45q2 0 2 -2q0 -6 -12 -68.5t-35.5 -162.5t-58.5 -231.5 t-80 -274.5l28 -6q100 -25 199 -25q82 0 152 17q14 41 29.5 82t31.5 82q82 193 182.5 355.5t210.5 278.5l47 -28q-55 -84 -115.5 -204t-121.5 -269q-27 -61 -49.5 -123t-44.5 -121l2 -6q0 -2 -6 -4q-23 -59 -41.5 -117.5t-34.5 -114.5q-47 -166 -74 -294t-33 -214 q0 -14 6.5 -41.5t16.5 -38.5q2 -2 8 -2q27 0 86 73t143 208q55 88 110.5 184.5t96.5 178.5l19 -17q-31 -59 -70 -131t-81 -143.5t-86 -140t-85 -121t-79 -85t-68 -32.5h-2q-37 0 -64 24q-53 57 -53 220v12q6 117 33.5 251t77.5 277q-72 -16 -162 -16q-45 0 -90 3t-93 13 l-34 6l-33 -98q-61 -182 -124 -327.5t-128 -252.5q-158 -262 -315 -272h-19q-109 0 -170 76q-55 70 -65 190z" />
<glyph unicode="I" horiz-adv-x="442" d="M-66 -76q-1 16 -1 35q1 36 5 86q8 76 26 171t47.5 207t70.5 228q90 256 201 451q66 115 135 202t143 148h2l45 -47v-2q-29 -31 -55.5 -74t-51 -89t-46 -91t-35.5 -78q-35 -82 -73 -179t-75 -208q-37 -121 -67 -233q-25 -92 -42.5 -178.5t-29.5 -168.5q-29 -180 -29 -296 q0 -31 2 -58l7 -22q0 -29 10 -50v-2q-2 0 -12.5 -3t-26.5 -3q-18 0 -42 8.5t-46.5 36t-38.5 76.5t-23 133z" />
<glyph unicode="J" horiz-adv-x="360" d="M-541 -236q-13 27 -13 56q0 40 24 84q41 76 127 154.5t200.5 155.5t229.5 142l8 15q20 41 40.5 101t41 132t38 151t31.5 156q33 186 33 314.5t-33 179.5q-12 16 -34 16q-20 0 -45 -10t-52 -22l-10 -5l-8 17h2q68 43 123 43q57 0 94 -49q29 -35 44 -90.5t20 -120.5 q5 -54 5 -112v-20q-1 -69 -6.5 -129.5t-12.5 -108.5t-13 -73q-23 -92 -43.5 -163.5t-36.5 -118.5q-31 -82 -60.5 -163t-72.5 -165q-53 -100 -109.5 -171t-99.5 -112l-2 -2v2q-31 -29 -66.5 -59.5t-73.5 -55t-76 -41t-73 -16.5q-82 0 -121 88zM-537 -188q6 -27 33 -33 q6 -2 19 -2q39 0 83 30.5t80.5 67.5t62.5 69l26 31l61 78q51 70 96 136.5t80 127.5q-78 -45 -140.5 -82.5t-109.5 -70.5q-66 -47 -121 -97.5t-95 -98.5t-60 -89q-16 -32 -16 -54q0 -7 1 -13z" />
<glyph unicode="K" horiz-adv-x="839" d="M-78 -76q-1 15 -1 33q0 37 5 88q8 76 26.5 171t47.5 207t70 228q90 256 200 451q133 231 281 350l47 -47l-2 -2q-29 -31 -55.5 -74t-51 -89t-46 -91t-35.5 -78q-72 -164 -146 -387q-20 -59 -36.5 -117.5t-32.5 -115.5q-16 -59 -28.5 -115.5t-23.5 -110.5q31 61 72 139 t93 167.5t113.5 183.5t133.5 186q111 143 240 273q8 -16 14 -25q-125 -125 -229 -260q-55 -74 -108.5 -152t-100.5 -155q23 16 48 28.5t54 16.5h16q63 0 113 -43q51 -45 57 -121q1 -18 1 -36.5t-1 -37.5v-2q-6 -70 -16 -113q-6 -35 -13 -68.5t-14 -64.5q-10 -53 -18 -99 t-10 -87q-2 -14 4 -42t16 -36q4 -4 8 -4q16 0 41 41t52.5 105.5t58.5 144.5t61 160l37 100l21 -12l-41 -123q-29 -82 -57.5 -161t-58.5 -141.5t-61.5 -101.5t-64.5 -39h-2q-39 0 -63 25q-54 58 -54 225v6q2 47 7.5 95.5t15.5 101.5v2q4 14 6 28.5t6 28.5q6 42 7 102v6 q0 56 -21 103q-14 33 -43 33q-20 0 -44 -15.5t-44.5 -33.5t-35.5 -34.5t-18 -20.5q-66 -111 -114.5 -204t-77.5 -153l-6 -37q-27 -181 -27 -295q0 -32 2 -59q0 -6 4 -22q0 -23 11 -50v-2q-4 -2 -11 -4q-4 -2 -12 -2h-16q-18 0 -42 8.5t-46.5 36t-39 76.5t-22.5 133z" />
<glyph unicode="L" horiz-adv-x="444" d="M-37 -76q-1 15 -1 33q0 37 5 88q8 76 26.5 171t48.5 207t71 228q86 256 200 451q66 115 135.5 202t143.5 148h2l45 -47v-2q-29 -31 -55.5 -74t-51 -89t-46 -91t-35.5 -78q-37 -82 -74 -179t-74 -208q-18 -59 -35.5 -117.5t-31.5 -115.5q-49 -178 -74 -347 q-27 -181 -27 -295q0 -32 2 -59q0 -10 6 -22v-11q14 -2 43 9q25 8 54.5 33.5t60.5 57t59.5 65.5t51 62.5t36.5 47.5l15 20v2l12 -16l-2 -2q-14 -25 -35 -51q-16 -23 -38.5 -52.5t-47.5 -58.5q-45 -51 -101 -100t-108 -60q-16 -4 -28 -4q-18 0 -43 8.5t-46.5 36t-39 76.5 t-23.5 133z" />
<glyph unicode="M" horiz-adv-x="1159" d="M-506 -41q-2 24 -2 49q0 70 16 150q22 108 70 204q51 104 118.5 169t139.5 77h2l8 -12h-2q-14 -4 -32 -12q-16 -8 -37 -20.5t-43 -33.5q-41 -37 -93.5 -111.5t-87.5 -205.5q-32 -120 -31 -209q0 -66 17 -115q37 -96 141 -129q6 -2 21 -2q53 0 104.5 78t98.5 202t89 277.5 t76.5 306t60.5 286.5t42 220q16 74 18 90.5t5 16.5q4 -2 33.5 -8t63.5 -13.5t62.5 -13.5t32.5 -6h2v-2l4 -1118q6 16 29.5 81.5t65.5 163t100.5 216t134.5 241.5q66 109 116 182.5t85 124.5l2 2q2 0 2 2q4 4 4 7q2 0 8 10q16 23 47 60.5t68 60.5q25 12 55 12q41 0 63 -23 q23 -20 23 -75q0 -39 -12 -97q-23 -117 -85.5 -273.5t-127.5 -322.5q-47 -117 -91 -226t-75 -201.5t-41 -158.5q-3 -22 -3 -41q0 -36 13 -55q12 -18 41 -18h8q88 6 183 129q37 47 73.5 111.5t71.5 144.5q29 61 49.5 119.5t36.5 107.5l27 -14q-16 -53 -40 -114.5t-55 -127.5 q-76 -170 -155 -262q-98 -121 -203 -121h-18q-41 6 -66 43q-29 49 -29 150q0 168 80 483q27 100 57.5 200.5t59.5 189.5t54.5 163t41.5 123q8 18 12.5 33.5t8.5 25.5q-27 -33 -85.5 -111.5t-158.5 -232.5q-78 -119 -143.5 -253t-113.5 -247.5t-75.5 -190.5t-27.5 -79h-3 l-47 45l6 1006q-25 -104 -67.5 -267t-101.5 -341q-106 -313 -213 -492q-137 -227 -269 -233h-16q-92 0 -144 63q-47 57 -57 162z" />
<glyph unicode="N" horiz-adv-x="1013" d="M-433 178q9 106 48 205q41 104 101.5 167.5t127.5 80.5h2l11 -15h-2q-14 -4 -31 -12q-14 -8 -32.5 -20.5t-41.5 -32.5q-37 -37 -80 -111.5t-65 -208.5q-14 -82 -14 -149q0 -102 32 -170q51 -100 156 -131q12 -4 20 -4q53 0 95.5 77.5t75 201.5t57 278.5t43 307.5t30 287 t19.5 218q2 37 4 58.5t4 32.5t3 13l1 2q4 -2 34 -8t64.5 -13t64.5 -12.5t32 -5.5t2 -2q0 -12 5 -60t12 -119.5t18.5 -162t24.5 -185.5t28.5 -190.5t32.5 -175.5q2 -8 9 -39.5t17 -75.5t23.5 -93.5t25 -93.5t21.5 -74.5t16 -36.5q2 0 2 -2q6 0 15.5 14t23.5 56t35.5 121 t52.5 208l25 129v2q20 88 35.5 147.5t31.5 94.5q-47 51 -85 132t-66 193q-14 51 -24.5 99.5t-16.5 85.5t-9 60l-3 22h20q0 -2 4 -33t13.5 -80t23.5 -110.5t34.5 -124t48.5 -121t64 -101.5q31 98 66 185q141 358 303 370q23 6 44.5 10.5t47.5 0.5q12 -2 27.5 -16.5 t25.5 -61.5q6 -29 6 -70q0 -29 -3 -63q-7 -84 -46 -179q-14 -35 -35.5 -73.5t-53 -75.5t-73.5 -67.5t-96 -49.5q-18 -4 -33.5 -7t-31.5 -3q-12 0 -16 2q-29 -158 -56 -344l-8 -84l-2 -20q-2 -19 -7 -48.5t-12.5 -67.5t-17.5 -77q-14 -47 -28.5 -83t-32.5 -62 q-41 -66 -99 -66h-13t-15 2q-63 20 -125 244q-29 92 -54.5 213t-52.5 274q-31 162 -52 312.5t-32 248.5q-12 -104 -36.5 -253.5t-59.5 -309.5q-72 -311 -164 -493q-100 -221 -235 -232q-4 0 -8.5 -1t-8.5 -1q-90 0 -153 68q-51 57 -70 162q-12 60 -12 127q0 33 3 69z M922 621q16 0 33.5 2t33.5 10q92 31 152.5 99.5t94.5 150.5q34 81 43 163q4 39 4 72q0 37 -5 66q-10 53 -33 57q-11 1 -22 1q-19 0 -37 -4q-28 -7 -51 -19q-8 -8 -9 -11q-88 -72 -168 -401q-8 -43 -17 -88t-19 -98z" />
<glyph unicode="O" horiz-adv-x="1114" d="M0 115q0 104 21.5 226t64.5 241.5t107.5 230.5t149.5 196t190.5 135t230.5 50q43 0 84 -6t74.5 -24.5t55 -50.5t26.5 -81l16 6q29 -39 37 -89t8 -97q0 -98 -26.5 -221t-76 -251t-120 -250t-157.5 -217t-190.5 -153.5t-218.5 -58.5q-84 0 -138 39t-84.5 100.5t-42 134 t-11.5 140.5zM111 -68v-14q-1 -65 33 -115q38 -55 124 -61h6q64 0 130 43q68 45 133 123t121.5 179t98.5 212t65.5 222.5t23.5 207.5q0 47 -7.5 106.5t-41.5 96.5l176 86q-4 51 -31 92t-84 41q-41 0 -91 -21.5t-98 -54.5t-89 -68.5t-64 -66.5q-74 -92 -144.5 -217t-127 -261 t-92 -273.5t-41.5 -256.5z" />
<glyph unicode="P" horiz-adv-x="622" d="M-190 732q2 71 18 118q14 45 35 76q8 16 20 28l2 2l19 -8h-2q0 -2 -22.5 -31.5t-39.5 -76.5q-6 -27 -11 -71q-2 -17 -2 -34q0 -28 5 -57q0 -4 6 -29.5t23 -58.5q16 -35 51 -74t94 -65q10 41 22.5 85t26.5 89q0 4 7.5 35.5t19.5 80.5q14 53 29.5 117t29 122t24.5 103 t17 64q8 25 11.5 41t5.5 26t0 17v2h2l139 -51q63 53 127 53h2q12 0 22.5 -2t20.5 -6l16 -4q15 -4 38.5 -16.5t50 -37t49.5 -67.5q22 -42 28 -112q2 -25 3 -51q0 -48 -7 -99q-10 -86 -36.5 -159t-67.5 -118q-45 -53 -86 -80.5t-70 -40.5q-23 -16 -82 -29.5t-139 -13.5h-24.5 t-24.5 2q0 -6 -2 -13t-2 -13q-14 -78 -21.5 -149.5t-11.5 -141.5q-2 -49 -2 -92.5t2 -80.5q4 -75 16 -126q0 -8 6 -16q0 -16 7 -25q2 -6 8 -12l4 -4l2 -2h-2l-10 -5q-6 -2 -27 -2q-18 0 -41 7.5t-46.5 31t-45 65.5t-35.5 114q-9 49 -9 112q0 45 4 95q11 124 50 290 q-113 45 -160 139q-35 82 -35 150q1 5 1 9zM166 422h2q10 0 17.5 1t17.5 1q86 4 148.5 54t105.5 126t68.5 167t39.5 177q10 68 10 116q0 30 -4 52q-10 58 -26 82q-16 16 -39 16q-31 0 -63.5 -36.5t-60.5 -87t-51.5 -104.5t-35.5 -89q-51 -135 -98 -328q-10 -37 -17.5 -74.5 t-13.5 -72.5z" />
<glyph unicode="Q" horiz-adv-x="944" d="M-115 -143q10 12 25 26q12 12 28.5 27.5t38.5 32.5q20 14 50 30q-32 116 -32 271q0 25 1 51q6 131 32.5 259t67.5 226q100 238 250 350q78 61 147.5 80t116.5 19q76 0 140 -29q76 -39 84 -133l14 6q39 -49 50 -144q4 -39 4 -84q0 -66 -9 -145q-14 -129 -53 -263t-92 -257 q-80 -182 -177 -293q23 -16 45.5 -28.5t40.5 -26.5q59 -37 107.5 -65.5t99.5 -38.5q10 -2 22.5 -3t22.5 -1q39 0 68 13t47 30q23 20 37 45h2q-2 -14 -8 -31q-4 -14 -11.5 -31.5t-17.5 -36.5q-18 -35 -56 -68.5t-100 -33.5q-90 0 -215 88q-47 35 -87 64.5t-70 54.5 q-86 -70 -179 -74q-25 -6 -49 -6q-113 0 -184 102q-35 49 -55 119q-29 -18 -54.5 -39.5t-45 -40t-31.5 -31.5l-11 -12v-2zM197 29h18q66 0 139 -29q49 -23 91 -43t81 -43q14 25 28.5 54.5t29.5 64.5q47 113 79.5 255t45.5 283q6 68 6 127q0 67 -7 122q-14 104 -53 147v2 l152 84q-4 35 -16.5 66.5t-51.5 54.5q-23 12 -43 12q-53 0 -120.5 -59.5t-139.5 -170.5q-70 -109 -120.5 -235.5t-77.5 -249.5q-27 -129 -36 -241q-6 -77 -6 -144q0 -29 1 -57zM199 10q4 -61 18 -108t35 -80q35 -41 70 -49q10 -2 20 -2q65 0 127 69q-27 23 -48.5 39.5 t-37.5 32.5q-25 20 -42 34.5t-34.5 25t-38 17.5t-51.5 17z" />
<glyph unicode="R" d="M-145 715q0 61 23.5 128.5t66.5 110.5v2l18 -8h-2q-45 -47 -66.5 -108.5t-21.5 -126.5q0 -86 42 -157t122 -105q8 29 29.5 95t48 148t55.5 171t52.5 166t38.5 131.5t15 68.5v2h3l137 -51q29 23 62.5 38t70.5 15q53 0 93 -23.5t65.5 -61.5t39 -85t13.5 -94 q0 -104 -29 -201.5t-84 -174.5t-138 -128t-194 -64q74 -35 126.5 -104.5t89 -150t65.5 -165.5t58.5 -152t65.5 -105q29 -31 67 -31q10 0 20 2q18 2 36.5 27.5t34 64.5t25.5 88t10 98l123 -90q-10 -29 -33.5 -67.5t-55.5 -73.5t-68.5 -59.5t-71.5 -24.5q-53 0 -90 32 t-65.5 83t-52.5 116.5t-48.5 134t-55 134t-71.5 116.5q-10 10 -30.5 31t-45 41.5t-49.5 35.5t-39 15h-36.5t-37.5 2q-23 -129 -45 -252.5t-22 -259.5q0 -20 4 -47.5t10 -52.5t10 -43l4 -18v-2q-16 -6 -36 -7q-49 0 -80 31t-49.5 74t-25.5 92t-7 86q0 106 26.5 219t55.5 213 q-92 37 -134 109.5t-42 171.5zM190 422q113 0 198 68.5t141.5 170t85 217t28.5 209.5q0 14 -1 37t-6 42.5t-17.5 33.5t-32.5 14q-39 0 -82 -49t-84 -125.5t-79 -170t-68.5 -181.5t-52.5 -160.5t-30 -105.5z" />
<glyph unicode="S" horiz-adv-x="688" d="M-72 120q12 62 41 118q72 123 230 174l2 -19h-2q-80 -27 -133.5 -69.5t-82 -94t-36.5 -107.5q-3 -22 -3 -44q0 -33 7 -64q18 -86 77.5 -139t137.5 -53q37 0 77 12t81 39q86 53 100 141q4 20 4 41q0 40 -12 85q-18 69 -53 140.5t-83.5 145.5t-97.5 143q-68 96 -73 215 q-2 24 -2 48q0 91 36 176q37 94 109 155q39 31 82 50.5t90 23.5q14 2 25.5 3t21.5 1q131 0 178 -86q27 -47 27 -107q0 -28 -6 -59q-14 -98 -78 -194q-96 -147 -221 -156q76 -96 131 -190.5t84 -180.5q34 -102 35 -185q0 -70 -25 -126q-49 -121 -145 -182q-82 -53 -207 -54 h-26.5t-27.5 3q-102 10 -174 88q-35 35 -57 82t-31 100q-6 32 -6 64q0 31 6 62zM224 874q22 -86 95 -172q8 -10 16.5 -21t18.5 -22q33 4 58.5 12.5t44.5 18.5q23 10 37 27l22 19q21 20 46.5 56.5t50 90t32.5 125.5q3 22 3 43q0 74 -40 120q-41 45 -112 46q-35 0 -73 -11.5 t-73 -34t-65.5 -56.5t-48.5 -77q-21 -47 -21 -98q0 -32 9 -66z" />
<glyph unicode="T" horiz-adv-x="401" d="M-340 1251q2 49 23.5 84t54.5 55q32 21 62 29q17 5 31 4q9 0 19 -2q20 -6 17 -22h-17h-9q-54 1 -86 -21q-34 -24 -38 -61q-1 -8 -1 -15q0 -44 30 -78q35 -40 86 -68t109.5 -42t99.5 -16h27.5t29.5 2q37 2 79 6t89 8q27 70 49 111h2l154 -90q84 8 170 17t167 14t154 6h29 q56 0 103 -3q96 -8 163.5 -28.5t112.5 -42.5q53 -25 86 -56l-14 -16l-20 16q-19 17 -61 38.5t-108.5 41t-158.5 25.5q-172 -4 -336 -30.5t-314 -55.5q-23 -43 -41 -86t-34 -78q-27 -70 -53.5 -151.5t-51.5 -176.5q-70 -262 -84 -485q-4 -74 -5 -134q0 -20 1 -39 q2 -75 12 -126q2 -2 2 -7t5 -9q0 -16 6 -25q2 -6 8 -12l4 -4l2 -2h-2l-10 -5q-6 -2 -27 -2q-18 0 -40.5 7.5t-46 31t-45 65.5t-34.5 114q-5 28 -5 68q1 73 17 185q26 172 84 410q29 117 62 224.5t63 197.5q-98 -16 -185 -22q-31 -2 -61 -3q-51 -1 -95 7q-70 12 -121.5 42.5 t-79.5 92.5q-29 59 -29 106v6z" />
<glyph unicode="U" horiz-adv-x="925" d="M-2 142q4 110 21.5 218.5t41 202.5t41.5 152q31 100 65 191t67.5 162t64.5 117t55 58l166 -113q-92 -152 -166.5 -338t-122.5 -376q-47 -192 -52 -340q-1 -18 0 -36q0 -121 30 -190q29 -66 86 -75q6 -2 22 -2q51 0 108.5 40t119.5 115q57 72 108.5 166t91.5 199 q43 115 71 231t40 220q10 83 10 150q0 17 -1 33q-3 79 -21 117l-2 3h2q12 6 22 6q48 0 52 -131q0 -61 -10.5 -144.5t-30.5 -177.5q-25 -100 -57 -198.5t-70 -186.5q-88 -209 -199 -328q-125 -139 -260 -143q-29 -6 -55 -6q-172 0 -220 201q-19 77 -19 167q0 18 1 36z" />
<glyph unicode="V" horiz-adv-x="1417" d="M0 754q4 111 18.5 183.5t30.5 113.5q16 43 30.5 62.5t14.5 21.5l15 -5v-2q-18 -23 -33 -55q-14 -29 -26.5 -73t-22.5 -105q-12 -73 -11 -139q0 -65 10 -123q22 -117 87 -203q80 -102 206 -137q-2 45 -2 92q1 53 3 107q4 102 20 210q16 109 38.5 198t49.5 147q6 14 14 28 q14 29 41 62q27 31 72 60.5t111 29.5q27 0 57 -6q37 -10 61.5 -58.5t30.5 -134.5q3 -29 3 -61q0 -67 -12 -145q-18 -112 -52 -218q-41 -119 -98.5 -195.5t-125.5 -105.5q-4 -4 -7 -5t-7 -3q-1 -24 -1 -47q1 -102 15 -190q18 -108 56 -181q51 -88 127 -102q4 -2 12 -2 q49 0 109.5 50t128.5 148q63 90 123.5 204t111.5 241q63 160 100 304t55.5 252.5t23.5 174t5 67.5l-2 3h2q8 6 17 6q35 0 35 -88q0 -57 -13.5 -147.5t-39 -199t-64.5 -227.5t-88 -235q-106 -252 -230 -404q-147 -176 -286 -178q-31 -6 -60 -6q-115 0 -192 84 q-68 74 -107 217q-14 53 -22 111.5t-13 123.5q-104 18 -180 99q-68 72 -104 172q-35 91 -35 189v20zM516 319q43 23 83 59t69 83q41 68 79.5 189.5t47.5 314.5q1 23 1 42q0 29 -2 49q-3 34 -7.5 50t-8.5 20t-6 4t-2 3q-4 0 -16.5 -10.5t-27.5 -28t-31.5 -41t-28.5 -49.5v-3 q-68 -160 -105 -338t-45 -344z" />
<glyph unicode="W" horiz-adv-x="1886" d="M12 646q-2 19 -1 39q0 35 5 69q14 111 38 183.5t44 113.5q23 43 38.5 62.5t15.5 21.5h2l14 -5l-2 -2q-18 -23 -39 -55q-16 -29 -34.5 -73t-35.5 -105q-25 -92 -29 -167q-1 -21 0 -41q0 -50 6 -91q9 -57 26.5 -99t37.5 -73q70 -96 187 -131q4 86 18 179t39 192 q29 123 63.5 222t69.5 161h2q8 14 17 28q8 12 20 28.5t29 33.5q31 31 79 60.5t113 29.5q27 0 56 -6q59 -16 69 -138q1 -17 1 -36q1 -77 -19 -173q-24 -120 -72 -237q-27 -59 -56.5 -113.5t-62.5 -95.5q-76 -96 -153 -127l-17 -6q-11 -97 -11 -180q0 -36 2 -70 q7 -111 40 -178q41 -80 109 -92q4 -2 14 -2q16 0 43 8t66.5 35.5t94 79t128.5 137.5q-1 25 -1 51v27q1 41 2 83t5 81.5t8 74.5q23 145 69 308t105 309l176 -140v-2q-59 -145 -103 -293.5t-67 -283.5q-19 -118 -19 -211v-35q4 -106 36 -164q31 -55 82 -63q6 -2 20 -2 q51 0 109.5 40t119.5 115q57 72 108.5 166t92.5 199q43 115 70 231q28 116 40 220q9 78 10 143q0 21 -1 40q-4 79 -23 117v3q14 6 23 6q51 0 51 -131v-21q0 -53 -8 -123q-10 -84 -33 -178q-23 -100 -54.5 -198.5t-70.5 -186.5q-47 -104 -96 -186t-102 -142 q-125 -139 -263 -143q-29 -6 -55 -6q-113 0 -172 90q-23 29 -35 67.5t-20 81.5q-184 -227 -353 -233q-31 -6 -59 -6q-102 0 -168 65q-59 61 -86 172q-16 61 -21 137q-2 35 -2 71q0 44 3 91q-102 18 -170 97q-61 72 -86 172q-13 49 -17 103zM485 319q45 23 89 59t77 83 q45 68 99.5 189.5t83.5 314.5q8 57 10 91q1 17 1 29.5t-1 20.5q-2 16 -7.5 20t-7.5 4l-2 3q-4 0 -16 -10.5t-30.5 -28t-38 -41t-33.5 -49.5v-3q-76 -147 -132 -310t-83 -329q-4 -10 -5.5 -21t-3.5 -22z" />
<glyph unicode="X" horiz-adv-x="704" d="M-541 -229l29 4l3 -7q3 -8 12.5 -16t26.5 -14t46 -6q59 0 145 30q84 29 184.5 89.5t205.5 142.5q-8 23 -16.5 47.5t-16.5 50.5q-16 51 -28.5 100.5t-22 89.5t-13.5 66.5t-6 36.5q-16 83 -22 187q-3 56 -3 117q0 51 2 103q5 116 19 240.5t39 251.5v2l2 -2l182 -82 q-27 -113 -45 -214t-32 -193q0 -6 -6.5 -75t-7.5 -167v-21q0 -89 8 -190q8 -113 34 -209q4 -16 9.5 -34.5t9.5 -35.5q23 20 44 40t44 42q94 86 159.5 173.5t98.5 140.5l8 10v2q4 6 7 11t5 12q-6 0 -12 6q-29 18 -62.5 81.5t-60.5 155.5q-29 99 -38 197q-4 46 -4 89 q0 47 5 89q12 88 53 148q41 63 119 81q13 4 26 4q37 0 66 -36q18 -25 29.5 -63t18 -81t8.5 -88t2 -86q-2 -43 -5 -88t-8.5 -84t-10.5 -70.5t-11 -50.5q-25 -94 -68 -168q28 -37 57 -37q4 0 7 1h2q25 2 61 22q47 27 77 58.5t45 59.5t20.5 46t5.5 20v2h2l18 -2q0 -2 -5 -22.5 t-21.5 -50t-48 -64.5t-82.5 -63q-47 -25 -94 -25h-7h-12q-12 0 -25.5 2t-25.5 6q-6 -2 -9 -8l-16 -29q-16 -25 -37.5 -59.5t-50.5 -71.5q-23 -35 -47 -59q-47 -57 -102.5 -113.5t-114.5 -107.5q41 -125 88 -199q65 -108 136 -108h1h14q37 6 66 38.5t47.5 69.5t28.5 66.5 t10 31.5h23v-2q-4 -18 -13 -36q-6 -16 -14 -36t-21 -42q-25 -41 -65.5 -79t-104.5 -38q-41 0 -84 18q-82 35 -145 148q-27 41 -51 100q-29 -23 -59.5 -44t-59.5 -42q-125 -82 -237.5 -124t-198.5 -42h-14q-27 0 -44.5 8.5t-27.5 18.5q-12 10 -23 27v2zM520 963 q4 -129 24.5 -240t53.5 -172q27 55 44 115.5t26.5 116t13.5 104.5t4 84v25q0 89 -12 164q-14 85 -41 124q-14 27 -33 27h-4l-16 -8q-32 -27 -48 -118q-13 -73 -13 -172q0 -24 1 -50z" />
<glyph unicode="Y" horiz-adv-x="931" d="M3 1083q1 37 3 64q2 31 6 53h19l-3 -28q-3 -29 -4 -72v-18q0 -35 3 -76q4 -52 20 -97q23 -66 60.5 -105.5t62.5 -55.5q10 104 38 215.5t62 197.5q2 14 11 29q4 12 13 27.5t19 31.5q20 31 53 60.5t80 29.5q10 0 31 -4q57 -14 74 -116q5 -29 5 -61t-5 -67q-10 -71 -35 -139 q-29 -76 -69.5 -132t-92.5 -85q-10 -8 -22.5 -13t-24.5 -9q-11 -78 -11 -142q0 -72 14 -125q26 -102 93 -114h11q57 0 151 104q25 100 47.5 199.5t42 191t33.5 169t25 132.5q16 74 19 90.5t5 16.5q4 -2 34 -8t63.5 -13.5t62.5 -13.5t33 -6q0 -6 -13.5 -70.5t-38 -167 t-60.5 -232.5t-81 -267q-104 -311 -213 -494q-137 -223 -270 -229h-10q-72 0 -106 35.5t-48 72.5q-15 42 -15 90q0 11 1 22q4 62 24.5 122.5t55 115t82.5 91.5v2l10 -15v-2q-23 -18 -47.5 -48t-46 -67.5t-37 -80.5t-19.5 -86q-3 -25 -3 -48q0 -30 5 -56q11 -48 33 -77 q35 -41 88 -45h9q70 0 126 93q53 86 102.5 223t92.5 297q-78 -59 -150 -64q-10 -2 -21 -2h-22q-76 0 -120 49q-29 31 -44.5 76t-22.5 95.5t-7 101.5t4 96q-37 20 -66.5 55t-49 74t-32 78t-14.5 67q-3 38 -3 69v15zM311 733q4 2 23.5 11.5t45.5 31t52.5 55t48.5 84.5 q16 37 30.5 88.5t22.5 104.5q4 33 4 64q0 19 -2 37q-4 48 -24 81l-47 -94h2v-2q-6 -10 -11 -19.5t-10 -19.5l-6 -12q-47 -96 -79.5 -200.5t-49.5 -209.5zM944 1159l2 6v-8z" />
<glyph unicode="Z" horiz-adv-x="763" d="M-162 -170q88 45 193.5 160.5t210 271.5t202 336t168.5 358q-31 -4 -99.5 -14t-139 -22.5t-129 -22.5t-68.5 -14q-14 -6 -21.5 -14.5t-11.5 -18.5q-6 -10 -6 -21h-2l-90 197h2q4 6 46 53t114 102.5t167 102.5t208 55q26 2 49 2q29 0 53 -3q43 -5 73.5 -15t49 -26.5 t29.5 -32.5q17 -28 16 -64q0 -14 -2 -29l-21 7q1 9 1 18q0 32 -17 59q-10 14 -26.5 27.5t-44 23t-66.5 13.5q-20 2 -43 2t-49 -2q-92 -6 -174 -42t-147.5 -82t-112 -91t-68.5 -70l555 80l49 8v-2l21 4l-11 -18q-16 -123 -58 -278.5t-107.5 -317.5t-154.5 -317.5t-196 -280.5 q53 37 126 72.5t152 60.5q78 25 158 33q28 3 56 3q49 1 95 -9q71 -14 126 -58.5t86 -126.5q10 -29 10 -56.5t-4 -55.5q-12 -55 -51 -97q-31 -35 -75 -57q-40 -20 -87 -20h-8q-80 2 -125 18t-68 35q-27 23 -32 49l22 4q6 -20 29 -39q20 -16 60 -29.5t114 -15.5q47 0 87 18.5 t69 51.5q35 41 43 88q5 18 5 37q0 30 -12 61q-34 98 -112 135q-67 32 -150 32q-14 0 -28 -1q-100 -6 -212 -43t-217.5 -88t-193.5 -104.5t-139 -90.5z" />
<glyph unicode="[" horiz-adv-x="335" d="M31 -188l217 1857h186l-8 -78h-115l-198 -1702h114l-10 -77h-186z" />
<glyph unicode="\" horiz-adv-x="602" d="M-74 1128l82 39l594 -1249l-80 -39z" />
<glyph unicode="]" horiz-adv-x="333" d="M74 -190l10 77h115l198 1702h-114l8 78h186l-217 -1857h-186z" />
<glyph unicode="^" horiz-adv-x="462" d="M135 784v31l195 199q27 -66 49 -117q18 -43 31.5 -80t11.5 -35h-41h-37l-59 154z" />
<glyph unicode="_" horiz-adv-x="839" d="M-35 -467l15 109h798l-14 -109h-799z" />
<glyph unicode="`" horiz-adv-x="512" d="M158 940l49 70l231 -242q-2 -4 -4 -6q-4 -6 -8 -6q-2 0 -44 28.5t-91 63.5q-59 39 -133 92z" />
<glyph unicode="a" d="M-4 276q4 104 57 207q37 70 81 110t86 60.5t78 26.5t58 6q47 0 84 -12q39 -16 47 -47q6 -18 5.5 -40t-5.5 -38q-6 -20 -12 -39v-2l-20 6v2q2 0 13 31q6 18 6 36q0 13 -3 27q-10 33 -43 49q-12 6 -27 7q-33 0 -71.5 -29t-75.5 -74t-67.5 -103.5t-45.5 -115.5 q-20 -80 -20 -144q1 -10 1 -18q4 -70 32 -106q10 -14 24.5 -23.5t30.5 -5.5q47 8 64.5 32.5t35.5 59.5q2 33 13.5 80t28 97.5t32.5 99.5t29 86l2 2l135 -66q-31 -78 -60.5 -157.5t-49 -146t-25.5 -113t6 -58.5q16 -16 55 18.5t83 96t85 137.5t66 145l18 -12v-2 q-4 -10 -19.5 -48t-41 -88t-59.5 -103.5t-71 -95.5q-36 -41 -76 -65q-26 -16 -52 -16q-13 0 -25 4q-41 12 -56.5 57.5t-17.5 102.5q-10 -16 -33.5 -43.5t-76.5 -34.5q-4 0 -9.5 -1t-11.5 -1q-45 0 -83 26t-66 73q-19 35 -27 75q-7 33 -6 70v18z" />
<glyph unicode="b" horiz-adv-x="780" d="M8 416q16 230 60 485q20 113 45.5 222.5t54.5 210t59.5 186.5t63.5 153q18 43 44.5 102.5t60.5 127t75 140.5t88 140q209 305 395 305h7q112 -4 155 -86q20 -41 24 -95q1 -16 1 -32q-1 -39 -7 -81q-8 -58 -24 -118.5t-35 -111.5q-25 -70 -53.5 -135.5t-58 -123.5 t-58 -106.5t-53.5 -82.5q-68 -98 -123 -162t-95 -100.5t-62 -51.5l-23 -14l-8 22l2 2q20 12 43 35q20 18 48 46t62 65q59 68 141.5 183.5t153.5 281.5q72 166 96.5 273.5t28.5 166.5q2 33 0 54.5t-6 37.5t-10 29q-35 72 -84 72q-35 0 -73 -31t-77 -81t-75.5 -112.5 t-70.5 -127t-62.5 -125t-47.5 -103.5q-23 -51 -43 -101.5t-41 -103.5l4 -2l-2 -2q-37 -94 -72.5 -189.5t-68.5 -193.5q-29 -90 -54.5 -178t-47.5 -176q-37 -139 -64.5 -271.5t-46.5 -257.5q-27 -178 -36 -312q-5 -80 -5 -146q0 -44 2 -80q2 -14 9.5 -41t19.5 -35q6 -4 16 -4 q35 0 78 43q78 78 137 231q-27 20 -49 60q-29 47 -45 107q-17 59 -23 119q-4 35 -3 68q-1 23 1 45q4 52 15 85q12 47 39 69l-2 4h2l10 4l14 7q18 8 39 4q14 4 28.5 4h27.5q35 0 74.5 -9.5t68.5 -41.5q33 -38 33 -98q0 -22 -4 -46q-10 -74 -54.5 -178t-103.5 -209 q28 -6 53 -6q42 1 77 17q56 26 97 76t67.5 112.5t43 119t23.5 94.5l7 38l21 -8q-2 -41 -14.5 -96.5t-34 -112t-52 -108.5t-71.5 -90q-41 -37 -92 -55q-27 -9 -58 -10q-26 0 -53 7q-6 2 -12 1t-12 1h-2l-13 -19q-78 -125 -152.5 -192.5t-133.5 -67.5q-113 0 -144 250 q-8 93 -8 199q0 102 8 215zM299 452v-26q0 -40 4 -82q6 -57 21.5 -114.5t40.5 -100.5q20 -33 38 -49q27 78 43.5 166t16.5 186q0 51 -10.5 83t-24.5 50.5t-31.5 24.5t-34.5 6q-4 0 -8 -1t-8 -1q-25 -20 -35 -59q-10 -31 -12 -83z" />
<glyph unicode="c" horiz-adv-x="641" d="M-46 139v10q0 59 11 119q16 78 46 151t73 132q98 131 227 160q39 8 84 8q53 0 90 -12q33 -12 50 -43q8 -18 9 -40t-2 -40.5t-8 -29.5l-4 -11v-2l-18 8l4 19q4 18 3 41.5t-11 47t-37 35.5q-6 4 -20 4q-35 0 -82 -41t-101 -118q-70 -100 -109.5 -206t-60.5 -235 q-11 -66 -11 -114q0 -81 30 -115q20 -27 59 -27q14 0 37 6q39 10 80 40t82 72t79 89t70 90q35 47 63.5 93t51.5 81q25 41 47 78v2l21 -16h-2q-82 -129 -149 -226.5t-128 -168.5q-72 -82 -133.5 -120t-120.5 -38h-13t-14 2q-45 6 -65 22q-84 53 -115 174q-12 55 -13 119z" />
<glyph unicode="d" horiz-adv-x="768" d="M-47 229q-1 13 -1 26q0 39 9 79q12 52 35 104q31 70 72 110t81.5 60.5t75.5 26.5t58 6q45 0 86 -12q25 -8 39 -27q8 66 18 134.5t23 137.5q20 113 44.5 222.5t53 210t60.5 186.5t63 154q18 43 44.5 102t61.5 127t76 140.5t88 140.5q209 305 395 305h6q115 -4 154 -86 q21 -42 25 -96q2 -19 1 -38q1 -36 -5 -74q-8 -58 -24.5 -118.5t-35.5 -112.5q-49 -139 -112.5 -258.5t-110.5 -189.5q-68 -98 -123 -161.5t-95 -100.5t-63 -51l-22 -15h-2l-6 25q2 0 46 35.5t109 109.5q59 68 140 183.5t155 281.5q72 166 96.5 273.5t28.5 166.5 q0 33 -2 54.5t-6 38.5q-4 16 -8 28q-35 72 -84 72q-35 0 -73 -31t-77 -81t-76.5 -112.5t-71.5 -127t-61.5 -125t-46.5 -103.5q-45 -102 -84 -204l2 -3v-2q-39 -94 -73.5 -189t-67.5 -194q-57 -174 -104 -354q-72 -281 -109 -526q-27 -179 -37 -315q-6 -76 -6 -137 q0 -49 4 -89q0 -8 2 -22.5t7 -27.5t12.5 -22.5t19.5 -9.5q20 0 39.5 37t39 94.5t38 128t35 139t32 127t27.5 93.5l16 -6q-12 -35 -26.5 -95.5t-30.5 -132t-36.5 -145.5t-43 -133.5t-47.5 -97t-51 -37.5q-4 0 -8 -1t-9 -1q-113 0 -143 251q-9 95 -9 203q0 36 1 74 q4 150 22 315q-12 31 -47 47q-12 6 -26 7q-33 0 -70 -29t-69.5 -74t-58.5 -103.5t-36 -115.5q-10 -58 -10 -107q0 -28 3 -54q9 -70 40 -107q23 -29 57 -29q31 0 56.5 29.5t45 67.5t32 74t16.5 50l2 2l16 -6v-2q-8 -33 -23.5 -76t-39.5 -82q-47 -82 -111 -88q-6 -2 -20 -2 q-45 0 -87 25.5t-71 73.5q-45 72 -49 161z" />
<glyph unicode="e" horiz-adv-x="538" d="M-28 300q8 85 38.5 166t67.5 128q68 90 149 90q25 0 47 -8q55 -23 97.5 -63t60.5 -89q10 -30 10 -60q0 -45 -24 -87q-18 -31 -45 -53.5t-56 -38.5q-31 -16 -61.5 -22.5t-56.5 -6.5q-59 0 -82 29q-21 -68 -21 -114q0 -17 2 -31q10 -54 36 -80.5t56.5 -33t42.5 -1.5 q74 18 133.5 64t105.5 103.5t77 119t43 108.5l22 -12q-10 -33 -34.5 -84.5t-62.5 -104.5t-87 -102t-105.5 -81t-120.5 -37q-8 -1 -15 -1q-56 0 -113 31q-70 37 -92 111q-15 53 -15 113q1 23 3 47zM129 315q0 -22 21 -22q27 0 74.5 37t88.5 116l14.5 29t18.5 45q8 22 12 44 q2 9 2 16q0 11 -4 18q-2 6 -12 10q-3 2 -8 2q-12 0 -30 -14q-26 -20 -55.5 -55t-57 -78t-45.5 -81q-20 -42 -19 -67z" />
<glyph unicode="f" horiz-adv-x="700" d="M-227 70v2q2 2 32.5 23.5t90.5 39.5q20 100 45.5 187.5t54.5 160.5q10 25 28.5 69t44 97t57.5 112.5t69 117.5q168 258 315 258h6q92 -4 150 -88q45 -66 49 -156v-18q0 -81 -33 -166q-27 -72 -86 -142.5t-154 -148.5q-84 -66 -172 -123t-164 -105q-10 -8 -21 -14l-22 -12 v-6q33 -4 64 -8.5t59 -8.5q39 -4 75 -8t71 -4q57 0 106 13.5t97 41.5q59 37 98 77t62.5 74t33.5 57.5t10 25.5l19 -4q0 -2 -9.5 -25.5t-32 -58.5t-60.5 -76t-95 -78q-27 -16 -57 -33q-27 -14 -62.5 -27.5t-79.5 -21.5q-16 -4 -35.5 -5t-41.5 -1q-33 0 -68 3t-67 7l-95 8 q6 -29 13.5 -66.5t14.5 -79.5t12 -84t5 -77v-49q2 -59 4 -160q1 -33 1 -67q0 -67 -3 -135q-4 -103 -20 -191t-49 -123q-18 -18 -39 -18h-10q-55 8 -97 63q-43 66 -60 187q-10 71 -10 162q0 65 5 139q4 72 12 141.5t17.5 133t18.5 115.5t15 89q-23 -10 -38 -19.5t-25 -19.5 q-12 -10 -23 -20zM-96 -700q0 -135 37 -181q17 -28 51 -28h2h8q14 4 25 16q18 25 28.5 75t16.5 111.5t8 125t2 112.5q1 37 1 73t-1 72q-2 70 -5 131.5t-7 108.5t-11 76l-18 96l-33 -117q0 -2 -8 -35.5t-20.5 -89t-26.5 -127t-27 -149.5q-12 -80 -17 -147.5t-5 -122.5z M72 188q37 20 95 60.5t123.5 95.5t132 123t118.5 145q33 49 57.5 110.5t36.5 123.5q11 51 11 96q0 13 -1 25q-4 55 -24 94q-27 45 -54 51h-10q-39 0 -83 -49t-86 -119t-78 -143.5t-56 -122.5q-100 -225 -178 -481z" />
<glyph unicode="g" horiz-adv-x="636" d="M-340 -774q10 53 32.5 108.5t54.5 108.5t65 100q70 104 160.5 211t187.5 195q31 29 63.5 59.5t65.5 63.5q16 59 26.5 111.5t20.5 101.5q-23 -63 -59.5 -121t-94.5 -66h-20q-94 0 -158 97q-47 72 -49 163v16q0 93 43 193q31 68 72 109t82 61.5t75.5 26.5t57.5 6t44 -4 t42 -10q39 -12 51 -47q10 -22 10 -45q0 -10 -2 -20q-6 -34 -10 -48l78 -41l-15 -96q-6 -49 -14 -109.5t-20 -128.5q51 47 99 94t86 84t62 59l23 23l24 -10v-2l-27 -23q-26 -24 -68 -63t-95 -89t-109 -101q-16 -92 -32.5 -173t-36.5 -159q-219 -864 -525 -865q-27 0 -63 11 q-109 31 -127 121q-5 22 -5 47t5 51zM-313 -821q0 -18 2 -29q18 -94 61 -94q33 0 78 46t92 118.5t94 163t88 176.5q117 254 177 473q-102 -104 -187.5 -196.5t-150.5 -174.5q-115 -141 -166 -238.5t-70 -154.5q-10 -31 -14 -53.5t-4 -36.5zM91 264q9 -71 40 -106 q25 -29 57 -29q29 0 55.5 32t46 69.5t32.5 69.5l12 32l16 57q4 41 7 78t8 72q4 23 5 42t3 40v2l28 -17q4 12 9 37q2 9 2 18q0 16 -6 31q-12 33 -48 49q-12 6 -26 7q-33 0 -70 -29t-69.5 -74t-58 -103.5t-36.5 -115.5q-10 -59 -10 -109q0 -28 3 -53z" />
<glyph unicode="h" horiz-adv-x="749" d="M-8 388q8 208 37 429q29 229 78 434t112 363q12 35 37 93t59.5 130t77.5 151.5t92 155.5q223 344 422 344h4q113 -2 156 -86q21 -41 25 -95q2 -19 1 -38q1 -37 -5 -75q-8 -58 -24.5 -118.5t-35.5 -111.5q-49 -139 -112.5 -259t-110.5 -189q-68 -100 -123 -163t-96 -100 q-47 -43 -84 -65h-2l-6 22v2q20 12 43 35q20 18 47.5 46t62.5 65q61 68 142 183.5t153 281.5q74 166 98.5 273.5t26.5 166.5q2 33 0 54.5t-6 37.5t-10 29q-35 72 -82 72q-35 0 -73 -31t-77 -81t-76.5 -112.5t-71.5 -127t-61.5 -125t-46.5 -103.5q-96 -219 -180 -462 t-147 -484q-33 -123 -58.5 -242t-42.5 -231q29 61 69 120.5t89 108.5q66 66 131 101.5t119 35.5q33 0 51 -10q57 -23 80 -76q9 -25 9 -53q0 -8 -1 -18q-4 -38 -16.5 -78.5t-30 -79.5t-31.5 -70l-10 -22l-14 -29q-41 -84 -81 -173q-39 -89 -63 -168q-23 -76 -23 -133 q0 -63 44 -85q12 -6 22 -6q29 0 61.5 30.5t64.5 80t61.5 108.5t54 116.5t43 105.5t27.5 75v2h22l-2 -2l-8 -24q-8 -23 -22.5 -61t-34 -86t-44.5 -97q-127 -268 -225 -269h-4q-63 4 -94 49q-33 46 -33 130v10q2 90 23.5 193.5t54.5 210t61 190.5q16 51 27.5 89t15.5 56 q6 31 -6 47q-12 12 -30 12q-37 0 -91.5 -35.5t-107.5 -95.5q-35 -41 -88 -122.5t-88 -204.5q-25 -173 -25 -321v-40l-6 2q0 -2 2 -4l-2 -2l-4 6l-84 33v2q-9 111 -9 235q0 71 3 147zM211 240v2h2v-2h-2z" />
<glyph unicode="i" horiz-adv-x="339" d="M-19 211v27q0 27 1 53q2 39 6 67q10 82 29.5 158t41.5 121h2l142 -74q-82 -211 -107 -358q-13 -76 -13 -121q0 -43 21 -53q7 -3 14 -3q27 0 62 34q45 44 87 107.5t73 126t35 87.5l18 -10q-10 -33 -39.5 -95.5t-72.5 -125t-93 -108.5q-48 -44 -94 -44h-4q-4 0 -10 1t-10 1 q-41 10 -64 57q-14 31 -19 71t-6 81zM41 965v2h2l154 32l-2 -2q-13 -41 -17 -89q-4 -39 -3 -78v-17q1 -47 9.5 -88t22.5 -66l-14 -26q-33 10 -71 53t-63 96q-29 64 -29 119q0 34 11 64z" />
<glyph unicode="j" horiz-adv-x="333" d="M-721 -870q10 53 33.5 108t55.5 108.5t63 100.5q96 141 208.5 283.5t241.5 259.5q27 104 48.5 244.5t38 282.5t25.5 271.5t11 212.5v3l154 -89q-8 -104 -20.5 -226t-25 -233.5t-23.5 -201.5t-19 -129q49 47 103 95t99 87t75 63l30 25l24 -10l-2 -2l-114 -100 q-49 -45 -108.5 -97.5t-115.5 -105.5q-61 -362 -126.5 -591.5t-138 -361t-153.5 -179.5t-171 -48q-29 0 -64 10q-106 31 -129 121q-5 23 -5 47.5t5 51.5zM-692 -918q0 -18 2 -28q16 -94 61 -94q23 0 49.5 20.5t56 56t61.5 84t63 103.5q92 162 153.5 345t116.5 382 q-100 -102 -172 -202.5t-137 -182.5q-115 -141 -167 -238.5t-69 -154.5q-10 -31 -14 -53.5t-4 -37.5zM18 1276q-1 10 -1 20q0 43 14 76v4l178 37v-2q-12 -47 -19 -103q-5 -48 -5 -95v-14q1 -54 10.5 -102t25.5 -77l-14 -31h-2q-37 12 -81 62.5t-73 109.5t-33 115z" />
<glyph unicode="k" horiz-adv-x="823" d="M-16 388q8 208 36 429q29 229 78 434t113 363q12 35 36.5 93t59.5 130t78 151.5t92 155.5q223 344 422 344h4q113 -2 156 -86q20 -41 24 -95q1 -19 1 -37q0 -38 -5 -76q-8 -58 -24.5 -118.5t-34.5 -111.5q-49 -139 -112.5 -259t-110.5 -189q-68 -100 -123.5 -163 t-95.5 -100q-47 -43 -84 -65h-2l-7 22v2q20 12 43 35q20 18 48 46t63 65q61 68 142 183.5t153 281.5q74 166 98.5 274.5t26.5 167.5q2 31 0 53.5t-6 36.5q-4 16 -11 29q-35 72 -81 72q-35 0 -73 -31t-77 -81t-77 -112.5t-71.5 -127t-61.5 -125t-46 -103.5 q-96 -219 -180 -462t-148 -484q-59 -231 -95 -442.5t-46 -391.5q8 25 23 54q0 2 15 39.5t40.5 100t60.5 141.5t74 161q211 444 305 455q9 1 17 1q47 0 67 -30q10 -18 8 -47t-13 -61.5t-28.5 -67.5t-36.5 -66q-27 -43 -59.5 -86t-61 -77.5t-47.5 -56.5l-20 -21v-3l-20 11h2 q10 10 28.5 32.5t42 52t50 64.5t51.5 72q20 33 41.5 68.5t35 68.5t17.5 59.5t-8 43.5q-6 0 -43 -53.5t-88.5 -134.5t-107.5 -174t-105 -173l-43 -70q61 59 122.5 91t112.5 32q27 0 51 -10q57 -23 80 -76q9 -26 9 -54q0 -10 -1 -20q-4 -38 -16 -78t-29.5 -78t-31.5 -69 q-39 -80 -87.5 -178t-80.5 -188q-33 -93 -32 -161q0 -66 52 -83q12 -6 25 -6q33 0 79 59.5t101 169t119.5 264t132.5 344.5h22q0 -2 -2 -6t-6 -14q-8 -25 -32.5 -96.5t-59.5 -164.5t-79 -194.5t-91 -186.5t-95 -140.5t-93 -55.5h-4q-63 4 -95 49q-33 46 -33 127q1 6 1 12 q2 90 23.5 194t54 210.5t61.5 190.5q16 51 27.5 89t15.5 56q6 31 -6 47q-14 10 -31 10q-45 0 -119 -54t-143 -159l-21 -30q-31 -53 -57.5 -112.5t-42.5 -129.5v-31l-94 35v2q-9 111 -9 235q0 71 3 147z" />
<glyph unicode="l" horiz-adv-x="458" d="M-5 416q15 230 60 485q20 113 46 222.5t54.5 210t59.5 186.5t64 153q18 43 44.5 102.5t60.5 127t75 140.5t88 140q209 305 395 305h6q113 -4 156 -86q20 -41 23 -95q1 -15 1 -30q0 -41 -6 -83q-8 -58 -24.5 -118.5t-34.5 -111.5q-25 -70 -53.5 -135.5t-58 -123.5 t-58.5 -106.5t-53 -82.5q-68 -98 -123 -162t-95 -100.5t-62 -51.5l-23 -14l-9 22l2 2q20 12 43 35q20 18 48 46t63 65q59 68 141 183.5t154 281.5t96.5 273.5t28.5 166.5q2 33 0 54.5t-6 37.5t-11 29q-35 72 -83 72q-35 0 -73 -31t-76 -81t-76 -112.5t-71.5 -127t-62.5 -125 t-47 -103.5q-23 -51 -43 -101.5t-41 -103.5l4 -2l-2 -2q-37 -94 -72.5 -189.5t-68.5 -193.5q-29 -90 -54.5 -178t-48.5 -176q-37 -139 -64.5 -271.5t-45.5 -257.5q-27 -176 -36 -312q-5 -82 -5 -147q0 -43 2 -79q2 -14 11 -43t24 -35q2 -4 12 -4q31 0 78 52t96 134t94 180.5 t72 190.5h2l23 -10h-3q-12 -33 -33.5 -86.5t-49 -114.5t-62.5 -125.5t-73 -118t-77.5 -89.5t-80.5 -42q-6 -2 -17 -2q-113 0 -143 252q-8 95 -8 202q0 100 7 212z" />
<glyph unicode="m" horiz-adv-x="1513" d="M-4 -12q-28 75 -28 193q0 189 71 489l158 -62l-37 -137q31 45 68.5 84t79.5 66.5t84 44t81 16.5q31 0 53 -8q35 -12 73 -37t46 -53q6 -21 6 -52q0 -22 -3 -48q-7 -66 -23.5 -145t-36 -167t-33.5 -171q-15 -83 -21 -153q-2 -21 -2 -39q0 -43 11 -73q12 78 41.5 202.5 t77 266t112 284t142.5 255.5q80 114 174 184q89 66 190 65h12h27q84 -12 111 -65q14 -27 14 -63q0 -21 -5 -47q-14 -68 -49.5 -151t-87 -175.5t-104.5 -184.5q-33 -57 -73 -124.5t-74.5 -136.5t-59 -132.5t-27.5 -113.5v-11q0 -43 22 -69q24 -30 87 -29q66 0 142.5 88 t168.5 248q35 59 65 114.5t52.5 98.5t35.5 68l13 26v2l29 -2v-2l-21 -46q-22 -46 -58 -116t-83 -151.5t-100 -155.5q-145 -201 -250 -201q-68 0 -98.5 43t-37.5 109q-2 23 -2 49q0 47 8 102q13 84 34.5 165t45 151.5t40.5 113.5q23 66 49.5 126.5t50.5 115.5q25 55 45 105 q21 48 32 86q10 34 10 60q0 30 -19 40q-4 4 -10.5 3t-12.5 1q-8 1 -16 1q-52 0 -106 -46q-64 -53 -125.5 -142.5t-117 -199t-96.5 -211.5q-47 -115 -80.5 -227.5t-55 -204.5t-31 -156.5t-9.5 -83.5q-11 -1 -24 -1h-15q-22 1 -46.5 9t-47 22.5t-39.5 39.5h-2q-25 58 -25 155 q0 99 16 217q15 114 39.5 231.5t49.5 211.5q6 25 6 44q-1 35 -23 45q-12 5 -26 5q-28 -1 -64 -19q-56 -28 -116 -93.5t-88 -153.5q-23 -70 -40.5 -171.5t-25.5 -236.5v-2h-2z" />
<glyph unicode="n" horiz-adv-x="751" d="M-37 168q0 106 16.5 226t46 246t60.5 237h2q29 -12 71 -27.5t95 -36.5v-2l-31 -96q-16 -49 -29.5 -99.5t-25.5 -99.5q25 47 57.5 90t69.5 80q66 66 131.5 101.5t118.5 35.5q33 0 53 -10q57 -25 78 -76q9 -25 9 -53q0 -8 -1 -18q-4 -38 -16.5 -78.5t-29.5 -79.5t-32 -70 l-10 -22l-14 -29q-41 -84 -81 -173q-39 -89 -63 -168q-23 -76 -23 -133q0 -63 44 -85q6 -4 18 -4q31 0 67 39t70.5 96t67.5 125t58.5 125t41 96t15.5 41v2l16 -4v-2q-14 -39 -33 -84q-16 -39 -36.5 -87t-43.5 -97q-133 -272 -223 -273h-2q-61 4 -94 47q-34 48 -34 134 q1 88 23 198q22 104 55.5 212t61.5 192l27 84q8 23 11 37t5 24q6 31 -6 47q-12 12 -30 12q-37 0 -91.5 -35.5t-107.5 -95.5q-31 -35 -77 -102.5t-83 -169.5q-27 -119 -40 -217q-10 -75 -10 -130q0 -17 1 -32q0 -10 1 -19.5t3 -19.5v-2h-2l-98 23q-27 74 -27 180z" />
<glyph unicode="o" horiz-adv-x="671" d="M4 252q0 53 9.5 104.5t27.5 89.5q31 68 71 109t80.5 61.5t76.5 26.5t59 6t44 -4t40 -10q45 -14 57 -60l8 3q20 -18 32.5 -55.5t13.5 -84.5v-9q0 -43 -9 -92q-10 -54 -31 -110l-8 -20t-8 -21q6 -1 12 -1q33 1 64 19q37 22 71.5 55.5t63.5 74.5t49.5 76.5t32.5 60.5l12 25 l19 -15q-2 -4 -27 -51t-67 -105.5t-99 -107.5t-125 -55q-4 0 -8 1t-8 1q-45 -88 -105.5 -136t-128.5 -51q-8 0 -14 -1t-14 -1q-92 0 -142 80q-23 35 -36 86.5t-13 110.5zM133 152q8 -68 37 -105q25 -33 59 -39h15q29 0 52 15.5t40.5 38t30 48t20.5 46.5l10 34 q-45 35 -64.5 83.5t-23.5 82.5q-7 34 -7 65q0 13 2 27q4 44 18 60q16 20 31.5 25.5t29.5 3.5l68 30q-12 35 -52 54q-12 6 -24 6q-33 0 -70 -29t-69.5 -74t-58 -103.5t-36.5 -115.5t-11 -106q0 -25 3 -47zM326 446q-1 -13 -1 -27q0 -28 5 -59q6 -29 22.5 -71.5t50.5 -73.5 q9 41 13 85q3 30 3 59q0 13 -1 26q-2 41 -11.5 75t-25.5 54q-3 1 -6 1q-19 0 -35 -21q-10 -10 -14 -48z" />
<glyph unicode="p" horiz-adv-x="739" d="M-86 -377q-1 43 -1 86q0 126 9 241q12 154 41 271q6 27 17.5 71t28 97t38 112.5t47.5 116.5q125 258 277 259h4q76 -4 112 -50q12 -10 27 -28q12 -16 26.5 -39t28.5 -51q27 -53 45 -141q10 -45 10 -99q0 -50 -8 -107l-6 -40q25 6 55.5 25.5t61.5 44t56.5 50t41.5 43.5 l6 -18h-2l-19 -21q-19 -22 -50 -50.5t-72 -55.5t-86 -39q-23 -106 -73 -189t-95 -137q-25 -29 -47 -51l-39 -39q-20 -18 -37 -30q-47 -33 -86 -33q-47 0 -63 47q-6 20 -6 42q0 62 47 140q27 43 84 100.5t149 104.5q10 29 20.5 58.5t20.5 64.5q35 125 40 205q3 44 3 78 q0 27 -2 47q-4 10 -4 18v16l-12 33q-4 12 -7 17.5t-6 7.5q-31 51 -71 51q-39 0 -75 -49t-66.5 -119t-54 -143.5t-36.5 -122.5q-47 -166 -79.5 -348.5t-49.5 -362.5q-20 -178 -20 -340q0 -25 1 -49q3 -184 28 -330l-74 27q-33 131 -51.5 286.5t-26.5 321.5zM178 -88 q0 -2 6 -2q18 0 47 24l19 19l24 29q10 10 19.5 21.5t19.5 25.5q25 35 55.5 86t59.5 121q-35 -18 -79 -55.5t-82 -81.5t-65 -93q-24 -46 -24 -88v-6z" />
<glyph unicode="q" horiz-adv-x="649" d="M-61 262q-1 11 -1 22q0 90 44 187q31 68 70.5 109t80.5 61.5t77 26.5t58 6q23 0 44.5 -4t39.5 -11q37 -12 54 -47q8 -18 9 -39.5t-3 -37.5q-4 -20 -13 -39v-2l-18 8q6 14 10 30q3 13 3 27q0 18 -5 37q-12 33 -49 49q-12 6 -25 6q-33 0 -69.5 -28.5t-69.5 -73.5 t-58.5 -103.5t-35.5 -115.5q-10 -59 -10 -109q0 -28 3 -54q9 -71 38 -106q24 -28 55 -28h2q20 0 37.5 13t34.5 36q25 78 48 145.5t40.5 116.5t29 78t11.5 31h2l90 -50v-2l-15 -55q-16 -55 -39.5 -142t-53 -195.5t-58.5 -217.5q-23 -92 -36 -210q-11 -102 -11 -206v-32 q2 -121 16.5 -207t40.5 -119q14 -20 33 -18q51 6 88 51q68 88 68 332q0 38 -2 79q-6 127 -22.5 246t-29.5 197l-10 78l266 362l25 -12l-2 -2l-258 -350q8 -47 21.5 -122t24.5 -163t17 -183q4 -58 4 -113q0 -36 -2 -72q-4 -89 -22.5 -164.5t-54.5 -123.5q-47 -59 -123 -61 q-6 -2 -17 -2q-102 0 -159 61q-73 78 -73 257q0 36 3 77q4 74 18.5 157t34 168t43 170t47.5 165q-25 -23 -61 -29h-19q-96 0 -157 96q-45 68 -49 164z" />
<glyph unicode="r" horiz-adv-x="561" d="M-156 950q8 33 27.5 59.5t45.5 46t53.5 30t54.5 10.5q66 0 90 -58q29 -58 40 -158q6 -52 6 -109q0 -51 -5 -107l-4 -43q117 -70 256 -115l2 -2q0 -2 -19.5 -46t-44 -111.5t-50.5 -148.5t-42 -155t-16 -131t26 -78q12 -6 23 -6q27 0 59.5 38t67.5 94t67.5 123t59 124 t42 96t15.5 41h2l14 -8h-2q-10 -27 -30.5 -77t-48 -110.5t-61.5 -124t-67.5 -113.5t-65.5 -82q-28 -28 -52 -28h-6h-2q-45 2 -78 45q-43 57 -49 179q-1 20 -1 39q0 92 23 186q35 133 54.5 202.5t21.5 79.5q-23 8 -49.5 21.5t-55.5 30.5l-34 20q-59 39 -109.5 79t-85.5 81 q-75 83 -75 157q0 15 3 29zM-109 926q-5 -8 -5 -19q0 -12 6 -28q10 -31 34 -66q23 -29 65 -73t120 -95v21q-4 84 -26 135t-44 80q-29 37 -58.5 51t-52.5 14q-31 0 -39 -20z" />
<glyph unicode="s" horiz-adv-x="446" d="M-30 620q12 82 65 154q41 51 95 81t114 30q31 0 53 -8q41 -14 51 -39t0 -56q-10 -25 -35.5 -51t-54.5 -50t-55.5 -42t-34.5 -31v-2l-14 8v2q10 12 38.5 34t59.5 47.5t55.5 52t24.5 49.5q2 20 -7.5 35.5t-37.5 19.5h-17q-41 0 -74.5 -21.5t-56.5 -58.5q-32 -56 -32 -134 q0 -33 6 -69q10 -74 42.5 -158.5t86.5 -181.5q8 -16 16 -30.5t14 -28.5q47 41 102.5 82t119.5 82l12 -12v-2l-20 -14q-19 -13 -49.5 -35.5t-70.5 -53.5t-83 -65q59 -130 66 -236q1 -14 1 -27q0 -89 -41 -153q-29 -45 -72.5 -69.5t-95.5 -24.5q-94 0 -127 73q-8 16 -11 44 q-1 7 -1 15q0 23 7 51q9 38 36 88t82 114l-6 14q-10 23 -20.5 43t-20.5 43q-33 70 -64.5 153t-45.5 169q-7 45 -7 88q1 41 7 81zM33 -270q16 -29 44.5 -42.5t51.5 -13.5h6q55 0 80 35q15 23 15 55q0 40 -23 93q-16 39 -34.5 78.5t-37.5 76.5q-47 -49 -74 -100 q-42 -74 -42 -128q0 -30 14 -54z" />
<glyph unicode="t" horiz-adv-x="452" d="M-322 1040l5 43l61 -8q92 -12 173 -26.5t157 -30.5q41 197 93 367.5t107 287.5q18 43 45 102.5t61 127t75 140.5t88 140q209 305 395 305h6q113 -4 156 -86q20 -41 23 -95q1 -15 1 -30q0 -41 -6 -83q-8 -58 -24.5 -118.5t-34.5 -111.5q-49 -139 -112.5 -259t-110.5 -189 q-68 -98 -123.5 -162t-95 -100.5t-62.5 -51.5l-23 -14h-2l-6 22v2q2 0 46 36t110 110q59 68 140 183.5t155 281.5q72 166 96.5 273.5t28.5 166.5q0 33 -2 54.5t-6 37.5t-9 29q-35 72 -84 72q-35 0 -72.5 -31t-76.5 -81t-77 -112.5t-71.5 -127t-61.5 -125t-46 -103.5 q-109 -252 -223 -592q-27 -80 -49.5 -158.5t-45.5 -156.5q41 -10 79 -19.5t75 -19.5q119 -33 222.5 -56.5t199.5 -33.5q29 -3 58 -3q40 0 78 5q68 8 127 26.5t106 48t75 66.5q29 42 29 85q0 28 -12 56l22 9q13 -33 13 -65q0 -51 -33 -97q-29 -39 -79 -71t-112 -52 q-64 -21 -134 -29q-40 -5 -80 -5q-30 0 -60 3q-96 10 -200.5 35t-225.5 55l-152 39l-6 -16q-35 -139 -62.5 -271.5t-45.5 -257.5q-27 -178 -37 -312q-6 -74 -6 -136q0 -49 4 -90q2 -14 11 -43t22 -35q4 -4 14 -4q29 0 76 52t97 134t95 180.5t72 190.5l22 -10 q-12 -33 -33.5 -86.5t-49 -114.5t-62.5 -125.5t-73 -118t-77.5 -89.5t-80.5 -42q-6 -2 -17 -2q-113 0 -143 252q-9 98 -9 209q0 97 7 205q14 230 61 485q4 23 8 45.5t9 44.5q-51 10 -149.5 27.5t-240.5 21.5z" />
<glyph unicode="u" horiz-adv-x="864" d="M-59 242q4 66 8 104q8 66 23.5 151t29.5 160.5t25.5 129t11.5 55.5l176 -111q-25 -72 -52.5 -167t-51 -195.5t-37.5 -196.5q-10 -68 -9 -126q-1 -23 1 -45q6 -75 32 -119q23 -39 72 -39q7 0 14 1q16 2 36 10.5t42 26.5q25 23 47.5 55.5t44 70.5t39 77t31.5 76 q33 86 59.5 168t44.5 143q12 51 25.5 94t28.5 72l143 -74q-80 -207 -109 -358q-11 -60 -10 -100q0 -55 19 -74q4 -4 14 -4q16 0 51 27.5t75 76.5t79 114.5t63 141.5l19 -12q-4 -18 -20.5 -53t-40 -77t-54.5 -86t-63.5 -79t-67.5 -57.5t-68 -22.5q-4 0 -10 1t-12 1 q-39 8 -62 57q-24 49 -26 119q-1 27 0 52q0 40 2 77l-41 -114q-33 -84 -65.5 -150t-67.5 -113q-83 -120 -165 -120h-1h-4q-88 4 -140 65q-66 76 -77 229q-4 43 -4 84q0 27 2 54z" />
<glyph unicode="v" horiz-adv-x="815" d="M2 297q-2 44 -2 89q0 117 12 243q16 174 49 356l187 -82v-2q-70 -307 -90 -505q-16 -159 -17 -265q0 -26 1 -49q5 -117 25.5 -168t33.5 -66q4 -4 8 -4q14 0 44 23.5t67.5 63.5t81.5 93.5t87 112.5l19 23l-12 10q-29 33 -50.5 128t-29.5 222q-3 50 -3 99q0 91 10 173 q15 128 50 218q66 168 193 178h8q41 0 63 -37q23 -35 30 -97q4 -40 4 -85q0 -25 -1 -53q-4 -76 -17.5 -158t-29.5 -156t-33.5 -133t-30.5 -88q-45 -109 -98 -186q23 -57 55 -58h2q8 -2 16 -2q22 0 48 12q53 20 88 52t55.5 62t29.5 52.5t9 24.5l23 -6l-2 -2q0 -2 -9.5 -24.5 t-32 -55.5t-59 -66.5t-94.5 -58.5q-31 -13 -59 -13q-23 0 -43 9q-33 2 -64 24l-8 -10q-10 -10 -22 -29q-25 -33 -63 -81t-81 -94t-87 -78.5t-81 -32.5h-12q-41 10 -72 55q-41 59 -65.5 167t-30.5 255zM530 442.5q0 -67.5 6.5 -124t16.5 -95.5q59 96 103 230.5t67 285.5 q10 66 14 126.5t4 111.5t-6 89t-16 58q-13 19 -25 19q-10 0 -18 -6q-35 -25 -68 -131.5t-55 -268.5q-10 -78 -16.5 -152.5t-6.5 -142z" />
<glyph unicode="w" horiz-adv-x="1253" d="M-40 245q5 89 21.5 188t38 196.5t46 188.5t47.5 167l172 -67q-37 -104 -68 -203q-43 -139 -73.5 -270.5t-47 -238t-17.5 -180.5v-7q0 -67 17 -91q10 -12 21 -10q35 2 74.5 40t79.5 95.5t76 124t65 123.5q4 74 26.5 162t61.5 186l2 2l141 -63q0 -2 -14.5 -30t-32.5 -73 t-37.5 -100t-31 -110.5t-11.5 -106.5t23 -86q34 -54 117 -54q9 0 18 1q119 8 217 131q-4 4 -6 5t-4 5q-29 33 -51.5 128t-30.5 222q-3 50 -3 99q0 91 10 173q15 128 50 218q66 168 193 178h4q42 0 69 -37q23 -35 30 -97q4 -36 4 -78q0 -28 -2 -60q-5 -76 -18.5 -158 t-29.5 -156t-33.5 -133t-30.5 -88q-45 -109 -98 -186q12 -31 27 -45q4 0 6 -3q29 -14 60 -14q29 0 61 12q61 23 101 55.5t64.5 62.5t34.5 53l11 22l18 -8q0 -2 -11 -24.5t-36 -54.5t-68 -65.5t-108 -58.5q-35 -12 -68 -12q-10 0 -20 1t-21 3h-6q-42 0 -82 26 q-122 -151 -278 -151h-2q-10 0 -18.5 1t-18.5 1q-92 12 -141 90q-39 68 -39 168q-27 -53 -60 -110.5t-67 -108.5q-109 -156 -189 -156q-55 0 -94 74q-27 51 -36 127q-6 49 -6 103q0 30 2 62zM915 442.5q0 -67.5 5.5 -124t15.5 -95.5q59 96 103 230.5t67 285.5 q10 66 14 126.5t4 111.5t-6 89t-16 58q-11 19 -25 19q-10 0 -16 -6q-37 -25 -70 -131.5t-55 -268.5q-10 -78 -15.5 -152.5t-5.5 -142z" />
<glyph unicode="x" horiz-adv-x="811" d="M-741 -459h32v-2q4 -23 19 -39q12 -16 38.5 -27.5t78.5 -11.5q23 0 45 3.5t47 7.5q115 20 266.5 96t304.5 188q-4 6 -5 12.5t-3 10.5q-16 53 -28.5 102t-21.5 89t-13.5 68t-6.5 38q-26 134 -26 308q0 50 2 104q10 240 59 497l186 -82v-2q-27 -121 -46 -222t-31 -190 q0 -2 -6.5 -68.5t-7.5 -165.5v-24q0 -89 6 -190q8 -115 32 -213q100 82 175 165t110 130l10 14l19 23q-8 8 -13 10q-29 33 -50 128t-30 222q-3 49 -3 97q0 91 10 175q16 128 51 218q66 168 192 178h8q41 0 64 -37q23 -35 30 -97q4 -40 4 -85q0 -25 -1 -53q-4 -76 -17.5 -158 t-30 -156t-34 -133t-29.5 -88q-45 -109 -98 -186q23 -57 55 -58h2q8 -2 16 -2q22 0 48 12q53 20 88 52t55 62t29.5 52.5t9.5 24.5h2l20 -6l-2 -2q0 -2 -9 -24.5t-31.5 -55.5t-59.5 -66.5t-94 -58.5q-31 -13 -59 -13q-23 0 -44 9q-33 2 -63 24l-8 -10q-10 -10 -23 -29 q-29 -39 -75 -97t-97 -107q-29 -29 -57.5 -54.5t-59.5 -54.5q53 -182 118 -281.5t132 -99.5q8 0 13 2q37 6 66.5 38t49 69t29.5 67l10 31v2h23v-2q-4 -16 -13 -37q-6 -16 -15 -36.5t-21 -43.5q-23 -41 -65 -78.5t-105 -37.5q-41 0 -86 18q-39 16 -73 50t-61.5 77t-50 93 t-41.5 100q-45 -35 -92 -66t-96 -59q-133 -78 -254 -118t-219 -40q-53 0 -96 12q-25 6 -41.5 20.5t-25.5 29t-13 25.5l-4 11v2zM516 442.5q0 -67.5 6 -124t17 -95.5q59 96 103 230.5t67 285.5q10 66 14 126.5t4 111.5t-6 89t-16 58q-13 19 -25 19q-10 0 -18 -6 q-35 -25 -68 -131.5t-55 -268.5q-10 -78 -16.5 -152.5t-6.5 -142z" />
<glyph unicode="y" horiz-adv-x="741" d="M-219 -870q10 53 33.5 108t55.5 108.5t62 100.5q70 104 162 210.5t187 195.5q33 29 64.5 59.5t66.5 62.5q12 49 21 94.5t18 86.5q-23 -45 -48.5 -83t-54.5 -67q-61 -61 -119 -61h-2q-90 4 -141 65q-61 72 -78 230q-4 43 -4 84q0 28 2 54q4 66 8 103q12 98 74 303l148 -88 q-23 -76 -43.5 -159.5t-35 -165.5t-16.5 -156v-17q0 -63 13 -108q31 -110 95 -110h1q37 0 78 36q39 35 72.5 93.5t62.5 119.5q10 59 15 111.5t9 101.5l7 82l2 2l122 -67l-12 -97q-8 -49 -16 -109t-19 -128q49 47 91.5 88t72.5 70q37 35 66 61l26 -10l-2 -2q-37 -35 -77 -74 q-35 -35 -83.5 -79t-103.5 -97q-16 -92 -30.5 -166t-34.5 -152q-219 -864 -523 -864q-29 0 -65 10q-104 31 -127 121q-5 23 -5 47.5t5 51.5zM-193 -918q-1 -5 -1 -10q0 -11 4 -18q18 -94 63 -94q33 0 77 46t91 118.5t94 162.5t88 176q59 129 102.5 245t75.5 229 q-104 -104 -188 -196.5t-152 -174.5q-115 -141 -166 -238.5t-69 -154.5q-18 -61 -19 -91z" />
<glyph unicode="z" horiz-adv-x="743" d="M-74 -430q-7 26 -7 57q1 41 13 90q22 86 82 178.5t159 179.5t241 148q18 79 18 138q0 48 -12 83q-29 92 -113 93q-45 0 -95 -24t-92 -52.5t-71 -52.5l-29 -23v-2l-34 80h2q25 8 60.5 32.5t75.5 58.5t82 72t79 72q59 57 111.5 115.5t78.5 99.5q-33 -16 -81 -31.5 t-113 -17.5h-19q-72 0 -122 14.5t-82.5 31t-47.5 31.5l-16 15h-2l2 2q0 2 10 18.5t23.5 36t26 38t16.5 24.5h2l22 -27q23 -28 59.5 -61t82 -60.5t92.5 -27.5q4 0 5 1t5 1q49 2 88 19.5t67.5 38t44.5 35.5l17 16v2l14 -15v-6q-4 -6 -15 -19.5t-34 -29.5q-70 -178 -438 -453 q25 14 54.5 31t64.5 30t72.5 22.5t76.5 9.5q88 0 150 -50q93 -75 93 -216q0 -16 -1 -33q45 12 105.5 32.5t109.5 24.5h2l-4 -21h-2q-31 -10 -68 -20q-31 -10 -68.5 -21.5t-78.5 -21.5q-10 -82 -46 -172t-85 -176t-108.5 -164t-118 -137.5t-110.5 -94t-87 -36.5h-4 q-76 0 -103 94zM-56 -346q-2 -19 -3 -35q0 -31 8 -55q16 -49 59 -56h4q35 0 89.5 60.5t117.5 171.5q61 109 110.5 228.5t76.5 224.5q-78 -35 -143.5 -77t-115.5 -91q-74 -76 -114.5 -143.5t-59.5 -114.5q-23 -59 -29 -113z" />
<glyph unicode="{" horiz-adv-x="552" d="M119 758l8 59q66 2 111 51q39 45 98 420q55 373 135 432q92 59 213 45l-6 -53q-90 -10 -129 -49q-37 -37 -78 -295q-18 -129 -33.5 -226.5t-31.5 -166.5q-27 -135 -197 -189q154 -49 151 -186q0 -70 -7 -167t-17 -226q-20 -252 8 -295q31 -41 117 -49l-6 -53 q-127 -14 -201 45q-68 57 -37 430q31 377 0 422q-33 49 -98 51z" />
<glyph unicode="|" horiz-adv-x="196" d="M47 -190l217 1857h76l-217 -1857h-76z" />
<glyph unicode="}" horiz-adv-x="552" d="M51 -193l6 54q86 8 127 49t78 295t68 393q27 135 196 188q-154 49 -151 187q0 70 6 167t16 226q23 256 -8 295q-33 39 -115 49l7 53q127 14 198 -45q66 -59 35 -432q-27 -375 0 -420q33 -49 102 -51l-8 -59q-70 -2 -112 -51q-39 -45 -99 -422q-59 -373 -135 -430 q-88 -59 -211 -46z" />
<glyph unicode="&#xa8;" horiz-adv-x="651" d="M213 1120q2 33 26.5 56.5t55.5 23.5t48 -23.5t14 -57.5t-27.5 -57.5t-55.5 -23.5t-48 23.5t-13 58.5zM479 1120q2 33 26.5 56.5t55.5 23.5t49.5 -23.5t15.5 -57.5t-29 -57.5t-56 -23.5q-31 0 -48.5 23.5t-13.5 58.5z" />
<glyph unicode="&#xad;" horiz-adv-x="1167" d="M23 604v90h1107v-90h-1107z" />
<glyph unicode="&#xb0;" d="M238 1139q0 53 37.5 92t91.5 39q53 0 92 -39t39 -92t-39 -91t-92 -38t-91 38t-38 91zM311 1137q0 -23 17.5 -40.5t40.5 -17.5t40 17.5t17 40.5t-17.5 40t-39.5 17q-23 0 -40.5 -17t-17.5 -40z" />
<glyph unicode="&#xb4;" horiz-adv-x="512" d="M158 768l231 242l49 -70q-76 -53 -133 -92q-51 -35 -92 -63.5t-43 -28.5q-6 0 -8 6q-2 2 -4 6z" />
<glyph unicode="&#xb8;" horiz-adv-x="641" d="M72 -242q2 18 10 28.5t18 16.5q10 8 27 11l-12 22q6 0 14 -2q14 -4 14 -2l4 -16q2 -8 7 -19q-18 -2 -31 -8q-10 -4 -20.5 -14.5t-8.5 -24.5q2 -29 33 -42t53 -5q18 6 23 29q2 10 -2 22l47 8q6 -23 2 -43q-4 -16 -17.5 -31.5t-42.5 -19.5q-31 -4 -53 2t-37.5 19.5 t-22.5 32t-5 36.5z" />
<glyph unicode="&#xc0;" horiz-adv-x="960" d="M-618 -440q4 0 8 4h2v-2q12 -29 41.5 -55.5t79.5 -26.5q23 0 59 10q35 12 73 61.5t75.5 121t73.5 154.5t65.5 163t53.5 146.5t36 103.5q12 41 26.5 83t30.5 87q-53 39 -101 86t-89 106q-51 76 -70.5 135.5t-19.5 104.5t14 76.5t31 50.5q35 39 77.5 54t65.5 3l-8 -22 q-10 6 -47 -6.5t-68 -47.5q-14 -16 -26.5 -44.5t-12.5 -69.5t18.5 -96.5t65.5 -125.5q37 -55 83 -100t95 -80q41 104 94.5 220t118 228.5t141 215t163.5 180.5t185.5 124t207.5 46h4q20 4 35 4h4q4 0 9 -1t9 -1l80 -90q-63 -74 -120.5 -184.5t-108 -239.5t-90 -269.5 t-66.5 -275.5t-40 -257t-10 -214t25.5 -147.5t65.5 -57.5q16 0 46 18.5t60.5 51.5t58 79t38.5 99l18 -12q-6 -31 -27.5 -76t-52.5 -87t-67.5 -73.5t-75.5 -38.5h-10q-59 0 -102.5 63.5t-72 152t-44 182.5t-17.5 153q-25 6 -64.5 15.5t-88 24t-101.5 33.5t-104 46 q-14 -47 -35 -131t-50.5 -183.5t-70.5 -201.5t-95 -186t-123 -137.5t-153 -53.5h-6q-53 2 -88 13.5t-58.5 26.5t-35.5 32.5t-18 32.5v2zM125 369q49 -25 100 -44.5t98.5 -34t86.5 -22.5t63 -14q-2 145 19.5 298t69.5 303.5t123 292.5t179 269q-23 -2 -51.5 -14t-71.5 -29 q-96 -37 -179 -116.5t-149.5 -181t-118.5 -212t-88 -210t-56.5 -176t-24.5 -109.5zM299 1645l49 70l231 -242q-2 -4 -4 -6q-4 -6 -8 -6q-2 0 -44 28.5t-91 63.5q-59 39 -133 92z" />
<glyph unicode="&#xc1;" horiz-adv-x="960" d="M-618 -440q4 0 8 4h2v-2q12 -29 41.5 -55.5t79.5 -26.5q23 0 59 10q35 12 73 61.5t75.5 121t73.5 154.5t65.5 163t53.5 146.5t36 103.5q12 41 26.5 83t30.5 87q-53 39 -101 86t-89 106q-51 76 -70.5 135.5t-19.5 104.5t14 76.5t31 50.5q35 39 77.5 54t65.5 3l-8 -22 q-10 6 -47 -6.5t-68 -47.5q-14 -16 -26.5 -44.5t-12.5 -69.5t18.5 -96.5t65.5 -125.5q37 -55 83 -100t95 -80q41 104 94.5 220t118 228.5t141 215t163.5 180.5t185.5 124t207.5 46h4q20 4 35 4h4q4 0 9 -1t9 -1l80 -90q-63 -74 -120.5 -184.5t-108 -239.5t-90 -269.5 t-66.5 -275.5t-40 -257t-10 -214t25.5 -147.5t65.5 -57.5q16 0 46 18.5t60.5 51.5t58 79t38.5 99l18 -12q-6 -31 -27.5 -76t-52.5 -87t-67.5 -73.5t-75.5 -38.5h-10q-59 0 -102.5 63.5t-72 152t-44 182.5t-17.5 153q-25 6 -64.5 15.5t-88 24t-101.5 33.5t-104 46 q-14 -47 -35 -131t-50.5 -183.5t-70.5 -201.5t-95 -186t-123 -137.5t-153 -53.5h-6q-53 2 -88 13.5t-58.5 26.5t-35.5 32.5t-18 32.5v2zM125 369q49 -25 100 -44.5t98.5 -34t86.5 -22.5t63 -14q-2 145 19.5 298t69.5 303.5t123 292.5t179 269q-23 -2 -51.5 -14t-71.5 -29 q-96 -37 -179 -116.5t-149.5 -181t-118.5 -212t-88 -210t-56.5 -176t-24.5 -109.5zM639 1499l231 242l49 -70q-76 -53 -133 -92q-51 -35 -92 -63.5t-43 -28.5q-6 0 -8 6q-2 2 -4 6z" />
<glyph unicode="&#xc2;" horiz-adv-x="960" d="M-618 -440q4 0 8 4h2v-2q12 -29 41.5 -55.5t79.5 -26.5q23 0 59 10q35 12 73 61.5t75.5 121t73.5 154.5t65.5 163t53.5 146.5t36 103.5q12 41 26.5 83t30.5 87q-53 39 -101 86t-89 106q-51 76 -70.5 135.5t-19.5 104.5t14 76.5t31 50.5q35 39 77.5 54t65.5 3l-8 -22 q-10 6 -47 -6.5t-68 -47.5q-14 -16 -26.5 -44.5t-12.5 -69.5t18.5 -96.5t65.5 -125.5q37 -55 83 -100t95 -80q41 104 94.5 220t118 228.5t141 215t163.5 180.5t185.5 124t207.5 46h4q20 4 35 4h4q4 0 9 -1t9 -1l80 -90q-63 -74 -120.5 -184.5t-108 -239.5t-90 -269.5 t-66.5 -275.5t-40 -257t-10 -214t25.5 -147.5t65.5 -57.5q16 0 46 18.5t60.5 51.5t58 79t38.5 99l18 -12q-6 -31 -27.5 -76t-52.5 -87t-67.5 -73.5t-75.5 -38.5h-10q-59 0 -102.5 63.5t-72 152t-44 182.5t-17.5 153q-25 6 -64.5 15.5t-88 24t-101.5 33.5t-104 46 q-14 -47 -35 -131t-50.5 -183.5t-70.5 -201.5t-95 -186t-123 -137.5t-153 -53.5h-6q-53 2 -88 13.5t-58.5 26.5t-35.5 32.5t-18 32.5v2zM125 369q49 -25 100 -44.5t98.5 -34t86.5 -22.5t63 -14q-2 145 19.5 298t69.5 303.5t123 292.5t179 269q-23 -2 -51.5 -14t-71.5 -29 q-96 -37 -179 -116.5t-149.5 -181t-118.5 -212t-88 -210t-56.5 -176t-24.5 -109.5zM434 1505v31l195 199q27 -66 49 -117q18 -43 31.5 -80t11.5 -35h-41h-37l-59 154z" />
<glyph unicode="&#xc3;" horiz-adv-x="960" d="M-618 -440q4 0 8 4h2v-2q12 -29 41.5 -55.5t79.5 -26.5q23 0 59 10q35 12 73 61.5t75.5 121t73.5 154.5t65.5 163t53.5 146.5t36 103.5q12 41 26.5 83t30.5 87q-53 39 -101 86t-89 106q-51 76 -70.5 135.5t-19.5 104.5t14 76.5t31 50.5q35 39 77.5 54t65.5 3l-8 -22 q-10 6 -47 -6.5t-68 -47.5q-14 -16 -26.5 -44.5t-12.5 -69.5t18.5 -96.5t65.5 -125.5q37 -55 83 -100t95 -80q41 104 94.5 220t118 228.5t141 215t163.5 180.5t185.5 124t207.5 46h4q20 4 35 4h4q4 0 9 -1t9 -1l80 -90q-63 -74 -120.5 -184.5t-108 -239.5t-90 -269.5 t-66.5 -275.5t-40 -257t-10 -214t25.5 -147.5t65.5 -57.5q16 0 46 18.5t60.5 51.5t58 79t38.5 99l18 -12q-6 -31 -27.5 -76t-52.5 -87t-67.5 -73.5t-75.5 -38.5h-10q-59 0 -102.5 63.5t-72 152t-44 182.5t-17.5 153q-25 6 -64.5 15.5t-88 24t-101.5 33.5t-104 46 q-14 -47 -35 -131t-50.5 -183.5t-70.5 -201.5t-95 -186t-123 -137.5t-153 -53.5h-6q-53 2 -88 13.5t-58.5 26.5t-35.5 32.5t-18 32.5v2zM125 369q49 -25 100 -44.5t98.5 -34t86.5 -22.5t63 -14q-2 145 19.5 298t69.5 303.5t123 292.5t179 269q-23 -2 -51.5 -14t-71.5 -29 q-96 -37 -179 -116.5t-149.5 -181t-118.5 -212t-88 -210t-56.5 -176t-24.5 -109.5zM401 1526l5 17q5 16 19.5 31.5t36 24.5t54.5 -5t66.5 -28.5t64.5 -24t56.5 -9.5t43.5 15q16 14 18.5 24.5t-3.5 16.5q-8 8 -23 12l2 12q14 -8 25 -18q8 -10 13 -22.5t-5 -28.5 q-8 -16 -24.5 -29.5t-43 -20t-65.5 -1t-94 27.5q-55 23 -81 25t-36 -2q-10 -6 -6 -21q-4 2 -11 2q-12 0 -12 2z" />
<glyph unicode="&#xc4;" horiz-adv-x="960" d="M-618 -440q4 0 8 4h2v-2q12 -29 41.5 -55.5t79.5 -26.5q23 0 59 10q35 12 73 61.5t75.5 121t73.5 154.5t65.5 163t53.5 146.5t36 103.5q12 41 26.5 83t30.5 87q-53 39 -101 86t-89 106q-51 76 -70.5 135.5t-19.5 104.5t14 76.5t31 50.5q35 39 77.5 54t65.5 3l-8 -22 q-10 6 -47 -6.5t-68 -47.5q-14 -16 -26.5 -44.5t-12.5 -69.5t18.5 -96.5t65.5 -125.5q37 -55 83 -100t95 -80q41 104 94.5 220t118 228.5t141 215t163.5 180.5t185.5 124t207.5 46h4q20 4 35 4h4q4 0 9 -1t9 -1l80 -90q-63 -74 -120.5 -184.5t-108 -239.5t-90 -269.5 t-66.5 -275.5t-40 -257t-10 -214t25.5 -147.5t65.5 -57.5q16 0 46 18.5t60.5 51.5t58 79t38.5 99l18 -12q-6 -31 -27.5 -76t-52.5 -87t-67.5 -73.5t-75.5 -38.5h-10q-59 0 -102.5 63.5t-72 152t-44 182.5t-17.5 153q-25 6 -64.5 15.5t-88 24t-101.5 33.5t-104 46 q-14 -47 -35 -131t-50.5 -183.5t-70.5 -201.5t-95 -186t-123 -137.5t-153 -53.5h-6q-53 2 -88 13.5t-58.5 26.5t-35.5 32.5t-18 32.5v2zM125 369q49 -25 100 -44.5t98.5 -34t86.5 -22.5t63 -14q-2 145 19.5 298t69.5 303.5t123 292.5t179 269q-23 -2 -51.5 -14t-71.5 -29 q-96 -37 -179 -116.5t-149.5 -181t-118.5 -212t-88 -210t-56.5 -176t-24.5 -109.5zM633 1579q2 33 26.5 56.5t55.5 23.5t48 -23.5t14 -57.5t-27.5 -57.5t-55.5 -23.5t-48 23.5t-13 58.5zM899 1579q2 33 26.5 56.5t55.5 23.5t49.5 -23.5t15.5 -57.5t-29 -57.5t-56 -23.5 q-31 0 -48.5 23.5t-13.5 58.5z" />
<glyph unicode="&#xc5;" horiz-adv-x="960" d="M-618 -440q4 0 8 4h2v-2q12 -29 41.5 -55.5t79.5 -26.5q23 0 59 10q35 12 73 61.5t75.5 121t73.5 154.5t65.5 163t53.5 146.5t36 103.5q12 41 26.5 83t30.5 87q-53 39 -101 86t-89 106q-51 76 -70.5 135.5t-19.5 104.5t14 76.5t31 50.5q35 39 77.5 54t65.5 3l-8 -22 q-10 6 -47 -6.5t-68 -47.5q-14 -16 -26.5 -44.5t-12.5 -69.5t18.5 -96.5t65.5 -125.5q37 -55 83 -100t95 -80q41 104 94.5 220t118 228.5t141 215t163.5 180.5t185.5 124t207.5 46h4q20 4 35 4h4q4 0 9 -1t9 -1l80 -90q-63 -74 -120.5 -184.5t-108 -239.5t-90 -269.5 t-66.5 -275.5t-40 -257t-10 -214t25.5 -147.5t65.5 -57.5q16 0 46 18.5t60.5 51.5t58 79t38.5 99l18 -12q-6 -31 -27.5 -76t-52.5 -87t-67.5 -73.5t-75.5 -38.5h-10q-59 0 -102.5 63.5t-72 152t-44 182.5t-17.5 153q-25 6 -64.5 15.5t-88 24t-101.5 33.5t-104 46 q-14 -47 -35 -131t-50.5 -183.5t-70.5 -201.5t-95 -186t-123 -137.5t-153 -53.5h-6q-53 2 -88 13.5t-58.5 26.5t-35.5 32.5t-18 32.5v2zM125 369q49 -25 100 -44.5t98.5 -34t86.5 -22.5t63 -14q-2 145 19.5 298t69.5 303.5t123 292.5t179 269q-23 -2 -51.5 -14t-71.5 -29 q-96 -37 -179 -116.5t-149.5 -181t-118.5 -212t-88 -210t-56.5 -176t-24.5 -109.5zM527 1645q0 53 37.5 92t91.5 39q53 0 92 -39t39 -92t-39 -91t-92 -38t-91 38t-38 91zM600 1643q0 -23 17.5 -40.5t40.5 -17.5t40 17.5t17 40.5t-17.5 40t-39.5 17q-23 0 -40.5 -17 t-17.5 -40z" />
<glyph unicode="&#xc6;" horiz-adv-x="1683" d="M-618 -440q4 0 8 4h2v-2q12 -29 41.5 -55.5t79.5 -26.5q23 0 59 10q35 12 73 61.5t75.5 121t73.5 154.5t65.5 163t53.5 146.5t36 103.5q12 41 26.5 83t30.5 87q-53 39 -101 86t-89 106q-51 76 -70.5 135.5t-19.5 104.5t14 76.5t31 50.5q35 39 77.5 54t65.5 3l-8 -22 q-10 6 -47 -6.5t-68 -47.5q-14 -16 -26.5 -44.5t-12.5 -69.5t18.5 -96.5t65.5 -125.5q37 -55 83 -100t95 -80q41 104 94.5 220t118 228.5t141 215t163.5 180.5t185.5 124t207.5 46h4q20 4 35 4h4q4 0 9 -1t9 -1l80 -90q-63 -74 -120.5 -184.5t-108 -239.5t-90 -269.5 t-66.5 -275.5t-40 -257t-10 -214t25.5 -147.5t65.5 -57.5q16 0 46 18.5t60.5 51.5t58 79t38.5 99l18 -12q-6 -31 -27.5 -76t-52.5 -87t-67.5 -73.5t-75.5 -38.5h-10q-59 0 -102.5 63.5t-72 152t-44 182.5t-17.5 153q-25 6 -64.5 15.5t-88 24t-101.5 33.5t-104 46 q-14 -47 -35 -131t-50.5 -183.5t-70.5 -201.5t-95 -186t-123 -137.5t-153 -53.5h-6q-53 2 -88 13.5t-58.5 26.5t-35.5 32.5t-18 32.5v2zM125 369q49 -25 100 -44.5t98.5 -34t86.5 -22.5t63 -14q-2 145 19.5 298t69.5 303.5t123 292.5t179 269q-23 -2 -51.5 -14t-71.5 -29 q-96 -37 -179 -116.5t-149.5 -181t-118.5 -212t-88 -210t-56.5 -176t-24.5 -109.5zM655 -33q-7 45 3 115q8 66 42 151.5t120 167.5q78 74 125 116t73.5 63.5t35.5 26.5l9 5l21 12h-10q-20 0 -50 8.5t-49 37.5q-27 41 -38 118.5t18 167.5q14 45 40.5 82t53.5 64v2 q-45 23 -92 50.5t-94 61.5h-2l12 17q53 -35 100 -63.5t90 -51.5q20 18 37 31q8 8 17 12q74 59 145.5 90t130.5 31q27 0 61 -10q47 -14 72 -55.5t17 -88.5q-6 -45 -48.5 -83t-132.5 -38q-74 0 -161 31q-8 -8 -14.5 -15t-12.5 -16v-2l-6 -6q-10 -12 -34 -46t-47.5 -78t-41 -94 t-12.5 -97q6 -43 49 -43q37 0 90 23.5t102 53t84 54.5l35 25h2l10 -17l-2 -2q-27 -20 -57 -43q-29 -20 -64.5 -49t-76.5 -66q-76 -68 -171.5 -171t-168.5 -232q-109 -188 -97 -340q6 -59 23.5 -95t28.5 -48l4 -4q45 -51 114 -46q88 6 215 132q53 53 107.5 119.5t103.5 140.5 q37 57 67 109t50.5 92t32.5 65l12 24l21 -10q-25 -59 -66 -133t-93 -151.5t-110.5 -151.5t-120 -131t-121 -92t-110.5 -35h-12q-84 8 -146 61q-76 66 -106 197q0 2 -7 47zM1213 1053q35 -12 64.5 -17.5t56.5 -5.5q90 0 133 68q20 35 26.5 68.5t-6.5 56.5q-12 20 -39 20 q-19 0 -37 -6q-27 -10 -80 -59.5t-118 -124.5z" />
<glyph unicode="&#xc7;" horiz-adv-x="854" d="M0 160q-2 139 29.5 279.5t93.5 275.5q53 119 128 224t161 187q-90 47 -187 113v2l11 16v-2q53 -35 100 -63.5t90 -50.5q88 78 173 121t157 43q31 0 61 -11q47 -14 71.5 -55t16.5 -88q-4 -23 -15 -44.5t-34 -37.5t-54.5 -27.5t-76.5 -11.5q-74 0 -162 31 q-29 -35 -75 -93.5t-96 -133t-99 -164.5t-86 -185q-39 -98 -62.5 -203.5t-27.5 -205.5q-4 -102 10 -181t47 -126q45 -63 113 -64q4 0 7 1t7 1q43 4 98.5 38t116.5 93q53 53 107.5 120t103.5 140q37 57 66.5 109.5t50 92.5t32.5 64l13 25v2l20 -12q-25 -59 -65.5 -133 t-93 -152t-110.5 -151.5t-119.5 -131t-121 -92t-110.5 -34.5q-8 0 -13 2q-47 4 -95 26.5t-88 74.5t-65.5 142t-27.5 230zM219 -377q2 18 10 28.5t18 16.5q10 8 27 11l-12 22q6 0 14 -2q14 -4 14 -2l4 -16q2 -8 7 -19q-18 -2 -31 -8q-10 -4 -20.5 -14.5t-8.5 -24.5 q2 -29 33 -42t53 -5q18 6 23 29q2 10 -2 22l47 8q6 -23 2 -43q-4 -16 -17.5 -31.5t-42.5 -19.5q-31 -4 -53 2t-37.5 19.5t-22.5 32t-5 36.5zM575 1075q35 -12 65 -17t56 -5q90 0 133 67q23 35 28 70t-7 55q-8 20 -39 21q-17 0 -37 -6q-27 -10 -80 -59.5t-119 -125.5z" />
<glyph unicode="&#xc8;" horiz-adv-x="722" d="M-97 -39q-7 45 3 115q8 66 42 151.5t120 167.5q78 74 125 116t73.5 63.5t35.5 26.5l9 5l21 12h-10q-20 0 -50 8.5t-49 37.5q-27 41 -38 118.5t18 167.5q14 45 40.5 82t53.5 64v2q-45 23 -92 50.5t-94 61.5h-2l12 17q53 -35 100 -63.5t90 -51.5q20 18 37 31q8 8 17 12 q74 59 145.5 90t130.5 31q27 0 61 -10q47 -14 72 -55.5t17 -88.5q-6 -45 -48.5 -83t-132.5 -38q-74 0 -161 31q-8 -8 -14.5 -15t-12.5 -16v-2l-6 -6q-10 -12 -34 -46t-47.5 -78t-41 -94t-12.5 -97q6 -43 49 -43q37 0 90 23.5t102 53t84 54.5l35 25h2l10 -17l-2 -2 q-27 -20 -57 -43q-29 -20 -64.5 -49t-76.5 -66q-76 -68 -171.5 -171t-168.5 -232q-109 -188 -97 -340q6 -59 23.5 -95t28.5 -48l4 -4q45 -51 114 -46q88 6 215 132q53 53 107.5 119.5t103.5 140.5q37 57 67 109t50.5 92t32.5 65l12 24l21 -10q-25 -59 -66 -133t-93 -151.5 t-110.5 -151.5t-120 -131t-121 -92t-110.5 -35h-12q-84 8 -146 61q-76 66 -106 197q0 2 -7 47zM254 1479l49 70l231 -242q-2 -4 -4 -6q-4 -6 -8 -6q-2 0 -44 28.5t-91 63.5q-59 39 -133 92zM461 1047q35 -12 64.5 -17.5t56.5 -5.5q90 0 133 68q20 35 26.5 68.5t-6.5 56.5 q-12 20 -39 20q-19 0 -37 -6q-27 -10 -80 -59.5t-118 -124.5z" />
<glyph unicode="&#xc9;" horiz-adv-x="722" d="M-97 -39q-7 45 3 115q8 66 42 151.5t120 167.5q78 74 125 116t73.5 63.5t35.5 26.5l9 5l21 12h-10q-20 0 -50 8.5t-49 37.5q-27 41 -38 118.5t18 167.5q14 45 40.5 82t53.5 64v2q-45 23 -92 50.5t-94 61.5h-2l12 17q53 -35 100 -63.5t90 -51.5q20 18 37 31q8 8 17 12 q74 59 145.5 90t130.5 31q27 0 61 -10q47 -14 72 -55.5t17 -88.5q-6 -45 -48.5 -83t-132.5 -38q-74 0 -161 31q-8 -8 -14.5 -15t-12.5 -16v-2l-6 -6q-10 -12 -34 -46t-47.5 -78t-41 -94t-12.5 -97q6 -43 49 -43q37 0 90 23.5t102 53t84 54.5l35 25h2l10 -17l-2 -2 q-27 -20 -57 -43q-29 -20 -64.5 -49t-76.5 -66q-76 -68 -171.5 -171t-168.5 -232q-109 -188 -97 -340q6 -59 23.5 -95t28.5 -48l4 -4q45 -51 114 -46q88 6 215 132q53 53 107.5 119.5t103.5 140.5q37 57 67 109t50.5 92t32.5 65l12 24l21 -10q-25 -59 -66 -133t-93 -151.5 t-110.5 -151.5t-120 -131t-121 -92t-110.5 -35h-12q-84 8 -146 61q-76 66 -106 197q0 2 -7 47zM461 1047q35 -12 64.5 -17.5t56.5 -5.5q90 0 133 68q20 35 26.5 68.5t-6.5 56.5q-12 20 -39 20q-19 0 -37 -6q-27 -10 -80 -59.5t-118 -124.5zM508 1313l231 242l49 -70 q-76 -53 -133 -92q-51 -35 -92 -63.5t-43 -28.5q-6 0 -8 6q-2 2 -4 6z" />
<glyph unicode="&#xca;" horiz-adv-x="722" d="M-97 -39q-7 45 3 115q8 66 42 151.5t120 167.5q78 74 125 116t73.5 63.5t35.5 26.5l9 5l21 12h-10q-20 0 -50 8.5t-49 37.5q-27 41 -38 118.5t18 167.5q14 45 40.5 82t53.5 64v2q-45 23 -92 50.5t-94 61.5h-2l12 17q53 -35 100 -63.5t90 -51.5q20 18 37 31q8 8 17 12 q74 59 145.5 90t130.5 31q27 0 61 -10q47 -14 72 -55.5t17 -88.5q-6 -45 -48.5 -83t-132.5 -38q-74 0 -161 31q-8 -8 -14.5 -15t-12.5 -16v-2l-6 -6q-10 -12 -34 -46t-47.5 -78t-41 -94t-12.5 -97q6 -43 49 -43q37 0 90 23.5t102 53t84 54.5l35 25h2l10 -17l-2 -2 q-27 -20 -57 -43q-29 -20 -64.5 -49t-76.5 -66q-76 -68 -171.5 -171t-168.5 -232q-109 -188 -97 -340q6 -59 23.5 -95t28.5 -48l4 -4q45 -51 114 -46q88 6 215 132q53 53 107.5 119.5t103.5 140.5q37 57 67 109t50.5 92t32.5 65l12 24l21 -10q-25 -59 -66 -133t-93 -151.5 t-110.5 -151.5t-120 -131t-121 -92t-110.5 -35h-12q-84 8 -146 61q-76 66 -106 197q0 2 -7 47zM459 1309v31l195 199q27 -66 49 -117q18 -43 31.5 -80t11.5 -35h-41h-37l-59 154zM461 1047q35 -12 64.5 -17.5t56.5 -5.5q90 0 133 68q20 35 26.5 68.5t-6.5 56.5 q-12 20 -39 20q-19 0 -37 -6q-27 -10 -80 -59.5t-118 -124.5z" />
<glyph unicode="&#xcb;" horiz-adv-x="722" d="M-97 -39q-7 45 3 115q8 66 42 151.5t120 167.5q78 74 125 116t73.5 63.5t35.5 26.5l9 5l21 12h-10q-20 0 -50 8.5t-49 37.5q-27 41 -38 118.5t18 167.5q14 45 40.5 82t53.5 64v2q-45 23 -92 50.5t-94 61.5h-2l12 17q53 -35 100 -63.5t90 -51.5q20 18 37 31q8 8 17 12 q74 59 145.5 90t130.5 31q27 0 61 -10q47 -14 72 -55.5t17 -88.5q-6 -45 -48.5 -83t-132.5 -38q-74 0 -161 31q-8 -8 -14.5 -15t-12.5 -16v-2l-6 -6q-10 -12 -34 -46t-47.5 -78t-41 -94t-12.5 -97q6 -43 49 -43q37 0 90 23.5t102 53t84 54.5l35 25h2l10 -17l-2 -2 q-27 -20 -57 -43q-29 -20 -64.5 -49t-76.5 -66q-76 -68 -171.5 -171t-168.5 -232q-109 -188 -97 -340q6 -59 23.5 -95t28.5 -48l4 -4q45 -51 114 -46q88 6 215 132q53 53 107.5 119.5t103.5 140.5q37 57 67 109t50.5 92t32.5 65l12 24l21 -10q-25 -59 -66 -133t-93 -151.5 t-110.5 -151.5t-120 -131t-121 -92t-110.5 -35h-12q-84 8 -146 61q-76 66 -106 197q0 2 -7 47zM393 1431q2 33 26.5 56.5t55.5 23.5t48 -23.5t14 -57.5t-27.5 -57.5t-55.5 -23.5t-48 23.5t-13 58.5zM461 1047q35 -12 64.5 -17.5t56.5 -5.5q90 0 133 68q20 35 26.5 68.5 t-6.5 56.5q-12 20 -39 20q-19 0 -37 -6q-27 -10 -80 -59.5t-118 -124.5zM659 1431q2 33 26.5 56.5t55.5 23.5t49.5 -23.5t15.5 -57.5t-29 -57.5t-56 -23.5q-31 0 -48.5 23.5t-13.5 58.5z" />
<glyph unicode="&#xcc;" horiz-adv-x="442" d="M-66 -76q-4 45 3.5 121t26 171t48 207t70.5 228q90 256 201 451q66 115 135 202t143 148h2l45 -47v-2q-29 -31 -55.5 -74t-51 -89t-46 -91t-35.5 -78q-35 -82 -73 -179t-75 -208q-37 -121 -67 -233q-25 -92 -42.5 -178.5t-29.5 -168.5q-37 -229 -27 -354l7 -22 q0 -29 10 -50v-2q-2 0 -12.5 -3t-26.5 -3q-18 0 -42 8.5t-46.5 36t-38.5 76.5t-23 133zM316 1679l49 70l231 -242q-2 -4 -4 -6q-4 -6 -8 -6q-2 0 -44 28.5t-91 63.5q-59 39 -133 92z" />
<glyph unicode="&#xcd;" horiz-adv-x="442" d="M-66 -76q-4 45 3.5 121t26 171t48 207t70.5 228q90 256 201 451q66 115 135 202t143 148h2l45 -47v-2q-29 -31 -55.5 -74t-51 -89t-46 -91t-35.5 -78q-35 -82 -73 -179t-75 -208q-37 -121 -67 -233q-25 -92 -42.5 -178.5t-29.5 -168.5q-37 -229 -27 -354l7 -22 q0 -29 10 -50v-2q-2 0 -12.5 -3t-26.5 -3q-18 0 -42 8.5t-46.5 36t-38.5 76.5t-23 133zM424 1483l231 242l49 -70q-76 -53 -133 -92q-51 -35 -92 -63.5t-43 -28.5q-6 0 -8 6q-2 2 -4 6z" />
<glyph unicode="&#xce;" horiz-adv-x="442" d="M-66 -76q-4 45 3.5 121t26 171t48 207t70.5 228q90 256 201 451q66 115 135 202t143 148h2l45 -47v-2q-29 -31 -55.5 -74t-51 -89t-46 -91t-35.5 -78q-35 -82 -73 -179t-75 -208q-37 -121 -67 -233q-25 -92 -42.5 -178.5t-29.5 -168.5q-37 -229 -27 -354l7 -22 q0 -29 10 -50v-2q-2 0 -12.5 -3t-26.5 -3q-18 0 -42 8.5t-46.5 36t-38.5 76.5t-23 133zM422 1474v31l195 199q27 -66 49 -117q18 -43 31.5 -80t11.5 -35h-41h-37l-59 154z" />
<glyph unicode="&#xcf;" horiz-adv-x="442" d="M-66 -76q-4 45 3.5 121t26 171t48 207t70.5 228q90 256 201 451q66 115 135 202t143 148h2l45 -47v-2q-29 -31 -55.5 -74t-51 -89t-46 -91t-35.5 -78q-35 -82 -73 -179t-75 -208q-37 -121 -67 -233q-25 -92 -42.5 -178.5t-29.5 -168.5q-37 -229 -27 -354l7 -22 q0 -29 10 -50v-2q-2 0 -12.5 -3t-26.5 -3q-18 0 -42 8.5t-46.5 36t-38.5 76.5t-23 133zM303 1556q2 33 26.5 56.5t55.5 23.5t48 -23.5t14 -57.5t-27.5 -57.5t-55.5 -23.5t-48 23.5t-13 58.5zM569 1556q2 33 26.5 56.5t55.5 23.5t49.5 -23.5t15.5 -57.5t-29 -57.5t-56 -23.5 q-31 0 -48.5 23.5t-13.5 58.5z" />
<glyph unicode="&#xd0;" horiz-adv-x="942" d="M-211 621v90h317q31 84 52.5 134t23.5 52l19 41q20 47 55 122t81 151.5t101.5 143t116.5 97.5l45 -47v-2q-6 -8 -13 -15.5t-14 -17.5q55 33 99 33q49 0 88 -45q41 -47 61.5 -132t26.5 -173t3 -165t-9 -110q-23 -135 -53.5 -271t-88.5 -271q-41 -88 -85 -150.5t-78 -101.5 h-2v2q-25 -27 -54.5 -54.5t-61.5 -49t-64.5 -36t-63.5 -14.5q-72 0 -115 78q-33 57 -1 124.5t102.5 137.5t166 137.5t191.5 126.5l6 13q18 49 36.5 126.5t33 169t22.5 187.5t8 181t-10 152.5t-35 100.5q-12 16 -32 16q-16 0 -38 -9t-46 -21l-29 -13q-41 -66 -79 -140.5 t-60 -127.5q-35 -78 -69 -168t-69 -192h349v-90h-377q-27 -82 -49 -170q-23 -92 -41.5 -178.5t-30.5 -168.5q-35 -233 -25 -354q0 -6 4 -22q0 -23 11 -50v-2q-2 0 -12.5 -3t-26.5 -3q-18 0 -42 8.5t-46.5 36t-39 76.5t-22.5 133q-4 61 5.5 137t26.5 157t41 161t46 149l31 93 h-287zM176 -45q6 -27 35 -33q4 0 7 -1t7 -1q35 0 72 27.5t66.5 60.5t50.5 62l20 28l49 68q41 61 74 121.5t61 113.5q-66 -39 -117.5 -73.5t-92.5 -63.5q-53 -41 -97.5 -85t-76 -86t-47 -77.5t-11.5 -60.5z" />
<glyph unicode="&#xd1;" horiz-adv-x="1013" d="M-433 178.5q9 106.5 48 204.5q41 104 101.5 167.5t127.5 80.5h2l11 -15h-2q-14 -4 -31 -12q-14 -8 -32.5 -20.5t-41.5 -32.5q-37 -37 -80 -111.5t-65 -208.5q-35 -205 18 -319q51 -100 156 -131q12 -4 20 -4q53 0 95.5 77.5t75 201.5t57 278.5t43 307.5t30 287t19.5 218 q2 37 4 58.5t4 32.5t3 13l1 2q4 -2 34 -8t64.5 -13t64.5 -12.5t32 -5.5t2 -2q0 -12 5 -60t12 -119.5t18.5 -162t24.5 -185.5t28.5 -190.5t32.5 -175.5q2 -8 9 -39.5t17 -75.5t23.5 -93.5t25 -93.5t21.5 -74.5t16 -36.5q2 0 2 -2q6 0 15.5 14t23.5 56t35.5 121t52.5 208 l25 129v2q20 88 35.5 147.5t31.5 94.5q-47 51 -85 132t-66 193q-14 51 -24.5 99.5t-16.5 85.5t-9 60l-3 22h20q0 -2 4 -33t13.5 -80t23.5 -110.5t34.5 -124t48.5 -121t64 -101.5q31 98 66 185q141 358 303 370q23 6 44.5 10.5t47.5 0.5q12 -2 27.5 -16.5t25.5 -61.5 q10 -49 3 -133t-46 -179q-14 -35 -35.5 -73.5t-53 -75.5t-73.5 -67.5t-96 -49.5q-18 -4 -33.5 -7t-31.5 -3q-12 0 -16 2q-29 -158 -56 -344l-8 -84l-2 -20q-2 -19 -7 -48.5t-12.5 -67.5t-17.5 -77q-14 -47 -28.5 -83t-32.5 -62q-41 -66 -99 -66h-13t-15 2q-63 20 -125 244 q-29 92 -54.5 213t-52.5 274q-31 162 -52 312.5t-32 248.5q-12 -104 -36.5 -253.5t-59.5 -309.5q-72 -311 -164 -493q-100 -221 -235 -232q-4 0 -8.5 -1t-8.5 -1q-90 0 -153 68q-51 57 -70 162q-18 90 -9 196.5zM467 1339l5 17q5 16 19.5 31.5t36 24.5t54.5 -5t66.5 -28.5 t64.5 -24t56.5 -9.5t43.5 15q16 14 18.5 24.5t-3.5 16.5q-8 8 -23 12l2 12q14 -8 25 -18q8 -10 13 -22.5t-5 -28.5q-8 -16 -24.5 -29.5t-43 -20t-65.5 -1t-94 27.5q-55 23 -81 25t-36 -2q-10 -6 -6 -21q-4 2 -11 2q-12 0 -12 2zM922 621q16 0 33.5 2t33.5 10 q92 31 152.5 99.5t94.5 150.5t43 163.5t-1 137.5q-10 53 -33 57q-31 4 -59.5 -3t-50.5 -19q-8 -8 -9 -11q-88 -72 -168 -401q-8 -43 -17 -88t-19 -98z" />
<glyph unicode="&#xd2;" horiz-adv-x="1114" d="M0 115q0 104 21.5 226t64.5 241.5t107.5 230.5t149.5 196t190.5 135t230.5 50q43 0 84 -6t74.5 -24.5t55 -50.5t26.5 -81l16 6q29 -39 37 -89t8 -97q0 -98 -26.5 -221t-76 -251t-120 -250t-157.5 -217t-190.5 -153.5t-218.5 -58.5q-84 0 -138 39t-84.5 100.5t-42 134 t-11.5 140.5zM111 -68q-4 -74 33.5 -129t123.5 -61q68 -2 136.5 43t133 123t121 179t98.5 212t65.5 222.5t23.5 207.5q0 47 -7.5 106.5t-41.5 96.5l176 86q-4 51 -31 92t-84 41q-41 0 -91 -21.5t-98 -54.5t-89 -68.5t-64 -66.5q-74 -92 -144.5 -217t-127 -261t-92 -273.5 t-41.5 -256.5zM600 1458l49 70l231 -242q-2 -4 -4 -6q-4 -6 -8 -6q-2 0 -44 28.5t-91 63.5q-59 39 -133 92z" />
<glyph unicode="&#xd3;" horiz-adv-x="1114" d="M0 115q0 104 21.5 226t64.5 241.5t107.5 230.5t149.5 196t190.5 135t230.5 50q43 0 84 -6t74.5 -24.5t55 -50.5t26.5 -81l16 6q29 -39 37 -89t8 -97q0 -98 -26.5 -221t-76 -251t-120 -250t-157.5 -217t-190.5 -153.5t-218.5 -58.5q-84 0 -138 39t-84.5 100.5t-42 134 t-11.5 140.5zM111 -68q-4 -74 33.5 -129t123.5 -61q68 -2 136.5 43t133 123t121 179t98.5 212t65.5 222.5t23.5 207.5q0 47 -7.5 106.5t-41.5 96.5l176 86q-4 51 -31 92t-84 41q-41 0 -91 -21.5t-98 -54.5t-89 -68.5t-64 -66.5q-74 -92 -144.5 -217t-127 -261t-92 -273.5 t-41.5 -256.5zM797 1253l231 242l49 -70q-76 -53 -133 -92q-51 -35 -92 -63.5t-43 -28.5q-6 0 -8 6q-2 2 -4 6z" />
<glyph unicode="&#xd4;" horiz-adv-x="1114" d="M0 115q0 104 21.5 226t64.5 241.5t107.5 230.5t149.5 196t190.5 135t230.5 50q43 0 84 -6t74.5 -24.5t55 -50.5t26.5 -81l16 6q29 -39 37 -89t8 -97q0 -98 -26.5 -221t-76 -251t-120 -250t-157.5 -217t-190.5 -153.5t-218.5 -58.5q-84 0 -138 39t-84.5 100.5t-42 134 t-11.5 140.5zM111 -68q-4 -74 33.5 -129t123.5 -61q68 -2 136.5 43t133 123t121 179t98.5 212t65.5 222.5t23.5 207.5q0 47 -7.5 106.5t-41.5 96.5l176 86q-4 51 -31 92t-84 41q-41 0 -91 -21.5t-98 -54.5t-89 -68.5t-64 -66.5q-74 -92 -144.5 -217t-127 -261t-92 -273.5 t-41.5 -256.5zM641 1282v31l195 199q27 -66 49 -117q18 -43 31.5 -80t11.5 -35h-41h-37l-59 154z" />
<glyph unicode="&#xd5;" horiz-adv-x="1114" d="M0 115q0 104 21.5 226t64.5 241.5t107.5 230.5t149.5 196t190.5 135t230.5 50q43 0 84 -6t74.5 -24.5t55 -50.5t26.5 -81l16 6q29 -39 37 -89t8 -97q0 -98 -26.5 -221t-76 -251t-120 -250t-157.5 -217t-190.5 -153.5t-218.5 -58.5q-84 0 -138 39t-84.5 100.5t-42 134 t-11.5 140.5zM111 -68q-4 -74 33.5 -129t123.5 -61q68 -2 136.5 43t133 123t121 179t98.5 212t65.5 222.5t23.5 207.5q0 47 -7.5 106.5t-41.5 96.5l176 86q-4 51 -31 92t-84 41q-41 0 -91 -21.5t-98 -54.5t-89 -68.5t-64 -66.5q-74 -92 -144.5 -217t-127 -261t-92 -273.5 t-41.5 -256.5zM655 1292l5 17q5 16 19.5 31.5t36 24.5t54.5 -5t66.5 -28.5t64.5 -24t56.5 -9.5t43.5 15q16 14 18.5 24.5t-3.5 16.5q-8 8 -23 12l2 12q14 -8 25 -18q8 -10 13 -22.5t-5 -28.5q-8 -16 -24.5 -29.5t-43 -20t-65.5 -1t-94 27.5q-55 23 -81 25t-36 -2 q-10 -6 -6 -21q-4 2 -11 2q-12 0 -12 2z" />
<glyph unicode="&#xd6;" horiz-adv-x="1114" d="M0 115q0 104 21.5 226t64.5 241.5t107.5 230.5t149.5 196t190.5 135t230.5 50q43 0 84 -6t74.5 -24.5t55 -50.5t26.5 -81l16 6q29 -39 37 -89t8 -97q0 -98 -26.5 -221t-76 -251t-120 -250t-157.5 -217t-190.5 -153.5t-218.5 -58.5q-84 0 -138 39t-84.5 100.5t-42 134 t-11.5 140.5zM111 -68q-4 -74 33.5 -129t123.5 -61q68 -2 136.5 43t133 123t121 179t98.5 212t65.5 222.5t23.5 207.5q0 47 -7.5 106.5t-41.5 96.5l176 86q-4 51 -31 92t-84 41q-41 0 -91 -21.5t-98 -54.5t-89 -68.5t-64 -66.5q-74 -92 -144.5 -217t-127 -261t-92 -273.5 t-41.5 -256.5zM598 1343q2 33 26.5 56.5t55.5 23.5t48 -23.5t14 -57.5t-27.5 -57.5t-55.5 -23.5t-48 23.5t-13 58.5zM864 1343q2 33 26.5 56.5t55.5 23.5t49.5 -23.5t15.5 -57.5t-29 -57.5t-56 -23.5q-31 0 -48.5 23.5t-13.5 58.5z" />
<glyph unicode="&#xd8;" horiz-adv-x="1114" d="M0 115q0 104 21.5 226t64.5 241.5t107.5 230.5t149.5 196t190.5 135t230.5 50q43 0 84 -6t74.5 -24.5t55 -50.5t26.5 -81l16 6q29 -39 37 -89t8 -97q0 -98 -26.5 -221t-76 -251t-120 -250t-157.5 -217t-190.5 -153.5t-218.5 -58.5q-84 0 -138 39t-84.5 100.5t-42 134 t-11.5 140.5zM111 -68q-4 -74 33.5 -129t123.5 -61q68 -2 136.5 43t133 123t121 179t98.5 212t65.5 222.5t23.5 207.5q0 47 -7.5 106.5t-41.5 96.5l176 86q-4 51 -31 92t-84 41q-41 0 -91 -21.5t-98 -54.5t-89 -68.5t-64 -66.5q-74 -92 -144.5 -217t-127 -261t-92 -273.5 t-41.5 -256.5zM148 -259l693 1458l95 -46l-695 -1457z" />
<glyph unicode="&#xd9;" horiz-adv-x="925" d="M-2.5 141.5q4.5 110.5 22 219t41 202.5t41.5 152q31 100 65 191t67.5 162t64.5 117t55 58l166 -113q-92 -152 -166.5 -338t-122.5 -376q-47 -193 -52 -340.5t30 -225.5q29 -66 86 -75q6 -2 22 -2q51 0 108.5 40t119.5 115q57 72 108.5 166t91.5 199q43 115 71 231.5 t40 220t9 182.5t-21 117l-2 3h2q12 6 22 6q48 0 52 -131q0 -61 -10.5 -144.5t-30.5 -177.5q-25 -100 -57 -198.5t-70 -186.5q-88 -209 -199 -328q-125 -139 -260 -143q-29 -6 -55 -6q-172 0 -220 201q-23 92 -18.5 202.5zM437 1360l49 70l231 -242q-2 -4 -4 -6q-4 -6 -8 -6 q-2 0 -44 28.5t-91 63.5q-59 39 -133 92z" />
<glyph unicode="&#xda;" horiz-adv-x="925" d="M-2.5 141.5q4.5 110.5 22 219t41 202.5t41.5 152q31 100 65 191t67.5 162t64.5 117t55 58l166 -113q-92 -152 -166.5 -338t-122.5 -376q-47 -193 -52 -340.5t30 -225.5q29 -66 86 -75q6 -2 22 -2q51 0 108.5 40t119.5 115q57 72 108.5 166t91.5 199q43 115 71 231.5 t40 220t9 182.5t-21 117l-2 3h2q12 6 22 6q48 0 52 -131q0 -61 -10.5 -144.5t-30.5 -177.5q-25 -100 -57 -198.5t-70 -186.5q-88 -209 -199 -328q-125 -139 -260 -143q-29 -6 -55 -6q-172 0 -220 201q-23 92 -18.5 202.5zM641 1161l231 242l49 -70q-76 -53 -133 -92 q-51 -35 -92 -63.5t-43 -28.5q-6 0 -8 6q-2 2 -4 6z" />
<glyph unicode="&#xdb;" horiz-adv-x="925" d="M-2.5 141.5q4.5 110.5 22 219t41 202.5t41.5 152q31 100 65 191t67.5 162t64.5 117t55 58l166 -113q-92 -152 -166.5 -338t-122.5 -376q-47 -193 -52 -340.5t30 -225.5q29 -66 86 -75q6 -2 22 -2q51 0 108.5 40t119.5 115q57 72 108.5 166t91.5 199q43 115 71 231.5 t40 220t9 182.5t-21 117l-2 3h2q12 6 22 6q48 0 52 -131q0 -61 -10.5 -144.5t-30.5 -177.5q-25 -100 -57 -198.5t-70 -186.5q-88 -209 -199 -328q-125 -139 -260 -143q-29 -6 -55 -6q-172 0 -220 201q-23 92 -18.5 202.5zM590 1241v31l195 199q27 -66 49 -117 q18 -43 31.5 -80t11.5 -35h-41h-37l-59 154z" />
<glyph unicode="&#xdc;" horiz-adv-x="925" d="M-2.5 141.5q4.5 110.5 22 219t41 202.5t41.5 152q31 100 65 191t67.5 162t64.5 117t55 58l166 -113q-92 -152 -166.5 -338t-122.5 -376q-47 -193 -52 -340.5t30 -225.5q29 -66 86 -75q6 -2 22 -2q51 0 108.5 40t119.5 115q57 72 108.5 166t91.5 199q43 115 71 231.5 t40 220t9 182.5t-21 117l-2 3h2q12 6 22 6q48 0 52 -131q0 -61 -10.5 -144.5t-30.5 -177.5q-25 -100 -57 -198.5t-70 -186.5q-88 -209 -199 -328q-125 -139 -260 -143q-29 -6 -55 -6q-172 0 -220 201q-23 92 -18.5 202.5zM563 1382q2 33 26.5 56.5t55.5 23.5t48 -23.5 t14 -57.5t-27.5 -57.5t-55.5 -23.5t-48 23.5t-13 58.5zM829 1382q2 33 26.5 56.5t55.5 23.5t49.5 -23.5t15.5 -57.5t-29 -57.5t-56 -23.5q-31 0 -48.5 23.5t-13.5 58.5z" />
<glyph unicode="&#xdd;" horiz-adv-x="931" d="M3 1083q1 37 3 64q2 31 6 53h19l-3 -28q-3 -29 -4 -72t3 -94.5t20 -96.5q23 -66 60.5 -105.5t62.5 -55.5q10 104 38 215.5t62 197.5q2 14 11 29q4 12 13 27.5t19 31.5q20 31 53 60.5t80 29.5q10 0 31 -4q57 -14 74 -116q10 -57 0 -128t-35 -139q-29 -76 -69.5 -132 t-92.5 -85q-10 -8 -22.5 -13t-24.5 -9q-23 -166 3 -267.5t93 -113.5h11q57 0 151 104q25 100 47.5 199.5t42 191t33.5 169t25 132.5q16 74 19 90.5t5 16.5q4 -2 34 -8t63.5 -13.5t62.5 -13.5t33 -6q0 -6 -13.5 -70.5t-38 -167t-60.5 -232.5t-81 -267q-104 -311 -213 -494 q-137 -223 -270 -229h-10q-72 0 -106 35.5t-48 72.5q-18 51 -14 112.5t24.5 122t55 115t82.5 91.5v2l10 -15v-2q-23 -18 -47.5 -48t-46 -67.5t-37 -80.5t-19.5 -86q-8 -57 2.5 -104.5t32.5 -76.5q35 -41 88 -45q76 -6 135 93q53 86 102.5 223t92.5 297q-78 -59 -150 -64 q-10 -2 -21 -2h-22q-76 0 -120 49q-29 31 -44.5 76t-22.5 95.5t-7 101.5t4 96q-37 20 -66.5 55t-49 74t-32 78t-14.5 67q-4 47 -3 84zM311 733q4 2 23.5 11.5t45.5 31t52.5 55t48.5 84.5q16 37 30.5 88.5t22 104.5t3 101t-24.5 81l-47 -94h2v-2q-6 -10 -11 -19.5t-10 -19.5 l-6 -12q-47 -96 -79.5 -200.5t-49.5 -209.5zM627 1309l231 242l49 -70q-76 -53 -133 -92q-51 -35 -92 -63.5t-43 -28.5q-6 0 -8 6q-2 2 -4 6zM944 1159l2 6v-8z" />
<glyph unicode="&#xdf;" horiz-adv-x="987" d="M-527.5 -74.5q9.5 60.5 32 124t51.5 120.5q41 86 108.5 150.5t130.5 107.5q74 51 156 88l4 -8l4 -8t4 -6t-24.5 -10.5t-70.5 -33t-102.5 -72.5t-119.5 -130t-101.5 -165t-49.5 -155.5t15.5 -129t90.5 -85.5q43 -18 88 18t86 101.5t75.5 146t59 152.5t38 121t11.5 49l4 -2 q16 59 33.5 117.5t34.5 111.5q25 76 49 142.5t42.5 117t31.5 80.5l12 29h2l12 27q25 59 69 149t100.5 174t123 144.5t137.5 60.5h4q74 -2 101 -57q14 -27 16 -62t-3 -72.5t-15.5 -76.5t-22.5 -72q-33 -92 -74 -169t-71 -122q-29 -43 -54.5 -74.5t-48.5 -56.5q20 12 44 23.5 t51 21.5q29 10 69.5 15.5t83.5 5.5q119 0 154 -39q53 -63 39 -195l-4 -28q-18 -119 -80 -258q-39 -88 -84 -150.5t-80 -101.5l-2 2q-25 -27 -54.5 -54.5t-61.5 -49t-64.5 -36t-63.5 -14.5q-68 0 -115 78q-33 57 -1 124.5t102.5 137.5t166 137.5t191.5 126.5q94 201 64 264 q-12 20 -35 27q-16 4 -34.5 6t-39.5 2q-43 0 -85 -9t-80 -22.5t-69.5 -27.5t-52.5 -27q-12 -12 -22 -20t-17 -13q-8 -6 -14 -8h-2l-4 17l30 23q29 24 72 72t93.5 123t95.5 177t62.5 172t19.5 113t-4 61l-6 18q-20 45 -56 46q-33 0 -71.5 -43.5t-74.5 -102.5t-66.5 -122.5 t-49.5 -106.5q-72 -172 -122 -338t-91 -314.5t-77 -276.5t-78 -224.5t-96 -155.5t-130 -70q-106 -16 -172.5 -1.5t-102.5 50t-45.5 88t0 113zM274 -45q6 -27 35 -33q4 0 7 -1t8 -1q35 0 71.5 27.5t66.5 60.5t50 62l20 28l50 68q41 61 73.5 121.5t61.5 113.5 q-66 -39 -118 -73.5t-91 -63.5q-53 -41 -98 -85t-77 -86t-47.5 -77.5t-11.5 -60.5z" />
<glyph unicode="&#xe0;" d="M-4 276q4 104 57 207q37 70 81 110t86 60.5t78 26.5t58 6q47 0 84 -12q39 -16 47 -47q6 -18 5.5 -40t-5.5 -38q-6 -20 -12 -39v-2l-20 6v2q2 0 13 31t3 63q-10 33 -43 49q-12 6 -27 7q-33 0 -71.5 -29t-75.5 -74t-67.5 -103.5t-45.5 -115.5q-23 -92 -19.5 -162.5 t32.5 -105.5q10 -14 24.5 -23.5t30.5 -5.5q47 8 64.5 32.5t35.5 59.5q2 33 13.5 80t28 97.5t32.5 99.5t29 86l2 2l135 -66q-31 -78 -60.5 -157.5t-49 -146t-25.5 -113t6 -58.5q16 -16 55 18.5t83 96t85 137.5t66 145l18 -12v-2q-4 -10 -19.5 -48t-41 -88t-59.5 -103.5 t-70.5 -95.5t-76.5 -65.5t-77 -11.5q-41 12 -56.5 57.5t-17.5 102.5q-10 -16 -33.5 -43.5t-76.5 -34.5q-4 0 -9.5 -1t-11.5 -1q-45 0 -83 26t-66 73q-18 35 -26.5 75.5t-6.5 87.5zM201 940l49 70l231 -242q-2 -4 -4 -6q-4 -6 -8 -6q-2 0 -44 28.5t-91 63.5q-59 39 -133 92z " />
<glyph unicode="&#xe1;" d="M-4 276q4 104 57 207q37 70 81 110t86 60.5t78 26.5t58 6q47 0 84 -12q39 -16 47 -47q6 -18 5.5 -40t-5.5 -38q-6 -20 -12 -39v-2l-20 6v2q2 0 13 31t3 63q-10 33 -43 49q-12 6 -27 7q-33 0 -71.5 -29t-75.5 -74t-67.5 -103.5t-45.5 -115.5q-23 -92 -19.5 -162.5 t32.5 -105.5q10 -14 24.5 -23.5t30.5 -5.5q47 8 64.5 32.5t35.5 59.5q2 33 13.5 80t28 97.5t32.5 99.5t29 86l2 2l135 -66q-31 -78 -60.5 -157.5t-49 -146t-25.5 -113t6 -58.5q16 -16 55 18.5t83 96t85 137.5t66 145l18 -12v-2q-4 -10 -19.5 -48t-41 -88t-59.5 -103.5 t-70.5 -95.5t-76.5 -65.5t-77 -11.5q-41 12 -56.5 57.5t-17.5 102.5q-10 -16 -33.5 -43.5t-76.5 -34.5q-4 0 -9.5 -1t-11.5 -1q-45 0 -83 26t-66 73q-18 35 -26.5 75.5t-6.5 87.5zM201 768l231 242l49 -70q-76 -53 -133 -92q-51 -35 -92 -63.5t-43 -28.5q-6 0 -8 6 q-2 2 -4 6z" />
<glyph unicode="&#xe2;" d="M-4 276q4 104 57 207q37 70 81 110t86 60.5t78 26.5t58 6q47 0 84 -12q39 -16 47 -47q6 -18 5.5 -40t-5.5 -38q-6 -20 -12 -39v-2l-20 6v2q2 0 13 31t3 63q-10 33 -43 49q-12 6 -27 7q-33 0 -71.5 -29t-75.5 -74t-67.5 -103.5t-45.5 -115.5q-23 -92 -19.5 -162.5 t32.5 -105.5q10 -14 24.5 -23.5t30.5 -5.5q47 8 64.5 32.5t35.5 59.5q2 33 13.5 80t28 97.5t32.5 99.5t29 86l2 2l135 -66q-31 -78 -60.5 -157.5t-49 -146t-25.5 -113t6 -58.5q16 -16 55 18.5t83 96t85 137.5t66 145l18 -12v-2q-4 -10 -19.5 -48t-41 -88t-59.5 -103.5 t-70.5 -95.5t-76.5 -65.5t-77 -11.5q-41 12 -56.5 57.5t-17.5 102.5q-10 -16 -33.5 -43.5t-76.5 -34.5q-4 0 -9.5 -1t-11.5 -1q-45 0 -83 26t-66 73q-18 35 -26.5 75.5t-6.5 87.5zM194 903v31l195 199q27 -66 49 -117q18 -43 31.5 -80t11.5 -35h-41h-37l-59 154z" />
<glyph unicode="&#xe3;" d="M-4 276q4 104 57 207q37 70 81 110t86 60.5t78 26.5t58 6q47 0 84 -12q39 -16 47 -47q6 -18 5.5 -40t-5.5 -38q-6 -20 -12 -39v-2l-20 6v2q2 0 13 31t3 63q-10 33 -43 49q-12 6 -27 7q-33 0 -71.5 -29t-75.5 -74t-67.5 -103.5t-45.5 -115.5q-23 -92 -19.5 -162.5 t32.5 -105.5q10 -14 24.5 -23.5t30.5 -5.5q47 8 64.5 32.5t35.5 59.5q2 33 13.5 80t28 97.5t32.5 99.5t29 86l2 2l135 -66q-31 -78 -60.5 -157.5t-49 -146t-25.5 -113t6 -58.5q16 -16 55 18.5t83 96t85 137.5t66 145l18 -12v-2q-4 -10 -19.5 -48t-41 -88t-59.5 -103.5 t-70.5 -95.5t-76.5 -65.5t-77 -11.5q-41 12 -56.5 57.5t-17.5 102.5q-10 -16 -33.5 -43.5t-76.5 -34.5q-4 0 -9.5 -1t-11.5 -1q-45 0 -83 26t-66 73q-18 35 -26.5 75.5t-6.5 87.5zM143 821l5 17q5 16 19.5 31.5t36 24.5t54.5 -5t66.5 -28.5t64.5 -24t56.5 -9.5t43.5 15 q16 14 18.5 24.5t-3.5 16.5q-8 8 -23 12l2 12q14 -8 25 -18q8 -10 13 -22.5t-5 -28.5q-8 -16 -24.5 -29.5t-43 -20t-65.5 -1t-94 27.5q-55 23 -81 25t-36 -2q-10 -6 -6 -21q-4 2 -11 2q-12 0 -12 2z" />
<glyph unicode="&#xe4;" d="M-4 276q4 104 57 207q37 70 81 110t86 60.5t78 26.5t58 6q47 0 84 -12q39 -16 47 -47q6 -18 5.5 -40t-5.5 -38q-6 -20 -12 -39v-2l-20 6v2q2 0 13 31t3 63q-10 33 -43 49q-12 6 -27 7q-33 0 -71.5 -29t-75.5 -74t-67.5 -103.5t-45.5 -115.5q-23 -92 -19.5 -162.5 t32.5 -105.5q10 -14 24.5 -23.5t30.5 -5.5q47 8 64.5 32.5t35.5 59.5q2 33 13.5 80t28 97.5t32.5 99.5t29 86l2 2l135 -66q-31 -78 -60.5 -157.5t-49 -146t-25.5 -113t6 -58.5q16 -16 55 18.5t83 96t85 137.5t66 145l18 -12v-2q-4 -10 -19.5 -48t-41 -88t-59.5 -103.5 t-70.5 -95.5t-76.5 -65.5t-77 -11.5q-41 12 -56.5 57.5t-17.5 102.5q-10 -16 -33.5 -43.5t-76.5 -34.5q-4 0 -9.5 -1t-11.5 -1q-45 0 -83 26t-66 73q-18 35 -26.5 75.5t-6.5 87.5zM137 1120q2 33 26.5 56.5t55.5 23.5t48 -23.5t14 -57.5t-27.5 -57.5t-55.5 -23.5t-48 23.5 t-13 58.5zM403 1120q2 33 26.5 56.5t55.5 23.5t49.5 -23.5t15.5 -57.5t-29 -57.5t-56 -23.5q-31 0 -48.5 23.5t-13.5 58.5z" />
<glyph unicode="&#xe5;" d="M-4 276q4 104 57 207q37 70 81 110t86 60.5t78 26.5t58 6q47 0 84 -12q39 -16 47 -47q6 -18 5.5 -40t-5.5 -38q-6 -20 -12 -39v-2l-20 6v2q2 0 13 31t3 63q-10 33 -43 49q-12 6 -27 7q-33 0 -71.5 -29t-75.5 -74t-67.5 -103.5t-45.5 -115.5q-23 -92 -19.5 -162.5 t32.5 -105.5q10 -14 24.5 -23.5t30.5 -5.5q47 8 64.5 32.5t35.5 59.5q2 33 13.5 80t28 97.5t32.5 99.5t29 86l2 2l135 -66q-31 -78 -60.5 -157.5t-49 -146t-25.5 -113t6 -58.5q16 -16 55 18.5t83 96t85 137.5t66 145l18 -12v-2q-4 -10 -19.5 -48t-41 -88t-59.5 -103.5 t-70.5 -95.5t-76.5 -65.5t-77 -11.5q-41 12 -56.5 57.5t-17.5 102.5q-10 -16 -33.5 -43.5t-76.5 -34.5q-4 0 -9.5 -1t-11.5 -1q-45 0 -83 26t-66 73q-18 35 -26.5 75.5t-6.5 87.5zM213 1139q0 53 37.5 92t91.5 39q53 0 92 -39t39 -92t-39 -91t-92 -38t-91 38t-38 91z M286 1137q0 -23 17.5 -40.5t40.5 -17.5t40 17.5t17 40.5t-17.5 40t-39.5 17q-23 0 -40.5 -17t-17.5 -40z" />
<glyph unicode="&#xe6;" horiz-adv-x="1222" d="M-4 276q4 104 57 207q37 70 81 110t86 60.5t78 26.5t58 6q47 0 84 -12q39 -16 47 -47q6 -18 5.5 -40t-5.5 -38q-6 -20 -12 -39v-2l-20 6v2q2 0 13 31t3 63q-10 33 -43 49q-12 6 -27 7q-33 0 -71.5 -29t-75.5 -74t-67.5 -103.5t-45.5 -115.5q-23 -92 -19.5 -162.5 t32.5 -105.5q10 -14 24.5 -23.5t30.5 -5.5q47 8 64.5 32.5t35.5 59.5q2 33 13.5 80t28 97.5t32.5 99.5t29 86l2 2l135 -66q-31 -78 -60.5 -157.5t-49 -146t-25.5 -113t6 -58.5q16 -16 55 18.5t83 96t85 137.5t66 145l18 -12v-2q-4 -10 -19.5 -48t-41 -88t-59.5 -103.5 t-70.5 -95.5t-76.5 -65.5t-77 -11.5q-41 12 -56.5 57.5t-17.5 102.5q-10 -16 -33.5 -43.5t-76.5 -34.5q-4 0 -9.5 -1t-11.5 -1q-45 0 -83 26t-66 73q-18 35 -26.5 75.5t-6.5 87.5zM655.5 300q8.5 85 39 166t67.5 128q68 90 149 90q25 0 47 -8q55 -23 97.5 -63t60.5 -89 q25 -78 -14 -147q-18 -31 -45 -53.5t-56 -38.5q-31 -16 -61.5 -22.5t-56.5 -6.5q-59 0 -82 29q-29 -92 -18.5 -145.5t36 -80t56 -33t42.5 -1.5q74 18 133.5 64t105.5 103.5t77 119t43 108.5l22 -12q-10 -33 -34.5 -84.5t-62.5 -104.5t-87 -102t-105.5 -81t-120 -37 t-128.5 30q-70 37 -91.5 111.5t-13 159.5zM813 318.5q-2 -25.5 21 -25.5q27 0 74.5 37t88.5 116l14.5 29t18.5 44.5t12 45t-2 33.5q-2 6 -12 10q-12 8 -37.5 -12.5t-55.5 -55t-57.5 -77.5t-45 -81t-19.5 -63.5z" />
<glyph unicode="&#xe7;" horiz-adv-x="641" d="M-46 139q-1 64 11 129q16 78 46 151t73 132q98 131 227 160q39 8 84 8q53 0 90 -12q33 -12 50 -43q8 -18 9 -40t-2 -40.5t-8 -29.5l-4 -11v-2l-18 8l4 19q4 18 3 41.5t-11 47t-37 35.5q-6 4 -20 4q-35 0 -82 -41t-101 -118q-70 -100 -109.5 -206t-60.5 -235 q-29 -174 19 -229q20 -27 59 -27q14 0 37 6q39 10 80 40t82 72t79 89t70 90q35 47 63.5 93t51.5 81q25 41 47 78v2l21 -16h-2q-82 -129 -149 -226.5t-128 -168.5q-72 -82 -133.5 -120t-120.5 -38h-13t-14 2q-45 6 -65 22q-84 53 -115 174q-12 55 -13 119zM142 -242 q2 18 10 28.5t18 16.5q10 8 27 11l-12 22q6 0 14 -2q14 -4 14 -2l4 -16q2 -8 7 -19q-18 -2 -31 -8q-10 -4 -20.5 -14.5t-8.5 -24.5q2 -29 33 -42t53 -5q18 6 23 29q2 10 -2 22l47 8q6 -23 2 -43q-4 -16 -17.5 -31.5t-42.5 -19.5q-31 -4 -53 2t-37.5 19.5t-22.5 32t-5 36.5z " />
<glyph unicode="&#xe8;" horiz-adv-x="538" d="M-28.5 300q8.5 85 39 166t67.5 128q68 90 149 90q25 0 47 -8q55 -23 97.5 -63t60.5 -89q25 -78 -14 -147q-18 -31 -45 -53.5t-56 -38.5q-31 -16 -61.5 -22.5t-56.5 -6.5q-59 0 -82 29q-29 -92 -18.5 -145.5t36 -80t56 -33t42.5 -1.5q74 18 133.5 64t105.5 103.5t77 119 t43 108.5l22 -12q-10 -33 -34.5 -84.5t-62.5 -104.5t-87 -102t-105.5 -81t-120 -37t-128.5 30q-70 37 -91.5 111.5t-13 159.5zM129 318.5q-2 -25.5 21 -25.5q27 0 74.5 37t88.5 116l14.5 29t18.5 44.5t12 45t-2 33.5q-2 6 -12 10q-12 8 -37.5 -12.5t-55.5 -55t-57.5 -77.5 t-45 -81t-19.5 -63.5zM129 940l49 70l231 -242q-2 -4 -4 -6q-4 -6 -8 -6q-2 0 -44 28.5t-91 63.5q-59 39 -133 92z" />
<glyph unicode="&#xe9;" horiz-adv-x="538" d="M-28.5 300q8.5 85 39 166t67.5 128q68 90 149 90q25 0 47 -8q55 -23 97.5 -63t60.5 -89q25 -78 -14 -147q-18 -31 -45 -53.5t-56 -38.5q-31 -16 -61.5 -22.5t-56.5 -6.5q-59 0 -82 29q-29 -92 -18.5 -145.5t36 -80t56 -33t42.5 -1.5q74 18 133.5 64t105.5 103.5t77 119 t43 108.5l22 -12q-10 -33 -34.5 -84.5t-62.5 -104.5t-87 -102t-105.5 -81t-120 -37t-128.5 30q-70 37 -91.5 111.5t-13 159.5zM129 318.5q-2 -25.5 21 -25.5q27 0 74.5 37t88.5 116l14.5 29t18.5 44.5t12 45t-2 33.5q-2 6 -12 10q-12 8 -37.5 -12.5t-55.5 -55t-57.5 -77.5 t-45 -81t-19.5 -63.5zM129 768l231 242l49 -70q-76 -53 -133 -92q-51 -35 -92 -63.5t-43 -28.5q-6 0 -8 6q-2 2 -4 6z" />
<glyph unicode="&#xea;" horiz-adv-x="538" d="M-28.5 300q8.5 85 39 166t67.5 128q68 90 149 90q25 0 47 -8q55 -23 97.5 -63t60.5 -89q25 -78 -14 -147q-18 -31 -45 -53.5t-56 -38.5q-31 -16 -61.5 -22.5t-56.5 -6.5q-59 0 -82 29q-29 -92 -18.5 -145.5t36 -80t56 -33t42.5 -1.5q74 18 133.5 64t105.5 103.5t77 119 t43 108.5l22 -12q-10 -33 -34.5 -84.5t-62.5 -104.5t-87 -102t-105.5 -81t-120 -37t-128.5 30q-70 37 -91.5 111.5t-13 159.5zM123 903v31l195 199q27 -66 49 -117q18 -43 31.5 -80t11.5 -35h-41h-37l-59 154zM129 318.5q-2 -25.5 21 -25.5q27 0 74.5 37t88.5 116l14.5 29 t18.5 44.5t12 45t-2 33.5q-2 6 -12 10q-12 8 -37.5 -12.5t-55.5 -55t-57.5 -77.5t-45 -81t-19.5 -63.5z" />
<glyph unicode="&#xeb;" horiz-adv-x="538" d="M-28.5 300q8.5 85 39 166t67.5 128q68 90 149 90q25 0 47 -8q55 -23 97.5 -63t60.5 -89q25 -78 -14 -147q-18 -31 -45 -53.5t-56 -38.5q-31 -16 -61.5 -22.5t-56.5 -6.5q-59 0 -82 29q-29 -92 -18.5 -145.5t36 -80t56 -33t42.5 -1.5q74 18 133.5 64t105.5 103.5t77 119 t43 108.5l22 -12q-10 -33 -34.5 -84.5t-62.5 -104.5t-87 -102t-105.5 -81t-120 -37t-128.5 30q-70 37 -91.5 111.5t-13 159.5zM63 872q2 33 26.5 56.5t55.5 23.5t48 -23.5t14 -57.5t-27.5 -57.5t-55.5 -23.5t-48 23.5t-13 58.5zM129 318.5q-2 -25.5 21 -25.5q27 0 74.5 37 t88.5 116l14.5 29t18.5 44.5t12 45t-2 33.5q-2 6 -12 10q-12 8 -37.5 -12.5t-55.5 -55t-57.5 -77.5t-45 -81t-19.5 -63.5zM329 872q2 33 26.5 56.5t55.5 23.5t49.5 -23.5t15.5 -57.5t-29 -57.5t-56 -23.5q-31 0 -48.5 23.5t-13.5 58.5z" />
<glyph unicode="&#xec;" horiz-adv-x="339" d="M-19 211q-1 41 1 80t6 67q10 82 29.5 158t41.5 121h2l142 -74q-82 -211 -107 -358q-12 -70 -13 -117t21 -57q31 -12 76 31.5t87 107t73 126t35 87.5l18 -10q-10 -33 -39.5 -95.5t-72.5 -125t-93.5 -108.5t-97.5 -44q-4 0 -10 1t-10 1q-41 10 -64 57q-14 31 -19 71t-6 81z M31 940l49 70l231 -242q-2 -4 -4 -6q-4 -6 -8 -6q-2 0 -44 28.5t-91 63.5q-59 39 -133 92z" />
<glyph unicode="&#xed;" horiz-adv-x="339" d="M-19 211q-1 41 1 80t6 67q10 82 29.5 158t41.5 121h2l142 -74q-82 -211 -107 -358q-12 -70 -13 -117t21 -57q31 -12 76 31.5t87 107t73 126t35 87.5l18 -10q-10 -33 -39.5 -95.5t-72.5 -125t-93.5 -108.5t-97.5 -44q-4 0 -10 1t-10 1q-41 10 -64 57q-14 31 -19 71t-6 81z M31 768l231 242l49 -70q-76 -53 -133 -92q-51 -35 -92 -63.5t-43 -28.5q-6 0 -8 6q-2 2 -4 6z" />
<glyph unicode="&#xee;" horiz-adv-x="339" d="M-19 211q-1 41 1 80t6 67q10 82 29.5 158t41.5 121h2l142 -74q-82 -211 -107 -358q-12 -70 -13 -117t21 -57q31 -12 76 31.5t87 107t73 126t35 87.5l18 -10q-10 -33 -39.5 -95.5t-72.5 -125t-93.5 -108.5t-97.5 -44q-4 0 -10 1t-10 1q-41 10 -64 57q-14 31 -19 71t-6 81z M24 903v31l195 199q27 -66 49 -117q18 -43 31.5 -80t11.5 -35h-41h-37l-59 154z" />
<glyph unicode="&#xef;" horiz-adv-x="339" d="M-35 856q2 33 26.5 56.5t55.5 23.5t48 -23.5t14 -57.5t-27.5 -57.5t-55.5 -23.5t-48 23.5t-13 58.5zM-19 211q-1 41 1 80t6 67q10 82 29.5 158t41.5 121h2l142 -74q-82 -211 -107 -358q-12 -70 -13 -117t21 -57q31 -12 76 31.5t87 107t73 126t35 87.5l18 -10 q-10 -33 -39.5 -95.5t-72.5 -125t-93.5 -108.5t-97.5 -44q-4 0 -10 1t-10 1q-41 10 -64 57q-14 31 -19 71t-6 81zM231 856q2 33 26.5 56.5t55.5 23.5t49.5 -23.5t15.5 -57.5t-29 -57.5t-56 -23.5q-31 0 -48.5 23.5t-13.5 58.5z" />
<glyph unicode="&#xf1;" horiz-adv-x="751" d="M-37 168q0 106 16.5 226t46 246t60.5 237h2q29 -12 71 -27.5t95 -36.5v-2l-31 -96q-16 -49 -29.5 -99.5t-25.5 -99.5q25 47 57.5 90t69.5 80q66 66 131.5 101.5t118.5 35.5q33 0 53 -10q57 -25 78 -76q12 -33 8 -71.5t-16.5 -78.5t-29.5 -79t-32 -70l-10 -22l-14 -29 q-41 -84 -81 -173t-63.5 -168t-22.5 -137.5t44 -80.5q6 -4 18 -4q31 0 67 39t70.5 96t67.5 125t58.5 125t41 96t15.5 41v2l16 -4v-2q-14 -39 -33 -84q-16 -39 -36.5 -87t-43.5 -97q-133 -272 -223 -273h-2q-61 4 -94 47q-35 49 -34 138.5t22.5 194t55.5 212t62 191.5l27 84 q8 23 11 37t5 24q6 31 -6 47q-12 12 -30 12q-37 0 -91.5 -35.5t-107.5 -95.5q-31 -35 -77 -102.5t-83 -169.5q-27 -119 -40 -217t-9 -162q0 -10 1 -19.5t3 -19.5v-2h-2l-98 23q-27 74 -27 180zM168 997l5 17q5 16 19.5 31.5t36 24.5t54.5 -5t66.5 -28.5t64.5 -24t56.5 -9.5 t43.5 15q16 14 18.5 24.5t-3.5 16.5q-8 8 -23 12l2 12q14 -8 25 -18q8 -10 13 -22.5t-5 -28.5q-8 -16 -24.5 -29.5t-43 -20t-65.5 -1t-94 27.5q-55 23 -81 25t-36 -2q-10 -6 -6 -21q-4 2 -11 2q-12 0 -12 2z" />
<glyph unicode="&#xf2;" horiz-adv-x="671" d="M4 252q0 53 9.5 104.5t27.5 89.5q31 68 71 109t80.5 61.5t76.5 26.5t59 6t44 -4t40 -10q45 -14 57 -60l8 3q20 -18 32.5 -55.5t13.5 -84.5t-9 -101t-31 -110l-8 -20t-8 -21q39 -4 76 17.5t71.5 55.5t63.5 75t49.5 76.5t32.5 60.5l12 25l19 -15q-2 -4 -27 -51t-67 -105.5 t-99 -107.5t-125 -55q-4 0 -8 1t-8 1q-45 -88 -105.5 -136t-128.5 -51q-8 0 -14 -1t-14 -1q-92 0 -142 80q-23 35 -36 86.5t-13 110.5zM133 151.5q8 -67.5 37 -104.5q25 -33 59 -39h15q29 0 52 15.5t40.5 38t30 48t20.5 46.5l10 34q-45 35 -64.5 83.5t-23.5 82.5 q-10 49 -5.5 92.5t18.5 59.5q16 20 31.5 25.5t29.5 3.5l68 30q-12 35 -52 54q-12 6 -24 6q-33 0 -70 -29t-69.5 -74t-58 -103.5t-36.5 -115.5q-16 -86 -8 -153.5zM195 940l49 70l231 -242q-2 -4 -4 -6q-4 -6 -8 -6q-2 0 -44 28.5t-91 63.5q-59 39 -133 92zM326 445.5 q-4 -38.5 4 -85.5q6 -29 22.5 -71.5t50.5 -73.5q8 41 12.5 85t2.5 85t-11.5 75t-25.5 54q-23 4 -41 -20q-10 -10 -14 -48.5z" />
<glyph unicode="&#xf3;" horiz-adv-x="671" d="M4 252q0 53 9.5 104.5t27.5 89.5q31 68 71 109t80.5 61.5t76.5 26.5t59 6t44 -4t40 -10q45 -14 57 -60l8 3q20 -18 32.5 -55.5t13.5 -84.5t-9 -101t-31 -110l-8 -20t-8 -21q39 -4 76 17.5t71.5 55.5t63.5 75t49.5 76.5t32.5 60.5l12 25l19 -15q-2 -4 -27 -51t-67 -105.5 t-99 -107.5t-125 -55q-4 0 -8 1t-8 1q-45 -88 -105.5 -136t-128.5 -51q-8 0 -14 -1t-14 -1q-92 0 -142 80q-23 35 -36 86.5t-13 110.5zM133 151.5q8 -67.5 37 -104.5q25 -33 59 -39h15q29 0 52 15.5t40.5 38t30 48t20.5 46.5l10 34q-45 35 -64.5 83.5t-23.5 82.5 q-10 49 -5.5 92.5t18.5 59.5q16 20 31.5 25.5t29.5 3.5l68 30q-12 35 -52 54q-12 6 -24 6q-33 0 -70 -29t-69.5 -74t-58 -103.5t-36.5 -115.5q-16 -86 -8 -153.5zM195 768l231 242l49 -70q-76 -53 -133 -92q-51 -35 -92 -63.5t-43 -28.5q-6 0 -8 6q-2 2 -4 6zM326 445.5 q-4 -38.5 4 -85.5q6 -29 22.5 -71.5t50.5 -73.5q8 41 12.5 85t2.5 85t-11.5 75t-25.5 54q-23 4 -41 -20q-10 -10 -14 -48.5z" />
<glyph unicode="&#xf4;" horiz-adv-x="671" d="M4 252q0 53 9.5 104.5t27.5 89.5q31 68 71 109t80.5 61.5t76.5 26.5t59 6t44 -4t40 -10q45 -14 57 -60l8 3q20 -18 32.5 -55.5t13.5 -84.5t-9 -101t-31 -110l-8 -20t-8 -21q39 -4 76 17.5t71.5 55.5t63.5 75t49.5 76.5t32.5 60.5l12 25l19 -15q-2 -4 -27 -51t-67 -105.5 t-99 -107.5t-125 -55q-4 0 -8 1t-8 1q-45 -88 -105.5 -136t-128.5 -51q-8 0 -14 -1t-14 -1q-92 0 -142 80q-23 35 -36 86.5t-13 110.5zM133 151.5q8 -67.5 37 -104.5q25 -33 59 -39h15q29 0 52 15.5t40.5 38t30 48t20.5 46.5l10 34q-45 35 -64.5 83.5t-23.5 82.5 q-10 49 -5.5 92.5t18.5 59.5q16 20 31.5 25.5t29.5 3.5l68 30q-12 35 -52 54q-12 6 -24 6q-33 0 -70 -29t-69.5 -74t-58 -103.5t-36.5 -115.5q-16 -86 -8 -153.5zM188 903v31l195 199q27 -66 49 -117q18 -43 31.5 -80t11.5 -35h-41h-37l-59 154zM326 445.5q-4 -38.5 4 -85.5 q6 -29 22.5 -71.5t50.5 -73.5q8 41 12.5 85t2.5 85t-11.5 75t-25.5 54q-23 4 -41 -20q-10 -10 -14 -48.5z" />
<glyph unicode="&#xf5;" horiz-adv-x="671" d="M4 252q0 53 9.5 104.5t27.5 89.5q31 68 71 109t80.5 61.5t76.5 26.5t59 6t44 -4t40 -10q45 -14 57 -60l8 3q20 -18 32.5 -55.5t13.5 -84.5t-9 -101t-31 -110l-8 -20t-8 -21q39 -4 76 17.5t71.5 55.5t63.5 75t49.5 76.5t32.5 60.5l12 25l19 -15q-2 -4 -27 -51t-67 -105.5 t-99 -107.5t-125 -55q-4 0 -8 1t-8 1q-45 -88 -105.5 -136t-128.5 -51q-8 0 -14 -1t-14 -1q-92 0 -142 80q-23 35 -36 86.5t-13 110.5zM133 151.5q8 -67.5 37 -104.5q25 -33 59 -39h15q29 0 52 15.5t40.5 38t30 48t20.5 46.5l10 34q-45 35 -64.5 83.5t-23.5 82.5 q-10 49 -5.5 92.5t18.5 59.5q16 20 31.5 25.5t29.5 3.5l68 30q-12 35 -52 54q-12 6 -24 6q-33 0 -70 -29t-69.5 -74t-58 -103.5t-36.5 -115.5q-16 -86 -8 -153.5zM137 821l5 17q5 16 19.5 31.5t36 24.5t54.5 -5t66.5 -28.5t64.5 -24t56.5 -9.5t43.5 15q16 14 18.5 24.5 t-3.5 16.5q-8 8 -23 12l2 12q14 -8 25 -18q8 -10 13 -22.5t-5 -28.5q-8 -16 -24.5 -29.5t-43 -20t-65.5 -1t-94 27.5q-55 23 -81 25t-36 -2q-10 -6 -6 -21q-4 2 -11 2q-12 0 -12 2zM326 445.5q-4 -38.5 4 -85.5q6 -29 22.5 -71.5t50.5 -73.5q8 41 12.5 85t2.5 85t-11.5 75 t-25.5 54q-23 4 -41 -20q-10 -10 -14 -48.5z" />
<glyph unicode="&#xf6;" horiz-adv-x="671" d="M4 252q0 53 9.5 104.5t27.5 89.5q31 68 71 109t80.5 61.5t76.5 26.5t59 6t44 -4t40 -10q45 -14 57 -60l8 3q20 -18 32.5 -55.5t13.5 -84.5t-9 -101t-31 -110l-8 -20t-8 -21q39 -4 76 17.5t71.5 55.5t63.5 75t49.5 76.5t32.5 60.5l12 25l19 -15q-2 -4 -27 -51t-67 -105.5 t-99 -107.5t-125 -55q-4 0 -8 1t-8 1q-45 -88 -105.5 -136t-128.5 -51q-8 0 -14 -1t-14 -1q-92 0 -142 80q-23 35 -36 86.5t-13 110.5zM131 887q2 33 26.5 56.5t55.5 23.5t48 -23.5t14 -57.5t-27.5 -57.5t-55.5 -23.5t-48 23.5t-13 58.5zM133 151.5q8 -67.5 37 -104.5 q25 -33 59 -39h15q29 0 52 15.5t40.5 38t30 48t20.5 46.5l10 34q-45 35 -64.5 83.5t-23.5 82.5q-10 49 -5.5 92.5t18.5 59.5q16 20 31.5 25.5t29.5 3.5l68 30q-12 35 -52 54q-12 6 -24 6q-33 0 -70 -29t-69.5 -74t-58 -103.5t-36.5 -115.5q-16 -86 -8 -153.5zM326 445.5 q-4 -38.5 4 -85.5q6 -29 22.5 -71.5t50.5 -73.5q8 41 12.5 85t2.5 85t-11.5 75t-25.5 54q-23 4 -41 -20q-10 -10 -14 -48.5zM397 887q2 33 26.5 56.5t55.5 23.5t49.5 -23.5t15.5 -57.5t-29 -57.5t-56 -23.5q-31 0 -48.5 23.5t-13.5 58.5z" />
<glyph unicode="&#xf8;" horiz-adv-x="671" d="M4 252q0 53 9.5 104.5t27.5 89.5q31 68 71 109t80.5 61.5t76.5 26.5t59 6t44 -4t40 -10q45 -14 57 -60l8 3q20 -18 32.5 -55.5t13.5 -84.5t-9 -101t-31 -110l-8 -20t-8 -21q39 -4 76 17.5t71.5 55.5t63.5 75t49.5 76.5t32.5 60.5l12 25l19 -15q-2 -4 -27 -51t-67 -105.5 t-99 -107.5t-125 -55q-4 0 -8 1t-8 1q-45 -88 -105.5 -136t-128.5 -51q-8 0 -14 -1t-14 -1q-92 0 -142 80q-23 35 -36 86.5t-13 110.5zM26 -52l347 846l48 -26l-348 -846zM133 151.5q8 -67.5 37 -104.5q25 -33 59 -39h15q29 0 52 15.5t40.5 38t30 48t20.5 46.5l10 34 q-45 35 -64.5 83.5t-23.5 82.5q-10 49 -5.5 92.5t18.5 59.5q16 20 31.5 25.5t29.5 3.5l68 30q-12 35 -52 54q-12 6 -24 6q-33 0 -70 -29t-69.5 -74t-58 -103.5t-36.5 -115.5q-16 -86 -8 -153.5zM326 445.5q-4 -38.5 4 -85.5q6 -29 22.5 -71.5t50.5 -73.5q8 41 12.5 85 t2.5 85t-11.5 75t-25.5 54q-23 4 -41 -20q-10 -10 -14 -48.5z" />
<glyph unicode="&#xf9;" horiz-adv-x="864" d="M-59 242.5q4 66.5 8 103.5q8 66 23.5 151t29.5 160.5t25.5 129t11.5 55.5l176 -111q-25 -72 -52.5 -167t-51 -195.5t-37 -196.5t-8 -171t32 -119t85.5 -38q16 2 36 10.5t42 26.5q25 23 47.5 55.5t44 70.5t39 77t31.5 76q33 86 59.5 168t44.5 143q12 51 25.5 94t28.5 72 l143 -74q-80 -207 -109 -358q-25 -141 9 -174q4 -4 14 -4q16 0 51 27.5t75 76.5t79 114.5t63 141.5l19 -12q-4 -18 -20.5 -53t-40 -77t-54.5 -86t-63.5 -79t-67.5 -57.5t-68 -22.5q-4 0 -10 1t-12 1q-39 8 -62 57t-25.5 119t1.5 129l-41 -114q-33 -84 -65.5 -150t-67.5 -113 q-84 -121 -166 -120h-4q-88 4 -140 65q-66 76 -77 229q-6 72 -2 138.5zM291 940l49 70l231 -242q-2 -4 -4 -6q-4 -6 -8 -6q-2 0 -44 28.5t-91 63.5q-59 39 -133 92z" />
<glyph unicode="&#xfa;" horiz-adv-x="864" d="M-59 242.5q4 66.5 8 103.5q8 66 23.5 151t29.5 160.5t25.5 129t11.5 55.5l176 -111q-25 -72 -52.5 -167t-51 -195.5t-37 -196.5t-8 -171t32 -119t85.5 -38q16 2 36 10.5t42 26.5q25 23 47.5 55.5t44 70.5t39 77t31.5 76q33 86 59.5 168t44.5 143q12 51 25.5 94t28.5 72 l143 -74q-80 -207 -109 -358q-25 -141 9 -174q4 -4 14 -4q16 0 51 27.5t75 76.5t79 114.5t63 141.5l19 -12q-4 -18 -20.5 -53t-40 -77t-54.5 -86t-63.5 -79t-67.5 -57.5t-68 -22.5q-4 0 -10 1t-12 1q-39 8 -62 57t-25.5 119t1.5 129l-41 -114q-33 -84 -65.5 -150t-67.5 -113 q-84 -121 -166 -120h-4q-88 4 -140 65q-66 76 -77 229q-6 72 -2 138.5zM291 768l231 242l49 -70q-76 -53 -133 -92q-51 -35 -92 -63.5t-43 -28.5q-6 0 -8 6q-2 2 -4 6z" />
<glyph unicode="&#xfb;" horiz-adv-x="864" d="M-59 242.5q4 66.5 8 103.5q8 66 23.5 151t29.5 160.5t25.5 129t11.5 55.5l176 -111q-25 -72 -52.5 -167t-51 -195.5t-37 -196.5t-8 -171t32 -119t85.5 -38q16 2 36 10.5t42 26.5q25 23 47.5 55.5t44 70.5t39 77t31.5 76q33 86 59.5 168t44.5 143q12 51 25.5 94t28.5 72 l143 -74q-80 -207 -109 -358q-25 -141 9 -174q4 -4 14 -4q16 0 51 27.5t75 76.5t79 114.5t63 141.5l19 -12q-4 -18 -20.5 -53t-40 -77t-54.5 -86t-63.5 -79t-67.5 -57.5t-68 -22.5q-4 0 -10 1t-12 1q-39 8 -62 57t-25.5 119t1.5 129l-41 -114q-33 -84 -65.5 -150t-67.5 -113 q-84 -121 -166 -120h-4q-88 4 -140 65q-66 76 -77 229q-6 72 -2 138.5zM285 903v31l195 199q27 -66 49 -117q18 -43 31.5 -80t11.5 -35h-41h-37l-59 154z" />
<glyph unicode="&#xfc;" horiz-adv-x="864" d="M-59 242.5q4 66.5 8 103.5q8 66 23.5 151t29.5 160.5t25.5 129t11.5 55.5l176 -111q-25 -72 -52.5 -167t-51 -195.5t-37 -196.5t-8 -171t32 -119t85.5 -38q16 2 36 10.5t42 26.5q25 23 47.5 55.5t44 70.5t39 77t31.5 76q33 86 59.5 168t44.5 143q12 51 25.5 94t28.5 72 l143 -74q-80 -207 -109 -358q-25 -141 9 -174q4 -4 14 -4q16 0 51 27.5t75 76.5t79 114.5t63 141.5l19 -12q-4 -18 -20.5 -53t-40 -77t-54.5 -86t-63.5 -79t-67.5 -57.5t-68 -22.5q-4 0 -10 1t-12 1q-39 8 -62 57t-25.5 119t1.5 129l-41 -114q-33 -84 -65.5 -150t-67.5 -113 q-84 -121 -166 -120h-4q-88 4 -140 65q-66 76 -77 229q-6 72 -2 138.5zM225 1120q2 33 26.5 56.5t55.5 23.5t48 -23.5t14 -57.5t-27.5 -57.5t-55.5 -23.5t-48 23.5t-13 58.5zM491 1120q2 33 26.5 56.5t55.5 23.5t49.5 -23.5t15.5 -57.5t-29 -57.5t-56 -23.5 q-31 0 -48.5 23.5t-13.5 58.5z" />
<glyph unicode="&#xfd;" horiz-adv-x="741" d="M-219 -870.5q10 53.5 33.5 108.5t55.5 108.5t62 100.5q70 104 162 210.5t187 195.5q33 29 64.5 59.5t66.5 62.5q12 49 21 94.5t18 86.5q-23 -45 -48.5 -83t-54.5 -67q-61 -61 -119 -61h-2q-90 4 -141 65q-61 72 -78 230q-6 72 -2 138t8 103q12 98 74 303l148 -88 q-23 -76 -43.5 -159.5t-35 -165.5t-16.5 -156t13 -125q31 -111 96 -110q37 0 78 36q39 35 72.5 93.5t62.5 119.5q10 59 15 111.5t9 101.5l7 82l2 2l122 -67l-12 -97q-8 -49 -16 -109t-19 -128q49 47 91.5 88t72.5 70q37 35 66 61l26 -10l-2 -2q-37 -35 -77 -74 q-35 -35 -83.5 -79t-103.5 -97q-16 -92 -30.5 -166t-34.5 -152q-219 -864 -523 -864q-29 0 -65 10q-104 31 -127 121q-10 45 0 98.5zM-193 -918q-2 -18 3 -28q18 -94 63 -94q33 0 77 46t91 118.5t94 162.5t88 176q59 129 102.5 245t75.5 229q-104 -104 -188 -196.5 t-152 -174.5q-115 -141 -166 -238.5t-69 -154.5q-18 -61 -19 -91zM230 768l231 242l49 -70q-76 -53 -133 -92q-51 -35 -92 -63.5t-43 -28.5q-6 0 -8 6q-2 2 -4 6z" />
<glyph unicode="&#xff;" horiz-adv-x="741" d="M-219 -870.5q10 53.5 33.5 108.5t55.5 108.5t62 100.5q70 104 162 210.5t187 195.5q33 29 64.5 59.5t66.5 62.5q12 49 21 94.5t18 86.5q-23 -45 -48.5 -83t-54.5 -67q-61 -61 -119 -61h-2q-90 4 -141 65q-61 72 -78 230q-6 72 -2 138t8 103q12 98 74 303l148 -88 q-23 -76 -43.5 -159.5t-35 -165.5t-16.5 -156t13 -125q31 -111 96 -110q37 0 78 36q39 35 72.5 93.5t62.5 119.5q10 59 15 111.5t9 101.5l7 82l2 2l122 -67l-12 -97q-8 -49 -16 -109t-19 -128q49 47 91.5 88t72.5 70q37 35 66 61l26 -10l-2 -2q-37 -35 -77 -74 q-35 -35 -83.5 -79t-103.5 -97q-16 -92 -30.5 -166t-34.5 -152q-219 -864 -523 -864q-29 0 -65 10q-104 31 -127 121q-10 45 0 98.5zM-193 -918q-2 -18 3 -28q18 -94 63 -94q33 0 77 46t91 118.5t94 162.5t88 176q59 129 102.5 245t75.5 229q-104 -104 -188 -196.5 t-152 -174.5q-115 -141 -166 -238.5t-69 -154.5q-18 -61 -19 -91zM166 1120q2 33 26.5 56.5t55.5 23.5t48 -23.5t14 -57.5t-27.5 -57.5t-55.5 -23.5t-48 23.5t-13 58.5zM432 1120q2 33 26.5 56.5t55.5 23.5t49.5 -23.5t15.5 -57.5t-29 -57.5t-56 -23.5q-31 0 -48.5 23.5 t-13.5 58.5z" />
<glyph unicode="&#x2c6;" horiz-adv-x="512" d="M135 903v31l195 199q27 -66 49 -117q18 -43 31.5 -80t11.5 -35h-41h-37l-59 154z" />
<glyph unicode="&#x2dc;" horiz-adv-x="442" d="M49 821l5 17q5 16 19.5 31.5t36 24.5t54.5 -5t66.5 -28.5t64.5 -24t56.5 -9.5t43.5 15q16 14 18.5 24.5t-3.5 16.5q-8 8 -23 12l2 12q14 -8 25 -18q8 -10 13 -22.5t-5 -28.5q-8 -16 -24.5 -29.5t-43 -20t-65.5 -1t-94 27.5q-55 23 -81 25t-36 -2q-10 -6 -6 -21 q-4 2 -11 2q-12 0 -12 2z" />
<glyph unicode="&#x2000;" horiz-adv-x="1244" />
<glyph unicode="&#x2001;" horiz-adv-x="2488" />
<glyph unicode="&#x2002;" horiz-adv-x="1244" />
<glyph unicode="&#x2003;" horiz-adv-x="2488" />
<glyph unicode="&#x2004;" horiz-adv-x="829" />
<glyph unicode="&#x2005;" horiz-adv-x="622" />
<glyph unicode="&#x2006;" horiz-adv-x="414" />
<glyph unicode="&#x2007;" horiz-adv-x="414" />
<glyph unicode="&#x2008;" horiz-adv-x="311" />
<glyph unicode="&#x2009;" horiz-adv-x="497" />
<glyph unicode="&#x200a;" horiz-adv-x="138" />
<glyph unicode="&#x2010;" horiz-adv-x="1167" d="M23 604v90h1107v-90h-1107z" />
<glyph unicode="&#x2011;" horiz-adv-x="1167" d="M23 604v90h1107v-90h-1107z" />
<glyph unicode="&#x2012;" horiz-adv-x="1167" d="M23 604v90h1107v-90h-1107z" />
<glyph unicode="&#x2013;" horiz-adv-x="1084" d="M23 604v90h1024v-90h-1024z" />
<glyph unicode="&#x2014;" horiz-adv-x="2108" d="M23 604v90h2048v-90h-2048z" />
<glyph unicode="&#x202f;" horiz-adv-x="497" />
<glyph unicode="&#x205f;" horiz-adv-x="622" />
<glyph unicode="&#x25fc;" horiz-adv-x="1187" d="M0 0v1188h1188v-1188h-1188z" />
</font>
</defs>
</svg>
