<?xml version="1.0" standalone="no"?>
<!DOCTYPE svg PUBLIC "-//W3C//DTD SVG 1.1//EN" "http://www.w3.org/Graphics/SVG/1.1/DTD/svg11.dtd" >
<svg>
<metadata>
Created by FontForge 20090622 at Fri Sep  4 14:16:30 2015
 By deploy user
Copyright (c) 2015 by Olexstudio. All rights reserved.
</metadata>
<defs>
<font id="ShizukaScript" horiz-adv-x="833" >
  <font-face 
    font-family="Shizuka Script"
    font-weight="400"
    font-stretch="normal"
    units-per-em="2000"
    panose-1="2 0 5 0 0 0 0 2 0 4"
    ascent="1500"
    descent="-500"
    x-height="427"
    cap-height="941"
    bbox="-1869 -799 2355 1320"
    underline-thickness="50"
    underline-position="-50"
    unicode-range="U+000D-U+FB02"
  />
<missing-glyph horiz-adv-x="462" 
 />
    <glyph glyph-name="l_l" unicode="ll" horiz-adv-x="1126" 
d="M1170 347q5 -3 9 -6q8 -6 8 -8q0 -1 -17 -21l-45.5 -51.5l-64.5 -71.5l-74 -80.5l-75.5 -78t-67.5 -64.5l-73.5 -63t-89 -71.5l-94 -68.5t-88 -54.5t-71 -28.5t-43.5 8q-10 11 -7 45t14.5 82.5t30.5 107t42 119t48.5 119t49.5 106.5h1l51.5 99t58.5 104.5l63.5 103.5
t66.5 97q48 66 96 111t90 74l-33.5 -34.5l-39.5 -41.5q-28 -30 -55.5 -65t-53.5 -72l-49.5 -73.5l-43.5 -70.5q-48 -79 -89 -161q49 84 100 162l46 68.5l48.5 70t49.5 65.5t48 55l9.5 11t9.5 10q41 42 71.5 68.5t50.5 41.5q24 18 40 25q8 3 15 5t12 4l9 3l30 -39
q-1 -6 -11 -24q-8 -15 -26.5 -42.5l-50.5 -75.5q-24 -35 -70 -86t-99.5 -105l-106 -104.5l-89.5 -85.5q-8 -14 -15 -27.5t-15 -27.5q1 0 2 1l-6 -9q-5 -8 -8.5 -16t-7.5 -16q-3 -1 -7 -3l-21 -32t-15 -27q-9 -19 -20 -45t-17 -43v-9l3 1l18 36.5l33 65.5q5 8 8.5 15.5
t7.5 14.5l4 6q-22 -64 -48.5 -123.5t-50.5 -119.5h-9l-14 -12.5l-12 -10.5h19l-56 -123l-19.5 -47.5t-15.5 -43t-8.5 -33t0.5 -17.5q64 27 129 68.5t128 90.5t122.5 103l112.5 106q123 121 237 259zM842 584q-26 -37 -51.5 -79.5l-51.5 -88.5l6.5 7.5t22 24l42 44l66.5 67.5
t82 93t77 101.5t57.5 84.5t23.5 44t-6.5 5.5t-17 -8.5t-18 -13l-8.5 -7q-42 -44 -101.5 -113.5t-122.5 -161.5zM424 -287q3 1 11 3q-2 10 1 32t18 66q12 35 17.5 54.5t7.5 29.5q2 11 1 14q-16 -45 -28 -82l-20.5 -60.5t-10.5 -36.5q-1 -6 -0.5 -10.5t1.5 -9.5h2zM612 343
q4 -12 6 -23l-98.5 -59l-129 -75l-138 -76.5t-125.5 -62.5v-1q-42 -21 -77 -33q-30 -11 -57 -13.5t-35 15.5q-1 1 -1.5 2.5t-1.5 3.5t-2 3v1q-1 2 -6 21.5t0 45.5q4 25 9 36l5 10q-7 -8 -12 -19q-5 -10 -8.5 -24t-4.5 -34v-13.5t-1 -10.5q-6 6 -12.5 16t-9.5 23.5t-2.5 29.5
t8.5 34q22 49 54 113.5t70.5 134.5t82.5 141t90 134q48 66 96 111t90 74l-73 -76q-28 -30 -55.5 -65t-53.5 -72l-49.5 -73.5l-43.5 -70.5q-48 -79 -89 -161q49 84 100 162l46 68.5l48.5 70t49.5 65.5t48 56q5 5 9.5 10t9.5 10q41 42 71.5 68.5t50.5 41.5q24 18 40 26
q8 3 14.5 4.5t11.5 3.5t10 3l30 -39q-1 -6 -11 -24q-8 -15 -26.5 -42.5l-50.5 -75.5q-16 -23 -42.5 -54l-58.5 -65.5l-68.5 -71l-71.5 -71l-67.5 -65.5l-57.5 -54l-57 -110l-50 -102q0 -1 -7 -17t-13 -35.5t-8 -35.5t8 -17q6 -1 22.5 3t36.5 10t42 14l40 14.5l30 11l12 4.5
l118.5 62l121.5 68.5l109.5 65zM255 576q-26 -37 -52 -79.5l-51 -87.5l29 31l42 43.5l66 67.5q40 40 82 93t77 101.5t57.5 84.5t23.5 44t-6.5 5.5t-17 -8.5t-18 -12.5l-8.5 -6.5q-42 -45 -101.5 -114.5t-122.5 -161.5z" />
    <glyph glyph-name="t_t" unicode="tt" horiz-adv-x="1208" 
d="M636 356l11 21q41 75 87.5 150.5t95.5 143.5q48 66 96 111t90 74l-73 -76q-48 -51 -93.5 -114.5t-83 -124.5t-65 -111l-40.5 -74h1l27.5 45l40 64.5l49 75.5l54.5 79l56 75t54 64l20 21q41 42 71.5 68.5t50.5 41.5q24 18 40 25q8 3 14.5 5t11.5 4l9 3l31 -39
q-2 -6 -12 -24q-8 -15 -26 -42.5l-50 -75.5q-16 -24 -42.5 -54.5l-59 -65l-68.5 -71l-71.5 -71l-67.5 -65.5l-57 -54q0 -1 -0.5 -1.5t-0.5 -1.5q9 2 18 3.5t18 3.5q81 17 133.5 32t84.5 27q37 14 57 26l18 -28q-1 -1 -2 -3t-2 -3.5t-3 -3.5l16 -16q-9 -12 -23 -23
q-12 -10 -30 -19.5t-41 -15.5q-24 -6 -56.5 -10.5l-61.5 -8.5q-34 -4 -70 -7l57 15q22 6 39 12.5l30 11.5q14 6 26 13l-40 -8.5l-45.5 -9t-47 -8l-44.5 -6.5h-1q-11 -2 -22.5 -2.5t-23.5 -1.5l-12 -22q1 0 2 1l-6 -9l-17 -33l-7 -2q-11 -16 -20.5 -32t-14.5 -27
q-9 -19 -20 -45l-18 -43l1 -9l2 1l52 101l16 31l4 6q-23 -64 -49 -123.5l-51 -119.5l-8 -1l-27 -22h19l-56 -123l-19.5 -47.5t-15.5 -43t-8.5 -33t1.5 -17.5q15 -23 52.5 -14t90 40t115 79t127.5 104l128 115l116 111t91 93.5t53 61.5q7 -7 11 -12t7 -9.5t2 -5.5l-54 -56
l-93.5 -93.5l-121.5 -115.5l-136.5 -121t-139 -110t-129 -82.5t-106 -39t-70.5 21.5q-10 11 -7 45t14.5 82.5t30.5 107.5t41.5 119.5t48 118.5t49.5 106q1 1 2 1l16.5 33l17.5 34zM868 584q-26 -37 -51.5 -80l-51.5 -88l7 7.5l22.5 24l42 44l65.5 67.5q27 27 55 60l54.5 67
l50.5 67t41.5 59.5t28 45t11.5 24.5q0 8 -7.5 5.5t-17 -8.5t-18 -13l-8.5 -7q-42 -45 -101 -114t-123 -161zM450 -287q8 2 11 2q-2 10 1 32.5t18 65.5q12 35 17.5 55t7.5 30q2 11 1 14l-28 -83l-10.5 -32t-9.5 -29l-7 -22.5t-3 -13.5q-2 -12 1 -19h1zM615 273
q-68 -59 -142 -105t-145.5 -79.5t-136 -54.5t-115 -30t-82.5 -6.5t-37 16.5l-2.5 5t-1.5 4q-2 2 -7 21.5t0 45.5q2 13 5 21.5l5 14.5q3 6 4 11q-7 -8 -12 -19q-5 -10 -8.5 -24.5t-3.5 -34.5q-1 -7 -1 -12.5v-10.5q-6 6 -12.5 16t-10 23.5t-2.5 29.5t9 33q18 41 43 92l55 108
l-40 4t-40 7q-23 5 -41 11.5t-30 11.5q-14 6 -25 12q31 -10 57 -17q22 -6 39.5 -9.5t18.5 1.5l-93 33l-15 40q16 -6 28.5 -12.5t31 -14t47.5 -15.5t80 -15q42 76 86 147t95 140q48 66 96 111t90 74l-73 -76q-45 -48 -88 -107.5t-79.5 -117t-64.5 -107.5t-43 -79h2l30 49
l40.5 64l47.5 72.5l51.5 74.5l53 70.5t50.5 59.5l20 21q41 42 71.5 68.5t50.5 41.5q24 18 40 25q8 3 14.5 5t11.5 4l9 3l31 -39q-2 -6 -12 -24q-8 -15 -26 -42.5l-50 -75.5q-23 -34 -66.5 -83l-94 -102l-101.5 -103.5l-90 -86.5q108 -13 200.5 -17t163 -2.5t115 6.5t55.5 9
l-27 -24q-9 -8 -34 -13t-59.5 -7.5t-75.5 -3t-82 0.5q-97 2 -215 10q34 1 67 3q28 2 58 2.5t53 2.5q10 0 -0.5 1t-33 2t-53.5 1.5t-61.5 1.5t-56.5 1.5t-38 0.5l-52 -100.5l-46 -92.5q0 -1 -5.5 -19t-9.5 -39.5t-4.5 -39.5t9.5 -19q41 -4 93 6t108.5 30.5t114.5 48.5
t112 59.5t100 65t78 63.5zM254 575q-26 -37 -51.5 -80l-51.5 -88l7 7.5l22.5 24l42 44l65.5 67.5q27 27 55 60l54.5 67l50 67l41.5 59.5t28.5 45t11.5 24.5q0 8 -7.5 5.5t-17 -8.5t-18 -13l-8.5 -7q-42 -45 -101 -114t-123 -161zM41 336q-2 -5 -3 -6t-1 -2q0 1 1 2l4 6h-1z
" />
    <glyph glyph-name="r_r" unicode="rr" horiz-adv-x="1528" 
d="M1539 297q4 -5 12.5 -5t11.5 -5q-25 -27 -69 -53.5t-96.5 -49.5t-108.5 -40t-104.5 -25t-84 -4.5t-46.5 22.5q-11 41 2 87.5t36 80.5q-5 -10 -8 -19.5l-6 -19.5q-5 -13 -5 -23l2 11.5t3 11.5q6 11 13 22.5t7 24.5q-2 -2 -3 -4t-3 -4q5 11 11 22t14 21q-5 0 -8 -1
l-14.5 -21.5t-16.5 -27l-15.5 -29t-10.5 -26.5q-9 -33 -9 -52q-1 -11 1 -20q-5 18 -4 41q1 20 7.5 46t25.5 58q9 17 12 25l-9 -3q1 1 1 1.5t1 1.5q-2 1 -8 1q-41 -27 -83 -66q-36 -33 -80.5 -82.5t-86.5 -115.5q-88 -137 -160 -279.5t-132 -287.5l104 283l40.5 110
l38.5 102.5l32 83t21 51.5t-1 -4.5l-26 -65l-43 -106l-52 -128.5l-149 -367q-1 5 -4 11l-5 12.5t-6 17.5l120 342l-136 -330q4 21 17.5 62.5t33 95.5l44 118l50.5 130l52 130.5l50 120.5l43.5 100t32.5 68q9 16 18 29t18 21q9 9 17 16t13 12q-17 -23 -25 -37l-12 -21
q-4 -9 -4 -11q7 8 16 20l18 26l24 37l1 4l1 -1l1 1l14.5 -7.5l14.5 -7.5q10 -6 21.5 -12l21 -11t14.5 -9t4 -5q-12 -8 -33 -33t-42 -53q-25 -33 -51 -71l72 130q-2 1 -7 -5.5l-12.5 -16.5l-15 -21l-13.5 -20l-23 -43.5l-16 -29l-14 -25.5t-16 -33l-111 -294q59 115 107 196
t87.5 136t72 88.5t58.5 53t47.5 29.5l40.5 19q11 2 26 -2.5t23 -2.5l44 -48l-6 -6q-28 -24 -48 -52.5t-37 -60.5q-2 -3 -6.5 -13t-8.5 -22.5t-5 -24.5t4 -17q-3 -12 22.5 -14.5t68 3.5t95.5 19.5t105 34t97.5 47t72.5 57.5zM775 297q4 -5 12.5 -5t11.5 -5q-25 -27 -69 -53.5
t-96.5 -49.5t-108.5 -40t-104.5 -25t-84 -4.5t-46.5 22.5q-11 41 2 87.5t36 80.5q-5 -10 -8 -19.5l-6 -19.5q-5 -13 -5 -23l2 11.5t3 11.5q6 11 13 22.5t7 24.5q-2 -2 -3 -4t-3 -4q5 11 11 22t14 21q-5 0 -8 -1l-14.5 -21.5t-16.5 -27l-15.5 -29t-10.5 -26.5q-9 -33 -9 -52
q-1 -11 1 -20q-5 18 -4 41q1 20 7.5 46t25.5 58q9 17 12 25l-9 -3q1 1 1 1.5t1 1.5q-2 1 -8 1q-10 1 -29 -9q-17 -8 -45 -27t-72 -57q-29 -25 -54.5 -52t-47 -54t-39 -52l-30.5 -44q-15 -20 -24 -30l-9 -11l5 10h-1q-1 0 -2 1q-2 -5 -3 -8t-2 -5q-1 -3 -2 -4q4 17 11 39
q6 19 15 44.5t23 57.5q7 16 8 18.5t-2 -4.5t-9.5 -20.5t-13.5 -30.5l-45 -101q-13 -5 -23 -1q-8 4 -14 16.5t-2 43.5q2 16 11.5 45t25.5 66.5t37.5 82t47.5 92.5q9 16 18 29t18 21q9 9 17 16t13 12q-17 -23 -25 -37l-12 -21q-4 -9 -4 -11q7 8 16 20l18 26l24 37l1 4l1 -1
l1 1l14.5 -7.5l14.5 -7.5q10 -6 21.5 -12l21 -11t14.5 -9t4 -5q-12 -8 -33 -33t-42 -53q-25 -33 -51 -71l72 130q-2 1 -7 -5.5l-12.5 -16.5l-15 -21l-13.5 -20l-51.5 -103.5l-42.5 -89.5v-1l12 20q15 19 33 39l34.5 38.5t42.5 44.5l4 4l4 4q0 1 1 1q1 1 1 1.5t1 1.5
q3 3 6.5 6t6.5 6q28 26 55.5 45t53 32t47 21.5t38.5 13.5q11 2 19.5 4l16.5 4l44 -48l-6 -6q-28 -24 -48 -52.5t-37 -60.5q-2 -3 -6.5 -13t-8.5 -22.5t-5 -24.5t4 -17q-3 -12 22.5 -14.5t68 3.5t95.5 19.5t105 34t97.5 47t72.5 57.5z" />
    <glyph glyph-name="g_g" unicode="gg" horiz-adv-x="1272" 
d="M1327 263l-120.5 -54.5t-111 -55.5l-120 -67l-147.5 -88q-27 -73 -64 -153.5t-81 -151.5q-32 -57 -69 -96.5t-72 -65.5l24.5 30l30.5 36q30 38 57 83t49.5 89t40 84l29.5 67q-3 -4 -5.5 -7t-5.5 -7l-33.5 -68.5l-42 -79t-46.5 -79t-48 -67.5q-8 -8 -14 -17
q-32 -38 -56 -61t-41 -37q-19 -16 -34 -24q-8 -4 -13.5 -5.5t-10.5 -3.5l-9 -3l-36 25q0 5 6 19q5 12 16 35.5t33 64.5q12 22 34 52.5t49 64l57 68.5l57.5 66.5l51 57l37.5 41.5l27.5 74.5l24.5 68.5q-1 2 -0.5 2.5t0.5 2.5q5 14 9 29.5t9 31.5l-38.5 -26.5l-41 -28.5
l-38.5 -26t-31 -19q-8 -4 -21.5 -10t-28 -11.5l-26 -10t-14.5 -4.5t-8.5 1t-10 6.5t-5.5 16t4 28.5t23 39.5t38 39.5q23 21 51 43q-23 -13 -44 -29q-18 -14 -36 -31t-29 -36t-15.5 -32t-5.5 -21q-1 -10 1 -17q-4 0 -8 2q-8 2 -10 6q-1 1 -1.5 4.5t-2.5 6.5q-2 4 -3 8
q-25 0 -33 11q-3 5 -3 12.5t5.5 19t18 28t34.5 38.5q35 35 77 63t84 47.5t80.5 30t67.5 11.5l67 -60q-2 -4 -2 -3l-1 -1q-5 6 -19 8q-12 2 -34 -2t-58 -19q-37 -16 -75.5 -44.5t-69 -58t-47 -52.5t-9.5 -27q4 -3 19 3.5t36.5 18.5t46.5 27.5l48.5 31l43.5 29l31 21.5
q-1 4 1 8q13 10 22 21t19 22l12 -2l12 -2q-13 -57 -35 -126q6 13 11 27l10.5 26l10.5 28q2 11 4.5 22t4.5 21q13 -1 22 -4q-4 -16 -6.5 -31.5t-7.5 -31.5q-3 -25 -12.5 -62t-25.5 -82q9 9 37 26l66.5 38.5l84 45.5l91 46.5l86.5 43l70 34.5l42 20t3 1q3 -5 5 -11t4 -11z
M630 -246q17 33 34.5 70.5t33.5 78.5l-49.5 -54l-61.5 -69q-30 -35 -60 -81.5t-53.5 -89.5t-38 -75t-13.5 -38t8 -3t15 8.5t15 11.5l7 6q32 38 75.5 97.5t87.5 137.5zM689 269l-88.5 -45.5l-81 -40l-80 -41t-85 -47.5t-95 -59.5l-111.5 -77.5q-38 -95 -86.5 -200
t-102.5 -199q-41 -73 -84 -124.5t-82 -86.5l66 87q36 49 69.5 107.5t62.5 116.5t52 109.5l38 87.5q-3 -5 -6 -9l-7 -9l-43 -89.5l-53.5 -103l-58 -102.5t-57.5 -88q-5 -6 -9 -12t-8 -11q-37 -48 -64.5 -79t-46.5 -49q-22 -21 -38 -31q-8 -5 -14 -8t-11 -5q-5 -3 -9 -3
l-34 33q1 7 9 25q7 16 21.5 46.5t42.5 82.5q15 29 41.5 68.5l58.5 83.5l67 89.5l67.5 87l59.5 75l44 54.5l38 97.5l33 89.5q0 2 0.5 3t0.5 3q8 19 14 39t13 41l-42.5 -35l-44.5 -37l-42 -34t-34 -25l-23.5 -13t-29.5 -15l-27.5 -12.5t-15.5 -5.5q-4 -1 -9.5 0.5t-9 8.5
t-3 20.5t8.5 37.5t28.5 51.5t43.5 51.5q26 28 58 56q-25 -19 -48 -39q-20 -17 -41 -39.5t-34 -46.5q-14 -24 -20.5 -41.5t-8.5 -28.5q-3 -13 -1 -22q-4 1 -8 3q-8 4 -9 7q-1 2 -1.5 5.5t-1.5 8.5t-2 11q-25 -1 -31 14q-3 6 -2 16.5t8.5 26t22.5 36.5t40 50q40 46 86.5 82
t91.5 61.5t85 39.5t69 15l60 -79q-2 -2 -2 -2.5t-1 -1.5l-1 -1q-5 9 -19 11q-12 2 -34.5 -3t-61.5 -25q-26 -14 -54 -35.5t-54.5 -46.5t-50 -51t-40.5 -48t-25 -37t-3 -19q3 -3 19.5 5.5t39.5 24t50.5 36l53.5 40.5l48 37.5l34 27.5q0 3 0.5 5.5t1.5 5.5q14 12 25 27t23 29
q5 -2 11 -3t12 -3l-24 -77.5t-29 -85.5l15 35q7 15 14.5 33.5l14.5 35.5l8 29.5t7 27.5q6 -2 11.5 -2.5t10.5 -2.5l-11.5 -41.5t-12.5 -41.5q-6 -32 -21 -80t-37 -107q10 12 40.5 32.5t72.5 45.5l91.5 52.5l98 53.5l92.5 49l75.5 38.5t46 22t3.5 -0.5q2 -6 3 -12t3 -12z
M-86 -361q46 89 90 195l-57.5 -70l-71.5 -91q-24 -31 -48.5 -68.5t-47.5 -77t-43 -77.5l-35 -68.5t-23.5 -51.5t-8.5 -26q0 -8 7.5 -4.5t16.5 11t16.5 15.5l7.5 8q38 50 90 127.5t107 177.5z" />
    <glyph glyph-name="t_l" unicode="tl" horiz-adv-x="1169" 
d="M615 273q-68 -59 -142 -105t-145.5 -79.5t-136 -54.5t-115 -30t-82.5 -6.5t-37 16.5l-2.5 5t-1.5 4q-2 2 -7 21.5t0 45.5q2 13 5 21.5l5 14.5q3 6 4 11q-7 -8 -12 -19q-5 -10 -8.5 -24.5t-3.5 -34.5q-1 -7 -1 -12.5v-10.5q-6 6 -12.5 16t-10 23.5t-2.5 29.5t9 33
q18 41 43 92l55 108l-40 4t-40 7q-23 5 -43.5 13t-35.5 15q-18 8 -33 16h3q33 -11 84 -22t116 -11l89.5 154.5t98.5 147.5q48 66 96 111t90 74l-73 -76q-45 -48 -88 -107.5t-79.5 -117t-64.5 -107.5t-43 -79h2l30 49l40.5 64l47.5 72.5l51.5 74.5l53 70.5t50.5 59.5l20 21
q41 42 71.5 68.5t50.5 41.5q24 18 40 25q8 3 14.5 5t11.5 4l9 3l31 -39q-2 -6 -12 -24q-8 -15 -26 -42.5l-50 -75.5q-23 -34 -66.5 -82l-94 -99.5l-101.5 -101l-90 -85.5q5 1 10.5 1.5t10.5 2.5q81 17 133.5 32t84.5 27q37 14 57 27l18 -29q-1 0 -2 -2t-5 -8l16 -16
q-9 -12 -23 -23q-12 -9 -30 -19t-41 -15q-24 -6 -56.5 -11t-61.5 -8q-34 -4 -70 -7l57 15q22 5 39 12l30 12q14 6 26 12l-40 -8.5l-45.5 -9t-47 -8l-44.5 -6.5h-1l-39 -3l-52 -100.5l-46 -92.5q0 -1 -5.5 -19t-9.5 -39.5t-4.5 -39.5t9.5 -19q41 -4 93 6t108.5 30.5
t114.5 48.5t112 59.5t100 65t78 63.5zM254 575q-26 -37 -51.5 -80l-51.5 -88l7 7.5l22.5 24l42 44l65.5 67.5q27 27 55 60l54.5 67l50 67l41.5 59.5t28.5 45t11.5 24.5q0 8 -7.5 5.5t-17 -8.5t-18 -13l-8.5 -7q-42 -45 -101 -114t-123 -161zM41 336q-2 -5 -3 -6t-1 -2
q0 1 1 2l4 6h-1zM1179 347q5 -3 9 -6q8 -6 8 -8q0 -1 -17 -21l-45.5 -51.5l-64.5 -71.5l-74 -80.5l-75.5 -78t-67.5 -64.5l-73.5 -63t-89 -71.5l-94 -68.5t-88 -54.5t-71 -28.5t-43.5 8q-10 11 -7 45t14.5 82.5t30.5 107t42 119t48.5 119t49.5 106.5h1l51.5 99t58.5 104.5
l63.5 103.5t66.5 97q48 66 96 111t90 74l-33.5 -34.5l-39.5 -41.5q-28 -30 -55.5 -65t-53.5 -72l-49.5 -73.5l-43.5 -70.5q-48 -79 -89 -161q49 84 100 162l46 68.5l48.5 70t49.5 65.5t48 55l9.5 11t9.5 10q41 42 71.5 68.5t50.5 41.5q24 18 40 25q8 3 15 5t12 4l9 3l30 -39
q-1 -6 -11 -24q-8 -15 -26.5 -42.5l-50.5 -75.5q-24 -35 -70 -86t-99.5 -105l-106 -104.5l-89.5 -85.5q-8 -14 -15 -27.5t-15 -27.5q1 0 2 1l-6 -9q-5 -8 -8.5 -16t-7.5 -16q-3 -1 -7 -3l-21 -32t-15 -27q-9 -19 -20 -45t-17 -43v-9l3 1l18 36.5l33 65.5q5 8 8.5 15.5
t7.5 14.5l4 6q-22 -64 -48.5 -123.5t-50.5 -119.5h-9l-14 -12.5l-12 -10.5h19l-56 -123l-19.5 -47.5t-15.5 -43t-8.5 -33t0.5 -17.5q64 27 129 68.5t128 90.5t122.5 103l112.5 106q123 121 237 259zM851 584q-26 -37 -51.5 -79.5l-51.5 -88.5l6.5 7.5t22 24l42 44l66.5 67.5
t82 93t77 101.5t57.5 84.5t23.5 44t-6.5 5.5t-17 -8.5t-18 -13l-8.5 -7q-42 -44 -101.5 -113.5t-122.5 -161.5zM433 -287q3 1 11 3q-2 10 1 32t18 66q12 35 17.5 54.5t7.5 29.5q2 11 1 14q-16 -45 -28 -82l-20.5 -60.5t-10.5 -36.5q-1 -6 -0.5 -10.5t1.5 -9.5h2z" />
    <glyph glyph-name="l_t" unicode="lt" horiz-adv-x="1142" 
d="M612 343q4 -12 6 -23l-98.5 -59l-129 -75l-138 -76.5t-125.5 -62.5v-1q-42 -21 -77 -33q-30 -11 -57 -13.5t-35 15.5q-1 1 -1.5 2.5t-1.5 3.5t-2 3v1q-1 2 -6 21.5t0 45.5q4 25 9 36l5 10q-7 -8 -12 -19q-5 -10 -8.5 -24t-4.5 -34v-13.5t-1 -10.5q-6 6 -12.5 16
t-9.5 23.5t-2.5 29.5t8.5 34q22 49 54 113.5t70.5 134.5t82.5 141t90 134q48 66 96 111t90 74l-73 -76q-28 -30 -55.5 -65t-53.5 -72l-49.5 -73.5l-43.5 -70.5q-48 -79 -89 -161q49 84 100 162l46 68.5l48.5 70t49.5 65.5t48 56q5 5 9.5 10t9.5 10q41 42 71.5 68.5
t50.5 41.5q24 18 40 26q8 3 14.5 4.5t11.5 3.5t10 3l30 -39q-1 -6 -11 -24q-8 -15 -26.5 -42.5l-50.5 -75.5q-16 -23 -42.5 -54l-58.5 -65.5l-68.5 -71l-71.5 -71l-67.5 -65.5l-57.5 -54l-57 -110l-50 -102q0 -1 -7 -17t-13 -35.5t-8 -35.5t8 -17q6 -1 22.5 3t36.5 10t42 14
l40 14.5l30 11l12 4.5l118.5 62l121.5 68.5l109.5 65zM255 576q-26 -37 -52 -79.5l-51 -87.5l29 31l42 43.5l66 67.5q40 40 82 93t77 101.5t57.5 84.5t23.5 44t-6.5 5.5t-17 -8.5t-18 -12.5l-8.5 -6.5q-42 -45 -101.5 -114.5t-122.5 -161.5zM410 -280q15 -23 52.5 -14t90 40
t115 79t127.5 104l128 115l116 111t91 93.5t53 61.5q7 -7 11 -12t7 -9.5t2 -5.5l-54 -56l-93.5 -93.5l-121.5 -115.5l-136.5 -121t-139 -110t-129 -82.5t-106 -39t-70.5 21.5q-10 11 -7 45t14.5 82.5t30.5 107.5t41.5 119.5t48 118.5t49.5 106q1 1 2 1l16.5 33l17.5 34
l-36.5 4t-36.5 7q-23 5 -43.5 13t-35.5 15q-18 8 -33 16h3q32 -11 81.5 -21.5t112.5 -11.5q42 79 91.5 161t102.5 154q48 66 96 111t90 74l-73 -76q-48 -51 -93.5 -114.5t-83 -124.5t-65 -111l-40.5 -74h1l27.5 45l40 64.5l49 75.5l54.5 79l56 75t54 64l10 10.5l10 10.5
q41 42 71.5 68.5t50.5 41.5q24 18 40 25q8 3 14.5 5t11.5 4l9 3l31 -39q-2 -6 -12 -24q-8 -15 -26 -42.5l-50 -75.5q-16 -24 -42.5 -54.5l-59 -65l-68.5 -71l-71.5 -71l-67.5 -65.5l-57 -54q0 -1 -0.5 -1.5t-0.5 -1.5q9 2 18 3.5t18 3.5q81 17 133.5 32t84.5 27q37 14 57 26
l18 -28q-1 -1 -2 -3t-2 -3.5t-3 -3.5l16 -16q-9 -12 -23 -23q-12 -10 -30 -19.5t-41 -15.5q-24 -6 -56.5 -10.5l-61.5 -8.5q-34 -4 -70 -7l57 15q22 6 39 12.5l30 11.5q14 6 26 13l-40 -8.5l-45.5 -9t-47 -8l-44.5 -6.5h-1q-11 -2 -22.5 -2.5t-23.5 -1.5q-3 -5 -6 -11
t-6 -11q1 0 2 1l-6 -9q-5 -8 -8.5 -16.5t-8.5 -16.5q-2 -1 -3.5 -1t-3.5 -1q-11 -16 -20.5 -32t-14.5 -27q-9 -19 -20 -45l-18 -43l1 -9l2 1l18.5 36l33.5 65q5 8 8.5 15.5l7.5 15.5l4 6q-23 -64 -49 -123.5l-51 -119.5l-8 -1q-8 -6 -14.5 -11.5l-12.5 -10.5h19l-56 -123
l-19.5 -47.5t-15.5 -43t-8.5 -33t1.5 -17.5zM810 584q-26 -37 -51.5 -80l-51.5 -88l7 7.5l22.5 24l42 44l65.5 67.5q27 27 55 60l54.5 67l50.5 67t41.5 59.5t28 45t11.5 24.5q0 8 -7.5 5.5t-17 -8.5t-18 -13l-8.5 -7q-42 -45 -101 -114t-123 -161zM392 -287q8 2 11 2
q-2 10 1 32.5t18 65.5q12 35 17.5 55t7.5 30q2 11 1 14l-28 -83l-10.5 -32t-9.5 -29l-7 -22.5t-3 -13.5q-2 -12 1 -19h1z" />
    <glyph glyph-name="t_h" unicode="th" horiz-adv-x="1418" 
d="M615 273q-68 -59 -142 -105t-145.5 -79.5t-136 -54.5t-115 -30t-82.5 -6.5t-37 16.5l-2.5 5t-1.5 4q-2 2 -7 21.5t0 45.5q2 13 5 21.5l5 14.5q3 6 4 11q-7 -8 -12 -19q-5 -10 -8.5 -24.5t-3.5 -34.5q-1 -7 -1 -12.5v-10.5q-6 6 -12.5 16t-10 23.5t-2.5 29.5t9 33
q18 41 43 92l55 108l-40 4t-40 7q-23 5 -43.5 13t-35.5 15q-18 8 -33 16h3q33 -11 84 -22t116 -11l89.5 154.5t98.5 147.5q48 66 96 111t90 74l-73 -76q-45 -48 -88 -107.5t-79.5 -117t-64.5 -107.5t-43 -79h2l30 49l40.5 64l47.5 72.5l51.5 74.5l53 70.5t50.5 59.5l20 21
q41 42 71.5 68.5t50.5 41.5q24 18 40 25q8 3 14.5 5t11.5 4l9 3l31 -39q-2 -6 -12 -24q-8 -15 -26 -42.5l-50 -75.5q-23 -34 -66.5 -82l-94 -99.5l-101.5 -101l-90 -85.5q5 1 10.5 1.5t10.5 2.5q81 17 133.5 32t84.5 27q37 14 57 27l18 -29q-1 0 -2 -2t-5 -8l16 -16
q-9 -12 -23 -23q-12 -9 -30 -19t-41 -15q-24 -6 -56.5 -11t-61.5 -8q-34 -4 -70 -7l57 15q22 5 39 12l30 12q14 6 26 12l-40 -8.5l-45.5 -9t-47 -8l-44.5 -6.5h-1l-39 -3l-52 -100.5l-46 -92.5q0 -1 -5.5 -19t-9.5 -39.5t-4.5 -39.5t9.5 -19q41 -4 93 6t108.5 30.5
t114.5 48.5t112 59.5t100 65t78 63.5zM254 575q-26 -37 -51.5 -80l-51.5 -88l7 7.5l22.5 24l42 44l65.5 67.5q27 27 55 60l54.5 67l50 67l41.5 59.5t28.5 45t11.5 24.5q0 8 -7.5 5.5t-17 -8.5t-18 -13l-8.5 -7q-42 -45 -101 -114t-123 -161zM41 336q-2 -5 -3 -6t-1 -2
q0 1 1 2l4 6h-1zM1439 278l-64 -72l-77 -83.5l-79 -82t-71 -67.5l-73 -63.5t-89 -71l-94 -68.5t-88 -54.5t-71 -28.5t-43 8q-8 9 -7 36t9 66t22 86.5t31.5 99t38.5 104.5l42 101q7 17 15 33.5l16 31.5l10 21h1l4 8l7.5 15t8.5 15h2l7.5 11t5.5 9q3 4 4 7h-8q-10 1 -29 -8
q-17 -8 -45 -27t-72 -57q-29 -25 -54.5 -52t-47 -54t-39 -52l-30.5 -44l-19 -23.5t-11 -14.5q-2 -2 -2 -4t-1 -3l-1 -2v1q0 2 1 4q3 13 14 48t34 87q7 16 7.5 19t-2.5 -4t-9.5 -20.5t-13.5 -30.5l-45 -101q-13 -5 -23 -1q-8 4 -14 16.5t-2 43.5q2 20 16.5 58.5t37 88.5
t53 109t66 121t75 123t79.5 116q48 66 96 111t90 74l-73 -76q-28 -30 -55.5 -65t-53.5 -72l-49.5 -73.5l-43.5 -70.5q-48 -79 -89 -161q49 84 100 162l46 68.5l48.5 70t49.5 65.5t48 55l9.5 11t9.5 10q41 42 71.5 68.5t50.5 41.5q24 18 40 25q8 3 14.5 5t11.5 4t10 3l30 -39
q-1 -6 -11 -24q-8 -15 -26.5 -42.5l-50.5 -75.5q-18 -27 -48 -62l-66 -74l-75 -79.5l-75 -77l-66.5 -66l-48.5 -47.5l-59.5 -116l-50.5 -103q15 19 33 39l34.5 38.5t42.5 44.5l8 8l1 1l2 2q4 3 7 6.5t6 6.5q56 52 108.5 77t85.5 34l36 9l44 -48q-5 -5 -14 -16.5t-24 -34.5
l-7 -11l-3 -5l-1 -1l-22 -33.5t-16 -28.5q-8 -16 -17 -38.5l-16 -39.5l-4 2l-4 -11l1 -9l2 1l52 102l15 30l5 6q-23 -64 -49.5 -123.5t-50.5 -119.5h-9q-7 -7 -13.5 -12.5l-12.5 -10.5h19l-56 -123l-19.5 -47.5t-15.5 -43t-8.5 -33t0.5 -17.5q68 27 137 71t136 97t129 110.5
t115.5 112t96 102l70.5 80.5zM1084 864q-42 -44 -101 -113.5t-122 -161.5q-28 -39 -55.5 -85l-54.5 -95l64.5 61.5l80.5 79.5q26 27 54 61t54.5 69.5t50 70.5t41 63.5t28 48t11.5 24.5q1 8 -7 5.5t-18 -8.5q-11 -8 -26 -20zM740 -277q-2 10 1 32t18 66q12 35 17.5 54.5
t7.5 29.5q2 11 1 14q-16 -45 -28 -82l-20 -60.5t-10 -36.5q-1 -11 0 -20h2z" />
    <glyph glyph-name=".notdef" horiz-adv-x="462" 
 />
    <glyph glyph-name="NULL" horiz-adv-x="0" 
 />
    <glyph glyph-name="NULL" horiz-adv-x="0" 
 />
    <glyph glyph-name="nonmarkingreturn" unicode="&#xd;" horiz-adv-x="462" 
 />
    <glyph glyph-name="space" unicode=" " horiz-adv-x="462" 
 />
    <glyph glyph-name="e" unicode="e" horiz-adv-x="677" 
d="M740 311l-69 -41.5l-89.5 -52.5l-100.5 -57.5l-102 -56.5t-95.5 -49t-80.5 -36q-3 -3 -10 -7q-6 -3 -16 -5.5t-26 -3.5q-8 -1 -28 -2t-44.5 1t-50.5 7.5t-46 17.5t-31.5 32.5t-7.5 52.5l2 10.5t3 13.5q5 22 24 47t39 47q24 26 52 51q-23 -17 -44 -35q-18 -16 -36.5 -37
t-29.5 -43q-11 -23 -16 -38t-7 -26q-2 -12 -1 -20q-3 1 -7 3q-8 4 -8 6q-2 5 -4 13l-2 10q-23 0 -30 13q-3 6 -2.5 15t6.5 23.5t19 34t35 45.5q36 42 77.5 75.5t82.5 57t78 36.5t64 14l48 -59l4.5 -5l10.5 -12t11 -14l7 -10l15 -25q-3 -7 -10 -17q-6 -8 -17.5 -19t-31.5 -25
t-40 -22t-36 -13q-18 -5 -36 -7l78 54q-23 -15 -49 -28q-22 -11 -49.5 -22t-56.5 -15q-12 -2 -23.5 -2.5t-19.5 0.5q-10 0 -18 2q24 9 50 21q22 10 48.5 24.5t52.5 31.5q4 2 5 4h1q26 18 45 34t31 29q14 14 23 27q-11 2 -32.5 -2t-60.5 -24q-23 -12 -47 -30.5t-46.5 -40
t-43 -44t-35.5 -42.5q-20 -27 -31 -52q-10 -21 -12.5 -42t12.5 -33l-3 3q21 -8 53 -10q27 -2 68 2t99 20q60 17 105.5 34.5t75.5 32.5l100.5 55.5l97 56l86.5 51.5l67 41l6 -24v0z" />
    <glyph glyph-name="f" unicode="f" horiz-adv-x="720" 
d="M768 292q2 -7 3.5 -13.5t3.5 -12.5l-106.5 -65.5l-139.5 -82.5h-1q-5 -3 -30.5 -17t-60 -29.5t-72 -28.5t-64.5 -13q-5 0 -9.5 0.5t-9.5 1.5q-7 2 -11 6q-15 10 -17 32.5t3 46.5t13 44.5l11 28.5q0 1 0.5 1t0.5 1v1l10 21l16 33.5l19 38.5t19 35q-19 -8 -38 -14
q-24 -6 -56.5 -11t-61.5 -8q-34 -4 -70 -7l58 15q21 5 38.5 12l29.5 12q14 6 26 13l-40 -8.5l-45.5 -9t-47 -8l-44.5 -6.5q-16 -30 -30 -59l-27 -55h1q-2 -4 -3 -5q-21 -44 -41.5 -94.5t-39 -103.5l-35.5 -106l-32 -101q-34 -114 -65 -230q1 17 5 40q3 19 8 46t13 61
q4 17 4.5 19.5t-1 -4.5t-5.5 -21.5l-9 -32.5l-28 -107q-12 -7 -23 -4q-9 2 -16.5 13.5t-8.5 42.5q-1 24 10 76.5t31 121.5t48.5 149t61.5 160q10 32 31 81t50 108q-29 1 -57.5 4t-57.5 10q-23 5 -43.5 13t-35.5 15q-18 8 -33 16h3q38 -13 98.5 -25t138.5 -8q46 91 104.5 189
t121.5 184q48 66 96 110.5t90 73.5l-73 -76q-41 -44 -80 -97t-73.5 -106t-62.5 -101t-46 -82q4 4 7 8t7 8l52 82.5l63 94.5t67.5 93.5t65.5 79.5l20 20q41 42 71.5 68.5t50.5 41.5q24 18 40 26q8 3 14.5 4.5t11.5 3.5l9 3l31 -39q-2 -6 -12 -24q-8 -15 -26 -42.5l-50 -75.5
q-18 -27 -48 -62l-66 -74l-75 -79.5l-75 -76.5l-66.5 -65.5l-48.5 -47.5l-7.5 -13.5t-6.5 -13.5q77 16 127.5 31.5t80.5 26.5q35 13 54 25l18 -29q-1 0 -1 -1q-1 -1 -1 -1.5t-1 -1.5q1 1 1 1.5t1 1.5q0 1 1 1l18 -29q-5 -5 -14 -16.5t-24 -34.5l-27 -41.5t-22 -37.5l-9 -21
l-10 -24l-10 -23.5t-8 -19.5l1 -9l2 1q5 11 18.5 37l33.5 65l8 15.5t7 14.5l11 6l-32.5 -71.5t-27.5 -69.5t-14 -53.5t9 -22.5q5 -2 27.5 3t56.5 17.5t75.5 32.5t84.5 48l126 76zM271 606q-27 -39 -55 -85t-54 -94l64.5 60.5t79.5 79.5q27 27 55 61t54.5 69.5t50 70.5
t41 63.5t28 48t11.5 24.5q0 8 -7.5 6t-17 -8t-17.5 -13t-9 -7q-42 -45 -101 -114.5t-123 -161.5zM-138 -97l33 84l36.5 85.5l44.5 98.5q0 -1 -5.5 -10.5t-13 -24t-17 -31l-17.5 -31.5l-25.5 -68l-19.5 -54q-10 -27 -16 -49z" />
    <glyph glyph-name="g" unicode="g" horiz-adv-x="636" 
d="M707 269l-88.5 -45.5l-81 -40l-80 -41t-85 -47.5t-95 -59.5l-111.5 -77.5q-38 -95 -86.5 -200t-102.5 -199q-41 -73 -84 -124.5t-82 -86.5l66 87q36 49 69.5 107.5t62.5 116.5t52 109.5l38 87.5q-3 -5 -6 -9l-7 -9l-43 -89.5l-53.5 -103l-58 -102.5t-57.5 -88
q-5 -6 -9 -12t-8 -11q-37 -48 -64.5 -79t-46.5 -49q-22 -21 -38 -31q-8 -5 -14 -8t-11 -5q-5 -3 -9 -3l-34 33q1 7 9 25q7 16 21.5 46.5t42.5 82.5q15 29 41.5 68.5l58.5 83.5l67 89.5l67.5 87l59.5 75l44 54.5l38 97.5l33 89.5q0 2 0.5 3t0.5 3q8 19 14 39t13 41l-42.5 -35
l-44.5 -37l-42 -34t-34 -25l-23.5 -13t-29.5 -15l-27.5 -12.5t-15.5 -5.5q-4 -1 -9.5 0.5t-9 8.5t-3 20.5t8.5 37.5t28.5 51.5t43.5 51.5q26 28 58 56q-25 -19 -48 -39q-20 -17 -41 -39.5t-34 -46.5q-14 -24 -20.5 -41.5t-8.5 -28.5q-3 -13 -1 -22q-4 1 -8 3q-8 4 -9 7
q-1 2 -1.5 5.5t-1.5 8.5t-2 11q-25 -1 -31 14q-3 6 -2 16.5t8.5 26t22.5 36.5t40 50q40 46 86.5 82t91.5 61.5t85 39.5t69 15l60 -79q-2 -2 -2 -2.5t-1 -1.5l-1 -1q-5 9 -19 11q-12 2 -34.5 -3t-61.5 -25q-26 -14 -54 -35.5t-54.5 -46.5t-50 -51t-40.5 -48t-25 -37t-3 -19
q4 -3 20 5.5t39 24t50.5 36l53.5 40.5l48 37.5l34 27.5q0 3 0.5 5.5t1.5 5.5q14 12 25 27t23 29q5 -2 11 -3t12 -3l-24 -77.5t-29 -85.5l15 35q7 15 14.5 33.5l14.5 35.5l8 29.5t7 27.5q6 -2 11.5 -2.5t10.5 -2.5l-11.5 -41.5t-12.5 -41.5q-6 -32 -21 -80t-37 -107
q10 12 40.5 32.5t72.5 45.5l91.5 52.5l98 53.5l92.5 49l75.5 38.5t46 22t3.5 -0.5q2 -6 3 -12t3 -12zM-68 -361q46 89 90 195l-57.5 -70l-71.5 -91q-24 -31 -48.5 -68.5t-47.5 -77t-43 -77.5l-35 -68.5t-23.5 -51.5t-8.5 -26q0 -8 7.5 -4.5t16.5 11t16.5 15.5l7.5 8
q38 50 90 127.5t107 177.5z" />
    <glyph glyph-name="h" unicode="h" horiz-adv-x="866" 
d="M899 279q-17 -13 -51.5 -35.5t-80 -49t-99.5 -54t-111 -52t-114.5 -43.5t-110.5 -27q-15 -3 -28 -3q-10 0 -15 1l-33 -1q-27 6 -39.5 23.5t-14 42t5.5 53t19 57.5q27 68 81 150q-3 1 -8 1q-10 1 -29 -9q-17 -8 -45 -27t-73 -57q-28 -25 -53.5 -52t-47.5 -54t-39.5 -52
l-30.5 -44l-30 -38q-2 -6 -3 -7l-1 -2q1 0 1 1q0 3 1 5q3 12 14 47t33 88q7 16 8 18.5t-2 -4.5t-9.5 -20.5t-13.5 -30.5l-45 -101q-13 -5 -23 -1q-8 4 -14 16.5t-2 43.5q2 20 16.5 58.5t37 88.5t53 109t66 121t74.5 123.5t79 116.5q49 66 96.5 110.5t89.5 73.5l-73 -76
q-28 -30 -55.5 -65t-53.5 -72l-49.5 -73.5l-43.5 -70.5q-48 -79 -89 -161q49 84 100 162l46 68.5l49 70l49.5 65.5t47.5 56l19 20q42 42 72 68.5t50 41.5q24 18 40 26q8 3 15 4.5t12 3.5l9 3l31 -39q-2 -6 -12 -24q-8 -15 -26.5 -42.5l-50.5 -75.5q-18 -27 -48 -62
l-65.5 -74l-74.5 -79.5l-75.5 -76.5l-66.5 -65.5l-49 -47.5l-59.5 -116.5l-49.5 -103.5q14 19 32 39l34.5 38.5t42.5 44.5l8 8l1 1l3 3l12 12q28 26 56 45t53 32t47 21.5t38 13.5l37 8l43 -48q-5 -5 -14 -16.5t-24 -34.5l-27 -41.5t-22 -37.5l-9 -21l-10 -24l-10 -23.5
t-8 -19.5l1 -9l2 1l52 102l15 30l11 6l-32.5 -71.5t-27.5 -69.5t-14 -53.5t9 -22.5q19 -5 62.5 6.5t99.5 33t118.5 50.5l120.5 58.5t105 56.5t72 46zM485 867q-42 -45 -101.5 -114.5t-122.5 -161.5q-27 -39 -55 -85l-55 -94l64.5 60.5l80.5 79.5q26 27 54 61t54.5 69.5
t50 70.5l41.5 63.5t28.5 48t10.5 24.5q1 8 -6.5 5.5t-17 -8.5t-18 -12.5z" />
    <glyph glyph-name="i" unicode="i" horiz-adv-x="448" 
d="M479 262q2 -7 3.5 -13t3.5 -13l-107 -65l-140 -83h-1q-4 -2 -24.5 -13.5t-49.5 -25.5t-62.5 -27t-61.5 -19q-15 -3 -28 -3q-11 0 -16 1l-32 -1q-24 6 -36.5 19.5t-16 33t0 43t11.5 48.5q8 26 19.5 52t24.5 49l35.5 70t35.5 52l19 26l5 -6l-11 -27q5 5 10 9t10 9
q2 0 3.5 0.5t3.5 0.5l43 -48q-5 -5 -14 -16.5t-23 -34.5l-27.5 -41.5t-21.5 -37.5q-9 -18 -20 -44.5l-18 -43.5l1 -9l2 1q5 11 18.5 37l33.5 65q5 8 8.5 15.5t7.5 14.5l11 6l-32.5 -71.5t-28 -69.5t-14 -53.5t8.5 -22.5q5 -2 27.5 3t56.5 17.5t75.5 32.5t85.5 48l125 76z
M198 457q-2 2 -11 -10.5l-20 -28.5l-27 -42l-44 59l29 60q4 9 8 17q4 7 8 12.5t8 6.5t5.5 2.5t3.5 2.5l2 2q1 0 3 -1t3 -2t3 -2l-10 -19.5t-14 -16.5q13 4 23 11t18 15l20.5 -12t19.5 -12t14.5 -10.5t5.5 -6.5q0 -8 -15 -26.5l-32 -38.5l-47 -50l21 31l15.5 24t9.5 17
q1 5 1 8.5v5.5q0 3 -1 4z" />
    <glyph glyph-name="d" unicode="d" horiz-adv-x="691" 
d="M732 272q-2 -2 -26.5 -19.5l-63 -45l-87 -60.5l-99.5 -65.5t-101 -61t-90.5 -45.5t-69 -20.5t-35.5 14.5q-1 1 -1 2.5t-1 3.5t-2 3v1q-2 2 -7 21.5t0 45.5q2 13 5 22t5 14l5 10q-7 -8 -12 -19q-5 -10 -9 -24t-4 -34q-1 -8 -1 -13.5v-10.5q-6 6 -12.5 16t-10 23.5
t-2.5 29.5t9 34q10 23 22.5 48.5l26.5 54.5l-88.5 -70t-87.5 -64.5t-72.5 -46t-43.5 -13.5q-9 3 -14 8.5t-8 13.5l-1 -1q-3 13 -1 32q1 5 2 11t3 13l4 10l4 10q11 21 28.5 43t35.5 40q20 21 44 42q-23 -17 -44 -35q-18 -16 -37 -36.5t-30 -42.5q-11 -23 -16 -38.5t-7 -26.5
q-2 -12 0 -20q-3 1 -7 3q-8 4 -9 6q-2 5 -4 13l-2 10q-23 -1 -30 13q-3 6 -2.5 15.5t6.5 23.5t19 34t36 46q35 42 76.5 75.5t82.5 56.5t78 36t64 14l60 -72l-3 -6q-5 9 -18 11q-11 2 -32.5 -3t-56.5 -23q-22 -12 -46 -30.5t-47 -40t-43.5 -44t-35.5 -42.5v-1l-2 -2l-6 -10
t-11 -22.5t-6 -24.5t8 -16q6 -3 35.5 14.5t70.5 46l86.5 62.5l84.5 64l50 94.5l56.5 99l61 98t63.5 92.5q48 66 96 111t90 74l-73 -76q-29 -30 -56.5 -65t-53.5 -72l-49.5 -73.5l-43.5 -70.5q-48 -79 -89 -161q49 84 100 162l46 68.5l49 70l49.5 65.5t47.5 56l20 20
q41 42 71.5 68.5t50.5 41.5q24 18 40 26q8 3 14.5 4.5t11.5 3.5l9 3l31 -39q-2 -6 -12 -24q-8 -15 -26 -42.5l-50 -75.5q-16 -24 -42.5 -54.5l-59 -65l-68.5 -71l-71.5 -71l-67.5 -65.5l-57 -54l-57 -110l-50 -102q-1 -1 -8 -17.5t-13 -36t-7.5 -35.5t8.5 -16
q32 -2 82.5 19.5t108 54.5t116 72.5l106.5 73.5l79.5 57t34.5 25zM457 530q-26 -37 -51.5 -79.5l-51.5 -87.5l7 7l22.5 23.5l42 44l65.5 67.5q27 27 55 60l54.5 67l50.5 67t41.5 60t28 45.5t11.5 23.5q0 8 -7.5 5.5t-17 -8.5t-18 -13l-8.5 -7q-42 -44 -101 -113.5
t-123 -161.5z" />
    <glyph glyph-name="j" unicode="j" horiz-adv-x="490" 
d="M528 273l-79 -44l-101 -55l-66 -43l-103.5 -68l-119.5 -80.5l-114 -79.5q-44 -96 -100 -200.5t-116 -198.5q-48 -73 -94.5 -124.5t-88.5 -86.5l33.5 39.5l38.5 47.5q40 49 78 107.5t71 116t60 109.5l45 88l-7.5 -9.5l-7.5 -9.5l-49.5 -88.5l-61 -103l-66 -102.5
t-64.5 -88q-5 -6 -9.5 -12t-9.5 -11q-41 -48 -70.5 -79t-49.5 -49q-23 -21 -39 -31q-8 -5 -14.5 -8t-11.5 -5q-5 -3 -10 -4l-32 34q1 7 11 25q8 16 25.5 46.5l49.5 82.5q17 29 46 68.5t64.5 83.5l73.5 89.5l73.5 87l65 75l47.5 54.5l45.5 97.5l40.5 89.5h-1q0 3 3 6
q11 26 21 53.5l20 56.5t22.5 69.5t20.5 77.5q8 40 10 53t3 15l47 -31l-5 -37l10 26q-1 2 -1 5q0 6 3 6q2 0 3.5 -1t3.5 -2l3 -3l-1 -10l12 -4l5 -3l-19 -68l-8 -28h1l-4 -10.5l-4 -10.5l-1 -2l-10.5 -30l-11.5 -30q-8 -32 -26 -80t-44 -107l117.5 82l114.5 77l26.5 16.5
l23.5 14.5l75.5 45.5l42 25.5t19 11.5l4.5 2.5l77 43l61 34zM-313 -416q27 44 54 93t53 102l-63.5 -70l-78.5 -91q-26 -31 -53.5 -68.5t-53.5 -77t-48.5 -77.5l-40 -68.5t-27.5 -52t-10 -26.5q-1 -8 6.5 -4t17 11.5t18 15.5l8.5 8q42 50 99 127.5t119 177.5zM-28 59l18 35
q8 15 16.5 33.5l16.5 35.5q2 3 2.5 6t2.5 7l-11 -6l-21 -54t-24 -57zM120 466q-2 1 -7.5 -14.5t-12.5 -33.5l-17 -49l-57 39l12 67q2 10 5 19q2 8 4.5 14.5t6.5 8.5q6 4 8 7q1 2 1 3q1 -1 3 -1h7q-2 -11 -5 -22t-9 -20q22 16 34 39q10 -2 22 -4t21.5 -4.5l16.5 -4.5t7 -4
q2 -8 -7.5 -30.5t-21.5 -47.5q-14 -29 -33 -63l13 37q5 14 9 28t4 19q0 7 -2 13q-1 3 -2 4z" />
    <glyph glyph-name="k" unicode="k" horiz-adv-x="838" 
d="M879 297q2 -7 6 -15.5t6 -14.5l-102.5 -57l-110 -56t-109.5 -50.5t-100.5 -41.5t-82.5 -29.5t-55 -14.5q-15 -3 -28 -3h-8t-7 1l-33 -1q-27 6 -39.5 23.5t-14 42t5.5 53t19 57.5q27 68 80 150q-2 1 -7 1q-11 1 -30 -9q-17 -8 -45 -27t-72 -57q-28 -25 -53.5 -52
t-47.5 -54t-39.5 -52l-30.5 -44l-18.5 -23.5l-11.5 -14.5q-2 -2 -2 -4t-1 -3l-1 -2v1q0 3 1 5q4 12 15 47.5t33 87.5q7 16 8 18.5t-2 -4.5t-9.5 -20.5t-13.5 -30.5l-45 -101q-13 -5 -23 -1q-8 4 -14 16.5t-2 43.5q2 20 16 58.5t37 88.5t53.5 109t66 121t74.5 123.5t79 116.5
q48 66 96 110.5t90 73.5l-33.5 -34.5l-39.5 -41.5q-28 -30 -55.5 -65t-53.5 -72l-49.5 -73.5l-43.5 -70.5q-48 -79 -89 -161q49 84 100 162l46 68.5l48.5 70t49.5 65.5t48 56q5 5 9.5 10t9.5 10q41 42 71.5 68.5t50.5 41.5q24 18 40 26q8 3 15 4.5t12 3.5l9 3l30 -39
q-1 -6 -11 -24q-8 -15 -26.5 -42.5l-50.5 -75.5q-18 -27 -48 -62l-65.5 -74l-74.5 -79.5l-75.5 -76.5l-66.5 -65.5l-49 -47.5l-51.5 -101l-45.5 -92q33 36 72.5 75l82 78l87 77.5l88.5 74.5q45 37 78.5 61t57.5 38.5t39.5 21t24.5 7.5q22 3 20 -19l36 -44q-20 -8 -44 -21
q-20 -11 -47 -28.5t-57 -42.5q2 6 9 16q5 8 16 20t30 29q-2 -1 -21.5 -7.5t-52.5 -22.5t-77.5 -42.5t-95.5 -66.5q20 10 37.5 16.5t31.5 10.5q11 2 20 4t17 4l43 -48q-5 -5 -14 -16.5t-24 -34.5l-27 -41.5t-22 -37.5l-9 -21l-10 -24l-10 -23.5t-8 -19.5l1 -9l2 1
q5 11 18.5 37l33.5 65q7 16 15 30l11 6l-32.5 -71.5t-27.5 -69.5t-14 -53.5t9 -22.5q13 -6 56 7t101 37t124 55l125.5 61.5t105 56t62.5 39.5zM260 591q-28 -39 -55.5 -85l-54.5 -94l64.5 60.5l80.5 79.5q26 27 54 61t54.5 69.5t50 70.5t41 63.5t28 48t11.5 24.5
q1 8 -6.5 5.5t-17.5 -8.5q-11 -7 -26 -19q-42 -45 -101.5 -114.5t-122.5 -161.5zM6 128q0 1 1 2t1.5 2t2.5 3q0 2 -1 3q-1 -3 -2 -5.5t-2 -4.5z" />
    <glyph glyph-name="l" unicode="l" horiz-adv-x="547" 
d="M612 343q4 -12 6 -23l-98.5 -59l-129 -75l-138 -76.5t-125.5 -62.5v-1q-42 -21 -77 -33q-30 -11 -57 -13.5t-35 15.5q-1 1 -1.5 2.5t-1.5 3.5t-2 3v1q-1 2 -6 21.5t0 45.5q4 25 9 36l5 10q-7 -8 -12 -19q-5 -10 -8.5 -24t-4.5 -34v-13.5t-1 -10.5q-6 6 -12.5 16
t-9.5 23.5t-2.5 29.5t8.5 34q22 49 54 113.5t70.5 134.5t82.5 141t90 134q48 66 96 111t90 74l-73 -76q-28 -30 -55.5 -65t-53.5 -72l-49.5 -73.5l-43.5 -70.5q-48 -79 -89 -161q49 84 100 162l46 68.5l48.5 70t49.5 65.5t48 56q5 5 9.5 10t9.5 10q41 42 71.5 68.5
t50.5 41.5q24 18 40 26q8 3 14.5 4.5t11.5 3.5t10 3l30 -39q-1 -6 -11 -24q-8 -15 -26.5 -42.5l-50.5 -75.5q-16 -23 -42.5 -54l-58.5 -65.5l-68.5 -71l-71.5 -71l-67.5 -65.5l-57.5 -54l-57 -110l-50 -102q0 -1 -7 -17t-13 -35.5t-8 -35.5t8 -17q6 -1 22.5 3t36.5 10t42 14
l40 14.5l30 11l12 4.5l118.5 62l121.5 68.5l109.5 65zM255 576q-26 -37 -52 -79.5l-51 -87.5l29 31l42 43.5l66 67.5q40 40 82 93t77 101.5t57.5 84.5t23.5 44t-6.5 5.5t-17 -8.5t-18 -12.5l-8.5 -6.5q-42 -45 -101.5 -114.5t-122.5 -161.5z" />
    <glyph glyph-name="m" unicode="m" horiz-adv-x="1027" 
d="M1072 277q2 -7 3.5 -13.5t3.5 -12.5l-107 -65l-139 -83h-1q-4 -2 -25 -13.5t-50 -25.5t-62.5 -27t-61.5 -19q-15 -3 -28 -3q-11 0 -15 1l-33 -1q-27 6 -39.5 23.5t-14 42t5.5 53t19 57.5q27 68 80 150q-2 1 -8 1q-10 1 -29 -9q-17 -8 -45 -27t-72 -57q-29 -25 -54.5 -52
t-47 -54t-39 -52l-30.5 -44q-15 -20 -24 -30l-9 -11l5 10h-1q-26 7 -37.5 25t-12.5 42t6 52.5t19 57.5q27 67 80 148q-3 1 -8 1q-10 1 -29 -9q-17 -8 -45 -27t-72 -57q-29 -25 -54.5 -52t-47 -54t-39.5 -52l-31 -44l-18.5 -23.5l-11.5 -14.5q-2 -6 -3 -7l-1 -2q4 17 11 39
q6 19 15.5 44.5t23.5 57.5q7 16 7.5 18.5t-2.5 -4.5t-9.5 -20.5t-13.5 -30.5l-45 -101q-13 -5 -23 -1q-8 4 -14 16.5t-2 43.5q2 16 11.5 45t25.5 66.5t37.5 82t47.5 92.5q9 16 18.5 29t17.5 21l17.5 16t13.5 12q-17 -23 -25.5 -37l-12.5 -21q-4 -9 -4 -11q6 9 16 21l19 26.5
t25 37.5l1 2h1l49 -25l31.5 -17.5t11.5 -9.5q-12 -8 -33 -33t-42 -53q-25 -33 -51 -71l72 130q-2 2 -11 -10.5l-20 -27.5l-27 -41l1 2l-42.5 -84.5l-36.5 -75.5q15 19 33 39l34.5 38.5l41.5 44.5q6 6 9 8q0 1 1 1q0 1 2 3l6 6t7 6q28 26 55.5 45t52.5 32t47 21.5t38 13.5
q11 2 20 4t17 4l43 -48q-5 -5 -14 -16.5t-23 -34.5q-6 -8 -20.5 -34t-29.5 -56.5t-25.5 -58t-7.5 -38.5l12 20q15 19 33 39l34.5 38.5t42.5 44.5q3 5 8 8q0 1 1 1q1 1 1 1.5t1 1.5q3 3 6.5 6t6.5 6q28 26 55.5 45t53 32t47 21.5t38.5 13.5q11 2 19.5 4l16.5 4l44 -48
q-5 -5 -14.5 -16.5t-23.5 -34.5l-27.5 -41.5t-21.5 -37.5q-9 -18 -20 -44.5l-18 -43.5l1 -9l2 1q5 11 18.5 37l33.5 65q5 8 8.5 15.5t7.5 14.5l60 82l-25.5 -53l-30 -62.5l-29.5 -64t-23 -56.5t-12 -40.5t5 -16.5q5 -2 27.5 3t56.5 17.5t75.5 32.5t85.5 48l125.5 76z" />
    <glyph glyph-name="n" unicode="n" horiz-adv-x="725" 
d="M773 277q2 -7 3.5 -13.5t3.5 -12.5l-107 -65l-139 -83h-1q-4 -2 -25 -13.5t-50 -25.5t-62.5 -27t-61.5 -19q-15 -3 -28 -3q-11 0 -15 1l-33 -1q-27 6 -39.5 23.5t-14 42t5.5 53t19 57.5q27 68 80 150q-2 1 -8 1q-10 1 -29 -9q-17 -8 -45 -27t-72 -57q-29 -25 -54.5 -52
t-47 -54t-39 -52l-30.5 -44q-8 -11 -14.5 -19l-10.5 -13q-2 -4 -3 -6.5t-2 -4.5q-1 -3 -2 -4q1 0 1 2q0 4 1 8q-2 -4 -2 -3l-1 -1l6 14q5 17 16 48t28 73q7 16 7.5 18.5t-2.5 -4.5t-9.5 -20.5t-13.5 -30.5l-45 -101q-13 -5 -23 -1q-8 4 -14 16.5t-2 43.5q2 16 12 45t26 66.5
t37.5 82t47.5 92.5q9 16 18 29t18 21q9 9 17 16t13 12q-17 -23 -25 -37l-12 -21q-4 -9 -4 -11l16 21l18.5 26.5l24.5 37.5l2 2h1l49 -25l31.5 -17.5t11.5 -9.5q-12 -8 -33 -33t-41 -53l-51 -71l71 130q-2 2 -11 -10.5l-20 -27.5l-27 -41l1 3l-41 -81l-36 -74l15.5 18.5
l24.5 28l30.5 33.5l34.5 36l4 4l4 4q0 1 1 1q2 2 2 3q3 3 6.5 6t6.5 6q28 26 55.5 45t53 32t47 21.5t38.5 13.5q11 2 19.5 4l16.5 4l44 -48q-5 -5 -14 -16.5t-24 -34.5l-27.5 -41.5t-21.5 -37.5q-9 -18 -20 -44.5t-17 -43.5v-9l3 1q5 11 18 37l33 65q5 8 8.5 15.5t7.5 14.5
l60 82l-25.5 -53l-30 -62.5l-29.5 -64t-23 -56.5t-12 -40.5t5 -16.5q5 -2 27.5 3t56.5 17.5t75.5 32.5t85.5 48l125.5 76z" />
    <glyph glyph-name="o" unicode="o" horiz-adv-x="731" 
d="M767 275l-106 -66.5t-122.5 -72t-147.5 -67t-182 -51.5q-4 -3 -10 -7q-6 -3 -15.5 -5.5t-25.5 -3.5q-8 -1 -28 -2t-45 1t-51 7.5t-46 17.5t-31.5 32.5t-7.5 52.5l5 24q6 22 25 47t39 47q24 26 52 51q-23 -17 -44 -35q-18 -16 -37 -37t-30 -43q-11 -23 -16 -38t-7 -26
q-2 -12 0 -20q-3 1 -7 3q-8 4 -9 6q-2 5 -4 13l-2 10q-23 0 -30 13q-3 6 -2.5 15t6.5 23.5t19 34t35 45.5q36 42 77.5 75.5t82.5 57t78 36.5t64 14q30 -16 57 -34q23 -16 46 -37.5t35 -45.5q12 -25 17 -38t7 -19q2 -7 0 -7q-10 18 -20 34q-9 14 -19 27.5t-18 21.5l-23 21
q18 -23 31 -47q11 -20 19 -44.5t4 -45.5t-14 -42.5t-22.5 -40.5t-25.5 -34.5t-23 -25.5q53 7 113 30.5t120 55t117.5 67.5l106.5 69zM299 175q20 38 21 71.5t-7 58.5q-9 29 -26 54q-11 2 -32 -2t-61 -24q-22 -12 -46 -30.5t-47 -40t-43.5 -44t-35.5 -42.5q-18 -25 -29 -49
q-9 -20 -13 -41t9 -34l9.5 -3t28 -5t47 -1.5t66.5 6.5q1 0 18.5 5.5t42 19.5t51.5 38.5t47 62.5z" />
    <glyph glyph-name="p" unicode="p" horiz-adv-x="702" 
d="M714 292q10 1 14.5 -1t6.5 -5.5t2 -7t2 -5.5q-42 -56 -95 -98.5t-108.5 -73t-110 -51t-100.5 -32t-79.5 -15.5t-47.5 -2q-23 3 -42.5 11.5t-35.5 19t-28 21.5t-20 20l-11 5.5t-8 4.5q-4 3 -7 5q1 0 4 -1q6 -2 11 -2q-1 1 -1 2l-1 1l29 -7q11 -1 22.5 -0.5t21.5 2.5
q41 10 67 28.5t40 37.5q17 22 25 46q-12 -19 -28 -37q-14 -15 -33.5 -31t-44.5 -27q-14 -5 -26.5 -7t-22.5 -2q-11 0 -22 2q22 6 46 17q20 9 43.5 25t44.5 39q19 21 30.5 45.5t18.5 45.5q8 25 11 49q-21 -3 -47 -14q-23 -11 -54.5 -32t-69.5 -60q-30 -31 -54 -61.5
t-42 -58.5q-15 -22 -30.5 -56t-28.5 -66l-30 -78l-120 -380q1 17 5 40q3 19 8 46t13 61q4 17 4.5 19.5t-1.5 -4.5l-6 -21.5t-8 -32.5l-28 -107q-12 -7 -23 -4q-9 2 -16.5 13.5t-8.5 42.5q-1 24 10 76.5t31 121.5t48.5 149t61.5 160q12 42 43 110.5t74.5 149.5t95.5 166.5
t107 159.5q48 66 96 111t90 74l-73 -76q-41 -44 -80 -97t-73.5 -106t-62.5 -101.5t-46 -82.5q6 9 14 17l51.5 82.5l62.5 94.5t67.5 93.5t66.5 78.5q5 6 10 11l10 10q69 71 108 99.5t50 34.5l4 2q8 3 14.5 4.5t11.5 3.5l9 3l31 -39v-1h-1v-1q-1 -3 -4.5 -10.5t-13 -23
l-26 -41.5t-43.5 -65q-18 -27 -48 -62l-66 -74l-75 -79.5l-75 -77l-66.5 -66l-48.5 -47.5q-25 -46 -47 -90.5l-42 -84.5h1l-2 -4q21 28 47 58t56.5 57.5t65 50.5t73.5 38q1 -1 3 -1q2 -1 4.5 -1t5.5 -1l24 -20l26 -23t23.5 -25t16.5 -25q-2 -31 -23 -66.5t-50.5 -66
t-62 -51.5t-56.5 -22q1 -5 7 -9t12 -7q7 -4 16 -6q41 -3 90.5 7t100.5 29t100.5 45.5t92 57.5t75 64t48.5 65zM477 842q-42 -44 -101 -113.5t-123 -161.5q-27 -39 -55 -85t-55 -95l65.5 61.5t79.5 79.5q27 27 55 61t54.5 69.5t50 70.5t41 63.5t28 48t11.5 24.5q0 8 -7.5 5.5
t-17 -8.5t-17.5 -12.5t-9 -7.5zM-110 -5l-19.5 -53l-14.5 -41q-7 -20 -12 -37q6 16 14 35l16 39l20 49q-2 2 -4 8z" />
    <glyph glyph-name="q" unicode="q" horiz-adv-x="587" 
d="M60 -91l58.5 36.5l88 53.5l106 64.5l113 69.5l109 68l93.5 61l4 -16.5t5 -16.5l-204.5 -125.5l-175.5 -104.5l-168 -97q31 -54 39 -109q3 -24 1.5 -50t-11 -52.5t-28.5 -53t-51 -50.5q-35 -26 -59 -38t-39 -17q-18 -5 -29 -3q-2 2 -6 5l-8 5.5t-10 8.5q8 2 25.5 5.5
t28.5 7.5q23 8 40.5 19.5t30.5 24t21 24t13 20.5q4 4 8.5 7t9.5 5q5 3 10 4q3 9 6 17l4 11.5t1 3.5q-6 -6 -21.5 -28.5t-41.5 -43.5q-32 -26 -59.5 -40t-47.5 -20q-24 -7 -44 -7l-10.5 8t-10.5 9q-4 3 -4 8l-9 7l25 48q11 20 22 44t19 44l21 52l-87 -167l-15 13q1 19 16 56
q13 31 40 83.5t78 132.5l86.5 135.5l74.5 115.5l-67.5 -58t-55.5 -44q-8 -6 -22.5 -13.5l-29.5 -15t-27 -12.5t-16 -6q-3 -1 -8.5 1t-9.5 9t-4.5 20.5t5.5 37.5q6 23 26 51t42 52q26 28 56 55q-25 -18 -47 -38q-20 -17 -39.5 -40t-31.5 -47t-17.5 -41.5t-7.5 -28.5
q-2 -13 0 -22q-4 1 -8 3q-7 4 -9 7q-3 5 -4 14q-1 5 -2 11q-25 -1 -32 14q-3 6 -2.5 16.5t7 26t20 36.5t37.5 50q38 46 82 82t88 61.5t83.5 39.5t68.5 16l64 -79q-2 -4 -3 -5l-1 -1q-5 9 -19 11q-12 2 -34 -3t-60 -25q-25 -13 -52 -35t-52.5 -47t-48 -51t-38 -48t-23 -37
t-3.5 -19q4 -3 22.5 7.5t44.5 29t55 41.5l55 44l45.5 37t24.5 21q4 5 6.5 9t4.5 6q7 -4 21 -14l28 -21l-114 -146l131 133q8 -7 11 -8l-69 -86t-88 -117.5t-91 -137t-76 -143.5q-16 -36 -25 -61t-14 -42q1 1 2 1l-3 -3q-2 -6 -2 -9q1 1 4 1q17 11 39 28q19 14 44.5 37
t57.5 56q26 27 38 51.5t14.5 46t-1.5 39t-10.5 30.5t-12 21.5t-5.5 12.5z" />
    <glyph glyph-name="r" unicode="r" horiz-adv-x="764" 
d="M775 297q4 -5 12.5 -5t11.5 -5q-25 -27 -69 -53.5t-96.5 -49.5t-108.5 -40t-104.5 -25t-84 -4.5t-46.5 22.5q-11 41 2 87.5t36 80.5q-5 -10 -8 -19.5l-6 -19.5q-5 -13 -5 -23l2 11.5t3 11.5q6 11 13 22.5t7 24.5q-2 -2 -3 -4t-3 -4q5 11 11 22t14 21q-5 0 -8 -1
l-14.5 -21.5t-16.5 -27l-15.5 -29t-10.5 -26.5q-9 -33 -9 -52q-1 -11 1 -20q-5 18 -4 41q1 20 7.5 46t25.5 58q9 17 12 25l-9 -3q1 1 1 1.5t1 1.5q-2 1 -8 1q-10 1 -29 -9q-17 -8 -45 -27t-72 -57q-29 -25 -54.5 -52t-47 -54t-39 -52l-30.5 -44q-15 -20 -24 -30l-9 -11l5 10
h-1q-1 0 -2 1q-2 -5 -3 -8t-2 -5q-1 -3 -2 -4q4 17 11 39q6 19 15 44.5t23 57.5q7 16 8 18.5t-2 -4.5t-9.5 -20.5t-13.5 -30.5l-45 -101q-13 -5 -23 -1q-8 4 -14 16.5t-2 43.5q2 16 11.5 45t25.5 66.5t37.5 82t47.5 92.5q9 16 18 29t18 21q9 9 17 16t13 12q-17 -23 -25 -37
l-12 -21q-4 -9 -4 -11q7 8 16 20l18 26l24 37l1 4l1 -1l1 1l14.5 -7.5l14.5 -7.5q10 -6 21.5 -12l21 -11t14.5 -9t4 -5q-12 -8 -33 -33t-42 -53q-25 -33 -51 -71l72 130q-2 1 -7 -5.5l-12.5 -16.5l-15 -21l-13.5 -20l-51.5 -103.5l-42.5 -89.5v-1l12 20q15 19 33 39
l34.5 38.5t42.5 44.5l4 4l4 4q0 1 1 1q1 1 1 1.5t1 1.5q3 3 6.5 6t6.5 6q28 26 55.5 45t53 32t47 21.5t38.5 13.5q11 2 19.5 4l16.5 4l44 -48l-6 -6q-28 -24 -48 -52.5t-37 -60.5q-2 -3 -6.5 -13t-8.5 -22.5t-5 -24.5t4 -17q-3 -12 22.5 -14.5t68 3.5t95.5 19.5t105 34
t97.5 47t72.5 57.5z" />
    <glyph glyph-name="s" unicode="s" horiz-adv-x="656" 
d="M662 304q-40 -41 -98 -61t-114.5 -37l-107 -32.5t-86.5 -30.5q1 -13 0 -28t-5 -34q-6 -32 -29 -78.5t-64.5 -92t-102.5 -82t-142 -48.5l-29 20q55 3 100 21t78.5 40.5t56.5 45.5t34 37l2 2q3 3 6 5l2 2q6 5 14.5 14.5t13.5 17.5q2 3 5 9t5 11l6 14l-5 -5q-2 -2 -5 -5.5
t-7 -7.5q-5 -4 -9.5 -11.5l-9.5 -15.5l-11 -21l-4 -5q-11 -9 -36 -26l-73 -48q-56 -35 -104 -45t-85 -7q-16 14 -25 34t-20 32q12 10 29 27t41.5 38.5t57 45.5t73.5 49l103.5 62t108.5 52q-1 5 -3 9q-2 3 -3 6t-2 4q-1 0 -12.5 -1.5t-30 -5t-41.5 -8.5l-47 -10l-127 -28
q-4 1 -7.5 5t-5 11.5t0.5 20.5t10 32q9 23 32.5 47.5t48.5 45.5q29 25 62 48q-27 -14 -52 -32q-21 -15 -43.5 -34.5t-37.5 -41.5q-16 -23 -23.5 -39.5t-10.5 -27.5q-4 -13 -3 -22q-3 2 -7 5q-8 6 -9 8t-1 5.5v8.5t-1 11q-25 3 -30 19q-2 7 -0.5 17t10 24t25 33.5t43.5 44.5
q44 40 92.5 70.5t95 50t87.5 28t70 5.5l31 -50q21 -17 33 -33q11 -14 15 -27t-10 -21q-20 -11 -49.5 -17t-57.5 -9q-33 -4 -68 -5q20 6 38 12l34 11t34 13q15 6 25 12.5t15 11.5q6 6 9 11q-4 10 -17 14q-11 3 -34 0.5t-64 -16.5q-32 -12 -68 -35t-69 -50t-59.5 -53
t-39.5 -44l48.5 9.5t67.5 11t65 5t41 -7.5v2l3 -4q0 -1 0.5 -1t0.5 -1q7 -9 11.5 -18.5l9.5 -19.5q8 2 36.5 10l68 18.5t85.5 24l89 27t78.5 27t53.5 25.5zM177 44q16 20 26 41t16 42q-65 -32 -120.5 -67.5t-100.5 -68.5t-77.5 -60l-49.5 -42q-5 -10 -1.5 -17t16.5 -5
q39 7 74.5 21.5t66.5 32.5t57 38t45 37q28 22 48 48z" />
    <glyph glyph-name="t" unicode="t" horiz-adv-x="595" 
d="M615 273q-68 -59 -142 -105t-145.5 -79.5t-136 -54.5t-115 -30t-82.5 -6.5t-37 16.5l-2.5 5t-1.5 4q-2 2 -7 21.5t0 45.5q2 13 5 21.5l5 14.5q3 6 4 11q-7 -8 -12 -19q-5 -10 -8.5 -24.5t-3.5 -34.5q-1 -7 -1 -12.5v-10.5q-6 6 -12.5 16t-10 23.5t-2.5 29.5t9 33
q18 41 43 92l55 108l-40 4t-40 7q-23 5 -43.5 13t-35.5 15q-18 8 -33 16h3q33 -11 84 -22t116 -11l89.5 154.5t98.5 147.5q48 66 96 111t90 74l-73 -76q-45 -48 -88 -107.5t-79.5 -117t-64.5 -107.5t-43 -79h2l30 49l40.5 64l47.5 72.5l51.5 74.5l53 70.5t50.5 59.5l20 21
q41 42 71.5 68.5t50.5 41.5q24 18 40 25q8 3 14.5 5t11.5 4l9 3l31 -39q-2 -6 -12 -24q-8 -15 -26 -42.5l-50 -75.5q-23 -34 -66.5 -82l-94 -99.5l-101.5 -101l-90 -85.5q5 1 10.5 1.5t10.5 2.5q81 17 133.5 32t84.5 27q37 14 57 27l18 -29q-1 0 -2 -2t-5 -8l16 -16
q-9 -12 -23 -23q-12 -9 -30 -19t-41 -15q-24 -6 -56.5 -11t-61.5 -8q-34 -4 -70 -7l57 15q22 5 39 12l30 12q14 6 26 12l-40 -8.5l-45.5 -9t-47 -8l-44.5 -6.5h-1l-39 -3l-52 -100.5l-46 -92.5q0 -1 -5.5 -19t-9.5 -39.5t-4.5 -39.5t9.5 -19q41 -4 93 6t108.5 30.5
t114.5 48.5t112 59.5t100 65t78 63.5zM254 575q-26 -37 -51.5 -80l-51.5 -88l7 7.5l22.5 24l42 44l65.5 67.5q27 27 55 60l54.5 67l50 67l41.5 59.5t28.5 45t11.5 24.5q0 8 -7.5 5.5t-17 -8.5t-18 -13l-8.5 -7q-42 -45 -101 -114t-123 -161zM41 336q-2 -5 -3 -6t-1 -2
q0 1 1 2l4 6h-1z" />
    <glyph glyph-name="u" unicode="u" horiz-adv-x="820" 
d="M854 275q-71 -53 -139 -90t-128 -61t-109.5 -36.5t-82.5 -18.5q-8 -2 -14.5 -3t-13.5 -1t-15 2l-33 -2q-34 8 -45 33t-8 58l-71 -63t-65.5 -51.5t-55.5 -32.5t-41 -8q-26 5 -40.5 16t-21.5 26q0 2 -2 21t6 51q5 17 7 28t3 17q1 7 1 11q-9 -20 -16 -38q-6 -16 -10.5 -33
t-2.5 -28l-1 -21q-5 -1 -11.5 0.5t-12 7.5t-8 18.5t0.5 34.5q2 16 12 45t26 66.5t37.5 82t47.5 93.5q9 15 18 28.5t17 21.5l31 28q-17 -23 -25.5 -36.5t-12.5 -21.5q-4 -9 -4 -12q6 9 16 21l19 26.5t25 37.5l2 2v1v-1q3 -1 18.5 -9l32.5 -17t30 -17t11 -9q-12 -8 -33 -33
t-42 -53q-25 -33 -51 -71l71 131q-2 1 -10.5 -10.5l-18.5 -26l-18.5 -27.5t-9.5 -15l-35 -70t-31 -65l-4 -8l-9 -17q-8 -17 -18 -43t-14.5 -50.5t0 -42t26.5 -15.5q14 1 41 19t61.5 46.5l74.5 64.5l80 74q11 30 25.5 59t27.5 52q15 26 31 51h-4q13 14 26.5 26l27.5 24
q10 2 14 2l43 -47q-5 -5 -14 -16.5t-24 -34.5l-27 -41.5t-22 -37.5l-19.5 -45.5t-17.5 -42.5l1 -9h2l52 102l15 31l60 81l-25.5 -52.5l-29.5 -63l-29 -64t-23.5 -56.5t-12 -40.5t5.5 -16.5q27 -2 67 6t85.5 24t93 37.5t90.5 45t78 48.5t55 47zM8 247q-4 -5 -7.5 -14.5
t-5.5 -19.5q-4 -11 -6 -25l33 72q-1 0 -3 -2t-4.5 -4t-6.5 -7z" />
    <glyph glyph-name="v" unicode="v" horiz-adv-x="955" 
d="M225 74q47 36 86 84t71 103q29 49 53.5 83t45 55.5t36.5 32t28 14.5q28 9 45 -13l49 -32q-21 -25 -47.5 -62.5t-48.5 -77t-34 -75t-3 -55.5q10 -23 47.5 -28.5t97.5 12.5t140.5 62.5t176.5 122.5l6 -24q-40 -37 -97 -73t-117 -64t-117.5 -44.5t-98.5 -14t-59.5 26.5
t-1.5 78l25 60q11 26 24 53.5t26 49.5q-26 -16 -56 -46l-63.5 -66l-70.5 -75t-77.5 -72.5t-84 -57.5t-89.5 -31q-36 1 -59 22t-36.5 53t-19 71t-6.5 77.5t1.5 71.5t5.5 53q5 23 11.5 44t14.5 42l16 8l69 -44q-2 -6 -5.5 -21t-7.5 -43q-4 -23 -8 -51t-4 -46q1 -23 2.5 -54
t3.5 -51l6 -10l1 2q1 12 1 43.5t2 79.5v19t1 18l21 102v-63.5t0.5 -75t2 -76.5t4.5 -67.5t8.5 -47.5t13.5 -17q6 -1 24.5 8t44.5 27z" />
    <glyph glyph-name="w" unicode="w" horiz-adv-x="1141" 
d="M1168 259q-90 -72 -174 -125.5t-148.5 -79t-104 -18.5t-40.5 54.5t43.5 141t147.5 241.5q-10 11 -27 -6.5t-39.5 -53t-50 -84l-58 -101t-64 -103t-68.5 -90t-70.5 -62.5t-70.5 -20q-34 1 -56.5 19.5t-36 47t-20 64.5t-8 72.5t0 69.5t4.5 57q-23 -36 -53 -77t-63 -78
t-67.5 -66t-68.5 -41q-51 -18 -77 -24.5t-37 -6.5q22 6 46.5 17.5t56.5 28.5q38 21 69.5 48t54.5 51q26 28 48 57q-17 -21 -38 -43q-18 -19 -44 -41.5t-58 -44.5q-37 -25 -77 -38.5l-68 -22.5q-1 -1 -1 -2v-1q4 17 11 39q6 19 15 44.5t23 57.5q7 16 7.5 18.5t-2.5 -4.5
t-9.5 -20.5t-13.5 -30.5l-45 -101q-13 -5 -23 -1q-8 4 -14 16.5t-2 43.5q2 16 12 45t26 66.5t37.5 82t47.5 92.5q8 16 17.5 29t17.5 21l17.5 16t13.5 12q-17 -23 -25.5 -37l-12.5 -21q-4 -9 -4 -11q6 9 16 21l19 26.5t25 37.5l2 2l49 -25l31.5 -17.5t11.5 -9.5
q-12 -8 -33 -33t-41 -53l-51 -71l71 130q-2 2 -10.5 -10.5l-19.5 -27.5l-27 -41v2l-38 -76l-34 -70l-4 -11q1 2 2 3.5t3 3.5q-4 -8 -7 -12l-9 -24q0 -2 -0.5 -2.5t-0.5 -2.5q-2 -3 -2.5 -6t-2.5 -6l-19 -46q22 7 48 18q22 10 49.5 26.5t57.5 42.5q15 12 32.5 30t36 39
l37.5 43.5l36 43.5l83 106l8.5 3.5t7.5 3.5l16 -10l53 -33q-2 -7 -5.5 -21.5t-7.5 -42.5q-4 -23 -8 -51t-4 -46q1 -23 2.5 -54.5t3.5 -50.5l6 -10l1 1q1 13 1 44.5t2 78.5v20t1 17l21 103q0 -27 -0.5 -61.5l-1 -70.5t0 -70.5t2.5 -62t7 -45t13 -18.5q14 -4 34.5 14.5
t44 52.5t48 79.5t48.5 95t45.5 99.5l38.5 93q26 67 54 93.5t51 31.5l42 -18q-72 -96 -133 -200.5t-108 -214.5q30 50 56.5 99l56 99t64 101t80.5 105l13 -6l54 -35q-57 -36 -120.5 -141t-106 -221.5t76.5 -70t352 221.5z" />
    <glyph glyph-name="x" unicode="x" horiz-adv-x="784" 
d="M93 120q-40 -57 -70 -92t-52.5 -53.5t-39.5 -23.5t-30.5 -2.5t-25 9.5t-23.5 13q27 0 57.5 21.5t60.5 50t56.5 59t44.5 48.5q-26 20 -49 64.5t-34 104.5q-7 42 -2 84.5t13 77.5q10 40 24 79l58 -33q-2 -6 -5.5 -19.5t-7.5 -39.5q-5 -21 -8.5 -46.5t-3.5 -42.5
q0 -11 5 -27l10 -32q6 -18 15 -39q0 6 -2.5 15t-5.5 22.5t-5 31t-1 38.5v17.5t1 16.5l21 94q1 -45 0 -88t1 -83.5t9.5 -78t25.5 -71.5q50 54 106.5 105.5l116 101.5l120 98.5l117.5 96.5q70 57 115 83t72 32t38.5 -1.5t15.5 -15.5q-9 -2 -20 -4t-24 -7q-45 -18 -75 -34
t-49 -28q-22 -14 -35 -26l32 16l35 18l44 22q23 11 41 18t30 10q14 4 24 4l35 -45q-20 -8 -44 -21q-20 -11 -47 -28.5t-57 -42.5q2 6 9 16q5 8 16 20t30 29q-2 -1 -39.5 -15.5t-113.5 -61t-193 -134t-277 -233.5q13 -19 34.5 -40t46 -39.5t49 -32t44.5 -17.5q34 -7 73.5 2
t81.5 29t85.5 48t86 59t81.5 62.5l72 57.5l17 -18q-20 -17 -51 -41l-68.5 -51.5l-78.5 -55t-80 -51t-73 -40.5t-58 -23q-57 -18 -105.5 -13.5t-89 21.5t-72.5 43t-55 52z" />
    <glyph glyph-name="y" unicode="y" horiz-adv-x="759" 
d="M793 264l-139 -84.5l-132 -75.5l-128.5 -70.5l-127.5 -68.5q-43 -96 -99.5 -201t-116.5 -198q-46 -73 -92 -124.5t-88 -86.5l33 39l39 47q39 49 76.5 107.5t70 116.5t59 110l44.5 88l-14 -19l-49.5 -89.5l-60 -103t-65 -102.5t-63.5 -88l-18 -23q-41 -48 -70.5 -79
t-49.5 -48q-24 -21 -40 -31q-8 -5 -14 -8t-11 -5q-5 -3 -10 -4l-31 34q0 7 10 25q8 16 25 46.5t49 82.5q17 29 46 68.5l63.5 83.5l72.5 89.5l72.5 87l64 75l47.5 54.5l45 97l40 90q0 2 0.5 2.5t0.5 2.5l8 18.5l8 19.5q0 8 3 17l-78.5 -62.5t-72.5 -51t-60.5 -33t-41.5 -8.5
q-25 5 -37 16t-18 26q0 2 0.5 21t12.5 52q6 17 9 27.5t5 16.5q2 7 3 11q-11 -20 -20 -38q-8 -16 -14 -33t-6 -28l-4 -20q-5 -1 -11 0.5t-10.5 7.5t-5.5 18.5t4 34.5q4 16 17.5 45t33.5 66.5t46.5 82l57.5 92.5q22 34 42 50l35 29q-20 -24 -30 -37.5t-15 -21.5q-5 -9 -6 -11
l19 21l22 26t29 37l1 3h1h1l19 -11q10 -6 22.5 -12.5t22.5 -12.5t15.5 -10.5t3.5 -5.5q-12 -8 -36 -33t-48 -53l-60 -71l87 130q-1 1 -8 -6.5t-16 -18.5l-19 -23t-16 -20l-90 -145l-4 -8l-10 -18q-10 -17 -23 -43t-20.5 -50t-5 -41.5t23.5 -15.5q14 1 43 18.5t67.5 46
t82.5 65l88 74.5q15 30 33.5 59l34.5 52q18 26 37 50q-1 0 -2 0.5t-2 0.5q13 13 28.5 25l30.5 24l15 3l37 -48q-6 -5 -16.5 -16.5t-27.5 -34.5l-33 -41.5t-26 -37.5q-5 -7 -10 -16t-10 -19l-14 -38q0 -4 -1 -6l53 85l20 30l70 82q-11 -18 -22 -32t-25 -33.5t-32 -48.5
t-43 -76q-10 -16 -18 -32.5t-17.5 -38l-22.5 -50l-32 -67.5q28 19 65 37.5l90 45t125 66t170 99.5l47 32zM3 248q-5 -5 -9 -14.5l-8 -19.5q-4 -11 -8 -25l41 72q-1 0 -3 -2t-5 -4t-8 -7zM9 -354q26 43 52.5 92.5l52.5 101.5l-63 -70l-78 -90q-25 -31 -52 -68.5t-52.5 -77
l-48 -77.5l-39.5 -68.5t-27 -52t-10 -26.5q-1 -8 6.5 -4.5t17 11t18 15.5l8.5 8l97.5 128.5t117.5 177.5z" />
    <glyph glyph-name="z" unicode="z" horiz-adv-x="921" 
d="M934 262l-441 -279q-47 -89 -105.5 -186t-121.5 -182q-49 -66 -97 -110.5t-90 -73.5l33.5 34.5l39.5 41.5q41 43 80.5 96t74.5 106t63 101l47 82l-15 -17l-52 -81l-63.5 -94l-68.5 -93.5t-66 -78.5l-20 -21q-42 -42 -72.5 -68.5t-50.5 -40.5q-24 -18 -40 -25
q-8 -4 -14.5 -5.5t-11.5 -3.5t-9 -2l-31 39q2 6 12 24q8 15 26 42.5l51 75.5q18 26 48.5 61l66.5 74l75 79l75.5 75.5l67 65l49.5 47.5l10 19q3 5 10.5 20t15.5 34t14 37.5t5 29.5q-1 7 -14 9t-33 0.5t-45 -5t-49.5 -8.5l-45.5 -9.5l-34 -7.5q-5 -3 -11 -4l-1 1q-1 0 -2 -1
l-2 9l-20 31q6 1 11 4v1q1 1 2 1q2 0 5 1q2 1 5 1.5t5 2.5q78 34 122 80.5t65.5 90.5t27.5 79t7 46t-6.5 16.5t-16.5 8.5q-11 4 -25 4q-11 -2 -25 -6t-31 -11q-26 -11 -55.5 -29.5t-57.5 -41t-53 -46t-42.5 -43.5t-26.5 -34.5t-5 -18.5q3 -3 16.5 2t33.5 15.5t44 25.5l49 30
q-19 -36 -46.5 -58.5t-54 -35.5t-46.5 -18t-24 -5t-9 2t-8 9.5t-2.5 21t9.5 36.5t32 48.5t47 46.5q28 25 61 49q-26 -15 -51 -33q-21 -15 -43.5 -35t-36.5 -43q-15 -23 -22 -39.5t-10 -27.5q-4 -13 -3 -22q-3 2 -7 4q-8 4 -8 8q-1 2 -1.5 5.5t-1.5 8.5t-1 11q-25 2 -30 18
q-2 7 -0.5 17t9.5 24.5t23.5 34t42.5 45.5q43 42 91 73t94 52t87 30.5t70 7.5l37 -57q10 -9 17 -27l1 -1q11 -33 3.5 -86.5t-40.5 -113.5q-17 -30 -37.5 -55.5t-46.5 -47.5q12 1 30 2q30 1 91 0q30 -2 46 -17.5t24 -34.5q9 -22 9 -49l-3 -5q11 9 36.5 26.5l59.5 39.5
l73.5 46.5l78.5 48.5l73.5 45.5l59 37.5t35.5 24.5t3 5.5zM228 -297q28 39 56 84.5t55 94.5l-24 -22l-56.5 -53.5l-65.5 -64.5q-27 -27 -55 -60.5l-55 -69t-50.5 -70l-41.5 -63t-29 -48.5t-11 -25q0 -8 7.5 -5.5t17 8.5t18 13l8.5 7q42 44 101.5 113t124.5 161z" />
    <glyph glyph-name="a.salt" unicode="&#xe000;" horiz-adv-x="725" 
d="M764 234q1 -4 1 -8v-11q0 -1 -16.5 -19.5l-43.5 -48.5l-61.5 -67.5l-71.5 -76.5l-73.5 -75t-66.5 -63l-72 -64l-85.5 -75.5t-89.5 -73.5t-83.5 -59.5t-67.5 -33t-42 6.5q-10 13 -5.5 54.5t20 100t39.5 127.5t51.5 136.5t56 127.5t53.5 100h-8l-300 -192l-11 -9t-10 -7
t-8 -3q-3 -1 -8.5 0.5t-9 8t-4 19t5.5 34.5t25 47.5t39 47.5q24 26 52 51q-23 -17 -44 -35q-18 -16 -37 -37t-30 -43q-11 -23 -16 -38.5t-7 -26.5q-2 -12 0 -20q-3 1 -7 3q-8 4 -9 6q-3 5 -4 13q-1 4 -2 11q-23 0 -30 13q-3 6 -2.5 15t6.5 23.5t19 34t35 45.5
q36 42 77.5 75.5t82.5 56.5t78 36t64 14l60 -72l-2 -4l-1 -1q-5 8 -18 10q-11 2 -32.5 -3t-56.5 -23q-36 -18 -74 -52.5t-69 -69.5t-48.5 -63t-11.5 -33q4 -4 21.5 8t44.5 32.5l61 46.5t70.5 50.5t74 45t70.5 29.5q23 7 37 8l43 -47q-5 -5 -14 -16.5t-24 -34.5l-27 -41.5
t-22 -37.5l-19 -45l-18 -43l25 51l18.5 36.5t10.5 18.5q6 7 7.5 14.5t8.5 3.5l5 6q-2 -4 -4 -10l-40 -75.5l-45 -86.5l-45.5 -90.5l-42.5 -87.5q1 5 1 10v2q-2 -6 -5 -13q-2 -6 -5 -14t-6 -18q-15 -34 -26.5 -62.5t-17.5 -49t-6 -32t8 -10.5h2q3 1 5.5 1.5t5.5 0.5v2
q2 2 6 4v-1q30 9 76.5 41.5t102.5 78.5t117.5 102.5l121.5 113.5z" />
    <glyph glyph-name="h.salt" unicode="&#xe001;" horiz-adv-x="823" 
d="M844 278l-64 -72l-77 -83.5l-79 -82t-71 -67.5l-73 -63.5t-89 -71l-94 -68.5t-88 -54.5t-71 -28.5t-43 8q-8 9 -7 36t9 66t22 86.5t31.5 99t38.5 104.5l42 101q7 17 15 33.5l16 31.5l10 21h1l4 8l7.5 15t8.5 15h2l7.5 11t5.5 9q3 4 4 7h-8q-10 1 -29 -8q-17 -8 -45 -27
t-72 -57q-29 -25 -54.5 -52t-47 -54t-39 -52l-30.5 -44l-19 -23.5t-11 -14.5q-2 -2 -2 -4t-1 -3l-1 -2v1q0 2 1 4q3 13 14 48t34 87q7 16 7.5 19t-2.5 -4t-9.5 -20.5t-13.5 -30.5l-45 -101q-13 -5 -23 -1q-8 4 -14 16.5t-2 43.5q2 20 16.5 58.5t37 88.5t53 109t66 121
t75 123t79.5 116q48 66 96 111t90 74l-73 -76q-28 -30 -55.5 -65t-53.5 -72l-49.5 -73.5l-43.5 -70.5q-48 -79 -89 -161q49 84 100 162l46 68.5l48.5 70t49.5 65.5t48 55l9.5 11t9.5 10q41 42 71.5 68.5t50.5 41.5q24 18 40 25q8 3 14.5 5t11.5 4t10 3l30 -39q-1 -6 -11 -24
q-8 -15 -26.5 -42.5l-50.5 -75.5q-18 -27 -48 -62l-66 -74l-75 -79.5l-75 -77l-66.5 -66l-48.5 -47.5l-59.5 -116l-50.5 -103q15 19 33 39l34.5 38.5t42.5 44.5l8 8l1 1l2 2q4 3 7 6.5t6 6.5q56 52 108.5 77t85.5 34l36 9l44 -48q-5 -5 -14 -16.5t-24 -34.5l-7 -11l-3 -5
l-1 -1l-22 -33.5t-16 -28.5q-8 -16 -17 -38.5l-16 -39.5l-4 2l-4 -11l1 -9l2 1l52 102l15 30l5 6q-23 -64 -49.5 -123.5t-50.5 -119.5h-9q-7 -7 -13.5 -12.5l-12.5 -10.5h19l-56 -123l-19.5 -47.5t-15.5 -43t-8.5 -33t0.5 -17.5q68 27 137 71t136 97t129 110.5t115.5 112
t96 102l70.5 80.5zM489 864q-42 -44 -101 -113.5t-122 -161.5q-28 -39 -55.5 -85l-54.5 -95l64.5 61.5l80.5 79.5q26 27 54 61t54.5 69.5t50 70.5t41 63.5t28 48t11.5 24.5q1 8 -7 5.5t-18 -8.5q-11 -8 -26 -20zM145 -277q-2 10 1 32t18 66q12 35 17.5 54.5t7.5 29.5
q2 11 1 14q-16 -45 -28 -82l-20 -60.5t-10 -36.5q-1 -11 0 -20h2z" />
    <glyph glyph-name="k.salt" unicode="&#xe002;" horiz-adv-x="890" 
d="M906 260q-26 -29 -67 -70l-89 -86l-99 -90l-98 -84l-75 -61.5l-89.5 -72l-94 -70.5t-88 -56.5t-71 -30.5t-43.5 7q-12 14 -4.5 64.5t27.5 119.5t49 148t61 151h-1q10 26 22 50.5t24 45.5q9 19 18.5 35.5l17.5 30.5h-4q-11 1 -30 -8q-17 -8 -45 -27.5t-72 -57.5
q-28 -24 -53.5 -51.5t-47.5 -54.5t-39.5 -51.5l-30.5 -43.5l-30 -39q-2 -2 -2 -3.5t-1 -2.5t-1 -2v1q0 2 1 4q4 12 15 47.5t33 87.5q7 16 8 18.5t-2 -4.5t-9.5 -20.5t-13.5 -30.5l-45 -101q-13 -5 -23 -1q-8 4 -14 17t-2 44q2 20 16 58.5t37 88.5t53.5 109t66 121t74.5 123
t79 116q48 66 96 111t90 74l-33.5 -34.5l-39.5 -41.5q-28 -30 -55.5 -65.5l-53.5 -72t-49.5 -73.5l-43.5 -71q-48 -80 -89 -161q49 84 100 162l46 69l48.5 70l49.5 65.5t48 55.5l19 21q41 42 71.5 68.5t50.5 41.5q24 18 40 25q8 3 15 5t12 4l9 3l30 -39q-1 -6 -11 -24
q-8 -15 -26.5 -42.5l-50.5 -75.5q-18 -27 -48 -62l-65.5 -74l-74.5 -79.5l-75.5 -77l-66.5 -66l-49 -47.5l-51.5 -100.5l-45.5 -92.5q33 36 72.5 75l82 78l87 78l88.5 75q45 37 78.5 61t57.5 38.5t39.5 21t24.5 7.5q22 3 20 -19l36 -45q-20 -8 -44 -21q-20 -11 -47 -28.5
t-57 -42.5q2 7 9 17q5 8 16 20t30 28q-2 -1 -21 -7.5t-51 -21.5t-75.5 -40t-93.5 -64q17 8 32.5 13l27.5 9q11 3 20 4.5t17 3.5l1 -1h2l43 -47q-5 -5 -14 -16.5t-24 -34.5l-27 -41.5t-22 -37.5q0 -1 -0.5 -1.5t-0.5 -1.5q-1 0 -2 -0.5t-2 -0.5l-18.5 -43.5t-16.5 -40.5l1 -8
h2l52 102l8 15.5t7 15.5l5 5q-23 -63 -49.5 -122.5t-50.5 -119.5l-9 -1q-7 -7 -13.5 -12l-12.5 -10h19l-56 -123l-19.5 -47.5t-15.5 -43t-8.5 -33t0.5 -17.5q32 10 90.5 47.5t131 92l151.5 119l151.5 129l133 122t94.5 97.5zM487 816l-101.5 -114t-122.5 -161
q-28 -40 -55.5 -85.5l-54.5 -94.5l64.5 61.5l80.5 78.5q26 27 54 61t54.5 69.5t50 70.5l41.5 63.5t28.5 48t10.5 25.5q1 8 -6.5 5.5t-17.5 -8.5q-11 -8 -26 -20zM13 87q-1 -2 -2 -4.5t-2 -5.5l5 8q0 1 -1 2zM143 -326q-2 10 1 32.5t18 65.5q12 35 17.5 55t7.5 30q2 11 1 14
l-28 -83l-10.5 -32l-10 -29t-7.5 -22.5t-3 -13.5q-1 -5 -0.5 -10t1.5 -9h2z" />
    <glyph glyph-name="l.salt" unicode="&#xe003;" horiz-adv-x="574" 
d="M584 347q5 -3 9 -6q8 -6 8 -8q0 -1 -17 -21l-45.5 -51.5l-64.5 -71.5l-74 -80.5l-75.5 -78t-67.5 -64.5l-73.5 -63t-89 -71.5l-94 -68.5t-88 -54.5t-71 -28.5t-43.5 8q-10 11 -7 45t14.5 82.5t30.5 107t42 119t48.5 119t49.5 106.5h1l51.5 99t58.5 104.5l63.5 103.5
t66.5 97q48 66 96 111t90 74l-33.5 -34.5l-39.5 -41.5q-28 -30 -55.5 -65t-53.5 -72l-49.5 -73.5l-43.5 -70.5q-48 -79 -89 -161q49 84 100 162l46 68.5l48.5 70t49.5 65.5t48 55l9.5 11t9.5 10q41 42 71.5 68.5t50.5 41.5q24 18 40 25q8 3 15 5t12 4l9 3l30 -39
q-1 -6 -11 -24q-8 -15 -26.5 -42.5l-50.5 -75.5q-24 -35 -70 -86t-99.5 -105l-106 -104.5l-89.5 -85.5q-8 -14 -15 -27.5t-15 -27.5q1 0 2 1l-6 -9q-5 -8 -8.5 -16t-7.5 -16q-3 -1 -7 -3l-21 -32t-15 -27q-9 -19 -20 -45t-17 -43v-9l3 1l18 36.5l33 65.5q5 8 8.5 15.5
t7.5 14.5l4 6q-22 -64 -48.5 -123.5t-50.5 -119.5h-9l-14 -12.5l-12 -10.5h19l-56 -123l-19.5 -47.5t-15.5 -43t-8.5 -33t0.5 -17.5q64 27 129 68.5t128 90.5t122.5 103l112.5 106q123 121 237 259zM256 584q-26 -37 -51.5 -79.5l-51.5 -88.5l6.5 7.5t22 24l42 44l66.5 67.5
t82 93t77 101.5t57.5 84.5t23.5 44t-6.5 5.5t-17 -8.5t-18 -13l-8.5 -7q-42 -44 -101.5 -113.5t-122.5 -161.5zM-162 -287q3 1 11 3q-2 10 1 32t18 66q12 35 17.5 54.5t7.5 29.5q2 11 1 14q-16 -45 -28 -82l-20.5 -60.5t-10.5 -36.5q-1 -6 -0.5 -10.5t1.5 -9.5h2z" />
    <glyph glyph-name="d.salt" unicode="&#xe004;" horiz-adv-x="691" 
d="M808 305q5 -3 9 -6q8 -6 8 -8q0 -1 -17 -21l-45.5 -51.5l-64.5 -71.5l-74 -80.5l-75.5 -78t-67.5 -64.5l-73 -63t-89 -71.5l-94 -68.5t-88 -54.5t-71 -28.5t-43 8q-9 10 -7 41.5t12.5 77t27.5 100.5t38.5 113t45 114.5t47.5 105.5l-88 -69.5l-86.5 -64t-71.5 -45
t-42 -12.5q-17 6 -22 22q-1 -1 -2 -1q-3 14 0 31q1 5 2 11t3 13q1 5 3 10l4 10q2 2 2.5 4.5t2.5 4.5q12 20 29 41t34 38q19 19 40 38q-23 -17 -44 -35q-18 -16 -36.5 -37t-29.5 -43q-11 -23 -16 -38.5t-7 -26.5q-2 -12 -1 -20q-3 1 -7 3q-8 4 -8 7q-2 5 -4 13l-2 10
q-23 0 -30 13q-3 6 -2.5 15t6.5 23.5t19 34t35 45.5q36 42 77.5 75.5t82.5 56.5t78 36t64 15l60 -73q-1 -2 -3 -4l-1 -1q-4 8 -17 10q-11 2 -32.5 -3t-56.5 -23q-23 -12 -47 -30.5t-46.5 -40t-43 -44t-35.5 -42.5l-1 -1q0 -1 -0.5 -1t-0.5 -1q-11 -17 -17 -32
q-5 -13 -7 -24.5t8 -16.5q6 -3 35.5 14.5t70 46l86 62l84.5 63.5l7.5 13.5l7.5 14.5h1q45 88 100.5 182t115.5 176q49 66 96.5 111t89.5 74l-33.5 -34.5l-39.5 -41.5q-28 -30 -55.5 -65.5l-53.5 -72t-49.5 -73.5l-43.5 -71q-48 -80 -89 -161q49 84 100 162l46 68.5l49 70
l49.5 65.5t47.5 56q5 5 9.5 10.5t9.5 10.5q42 42 72 68t50 41q24 18 40 26q8 3 15 5t12 4l9 3l30 -39q-1 -6 -11 -24q-8 -15 -26.5 -43l-50.5 -76q-24 -35 -70 -86t-99.5 -104.5l-106 -104l-89.5 -85.5q-7 -12 -13 -23.5l-12 -22.5h1q-1 -1 -1 -1.5t-1 -1.5q-5 -8 -9 -16.5
l-8 -16.5h-2q0 -3 -2 -5q-2 -1 -3.5 -1.5t-3.5 -1.5l-21 -32t-15 -27l-19 -45l-18 -43l1 -9l2 1l18.5 36.5l33.5 65.5l8 15.5t7 14.5l5 6q-23 -64 -49.5 -123.5t-50.5 -119.5h-9q-7 -7 -13.5 -12.5l-12.5 -10.5h19l-56 -123l-19.5 -47.5t-15.5 -43t-8.5 -33t0.5 -17.5
q63 25 127.5 65.5t127.5 89t122.5 102.5t112.5 107q123 123 239 263zM477 534q-26 -38 -51.5 -80.5l-51.5 -87.5l6.5 7.5t22 24l42 44l66.5 67.5q27 27 55 60l54.5 67l50 67l41.5 59.5t28.5 45t10.5 24.5q1 8 -6.5 5.5t-17 -8.5t-18 -13l-8.5 -7q-42 -45 -101.5 -114.5
t-122.5 -160.5zM62 -329q3 1 5.5 1.5t5.5 1.5q-2 10 1 32t18 66q12 35 17.5 54.5t7.5 29.5q2 11 1 14q-16 -45 -28 -82l-20.5 -60.5t-10.5 -36.5v-10.5t1 -9.5h2z" />
    <glyph glyph-name="i.salt" unicode="&#xe005;" horiz-adv-x="536" 
d="M568 277l-64.5 -72.5l-80.5 -87l-83.5 -87t-75.5 -72.5l-73 -62.5t-89 -71.5t-94 -68.5t-88 -54.5t-71 -29t-43 8q-8 9 -7 34.5t8 62t20 82t29.5 94.5t36 100t40.5 99q8 25 19.5 49l22.5 46q17 36 36 70.5t36 51.5l19 26l4 -6l-10 -27l20 18q2 0 3.5 0.5t3.5 0.5l43 -48
q-5 -5 -13.5 -16t-22.5 -32l-12 -23q-1 -1 -2 -1t-3 -1l-19.5 -30t-14.5 -26l-37 -88l1 -9l50 99l16 30l4 6q0 -1 -0.5 -2t-0.5 -2v2l11 6l-20.5 -46l-20.5 -47l-8 -10l-30.5 -72t-29.5 -72h-9q-8 -7 -14.5 -12l-12.5 -10h19l-56 -124l-19 -47t-15.5 -42.5t-8.5 -33t1 -17.5
q66 27 135.5 71t136.5 97.5t130.5 112t117.5 113.5t97 103l71 80zM-155 -294q5 0 11 2q-2 10 1 32.5t18 65.5q12 35 17.5 55t7.5 30q2 11 1 14l-28 -83l-10.5 -32t-9.5 -29l-7 -22.5t-3 -13.5q-1 -5 -0.5 -10t1.5 -9h1zM191 455q-2 2 -11 -10.5l-20 -28.5l-27 -42l-44 59
l28 61q5 9 9 17l8 11.5t8 6.5t5.5 2.5t3.5 2.5l2 2q1 0 3 -1t3 -2t3 -2l-10 -19.5t-14 -16.5q13 4 23 11t18 15l20.5 -12t19.5 -12t14.5 -10.5t5.5 -6.5q0 -8 -15 -26.5l-32 -38.5l-47 -50l21 32l15.5 24.5t9.5 16.5q1 5 1 8v5q0 3 -1 4z" />
    <glyph glyph-name="m.salt" unicode="&#xe006;" horiz-adv-x="1027" 
d="M1066 280l-63 -77l-72.5 -88l-71 -83l-58.5 -64l-66.5 -66l-77.5 -71t-81 -66.5t-76 -51.5t-62 -26t-40 9q-11 13 -6 54t20.5 99.5t39.5 127.5t51 136.5t55.5 127.5t53.5 100q-2 1 -7 1q-11 1 -30 -9q-17 -8 -45 -27t-72 -57q-28 -25 -53.5 -52t-47.5 -54t-39.5 -52
l-30.5 -44q-15 -20 -24 -30l-9 -11l5 10q-26 7 -38 25t-13 42t6 52.5t19 57.5q27 67 80 148q-2 1 -8 1q-10 1 -29 -9q-17 -8 -45 -27t-72 -57q-29 -25 -54.5 -52t-47 -54t-39 -52l-30.5 -44q-23 -28 -30 -38q-2 -2 -2 -4t-1 -3l-1 -2q4 17 11 39q6 19 15 44.5t23 57.5
q7 16 7.5 18.5t-2.5 -4.5t-9.5 -20.5t-13.5 -30.5l-45 -101q-13 -5 -23 -1q-8 4 -14 16.5t-2 43.5q2 16 12 45t26 66.5t37.5 82t47.5 92.5q9 16 18 29t17 21l17.5 16t13.5 12q-17 -23 -25.5 -37l-12.5 -21q-4 -9 -4 -11q6 9 16 21l19 26t25 37v3h1h1l21 -11q11 -5 24 -12
l23.5 -13t17 -10.5t4.5 -5.5q-12 -8 -33 -33t-41 -53l-51 -71l71 130q-1 1 -7 -6.5t-14 -18.5l-16 -23t-14 -20l-44.5 -89.5t-38.5 -79.5l9 11l24 28l35 39l42 44l8 9h1l2 3l13 12q28 26 55.5 45t53 32t47 21.5t38.5 13.5l36 8l44 -48q-5 -5 -14.5 -16.5t-23.5 -34.5
q-6 -8 -20.5 -34t-29.5 -56.5t-25.5 -58t-7.5 -38.5l13 20q14 19 32 39l34.5 38.5t42.5 44.5l8 9h1q2 2 2 3l13 12q57 52 109 77t85 35l37 8l43 -48q-5 -5 -14 -16.5t-24 -34.5l-27 -41.5t-22 -37.5l-9 -21l-10 -24l-10 -23.5t-8 -19.5l1 -9l2 1l52 102l15 30l4 6
q-22 -63 -48.5 -122.5t-50.5 -120.5h-9l-14 -12l-12 -10h19l-56 -124l-19.5 -47.5t-15.5 -43t-8.5 -33t0.5 -17.5q26 8 62.5 34t80 63.5t91 84l95 96.5l93 99.5l85.5 94.5l45.5 51l38.5 44zM438 -278q3 0 11 2q-2 10 1 32.5t18 65.5q12 35 17.5 55t7.5 30q2 11 1 14l-28 -83
l-10.5 -32l-10 -29t-7.5 -22.5t-3 -13.5q-1 -5 -0.5 -10t1.5 -10q1 1 2 1z" />
    <glyph glyph-name="n.salt" unicode="&#xe007;" horiz-adv-x="753" 
d="M768 277q3 -2 7 -5q7 -5 7 -8q0 -1 -14.5 -16.5l-37.5 -40.5l-52 -56.5l-59.5 -64l-60 -63.5l-52.5 -55q-29 -30 -66.5 -65.5l-77.5 -71t-81 -66.5t-76 -51.5t-62 -26.5t-40 9q-11 13 -6 54.5t20.5 99.5t39 127t51 136.5t56 127.5t53.5 101h-8q-10 1 -29 -8
q-17 -8 -45 -27.5t-72 -57.5q-29 -24 -54.5 -51.5t-47 -54.5t-39 -52l-30.5 -44q-15 -20 -24 -30l-9 -11l5 11v-1q-2 0 -2 0.5t-1 0.5q-2 -5 -3 -8t-2 -5q-1 -3 -2 -4q4 17 11 39q6 19 15 44.5t23 57.5q7 16 8 18.5t-2 -4.5t-9.5 -20.5t-13.5 -30.5l-45 -101q-13 -5 -23 -1
q-8 4 -14 16.5t-2 43.5q2 16 11.5 45t25.5 66.5t37.5 82t47.5 93.5q9 15 18.5 28.5t17.5 21.5q18 17 31 28q-17 -23 -25.5 -36.5t-12.5 -21.5q-4 -9 -4 -12q7 8 16 20q15 21 42 63l1 4h2l15 -7.5t14 -7.5q11 -5 22.5 -11t20.5 -11.5t14 -9.5t4 -5q-12 -8 -33 -33t-42 -53
q-25 -33 -51 -71l72 131q-1 1 -6.5 -5.5t-12.5 -16.5l-15 -21.5l-14 -20.5l-51.5 -103l-42.5 -90v-1l12 20q15 19 33 39l34.5 39t42.5 45l4 4l4 4q1 0 1 1l2 2q4 3 7 6l6 6q56 53 108.5 78t85.5 34q11 3 20 4.5t17 3.5l43 -48q-9 -7 -38 -50l-27.5 -41.5t-21.5 -37.5
q-9 -19 -20 -45.5t-17 -42.5v-9h3q5 11 18 37l33 65q5 8 8.5 15.5l7.5 15.5l4 5q-22 -63 -48.5 -122.5t-50.5 -119.5l-9 -1q-8 -6 -14.5 -11.5t-11.5 -10.5h19l-56 -123l-19.5 -47.5t-15.5 -43t-8.5 -33t0.5 -17.5q30 9 72 37.5t90.5 68.5t100 88.5l101.5 97.5
q116 115 244 256zM143 -278q2 1 5 1t6 1q-2 10 1 32.5t18 65.5q12 35 17.5 55t7.5 30q2 11 1 14l-28 -83l-10.5 -32l-10 -29t-7.5 -22.5t-3 -13.5q-1 -5 -0.5 -10t1.5 -9h2z" />
    <glyph glyph-name="t.salt" unicode="&#xe008;" horiz-adv-x="595" 
d="M-137 -280q15 -23 52.5 -14t90 40t115 79t127.5 104l128 115l116 111t91 93.5t53 61.5q7 -7 11 -12t7 -9.5t2 -5.5l-54 -56l-93.5 -93.5l-121.5 -115.5l-136.5 -121t-139 -110t-129 -82.5t-106 -39t-70.5 21.5q-10 11 -7 45t14.5 82.5t30.5 107.5t41.5 119.5t48 118.5
t49.5 106q1 1 2 1l16.5 33l17.5 34l-36.5 4t-36.5 7q-23 5 -43.5 13t-35.5 15q-18 8 -33 16h3q32 -11 81.5 -21.5t112.5 -11.5q42 79 91.5 161t102.5 154q48 66 96 111t90 74l-73 -76q-48 -51 -93.5 -114.5t-83 -124.5t-65 -111l-40.5 -74h1l27.5 45l40 64.5l49 75.5
l54.5 79l56 75t54 64l10 10.5l10 10.5q41 42 71.5 68.5t50.5 41.5q24 18 40 25q8 3 14.5 5t11.5 4l9 3l31 -39q-2 -6 -12 -24q-8 -15 -26 -42.5l-50 -75.5q-16 -24 -42.5 -54.5l-59 -65l-68.5 -71l-71.5 -71l-67.5 -65.5l-57 -54q0 -1 -0.5 -1.5t-0.5 -1.5q9 2 18 3.5
t18 3.5q81 17 133.5 32t84.5 27q37 14 57 26l18 -28q-1 -1 -2 -3t-2 -3.5t-3 -3.5l16 -16q-9 -12 -23 -23q-12 -10 -30 -19.5t-41 -15.5q-24 -6 -56.5 -10.5l-61.5 -8.5q-34 -4 -70 -7l57 15q22 6 39 12.5l30 11.5q14 6 26 13l-40 -8.5l-45.5 -9t-47 -8l-44.5 -6.5h-1
q-11 -2 -22.5 -2.5t-23.5 -1.5q-3 -5 -6 -11t-6 -11q1 0 2 1l-6 -9q-5 -8 -8.5 -16.5t-8.5 -16.5q-2 -1 -3.5 -1t-3.5 -1q-11 -16 -20.5 -32t-14.5 -27q-9 -19 -20 -45l-18 -43l1 -9l2 1l18.5 36l33.5 65q5 8 8.5 15.5l7.5 15.5l4 6q-23 -64 -49 -123.5l-51 -119.5l-8 -1
q-8 -6 -14.5 -11.5l-12.5 -10.5h19l-56 -123l-19.5 -47.5t-15.5 -43t-8.5 -33t1.5 -17.5zM263 584q-26 -37 -51.5 -80l-51.5 -88l7 7.5l22.5 24l42 44l65.5 67.5q27 27 55 60l54.5 67l50.5 67t41.5 59.5t28 45t11.5 24.5q0 8 -7.5 5.5t-17 -8.5t-18 -13l-8.5 -7
q-42 -45 -101 -114t-123 -161zM-155 -287q8 2 11 2q-2 10 1 32.5t18 65.5q12 35 17.5 55t7.5 30q2 11 1 14l-28 -83l-10.5 -32t-9.5 -29l-7 -22.5t-3 -13.5q-2 -12 1 -19h1z" />
    <glyph glyph-name="a.ss01" unicode="&#xe009;" horiz-adv-x="638" 
d="M664 280l-97.5 -67.5l-128.5 -86.5l-1 -1q-4 -3 -27.5 -18t-56 -32t-67.5 -30.5t-62 -14.5q-5 0 -10 0.5t-10 1.5q-4 1 -6.5 2t-5.5 3q-15 9 -20.5 29t-5 42t4.5 43t7 32v-1v2l1 1l-202 -169q-6 -6 -11 -10t-9.5 -7t-7.5 -4q-4 -1 -9.5 0.5t-10.5 8t-7.5 20.5t0.5 37
q3 24 19 52t34 53q21 28 47 57q-22 -19 -41 -40q-17 -18 -34 -41t-25 -48q-9 -25 -12 -42.5t-3 -28.5q0 -13 3 -22q-4 1 -8 3q-3 2 -6 3.5t-4 3.5l-10 25q-25 -2 -34 13q-4 6 -5 16t3.5 26t15 38t30.5 51q13 19 27.5 36.5t29.5 33.5q-30 -15 -69.5 -33t-83.5 -36t-91 -33.5
t-94 -26.5t-91.5 -15.5t-83.5 0.5q-48 6 -69 43t-14 90.5t43 117t103 124.5q68 61 133 94.5t116 49.5q60 18 114 21l23 -22q-30 1 -76 -8.5t-112 -39.5l-43 -21t-19 -11q-6 -4 -4 -5l-82 -64l-18.5 -14t-3.5 -3t18 13l47 35q63 48 119.5 69.5t99.5 28.5q50 8 94 2l50 -48v-9
q0 -4 -0.5 -9t-2.5 -9q-3 -8 -10.5 -13.5t-9.5 -6.5q1 0 6.5 2.5t12 6t11.5 9t6 13.5l4.5 -6t3.5 -4l3 -3q-2 -4 -6 -10l-13 -12.5t-25 -17.5t-43 -15.5t-51 -8.5q-29 -4 -60 -5q36 15 66 30l50 26t32 23q11 11 4.5 16t-15.5 7q-29 2 -79 -5t-120 -36q-40 -17 -89 -49.5
t-95.5 -73.5t-84 -85t-55.5 -82.5t-10.5 -67t52.5 -38.5q42 -9 98 -0.5t116.5 26.5t121 43t110.5 49l85.5 42.5t47.5 25.5q47 35 91.5 54.5t77.5 22.5l75 -77q-1 -2 -1 -5q0 -1 -1 -1q-7 9 -21 11q-12 2 -33.5 -4t-56.5 -27q-23 -14 -47.5 -36.5t-46 -48.5t-40 -52.5
t-31 -49t-17.5 -38t0 -19.5q3 -3 14.5 4t27.5 19.5t35.5 30l39.5 35.5l104 100l35 58l68 -32q-8 -13 -17 -30q-8 -14 -17.5 -34l-20.5 -43q-1 -1 -6.5 -15.5t-10 -31t-5 -31t8.5 -15.5q6 -2 27.5 4t53.5 19.5t71 35t79 50.5l114 79l88 62z" />
    <glyph glyph-name="b.ss01" unicode="&#xe01a;" horiz-adv-x="742" 
d="M209 25q26 5 65.5 21.5t87.5 40.5l100.5 52.5l104 58l99 58l85.5 51.5l14 -20l-94.5 -55.5l-111 -64l-114.5 -63t-106.5 -54t-86 -37t-52.5 -11.5q-32 5 -57.5 19t-43.5 29q-21 18 -38 39l5 -1q5 -1 14.5 -2.5t20.5 -2.5t23 -1t23 2q41 10 66.5 29t39.5 38q17 22 25 46
q-12 -19 -28 -37q-14 -15 -33.5 -31.5t-44.5 -26.5q-12 -5 -24.5 -7t-22 -2.5t-16 0.5t-7.5 1q1 0 14.5 4.5t33 14t42.5 24.5t43 38q19 22 30.5 46.5t18.5 45.5q8 25 11 48q-21 -3 -47 -14q-23 -10 -54 -31.5t-70 -60.5q-39 -40 -67.5 -79t-47.5 -71q-22 -37 -38 -71l-25 -3
q-2 -5 -3 -6t-1 -2q4 17 11 39q6 19 15.5 44.5t23.5 57.5q7 16 7.5 18.5t-2.5 -4.5t-9.5 -20.5t-13.5 -30.5l-45 -101q-13 -5 -23 -1q-8 4 -14 16.5t-2 43.5q4 29 29.5 91.5t66.5 142.5q-48 -23 -107.5 -46.5t-121.5 -42t-122.5 -28t-111.5 -2.5q-48 6 -69 42.5t-14.5 90
t42.5 117.5t104 125t133 94t116 49q60 18 114 21l23 -22q-30 1 -76.5 -8.5t-111.5 -39.5q-29 -13 -43 -20t-19 -11q-6 -4 -5 -6l-82 -64l-17.5 -14t-3.5 -3t18 13.5l47 35.5q63 48 119.5 69t99.5 28q50 8 93 2l26 -24l24 -23q1 -5 1 -10q0 -11 -3 -18q-4 -8 -11.5 -13.5
t-9.5 -6.5q1 0 6.5 2.5t12 6t12 9t6.5 13.5q6 -8 8 -10l3 -3q-2 -4 -6 -10l-13 -12.5t-25 -17.5t-43 -15.5t-51 -8.5q-29 -4 -60 -5q35 15 65 30l50 26t33 23q11 12 4.5 16.5t-15.5 6.5q-30 2 -80 -4.5t-119 -35.5q-40 -17 -89 -50t-95.5 -74t-84 -84.5t-55.5 -82t-10.5 -67
t52.5 -38.5t107 0.5t127.5 31.5t129.5 49t114 52q45 86 100.5 177.5t114.5 172.5q48 66 96 111t90 74l-73 -76q-37 -39 -72 -85.5t-66.5 -93.5t-58 -92l-47 -81l-33 -59.5t-14.5 -28.5l19.5 32.5l38.5 62l51.5 80l59 87.5t62 85t60.5 72l20 21q41 42 71.5 68t50.5 41
q24 18 40 26q8 3 14.5 5t11.5 4l9 3l31 -39q-2 -6 -12 -24q-8 -15 -26 -43l-50 -76q-18 -26 -48 -61.5l-66 -74.5l-75 -79l-75 -76.5l-66.5 -66l-48.5 -47.5q-37 -69 -68.5 -133.5l-54.5 -113.5q19 30 47 69t64.5 77.5t80.5 72t95 53.5q1 -1 3 -1q2 -1 4.5 -1t5.5 -1l24 -20
l26 -23t23.5 -25t16.5 -25q-1 -32 -23 -68t-52 -67t-63 -51.5t-57 -19.5h-9q1 -5 6 -9.5t12 -7.5q7 -4 17 -6zM255 569l-55 -85.5t-55 -94.5l65.5 61.5l79.5 78.5q27 27 55 61t54.5 69.5t50 70.5t41 63.5t28 48t11.5 25.5q0 8 -7.5 5.5t-17 -8.5t-18 -13l-8.5 -7
q-42 -45 -101 -114.5t-123 -160.5z" />
    <glyph glyph-name="c.ss01" unicode="&#xe01b;" horiz-adv-x="696" 
d="M734 335q2 -6 3.5 -12t3.5 -12l-70 -41.5l-89 -52.5l-100.5 -57.5l-102.5 -56.5t-95.5 -49t-80.5 -36q-3 -3 -10 -7q-6 -3 -16 -5.5t-26 -3.5q-8 -1 -28 -2t-44.5 1t-50.5 7.5t-46 17.5t-31.5 32.5t-7.5 52.5l2 10.5t3 13.5q6 22 25 47t39 47q24 26 52 51
q-23 -17 -44 -35q-18 -16 -37 -37t-30 -43q-11 -23 -16 -38t-7 -26q-2 -12 0 -20q-3 1 -7 3q-8 4 -9 6q-2 5 -4 13l-2 10q-23 0 -30 13q-3 6 -2.5 15t6.5 23.5t19 34t35 45.5l16 18t17 17q-47 -23 -110 -50t-131 -49t-135.5 -34.5t-124.5 -4.5q-48 6 -69 43t-14 90.5t43 117
t103 124.5q68 61 133 94.5t116 49.5q60 18 114 21l23 -22q-30 1 -76 -8.5t-112 -39.5l-43 -21t-19 -11q-6 -4 -4 -5l-82 -64l-18.5 -14t-3.5 -3t18 13l47 35q63 48 119.5 69.5t99.5 28.5q50 8 94 2l50 -48v-9q0 -4 -0.5 -9t-2.5 -9q-3 -8 -10.5 -13.5t-9.5 -6.5q1 0 6.5 2.5
t12 6t11.5 9t6 13.5l4.5 -6t3.5 -4l3 -3q-2 -4 -6 -10l-13 -12.5t-25 -17.5t-43 -15.5t-51 -8.5q-29 -4 -60 -5q36 15 66 30l50 26t32 23q11 11 4.5 16t-15.5 7q-29 2 -79 -5t-120 -36q-40 -17 -89 -49.5t-95.5 -73.5t-84 -85t-55.5 -82.5t-10.5 -67t52.5 -38.5
q40 -9 93.5 -1.5t111 24.5t115.5 40.5t108.5 46.5t88.5 42.5t56 29.5q55 40 107.5 61.5t88.5 23.5l49 -59q7 -9 14 -17q5 -7 10.5 -13.5t7.5 -10.5q1 -3 -12 -13.5t-34.5 -23.5t-48 -25.5t-51.5 -21.5l-67 -24l59 38l46 31.5t34 24.5q18 15 28 26t8 20q-11 2 -32.5 -2
t-60.5 -24q-23 -12 -46.5 -30.5t-46.5 -40t-43.5 -44t-35.5 -42.5q-18 -25 -29 -49q-10 -20 -13.5 -41t8.5 -34l2 -1q0 -1 1 -2l-1 2q4 -2 18.5 -5.5t41.5 -4t66 3.5t92 19q61 17 106 34.5t75 32.5l101 55.5l97.5 56l86 51.5z" />
    <glyph glyph-name="d.ss01" unicode="&#xe01c;" horiz-adv-x="691" 
d="M732 272q-2 -2 -26.5 -19.5l-63 -45l-87 -60.5l-99.5 -65.5t-101 -61t-90.5 -45.5t-69 -20.5t-35.5 14.5q-1 1 -1 2.5t-1 3.5t-2 3v1q-2 2 -7 21.5t0 45.5q5 22 9 32.5t5 12.5q-1 -1 -12 -19.5t-12 -56.5q-1 -8 -1 -13.5v-10.5q-6 6 -12.5 16t-10 23.5t-2.5 29.5t9 34
q10 23 22.5 48.5l26.5 54.5l-88.5 -70t-87.5 -64.5t-72.5 -46t-43.5 -13.5q-9 3 -14 8.5t-8 13.5l-1 -1q-3 13 -1 32l5 24l8 20q11 21 28.5 43t35.5 40q20 21 44 42q-23 -17 -44 -35q-18 -16 -37 -36.5t-30 -42.5q-11 -23 -16 -38.5t-7 -26.5q-2 -12 0 -20q-3 1 -7 3
q-8 4 -9 6q-2 5 -4 13l-2 10q-23 -1 -30 13q-3 6 -2.5 15.5t6.5 23.5t19 34t36 46q9 11 18.5 21t19.5 19q-44 -18 -92 -34t-95 -27t-92.5 -15.5t-84.5 0.5q-48 6 -69 42.5t-14.5 90t42.5 117.5t104 125t133 94t116 49q60 18 114 21l23 -22q-30 1 -76.5 -8.5t-111.5 -39.5
q-29 -13 -43 -20t-19 -11q-6 -4 -5 -6l-82 -64l-17.5 -14t-3.5 -3t18 13.5l47 35.5q63 48 119.5 69t99.5 28q50 8 93 2l26 -24l24 -23q1 -5 1 -10q0 -11 -3 -18q-4 -8 -11.5 -13.5t-9.5 -6.5q1 0 6.5 2.5t12 6t12 9t6.5 13.5q6 -8 8 -10l3 -3q-2 -4 -6 -10l-13 -12.5
t-25 -17.5t-43 -15.5t-51 -8.5q-29 -4 -60 -5q35 15 65 30l50 26t33 23q11 12 4.5 16.5t-15.5 6.5q-30 2 -80 -4.5t-119 -35.5q-40 -17 -89 -50t-95.5 -74t-84 -84.5t-55.5 -82t-10.5 -67t52.5 -38.5q39 -9 90.5 -2t107.5 23t112.5 38t106.5 45q57 45 114 69t95 26l60 -72
l-3 -6q-5 9 -18 11q-11 2 -32.5 -3t-56.5 -23q-22 -12 -46 -30.5t-47 -40t-43.5 -44t-35.5 -42.5v-1l-2 -2l-6 -10t-11 -22.5t-6 -24.5t8 -16q6 -3 35.5 14.5t70.5 46l86.5 62.5l84.5 64l50 94.5l56.5 99l61 98t63.5 92.5q48 66 96 111t90 74l-73 -76q-37 -39 -72 -86
t-67 -95t-59 -93l-47 -81l-32 -59t-14 -26q4 6 19 31l37.5 61.5l51 80.5l59.5 88.5t63 86t61 72.5l20 20q41 42 71.5 68.5t50.5 41.5q24 18 40 26q8 3 14.5 4.5t11.5 3.5l9 3l31 -39q-2 -6 -12 -24q-8 -15 -26 -42.5l-50 -75.5q-16 -24 -42.5 -54.5l-59 -65l-68.5 -71
l-71.5 -71l-67.5 -65.5l-57 -54l-57 -110l-50 -102q-1 -1 -8 -17.5t-13 -36t-7.5 -35.5t8.5 -16q32 -2 82.5 19.5t108 54.5t116 72.5l106.5 73.5l79.5 57t34.5 25zM457 530q-26 -37 -51.5 -79.5l-51.5 -87.5l7 7l22.5 23.5l42 44l65.5 67.5q27 27 55 60l54.5 67l50.5 67
t41.5 60t28 45.5t11.5 23.5q0 8 -7.5 5.5t-17 -8.5t-18 -13l-8.5 -7q-42 -44 -101 -113.5t-123 -161.5z" />
    <glyph glyph-name="e.ss01" unicode="&#xe01d;" horiz-adv-x="677" 
d="M740 311l-69 -41.5l-89.5 -52.5l-100.5 -57.5l-102 -56.5t-95.5 -49t-80.5 -36q-3 -3 -10 -7q-6 -3 -16 -5.5t-26 -3.5q-8 -1 -28 -2t-44.5 1t-50.5 7.5t-46 17.5t-31.5 32.5t-7.5 52.5l2 10.5t3 13.5q5 22 24 47t39 47q24 26 52 51q-23 -17 -44 -35q-18 -16 -36.5 -37
t-29.5 -43q-11 -23 -16 -38t-7 -26q-2 -12 -1 -20q-3 1 -7 3q-8 4 -8 6q-2 5 -4 13l-2 10q-23 0 -30 13q-3 6 -2.5 15t6.5 23.5t19 34t35 45.5l16 18t17 17q-47 -23 -110 -50t-131 -49t-135.5 -34.5t-124.5 -4.5q-48 6 -69 43t-14 90.5t43 117t103 124.5q68 61 133 94.5
t116 49.5q60 18 114 21l23 -22q-30 1 -76 -8.5t-112 -39.5l-43 -21t-19 -11q-6 -4 -4 -5l-82 -64l-18.5 -14t-3.5 -3t18 13l47 35q63 48 119.5 69.5t99.5 28.5q50 8 94 2l50 -48v-9q0 -4 -0.5 -9t-2.5 -9q-3 -8 -10.5 -13.5t-9.5 -6.5q1 0 6.5 2.5t12 6t11.5 9t6 13.5
l4.5 -6t3.5 -4l3 -3q-2 -4 -6 -10l-13 -12.5t-25 -17.5t-43 -15.5t-51 -8.5q-29 -4 -60 -5q36 15 66 30l50 26t32 23q11 11 4.5 16t-15.5 7q-29 2 -79 -5t-120 -36q-40 -17 -89 -49.5t-95.5 -73.5t-84 -85t-55.5 -82.5t-10.5 -67t52.5 -38.5q40 -9 93.5 -1.5t111 24.5
t115.5 40.5t108.5 46.5t88.5 42.5t56 29.5q55 40 107.5 61.5t88.5 23.5l48 -59l4.5 -5l10.5 -12t11 -14l7 -10l15 -25q-3 -7 -10 -17q-6 -8 -17.5 -19t-31.5 -25t-40 -22t-36 -13q-18 -5 -36 -7l71 49q-7 -5 -21.5 -13.5t-34.5 -17.5t-44 -17.5t-48 -11.5q-23 -3 -41 -1.5
t-20 1.5l-9 -12q-20 -27 -31 -52q-10 -21 -12.5 -42t12.5 -33l-3 3q21 -8 53 -10q27 -2 68 2t99 20q60 17 105.5 34.5t75.5 32.5l100.5 55.5l97 56l86.5 51.5l67 41zM188 333q-21 -11 -43.5 -28t-44 -36.5t-41 -40.5t-34.5 -40q1 0 15.5 6t36.5 16t48 24t51 31q4 2 5 4h1
q26 18 45 34t31 29q14 14 23 27q-11 2 -32.5 -2t-60.5 -24z" />
    <glyph glyph-name="f.ss01" unicode="&#xe01e;" horiz-adv-x="720" 
d="M768 292q2 -7 3.5 -13.5t3.5 -12.5l-106.5 -65.5l-139.5 -82.5h-1q-5 -3 -30.5 -17t-60 -29.5t-72 -28.5t-64.5 -13q-5 0 -9.5 0.5t-9.5 1.5q-7 2 -11 6q-15 10 -17 32.5t3 46.5t13 44.5l11 28.5q0 1 0.5 1t0.5 1v1l10 21l16 33.5l19 38.5t19 35q-19 -8 -38 -14
q-24 -6 -56.5 -11t-61.5 -8q-34 -4 -70 -7l58 15q21 5 38.5 12l29.5 12q14 6 26 13l-40 -8.5l-45.5 -9t-47 -8l-44.5 -6.5q-16 -30 -30 -59l-27 -55h1l-3 -5q-27 -57 -53 -125t-49 -136.5l-43 -133.5t-34.5 -116.5l-23.5 -84.5t-10 -38q0 2 5 41t21 105q4 17 4.5 19.5
t-1 -4.5t-5.5 -21.5l-9 -32.5l-28 -107q-12 -7 -23 -4q-9 2 -16.5 13.5t-8.5 42.5q-1 24 10 76.5t31 121.5t48.5 149t61.5 160q10 32 30 79t48 104q-48 -23 -109 -48.5t-126.5 -46t-129.5 -31t-118 -3.5q-48 6 -69 42.5t-14.5 90t42.5 117.5t104 125t133 94t116 49
q60 18 114 21l23 -22q-30 1 -76.5 -8.5t-111.5 -39.5q-29 -13 -43 -20t-19 -11q-6 -4 -5 -6l-82 -64l-17.5 -14t-3.5 -3t18 13.5l47 35.5q63 48 119.5 69t99.5 28q50 8 93 2l26 -24l24 -23q1 -5 1 -10q0 -11 -3 -18q-4 -8 -11.5 -13.5t-9.5 -6.5q1 0 6.5 2.5t12 6t12 9
t6.5 13.5q6 -8 8 -10l3 -3q-2 -4 -6 -10l-13 -12.5t-25 -17.5t-43 -15.5t-51 -8.5q-29 -4 -60 -5q35 15 65 30l50 26t33 23q11 12 4.5 16.5t-15.5 6.5q-30 2 -80 -4.5t-119 -35.5q-40 -17 -89 -50t-95.5 -74t-84 -84.5t-55.5 -82t-10.5 -67t52.5 -38.5q42 -9 98 -1
t116.5 26.5t120.5 43.5t111 49q-39 3 -76 12q-23 5 -43.5 13t-35.5 15q-18 8 -33 16h3q38 -13 97 -25t135 -9l6 3q46 91 104 188.5t121 182.5q48 66 96 110.5t90 73.5l-73 -76q-41 -44 -80 -97t-73.5 -106t-62.5 -101t-46 -82l14 16l52 82.5l63 94.5t67.5 93.5t65.5 79.5
l20 20q41 42 71.5 68.5t50.5 41.5q24 18 40 26q8 3 14.5 4.5t11.5 3.5l9 3l31 -39q-2 -6 -12 -24q-8 -15 -26 -42.5l-50 -75.5q-18 -27 -48 -62l-66 -74l-75 -79.5l-75 -76.5l-66.5 -65.5l-48.5 -47.5l-7.5 -13.5t-6.5 -13.5q77 16 127.5 31.5t80.5 26.5q35 13 54 25l18 -29
l-2 -2l2 2l18 -29q-5 -5 -14 -16.5t-24 -34.5l-27 -41.5t-22 -37.5l-9 -21l-10 -24l-10 -23.5t-8 -19.5l1 -9l2 1l52 102l15 30l11 6l-32.5 -71.5t-27.5 -69.5t-14 -53.5t9 -22.5q5 -2 27.5 3t56.5 17.5t75.5 32.5t84.5 48l126 76zM271 606q-27 -39 -55 -85t-54 -94
l64.5 60.5t79.5 79.5q27 27 55 61t54.5 69.5t50 70.5t41 63.5t28 48t11.5 24.5q0 8 -7.5 6t-17 -8t-17.5 -13t-9 -7q-42 -45 -101 -114.5t-123 -161.5zM-138 -97l33 83q15 38 36 84.5l44 97.5l-52 -94l-25.5 -68l-19.5 -54q-10 -27 -16 -49z" />
    <glyph glyph-name="g.ss01" unicode="&#xe01f;" horiz-adv-x="680" 
d="M85 340q38 20 72 30.5t60 12.5l64 -79l-2 -4l-1 -1q-5 9 -19 11q-12 2 -34.5 -3t-60.5 -25q-25 -14 -52 -35.5t-52.5 -46.5t-48 -51t-38 -48t-23 -37t-2.5 -19q4 -3 19.5 5.5t38 24t49 36l51.5 40.5l46 37.5l33 27.5q0 3 0.5 5.5t1.5 5.5q14 12 23.5 27t20.5 29l24 -6
l-20 -77.5t-24 -85.5q6 17 13 35q5 15 12 33.5l13 35.5q3 15 6.5 29.5t5.5 27.5l22 -5l-9.5 -41.5l-9.5 -41.5q-5 -32 -17 -80t-31 -107l108 82l105 77l46 31l69.5 45.5l39 25.5l17.5 11.5l4 2.5h1l71 43l56 34q2 -6 3.5 -12t3.5 -12l-73.5 -44l-94.5 -55l-60 -43l-95 -68
l-110 -80.5l-104 -79.5l-35 -98l-40 -102.5t-44.5 -102t-47.5 -96.5q-38 -73 -78.5 -124.5t-77.5 -86.5l61 87q34 49 64.5 107.5t56.5 116.5t46.5 109.5t33.5 87.5l-12 -18l-39.5 -89.5l-48 -103t-52.5 -102.5t-53 -88l-16 -23q-35 -48 -60.5 -79t-43.5 -49q-21 -21 -36 -31
q-8 -5 -13.5 -8t-10.5 -5q-5 -3 -9 -3l-36 33q1 7 8 25q6 16 19 46.5t38 82.5q14 29 38.5 68.5l54 83.5l62 89.5l62.5 87l55.5 75l41.5 54.5l32.5 97.5l28.5 89.5q0 2 0.5 3t0.5 3q6 19 11.5 39t10.5 41l-40 -35l-43 -37l-40.5 -34t-32.5 -25q-8 -5 -22.5 -13t-29.5 -15
l-27 -12.5t-15 -5.5q-4 -1 -9.5 0.5t-9 8.5t-4 20.5t5.5 37.5q6 22 24 48.5t38.5 49.5t37.5 39.5l21 20.5q-3 -2 -17 -13.5t-32 -28.5t-36.5 -38.5t-30.5 -43.5q-12 -24 -17.5 -41.5t-7.5 -28.5q-2 -13 0 -22q-4 1 -8 3q-8 4 -9 7q-1 2 -1.5 5.5t-1.5 8.5t-3 11
q-25 -1 -32 14q-3 6 -2.5 16.5t7 26t20 36.5t37.5 50q15 18 31 34.5t33 31.5q-48 -23 -107.5 -47t-121 -42.5t-122 -28t-111.5 -2.5q-48 6 -69 43t-14 90.5t43 117t103 124.5q68 61 133 94.5t116 49.5q60 18 114 21l23 -22q-30 1 -76 -8.5t-112 -39.5l-43 -21t-19 -11
q-6 -4 -4 -5l-82 -64l-18.5 -14t-3.5 -3t18 13l47 35q63 48 119.5 69.5t99.5 28.5q50 8 94 2l50 -48v-9q0 -4 -0.5 -9t-2.5 -9q-4 -8 -11 -13.5t-9 -6.5q1 0 6.5 2.5t12 6t11.5 9t6 13.5l4.5 -6t3.5 -4l3 -3q-2 -4 -6 -10l-13 -12.5t-25 -17.5t-43 -15.5t-51 -8.5
q-29 -4 -60 -5q36 15 66 30l50 26t32 23q11 11 4.5 16t-15.5 7q-29 2 -79 -5t-120 -36q-40 -17 -89 -49.5t-95.5 -73.5t-84 -85t-55.5 -82.5t-10.5 -67t52.5 -38.5q34 -8 77 -3.5t90.5 16.5t97 29.5t96.5 37.5q109 46 226 110zM-15 -361q21 44 41.5 93t39.5 102l-54.5 -70
l-67.5 -91q-22 -31 -44.5 -68.5t-43.5 -77t-39 -77.5t-31 -68.5t-20.5 -51.5t-7.5 -26q1 -8 8 -4.5t15.5 11t16 15.5l7.5 8q35 50 82.5 127.5t97.5 177.5z" />
    <glyph glyph-name="h.ss01" unicode="&#xe010;" horiz-adv-x="866" 
d="M899 279q-17 -13 -51.5 -35.5t-80 -49t-99.5 -54t-111 -52t-114.5 -43.5t-110.5 -27q-15 -3 -28 -3q-10 0 -15 1l-33 -1q-27 6 -39.5 23.5t-14 42t5.5 53t19 57.5q27 68 81 150q-3 1 -8 1q-10 1 -29 -9q-17 -8 -45 -27t-73 -57q-28 -25 -53.5 -52t-47.5 -54t-39.5 -52
l-30.5 -44l-30 -38q-2 -6 -3 -7l-1 -2q1 0 1 1q0 3 1 5q3 12 14 47t33 88q7 16 8 18.5t-2 -4.5t-9.5 -20.5t-13.5 -30.5l-45 -101q-13 -5 -23 -1q-8 4 -14 16.5t-2 43.5q4 28 28.5 88.5t63.5 138.5q-48 -23 -109 -48.5t-125.5 -45.5t-128 -30.5t-117.5 -3.5q-48 6 -69 42.5
t-14.5 90t42.5 117.5t104 125t133 94t116 49q60 18 114 21l23 -22q-30 1 -76.5 -8.5t-111.5 -39.5q-29 -13 -43 -20t-19 -11q-6 -4 -5 -6l-82 -64l-17.5 -14t-3.5 -3t18 13.5l47 35.5q63 48 119.5 69t99.5 28q50 8 93 2l26 -24l24 -23q1 -5 1 -10q0 -11 -3 -18
q-4 -8 -11.5 -13.5t-9.5 -6.5q1 0 6.5 2.5t12 6t12 9t6.5 13.5q6 -8 8 -10l3 -3q-2 -4 -6 -10l-13 -12.5t-25 -17.5t-43 -15.5t-51 -8.5q-29 -4 -60 -5q35 15 65 30l50 26t33 23q11 12 4.5 16.5t-15.5 6.5q-30 2 -80 -4.5t-119 -35.5q-40 -17 -89 -50t-95.5 -74t-84 -84.5
t-55.5 -82t-10.5 -67t52.5 -38.5q31 -7 71 -3.5t84.5 13.5t90.5 26t90.5 34t85 37l73.5 35q45 88 101.5 181.5t116.5 175.5q49 66 96.5 110.5t89.5 73.5l-73 -76q-37 -39 -72 -86t-67 -95t-58.5 -93l-46.5 -81l-32 -59t-14 -26q4 6 19 31l37.5 61.5l51 80.5l59.5 88.5t63 86
t61 72.5l19 20q42 42 72 68.5t50 41.5q24 18 40 26q8 3 15 4.5t12 3.5l9 3l31 -39q-2 -6 -12 -24q-8 -15 -26.5 -42.5l-50.5 -75.5q-18 -27 -48 -62l-65.5 -74l-74.5 -79.5l-75.5 -76.5l-66.5 -65.5l-49 -47.5l-59.5 -116.5l-49.5 -103.5q14 19 32 39l34.5 38.5t42.5 44.5
l24 24q28 26 56 45t53 32t47 21.5t38 13.5l37 8l43 -48q-5 -5 -14 -16.5t-24 -34.5l-27 -41.5t-22 -37.5l-9 -21l-10 -24l-10 -23.5t-8 -19.5l1 -9l2 1l52 102l15 30l11 6l-32.5 -71.5t-27.5 -69.5t-14 -53.5t9 -22.5q19 -5 62.5 6.5t99.5 33t118.5 50.5l120.5 58.5
t105 56.5t72 46zM485 867q-42 -45 -101.5 -114.5t-122.5 -161.5q-27 -39 -55 -85l-55 -94l64.5 60.5l80.5 79.5q26 27 54 61t54.5 69.5t50 70.5l41.5 63.5t28.5 48t10.5 24.5q1 8 -6.5 5.5t-17 -8.5t-18 -12.5z" />
    <glyph glyph-name="i.ss01" unicode="&#xe011;" horiz-adv-x="448" 
d="M56 392l1 1l5 -6l-3 -7l2 -7q-1 0 -2 -1q-2 -2 -4 -3l-4 -9l20 18q2 0 3.5 0.5t3.5 0.5l43 -48q-5 -5 -14 -16.5t-23 -34.5l-27.5 -41.5t-21.5 -37.5q-9 -18 -20 -44.5l-18 -43.5l1 -9l2 1l52 102l16 30l11 6l-32.5 -71.5t-28 -69.5t-14 -53.5t8.5 -22.5q5 -2 27.5 3
t56.5 17.5t75.5 32.5t85.5 48l125 76l96 59l7 -26l-107 -65l-140 -83h-1q-4 -2 -24.5 -13.5t-49.5 -25.5t-62.5 -27t-61.5 -19q-15 -3 -28 -3q-11 0 -16 1l-32 -1q-24 6 -36.5 19.5t-16 33t0 43t11.5 48.5q8 26 19.5 52t24.5 49q14 30 30 59.5t30 49.5q-24 -13 -62.5 -32
t-85.5 -39.5t-100.5 -40.5t-107.5 -34t-106 -21t-97 -1q-48 6 -69 43t-14 90.5t43 117t103 124.5q68 61 133 94.5t116 49.5q60 18 114 21l23 -22q-30 1 -76 -8.5t-112 -39.5l-43 -21t-19 -11q-6 -4 -4 -5l-82 -64l-18.5 -14t-3.5 -3t18 13l47 35q63 48 119.5 69.5t99.5 28.5
q50 8 94 2l50 -48v-9q0 -4 -0.5 -9t-2.5 -9q-3 -8 -10.5 -13.5t-9.5 -6.5q1 0 6.5 2.5t12 6t11.5 9t6 13.5l4.5 -6t3.5 -4l3 -3q-2 -4 -6 -10l-13 -12.5t-25 -17.5t-43 -15.5t-51 -8.5q-29 -4 -60 -5q36 15 66 30l50 26t32 23q11 11 4.5 16t-15.5 7q-29 2 -79 -5t-120 -36
q-40 -17 -89 -49.5t-95.5 -73.5t-84 -85t-55.5 -82.5t-10.5 -67t52.5 -38.5q34 -8 77 -3.5t90.5 16.5t97 29.5t96.5 37.5q109 46 226 110v-3zM198 457q-2 2 -11 -10.5l-20 -28.5l-27 -42l-44 59l29 60q4 9 8 17q4 7 8 12.5t8 6.5t5.5 2.5t3.5 2.5l2 2q1 0 3 -1t3 -2t3 -2
l-10 -19.5t-14 -16.5q13 4 23 11t18 15l20.5 -12t19.5 -12t14.5 -10.5t5.5 -6.5q0 -8 -14.5 -26.5t-32 -38l-32 -34.5l-15.5 -16q1 1 7.5 11l14.5 22l15 23t9 16q1 5 1 8.5v5.5q0 3 -1 4z" />
    <glyph glyph-name="j.ss01" unicode="&#xe012;" horiz-adv-x="490" 
d="M528 273l-79 -44l-101 -55l-66 -43l-103.5 -68l-119.5 -80.5l-114 -79.5q-44 -96 -100 -200.5t-116 -198.5q-48 -73 -94.5 -124.5t-88.5 -86.5l33.5 39.5l38.5 47.5q40 49 78 107.5t71 116t60 109.5l45 88l-15 -19l-49.5 -88.5l-61 -103l-66 -102.5t-64.5 -88l-19 -23
q-41 -48 -70.5 -79t-49.5 -49q-23 -21 -39 -31q-8 -5 -14.5 -8t-11.5 -5q-5 -3 -10 -4l-32 34q1 7 11 25q8 16 25.5 46.5l49.5 82.5q17 29 46 68.5t64.5 83.5l73.5 89.5l73.5 87l65 75l47.5 54.5l45.5 97.5l40.5 89.5h-1q0 3 3 6q11 26 21 53.5l20 56.5t22.5 69.5t20.5 77.5
l8 39l-50.5 -26.5t-84 -41t-106 -45.5t-117.5 -40t-118 -26t-107 -2q-48 6 -69 43t-14 90.5t43 117t103 124.5q68 61 133 94.5t116 49.5q60 18 114 21l23 -22q-30 1 -76 -8.5t-112 -39.5l-43 -21t-19 -11q-6 -4 -4 -5l-82 -64l-18.5 -14t-3.5 -3t18 13l47 35
q63 48 119.5 69.5t99.5 28.5q50 8 94 2l50 -48v-9q0 -4 -0.5 -9t-2.5 -9q-3 -8 -10.5 -13.5t-9.5 -6.5q1 0 6.5 2.5t12 6t11.5 9t6 13.5l4.5 -6t3.5 -4l3 -3q-2 -4 -6 -10l-13 -12.5t-25 -17.5t-43 -15.5t-51 -8.5q-29 -4 -60 -5q36 15 66 30l50 26t32 23q11 11 4.5 16
t-15.5 7q-29 2 -79 -5t-120 -36q-40 -16 -89 -49t-95.5 -74t-84 -85t-55.5 -82.5t-10.5 -67t52.5 -38.5t105.5 0t125 31t128 48t113.5 51.5l81.5 41t32.5 17.5q0 1 0.5 1t0.5 1l47 -31l-5 -37l10 26q-1 2 -1 5q0 6 3 6q2 0 3.5 -1t3.5 -2l3 -3l-1 -10l12 -4l5 -3l-19 -68
l-8 -28h1l-4 -10.5l-4 -10.5l-1 -2l-10.5 -30l-11.5 -30q-8 -32 -26 -80t-44 -107l117.5 82l114.5 77l26.5 16.5l23.5 14.5l141 85l77 43l61 34zM-313 -416q27 44 54 93t53 102l-63.5 -70l-78.5 -91q-26 -31 -53.5 -68.5t-53.5 -77t-48.5 -77.5l-40 -68.5t-27.5 -52
t-10 -26.5q-1 -8 6.5 -4t17 11.5t18 15.5l8.5 8q42 50 99 127.5t119 177.5zM120 466q-2 1 -7.5 -14.5t-12.5 -33.5l-17 -49l-57 39l12 67q2 10 5 19q2 8 4.5 14.5t6.5 8.5q6 4 8 7q1 2 1 3q1 -1 3 -1h7q-2 -11 -5 -22t-9 -20q22 16 34 39q10 -2 22 -4t21.5 -4.5l16.5 -4.5
t7 -4q2 -7 -6.5 -29t-20.5 -46t-23 -43.5t-12 -21.5q1 2 5.5 13.5t9 25.5t8 26.5t3.5 17.5q0 7 -2 13q-1 3 -2 4zM-28 59l18 35q8 15 16.5 33.5l16.5 35.5l5 13l-11 -6l-21 -54t-24 -57z" />
    <glyph glyph-name="k.ss01" unicode="&#xe013;" horiz-adv-x="875" 
d="M879 297q2 -7 6 -15.5t6 -14.5l-102.5 -57l-110 -56t-109.5 -50.5t-100.5 -41.5t-82.5 -29.5t-55 -14.5q-15 -3 -28 -3h-8t-7 1l-33 -1q-27 6 -39.5 23.5t-14 42t5.5 53t19 57.5q27 68 80 150q-2 1 -7 1q-11 1 -30 -9q-17 -8 -45 -27t-72 -57q-28 -25 -53.5 -52
t-47.5 -54t-39.5 -52l-30.5 -44l-30 -38q-3 -8 -4 -9q0 2 1 6q4 12 15 47.5t33 87.5q7 16 8 18.5t-2 -4.5t-9.5 -20.5t-13.5 -30.5l-45 -101q-13 -5 -23 -1q-8 4 -14 16.5t-2 43.5q4 28 28.5 88t62.5 138q-48 -23 -108.5 -48t-125 -45t-128 -30.5t-116.5 -3.5
q-48 6 -69 42.5t-14.5 90t42.5 117.5t104 125t133 94t116 49q60 18 114 21l23 -22q-30 1 -76.5 -8.5t-111.5 -39.5q-29 -13 -43 -20t-19 -11q-6 -4 -5 -6l-82 -64l-17.5 -14t-3.5 -3t18 13.5l47 35.5q63 48 119.5 69t99.5 28q50 8 93 2l26 -24l24 -23q1 -5 1 -10
q0 -11 -3 -18q-4 -8 -11.5 -13.5t-9.5 -6.5q1 0 6.5 2.5t12 6t12 9t6.5 13.5q6 -8 8 -10l3 -3q-2 -4 -6 -10l-13 -12.5t-25 -17.5t-43 -15.5t-51 -8.5q-29 -4 -60 -5q35 15 65 30l50 26t33 23q11 12 4.5 16.5t-15.5 6.5q-30 2 -80 -4.5t-119 -35.5q-40 -17 -89 -50
t-95.5 -74t-84 -84.5t-55.5 -82t-10.5 -67t52.5 -38.5q47 -11 112 1t133 35t133.5 52t114.5 53q45 88 102 181.5t117 176.5q48 66 96 110.5t90 73.5l-33.5 -34.5l-39.5 -41.5q-37 -39 -72 -86t-67 -95t-58.5 -93l-46.5 -81l-32 -59t-14 -26q4 6 19 31l37.5 61.5l51 80.5
l59.5 88.5t63 86t61 72.5l19 20q41 42 71.5 68.5t50.5 41.5q24 18 40 26q8 3 15 4.5t12 3.5l9 3l30 -39q-1 -6 -11 -24q-8 -15 -26.5 -42.5l-50.5 -75.5q-18 -27 -48 -62l-65.5 -74l-74.5 -79.5l-75.5 -76.5l-66.5 -65.5l-49 -47.5l-51.5 -101l-45.5 -92q33 36 72.5 75
l82 78l87 77.5l88.5 74.5q45 37 78.5 61t57.5 38.5t39.5 21t24.5 7.5q22 3 20 -19l36 -44q-20 -8 -44 -21q-20 -11 -47 -28.5t-57 -42.5q2 6 9 16q5 8 16 20t30 29q-2 -1 -21.5 -7.5t-52.5 -22.5t-77.5 -42.5t-95.5 -66.5q20 10 37.5 16.5t31.5 10.5l37 8l43 -48
q-5 -5 -14 -16.5t-24 -34.5l-27 -41.5t-22 -37.5l-9 -21l-10 -24l-10 -23.5t-8 -19.5l1 -9l2 1l52 102l15 30l11 6l-32.5 -71.5t-27.5 -69.5t-14 -53.5t9 -22.5q13 -6 56 7t101 37t124 55l125.5 61.5t105 56t62.5 39.5zM260 591q-28 -39 -55.5 -85l-54.5 -94l64.5 60.5
l80.5 79.5q26 27 54 61t54.5 69.5t50 70.5t41 63.5t28 48t11.5 24.5q1 8 -6.5 5.5t-17.5 -8.5q-11 -7 -26 -19q-42 -45 -101.5 -114.5t-122.5 -161.5zM6 128q0 1 1 2t1.5 2t2.5 3q0 2 -1 3q-1 -3 -2 -5.5t-2 -4.5z" />
    <glyph glyph-name="l.ss01" unicode="&#xe014;" horiz-adv-x="547" 
d="M612 343q4 -12 6 -23l-98.5 -59l-129 -75l-138 -76.5t-125.5 -62.5v-1q-42 -21 -77 -33q-30 -11 -57 -13.5t-35 15.5q-1 1 -1.5 2.5t-1.5 3.5t-2 3v1q-1 2 -6 21.5t0 45.5q4 22 8 32.5t6 12.5q-2 -1 -12.5 -19.5t-12.5 -56.5v-13.5t-1 -10.5q-6 6 -12.5 16t-9.5 23.5
t-2.5 29.5t8.5 34q14 32 32.5 70l40.5 80q-48 -23 -109.5 -48.5t-126.5 -46t-129.5 -31t-118.5 -3.5q-48 6 -69 42.5t-14.5 90t42.5 117.5t104 125t133 94t116 49q60 18 114 21l23 -22q-30 1 -76.5 -8.5t-111.5 -39.5q-29 -13 -43 -20t-19 -11q-6 -4 -5 -6l-82 -64
l-17.5 -14t-3.5 -3t18 13.5l47 35.5q63 48 119.5 69t99.5 28q50 8 93 2l26 -24l24 -23q1 -5 1 -10q0 -11 -3 -18q-4 -8 -11.5 -13.5t-9.5 -6.5q1 0 6.5 2.5t12 6t12 9t6.5 13.5q6 -8 8 -10l3 -3q-2 -4 -6 -10l-13 -12.5t-25 -17.5t-43 -15.5t-51 -8.5q-29 -4 -60 -5
q35 15 65 30l50 26t33 23q11 12 4.5 16.5t-15.5 6.5q-30 2 -80 -4.5t-119 -35.5q-40 -17 -89 -50t-95.5 -74t-84 -84.5t-55.5 -82t-10.5 -67t52.5 -38.5q32 -7 72.5 -3.5t85.5 14t92 26.5t91.5 34.5t85.5 37.5l73 35q44 84 97 172.5t110 166.5q48 66 96 111t90 74l-73 -76
q-50 -53 -96.5 -119.5t-85 -128.5t-66 -112t-37.5 -70h1l25 42l40 64l50 77l55.5 82t58 78.5t56.5 66.5l19 20q41 42 71.5 68.5t50.5 41.5q24 18 40 26q8 3 14.5 4.5t11.5 3.5t10 3l30 -39q-1 -6 -11 -24q-8 -15 -26.5 -42.5l-50.5 -75.5q-16 -23 -42.5 -54l-58.5 -65.5
l-68.5 -71l-71.5 -71l-67.5 -65.5l-57.5 -54l-57 -110l-50 -102q0 -1 -7 -17t-13 -35.5t-8 -35.5t8 -17q6 -1 22.5 3t36.5 10t42 14l40 14.5l30 11l12 4.5l118.5 62l121.5 68.5l109.5 65zM255 576q-26 -37 -52 -79t-51 -87q1 1 8.5 9l23.5 24.5l41.5 43l63.5 64.5
q40 40 82 93t77 101.5t57.5 84.5t23.5 44t-6.5 5.5t-17 -8.5t-18 -12.5l-8.5 -6.5q-42 -45 -101.5 -114.5t-122.5 -161.5z" />
    <glyph glyph-name="m.ss01" unicode="&#xe015;" horiz-adv-x="1027" 
d="M1072 277q2 -7 3.5 -13.5t3.5 -12.5l-107 -65l-139 -83h-1q-4 -2 -25 -13.5t-50 -25.5t-62.5 -27t-61.5 -19q-15 -3 -28 -3q-11 0 -15 1l-33 -1q-27 6 -39.5 23.5t-14 42t5.5 53t19 57.5q27 68 80 150q-2 1 -8 1q-10 1 -29 -9q-17 -8 -45 -27t-72 -57q-29 -25 -54.5 -52
t-47 -54t-39 -52l-30.5 -44q-15 -20 -24 -30l-9 -11l5 10h-1q-26 7 -37.5 25t-12.5 42t6 52.5t19 57.5q27 67 80 148q-3 1 -8 1q-10 1 -29 -9q-17 -8 -45 -27t-72 -57q-29 -25 -54.5 -52t-47 -54t-39.5 -52l-31 -44l-30 -38q-2 -6 -3 -7l-1 -2q4 17 11 39q6 19 15.5 44.5
t23.5 57.5q7 16 7.5 18.5t-2.5 -4.5t-9.5 -20.5t-13.5 -30.5l-45 -101q-13 -5 -23 -1q-8 4 -14 16.5t-2 43.5q2 16 11.5 43.5t24.5 63.5t35.5 78.5l44.5 89.5q-23 -13 -61.5 -31.5l-86 -39.5t-101 -41t-108 -34.5t-107 -21.5t-97.5 -1q-48 6 -69 43t-14 90.5t43 117
t103 124.5q68 61 133 94.5t116 49.5q60 18 114 21l23 -22q-30 1 -76 -8.5t-112 -39.5l-43 -21t-19 -11q-6 -4 -4 -5l-82 -64l-18.5 -14t-3.5 -3t18 13l47 35q63 48 119.5 69.5t99.5 28.5q50 8 94 2l50 -48v-9q0 -4 -0.5 -9t-2.5 -9q-3 -8 -10.5 -13.5t-9.5 -6.5q1 0 6.5 2.5
t12 6t11.5 9t6 13.5l4.5 -6t3.5 -4l3 -3q-2 -4 -6 -10l-13 -12.5t-25 -17.5t-43 -15.5t-51 -8.5q-29 -4 -60 -5q36 15 66 30l50 26t32 23q11 11 4.5 16t-15.5 7q-29 2 -79 -5t-120 -36q-40 -17 -89 -49.5t-95.5 -73.5t-84 -85t-55.5 -82.5t-10.5 -67t52.5 -38.5
q43 -9 101 -0.5t120 28t123 45.5l111.5 49.5t84.5 42t42 22.5q5 8 10 13.5l10 10.5l17.5 16t13.5 12q-25 -35 -33 -49t-9 -18v-2q1 2 17.5 22t42.5 63l1 2h1l49 -25l31.5 -17.5t11.5 -9.5q-11 -7 -31 -30t-39.5 -49l-35.5 -48.5t-19 -27.5l71 128q-2 2 -11 -10.5l-20 -27.5
l-27 -41l1 2l-42.5 -84.5l-36.5 -75.5q15 19 33 39l34.5 38.5l41.5 44.5l9 8q0 1 1 1q0 1 2 3l13 12q28 26 55.5 45t52.5 32t47 21.5t38 13.5l37 8l43 -48q-5 -5 -14 -16.5t-23 -34.5q-6 -8 -20.5 -34t-29.5 -56.5t-25.5 -58t-7.5 -38.5l12 20q15 19 33 39l34.5 38.5
t42.5 44.5q3 5 8 8q0 1 1 1l2 3l13 12q28 26 55.5 45t53 32t47 21.5t38.5 13.5l36 8l44 -48q-5 -5 -14.5 -16.5t-23.5 -34.5l-27.5 -41.5t-21.5 -37.5q-9 -18 -20 -44.5l-18 -43.5l1 -9l2 1l52 102l16 30l60 82l-25.5 -53l-30 -62.5l-29.5 -64t-23 -56.5t-12 -40.5t5 -16.5
q5 -2 27.5 3t56.5 17.5t75.5 32.5t85.5 48l125.5 76zM73 237l-1 -2q0 1 1 2z" />
    <glyph glyph-name="n.ss01" unicode="&#xe016;" horiz-adv-x="725" 
d="M773 277q2 -7 3.5 -13.5t3.5 -12.5l-107 -65l-139 -83h-1q-4 -2 -25 -13.5t-50 -25.5t-62.5 -27t-61.5 -19q-15 -3 -28 -3q-11 0 -15 1l-33 -1q-27 6 -39.5 23.5t-14 42t5.5 53t19 57.5q27 68 80 150q-2 1 -8 1q-10 1 -29 -9q-17 -8 -45 -27t-72 -57q-29 -25 -54.5 -52
t-47 -54t-39 -52l-30.5 -44l-25 -32l-6 -13q0 1 0.5 2.5t0.5 5.5q-2 -4 -2 -3l-1 -1l6 14q5 17 16 48t28 73q7 16 7.5 18.5t-2.5 -4.5t-9.5 -20.5t-13.5 -30.5l-45 -101q-13 -5 -23 -1q-8 4 -14 16.5t-2 43.5q2 16 11.5 44t25 64t36.5 79.5t46 90.5l-61.5 -31t-86 -40
t-101 -41t-108.5 -35t-108 -22t-98 -1q-48 6 -69 43t-14 90.5t43 117t103 124.5q68 61 133 94.5t116 49.5q60 18 114 21l23 -22q-30 1 -76 -8.5t-112 -39.5l-43 -21t-19 -11q-6 -4 -4 -5l-82 -64l-18.5 -14t-3.5 -3t18 13l47 35q63 48 119.5 69.5t99.5 28.5q50 8 94 2
l50 -48v-9q0 -4 -0.5 -9t-2.5 -9q-3 -8 -10.5 -13.5t-9.5 -6.5q1 0 6.5 2.5t12 6t11.5 9t6 13.5l4.5 -6t3.5 -4l3 -3q-2 -4 -6 -10l-13 -12.5t-25 -17.5t-43 -15.5t-51 -8.5q-29 -4 -60 -5q36 15 66 30l50 26t32 23q11 11 4.5 16t-15.5 7q-29 2 -79 -5t-120 -36
q-40 -17 -89 -49.5t-95.5 -73.5t-84 -85t-55.5 -82.5t-10.5 -67t52.5 -38.5q44 -10 102.5 -0.5t122 29.5t125.5 46t112 50.5l83.5 42t38.5 20.5q5 6 9 11.5t9 9.5q9 9 17 16t13 12q-23 -33 -31 -47t-10 -19l1 -2q2 2 17 22t41 62l2 2h1l49 -25l31.5 -17.5t11.5 -9.5
q-11 -7 -30.5 -30t-39 -49l-35.5 -48.5t-19 -27.5l70 128q-2 2 -11 -10.5l-20 -27.5l-27 -41l1 3l-41 -81l-36 -74l15.5 18.5l24.5 28l30.5 33.5l34.5 36l4 4l4 4q0 1 1 1q2 2 2 3l13 12q28 26 55.5 45t53 32t47 21.5t38.5 13.5l36 8l44 -48q-5 -5 -14 -16.5t-24 -34.5
l-27.5 -41.5t-21.5 -37.5q-9 -18 -20 -44.5t-17 -43.5v-9l3 1q5 11 18 37l33 65l16 30l60 82l-25.5 -53l-30 -62.5l-29.5 -64t-23 -56.5t-12 -40.5t5 -16.5q5 -2 27.5 3t56.5 17.5t75.5 32.5t85.5 48l125.5 76zM-48 0q0 1 1 2zM77 237l-1 -2q0 1 1 2z" />
    <glyph glyph-name="o.ss01" unicode="&#xe017;" horiz-adv-x="731" 
d="M82 339l-28 -15l-31.5 -16.5t-40.5 -20.5q34 33 70 58.5t71 43t66 27.5t55 11q30 -16 57 -34q23 -16 46 -37.5t35 -45.5q12 -25 17 -38t7 -19q2 -7 0 -7q-10 18 -20 34q-9 14 -19 27.5t-18 21.5l-23 20q1 -2 11 -15.5t21 -33.5t18.5 -43t3.5 -44t-14 -42.5t-22.5 -40.5
t-25.5 -34.5t-23 -25.5q53 7 113 30.5t120 55t117.5 67.5l106.5 69l15 -17l-106 -66.5t-122.5 -72t-147.5 -67t-182 -51.5q-4 -3 -10 -7q-6 -3 -15.5 -5.5t-25.5 -3.5q-8 -1 -28 -2t-45 1t-51 7.5t-46 17.5t-31.5 32.5t-7.5 52.5l5 24q6 22 25 47t39 47q24 26 52 51
q-23 -17 -44 -35q-18 -16 -37 -37t-30 -43q-11 -23 -16 -38t-7 -26q-2 -12 0 -20q-3 1 -7 3q-8 4 -9 6q-2 5 -4 13l-2 10q-23 0 -30 13q-3 6 -2.5 15t6.5 23.5t19 34t35 45.5l19.5 21.5t20.5 20.5q-48 -23 -110 -49.5t-129 -47.5t-133 -32.5t-121 -4.5q-48 6 -69 43
t-14 90.5t43 117t103 124.5q68 61 133 94.5t116 49.5q60 18 114 21l23 -22q-30 1 -76 -8.5t-112 -39.5l-43 -21t-19 -11q-6 -4 -4 -5l-82 -64l-18.5 -14t-3.5 -3t18 13l47 35q63 48 119.5 69.5t99.5 28.5q50 8 94 2l50 -48v-9q0 -4 -0.5 -9t-2.5 -9q-4 -8 -11 -13.5t-9 -6.5
q1 0 6.5 2.5t12 6t11.5 9t6 13.5l4.5 -6t3.5 -4l3 -3q-2 -4 -6 -10l-13 -12.5t-25 -17.5t-43 -15.5t-51 -8.5q-29 -4 -60 -5q36 15 66 30l50 26t32 23q11 11 4.5 16t-15.5 7q-29 2 -79 -5t-120 -36q-40 -17 -89 -49.5t-95.5 -73.5t-84 -85t-55.5 -82.5t-10.5 -67t52.5 -38.5
q34 -8 77 -3.5t90.5 16.5t97 29.5t96.5 37.5q109 46 226 110zM299 175q20 38 21 71.5t-7 58.5q-9 29 -26 54q-11 2 -32 -2t-61 -24q-22 -12 -46 -30.5t-47 -40t-43.5 -44t-35.5 -42.5q-18 -25 -29 -49q-9 -20 -13 -41t9 -34l9.5 -3t28 -5t47 -1.5t66.5 6.5q1 0 18.5 5.5
t42 19.5t51.5 38.5t47 62.5z" />
    <glyph glyph-name="p.ss01" unicode="&#xe018;" horiz-adv-x="702" 
d="M714 292q10 1 14.5 -1t6.5 -5.5t2 -7t2 -5.5q-42 -56 -95 -98.5t-108.5 -73t-110 -51t-100.5 -32t-79.5 -15.5t-47.5 -2q-23 3 -42.5 11.5t-35.5 19t-28 21.5t-20 20l-11 5.5t-8 4.5q-4 3 -7 5q1 0 4 -1q6 -2 11 -2q-1 1 -1 2l-1 1l29 -7q11 -1 22.5 -0.5t21.5 2.5
q41 10 67 28.5t40 37.5q17 22 25 46q-12 -19 -28 -37q-14 -15 -33.5 -31t-44.5 -27q-14 -5 -26.5 -7t-22.5 -2q-11 0 -22 2q22 6 46 17q20 9 43.5 25t44.5 39q19 21 30.5 45.5t18.5 45.5q8 25 11 49q-21 -3 -47 -14q-23 -11 -54.5 -32t-69.5 -60q-30 -31 -54 -61.5
t-42 -58.5q-15 -22 -30.5 -56t-28.5 -66l-30 -78l-120 -380q1 17 5 40q3 19 8 46t13 61q4 17 4.5 19.5t-1.5 -4.5l-6 -21.5t-8 -32.5l-28 -107q-12 -7 -23 -4q-9 2 -16.5 13.5t-8.5 42.5q-1 24 10 76.5t31 121.5t48.5 149t61.5 160q10 33 32 84t53 112q-48 -23 -108.5 -47.5
t-123.5 -43.5t-125 -29t-114 -3q-48 6 -69 42.5t-14.5 90t42.5 117.5t104 125t133 94t116 49q60 18 114 21l23 -22q-30 1 -76.5 -8.5t-111.5 -39.5q-29 -13 -43 -20t-19 -11q-6 -4 -5 -6l-82 -64l-17.5 -14t-3.5 -3t18 13.5l47 35.5q63 48 119.5 69t99.5 28q50 8 93 2
l26 -24l24 -23q1 -5 1 -10q0 -11 -3 -18q-4 -8 -11.5 -13.5t-9.5 -6.5q1 0 6.5 2.5t12 6t12 9t6.5 13.5q6 -8 8 -10l3 -3q-2 -4 -6 -10l-13 -12.5t-25 -17.5t-43 -15.5t-51 -8.5q-29 -4 -60 -5q35 15 65 30l50 26t33 23q11 12 4.5 16.5t-15.5 6.5q-30 2 -80 -4.5t-119 -35.5
q-40 -17 -89 -50t-95.5 -74t-84 -84.5t-55.5 -82t-10.5 -67t52.5 -38.5q46 -10 109 1t130.5 33t132 50.5l114.5 52.5q45 88 102 181.5t117 175.5q48 66 96 111t90 74l-73 -76q-41 -44 -80 -97t-73 -105.5t-62 -101l-47 -82.5q3 5 6.5 8.5l7.5 7.5l51.5 82.5l62.5 94.5
t67.5 93.5t66.5 78.5q5 6 10 11l10 10q69 71 108 99.5t50 34.5l4 2q8 3 14.5 4.5t11.5 3.5l9 3l31 -39v-1h-1v-1q-1 -3 -4.5 -10.5t-13 -23l-26 -41.5t-43.5 -65q-18 -27 -48 -62l-66 -74l-75 -79.5l-75 -77l-66.5 -66l-48.5 -47.5q-25 -46 -47 -90.5l-42 -84.5h1l-2 -4
q21 28 47 58t56.5 57.5t65 50.5t73.5 38q1 -1 3 -1q2 -1 4.5 -1t5.5 -1l24 -20l26 -23t23.5 -25t16.5 -25q-2 -31 -23 -66.5t-50.5 -66t-62 -51.5t-56.5 -22q1 -5 7 -9t12 -7q7 -4 16 -6q41 -3 90.5 7t100.5 29t100.5 45.5t92 57.5t75 64t48.5 65zM477 842
q-42 -44 -101 -113.5t-123 -161.5q-27 -39 -55 -85t-55 -95l65.5 61.5t79.5 79.5q27 27 55 61t54.5 69.5t50 70.5t41 63.5t28 48t11.5 24.5q0 8 -7.5 5.5t-17 -8.5t-17.5 -12.5t-9 -7.5zM-110 -5l-32 -90.5t-14 -39.5q1 2 14.5 36l35.5 86q-2 2 -4 8zM66 376v1v-1z" />
    <glyph glyph-name="q.ss01" unicode="&#xe019;" horiz-adv-x="587" 
d="M74 346q70 35 119 38l64 -79q-2 -4 -3 -5l-1 -1q-5 9 -19 11q-12 2 -34 -3t-60 -25q-25 -13 -52 -35t-52.5 -47t-48 -51t-38 -48t-23 -37t-3.5 -19q4 -3 22.5 7.5t44.5 29t55 41.5l55 44l45.5 37t24.5 21l11 15q7 -4 21 -14l28 -21l-114 -146l131 133l11 -8l-69 -86
t-88 -117.5t-91 -137t-76 -143.5q-16 -36 -25 -61t-14 -42q1 1 2 1l-3 -3q-2 -6 -2 -9q1 1 4 1q17 11 39 28q19 14 44.5 37t57.5 56q26 27 38 51.5t14.5 46t-1.5 39t-10.5 30.5t-12 21.5t-5.5 12.5l58.5 36.5l88 53.5l106 64.5l113 69.5l109 68l93.5 61l4 -16.5t5 -16.5
l-204.5 -125.5l-175.5 -104.5l-168 -97q31 -54 39 -109q3 -24 1.5 -50t-11 -52.5t-28.5 -53t-51 -50.5q-35 -26 -59 -38t-39 -17q-18 -5 -29 -3q-2 2 -6 5l-8 5.5t-10 8.5q8 2 25.5 5.5t28.5 7.5q45 17 69 42.5t34 43.5q-10 -12 -22 -22q-32 -26 -59.5 -40t-47.5 -20
q-24 -7 -44 -7l-10.5 8t-10.5 9q-4 3 -4 8l-9 7l25 48q11 20 22 44t19 44l21 52l-87 -167l-15 13q1 19 16 56q13 31 40 83.5t78 132.5l86.5 135.5l74.5 115.5l-67.5 -58t-55.5 -44q-8 -6 -22.5 -13.5l-29.5 -15t-27 -12.5t-16 -6q-3 -1 -8.5 1t-9.5 9t-4.5 20.5t5.5 37.5
q6 22 24.5 48t39 49t37.5 39.5l21 20.5q-3 -2 -17 -13t-32 -28t-36.5 -38.5t-30.5 -44.5q-12 -24 -17.5 -41.5t-7.5 -28.5q-2 -13 0 -22q-4 1 -8 3q-7 4 -9 7q-3 5 -4 14q-1 5 -2 11q-25 -1 -32 14q-3 6 -2.5 16.5t7 26t20 36.5t37.5 50q16 19 32.5 35.5l33.5 32.5
q-48 -23 -106 -46t-118 -40.5t-119 -26t-108 -2.5q-48 6 -69 43t-14 90.5t43 117t103 124.5q68 61 133 94.5t116 49.5q60 18 114 21l23 -22q-30 1 -76 -8.5t-112 -39.5l-43 -21t-19 -11q-6 -4 -4 -5l-82 -64l-18.5 -14t-3.5 -3t18 13l47 35q63 48 119.5 69.5t99.5 28.5
q50 8 94 2l50 -48v-9q0 -4 -0.5 -9t-2.5 -9q-3 -8 -10.5 -13.5t-9.5 -6.5q1 0 6.5 2.5t12 6t11.5 9t6 13.5l4.5 -6t3.5 -4l3 -3q-2 -4 -6 -10l-13 -12.5t-25 -17.5t-43 -15.5t-51 -8.5q-29 -4 -60 -5q36 15 66 30l50 26t32 23q11 11 4.5 16t-15.5 7q-29 2 -79 -5t-120 -36
q-40 -17 -89 -49.5t-95.5 -73.5t-84 -85t-55.5 -82.5t-10.5 -67t52.5 -38.5q37 -8 86 -2t103 21t108.5 36t104 43t89.5 42l65 33l23 12q1 1 5 3q2 1 3 2v-1zM86 -303q-5 -4 -13 -16t-21 -27q4 3 7.5 4.5t7.5 3.5t8 3q3 9 6 17l4 11.5t1 3.5z" />
    <glyph glyph-name="r.ss01" unicode="&#xe02a;" horiz-adv-x="764" 
d="M775 297q4 -5 12.5 -5t11.5 -5q-25 -27 -69 -53.5t-96.5 -49.5t-108.5 -40t-104.5 -25t-84 -4.5t-46.5 22.5q-11 41 2 87.5t36 80.5q-5 -10 -8 -19.5l-6 -19.5q6 11 13 22.5t7 24.5l-6 -7q5 11 11 21.5t14 20.5q-5 0 -8 -1l-14.5 -21.5t-16.5 -27l-15.5 -29t-10.5 -26.5
q-9 -33 -9 -52q-1 -11 1 -20q-5 18 -4 41q1 20 7.5 46t25.5 58q9 17 12 25l-9 -3l2 3q-2 1 -8 1q-10 1 -29 -9q-17 -8 -45 -27t-72 -57q-29 -25 -54.5 -52t-47 -54t-39 -52l-30.5 -44q-15 -20 -24 -30l-9 -11l5 10h-1q-1 0 -2 1q-2 -5 -3 -8t-2 -5q-1 -3 -2 -4q4 17 11 39
q6 19 15 44.5t23 57.5q7 16 8 18.5t-2 -4.5t-9.5 -20.5t-13.5 -30.5l-45 -101q-13 -5 -23 -1q-8 4 -14 16.5t-2 43.5q2 16 11 43.5t24.5 63.5t36 79t45.5 90l-62 -32t-85.5 -39.5t-101 -40.5t-108 -34.5t-107 -21.5t-97.5 -1q-48 6 -69 43t-14 90.5t43 117t103 124.5
q68 61 133 94.5t116 49.5q60 18 114 21l23 -22q-30 1 -76 -8.5t-112 -39.5l-43 -21t-19 -11q-6 -4 -4 -5l-82 -64l-18.5 -14t-3.5 -3t18 13l47 35q63 48 119.5 69.5t99.5 28.5q50 8 94 2l50 -48v-9q0 -4 -0.5 -9t-2.5 -9q-3 -8 -10.5 -13.5t-9.5 -6.5q1 0 6.5 2.5t12 6
t11.5 9t6 13.5l4.5 -6t3.5 -4l3 -3q-2 -4 -6 -10l-13 -12.5t-25 -17.5t-43 -15.5t-51 -8.5q-29 -4 -60 -5q36 15 66 30l50 26t32 23q11 11 4.5 16t-15.5 7q-29 2 -79 -5t-120 -36q-40 -16 -89 -49t-95.5 -74t-84 -85t-55.5 -82.5t-10.5 -67t52.5 -38.5q43 -9 100 -0.5
t118 27.5t122 44t111 49t85 42.5l45 23.5q8 14 20 24q9 9 17 16t13 12q-23 -32 -30.5 -46t-9.5 -19v-3l18 23.5t39 58.5l1 4l1 -1l1 1l29 -15q10 -6 21.5 -12l21 -11t14.5 -9t4 -5q-11 -7 -31 -30t-39.5 -49l-35.5 -48.5t-19 -27.5l71 128q-2 1 -7 -5.5l-12.5 -16.5l-15 -21
l-13.5 -20l-51.5 -103.5l-42.5 -89.5v-1l12 20q15 19 33 39l34.5 38.5t42.5 44.5l4 4l4 4q0 1 1 1l2 3l13 12q28 26 55.5 45t53 32t47 21.5t38.5 13.5l36 8l44 -48l-6 -6q-28 -24 -48 -52.5t-37 -60.5q-2 -3 -6.5 -13t-8.5 -22.5t-5 -24.5t4 -17q-3 -12 22.5 -14.5t68 3.5
t95.5 19.5t105 34t97.5 47t72.5 57.5zM309 244l2 10.5t3 11.5q-5 -13 -5 -22zM72 237l-1 -2q0 1 1 2z" />
    <glyph glyph-name="s.ss01" unicode="&#xe02b;" horiz-adv-x="656" 
d="M672 288q-50 -25 -108 -45t-114.5 -37l-107 -32.5t-86.5 -30.5q1 -13 0 -28t-5 -34q-6 -32 -29 -78.5t-64.5 -92t-102.5 -82t-142 -48.5l-29 20q55 3 100 21t78.5 40.5t56.5 45.5t34 37l2 2q3 3 6 5l2 2q6 5 14.5 14.5t13.5 17.5q2 3 5 9t5 11l6 14l-5 -5q-2 -2 -5 -5.5
t-7 -7.5q-5 -4 -9.5 -11.5l-9.5 -15.5l-11 -21l-4 -5q-11 -9 -36 -26l-73 -48q-56 -35 -104 -45t-85 -7q-16 14 -25 34t-20 32q12 10 29 27t41.5 38.5t57 45.5t73.5 49l103.5 62t108.5 52q-1 5 -3 9q-2 3 -3 6t-2 4q-1 0 -12.5 -1.5t-30 -5t-41.5 -8.5l-47 -10l-127 -28
q-4 1 -7.5 5t-5 11.5t0.5 20.5t10 32q6 15 19 31t28 32q-4 -1 -7 -1.5t-7 -0.5q-7 -7 -12.5 -13.5t-10.5 -14.5q-16 -23 -23.5 -39.5t-10.5 -27.5q-4 -13 -3 -22q-3 2 -7 5q-8 6 -9 8t-1 5.5v8.5t-1 11q-15 2 -23 10q-7 7 -7 21t17 39q-72 -5 -136 0t-112 24
q-45 18 -56.5 58.5t8 90.5t70.5 103.5t131 95.5q81 43 151.5 59t124.5 19q62 3 116 -7l17 -27q-29 7 -76.5 9.5t-117.5 -10.5q-31 -6 -46 -9.5t-21 -5.5q-7 -3 -6 -4l-95 -42q-14 -6 -21.5 -9.5t-4 -2.5t21 8.5l53.5 22.5q73 31 133 38t104 3q51 -4 91 -21l18 -29l19 -30
q-1 -5 -2 -9q-2 -4 -3.5 -8.5t-4.5 -7.5q-6 -7 -14.5 -10.5t-10.5 -3.5q1 0 6.5 0.5t13 2.5t14 6t9.5 12q2 -5 3.5 -7.5t2.5 -4.5q1 -3 2 -4q-2 -4 -8 -8q-5 -4 -16 -9.5t-29 -10.5q-19 -5 -45 -4t-51 4q-29 4 -60 10q38 6 71 13q28 6 54.5 13t37.5 14q13 9 8 15.5t-13 9.5
q-28 10 -78 15.5t-125 -5.5q-43 -6 -98.5 -26t-110.5 -48t-102.5 -61.5t-74.5 -66.5t-26.5 -62.5t41.5 -50.5q45 -23 113.5 -27t142.5 2q18 22 48 51q44 40 92.5 70.5t95 50t87.5 28t70 5.5l31 -50q21 -17 33 -33q11 -14 15 -27t-10 -21q-8 -4 -16.5 -7t-18.5 -6h7
q-38 -10 -81 -20q-38 -9 -86.5 -19t-104.5 -19q-24 -21 -42.5 -40t-28.5 -33l48.5 9.5t67.5 11t65 5t41 -7.5v2l3 -4q0 -1 0.5 -1t0.5 -1q7 -9 11.5 -18.5l9.5 -19.5q8 2 36.5 10l68 18.5t85.5 24l89 27t78.5 27t53.5 25.5zM177 44q16 20 26 41t16 42q-65 -32 -120.5 -67.5
t-100.5 -68.5t-77.5 -60l-49.5 -42q-5 -10 -1.5 -17t16.5 -5q39 7 74.5 21.5t66.5 32.5t57 38t45 37q28 22 48 48zM240 378q-32 -12 -68 -35t-69 -50q53 10 93 19t60 14l25.5 9.5t24.5 9.5q15 6 25 12.5t15 11.5q6 6 9 11q-4 10 -17 14q-11 3 -34 0.5t-64 -16.5zM100 337
q-1 0 -9 -4.5t-20.5 -12.5l-27.5 -18.5t-30 -23.5q10 2 14 2q26 23 47 38.5t26 18.5z" />
    <glyph glyph-name="t.ss01" unicode="&#xe02c;" horiz-adv-x="595" 
d="M615 273q-68 -59 -142 -105t-145.5 -79.5t-136 -54.5t-115 -30t-82.5 -6.5t-37 16.5l-2.5 5t-1.5 4q-2 2 -7 21.5t0 45.5q5 22 8.5 33t5.5 13q-2 -1 -12.5 -19.5t-11.5 -57.5q-1 -7 -1 -12.5v-10.5q-6 6 -12.5 16t-10 23.5t-2.5 29.5t9 33q14 32 32.5 70.5l41.5 82.5
q-48 -23 -109.5 -49t-127 -46.5t-130 -31t-118.5 -3.5q-48 6 -69 42.5t-14.5 90t42.5 117.5t104 125t133 94t116 49q60 18 114 21l23 -22q-30 1 -76.5 -8.5t-111.5 -39.5q-29 -13 -43 -20t-19 -11q-6 -4 -5 -6l-82 -64l-17.5 -14t-3.5 -3t18 13.5l47 35.5q63 48 119.5 69
t99.5 28q50 8 93 2l26 -24l24 -23q1 -5 1 -10q0 -11 -3 -18q-4 -8 -11.5 -13.5t-9.5 -6.5q1 0 6.5 2.5t12 6t12 9t6.5 13.5q6 -8 8 -10l3 -3q-2 -4 -6 -10l-13 -12.5t-25 -17.5t-43 -15.5t-51 -8.5q-29 -4 -60 -5q35 15 65 30l50 26t33 23q11 12 4.5 16.5t-15.5 6.5
q-30 2 -80 -4.5t-119 -35.5q-40 -17 -89 -50t-95.5 -74t-84 -84.5t-55.5 -82t-10.5 -67t52.5 -38.5q32 -7 72.5 -3.5t85.5 14t92 27t92 34.5t85.5 37l72.5 35l8 14l-40 4t-40 7q-23 5 -43.5 13t-35.5 15q-18 8 -33 16h3q33 -11 84 -22t116 -11l89.5 154.5t98.5 147.5
q48 66 96 111t90 74l-73 -76q-45 -48 -88 -107.5t-79.5 -117t-64.5 -107.5t-43 -79h2l30 49l40.5 64l47.5 72.5l51.5 74.5l53 70.5t50.5 59.5l20 21q41 42 71.5 68.5t50.5 41.5q24 18 40 25q8 3 14.5 5t11.5 4l9 3l31 -39q-2 -6 -12 -24q-8 -15 -26 -42.5l-50 -75.5
q-23 -34 -66.5 -82l-94 -99.5l-101.5 -101l-90 -85.5q5 1 10.5 1.5t10.5 2.5q81 17 133.5 32t84.5 27q37 14 57 27l18 -29q-1 0 -2 -2t-5 -8l16 -16q-9 -12 -23 -23q-12 -9 -30 -19t-41 -15q-24 -6 -56.5 -11t-61.5 -8q-34 -4 -70 -7l57 15q22 5 39 12l30 12q14 6 26 12
l-40 -8.5l-45.5 -9t-47 -8l-44.5 -6.5h-1l-39 -3l-52 -100.5l-46 -92.5q0 -1 -5.5 -19t-9.5 -39.5t-4.5 -39.5t9.5 -19q41 -4 93 6t108.5 30.5t114.5 48.5t112 59.5t100 65t78 63.5zM254 575q-26 -37 -51.5 -80l-51.5 -88l7 7.5l22.5 24l42 44l65.5 67.5q27 27 55 60
l54.5 67l50 67l41.5 59.5t28.5 45t11.5 24.5q0 8 -7.5 5.5t-17 -8.5t-18 -13l-8.5 -7q-42 -45 -101 -114t-123 -161z" />
    <glyph glyph-name="u.ss01" unicode="&#xe02d;" horiz-adv-x="820" 
d="M134 494q3 -1 18.5 -9l32.5 -17t30 -17t11 -9q-11 -7 -31 -30t-39.5 -49l-35.5 -48.5t-19 -27.5l70 129q-2 1 -10.5 -10.5l-18.5 -26l-18.5 -27.5t-9.5 -15l-35 -70t-31 -65l-4 -8l-9 -17q-8 -17 -18 -43t-14.5 -50.5t0 -42t26.5 -15.5q14 1 41 19t61.5 46.5l74.5 64.5
l80 74q11 30 25.5 59t27.5 52q15 26 31 51h-4q13 14 26.5 26l27.5 24q10 2 14 2l43 -47q-5 -5 -14 -16.5t-24 -34.5l-27 -41.5t-22 -37.5l-19.5 -45.5t-17.5 -42.5l1 -9h2l52 102l15 31l60 81l-25.5 -52.5l-29.5 -63l-29 -64t-23.5 -56.5t-12 -40.5t5.5 -16.5q27 -2 67 6
t85.5 24t93 37.5t90.5 45t78 48.5t55 47l16 -24q-71 -53 -139 -90t-128 -61t-109.5 -36.5t-82.5 -18.5q-8 -2 -14.5 -3t-13.5 -1t-15 2l-33 -2q-34 8 -45 33t-8 58l-71 -63t-65.5 -51.5t-55.5 -32.5t-41 -8q-26 5 -40.5 16t-21.5 26q0 2 -2 21t6 51q5 17 7 28t3 17q1 7 1 11
q-9 -20 -16 -38q-6 -16 -10.5 -33t-2.5 -28l-1 -21q-5 -1 -11.5 0.5t-12 7.5t-8 18.5t0.5 34.5q2 16 12 45t26 66.5t37.5 82t47.5 93.5l23 37q-44 -23 -109 -52t-137 -54t-145.5 -39t-133.5 -6q-48 6 -69 43t-14 90.5t43 117t103 124.5q68 61 133 94.5t116 49.5
q60 18 114 21l23 -22q-30 1 -76 -8.5t-112 -39.5l-43 -21t-19 -11q-6 -4 -4 -5l-82 -64l-18.5 -14t-3.5 -3t18 13l47 35q63 48 119.5 69.5t99.5 28.5q50 8 94 2l50 -48v-9q0 -4 -0.5 -9t-2.5 -9q-4 -8 -11.5 -13.5t-9.5 -6.5q1 0 6.5 2.5t12 6t12 9t6.5 13.5l4.5 -6t3.5 -4
l3 -3q-2 -4 -6 -10l-13 -12.5t-25 -17.5t-43 -15.5t-51 -8.5q-29 -4 -60 -5q36 15 66 30l50 26t32 23q11 11 4.5 16t-15.5 7q-29 2 -79 -5t-120 -36q-40 -16 -89 -49t-95.5 -74t-84 -85t-55.5 -82.5t-10.5 -67t52.5 -38.5q34 -8 77 -3.5t90.5 16.5t97 29.5t96.5 37.5
q109 46 226 110zM8 247q-4 -5 -7.5 -14.5t-5.5 -19.5q-4 -11 -6 -25l33 72q-1 0 -3 -2t-4.5 -4t-6.5 -7zM72 407q5 5 10 12q5 6 11.5 15l14.5 21l-15 -8q-9 -14 -13 -21t-6 -12t-2 -7zM101 287l-1 -2q0 1 1 2z" />
    <glyph glyph-name="v.ss01" unicode="&#xe02e;" horiz-adv-x="812" 
d="M44 441l1 1l69 -44q-2 -6 -5.5 -21t-7.5 -43q-4 -23 -8 -51t-4 -46q1 -23 2.5 -54t3.5 -51l6 -10l1 2q1 12 1 43.5t2 79.5v19t1 18l21 102v-63.5t0.5 -75t2 -76.5t4.5 -67.5t8.5 -47.5t13.5 -17q6 -1 24.5 8t44.5 27q23 17 53.5 46.5l65 65.5l71 76l73 78l71.5 72.5
t65 59.5q45 37 79 60t59.5 36t43 17.5t29.5 3.5q27 -3 32 -30l36 -45q-20 -8 -44 -21q-20 -11 -47 -28.5t-57 -42.5q2 6 9 16q5 8 16 20t30 29q-2 -1 -36 -13t-89 -43t-125.5 -84.5t-145.5 -136.5l-40 -44l-39 -37l-28 -27.5t-34.5 -30.5t-38.5 -28.5t-39 -22.5
q-7 -4 -14 -6t-13 -4q-5 -1 -9 -1.5t-8 -0.5l-34 -8q-36 1 -59 22t-36.5 53t-19 71t-6.5 77.5t1.5 71.5t5.5 53l6 27.5t8 26.5l-62 -31t-85.5 -40t-101 -41t-108 -34.5t-107 -21.5t-97.5 -1q-48 6 -69 43t-14 90.5t43 117t103 124.5q68 61 133 94.5t116 49.5q60 18 114 21
l23 -22q-30 1 -76 -8.5t-112 -39.5l-43 -21t-19 -11q-6 -4 -4 -5l-82 -64l-18.5 -14t-3.5 -3t18 13l47 35q63 48 119.5 69.5t99.5 28.5q50 8 94 2l50 -48v-9q0 -4 -0.5 -9t-2.5 -9q-3 -8 -10.5 -13.5t-9.5 -6.5q1 0 6.5 2.5t12 6t11.5 9t6 13.5l4.5 -6t3.5 -4l3 -3
q-2 -4 -6 -10l-13 -12.5t-25 -17.5t-43 -15.5t-51 -8.5q-29 -4 -60 -5q36 15 66 30l50 26t32 23q11 11 4.5 16t-15.5 7q-29 2 -79 -5t-120 -36q-40 -16 -89 -49t-95.5 -74t-84 -85t-55.5 -82.5t-10.5 -67t52.5 -38.5q40 -9 92.5 -1.5t110 24t115 39.5t107.5 46t88.5 43
l57.5 30l1 1q1 0 1.5 0.5t1.5 0.5l1 1q3 1 5 2t4 3l2 1v-1z" />
    <glyph glyph-name="w.ss01" unicode="&#xe02f;" horiz-adv-x="1141" 
d="M107 443q1 0 16.5 -8l33 -17t31.5 -17.5t11 -9.5q-11 -7 -30.5 -30t-39 -49l-35.5 -48.5t-19 -27.5l70 128q-2 2 -10.5 -10.5l-19.5 -27.5l-27 -41v2l-38 -76l-34 -70l-4 -11q3 3 4 6l-6 -11l-9 -24q0 -2 -0.5 -2.5t-0.5 -2.5l-5 -12l-19 -46q22 7 48 18q22 10 49.5 26.5
t57.5 42.5q15 12 32.5 30t36 39l37.5 43.5l36 43.5l83 106l16 7l16 -10l53 -33q-2 -7 -5.5 -21.5t-7.5 -42.5q-4 -23 -8 -51t-4 -46q1 -23 2.5 -54.5t3.5 -50.5l6 -10l1 1q1 13 1 44.5t2 78.5v20t1 17l21 103q0 -27 -0.5 -61.5l-1 -70.5t0 -70.5t2.5 -62t7 -45t13 -18.5
q14 -4 34.5 14.5t44 52.5t48 79.5t48.5 95t45.5 99.5l38.5 93q26 67 54 93.5t51 31.5l42 -18q-72 -96 -133 -200.5t-108 -214.5q30 50 56.5 99l56 99t64 101t80.5 105l13 -6l54 -35q-57 -36 -120.5 -141t-106 -221.5t76.5 -70t352 221.5l2 -30q-90 -72 -174 -125.5
t-148.5 -79t-104 -18.5t-40.5 54.5t43.5 141t147.5 241.5q-10 11 -27 -6.5t-39.5 -53t-50 -84l-58 -101t-64 -103t-68.5 -90t-70.5 -62.5t-70.5 -20q-34 1 -56.5 19.5t-36 47t-20 64.5t-8 72.5t0 69.5t4.5 57q-23 -36 -53 -77t-63 -78t-67.5 -66t-68.5 -41
q-51 -18 -77 -24.5t-37 -6.5q22 6 46.5 17.5t56.5 28.5q38 21 69.5 48t54.5 51q26 28 48 57q-17 -21 -38 -43q-18 -19 -44 -41.5t-58 -44.5q-37 -25 -77 -38.5l-68 -22.5q0 -1 -1 -2q1 4 12 41.5t37 98.5q7 16 7.5 18.5t-2.5 -4.5t-9.5 -20.5t-13.5 -30.5l-45 -101
q-13 -5 -23 -1q-8 4 -14 16.5t-2 43.5q2 16 12 45t26 66.5t37.5 82t47.5 92.5q13 24 26 40q-29 -15 -68.5 -33.5t-84.5 -37t-94 -35.5t-98 -29t-95.5 -17t-87.5 0q-48 6 -69 43t-14 90.5t43 117t103 124.5q68 61 133 94.5t116 49.5q60 18 114 21l23 -22q-30 1 -76 -8.5
t-112 -39.5l-43 -21t-19 -11q-6 -4 -4 -5l-82 -64l-18.5 -14t-3.5 -3t18 13l47 35q63 48 119.5 69.5t99.5 28.5q50 8 94 2l50 -48v-9q0 -4 -0.5 -9t-2.5 -9q-4 -8 -11.5 -13.5t-9.5 -6.5q1 0 6.5 2.5t12 6t12 9t6.5 13.5l4.5 -6t3.5 -4l3 -3q-2 -4 -6 -10l-13 -12.5
t-25 -17.5t-43 -15.5t-51 -8.5q-29 -4 -60 -5q36 15 66 30l50 26t32 23q11 11 4.5 16t-15.5 7q-29 2 -79 -5t-120 -36q-40 -17 -89 -49.5t-95.5 -73.5t-84 -85t-55.5 -82.5t-10.5 -67t52.5 -38.5q34 -8 77 -3.5t90.5 16.5t97 29.5t96.5 37.5q109 46 226 110v-1zM45 356
l10 12q5 6 12 15.5t15 21.5l-14 -7q-10 -14 -14.5 -22t-6.5 -13q-3 -5 -2 -7zM75 236l-1 -2q0 1 1 2z" />
    <glyph glyph-name="x.ss01" unicode="&#xe020;" horiz-adv-x="784" 
d="M93 120q-40 -57 -70 -92t-52.5 -53.5t-39.5 -23.5t-30.5 -2.5t-25 9.5t-23.5 13q27 0 57.5 21.5t60.5 50t56.5 59t44.5 48.5q-26 20 -49 64.5t-34 104.5q-4 28 -3 57.5t5.5 57t10 51.5t10.5 41q-19 -11 -55.5 -29.5t-84.5 -40.5t-104.5 -43.5t-114 -38t-113.5 -24
t-103 -1.5q-48 6 -69 43t-14 90.5t43 117t103 124.5q68 61 133 94.5t116 49.5q60 18 114 21l23 -22q-30 1 -76 -8.5t-112 -39.5l-43 -21t-19 -11q-6 -4 -4 -5l-82 -64l-18.5 -14t-3.5 -3t18 13l47 35q63 48 119.5 69.5t99.5 28.5q50 8 94 2l50 -48v-9q0 -4 -0.5 -9t-2.5 -9
q-3 -8 -10.5 -13.5t-9.5 -6.5q1 0 6.5 2.5t12 6t11.5 9t6 13.5l4.5 -6t3.5 -4l3 -3q-2 -4 -6 -10l-13 -12.5t-25 -17.5t-43 -15.5t-51 -8.5q-29 -4 -60 -5q36 15 66 30l50 26t32 23q11 11 4.5 16t-15.5 7q-29 2 -79 -5t-120 -36q-40 -17 -89 -49.5t-95.5 -73.5t-84 -85
t-55.5 -82.5t-10.5 -67t52.5 -38.5q44 -10 103 0t122.5 30t126 46.5t112.5 50.5t83 41.5t37 19.5l2 4l58 -33q-2 -6 -5.5 -19.5t-7.5 -39.5q-5 -21 -8.5 -46.5t-3.5 -42.5q0 -11 5 -27l10 -32q6 -18 15 -39q0 6 -2.5 15t-5.5 22.5t-5 31t-1 38.5v17.5t1 16.5l21 94
q1 -45 0 -88t1 -83.5t9.5 -78t25.5 -71.5q50 54 106.5 105.5l116 101.5l120 98.5l117.5 96.5q70 57 115 83t72 32t38.5 -1.5t15.5 -15.5q-9 -2 -20 -4t-24 -7q-45 -18 -75 -34t-49 -28q-22 -14 -35 -26l32 16l35 18l44 22q23 11 41 18t30 10q14 4 24 4l35 -45
q-20 -8 -44 -21q-20 -11 -47 -28.5t-57 -42.5q2 6 9 16q5 8 16 20t30 29q-2 -1 -39.5 -15.5t-113.5 -61t-193 -134t-277 -233.5q13 -19 34.5 -40t46 -39.5t49 -32t44.5 -17.5q34 -7 73.5 2t81.5 29t85.5 48t86 59t81.5 62.5l72 57.5l17 -18q-20 -17 -51 -41l-68.5 -51.5
l-78.5 -55t-80 -51t-73 -40.5t-58 -23q-57 -18 -105.5 -13.5t-89 21.5t-72.5 43t-55 52z" />
    <glyph glyph-name="y.ss01" unicode="&#xe021;" horiz-adv-x="706" 
d="M742 276l-70 -41l-60 -42.5l-95 -68l-110 -80.5l-104 -79q-32 -96 -75 -201t-92 -198q-38 -73 -78 -124.5t-78 -86.5l28.5 39t32.5 47q34 49 64.5 107.5t56.5 116.5t46.5 110t33.5 88l-12 -19l-38.5 -89.5l-48 -103t-53 -102.5t-53.5 -88l-16 -23q-35 -48 -60.5 -79
t-43.5 -48q-21 -21 -36 -31q-8 -5 -13.5 -8t-10.5 -5q-5 -3 -9 -4l-36 34q1 7 8 25q6 16 19 46.5t39 82.5q14 29 38 68.5t53.5 83.5l62 89.5l63 87l55.5 75l41 54.5l32.5 97l28.5 90q0 2 0.5 2.5t0.5 2.5l6 18.5t5 19.5v8t1 9l-71 -62.5t-66 -51t-56 -33t-40 -8.5
q-26 5 -40.5 16t-21.5 26q-1 2 -2.5 21t6.5 52q5 17 7 27.5t3 16.5q1 7 1 11q-9 -20 -16 -38q-6 -16 -10.5 -33t-2.5 -28l-2 -20q-5 -1 -11 0.5t-11.5 7.5t-8 18.5t0.5 34.5q2 16 12 45t26 66.5t37 82t47 92.5q10 19 23 35q-29 -15 -68.5 -33.5t-84.5 -37t-93.5 -35t-97 -28
t-95 -16.5t-86.5 0q-48 6 -69 43t-14 90.5t43 117t103 124.5q68 61 133 94.5t116 49.5q60 18 114 21l23 -22q-30 1 -76 -8.5t-112 -39.5l-43 -21t-19 -11q-6 -4 -4 -5l-82 -64l-18.5 -14t-3.5 -3t18 13l47 35q63 48 119.5 69.5t99.5 28.5q50 8 94 2l50 -48v-9q0 -4 -0.5 -9
t-2.5 -9q-4 -8 -11.5 -13.5t-9.5 -6.5q1 0 6.5 2.5t12 6t12 9t6.5 13.5l4.5 -6t3.5 -4l3 -3q-2 -4 -6 -10l-13 -12.5t-25 -17.5t-43 -15.5t-51 -8.5q-29 -4 -60 -5q36 15 66 30l50 26t32 23q11 11 4.5 16t-15.5 7q-29 2 -79 -5t-120 -36q-40 -17 -89 -49.5t-95.5 -73.5
t-84 -85t-55.5 -82.5t-10.5 -67t52.5 -38.5t105 0t124.5 30.5t128 47.5t113.5 51.5t81.5 41.5t33.5 18v3h2l21 -11l24 -12.5t23.5 -12.5t17 -10.5t4.5 -5.5q-11 -7 -30.5 -30t-39 -49l-35.5 -48.5t-19 -27.5l70 128q-1 1 -7 -6.5t-14 -18.5l-16 -23t-14 -20l-72 -145l-3 -8
l-9 -18q-8 -17 -18 -43t-14.5 -50t0 -41.5t26.5 -15.5q14 1 41 18.5t61.5 46t74.5 65l79 74.5q11 30 26 59l28 52q15 26 31 50q-1 0 -2 0.5t-2 0.5q12 13 26 25l28 24l14 3l43 -48q-5 -5 -14 -16.5t-24 -34.5l-27.5 -41.5t-21.5 -37.5q-4 -7 -7.5 -16t-8.5 -19l-9 -38
q0 -4 -1 -5l43 84l16 30l60 82q-8 -18 -17.5 -32t-21 -33.5t-26 -48.5t-33.5 -76q-8 -16 -14 -32.5t-13 -38l-16.5 -50t-24.5 -67.5l52.5 40l55.5 41.5l54.5 40l50.5 36.5l46 32l70 45l39.5 25.5l17.5 11l4 2.5l21 13zM85 -354q21 43 41.5 92.5t39.5 101.5l-54.5 -70
l-66.5 -90q-22 -31 -44.5 -68.5t-43.5 -77t-39 -77.5l-31.5 -68.5t-21 -52t-6.5 -26.5q0 -8 7.5 -4.5t15.5 11t15.5 15.5l7.5 8q35 51 83 128.5t97 177.5zM7 248q-4 -5 -7.5 -14.5t-5.5 -19.5q-4 -11 -6 -25l32 72q-1 0 -3 -2l-4 -4t-6 -7zM71 408q5 5 10 12q5 6 11 14.5
l14 19.5q-4 -2 -7.5 -4t-7.5 -4q-8 -13 -12 -20.5l-6 -11.5t-2 -6zM99 288l-1 -2q0 1 1 2z" />
    <glyph glyph-name="z.ss01" unicode="&#xe022;" horiz-adv-x="921" 
d="M126 421q72 48 141.5 72t114.5 21l37 -57q10 -9 17 -27l1 -1q11 -33 3.5 -86.5t-40.5 -113.5q-17 -30 -37.5 -55.5t-46.5 -47.5q12 1 30 2q30 1 91 0q30 -2 46 -17.5t24 -34.5q9 -22 9 -49l-3 -5q13 11 46.5 33l77 49.5l91.5 57.5l90 56l73 46t41 28l2 -30l-441 -279
q-47 -89 -105.5 -186t-121.5 -182q-49 -66 -97 -110.5t-90 -73.5l33.5 34.5l39.5 41.5q41 43 80.5 96t74.5 106t63 101l47 82l-15 -17l-52 -81l-63.5 -94l-68.5 -93.5t-66 -78.5l-20 -21q-42 -42 -72.5 -68.5t-50.5 -40.5q-24 -18 -40 -25q-8 -4 -14.5 -5.5t-11.5 -3.5
t-9 -2l-31 39q2 6 12 24q8 15 26 42.5l51 75.5q18 26 48.5 61l66.5 74l75 79l75.5 75.5l67 65l49.5 47.5l10 19q3 5 10.5 20t15.5 34t14 37.5t5 29.5q-1 7 -14 9t-33 0.5t-45 -5t-49.5 -8.5l-45.5 -9.5l-34 -7.5q-5 -3 -11 -4l-1 1q-1 0 -2 -1l-2 9l-20 31q6 1 11 4v1
q1 1 2 1q2 0 5 1q2 1 5 1.5t5 2.5q78 34 122 80.5t65.5 90.5t27.5 79t7 46t-6.5 16.5t-16.5 8.5q-11 4 -25 4q-11 -2 -25 -6t-31 -11q-26 -11 -55.5 -29.5t-57.5 -41t-53 -46t-42.5 -43.5t-26.5 -34.5t-5 -18.5q3 -3 16.5 2t33.5 15.5t44 25.5l49 30q-19 -36 -46.5 -58.5
t-54 -35.5t-46.5 -18t-24 -5t-9 2t-8 9.5t-2.5 21t9.5 36.5q8 21 29 45t43.5 44.5t41.5 35.5t24 18q-3 -2 -18.5 -11.5t-35.5 -24t-40.5 -34t-34.5 -40.5q-15 -23 -22 -39.5t-10 -27.5q-4 -13 -3 -22q-3 2 -7 4q-8 4 -8 8q-1 2 -1.5 5.5t-1.5 8.5t-1 11q-25 2 -30 18
q-2 7 -0.5 17t9.5 24.5t23.5 34t42.5 45.5q-47 -23 -109.5 -50.5t-131 -49.5t-136.5 -34.5t-125 -4.5q-48 6 -69 43t-14 90.5t43 117t103 124.5q68 61 133 94.5t116 49.5q60 18 114 21l23 -22q-30 1 -76 -8.5t-112 -39.5l-43 -21t-19 -11q-6 -4 -4 -5l-82 -64l-18.5 -14
t-3.5 -3t18 13l47 35q63 48 119.5 69.5t99.5 28.5q50 8 94 2l50 -48v-9q0 -4 -0.5 -9t-2.5 -9q-4 -8 -11.5 -13.5t-9.5 -6.5q1 0 6.5 2.5t12 6t12 9t6.5 13.5l4.5 -6t3.5 -4l3 -3q-2 -4 -6 -10l-13 -12.5t-25 -17.5t-43 -15.5t-51 -8.5q-29 -4 -60 -5q36 15 66 30l50 26
t32 23q11 11 4.5 16t-15.5 7q-29 2 -79 -5t-120 -36q-40 -17 -89 -49.5t-95.5 -73.5t-84 -85t-55.5 -82.5t-10.5 -67t52.5 -38.5q34 -8 77 -3.5t90.5 16.5t97 29.5t96.5 37.5q109 46 226 110zM228 -297q28 39 56 84.5t55 94.5l-24 -22l-56.5 -53.5l-65.5 -64.5
q-27 -27 -55 -60.5l-55 -69t-50.5 -70l-41.5 -63t-29 -48.5t-11 -25q0 -8 7.5 -5.5t17 8.5t18 13l8.5 7q42 44 101.5 113t124.5 161zM932 296q5 1 0 -4v4z" />
    <glyph glyph-name="a.ss02" unicode="&#xe023;" horiz-adv-x="638" 
d="M796 446q-1 -1 0 -9.5t-2 -23t-13 -35.5t-34 -47q-4 0 -7.5 -0.5t-6.5 -0.5q-2 0 -1 -4t-1 -5q-6 -4 -9.5 -9.5t-5.5 -11.5q-19 -17 -44 -35t-57 -38l-106.5 -65.5l-75.5 -44l-49.5 -27.5t-28.5 -14q-33 -17 -68.5 -31t-62.5 -15q-5 0 -10 0.5t-10 1.5q-4 1 -6.5 2
t-5.5 3q-15 9 -20.5 29t-5 42t4.5 43t7 32v-1v2l1 1l-202 -169q-6 -6 -11 -10t-9.5 -7t-7.5 -4q-4 -1 -9.5 0.5t-10.5 8t-7.5 20.5t0.5 37q3 24 19 52t34 53q21 28 47 57q-22 -19 -41 -40q-17 -18 -34 -41t-25 -48q-9 -25 -12 -42.5t-3 -28.5q0 -13 3 -22q-4 1 -8 3
q-3 2 -6 3.5t-4 3.5l-10 25q-25 -2 -34 13q-4 6 -5 16t3.5 26t15 38t30.5 51q31 47 70.5 84.5t79 64t77 42t66.5 17.5l75 -77q-1 -2 -1 -5q0 -1 -1 -1q-7 9 -21 11q-12 2 -33.5 -4t-56.5 -27q-23 -14 -47.5 -36.5t-46 -48.5t-40 -52.5t-31 -49t-17.5 -38t0 -19.5
q3 -3 14.5 4t27.5 19.5t35.5 30l39.5 35.5l104 100l35 58l68 -32q-8 -13 -17 -30q-8 -14 -17.5 -34l-20.5 -43q-1 -1 -6.5 -15.5t-10 -31t-5 -31t8.5 -15.5q17 -5 52 7.5t78.5 36t92 54.5t94 63.5t83.5 63t61 52.5q3 0 11.5 9l17.5 19.5l16.5 20t7.5 10.5q10 12 15.5 21.5
t8.5 17.5q2 -7 -1 -12q-11 -31 -28 -58t-39 -52q4 2 7.5 4t5.5 5q10 9 19 18.5t16 20.5l11.5 20t10.5 22.5t4.5 23t-5.5 21.5q-1 10 -11.5 13.5t-27 2t-37.5 -6.5t-42 -12q-50 -17 -114 -45l-18 18q10 6 13 9.5t1 4t-7 -1.5t-12 -6l-11 12l-32 35q20 11 41 18.5l42 15.5
l-46 -10t-43 -17l-12 14q47 28 90 47q37 16 74 25.5t60 -3.5l22 -14q-31 -2 -61.5 -7t-59.5 -17q15 0 30.5 3l30.5 6t29.5 3.5t29.5 -3.5l19 -6q3 -1 11 -5.5t10 -6.5q6 -5 11.5 -9l11.5 -8q20 -18 33 -31.5t11 -15.5z" />
    <glyph glyph-name="b.ss02" unicode="&#xe024;" horiz-adv-x="742" 
d="M209 25q26 5 65.5 21.5t87.5 40.5l100.5 52.5l104 58l99 58l85.5 51.5q4 -5 7 -10t7 -10l-94.5 -55.5l-111 -64l-114.5 -63t-106.5 -54t-86 -37t-52.5 -11.5q-32 5 -57.5 19t-43.5 29q-21 18 -38 39l5 -1q5 -1 14.5 -2.5t20.5 -2.5t23 -1t23 2q41 10 66.5 29t39.5 38
q17 22 25 46q-12 -19 -28 -37q-14 -15 -33.5 -31.5t-44.5 -26.5q-13 -5 -25.5 -7t-22.5 -2q-11 0 -22 1q23 7 46 18q20 10 43 25t44 38q19 22 30.5 46.5t18.5 45.5q8 25 11 48q-21 -3 -47 -14q-23 -10 -54 -31.5t-70 -60.5q-39 -40 -67.5 -79t-47.5 -71q-22 -37 -38 -71
l-25 -3q-2 -5 -3 -6t-1 -2q4 17 11 39q6 19 15.5 44.5t23.5 57.5q7 16 7.5 18.5t-2.5 -4.5t-9.5 -20.5t-13.5 -30.5l-45 -101q-13 -5 -23 -1q-8 4 -14 16.5t-2 43.5q2 20 16.5 58.5t37 89t53 109.5t66 121t75 123t79.5 116q48 66 96 111t90 74l-73 -76q-29 -30 -56.5 -65.5
l-53.5 -72t-49.5 -73.5l-43.5 -71q-48 -80 -89 -161q49 84 100 162l46 68.5l49 70l49.5 65.5t47.5 56l10 10.5l10 10.5q41 42 71.5 68t50.5 41q24 18 40 26q8 3 14.5 5t11.5 4l9 3l31 -39q-2 -6 -12 -24q-8 -15 -26 -43l-50 -76q-18 -26 -48 -61.5l-66 -74.5l-75 -79
l-75 -76.5l-66.5 -66l-48.5 -47.5q-37 -69 -68.5 -133.5l-54.5 -113.5q19 30 47 69t64.5 77.5t80.5 72t95 53.5q1 -1 3 -1q2 -1 4.5 -1t5.5 -1l24 -20l26 -23t23.5 -25t16.5 -25q-1 -32 -23 -68t-52 -67t-63 -51.5t-57 -19.5h-9q1 -5 6 -9.5t12 -7.5q7 -4 17 -6zM255 569
l-55 -85.5t-55 -94.5l65.5 61.5l79.5 78.5q27 27 55 61t54.5 69.5t50 70.5t41 63.5t28 48t11.5 25.5q0 8 -7.5 5.5t-17 -8.5t-18 -13l-8.5 -7q-42 -45 -101 -114.5t-123 -160.5zM927 494q-1 -1 0 -9.5t-2 -23t-13 -35.5t-34 -47q-4 0 -7.5 -0.5t-6.5 -0.5q-2 0 -1 -4t-1 -5
q-6 -4 -9.5 -9.5t-5.5 -11.5q-19 -17 -44 -35t-57 -38l-150 -89.5l-89 -49.5q-38 -19 -55 -25l-57 -8q77 38 153 83l67 41.5t69.5 47t67.5 51.5t61 55q3 0 11.5 9l17.5 19.5l16.5 20t7.5 10.5q10 12 15.5 21.5t8.5 17.5q2 -7 -1 -12q-11 -31 -28 -58t-39 -52q4 2 7.5 4
t5.5 5q10 9 19 18.5t16 20.5l11.5 20t10.5 22.5t4.5 23t-5.5 21.5q-1 10 -11.5 13.5t-27 2t-37.5 -6.5t-42 -12q-50 -17 -114 -45l-18 18q10 6 13 9.5t1 4t-7 -1.5t-12 -6l-11 12l-32 35q20 11 41 18.5l42 15.5l-46 -10t-43 -17l-12 14q47 28 90 47q37 16 74 25.5t60 -3.5
l10.5 -6.5l11.5 -7.5q-31 -2 -61.5 -7t-59.5 -17q15 0 30.5 3l30.5 6t29.5 3.5t29.5 -3.5q4 -2 9 -3t10 -3q3 -1 11 -5.5t10 -6.5q6 -5 11.5 -9l11.5 -8q20 -18 33 -31.5t11 -15.5z" />
    <glyph glyph-name="c.ss02" unicode="&#xe025;" horiz-adv-x="696" 
d="M820 402l-2 -8t-4 -7q-3 -4 -15 -13l-25 -19q-16 -11 -34 -26l47 28q6 -9 7 -19q1 -8 -2.5 -18.5t-16.5 -20.5q-17 -14 -40.5 -28.5t-50.5 -29l-55 -28.5t-55 -26q-63 -30 -131 -58l157 87.5l91 54.5q37 24 52 37l-140 -79l-104.5 -60l-108 -59.5l-102 -52.5t-85.5 -39
q-3 -3 -10 -7q-6 -3 -16 -5.5t-26 -3.5q-8 -1 -28 -2t-44.5 1t-50.5 7.5t-46 17.5t-31.5 32.5t-7.5 52.5l2 10.5t3 13.5q6 22 25 47t39 47q24 26 52 51q-23 -17 -44 -35q-18 -16 -37 -37t-30 -43q-11 -23 -16 -38t-7 -26q-2 -12 0 -20q-3 1 -7 3q-8 4 -9 6q-2 5 -4 13l-2 10
q-23 0 -30 13q-3 6 -2.5 15t6.5 23.5t19 34t35 45.5q36 42 77.5 75.5t82.5 57t78 36.5t64 14l49 -59q7 -9 14 -17q5 -7 10.5 -13.5t7.5 -10.5q1 -3 -12 -13.5t-34.5 -23.5t-48 -25.5t-51.5 -21.5l-67 -24l59 38l46 31.5t34 24.5q18 15 28 26t8 20q-11 2 -32.5 -2t-60.5 -24
q-23 -12 -46.5 -30.5t-46.5 -40t-43.5 -44t-35.5 -42.5q-18 -25 -29 -49q-10 -20 -13.5 -41t8.5 -34l1 -1l2 -2l-1 2q4 -2 18.5 -5.5t41.5 -4t66 3.5t92 19q61 17 106 34.5t75 32.5l102 57l111 66.5l114 74.5t110 81v-8zM-17 52l1 -1h-1v1z" />
    <glyph glyph-name="d.ss02" unicode="&#xe026;" horiz-adv-x="691" 
d="M732 272q-2 -2 -26.5 -19.5l-63 -45l-87 -60.5l-99.5 -65.5t-101 -61t-90.5 -45.5t-69 -20.5t-35.5 14.5q-1 1 -1 2.5t-1 3.5t-2 3v1q-2 2 -7 21.5t0 45.5q2 13 5 22t5 14l5 10q-7 -8 -12 -19q-5 -10 -9 -24t-4 -34q-1 -8 -1 -13.5v-10.5q-6 6 -12.5 16t-10 23.5
t-2.5 29.5t9 34q10 23 22.5 48.5l26.5 54.5l-88.5 -70t-87.5 -64.5t-72.5 -46t-43.5 -13.5q-9 3 -14 8.5t-8 13.5l-1 -1q-3 13 -1 32q1 5 2 11t3 13l4 10l4 10q11 21 28.5 43t35.5 40q20 21 44 42q-23 -17 -44 -35q-18 -16 -37 -36.5t-30 -42.5q-11 -23 -16 -38.5t-7 -26.5
q-2 -12 0 -20q-3 1 -7 3q-8 4 -9 6q-2 5 -4 13l-2 10q-23 -1 -30 13q-3 6 -2.5 15.5t6.5 23.5t19 34t36 46q35 42 76.5 75.5t82.5 56.5t78 36t64 14l60 -72l-3 -6q-5 9 -18 11q-11 2 -32.5 -3t-56.5 -23q-22 -12 -46 -30.5t-47 -40t-43.5 -44t-35.5 -42.5v-1l-2 -2l-6 -10
t-11 -22.5t-6 -24.5t8 -16q6 -3 35.5 14.5t70.5 46l86.5 62.5l84.5 64l50 94.5l56.5 99l61 98t63.5 92.5q48 66 96 111t90 74l-73 -76q-29 -30 -56.5 -65t-53.5 -72l-49.5 -73.5l-43.5 -70.5q-48 -79 -89 -161q49 84 100 162l46 68.5l49 70l49.5 65.5t47.5 56l20 20
q41 42 71.5 68.5t50.5 41.5q24 18 40 26q8 3 14.5 4.5t11.5 3.5l9 3l31 -39q-2 -6 -12 -24q-8 -15 -26 -42.5l-50 -75.5q-16 -24 -42.5 -54.5l-59 -65l-68.5 -71l-71.5 -71l-67.5 -65.5l-57 -54l-57 -110l-50 -102q-1 -1 -8 -17.5t-13 -36t-7.5 -35.5t8.5 -16
q32 -2 82.5 19.5t108 54.5t116 72.5l106.5 73.5l79.5 57t34.5 25zM457 530q-26 -37 -51.5 -79.5l-51.5 -87.5l7 7l22.5 23.5l42 44l65.5 67.5q27 27 55 60l54.5 67l50.5 67t41.5 60t28 45.5t11.5 23.5q0 8 -7.5 5.5t-17 -8.5t-18 -13l-8.5 -7q-42 -44 -101 -113.5
t-123 -161.5zM887 459q-1 -1 0 -9.5t-2 -23t-13 -35.5t-34 -47q-4 0 -7.5 -0.5t-6.5 -0.5q-2 0 -1 -4t-1 -5q-6 -4 -9.5 -9.5t-5.5 -11.5q-19 -17 -44 -35t-57 -38l-150.5 -93.5l-90.5 -57.5l-57 -37l-100 -29q90 51 176 106l75.5 49.5l77.5 54t73 56.5t63 57q3 0 11.5 9
l17.5 19.5l16.5 20t7.5 10.5q10 12 15.5 21.5t8.5 17.5q2 -7 -1 -12q-11 -31 -28 -58t-39 -52q4 2 7.5 4t5.5 5q10 9 19 18.5t16 20.5l11.5 20t10.5 22.5t4.5 23t-5.5 21.5q-1 10 -11.5 13.5t-27 2t-37.5 -6.5t-42 -12q-50 -17 -114 -45l-18 18q10 6 13 9.5t1 4t-7 -1.5
t-12 -6l-11 12l-32 35q20 11 41 18.5l42 15.5l-46 -10t-43 -17l-12 14q47 28 90 47q37 16 74 25.5t60 -3.5l10.5 -6.5l11.5 -7.5q-31 -2 -61.5 -7t-59.5 -17q15 0 30.5 3l30.5 6t29.5 3.5t29.5 -3.5q4 -2 9 -3t10 -3q3 -1 11 -5.5t10 -6.5q6 -5 11.5 -9l11.5 -8
q20 -18 33 -31.5t11 -15.5z" />
    <glyph glyph-name="e.ss02" unicode="&#xe027;" horiz-adv-x="677" 
d="M188 333q-21 -11 -43.5 -28t-44 -36.5t-41 -40.5t-34.5 -40l-9 -12q-20 -27 -31 -52q-10 -21 -12.5 -42t12.5 -33l-3 3q21 -8 53 -10q27 -2 68 2t99 20q60 17 105.5 34.5t75.5 32.5l9 5l79 43.5l78 44.5q70 43 137.5 90l133.5 96v-8l-2 -8t-4 -7q-3 -4 -15 -13l-25 -19
q-16 -11 -34 -26l47 28q6 -9 7 -19q1 -8 -2.5 -18.5t-16.5 -20.5q-17 -14 -40.5 -28.5t-50.5 -29l-55 -28.5t-55 -26q-63 -30 -131 -58l157 87.5l91 54.5q37 24 52 37l-161 -91l-88.5 -51l-91.5 -51q-57 -31 -108.5 -56t-90.5 -41q-3 -3 -10 -7q-6 -3 -16 -5.5t-26 -3.5
q-8 -1 -28 -2t-44.5 1t-50.5 7.5t-46 17.5t-31.5 32.5t-7.5 52.5l2 10.5t3 13.5q5 22 24 47t39 47q24 26 52 51q-23 -17 -44 -35q-18 -16 -36.5 -37t-29.5 -43q-11 -23 -16 -38t-7 -26q-2 -12 -1 -20q-3 1 -7 3q-8 4 -8 6q-2 5 -4 13l-2 10q-23 0 -30 13q-3 6 -2.5 15
t6.5 23.5t19 34t35 45.5q36 42 77.5 75.5t82.5 57t78 36.5t64 14l48 -59l4.5 -5l10.5 -12t11 -14l7 -10l15 -25q-3 -7 -10 -17q-6 -8 -17.5 -19t-31.5 -25t-40 -22t-36 -13q-18 -5 -36 -7l71 49q-7 -5 -21.5 -13.5t-34.5 -17.5t-44 -17.5t-48 -11.5q-23 -3 -40.5 -1.5
t-20.5 1.5q3 1 17.5 7t36 16t47 23.5t50.5 30.5q4 2 5 4h1q26 18 45 34t31 29q14 14 23 27q-11 2 -32.5 -2t-60.5 -24z" />
    <glyph glyph-name="f.ss02" unicode="&#xe028;" horiz-adv-x="720" 
d="M768 292q2 -7 3.5 -13.5t3.5 -12.5l-106.5 -65.5l-139.5 -82.5h-1q-5 -3 -30.5 -17t-60 -29.5t-72 -28.5t-64.5 -13q-5 0 -9.5 0.5t-9.5 1.5q-7 2 -11 6q-15 10 -17 32.5t3 46.5t13 44.5l11 28.5q0 1 0.5 1t0.5 1v1l10 21l16 33.5l19 38.5t19 35q-19 -8 -38 -14
q-24 -6 -56.5 -11t-61.5 -8q-34 -4 -70 -7l58 15q21 5 38.5 12l29.5 12q14 6 26 13l-40 -8.5l-45.5 -9t-47 -8l-44.5 -6.5q-16 -30 -30 -59l-27 -55h1q-2 -4 -3 -5q-21 -44 -41.5 -94.5t-39 -103.5l-35.5 -106l-32 -101q-34 -114 -65 -230q1 17 5 40q3 19 8 46t13 61
q4 17 4.5 19.5t-1 -4.5t-5.5 -21.5l-9 -32.5l-28 -107q-12 -7 -23 -4q-9 2 -16.5 13.5t-8.5 42.5q-1 24 10 76.5t31 121.5t48.5 149t61.5 160q10 32 31 81t50 108q-29 1 -57.5 4t-57.5 10q-23 5 -43.5 13t-35.5 15q-18 8 -33 16h3q38 -13 98.5 -25t138.5 -8q46 91 104.5 189
t121.5 184q48 66 96 110.5t90 73.5l-73 -76q-41 -44 -80 -97t-73.5 -106t-62.5 -101t-46 -82q4 4 7 8t7 8l52 82.5l63 94.5t67.5 93.5t65.5 79.5l20 20q41 42 71.5 68.5t50.5 41.5q24 18 40 26q8 3 14.5 4.5t11.5 3.5l9 3l31 -39q-2 -6 -12 -24q-8 -15 -26 -42.5l-50 -75.5
q-18 -27 -48 -62l-66 -74l-75 -79.5l-75 -76.5l-66.5 -65.5l-48.5 -47.5l-7.5 -13.5t-6.5 -13.5q77 16 127.5 31.5t80.5 26.5q35 13 54 25l18 -29q-1 0 -1 -1q-1 -1 -1 -1.5t-1 -1.5q1 1 1 1.5t1 1.5q0 1 1 1l18 -29q-5 -5 -14 -16.5t-24 -34.5l-27 -41.5t-22 -37.5l-9 -21
l-10 -24l-10 -23.5t-8 -19.5l1 -9l2 1q5 11 18.5 37l33.5 65l8 15.5t7 14.5l11 6l-32.5 -71.5t-27.5 -69.5t-14 -53.5t9 -22.5q5 -2 27.5 3t56.5 17.5t75.5 32.5t84.5 48l126 76zM271 606q-27 -39 -55 -85t-54 -94l64.5 60.5t79.5 79.5q27 27 55 61t54.5 69.5t50 70.5
t41 63.5t28 48t11.5 24.5q0 8 -7.5 6t-17 -8t-17.5 -13t-9 -7q-42 -45 -101 -114.5t-123 -161.5zM-138 -97l33 84l36.5 85.5l44.5 98.5q0 -1 -5.5 -10.5t-13 -24t-17 -31l-17.5 -31.5l-25.5 -68l-19.5 -54q-10 -27 -16 -49zM910 456q-1 -1 0 -9.5t-2 -23t-13 -35.5t-34 -47
q-4 0 -7.5 -0.5t-6.5 -0.5q-2 0 -1 -4t-1 -5q-6 -4 -9.5 -9.5t-5.5 -11.5q-19 -17 -44 -35t-57 -38l-147.5 -89t-83.5 -47q-34 -18 -46 -22l-27 13q64 31 129 70q56 33 120.5 78.5t121.5 102.5q3 0 11.5 9l17.5 19.5l16.5 20t7.5 10.5q10 12 15.5 21.5t8.5 17.5q2 -7 -1 -12
q-11 -31 -28 -58t-39 -52q4 2 7.5 4t5.5 5q10 9 19 18.5t16 20.5l11.5 20t10.5 22.5t4.5 23t-5.5 21.5q-1 10 -11.5 13.5t-27 2t-37.5 -6.5t-42 -12q-50 -17 -114 -45l-18 18q10 6 13 9.5t1 4t-7 -1.5t-12 -6l-11 12l-32 35q20 11 41 18.5l42 15.5l-46 -10t-43 -17l-12 14
q47 28 90 47q37 16 74 25.5t60 -3.5l10.5 -6.5l11.5 -7.5q-31 -2 -61.5 -7t-59.5 -17q15 0 30.5 3l30.5 6t29.5 3.5t29.5 -3.5q4 -2 9 -3t10 -3q3 -1 11 -5.5t10 -6.5q6 -5 11.5 -9l11.5 -8q20 -18 33 -31.5t11 -15.5z" />
    <glyph glyph-name="g.ss02" unicode="&#xe029;" horiz-adv-x="680" 
d="M796 446q-1 -1 0 -9.5t-2 -23t-13 -35.5t-34 -47q-4 0 -7.5 -0.5t-6.5 -0.5q-2 0 -1 -4t-1 -5q-6 -4 -9.5 -9.5t-5.5 -11.5q-19 -17 -44 -35t-57 -38l-105 -64l-74.5 -43.5l-56 -33t-49.5 -31.5t-55 -39.5t-72 -57.5l-35 -98l-40 -102.5t-44.5 -102t-47.5 -96.5
q-38 -73 -78.5 -124.5t-77.5 -86.5l61 87q34 49 64.5 107.5t56.5 116.5t46.5 109.5t33.5 87.5l-12 -18l-39.5 -89.5l-48 -103t-52.5 -102.5t-53 -88l-16 -23q-35 -48 -60.5 -79t-43.5 -49q-21 -21 -36 -31q-8 -5 -13.5 -8t-10.5 -5q-5 -3 -9 -3l-36 33q1 7 8 25
q6 16 19 46.5t38 82.5q14 29 38.5 68.5l54 83.5l62 89.5l62.5 87l55.5 75l41.5 54.5l32.5 97.5l28.5 89.5q0 2 0.5 3t0.5 3q6 19 11.5 39t10.5 41l-40 -35l-43 -37l-40.5 -34t-32.5 -25q-8 -5 -22.5 -13t-29.5 -15l-27 -12.5t-15 -5.5q-4 -1 -9.5 0.5t-9 8.5t-4 20.5
t5.5 37.5q6 22 24 48.5t38.5 49.5t37.5 39.5l21 20.5q-3 -2 -17 -13.5t-32 -28.5t-36.5 -38.5t-30.5 -43.5q-12 -24 -17.5 -41.5t-7.5 -28.5q-2 -13 0 -22q-4 1 -8 3q-8 4 -9 7q-1 2 -1.5 5.5t-1.5 8.5t-3 11q-25 -1 -32 14q-3 6 -2.5 16.5t7 26t20 36.5t37.5 50
q38 46 82.5 82t88 61.5t83 39.5t68.5 15l64 -79l-3 -5q0 1 -4.5 5.5t-16.5 6t-34 -4t-59 -24.5q-25 -14 -52 -35.5t-52.5 -46.5t-48 -51t-38 -48t-23 -37t-2.5 -19q4 -3 19.5 5.5t38 24t49 36l51.5 40.5l46 37.5l33 27.5q0 3 0.5 5.5t1.5 5.5q14 12 23.5 27t20.5 29l24 -6
l-20 -77.5t-24 -85.5q6 17 13 35q5 15 12 33.5l13 35.5q3 15 6.5 29.5t5.5 27.5l22 -5l-9.5 -41.5l-9.5 -41.5q-5 -32 -17 -80t-31 -107q54 46 110.5 80.5l115 70.5t119 78.5t121.5 103.5q3 0 11.5 9l17.5 19.5l16.5 20t7.5 10.5q10 12 15.5 21.5t8.5 17.5q2 -7 -1 -12
q-11 -31 -28 -58t-39 -52q4 2 7.5 4t5.5 5q10 9 19 18.5t16 20.5l11.5 20t10.5 22.5t4.5 23t-5.5 21.5q-1 10 -11.5 13.5t-27 2t-37.5 -6.5t-42 -12q-50 -17 -114 -45l-18 18q10 6 13 9.5t1 4t-7 -1.5t-12 -6l-11 12l-32 35q20 11 41 18.5l42 15.5l-46 -10t-43 -17l-12 14
q47 28 90 47q37 16 74 25.5t60 -3.5l22 -14q-31 -2 -61.5 -7t-59.5 -17q15 0 30.5 3l30.5 6t29.5 3.5t29.5 -3.5l19 -6q3 -1 11 -5.5t10 -6.5q6 -5 11.5 -9l11.5 -8q20 -18 33 -31.5t11 -15.5zM-15 -361q21 44 41.5 93t39.5 102l-54.5 -70l-67.5 -91q-22 -31 -44.5 -68.5
t-43.5 -77t-39 -77.5t-31 -68.5t-20.5 -51.5t-7.5 -26q1 -8 8 -4.5t15.5 11t16 15.5l7.5 8q35 50 82.5 127.5t97.5 177.5z" />
    <glyph glyph-name="h.ss02" unicode="&#xe03a;" horiz-adv-x="866" 
d="M875 416q-1 -1 0 -9.5t-2 -23t-13 -35.5t-34 -47q-4 0 -7.5 -0.5t-6.5 -0.5q-2 0 -1 -4t-1 -5q-6 -4 -9.5 -9.5t-5.5 -11.5q-19 -17 -44 -35t-57 -38q-40 -24 -83 -52.5t-89 -54t-93.5 -45.5t-96.5 -27q-15 -3 -28 -3q-10 0 -15 1l-33 -1q-27 6 -39.5 23.5t-14 42t5.5 53
t19 57.5q27 68 81 150q-3 1 -8 1q-10 1 -29 -9q-17 -8 -45 -27t-73 -57q-28 -25 -53.5 -52t-47.5 -54t-39.5 -52l-30.5 -44l-30 -38q-2 -6 -3 -7l-1 -2q1 0 1 1q0 3 1 5q3 12 14 47t33 88q7 16 8 18.5t-2 -4.5t-9.5 -20.5t-13.5 -30.5l-45 -101q-13 -5 -23 -1q-8 4 -14 16.5
t-2 43.5q2 20 16.5 58.5t37 88.5t53 109t66 121t74.5 123.5t79 116.5q49 66 96.5 110.5t89.5 73.5l-73 -76q-37 -39 -72 -86t-67 -95t-58.5 -93l-46.5 -81l-32 -59t-14 -26q4 6 19 31l37.5 61.5l51 80.5l59.5 88.5t63 86t61 72.5l19 20q42 42 72 68.5t50 41.5q24 18 40 26
q8 3 15 4.5t12 3.5l9 3l31 -39q-2 -6 -12 -24q-8 -15 -26.5 -42.5l-50.5 -75.5q-18 -27 -48 -62l-65.5 -74l-74.5 -79.5l-75.5 -76.5l-66.5 -65.5l-49 -47.5l-59.5 -116.5l-49.5 -103.5q14 19 32 39l34.5 38.5t42.5 44.5l24 24q28 26 56 45t53 32t47 21.5t38 13.5l37 8
l43 -48q-5 -5 -14 -16.5t-24 -34.5l-27 -41.5t-22 -37.5l-9 -21l-10 -24l-10 -23.5t-8 -19.5l1 -9l2 1l52 102l15 30l11 6l-32.5 -71.5t-27.5 -69.5t-14 -53.5t9 -22.5q50 2 99 20t103 51t115.5 81l137.5 110q3 0 11.5 9l17.5 19.5l16.5 20t7.5 10.5q10 12 15.5 21.5
t8.5 17.5q2 -7 -1 -12q-11 -31 -28 -58t-39 -52q4 2 7.5 4t5.5 5q10 9 19 18.5t16 20.5l11.5 20t10.5 22.5t4.5 23t-5.5 21.5q-1 10 -11.5 13.5t-27 2t-37.5 -6.5t-42 -12q-50 -17 -114 -45l-18 18q10 6 13 9.5t1 4t-7 -1.5t-12 -6l-11 12l-32 35q20 11 41 18.5l42 15.5
l-46 -10t-43 -17l-12 14q47 28 90 47q37 16 74 25.5t60 -3.5l22 -14q-31 -2 -61.5 -7t-59.5 -17q15 0 30.5 3l30.5 6t29.5 3.5t29.5 -3.5l19 -6q3 -1 11 -5.5t10 -6.5q6 -5 11.5 -9l11.5 -8q20 -18 33 -31.5t11 -15.5zM485 867q-42 -45 -101.5 -114.5t-122.5 -161.5
q-27 -39 -55 -85l-55 -94l64.5 60.5l80.5 79.5q26 27 54 61t54.5 69.5t50 70.5l41.5 63.5t28.5 48t10.5 24.5q1 8 -6.5 5.5t-17 -8.5t-18 -12.5z" />
    <glyph glyph-name="i.ss02" unicode="&#xe03b;" horiz-adv-x="448" 
d="M671 389l-2 -8t-4 -7q-3 -4 -15 -13l-25 -19q-16 -11 -34 -26l47 28q6 -9 7 -19q1 -8 -2.5 -18.5t-16.5 -20.5q-17 -14 -40.5 -28.5t-50.5 -29l-55 -28.5t-55 -26q-63 -30 -131 -58l157 87.5l91 54.5q37 24 52 37l-151 -86l-143 -84t-110.5 -61t-85 -40t-64.5 -21
q-15 -3 -28 -3q-11 0 -16 1l-32 -1q-24 6 -36.5 19.5t-16 33t0 43t11.5 48.5q8 26 19.5 52t24.5 49l35.5 70t35.5 52l19 26l5 -6l-11 -27l20 18q2 0 3.5 0.5t3.5 0.5l43 -48q-5 -5 -14 -16.5t-23 -34.5l-27.5 -41.5t-21.5 -37.5q-9 -18 -20 -44.5l-18 -43.5l1 -9l2 1l52 102
l16 30l11 6l-32.5 -71.5t-28 -69.5t-14 -53.5t8.5 -22.5q10 -6 40 3.5t70.5 28t87 43.5l89.5 50l78 46.5t52 33.5q63 40 122.5 82l118.5 84v-8zM198 457q-2 2 -11 -10.5l-20 -28.5l-27 -42l-44 59l29 60q4 9 8 17q4 7 8 12.5t8 6.5t5.5 2.5t3.5 2.5l2 2q1 0 3 -1t3 -2t3 -2
l-10 -19.5t-14 -16.5q13 4 23 11t18 15l20.5 -12t19.5 -12t14.5 -10.5t5.5 -6.5q0 -8 -14.5 -26.5t-32 -38l-32 -34.5l-15.5 -16q1 1 7.5 11l14.5 22l15 23t9 16q1 5 1 8.5v5.5q0 3 -1 4z" />
    <glyph glyph-name="j.ss02" unicode="&#xe03c;" horiz-adv-x="490" 
d="M694 483q-1 -1 0 -9.5t-2 -23t-13 -35.5t-34 -47q-4 0 -7.5 -0.5t-6.5 -0.5q-2 0 -1 -4t-1 -5q-6 -4 -9.5 -9.5t-5.5 -11.5q-17 -15 -38.5 -31t-47.5 -33l-10 -6l-5 -3l-126.5 -77l-96 -57l-79 -46.5l-75 -46.5l-84.5 -57l-107 -77q-44 -96 -100 -200.5t-116 -198.5
q-48 -73 -94.5 -124.5t-88.5 -86.5l33.5 39.5l38.5 47.5q40 49 78 107.5t71 116t60 109.5l45 88l-15 -19l-49.5 -88.5l-61 -103l-66 -102.5t-64.5 -88l-19 -23q-41 -48 -70.5 -79t-49.5 -49q-23 -21 -39 -31q-8 -5 -14.5 -8t-11.5 -5q-5 -3 -10 -4l-32 34q1 7 11 25
q8 16 25.5 46.5l49.5 82.5q17 29 46 68.5t64.5 83.5l73.5 89.5l73.5 87l65 75l47.5 54.5l45.5 97.5l40.5 89.5h-1q0 3 3 6q11 26 21 53.5l20 56.5t22.5 69.5t20.5 77.5q8 40 10 53t3 15l47 -31l-5 -37l10 26q-1 2 -1 5q0 6 3 6q2 0 3.5 -1t3.5 -2l3 -3l-1 -10l12 -4l5 -3
l-19 -68l-8 -28h1l-4 -10.5l-4 -10.5l-1 -2l-10.5 -30l-11.5 -30q-8 -32 -26 -80t-44 -107l205 140t218 135q3 1 9 5q46 30 93.5 66.5t90.5 78.5q3 0 11.5 9l17.5 19.5l16.5 20t7.5 10.5q10 12 15.5 21.5t8.5 17.5q2 -7 -1 -12q-11 -31 -28 -58t-39 -52q4 2 7.5 4t5.5 5
q10 9 19 18.5t16 20.5l11.5 20t10.5 22.5t4.5 23t-5.5 21.5q-1 10 -11.5 13.5t-27 2t-37.5 -6.5t-42 -12q-50 -17 -114 -45l-18 18q10 6 13 9.5t1 4t-7 -1.5t-12 -6l-11 12l-32 35q20 11 41 18.5l42 15.5l-46 -10t-43 -17l-12 14q47 28 90 47q37 16 74 25.5t60 -3.5l22 -14
q-31 -2 -61.5 -7t-59.5 -17q15 0 30.5 3l30.5 6t29.5 3.5t29.5 -3.5l19 -6q3 -1 11 -5.5t10 -6.5q6 -5 11.5 -9l11.5 -8q20 -18 33 -31.5t11 -15.5zM-313 -416q27 44 54 93t53 102l-63.5 -70l-78.5 -91q-26 -31 -53.5 -68.5t-53.5 -77t-48.5 -77.5l-40 -68.5t-27.5 -52
t-10 -26.5q-1 -8 6.5 -4t17 11.5t18 15.5l8.5 8q42 50 99 127.5t119 177.5zM120 466q-2 1 -7.5 -14.5t-12.5 -33.5l-17 -49l-57 39l12 67q2 10 5 19q2 8 4.5 14.5t6.5 8.5q6 4 8 7q1 2 1 3q1 -1 3 -1h7q-2 -11 -5 -22t-9 -20q22 16 34 39q10 -2 22 -4t21.5 -4.5l16.5 -4.5
t7 -4q2 -7 -6.5 -29t-20.5 -46t-23 -43.5t-12 -21.5q1 2 5.5 13.5t9 25.5t8 26.5t3.5 17.5q0 7 -2 13q-1 3 -2 4zM-28 59l18 35q8 15 16.5 33.5l16.5 35.5l5 13l-11 -6l-21 -54t-24 -57z" />
    <glyph glyph-name="k.ss02" unicode="&#xe03d;" horiz-adv-x="875" 
d="M1014 477q-1 -1 0 -9.5t-2 -23t-13 -35.5t-34 -47q-4 0 -7.5 -0.5t-6.5 -0.5q-2 0 -1 -4t-1 -5q-6 -4 -9.5 -9.5t-5.5 -11.5q-19 -17 -44 -35t-57 -38l-141.5 -85.5t-83 -47.5t-40.5 -20.5t-12 -4.5q-64 -32 -124.5 -54.5t-100.5 -27.5q-15 -3 -28 -3h-8t-7 1l-33 -1
q-27 6 -39.5 23.5t-14 42t5.5 53t19 57.5q27 68 80 150q-2 1 -7 1q-11 1 -30 -9q-17 -8 -45 -27t-72 -57q-28 -25 -53.5 -52t-47.5 -54t-39.5 -52l-30.5 -44l-30 -38q-3 -8 -4 -9q0 2 1 6q4 12 15 47.5t33 87.5q7 16 8 18.5t-2 -4.5t-9.5 -20.5t-13.5 -30.5l-45 -101
q-13 -5 -23 -1q-8 4 -14 16.5t-2 43.5q2 20 16 58.5t37 88.5t53.5 109t66 121t74.5 123.5t79 116.5q48 66 96 110.5t90 73.5l-33.5 -34.5l-39.5 -41.5q-37 -39 -72 -86t-67 -95t-58.5 -93l-46.5 -81l-32 -59t-14 -26q4 6 19 31l37.5 61.5l51 80.5l59.5 88.5t63 86t61 72.5
l19 20q41 42 71.5 68.5t50.5 41.5q24 18 40 26q8 3 15 4.5t12 3.5l9 3l30 -39q-1 -6 -11 -24q-8 -15 -26.5 -42.5l-50.5 -75.5q-18 -27 -48 -62l-65.5 -74l-74.5 -79.5l-75.5 -76.5l-66.5 -65.5l-49 -47.5l-51.5 -101l-45.5 -92q33 36 72.5 75l82 78l87 77.5l88.5 74.5
q45 37 78.5 61t57.5 38.5t39.5 21t24.5 7.5q22 3 20 -19l36 -44q-20 -8 -44 -21q-20 -11 -47 -28.5t-57 -42.5q2 6 9 16q5 8 16 20t30 29q-2 -1 -21.5 -7.5t-52.5 -22.5t-77.5 -42.5t-95.5 -66.5q20 10 37.5 16.5t31.5 10.5l37 8l43 -48q-5 -5 -14 -16.5t-24 -34.5
l-27 -41.5t-22 -37.5l-9 -21l-10 -24l-10 -23.5t-8 -19.5l1 -9l2 1l52 102l15 30l11 6l-32.5 -71.5t-27.5 -69.5t-14 -53.5t9 -22.5q12 -6 47.5 3.5t82.5 28.5t101.5 45t105.5 54.5t94 56.5t67 51q26 19 50 40t47 44q3 0 11.5 9l17.5 19.5l16.5 20t7.5 10.5q10 12 15.5 21.5
t8.5 17.5q2 -7 -1 -12q-11 -31 -28 -58t-39 -52q4 2 7.5 4t5.5 5q10 9 19 18.5t16 20.5l11.5 20t10.5 22.5t4.5 23t-5.5 21.5q-1 10 -11.5 13.5t-27 2t-37.5 -6.5t-42 -12q-50 -17 -114 -45l-18 18q10 6 13 9.5t1 4t-7 -1.5t-12 -6l-11 12l-32 35q20 11 41 18.5l42 15.5
l-46 -10t-43 -17l-12 14q47 28 90 47q37 16 74 25.5t60 -3.5l22 -14q-31 -2 -61.5 -7t-59.5 -17q15 0 30.5 3l30.5 6t29.5 3.5t29.5 -3.5l19 -6q3 -1 11 -5.5t10 -6.5q6 -5 11.5 -9l11.5 -8q20 -18 33 -31.5t11 -15.5zM260 591q-28 -39 -55.5 -85l-54.5 -94l64.5 60.5
l80.5 79.5q26 27 54 61t54.5 69.5t50 70.5t41 63.5t28 48t11.5 24.5q1 8 -6.5 5.5t-17.5 -8.5q-11 -7 -26 -19q-42 -45 -101.5 -114.5t-122.5 -161.5zM6 128q0 1 1 2t1.5 2t2.5 3q0 2 -1 3q-1 -3 -2 -5.5t-2 -4.5z" />
    <glyph glyph-name="l.ss02" unicode="&#xe03e;" horiz-adv-x="547" 
d="M820 546q-1 -1 0 -9.5t-2 -23t-13 -35.5t-34 -47q-4 0 -7.5 -0.5t-6.5 -0.5q-2 0 -1 -4t-1 -5q-6 -4 -9.5 -9.5t-5.5 -11.5q-19 -17 -44 -35t-57 -38q-118 -73 -248 -145.5t-264 -134.5v-1q-42 -21 -77 -33q-30 -11 -57 -13.5t-35 15.5q-1 1 -1.5 2.5t-1.5 3.5t-2 3v1
q-1 2 -6 21.5t0 45.5q4 22 8 32.5t6 12.5q-2 -1 -12.5 -19.5t-12.5 -56.5v-13.5t-1 -10.5q-6 6 -12.5 16t-9.5 23.5t-2.5 29.5t8.5 34q22 49 54 113.5t70.5 134.5t82.5 141t90 134q48 66 96 111t90 74l-73 -76q-37 -39 -72 -86t-67 -95t-58.5 -93l-46.5 -81l-32 -59t-14 -26
q4 7 19 31.5l37.5 61l51 80.5l59.5 88.5t63 86t61 72.5l19 20q41 42 71.5 68.5t50.5 41.5q24 18 40 26q8 3 14.5 4.5t11.5 3.5t10 3l30 -39q-1 -6 -11 -24q-8 -15 -26.5 -42.5l-50.5 -75.5q-16 -23 -42.5 -54l-58.5 -65.5l-68.5 -71l-71.5 -71l-67.5 -65.5l-57.5 -54
l-57 -110l-50 -102q0 -1 -7 -17t-13 -35.5t-8 -35.5t8 -17q6 -1 22.5 3t36.5 10t42 14l40 14.5l30 11l12 4.5l139 68.5t139.5 76t132 87.5t116.5 104q3 0 11.5 9l17.5 19.5l16.5 20t7.5 10.5q10 12 15.5 21.5t8.5 17.5q2 -7 -1 -12q-11 -31 -28 -58t-39 -52q4 2 7.5 4t5.5 5
q10 9 19 18.5t16 20.5l11.5 20t10.5 22.5t4.5 23t-5.5 21.5q-1 10 -11.5 13.5t-27 2t-37.5 -6.5t-42 -12q-50 -17 -114 -45l-18 18q10 6 13 9.5t1 4t-7 -1.5t-12 -6l-11 12l-32 35q20 11 41 18.5l42 15.5l-46 -10t-43 -17l-12 14q47 28 90 47q37 16 74 25.5t60 -3.5l22 -14
q-31 -2 -61.5 -7t-59.5 -17q15 0 30.5 3l30.5 6t29.5 3.5t29.5 -3.5l19 -6q3 -1 11 -5.5t10 -6.5q6 -5 11.5 -9l11.5 -8q20 -18 33 -31.5t11 -15.5zM255 576q-26 -37 -52 -79t-51 -87q1 1 8.5 9l23.5 24.5l41.5 43l63.5 64.5q40 40 82 93t77 101.5t57.5 84.5t23.5 44
t-6.5 5.5t-17 -8.5t-18 -12.5l-8.5 -6.5q-42 -45 -101.5 -114.5t-122.5 -161.5z" />
    <glyph glyph-name="m.ss02" unicode="&#xe03f;" horiz-adv-x="1027" 
d="M1264 467q-1 -1 0 -9.5t-2 -23t-13 -35.5t-34 -47q-4 0 -7.5 -0.5t-6.5 -0.5q-2 0 -1 -4t-1 -5q-6 -4 -9.5 -9.5t-5.5 -11.5q-19 -17 -44 -35t-57 -38l-121 -74l-80 -46t-47 -25t-23 -11q-14 -8 -35 -18.5t-45.5 -21.5t-50.5 -20.5t-48 -13.5q-15 -3 -28 -3q-11 0 -15 1
l-33 -1q-27 6 -39.5 23.5t-14 42t5.5 53t19 57.5q27 68 80 150q-2 1 -8 1q-10 1 -29 -9q-17 -8 -45 -27t-72 -57q-29 -25 -54.5 -52t-47 -54t-39 -52l-30.5 -44q-15 -20 -24 -30l-9 -11l5 10h-1q-26 7 -37.5 25t-12.5 42t6 52.5t19 57.5q27 67 80 148q-3 1 -8 1
q-10 1 -29 -9q-17 -8 -45 -27t-72 -57q-29 -25 -54.5 -52t-47 -54t-39.5 -52l-31 -44l-30 -38q-2 -6 -3 -7l-1 -2q4 17 11 39q6 19 15.5 44.5t23.5 57.5q7 16 7.5 18.5t-2.5 -4.5t-9.5 -20.5t-13.5 -30.5l-45 -101q-13 -5 -23 -1q-8 4 -14 16.5t-2 43.5q2 16 11.5 45
t25.5 66.5t37.5 82t47.5 92.5q9 16 18.5 29t17.5 21l17.5 16t13.5 12q-17 -23 -25.5 -37l-12.5 -21q-4 -9 -4 -11q6 9 16 21l19 26.5t25 37.5l1 2h1l49 -25l31.5 -17.5t11.5 -9.5q-11 -7 -31 -30t-39.5 -49l-35.5 -48.5t-19 -27.5l71 128q-2 2 -11 -10.5l-20 -27.5l-27 -41
l1 2l-42.5 -84.5l-36.5 -75.5q15 19 33 39l34.5 38.5l41.5 44.5l9 8q0 1 1 1q0 1 2 3l13 12q28 26 55.5 45t52.5 32t47 21.5t38 13.5l37 8l43 -48q-5 -5 -14 -16.5t-23 -34.5q-6 -8 -20.5 -34t-29.5 -56.5t-25.5 -58t-7.5 -38.5l12 20q15 19 33 39l34.5 38.5t42.5 44.5
q3 5 8 8q0 1 1 1l2 3l13 12q28 26 55.5 45t53 32t47 21.5t38.5 13.5l36 8l44 -48q-5 -5 -14.5 -16.5t-23.5 -34.5l-27.5 -41.5t-21.5 -37.5q-9 -18 -20 -44.5l-18 -43.5l1 -9l2 1l52 102l16 30l60 82l-25.5 -53l-30 -62.5l-29.5 -64t-23 -56.5t-12 -40.5t5 -16.5
q-3 -9 21.5 -1t64.5 25.5t89 42l94.5 49l81.5 45.5t49 33q37 26 73.5 56t70.5 63q3 0 11.5 9l17.5 19.5l16.5 20t7.5 10.5q10 12 15.5 21.5t8.5 17.5q2 -7 -1 -12q-11 -31 -28 -58t-39 -52q4 2 7.5 4t5.5 5q10 9 19 18.5t16 20.5l11.5 20t10.5 22.5t4.5 23t-5.5 21.5
q-1 10 -11.5 13.5t-27 2t-37.5 -6.5t-42 -12q-50 -17 -114 -45l-18 18q10 6 13 9.5t1 4t-7 -1.5t-12 -6l-11 12l-32 35q20 11 41 18.5l42 15.5l-46 -10t-43 -17l-12 14q47 28 90 47q37 16 74 25.5t60 -3.5l22 -14q-31 -2 -61.5 -7t-59.5 -17q15 0 30.5 3l30.5 6t29.5 3.5
t29.5 -3.5l19 -6q3 -1 11 -5.5t10 -6.5q6 -5 11.5 -9l11.5 -8q20 -18 33 -31.5t11 -15.5zM73 237l-1 -2q0 1 1 2z" />
    <glyph glyph-name="n.ss02" unicode="&#xe030;" horiz-adv-x="725" 
d="M914 440q-1 -1 0 -9.5t-2 -23t-13 -35.5t-34 -47q-4 0 -7.5 -0.5t-6.5 -0.5q-2 0 -1 -4t-1 -5q-6 -4 -9.5 -9.5t-5.5 -11.5q-11 -11 -24.5 -21.5t-29.5 -21.5l-12 -8l-35 -22l-86 -54t-103 -61t-108 -54.5t-102 -33.5q-15 -3 -28 -3q-11 0 -15 1l-33 -1q-27 6 -39.5 23.5
t-14 42t5.5 53t19 57.5q27 68 80 150q-2 1 -8 1q-10 1 -29 -9q-17 -8 -45 -27t-72 -57q-29 -25 -54.5 -52t-47 -54t-39 -52l-30.5 -44l-25 -32l-6 -13q0 1 0.5 2.5t0.5 5.5q-2 -4 -2 -3l-1 -1l6 14q5 17 16 48t28 73q7 16 7.5 18.5t-2.5 -4.5t-9.5 -20.5t-13.5 -30.5
l-45 -101q-13 -5 -23 -1q-8 4 -14 16.5t-2 43.5q2 16 12 45t26 66.5t37.5 82t47.5 92.5q9 16 18 29t18 21q9 9 17 16t13 12q-17 -23 -25 -37l-12 -21q-4 -9 -4 -11l16 21l18.5 26.5l24.5 37.5l2 2h1l49 -25l31.5 -17.5t11.5 -9.5q-11 -7 -30.5 -30t-39 -49l-35.5 -48.5
t-19 -27.5l70 128q-2 2 -11 -10.5l-20 -27.5l-27 -41l1 3l-41 -81l-36 -74l15.5 18.5l24.5 28l30.5 33.5l34.5 36l4 4l4 4q0 1 1 1q2 2 2 3l13 12q28 26 55.5 45t53 32t47 21.5t38.5 13.5l36 8l44 -48q-5 -5 -14 -16.5t-24 -34.5l-27.5 -41.5t-21.5 -37.5q-9 -18 -20 -44.5
t-17 -43.5v-9l3 1q5 11 18 37l33 65l16 30l60 82l-25.5 -53l-30 -62.5l-29.5 -64t-23 -56.5t-12 -40.5t5 -16.5q62 12 128.5 40.5t131.5 67t124.5 84.5t108.5 94q3 0 11.5 9l17.5 19.5l16.5 20t7.5 10.5q10 12 15.5 21.5t8.5 17.5q2 -7 -1 -12q-11 -31 -28 -58t-39 -52
q4 2 7.5 4t5.5 5q10 9 19 18.5t16 20.5l11.5 20t10.5 22.5t4.5 23t-5.5 21.5q-1 10 -11.5 13.5t-27 2t-37.5 -6.5t-42 -12q-50 -17 -114 -45l-18 18q10 6 13 9.5t1 4t-7 -1.5t-12 -6l-11 12l-32 35q20 11 41 18.5l42 15.5l-46 -10t-43 -17l-12 14q47 28 90 47q37 16 74 25.5
t60 -3.5l22 -14q-31 -2 -61.5 -7t-59.5 -17q15 0 30.5 3l30.5 6t29.5 3.5t29.5 -3.5l19 -6q3 -1 11 -5.5t10 -6.5q6 -5 11.5 -9l11.5 -8q20 -18 33 -31.5t11 -15.5zM77 237l-1 -2q0 1 1 2zM-48 0q0 1 1 2z" />
    <glyph glyph-name="o.ss02" unicode="&#xe031;" horiz-adv-x="731" 
d="M843 359l-2 -8t-4 -7q-3 -4 -15 -13l-25 -19q-16 -11 -34 -26l47 28q6 -9 7 -19q1 -8 -2.5 -18.5t-16.5 -20.5q-17 -14 -40.5 -28.5t-50.5 -29l-55 -28.5t-55 -26q-63 -30 -131 -58l157 87.5l91 54.5q37 24 52 37l-173 -98h-1q-75 -44 -168 -84.5t-215 -64.5
q-4 -3 -10 -7q-6 -3 -15.5 -5.5t-25.5 -3.5q-8 -1 -28 -2t-45 1t-51 7.5t-46 17.5t-31.5 32.5t-7.5 52.5l5 24q6 22 25 47t39 47q24 26 52 51q-23 -17 -44 -35q-18 -16 -37 -37t-30 -43q-11 -23 -16 -38t-7 -26q-2 -12 0 -20q-3 1 -7 3q-8 4 -9 6q-2 5 -4 13l-2 10
q-23 0 -30 13q-3 6 -2.5 15t6.5 23.5t19 34t35 45.5q36 42 77.5 75.5t82.5 57t78 36.5t64 14q30 -16 57 -34q23 -16 46 -37.5t35 -45.5q12 -25 17 -38t7 -19q2 -7 0 -7q-10 18 -20 34q-9 14 -19 27.5t-18 21.5l-23 20q1 -2 11 -15.5t21 -33.5t18.5 -43t3.5 -44t-14 -42.5
t-22.5 -40.5t-25.5 -34.5t-23 -25.5q61 8 129.5 37t137.5 67q72 39 141.5 87.5t139.5 105.5v-8zM299 175q20 38 21 71.5t-7 58.5q-9 29 -26 54q-11 2 -32 -2t-61 -24q-22 -12 -46 -30.5t-47 -40t-43.5 -44t-35.5 -42.5q-18 -25 -29 -49q-9 -20 -13 -41t9 -34l9.5 -3t28 -5
t47 -1.5t66.5 6.5q1 0 18.5 5.5t42 19.5t51.5 38.5t47 62.5z" />
    <glyph glyph-name="p.ss02" unicode="&#xe032;" horiz-adv-x="702" 
d="M907 436q-1 -1 0 -9.5t-2 -23t-13 -35.5t-34 -47q-4 0 -7.5 -0.5t-6.5 -0.5q-2 0 -1 -4t-1 -5q-6 -4 -9.5 -9.5t-5.5 -11.5q-41 -25 -88.5 -58.5l-99.5 -68t-107 -67t-111 -56.5t-112.5 -35.5t-110.5 -3.5q-23 3 -42.5 11.5t-35.5 19t-28 21.5t-20 20l-11 5.5t-8 4.5
q-4 3 -7 5q1 0 4 -1q6 -2 11 -2q-1 1 -1 2l-1 1l29 -7q11 -1 22.5 -0.5t21.5 2.5q41 10 67 28.5t40 37.5q17 22 25 46q-12 -19 -28 -37q-14 -15 -33.5 -31t-44.5 -27q-14 -5 -26.5 -7t-22.5 -2q-11 0 -22 2q22 6 46 17q20 9 43.5 25t44.5 39q19 21 30.5 45.5t18.5 45.5
q8 25 11 49q-21 -3 -47 -14q-23 -11 -54.5 -32t-69.5 -60q-30 -31 -54 -61.5t-42 -58.5q-15 -22 -30.5 -56t-28.5 -66l-30 -78l-120 -380q1 17 5 40q3 19 8 46t13 61q4 17 4.5 19.5t-1.5 -4.5l-6 -21.5t-8 -32.5l-28 -107q-12 -7 -23 -4q-9 2 -16.5 13.5t-8.5 42.5
q-1 24 10 76.5t31 121.5t48.5 149t61.5 160q12 42 43 110.5t74.5 149.5t95.5 166.5t107 159.5q48 66 96 111t90 74l-73 -76q-41 -44 -80 -97t-73 -105.5t-62 -101l-47 -82.5q3 5 6.5 8.5l7.5 7.5l51.5 82.5l62.5 94.5t67.5 93.5t66.5 78.5q5 6 10 11l10 10q69 71 108 99.5
t50 34.5l4 2q8 3 14.5 4.5t11.5 3.5l9 3l31 -39v-1h-1v-1q-1 -3 -4.5 -10.5t-13 -23l-26 -41.5t-43.5 -65q-18 -27 -48 -62l-66 -74l-75 -79.5l-75 -77l-66.5 -66l-48.5 -47.5q-25 -46 -47 -90.5l-42 -84.5h1l-2 -4q21 28 47 58t56.5 57.5t65 50.5t73.5 38q1 -1 3 -1
q2 -1 4.5 -1t5.5 -1l24 -20l26 -23t23.5 -25t16.5 -25q-2 -31 -23 -66.5t-50.5 -66t-62 -51.5t-56.5 -22q1 -5 7 -9t12 -7q7 -4 16 -6q87 1 164.5 27.5t149 69.5t138.5 96l134 106q3 0 11.5 9l17.5 19.5l16.5 20t7.5 10.5q10 12 15.5 21.5t8.5 17.5q2 -7 -1 -12
q-11 -31 -28 -58t-39 -52q4 2 7.5 4t5.5 5q10 9 19 18.5t16 20.5l11.5 20t10.5 22.5t4.5 23t-5.5 21.5q-1 10 -11.5 13.5t-27 2t-37.5 -6.5t-42 -12q-50 -17 -114 -45l-18 18q10 6 13 9.5t1 4t-7 -1.5t-12 -6l-11 12l-32 35q20 11 41 18.5l42 15.5l-46 -10t-43 -17l-12 14
q47 28 90 47q37 16 74 25.5t60 -3.5l22 -14q-31 -2 -61.5 -7t-59.5 -17q15 0 30.5 3l30.5 6t29.5 3.5t29.5 -3.5l19 -6q3 -1 11 -5.5t10 -6.5q6 -5 11.5 -9l11.5 -8q20 -18 33 -31.5t11 -15.5zM477 842q-42 -44 -101 -113.5t-123 -161.5q-27 -39 -55 -85t-55 -95l65.5 61.5
t79.5 79.5q27 27 55 61t54.5 69.5t50 70.5t41 63.5t28 48t11.5 24.5q0 8 -7.5 5.5t-17 -8.5t-17.5 -12.5t-9 -7.5zM-110 -5l-32 -90.5t-14 -39.5q1 2 14.5 36l35.5 86q-2 2 -4 8zM66 376v1v-1z" />
    <glyph glyph-name="q.ss02" unicode="&#xe033;" horiz-adv-x="587" 
d="M863 477q-1 -1 0 -9.5t-2 -23t-13 -35.5t-34 -47q-4 0 -7.5 -0.5t-6.5 -0.5q-2 0 -1 -4t-1 -5q-6 -4 -9.5 -9.5t-5.5 -11.5q-19 -17 -44 -35t-57 -38l-46 -28q0 -1 1 -1l-204.5 -125.5l-175.5 -104.5l-168 -97q31 -54 39 -109q3 -24 1.5 -50t-11 -52.5t-28.5 -53
t-51 -50.5q-35 -26 -59 -38t-39 -17q-18 -5 -29 -3q-2 2 -6 5l-8 5.5t-10 8.5q8 2 25.5 5.5t28.5 7.5q45 17 69 42.5t34 43.5q-10 -12 -22 -22q-32 -26 -59.5 -40t-47.5 -20q-24 -7 -44 -7l-10.5 8t-10.5 9q-4 3 -4 8l-9 7l25 48q11 20 22 44t19 44l21 52l-87 -167l-15 13
q1 19 16 56q13 31 40 83.5t78 132.5l86.5 135.5l74.5 115.5l-67.5 -58t-55.5 -44q-8 -6 -22.5 -13.5l-29.5 -15t-27 -12.5t-16 -6q-3 -1 -8.5 1t-9.5 9t-4.5 20.5t5.5 37.5q6 22 24.5 48t39 49t37.5 39.5l21 20.5q-3 -2 -17 -13t-32 -28t-36.5 -38.5t-30.5 -44.5
q-12 -24 -17.5 -41.5t-7.5 -28.5q-2 -13 0 -22q-4 1 -8 3q-7 4 -9 7q-3 5 -4 14q-1 5 -2 11q-25 -1 -32 14q-3 6 -2.5 16.5t7 26t20 36.5t37.5 50q38 46 82 82t88 61.5t83.5 39.5t68.5 16l64 -79q-2 -4 -3 -5l-1 -1q-5 9 -19 11q-12 2 -34 -3t-60 -25q-25 -13 -52 -35
t-52.5 -47t-48 -51t-38 -48t-23 -37t-3.5 -19q4 -3 22.5 7.5t44.5 29t55 41.5l55 44l45.5 37t24.5 21l11 15q7 -4 21 -14l28 -21l-114 -146l131 133l11 -8l-69 -86t-88 -117.5t-91 -137t-76 -143.5q-16 -36 -25 -61t-14 -42q1 1 2 1l-3 -3q-2 -6 -2 -9q1 1 4 1q17 11 39 28
q19 14 44.5 37t57.5 56q26 27 38 51.5t14.5 46t-1.5 39t-10.5 30.5t-12 21.5t-5.5 12.5q24 16 75 47l115.5 70l135 82.5l134.5 83.5l60 40t61 43.5l58 45t50 43.5q3 0 11.5 9l17.5 19.5l16.5 20t7.5 10.5q10 12 15.5 21.5t8.5 17.5q2 -7 -1 -12q-11 -31 -28 -58t-39 -52
q4 2 7.5 4t5.5 5q10 9 19 18.5t16 20.5l11.5 20t10.5 22.5t4.5 23t-5.5 21.5q-1 10 -11.5 13.5t-27 2t-37.5 -6.5t-42 -12q-50 -17 -114 -45l-18 18q10 6 13 9.5t1 4t-7 -1.5t-12 -6l-11 12l-32 35q20 11 41 18.5l42 15.5l-46 -10t-43 -17l-12 14q47 28 90 47q37 16 74 25.5
t60 -3.5l22 -14q-31 -2 -61.5 -7t-59.5 -17q15 0 30.5 3l30.5 6t29.5 3.5t29.5 -3.5l19 -6q3 -1 11 -5.5t10 -6.5q6 -5 11.5 -9l11.5 -8q20 -18 33 -31.5t11 -15.5zM86 -303q-5 -4 -13 -16t-21 -27q4 3 7.5 4.5t7.5 3.5t8 3q3 9 6 17l4 11.5t1 3.5z" />
    <glyph glyph-name="r.ss02" unicode="&#xe034;" horiz-adv-x="764" 
d="M908 385l-2 -8t-4 -7q-3 -4 -15 -13l-25 -19q-16 -11 -34 -26l47 28q6 -9 7 -19q1 -8 -2.5 -18.5t-16.5 -20.5q-17 -14 -40.5 -28.5t-50.5 -29l-55 -28.5t-55 -26q-63 -30 -131 -58l157 87.5l91 54.5q37 24 52 37q-50 -32 -107 -60.5t-114.5 -51.5t-111.5 -39
t-97.5 -22.5t-73 -2.5t-37.5 22q-11 41 2 87.5t36 80.5q-5 -10 -8 -19.5l-6 -19.5q6 11 13 22.5t7 24.5l-6 -7q5 11 11 21.5t14 20.5q-5 0 -8 -1l-14.5 -21.5t-16.5 -27l-15.5 -29t-10.5 -26.5q-9 -33 -9 -52q-1 -11 1 -20q-5 18 -4 41q1 20 7.5 46t25.5 58q9 17 12 25
l-9 -3l2 3q-2 1 -8 1q-10 1 -29 -9q-17 -8 -45 -27t-72 -57q-29 -25 -54.5 -52t-47 -54t-39 -52l-30.5 -44q-15 -20 -24 -30l-9 -11l5 10h-1q-1 0 -2 1q-2 -5 -3 -8t-2 -5q-1 -3 -2 -4q4 17 11 39q6 19 15 44.5t23 57.5q7 16 8 18.5t-2 -4.5t-9.5 -20.5t-13.5 -30.5
l-45 -101q-13 -5 -23 -1q-8 4 -14 16.5t-2 43.5q2 16 11.5 45t25.5 66.5t37.5 82t47.5 92.5q9 16 18 29t18 21q9 9 17 16t13 12q-17 -23 -25 -37l-12 -21q-4 -9 -4 -11q7 8 16 20l18 26l24 37l1 4l1 -1l1 1l29 -15q10 -6 21.5 -12l21 -11t14.5 -9t4 -5q-11 -7 -31 -30
t-39.5 -49l-35.5 -48.5t-19 -27.5l71 128q-2 1 -7 -5.5l-12.5 -16.5l-15 -21l-13.5 -20l-51.5 -103.5l-42.5 -89.5v-1l12 20q15 19 33 39l34.5 38.5t42.5 44.5l4 4l4 4q0 1 1 1l2 3l13 12q28 26 55.5 45t53 32t47 21.5t38.5 13.5l36 8l44 -48l-6 -6q-28 -24 -48 -52.5
t-37 -60.5q-2 -3 -6.5 -13t-8.5 -22.5t-5 -24.5t4 -17q-3 -13 26 -15t76 5.5t104.5 23.5t111.5 40q69 32 138 80t138 109v-8zM309 244l2 10.5t3 11.5q-5 -13 -5 -22zM72 237l-1 -2q0 1 1 2z" />
    <glyph glyph-name="s.ss02" unicode="&#xe035;" horiz-adv-x="656" 
d="M908 433q-2 -1 -3 -9t-8 -21.5t-22 -31t-45 -36.5q-4 2 -7.5 2t-6.5 1q-2 1 -2 -3.5t-2 -4.5q-11 -4 -20 -16q-23 -11 -51.5 -22t-65.5 -22l-163 -48l-88 -25q-34 -10 -44 -12h-1l-67.5 -21t-55.5 -21q1 -13 0 -28t-5 -34q-6 -32 -29 -78.5t-64.5 -92t-102.5 -82
t-142 -48.5l-29 20q55 3 100 21t78.5 40.5t56.5 45.5t34 37l2 2q3 3 6 5l2 2q6 5 14.5 14.5t13.5 17.5q2 3 5 9t5 11l6 14l-5 -5q-2 -2 -5 -5.5t-7 -7.5q-5 -4 -9.5 -11.5l-9.5 -15.5l-11 -21l-4 -5q-11 -9 -36 -26l-73 -48q-56 -35 -104 -45t-85 -7q-16 14 -25 34t-20 32
q12 10 29 27t41.5 38.5t57 45.5t73.5 49l103.5 62t108.5 52q-1 5 -3 9q-2 3 -3 6t-2 4q-1 0 -12.5 -1.5t-30 -5t-41.5 -8.5l-47 -10l-127 -28q-4 1 -7.5 5t-5 11.5t0.5 20.5t10 32q9 22 31 45.5t45 43.5t42.5 34l23.5 17q-2 -1 -17.5 -9.5t-36 -23t-42 -34t-36.5 -40.5
q-16 -23 -23.5 -39.5t-10.5 -27.5q-4 -13 -3 -22q-3 2 -7 5q-8 6 -9 8t-1 5.5v8.5t-1 11q-25 3 -30 19q-2 7 -0.5 17t10 24t25 33.5t43.5 44.5q44 40 92.5 70.5t95 50t87.5 28t70 5.5l31 -50q21 -17 33 -33q11 -14 15 -27t-10 -21q-19 -10 -48.5 -16t-57 -9.5t-48 -4.5
t-21.5 -1q1 0 12 3.5l27 8.5t34 11.5t33 12.5t25 12.5t15 11.5q6 6 9 11q-4 10 -17 14q-11 3 -34 0.5t-64 -16.5q-32 -12 -68 -35t-69 -50t-59.5 -53t-39.5 -44l48.5 9.5t67.5 11t65 5t41 -7.5v2l3 -4q0 -1 0.5 -1t0.5 -1q7 -9 11.5 -18.5l9.5 -19.5q26 8 65 19l85.5 24
l96.5 28t99 32.5t93 37t78 41.5q3 0 13.5 6.5l22.5 14t21.5 14.5t9.5 8q23 17 33 32q0 -7 -4 -12q-18 -27 -42 -48.5t-52 -39.5q5 2 8.5 2.5t6.5 2.5q12 6 23.5 13t20.5 16l16.5 16t16.5 19t10.5 21t0.5 22q1 10 -8 16t-25.5 9t-38 3.5t-43.5 -0.5q-53 -3 -122 -13l-12 22
q22 8 17 10t-21 -3l-7 15l-22 42q22 5 44 6.5t45 4.5q-23 2 -46.5 2.5t-46.5 -5.5l-8 17q52 15 99 22q20 3 40.5 4.5t38.5 0t33 -6t24 -13.5l17 -19q-30 7 -61 10t-62 -1q15 -4 30.5 -5t30.5 -2.5t29.5 -4.5t27.5 -11q4 -3 8 -5.5l9 -5.5q3 -2 9 -8.5t8 -8.5q5 -6 9 -12
t9 -11l23 -39t7 -18zM177 44q16 20 26 41t16 42q-65 -32 -120.5 -67.5t-100.5 -68.5t-77.5 -60l-49.5 -42q-5 -10 -1.5 -17t16.5 -5q39 7 74.5 21.5t66.5 32.5t57 38t45 37q28 22 48 48z" />
    <glyph glyph-name="t.ss02" unicode="&#xe036;" horiz-adv-x="595" 
d="M249 54q-58 -23 -109.5 -36.5t-90.5 -18t-63.5 -1t-28.5 15.5l-2.5 5t-1.5 4q-2 2 -7 21.5t0 45.5q5 22 8.5 33t5.5 13q-2 -1 -12.5 -19.5t-11.5 -57.5q-1 -7 -1 -12.5v-10.5q-6 6 -12.5 16t-10 23.5t-2.5 29.5t9 33q18 41 43 92l55 108l-40 4t-40 7q-23 5 -43.5 13
t-35.5 15q-18 8 -33 16h3q33 -11 84 -22t116 -11l89.5 154.5t98.5 147.5q48 66 96 111t90 74l-73 -76q-45 -48 -88 -107.5t-79.5 -117t-64.5 -107.5t-43 -79h2l30 49l40.5 64l47.5 72.5l51.5 74.5l53 70.5t50.5 59.5l20 21q41 42 71.5 68.5t50.5 41.5q24 18 40 25
q8 3 14.5 5t11.5 4l9 3l31 -39q-2 -6 -12 -24q-8 -15 -26 -42.5l-50 -75.5q-23 -34 -66.5 -82l-94 -99.5l-101.5 -101l-90 -85.5q5 1 10.5 1.5t10.5 2.5q81 17 133.5 32t84.5 27q37 14 57 27l18 -29q-1 0 -2 -2t-5 -8l16 -16q-9 -12 -23 -23q-12 -9 -30 -19t-41 -15
q-24 -6 -56.5 -11t-61.5 -8q-34 -4 -70 -7l57 15q22 5 39 12l30 12q14 6 26 12l-40 -8.5l-45.5 -9t-47 -8l-44.5 -6.5h-1l-39 -3l-52 -100.5l-46 -92.5q0 -1 -5.5 -19t-9.5 -39.5t-4.5 -39.5t9.5 -19q47 -5 107.5 8.5t126.5 39.5q38 15 75.5 33t73.5 38l-1 1q14 8 41.5 25
l61.5 40l71.5 49l72.5 51.5l64 48t47 38.5q3 0 11.5 9l17.5 19.5l16.5 20t7.5 10.5q10 12 15.5 21.5t8.5 17.5q2 -7 -1 -12q-11 -31 -28 -58t-39 -52q4 2 7.5 4t5.5 5q10 9 19 18.5t16 20.5l11.5 20t10.5 22.5t4.5 23t-5.5 21.5q-1 10 -11.5 13.5t-27 2t-37.5 -6.5t-42 -12
q-50 -17 -114 -45l-18 18q10 6 13 9.5t1 4t-7 -1.5t-12 -6l-11 12l-32 35q20 11 41 18.5l42 15.5l-46 -10t-43 -17l-12 14q47 28 90 47q37 16 74 25.5t60 -3.5l22 -14q-31 -2 -61.5 -7t-59.5 -17q15 0 30.5 3l30.5 6t29.5 3.5t29.5 -3.5l19 -6q3 -1 11 -5.5t10 -6.5
q6 -5 11.5 -9l11.5 -8q20 -18 33 -31.5t11 -15.5q-1 -1 0 -9.5t-2 -23t-13 -35.5t-34 -47q-4 0 -7.5 -0.5t-6.5 -0.5q-2 0 -1 -4t-1 -5q-6 -4 -9.5 -9.5t-5.5 -11.5q-19 -17 -44 -35t-57 -38l-144.5 -89l-78.5 -48q-31 -18 -39 -23h-1q-43 -24 -84.5 -43.5t-81.5 -35.5z
M254 575q-26 -37 -51.5 -80l-51.5 -88l7 7.5l22.5 24l42 44l65.5 67.5q27 27 55 60l54.5 67l50 67l41.5 59.5t28.5 45t11.5 24.5q0 8 -7.5 5.5t-17 -8.5t-18 -13l-8.5 -7q-42 -45 -101 -114t-123 -161zM41 336l-3 -6l4 6h-1z" />
    <glyph glyph-name="u.ss02" unicode="&#xe037;" horiz-adv-x="820" 
d="M969 379l-2 -8t-4 -7q-3 -4 -15 -13l-25 -19q-16 -11 -34 -26l47 28q6 -9 7 -19q1 -8 -2.5 -18.5t-16.5 -20.5q-17 -14 -40.5 -28.5t-50.5 -29l-55 -28.5t-55 -26q-63 -30 -131 -58l157 87.5l91 54.5q37 24 52 37l-173 -98h-1q-103 -57 -187.5 -83.5t-135.5 -34.5
q-8 -2 -14.5 -3t-13.5 -1t-15 2l-33 -2q-34 8 -45 33t-8 58l-71 -63t-65.5 -51.5t-55.5 -32.5t-41 -8q-26 5 -40.5 16t-21.5 26q0 2 -2 21t6 51q5 17 7 28t3 17q1 7 1 11q-9 -20 -16 -38q-6 -16 -10.5 -33t-2.5 -28l-1 -21q-5 -1 -11.5 0.5t-12 7.5t-8 18.5t0.5 34.5
q2 16 12 45t26 66.5t37.5 82t47.5 93.5q9 15 18 28.5t17 21.5l31 28q-17 -23 -25.5 -36.5t-12.5 -21.5q-4 -9 -4 -12q6 9 16 21l19 26.5t25 37.5l2 2q3 -1 18.5 -9l32.5 -17t30 -17t11 -9q-11 -7 -31 -30t-39.5 -49l-35.5 -48.5t-19 -27.5l70 129q-2 1 -10.5 -10.5
l-18.5 -26l-18.5 -27.5t-9.5 -15l-35 -70t-31 -65l-4 -8l-9 -17q-8 -17 -18 -43t-14.5 -50.5t0 -42t26.5 -15.5q14 1 41 19t61.5 46.5l74.5 64.5l80 74q11 30 25.5 59t27.5 52q15 26 31 51h-4q13 14 26.5 26l27.5 24q10 2 14 2l43 -47q-5 -5 -14 -16.5t-24 -34.5l-27 -41.5
t-22 -37.5l-19.5 -45.5t-17.5 -42.5l1 -9h2l52 102l15 31l60 81l-25.5 -52.5l-29.5 -63l-29 -64t-23.5 -56.5t-12 -40.5t5.5 -16.5q27 -2 63.5 5t79 21.5t87.5 34t89 42.5q72 39 141.5 86.5t139.5 106.5v-8zM8 247q-4 -5 -7.5 -14.5t-5.5 -19.5q-4 -11 -6 -25l33 72
q-1 0 -3 -2t-4.5 -4t-6.5 -7zM101 287l-1 -2q0 1 1 2z" />
    <glyph glyph-name="v.ss02" unicode="&#xe038;" horiz-adv-x="812" 
d="M804 160q-43 -23 -87 -40.5t-84 -28t-73 -11.5t-54.5 9t-28.5 33.5t6 62.5l25 60q11 26 24 53.5t26 49.5q-26 -16 -56 -46l-63.5 -66l-70.5 -75t-77.5 -72.5t-84 -57.5t-89.5 -31q-36 1 -59 22t-36.5 53t-19 71t-6.5 77.5t1.5 71.5t5.5 53q5 23 11.5 44t14.5 42l16 8
l69 -44q-2 -6 -5.5 -21t-7.5 -43q-4 -23 -8 -51t-4 -46q1 -23 2.5 -54t3.5 -51l6 -10l1 2q1 12 1 43.5t2 79.5v19t1 18l21 102v-63.5t0.5 -75t2 -76.5t4.5 -67.5t8.5 -47.5t13.5 -17q6 -1 24.5 8t44.5 27q47 36 86 84t71 103q29 49 53.5 83t45 55.5t36.5 32t28 14.5
q28 9 45 -13l49 -32q-21 -25 -47.5 -62.5t-48.5 -77t-34 -75t-3 -55.5q12 -26 46 -28.5t82.5 11.5t107.5 41t120 60.5t120 70.5l108 70t84 59.5t48 39.5v-8l-2 -8t-4 -7q-3 -4 -15 -13l-25 -19q-16 -11 -34 -26l47 28q6 -9 7 -19q1 -8 -2.5 -18.5t-16.5 -20.5
q-17 -14 -40.5 -28.5t-50.5 -29l-55 -28.5t-55 -26q-63 -30 -131 -58l157 87.5l91 54.5q37 24 52 37l-161 -91l-88.5 -51z" />
    <glyph glyph-name="w.ss02" unicode="&#xe039;" horiz-adv-x="1141" 
d="M815 75q64 21 162 73q111 62 216 129.5t212 145.5v-8l-2 -8t-4 -7q-3 -4 -15 -13l-25 -19q-16 -11 -34 -26l47 28q6 -9 7 -19q1 -8 -2.5 -18.5t-16.5 -20.5q-17 -14 -40.5 -28.5t-50.5 -29l-55 -28.5t-55 -26q-63 -30 -131 -58l157 87.5l91 54.5q37 24 52 37l-161 -91
q-16 -10 -32.5 -19l-33.5 -19q-86 -50 -161.5 -87t-130 -51.5t-84.5 -1.5t-24.5 61t51 135.5t140.5 224.5q-10 11 -27 -6.5t-39.5 -53t-50 -84l-58 -101t-64 -103t-68.5 -90t-70.5 -62.5t-70.5 -20q-34 1 -56.5 19.5t-36 47t-20 64.5t-8 72.5t0 69.5t4.5 57q-23 -36 -53 -77
t-63 -78t-67.5 -66t-68.5 -41q-51 -18 -77 -24.5t-37 -6.5q22 6 46.5 17.5t56.5 28.5q38 21 69.5 48t54.5 51q26 28 48 57q-17 -21 -38 -43q-18 -19 -44 -41.5t-58 -44.5q-37 -25 -77 -38.5l-68 -22.5q0 -1 -1 -2q1 4 12 41.5t37 98.5q7 16 7.5 18.5t-2.5 -4.5t-9.5 -20.5
t-13.5 -30.5l-45 -101q-13 -5 -23 -1q-8 4 -14 16.5t-2 43.5q2 16 12 45t26 66.5t37.5 82t47.5 92.5q8 16 17.5 29t17.5 21l17.5 16t13.5 12q-17 -23 -25.5 -37l-12.5 -21q-4 -9 -4 -11q6 9 16 21l19 26.5t25 37.5l2 2l49 -25l31.5 -17.5t11.5 -9.5q-11 -7 -30.5 -30
t-39 -49l-35.5 -48.5t-19 -27.5l70 128q-2 2 -10.5 -10.5l-19.5 -27.5l-27 -41v2l-38 -76l-34 -70l-4 -11q3 3 4 6l-6 -11l-9 -24q0 -2 -0.5 -2.5t-0.5 -2.5l-5 -12l-19 -46q22 7 48 18q22 10 49.5 26.5t57.5 42.5q15 12 32.5 30t36 39l37.5 43.5l36 43.5l83 106l16 7
l16 -10l53 -33q-2 -7 -5.5 -21.5t-7.5 -42.5q-4 -23 -8 -51t-4 -46q1 -23 2.5 -54.5t3.5 -50.5l6 -10l1 1q1 13 1 44.5t2 78.5v20t1 17l21 103q0 -27 -0.5 -61.5l-1 -70.5t0 -70.5t2.5 -62t7 -45t13 -18.5q14 -4 34.5 14.5t44 52.5t48 79.5t48.5 95t45.5 99.5l38.5 93
q26 67 54 93.5t51 31.5l42 -18q-72 -96 -133 -200.5t-108 -214.5q30 50 56.5 99l56 99t64 101t80.5 105l13 -6l54 -35q-57 -36 -120.5 -141t-104.5 -214t76 -70zM75 236l-1 -2q0 1 1 2z" />
    <glyph glyph-name="x.ss02" unicode="&#xe04a;" horiz-adv-x="784" 
d="M93 120q-40 -57 -70 -92t-52.5 -53.5t-39.5 -23.5t-30.5 -2.5t-25 9.5t-23.5 13q27 0 57.5 21.5t60.5 50t56.5 59t44.5 48.5q-26 20 -49 64.5t-34 104.5q-7 42 -2 84.5t13 77.5q10 40 24 79l58 -33q-2 -6 -5.5 -19.5t-7.5 -39.5q-5 -21 -8.5 -46.5t-3.5 -42.5
q0 -11 5 -27l10 -32q6 -18 15 -39q0 6 -2.5 15t-5.5 22.5t-5 31t-1 38.5v17.5t1 16.5l21 94q1 -45 0 -88t1 -83.5t9.5 -78t25.5 -71.5q50 54 106.5 105.5l116 101.5l120 98.5l117.5 96.5q70 57 115 83t72 32t38.5 -1.5t15.5 -15.5q-9 -2 -20 -4t-24 -7q-45 -18 -75 -34
t-49 -28q-22 -14 -35 -26l32 16l35 18l44 22q23 11 41 18t30 10q14 4 24 4l35 -45q-20 -8 -44 -21q-20 -11 -47 -28.5t-57 -42.5q2 6 9 16q5 8 16 20t30 29q-2 -1 -39.5 -15.5t-113.5 -61t-193 -134t-277 -233.5q13 -19 34.5 -40t46 -39.5t49 -32t44.5 -17.5q34 -7 73.5 2
t81.5 29t85.5 48t86 59t81.5 62.5l72 57.5l17 -18q-20 -17 -51 -41l-68.5 -51.5l-78.5 -55t-80 -51t-73 -40.5t-58 -23q-57 -18 -105.5 -13.5t-89 21.5t-72.5 43t-55 52z" />
    <glyph glyph-name="y.ss02" unicode="&#xe04b;" horiz-adv-x="706" 
d="M316 7q83 69 167 127.5l161 109.5l143 97t114 91q3 0 11.5 9l17.5 19.5l16.5 20t7.5 10.5q10 12 15.5 21.5t8.5 17.5q2 -7 -1 -12q-11 -31 -28 -58t-39 -52q4 2 7.5 4t5.5 5q10 9 19 18.5t16 20.5l11.5 20t10.5 22.5t4.5 23t-5.5 21.5q-1 10 -11.5 13.5t-27 2t-37.5 -6.5
t-42 -12q-50 -17 -114 -45l-18 18q10 6 13 9.5t1 4t-7 -1.5t-12 -6l-11 12l-32 35q20 11 41 18.5l42 15.5l-46 -10t-43 -17l-12 14q47 28 90 47q37 16 74 25.5t60 -3.5l22 -14q-31 -2 -61.5 -7t-59.5 -17q15 0 30.5 3l30.5 6t29.5 3.5t29.5 -3.5l19 -6q3 -1 11 -5.5t10 -6.5
q6 -5 11.5 -9l11.5 -8q20 -18 33 -31.5t11 -15.5q-1 -1 0 -9.5t-2 -23t-13 -35.5t-34 -47q-4 0 -7.5 -0.5t-6.5 -0.5q-2 0 -1 -4t-1 -5q-6 -4 -9.5 -9.5t-5.5 -11.5q-19 -17 -44 -35t-57 -38l-125 -77.5l-90.5 -56.5l-71 -46l-66 -46l-77 -57l-101.5 -78q-32 -96 -75 -201
t-92 -198q-38 -73 -78 -124.5t-78 -86.5l28.5 39t32.5 47q34 49 64.5 107.5t56.5 116.5t46.5 110t33.5 88l-12 -19l-38.5 -89.5l-48 -103t-53 -102.5t-53.5 -88l-16 -23q-35 -48 -60.5 -79t-43.5 -48q-21 -21 -36 -31q-8 -5 -13.5 -8t-10.5 -5q-5 -3 -9 -4l-36 34q1 7 8 25
q6 16 19 46.5t39 82.5q14 29 38 68.5t53.5 83.5l62 89.5l63 87l55.5 75l41 54.5l32.5 97l28.5 90q0 2 0.5 2.5t0.5 2.5l6 18.5t5 19.5v8t1 9l-71 -62.5t-66 -51t-56 -33t-40 -8.5q-26 5 -40.5 16t-21.5 26q-1 2 -2.5 21t6.5 52q5 17 7 27.5t3 16.5q1 7 1 11q-9 -20 -16 -38
q-6 -16 -10.5 -33t-2.5 -28l-2 -20q-5 -1 -11 0.5t-11.5 7.5t-8 18.5t0.5 34.5q2 16 12 45t26 66.5t37 82t47 92.5q9 16 18.5 29t17.5 21l31 29q-17 -24 -25.5 -37.5t-12.5 -21.5q-4 -9 -4 -11q6 9 16 21l19 26t25 37v3h2l21 -11l24 -12.5t23.5 -12.5t17 -10.5t4.5 -5.5
q-11 -7 -30.5 -30t-39 -49l-35.5 -48.5t-19 -27.5l70 128q-1 1 -7 -6.5t-14 -18.5l-16 -23t-14 -20l-72 -145l-3 -8l-9 -18q-8 -17 -18 -43t-14.5 -50t0 -41.5t26.5 -15.5q14 1 41 18.5t61.5 46t74.5 65l79 74.5q11 30 26 59l28 52q15 26 31 50q-1 0 -2 0.5t-2 0.5
q12 13 26 25l28 24l14 3l43 -48q-5 -5 -14 -16.5t-24 -34.5l-27.5 -41.5t-21.5 -37.5q-4 -7 -7.5 -16t-8.5 -19l-9 -38q0 -4 -1 -5l43 84l16 30l60 82q-8 -18 -17.5 -32t-21 -33.5t-26 -48.5t-33.5 -76q-8 -16 -14 -32.5t-13 -38l-16.5 -50t-24.5 -67.5zM85 -354
q21 43 41.5 92.5t39.5 101.5l-54.5 -70l-66.5 -90q-22 -31 -44.5 -68.5t-43.5 -77t-39 -77.5l-31.5 -68.5t-21 -52t-6.5 -26.5q0 -8 7.5 -4.5t15.5 11t15.5 15.5l7.5 8q35 51 83 128.5t97 177.5zM7 248q-4 -5 -7.5 -14.5t-5.5 -19.5q-4 -11 -6 -25l32 72q-1 0 -3 -2l-4 -4
t-6 -7zM99 288l-1 -2q0 1 1 2z" />
    <glyph glyph-name="z.ss02" unicode="&#xe04c;" horiz-adv-x="921" 
d="M513 22q7 6 21 16t33 22l113.5 73.5l128.5 82.5l131.5 90t123.5 97q3 0 11.5 9l17.5 19.5l16.5 20t7.5 10.5q10 12 15.5 21.5t8.5 17.5q2 -7 -1 -12q-11 -31 -28 -58t-39 -52q4 2 7.5 4t5.5 5q10 9 19 18.5t16 20.5l11.5 20t10.5 22.5t4.5 23t-5.5 21.5q-1 10 -11.5 13.5
t-27 2t-37.5 -6.5t-42 -12q-50 -17 -114 -45l-18 18q10 6 13 9.5t1 4t-7 -1.5t-12 -6l-11 12l-32 35q20 11 41 18.5l42 15.5l-46 -10t-43 -17l-12 14q47 28 90 47q37 16 74 25.5t60 -3.5l22 -14q-31 -2 -61.5 -7t-59.5 -17q15 0 30.5 3l30.5 6t29.5 3.5t29.5 -3.5l19 -6
q3 -1 11 -5.5t10 -6.5q6 -5 11.5 -9l11.5 -8q20 -18 33 -31.5t11 -15.5q-1 -1 0 -9.5t-2 -23t-13 -35.5t-34 -47q-4 0 -7.5 -0.5t-6.5 -0.5q-2 0 -1 -4t-1 -5q-6 -4 -9.5 -9.5t-5.5 -11.5q-19 -17 -44 -35t-57 -38l-105.5 -65.5l-73 -44.5l-46 -28t-25.5 -15l-254 -161
q-47 -89 -105.5 -186t-121.5 -182q-49 -66 -97 -110.5t-90 -73.5l33.5 34.5l39.5 41.5q41 43 80.5 96t74.5 106t63 101l47 82l-15 -17l-52 -81l-63.5 -94l-68.5 -93.5t-66 -78.5l-20 -21q-42 -42 -72.5 -68.5t-50.5 -40.5q-24 -18 -40 -25q-8 -4 -14.5 -5.5t-11.5 -3.5
t-9 -2l-31 39q2 6 12 24q8 15 26 42.5l51 75.5q18 26 48.5 61l66.5 74l75 79l75.5 75.5l67 65l49.5 47.5l10 19q3 5 10.5 20t15.5 34t14 37.5t5 29.5q-1 7 -14 9t-33 0.5t-45 -5t-49.5 -8.5l-45.5 -9.5l-34 -7.5q-5 -3 -11 -4l-1 1q-1 0 -2 -1l-2 9l-20 31q6 1 11 4v1
q1 1 2 1q2 0 5 1q2 1 5 1.5t5 2.5q78 34 122 80.5t65.5 90.5t27.5 79t7 46t-6.5 16.5t-16.5 8.5q-11 4 -25 4q-11 -2 -25 -6t-31 -11q-26 -11 -55.5 -29.5t-57.5 -41t-53 -46t-42.5 -43.5t-26.5 -34.5t-5 -18.5q3 -3 16.5 2t33.5 15.5t44 25.5l49 30q-19 -36 -46.5 -58.5
t-54 -35.5t-46.5 -18t-24 -5t-9 2t-8 9.5t-2.5 21t9.5 36.5q8 21 29 45t43.5 44.5t41.5 35.5t24 18q-3 -2 -18.5 -11.5t-35.5 -24t-40.5 -34t-34.5 -40.5q-15 -23 -22 -39.5t-10 -27.5q-4 -13 -3 -22q-3 2 -7 4q-8 4 -8 8q-1 2 -1.5 5.5t-1.5 8.5t-1 11q-25 2 -30 18
q-2 7 -0.5 17t9.5 24.5t23.5 34t42.5 45.5q43 42 91 73t94 52t87 30.5t70 7.5l37 -57q10 -9 17 -27l1 -1q11 -33 3.5 -86.5t-40.5 -113.5q-17 -30 -37.5 -55.5t-46.5 -47.5q12 1 30 2q30 1 91 0q30 -2 46 -17.5t24 -34.5q9 -22 9 -49zM228 -297q28 39 56 84.5t55 94.5
l-24 -22l-56.5 -53.5l-65.5 -64.5q-27 -27 -55 -60.5l-55 -69t-50.5 -70l-41.5 -63t-29 -48.5t-11 -25q0 -8 7.5 -5.5t17 8.5t18 13l8.5 7q42 44 101.5 113t124.5 161z" />
    <glyph glyph-name="p.ss03" unicode="&#xe04d;" horiz-adv-x="702" 
d="M714 292q10 1 14.5 -1t6.5 -5.5t2 -7t2 -5.5q-42 -56 -95 -98.5t-108.5 -73t-110 -51t-100.5 -32t-79.5 -15.5t-47.5 -2q-23 3 -42.5 11.5t-35.5 19t-28 21.5t-20 20l-11 5.5t-8 4.5q-4 3 -7 5q1 0 4 -1q6 -2 11 -2q-1 1 -1 2l-1 1l29 -7q11 -1 22.5 -0.5t21.5 2.5
q41 10 67 28.5t40 37.5q17 22 25 46q-12 -19 -28 -37q-14 -15 -33.5 -31t-44.5 -27q-14 -5 -26.5 -7t-22.5 -2q-11 0 -22 2q22 6 46 17q20 9 43.5 25t44.5 39q19 21 30.5 45.5t18.5 45.5q8 25 11 49q-21 -3 -47 -14q-23 -11 -54.5 -32t-69.5 -60q-30 -31 -54 -61.5
t-42 -58.5q-15 -22 -30.5 -56t-28.5 -66l-30 -78l-120 -380q1 17 5 40q3 19 8 46t13 61q4 17 4.5 19.5t-1.5 -4.5l-6 -21.5t-8 -32.5l-28 -107q-12 -7 -23 -4q-9 2 -16.5 13.5t-8.5 42.5q-1 24 10 76.5t31 121.5t48.5 149t61.5 160q12 42 43 110.5t74.5 149.5t95.5 166.5
t107 159.5q48 66 96 111t90 74l-73 -76q-41 -44 -80 -97t-73 -105.5t-62 -101l-47 -82.5q3 5 6.5 8.5l7.5 7.5l51.5 82.5l62.5 94.5t67.5 93.5t66.5 78.5q5 6 10 11l10 10q69 71 108 99.5t50 34.5l4 2q8 3 14.5 4.5t11.5 3.5l9 3l31 -39v-1h-1v-1q-1 -3 -4.5 -10.5t-13 -23
l-26 -41.5t-43.5 -65q-18 -27 -48 -62l-66 -74l-75 -79.5l-75 -77l-66.5 -66l-48.5 -47.5q-25 -46 -47 -90.5l-42 -84.5h1l-2 -4q21 28 47 58t56.5 57.5t65 50.5t73.5 38q1 -1 3 -1q2 -1 4.5 -1t5.5 -1l24 -20l26 -23t23.5 -25t16.5 -25q-2 -31 -23 -66.5t-50.5 -66
t-62 -51.5t-56.5 -22q1 -5 7 -9t12 -7q7 -4 16 -6q41 -3 90.5 7t100.5 29t100.5 45.5t92 57.5t75 64t48.5 65zM-49 -210l168.5 15t174.5 15l171 14l159 13l346 27q-2 -7 -6 -13q-3 -5 -8.5 -11t-12.5 -8q-6 -3 -29 -7l-49 -8.5t-48.5 -8t-26.5 -4.5l90 3q-9 -18 -18 -32
q-8 -12 -16.5 -22t-15.5 -10l-61 -3.5l-104.5 -6l-132.5 -8t-144 -8.5q-170 -11 -374 -23q40 9 93.5 17.5t114.5 15t126 12l127 10.5q144 11 303 17q-98 2 -230 -2q-113 -3 -276 -12.5t-374 -29.5q8 5 14.5 10.5t12.5 12.5q8 -2 6.5 0.5t6.5 4.5q15 2 18 3t-0.5 2t-10.5 1
h-11q5 6 9 12zM-232 -228l-15 -21l-13.5 -2t-13.5 -5q10 -1 22 2q-2 -3 -4 -5.5t-4 -5.5q-9 0 -13 -1q-2 -1 -2.5 -5.5t-4.5 -6.5q-8 -2 -17.5 -0.5t-15.5 -1.5q-6 -4 -12 -3.5t-9 -4.5l-4 -6q-167 -18 -348.5 -40.5t-381.5 -51.5q-132 -22 -254.5 -47t-237.5 -52q-2 2 -2 4
t-1 3l-7 7q4 2 7.5 4t6.5 4q8 4 17.5 3t19.5 1q9 2 17 7t18 3q5 -2 8.5 -4t8.5 0q14 5 27 12t28 8q21 2 43 6t43 9q84 18 159 50q204 42 431.5 77t483.5 60zM477 842q-42 -44 -101 -113.5t-123 -161.5q-27 -39 -55 -85t-55 -95l65.5 61.5t79.5 79.5q27 27 55 61t54.5 69.5
t50 70.5t41 63.5t28 48t11.5 24.5q0 8 -7.5 5.5t-17 -8.5t-17.5 -12.5t-9 -7.5zM-1725 -502q10 0 21 -3q-14 -8 -29 -13.5t-29 -13.5q-14 -4 -28.5 -2.5t-28.5 -4.5q-11 -5 -24 -5t-26 1l44.5 12.5t45.5 12.5q11 4 22 7l22 6zM-1667 -494q-2 1 -3 2.5t-3 3.5l36.5 10
l38.5 10q-19 -16 -40 -20q-7 -2 -14 -5.5t-15 -0.5zM-110 -5l-32 -90.5t-14 -39.5q1 2 14.5 36l35.5 86q-2 2 -4 8zM66 376v1v-1z" />
    <glyph glyph-name="h.ss03" unicode="&#xe04e;" horiz-adv-x="823" 
d="M844 278l-64 -72l-77 -83.5l-79 -82t-71 -67.5l-73 -63.5t-89 -71l-94 -68.5t-88 -54.5t-71 -28.5t-43 8q-8 9 -7 36t9 66t22 86.5t31.5 99t38.5 104.5l42 101q7 17 15 33.5l16 31.5l10 21h1l4 8l7.5 15t8.5 15h2l7.5 11t5.5 9q3 4 4 7h-8q-10 1 -29 -8q-17 -8 -45 -27
t-72 -57q-29 -25 -54.5 -52t-47 -54t-39 -52l-30.5 -44l-19 -23.5t-11 -14.5l-4 -8v1q0 1 1 3q3 13 14 48t34 87q7 16 7.5 19t-2.5 -4t-9.5 -20.5t-13.5 -30.5l-45 -101q-13 -5 -23 -1q-8 4 -14 16.5t-2 43.5q2 20 16.5 58.5t37 88.5t53 109t66 121t75 123t79.5 116
q48 66 96 111t90 74l-73 -76q-37 -39 -72 -86t-67 -95t-58.5 -93l-46.5 -81l-32 -59t-14 -26q4 6 19 31l37.5 61.5l51 80.5l59.5 88l63 85.5t61 72.5l9.5 11t9.5 10q41 42 71.5 68.5t50.5 41.5q24 18 40 25q8 3 14.5 5t11.5 4t10 3l30 -39q-1 -6 -11 -24q-8 -15 -26.5 -42.5
l-50.5 -75.5q-18 -27 -48 -62l-66 -74l-75 -79.5l-75 -77l-66.5 -66l-48.5 -47.5l-59.5 -116l-50.5 -103q15 19 33 39l34.5 38.5t42.5 44.5l11 11q4 3 7 6.5t6 6.5q56 52 108.5 77t85.5 34l36 9l44 -48q-5 -5 -14 -16.5t-24 -34.5l-7 -11l-3 -5l-1 -1l-22 -33.5t-16 -28.5
q-8 -16 -17 -38.5l-16 -39.5l-4 2l-4 -11l1 -9l2 1l52 102l15 30l5 6q-23 -64 -49.5 -123.5t-50.5 -119.5h-9q-7 -7 -13.5 -12.5l-12.5 -10.5h19l-56 -123l-19.5 -47.5t-15.5 -43t-8.5 -33t0.5 -17.5q68 27 137 71t136 97t129 110.5t115.5 112t96 102l70.5 80.5zM487 -130
l167 15t171.5 15l167.5 14l155 13q172 14 335 26q-2 -7 -6 -13q-3 -5 -8.5 -11t-12.5 -8q-6 -3 -29 -7l-49 -8.5t-48.5 -8t-26.5 -4.5l90 3q-9 -18 -18 -32q-8 -12 -16.5 -22t-15.5 -10l-61 -3.5l-104.5 -6l-132.5 -8t-144 -8.5q-170 -11 -374 -23q40 9 93.5 17.5t114.5 15
t126 12l127 10.5q144 11 303 17q-98 2 -230 -2q-113 -3 -276 -12.5t-374 -29.5q8 5 14.5 10.5t12.5 12.5q8 -2 6.5 0.5t6.5 4.5q15 2 18 3t-0.5 2t-10.5 1h-11q5 6 20.5 12.5t19.5 12.5zM85 -167l-15 -21l-13.5 -2t-13.5 -5q10 -1 22 2q-2 -3 -4 -5.5t-4 -5.5q-9 0 -13 -1
q-2 -1 -2.5 -5.5t-4.5 -6.5q-8 -2 -17.5 -0.5t-15.5 -1.5q-6 -4 -12 -3.5t-9 -4.5l-4 -6q-167 -18 -348.5 -40.5t-381.5 -51.5q-132 -22 -254.5 -47t-237.5 -52q-2 2 -2 4t-1 3l-7 7q4 2 7.5 4t6.5 4q8 4 17.5 3t19.5 1q9 2 17 7t18 3q5 -2 8.5 -4t8.5 0q14 5 27 12t28 8
q21 2 43 6t43 9q84 18 159 50q204 42 431.5 77t483.5 60zM489 864q-42 -44 -101 -113.5t-122 -161.5q-28 -39 -55.5 -85l-54.5 -95l64.5 61.5l80.5 79.5q26 27 54 61t54.5 69.5t50 70.5t41 63.5t28 48t11.5 24.5q1 8 -7 5.5t-18 -8.5q-11 -8 -26 -20zM-1408 -441q10 0 21 -3
q-14 -8 -29 -13.5t-29 -13.5q-14 -4 -28.5 -2.5t-28.5 -4.5q-11 -5 -24 -5t-26 1l44.5 12.5t45.5 12.5q11 4 22 7l22 6zM145 -277q-2 10 1 32t18 66q12 35 17.5 54.5t7.5 29.5q2 11 1 14q-16 -45 -28 -82l-20 -60.5t-10 -36.5q-1 -11 0 -20h2zM-1350 -433q-2 1 -3 2.5
t-3 3.5l36.5 10l38.5 10q-19 -16 -40 -20q-7 -2 -14 -5.5t-15 -0.5z" />
    <glyph glyph-name="k.ss03" unicode="&#xe04f;" horiz-adv-x="890" 
d="M906 260q-26 -29 -67 -70l-89 -86l-99 -90l-98 -84l-75 -61.5l-89.5 -72l-94 -70.5t-88 -56.5t-71 -30.5t-43.5 7q-12 14 -4.5 64.5t27.5 119.5t49 148t61 151h-1q10 26 22 50.5t24 45.5q9 19 18.5 35.5l17.5 30.5h-4q-11 1 -30 -8q-17 -8 -45 -27.5t-72 -57.5
q-28 -24 -53.5 -51.5t-47.5 -54.5t-39.5 -51.5l-30.5 -43.5l-30 -39l-4 -7v1q0 1 1 3q4 12 15 47.5t33 87.5q7 16 8 18.5t-2 -4.5t-9.5 -20.5t-13.5 -30.5l-45 -101q-13 -5 -23 -1q-8 4 -14 17t-2 44q2 20 16 58.5t37 88.5t53.5 109t66 121t74.5 123t79 116q48 66 96 111
t90 74l-33.5 -34.5l-39.5 -41.5q-37 -40 -72 -87t-67 -95t-58.5 -93l-46.5 -81l-32 -59t-14 -26q4 6 19 31.5l37.5 61.5l51 80l59.5 88.5t63 86t61 72.5l19 21q41 42 71.5 68.5t50.5 41.5q24 18 40 25q8 3 15 5t12 4l9 3l30 -39q-1 -6 -11 -24q-8 -15 -26.5 -42.5
l-50.5 -75.5q-18 -27 -48 -62l-65.5 -74l-74.5 -79.5l-75.5 -77l-66.5 -66l-49 -47.5l-51.5 -100.5l-45.5 -92.5q33 36 72.5 75l82 78l87 78l88.5 75q45 37 78.5 61t57.5 38.5t39.5 21t24.5 7.5q22 3 20 -19l36 -45q-20 -8 -44 -21q-20 -11 -47 -28.5t-57 -42.5q2 7 9 17
q5 8 16 20t30 28q-2 -1 -21 -7.5t-51 -21.5t-75.5 -40t-93.5 -64q17 8 32.5 13l27.5 9q11 3 20 4.5t17 3.5l1 -1h2l43 -47q-5 -5 -14 -16.5t-24 -34.5l-27 -41.5t-22 -37.5q0 -1 -0.5 -1.5t-0.5 -1.5q-1 0 -2 -0.5t-2 -0.5l-18.5 -43.5t-16.5 -40.5l1 -8h2l52 102l8 15.5
t7 15.5l5 5q-23 -63 -49.5 -122.5t-50.5 -119.5l-9 -1q-7 -7 -13.5 -12l-12.5 -10h19l-56 -123l-19.5 -47.5t-15.5 -43t-8.5 -33t0.5 -17.5q32 10 90.5 47.5t131 92l151.5 119l151.5 129l133 122t94.5 97.5zM522 -133l167.5 15t172 15l167.5 13.5l155 12.5l335 25
q-2 -7 -6 -13q-3 -5 -8.5 -11t-12.5 -8q-6 -3 -29 -7l-49 -8.5t-48.5 -8t-26.5 -4.5l90 3q-9 -18 -18 -32q-8 -12 -16.5 -22t-15.5 -10l-61 -3.5l-104.5 -6l-132.5 -8t-144 -8.5q-170 -11 -374 -23q40 9 93.5 17.5t114.5 15t126 12l127 10.5q144 11 303 17q-98 2 -230 -2
q-113 -3 -276 -12.5t-374 -29.5q8 5 14.5 10.5t12.5 12.5q8 -2 6.5 0.5t6.5 4.5q15 2 18 3t-0.5 2t-10.5 1h-11q5 6 20 13.5t19 13.5zM97 -173l-15 -21l-13.5 -2t-13.5 -5q10 -1 22 2q-2 -3 -4 -5.5t-4 -5.5q-9 0 -13 -1q-2 -1 -2.5 -5.5t-4.5 -6.5q-8 -2 -17.5 -0.5
t-15.5 -1.5q-6 -4 -12 -3.5t-9 -4.5l-4 -6q-167 -18 -348.5 -40.5t-381.5 -51.5q-132 -22 -254.5 -47t-237.5 -52q-2 2 -2 4t-1 3l-7 7q4 2 7.5 4t6.5 4q8 4 17.5 3t19.5 1q9 2 17 7t18 3q5 -2 8.5 -4t8.5 0q14 5 27 12t28 8q21 2 43 6t43 9q84 18 159 50q204 42 431.5 77
t483.5 60zM487 816l-101.5 -114t-122.5 -161q-28 -40 -55.5 -85.5l-54.5 -94.5l64.5 61.5l80.5 78.5q26 27 54 61t54.5 69.5t50 70.5l41.5 63.5t28.5 48t10.5 25.5q1 8 -6.5 5.5t-17.5 -8.5q-11 -8 -26 -20zM-1396 -447q10 0 21 -3q-14 -8 -29 -13.5t-29 -13.5
q-14 -4 -28.5 -2.5t-28.5 -4.5q-11 -5 -24 -5t-26 1l44.5 12.5t45.5 12.5q11 4 22 7l22 6zM143 -326q-2 10 1 32.5t18 65.5q12 35 17.5 55t7.5 30q2 11 1 14l-28 -83l-10.5 -32l-10 -29t-7.5 -22.5t-3 -13.5q-1 -5 -0.5 -10t1.5 -9h2zM-1338 -439q-2 1 -3 2.5t-3 3.5
l36.5 10l38.5 10q-19 -16 -40 -20q-7 -2 -14 -5.5t-15 -0.5zM9 78q3 3 5 7q0 1 -1 2z" />
    <glyph glyph-name="l.ss03" unicode="&#xe040;" horiz-adv-x="574" 
d="M584 347q5 -3 9 -6q8 -6 8 -8q0 -1 -17 -21l-45.5 -51.5l-64.5 -71.5l-74 -80.5l-75.5 -78t-67.5 -64.5l-73.5 -63t-89 -71.5l-94 -68.5t-88 -54.5t-71 -28.5t-43.5 8q-10 11 -7 45t14.5 82.5t30.5 107t42 119t48.5 119t49.5 106.5h1l51.5 99t58.5 104.5l63.5 103.5
t66.5 97q48 66 96 111t90 74l-33.5 -34.5l-39.5 -41.5q-37 -39 -72 -86t-67 -95t-58.5 -93l-46.5 -81l-32 -59t-14 -26q4 6 19 31l37.5 61.5l51 80.5l59.5 88l63 85.5t61 72.5l9.5 11t9.5 10q41 42 71.5 68.5t50.5 41.5q24 18 40 25q8 3 15 5t12 4l9 3l30 -39q-1 -6 -11 -24
q-8 -15 -26.5 -42.5l-50.5 -75.5q-24 -35 -70 -86t-99.5 -105l-106 -104.5l-89.5 -85.5l-30 -55h1l-5 -8l-16 -32l-7 -3l-21 -32t-15 -27q-9 -19 -20 -45t-17 -43v-9l3 1l51 102l16 30l4 6q-22 -64 -48.5 -123.5t-50.5 -119.5h-9l-26 -23h19l-56 -123l-19.5 -47.5t-15.5 -43
t-8.5 -33t0.5 -17.5q64 27 129 68.5t128 90.5t122.5 103l112.5 106q123 121 237 259zM131 -183l167.5 15t172 15l167.5 14l155 13l336 27q-2 -7 -6 -13q-3 -5 -8.5 -11t-12.5 -8q-6 -3 -29 -7l-49 -8.5t-48.5 -8t-26.5 -4.5l90 3q-9 -18 -18 -32q-8 -12 -16.5 -22t-15.5 -10
l-61 -3.5l-104.5 -6l-132.5 -8t-144 -8.5q-170 -11 -374 -23q40 9 93.5 17.5t114.5 15t126 12l127 10.5q144 11 303 17q-98 2 -230 -2q-113 -3 -276 -12.5t-374 -29.5q8 5 14.5 10.5t12.5 12.5q8 -2 6.5 0.5t6.5 4.5q15 2 18 3t-0.5 2t-10.5 1h-11q5 6 19.5 12t18.5 12z
M-228 -215q5 1 3 1.5t3 1.5l-14 -21q-7 -1 -7 -2t-7 -5q5 -1 6.5 -2t6.5 1q-2 -3 -3 -5.5t-3 -5.5q-4 0 -3.5 1.5t-2.5 0.5q-2 -1 -2.5 -5.5t-4.5 -6.5q-8 -2 -17.5 -0.5t-15.5 -1.5q-6 -4 -12 -3.5t-9 -4.5l-4 -6q-167 -18 -348.5 -40.5t-381.5 -51.5q-132 -22 -254.5 -47
t-237.5 -52q-2 2 -2 4t-1 3l-7 7q4 2 7.5 4t6.5 4q8 4 17.5 3t19.5 1q9 2 17 7t18 3q5 -2 8.5 -4t8.5 0q14 5 27 12t28 8q21 2 43 6t43 9q84 18 159 50q204 42 431.5 77t483.5 60zM256 584q-26 -37 -51.5 -79t-50.5 -88q1 2 9 10.5l23.5 25l41 42.5l62.5 64q40 40 82 93
t77 101.5t57.5 84.5t23.5 44t-6.5 5.5t-17 -8.5t-18 -13l-8.5 -7q-42 -44 -101.5 -113.5t-122.5 -161.5zM-1701 -486q10 0 21 -3q-14 -8 -29 -13.5t-29 -13.5q-14 -4 -28.5 -2.5t-28.5 -4.5q-11 -5 -24 -5t-26 1l44.5 12.5t45.5 12.5q11 4 22 7l22 6zM-151 -284q-2 10 1 32
t18 66q12 35 17.5 54.5t7.5 29.5q2 11 1 14q-16 -45 -28 -82l-20.5 -60.5t-10.5 -36.5q-1 -6 -0.5 -10.5t1.5 -9.5h2zM-1643 -478q-2 1 -3 2.5t-3 3.5l36.5 10l38.5 10q-19 -16 -40 -20q-7 -2 -14 -5.5t-15 -0.5z" />
    <glyph glyph-name="t.ss03" unicode="&#xe041;" horiz-adv-x="595" 
d="M-137 -280q15 -23 52.5 -14t90 40t115 79t127.5 104l128 115l116 111t91 93.5t53 61.5q7 -7 11 -12t7 -9.5t2 -5.5l-54 -56l-93.5 -93.5l-121.5 -115.5l-136.5 -121t-139 -110t-129 -82.5t-106 -39t-70.5 21.5q-10 11 -7 45t14.5 82.5t30.5 107.5t41.5 119.5t48 118.5
t49.5 106q1 1 2 1l16.5 33l17.5 34l-36.5 4t-36.5 7q-23 5 -43.5 13t-35.5 15q-18 8 -33 16h3q32 -11 81.5 -21.5t112.5 -11.5q42 79 91.5 161t102.5 154q48 66 96 111t90 74l-73 -76q-48 -51 -93.5 -114.5t-83 -124.5t-65 -111l-40.5 -74h1l27.5 45l40 64.5l49 75.5
l54.5 79l56 75t54 64l20 21q41 42 71.5 68.5t50.5 41.5q24 18 40 25q8 3 14.5 5t11.5 4l9 3l31 -39q-2 -6 -12 -24q-8 -15 -26 -42.5l-50 -75.5q-16 -24 -42.5 -54.5l-59 -65l-68.5 -71l-71.5 -71l-67.5 -65.5l-57 -54q0 -1 -0.5 -1.5t-0.5 -1.5q9 2 18 3.5t18 3.5
q81 17 133.5 32t84.5 27q37 14 57 26l18 -28q-1 -1 -2 -3t-2 -3.5t-3 -3.5l16 -16q-9 -12 -23 -23q-12 -10 -30 -19.5t-41 -15.5q-24 -6 -56.5 -10.5l-61.5 -8.5q-34 -4 -70 -7l57 15q22 6 39 12.5l30 11.5q14 6 26 13l-40 -8.5l-45.5 -9t-47 -8l-44.5 -6.5h-1
q-11 -2 -22.5 -2.5t-23.5 -1.5l-12 -22h1l-5 -8l-17 -33l-7 -2q-11 -16 -20.5 -32t-14.5 -27q-9 -19 -20 -45l-18 -43l1 -9l2 1l52 101l16 31l4 6q-23 -64 -49 -123.5l-51 -119.5l-8 -1l-27 -22h19l-56 -123l-19.5 -47.5t-15.5 -43t-8.5 -33t1.5 -17.5zM198 -189
q81 7 167.5 15.5l173 16.5l169.5 15.5l157 14.5l341 31q-2 -7 -6 -13q-3 -5 -8.5 -11t-12.5 -8q-6 -3 -29 -7l-49 -8.5t-48.5 -8t-26.5 -4.5l90 3q-9 -18 -18 -32q-8 -12 -16.5 -22t-15.5 -10l-61 -3.5l-104.5 -6l-132.5 -8t-144 -8.5q-170 -11 -374 -23q40 9 87 17.5
t97 15.5t101 12.5t98 9.5q110 10 225 16q-54 2 -152 -2q-83 -3 -222.5 -12.5t-349.5 -28.5q8 5 14.5 10.5t12.5 12.5q8 -2 6.5 0.5t6.5 4.5q15 2 18 3t-0.5 2t-10.5 1h-11q5 6 14.5 7.5t13.5 7.5zM-204 -204l-15 -21l-13.5 -2t-13.5 -5q10 -1 22 2q-2 -3 -4 -5.5t-4 -5.5
q-9 0 -13 -1q-2 -1 -2.5 -5.5t-4.5 -6.5q-8 -2 -17.5 -0.5t-15.5 -1.5q-6 -4 -12 -3.5t-9 -4.5l-4 -6q-167 -18 -348.5 -40.5t-381.5 -51.5q-132 -22 -254.5 -47t-237.5 -52q-2 2 -2 4t-1 3l-7 7q4 2 7.5 4t6.5 4q8 4 17.5 3t19.5 1q9 2 17 7t18 3q5 -2 8.5 -4t8.5 0
q14 5 27 12t28 8q21 2 43 6t43 9q84 18 159 50q204 42 431.5 77t483.5 60zM263 584q-26 -37 -51.5 -80l-51.5 -88l7 7.5l22.5 24l42 44l65.5 67.5q27 27 55 60l54.5 67l50.5 67t41.5 59.5t28 45t11.5 24.5q0 8 -7.5 5.5t-17 -8.5t-18 -13l-8.5 -7q-42 -45 -101 -114
t-123 -161zM-1697 -478q10 0 21 -3q-14 -8 -29 -13.5t-29 -13.5q-14 -4 -28.5 -2.5t-28.5 -4.5q-11 -5 -24 -5t-26 1l44.5 12.5t45.5 12.5q11 4 22 7l22 6zM-155 -287q8 2 11 2q-2 10 1 32.5t18 65.5q12 35 17.5 55t7.5 30q2 11 1 14l-28 -83l-10.5 -32t-9.5 -29l-7 -22.5
t-3 -13.5q-2 -12 1 -19h1zM-1639 -470q-2 1 -3 2.5t-3 3.5l36.5 10l38.5 10q-19 -16 -40 -20q-7 -2 -14 -5.5t-15 -0.5z" />
    <glyph glyph-name="z.ss03" unicode="&#xe042;" horiz-adv-x="921" 
d="M513 22q13 11 46.5 33l77 49.5l91.5 57.5l90 56l73 46t41 28l2 -30l-441 -279q-47 -89 -105.5 -186t-121.5 -182q-49 -66 -97 -110.5t-90 -73.5l33.5 34.5l39.5 41.5q41 43 80.5 96t74.5 106t63 101l47 82l-15 -17l-52 -81l-63.5 -94l-68.5 -93.5t-66 -78.5l-20 -21
q-42 -42 -72.5 -68.5t-50.5 -40.5q-24 -18 -40 -25q-8 -4 -14.5 -5.5t-11.5 -3.5t-9 -2l-31 39q2 6 12 24q8 15 26 42.5l51 75.5q18 26 48.5 61l66.5 74l75 79l75.5 75.5l67 65l49.5 47.5l10 19q3 5 10.5 20t15.5 34t14 37.5t5 29.5q-1 7 -14 9t-33 0.5t-45 -5t-49.5 -8.5
l-45.5 -9.5l-34 -7.5q-5 -3 -11 -4l-1 1q-1 0 -2 -1l-2 9l-20 31q6 1 11 4v1q1 1 2 1q2 0 5 1q2 1 5 1.5t5 2.5q78 34 122 80.5t65.5 90.5t27.5 79t7 46t-6.5 16.5t-16.5 8.5q-11 4 -25 4q-11 -2 -25 -6t-31 -11q-26 -11 -55.5 -29.5t-57.5 -41t-53 -46t-42.5 -43.5
t-26.5 -34.5t-5 -18.5q3 -3 16.5 2t33.5 15.5t44 25.5l49 30q-19 -36 -46.5 -58.5t-54 -35.5t-46.5 -18t-24 -5t-9 2t-8 9.5t-2.5 21t9.5 36.5q8 21 29 45t43.5 44.5t41.5 35.5t24 18q-3 -2 -18.5 -11.5t-35.5 -24t-40.5 -34t-34.5 -40.5q-15 -23 -22 -39.5t-10 -27.5
q-4 -13 -3 -22q-3 2 -7 4q-8 4 -8 8q-1 2 -1.5 5.5t-1.5 8.5t-1 11q-25 2 -30 18q-2 7 -0.5 17t9.5 24.5t23.5 34t42.5 45.5q43 42 91 73t94 52t87 30.5t70 7.5l37 -57q10 -9 17 -27l1 -1q11 -33 3.5 -86.5t-40.5 -113.5q-17 -30 -37.5 -55.5t-46.5 -47.5q12 1 30 2
q30 1 91 0q30 -2 46 -17.5t24 -34.5q9 -22 9 -49zM445 -188l168.5 15t174.5 15l171 14l159 13l346 27q-2 -7 -6 -13q-3 -5 -8.5 -11t-12.5 -8q-6 -3 -29 -7l-49 -8.5t-48.5 -8t-26.5 -4.5l90 3q-9 -18 -18 -32q-8 -12 -16.5 -22t-15.5 -10l-61 -3.5l-104.5 -6l-132.5 -8
t-144 -8.5q-170 -11 -374 -23q40 9 93.5 17.5t114.5 15t126 12l127 10.5q144 11 303 17q-98 2 -230 -2q-113 -3 -276 -12.5t-374 -29.5q8 5 14.5 10.5t12.5 12.5q8 -2 6.5 0.5t6.5 4.5q15 2 18 3t-0.5 2t-10.5 1h-11q5 6 9 12zM172 -212l-15 -21l-13.5 -2t-13.5 -5
q10 -1 22 2q-2 -3 -4 -5.5t-4 -5.5q-9 0 -13 -1q-2 -1 -2.5 -5.5t-4.5 -6.5q-8 -2 -17.5 -0.5t-15.5 -1.5q-6 -4 -12 -3.5t-9 -4.5l-4 -6q-167 -18 -348.5 -40.5t-381.5 -51.5q-132 -22 -254.5 -47t-237.5 -52q-2 2 -2 4t-1 3l-7 7q4 2 7.5 4t6.5 4q8 4 17.5 3t19.5 1
q9 2 17 7t18 3q5 -2 8.5 -4t8.5 0q14 5 27 12t28 8q21 2 43 6t43 9q84 18 159 50q204 42 431.5 77t483.5 60zM228 -297q28 39 56 84.5t55 94.5l-24 -22l-56.5 -53.5l-65.5 -64.5q-27 -27 -55 -60.5l-55 -69t-50.5 -70l-41.5 -63t-29 -48.5t-11 -25q0 -8 7.5 -5.5t17 8.5
t18 13l8.5 7q42 44 101.5 113t124.5 161zM-1321 -486q10 0 21 -3q-14 -8 -29 -13.5t-29 -13.5q-14 -4 -28.5 -2.5t-28.5 -4.5q-11 -5 -24 -5t-26 1l44.5 12.5t45.5 12.5q11 4 22 7l22 6zM-1263 -478q-2 1 -3 2.5t-3 3.5l36.5 10l38.5 10q-19 -16 -40 -20q-7 -2 -14 -5.5
t-15 -0.5zM932 296q5 1 0 -4v4z" />
    <glyph glyph-name="t.ss04" unicode="&#xe043;" horiz-adv-x="595" 
d="M790 623q84 7 166 12.5t148 10.5l147 10q-1 -6 -4 -11q-2 -5 -5 -9.5t-7 -6.5q-3 -3 -16 -6.5t-27.5 -6.5t-27 -5t-16.5 -2l51 -1q-7 -16 -13 -27q-5 -11 -10.5 -19t-9.5 -9h-33.5h-55.5t-70 -0.5t-76 -0.5q-90 -1 -197 -2q24 4 54 7.5t63 6.5t67.5 4.5t66.5 3.5
q76 3 155 4q-43 3 -101 4q-50 1 -123 -0.5t-167 -8.5h-1l-373 -25l-136 -14l-33.5 -53.5l-35.5 -55.5l-39 -61l-16 -30l-12 -22h1l-5 -8l-17 -33l-7 -2q-11 -16 -20.5 -32t-14.5 -27q-9 -19 -20 -45l-18 -43l1 -9l2 1l52 101l16 31l4 6q-23 -64 -49 -123.5l-51 -119.5l-8 -1
l-27 -22h19l-56 -123l-19.5 -47.5t-15.5 -43t-8.5 -33t1.5 -17.5q15 -23 52.5 -14t90 40t115 79t127.5 104l128 115l116 111t91 93.5t53 61.5q7 -7 11 -12t7 -9.5t2 -5.5l-54 -56l-93.5 -93.5l-121.5 -115.5l-136.5 -121t-139 -110t-129 -82.5t-106 -39t-70.5 21.5
q-10 11 -7 45t14.5 82.5t30.5 107.5t41.5 119.5t48 118.5t49.5 106q1 1 2 1l63.5 127t70.5 126q-118 -12 -250 -30q-93 -14 -179 -32l-167 -36v2v2q0 2 -2 3.5t-3 2.5q4 3 6 4t4 3q5 3 12 1.5t14 0.5q8 1 13 5t12 1q4 0 6 -2t5 0q10 4 19.5 9.5t18.5 4.5q16 2 31.5 4.5
t32.5 7.5q55 10 110 37q165 35 347 60q16 26 33.5 51.5l36.5 51.5q48 66 99 111t93 74l-73 -76t-82 -99.5t-75 -108.5q10 2 15 2q35 52 71.5 100.5t70.5 84.5l20 21l22.5 24.5l24.5 26.5l22.5 24t18.5 18l27 -29q-37 -36 -87.5 -90t-98.5 -133q0 -1 6.5 7.5l17 22l23.5 30
l24.5 31l20.5 25t12 13.5l-120 -167q41 5 82 8.5l84 7.5l15 2h1l87.5 6.5l94 7l87.5 6.5t69 4zM-155 -287q8 2 11 2q-2 10 1 32.5t18 65.5q12 35 17.5 55t7.5 30q2 11 1 14l-28 -83l-10.5 -32t-9.5 -29l-7 -22.5t-3 -13.5q-2 -12 1 -19h1zM57 356l42 68.5l64 100.5
q-4 -1 -12 -1q-34 -56 -58.5 -100.5l-36.5 -67.5h1zM-591 410q4 0 7 -1.5t8 -1.5q-11 -7 -21 -11t-20 -9q-11 -4 -21.5 -2.5t-18.5 -4.5q-8 -3 -16.5 -2.5t-19.5 0.5l63 19q8 5 16.5 7l16.5 4q2 0 3 1t3 1zM-550 414q-2 2 -2 3.5t-2 3.5q14 4 27 7t26 8q-11 -11 -28 -16
q-6 -2 -10.5 -5t-10.5 -1z" />
    <glyph glyph-name="a.ss05" unicode="&#xe044;" horiz-adv-x="638" 
d="M664 280l-97.5 -67.5l-128.5 -86.5l-1 -1q-4 -3 -27.5 -18t-56 -32t-67.5 -30.5t-62 -14.5q-5 0 -10 0.5t-10 1.5q-4 1 -6.5 2t-5.5 3q-15 9 -20.5 29t-5 42t4.5 43t7 32v-1v2l1 1l-202 -169q-6 -6 -11 -10t-9.5 -7t-7.5 -4q-4 -1 -9.5 0.5t-10.5 8t-7.5 20.5t0.5 37
q3 24 19 52t34 53q21 28 47 57q-22 -19 -41 -40q-17 -18 -34 -41t-25 -48q-9 -25 -12 -42.5t-3 -28.5q0 -13 3 -22q-4 1 -8 3q-3 2 -6 3.5t-4 3.5l-10 25q-25 -2 -34 13q-4 6 -5 16t3.5 26t15 38t30.5 51q23 35 50.5 64t56.5 53q-14 -5 -25 -7t-19 -4q-10 -2 -17 -2l-4 9
l137 54q32 18 61.5 28.5t52.5 12.5l75 -77q-1 -3 -1.5 -4t-0.5 -2q0 1 -5 5.5t-17 5.5t-33.5 -5t-55.5 -26q-23 -14 -47.5 -36.5t-46 -48.5t-40 -52.5t-31 -49t-17.5 -38t0 -19.5q3 -3 14.5 4t27.5 19.5t35.5 30l39.5 35.5l104 100l35 58l68 -32q-8 -13 -17 -30
q-8 -14 -17.5 -34l-20.5 -43q-1 -1 -6.5 -15.5t-10 -31t-5 -31t8.5 -15.5q6 -2 27.5 4t53.5 19.5t71 35t79 50.5l114 79l88 62zM-240 272q1 -2 1 -4.5v-3.5l3 -9l-4 -2t-4 -3q-4 -2 -8.5 1t-9.5 2q-5 0 -9 -3.5t-9 0.5q-2 2 -4 5t-4 2q-8 -3 -15 -8t-14 -3q-11 3 -22.5 3
t-22.5 -2q-82 -20 -184 -20t-213.5 11.5t-228 32t-226 43.5l-207 44t-171.5 34q2 6 5 12q2 5 5 9.5t7 6.5t16.5 1.5t26.5 -0.5q16 -1 35 -1l-45 14q7 17 13 29q5 11 10 19t9 7l44 -11.5l77 -19.5l92.5 -23l89.5 -22l70 -17l33 -8q-21 -3 -48.5 -1.5t-58 6t-63 11t-63.5 13.5
q-72 17 -150 39q38 -16 90 -33l109 -32.5t149 -35.5v1l278 -52v1q85 -14 176.5 -24.5t192.5 -18.5q67 -2 130 1t122 9zM-106 279q6 3 12.5 0.5t12.5 -5.5q-11 -3 -23 -5.5t-24 -4.5l-23 -5q-3 0 -5 -1q-4 1 -10 7q8 5 15.5 8.5t15.5 8.5q8 1 14.5 -3t14.5 0zM-200 261
q3 1 6.5 3t7.5 -3q1 0 3 -7q-10 -2 -19.5 -3.5t-19.5 -3.5q10 11 22 14z" />
    <glyph glyph-name="b.ss05" unicode="&#xe045;" horiz-adv-x="742" 
d="M209 25q26 5 65.5 21.5t87.5 40.5l100.5 52.5l104 58l99 58l85.5 51.5l14 -20l-94.5 -55.5l-111 -64l-114.5 -63t-106.5 -54t-86 -37t-52.5 -11.5q-32 5 -57.5 19t-43.5 29q-21 18 -38 39l5 -1q5 -1 14.5 -2.5t20.5 -2.5t23 -1t23 2q41 10 66.5 29t39.5 38q17 22 25 46
q-12 -19 -28 -37q-14 -15 -33.5 -31.5t-44.5 -26.5q-12 -5 -24.5 -7t-22 -2.5t-16 0.5t-7.5 1q1 0 14.5 4.5t33 14t42.5 24.5t43 38q19 22 30.5 46.5t18.5 45.5q8 25 11 48q-21 -3 -47 -14q-23 -10 -54 -31.5t-70 -60.5q-39 -40 -67.5 -79t-47.5 -71q-22 -37 -38 -71l-25 -3
q-2 -5 -3 -6t-1 -2q4 17 11 39q6 19 15.5 44.5t23.5 57.5q7 16 7.5 18.5t-2.5 -4.5t-9.5 -20.5t-13.5 -30.5l-45 -101q-13 -5 -23 -1q-8 4 -14 16.5t-2 43.5q4 29 29 90.5t65 140.5l-16.5 -6.5t-17.5 -6.5q-18 -7 -33.5 -11t-26.5 -6q-13 -3 -25 -4l-4 9l138 54l47.5 89
l53.5 92l57.5 90.5l59.5 85.5q48 66 96 111t90 74l-73 -76q-37 -40 -72 -87t-67 -95t-59 -93l-47 -81l-32 -59t-14 -26q4 6 19 31l37.5 61.5l51 80.5l59.5 88.5t63 86t61 72.5l20 21q41 42 71.5 68t50.5 41q24 18 40 26q8 3 14.5 5t11.5 4l9 3l31 -39q-2 -6 -12 -24
q-8 -15 -26 -43l-50 -76q-18 -26 -48 -61.5l-66 -74.5l-75 -79l-75 -76.5l-66.5 -66l-48.5 -47.5q-37 -69 -68.5 -133.5l-54.5 -113.5q19 30 47 69t64.5 77.5t80.5 72t95 53.5q1 -1 3 -1q2 -1 4.5 -1t5.5 -1l24 -20l26 -23t23.5 -25t16.5 -25q-1 -32 -23 -68t-52 -67
t-63 -51.5t-57 -19.5h-9q1 -5 6 -9.5t12 -7.5q7 -4 17 -6zM-313 224q1 -2 1 -4.5v-3.5l3 -9l-4 -2t-4 -3q-4 -2 -8.5 1t-9.5 2q-5 0 -9 -3.5t-9 0.5q-2 2 -4 5t-4 2q-8 -3 -15 -8t-14 -3q-11 3 -22.5 3t-22.5 -2q-60 -15 -126 -19t-135 -1t-140.5 12t-142 20.5l-140 23.5
t-134.5 22l1 1q-75 14 -148.5 29.5l-132.5 28.5l-132 28q2 6 5 12q2 5 5 9.5t7 6.5t16.5 1.5t26.5 -0.5q16 -1 35 -1l-45 14q7 17 13 29q5 11 10 19t9 7l44 -11.5l77 -19.5l92.5 -23l89.5 -22l70 -17l33 -8q-21 -3 -48.5 -1.5t-58 6t-63 11t-63.5 13.5q-72 17 -150 39
q38 -16 90 -33l109 -32.5t149 -35.5v1l278 -52v1q85 -14 176.5 -24.5t192.5 -18.5q67 -2 130 1t122 9zM255 569l-55 -85.5t-55 -94.5l65.5 61.5l79.5 78.5q27 27 55 61t54.5 69.5t50 70.5t41 63.5t28 48t11.5 25.5q0 8 -7.5 5.5t-17 -8.5t-18 -13l-8.5 -7
q-42 -45 -101 -114.5t-123 -160.5zM-179 231q6 3 12.5 0.5t12.5 -5.5q-11 -3 -23 -5.5t-24 -4.5l-23 -5q-3 0 -5 -1q-4 1 -10 7q8 5 15.5 8.5t15.5 8.5q8 1 14.5 -3t14.5 0zM-273 213q3 1 6.5 3t7.5 -3q1 0 3 -7q-10 -2 -19.5 -3.5t-19.5 -3.5q10 11 22 14z" />
    <glyph glyph-name="c.ss05" unicode="&#xe046;" horiz-adv-x="696" 
d="M-200 310q1 -2 1 -4.5v-3.5l3 -9l-4 -2t-4 -3q-4 -2 -8.5 1t-9.5 2q-5 0 -9 -3.5t-9 0.5q-2 2 -4 5t-4 2q-8 -3 -15 -8t-14 -3q-11 3 -22.5 3t-22.5 -2q-82 -20 -184 -20t-213.5 12t-228 32.5t-226 43l-207 43.5t-171.5 34q2 6 5 12q2 5 5 9.5t7 6.5t16.5 1.5t26.5 -0.5
q16 -1 35 -1l-45 14q7 17 13 29q5 11 10 19t9 7l44 -11.5l77 -19.5l92.5 -23l89.5 -22l70 -17l33 -8q-21 -3 -48.5 -1.5t-58 6t-63 11t-63.5 13.5q-72 17 -150 39q38 -16 90 -33l109 -32.5t149 -35.5v1l278 -52v1q85 -14 176.5 -24.5t192.5 -18.5q67 -2 130 1t122 9z
M734 335q2 -6 3.5 -12t3.5 -12l-70 -41.5l-89 -52.5l-100.5 -57.5l-102.5 -56.5t-95.5 -49t-80.5 -36q-3 -3 -10 -7q-6 -3 -16 -5.5t-26 -3.5q-8 -1 -28 -2t-44.5 1t-50.5 7.5t-46 17.5t-31.5 32.5t-7.5 52.5l2 10.5t3 13.5q6 22 25 47t39 47q24 26 52 51q-23 -17 -44 -35
q-18 -16 -37 -37t-30 -43q-11 -23 -16 -38t-7 -26q-2 -12 0 -20q-3 1 -7 3q-8 4 -9 6q-2 5 -4 13l-2 10q-23 0 -30 13q-3 6 -2.5 15t6.5 23.5t19 34t35 45.5q21 25 44.5 46.5t46.5 40.5q-11 -3 -19.5 -5t-15.5 -3q-8 -1 -14 -1l-4 9l134 52q38 20 71 31t59 13l49 -59
q7 -9 14 -17q5 -7 10.5 -13.5t7.5 -10.5q1 -3 -12 -13.5t-34.5 -23.5t-48 -25.5t-51.5 -21.5l-67 -24l59 38l46 31.5t34 24.5q18 15 28 26t8 20q-11 2 -32.5 -2t-60.5 -24q-23 -12 -46.5 -30.5t-46.5 -40t-43.5 -44t-35.5 -42.5q-18 -25 -29 -49q-10 -20 -13.5 -41t8.5 -34
l1 -1l2 -2l-1 2q4 -2 18.5 -5.5t41.5 -4t66 3.5t92 19q61 17 106 34.5t75 32.5l101 55.5l97.5 56l86 51.5zM-66 317q6 3 12.5 0.5t12.5 -5.5q-11 -3 -23 -5.5t-24 -4.5l-23 -5q-3 0 -5 -1q-4 1 -10 7q8 5 15.5 8.5t15.5 8.5q8 1 14.5 -3t14.5 0zM-160 299q3 1 6.5 3t7.5 -3
q1 0 3 -7q-10 -2 -19.5 -3.5t-19.5 -3.5q10 11 22 14zM-17 52l1 -1h-1v1z" />
    <glyph glyph-name="d.ss05" unicode="&#xe047;" horiz-adv-x="691" 
d="M732 272q-2 -2 -26.5 -19.5l-63 -45l-87 -60.5l-99.5 -65.5t-101 -61t-90.5 -45.5t-69 -20.5t-35.5 14.5q-1 1 -1 2.5t-1 3.5t-2 3v1q-2 2 -7 21.5t0 45.5q5 22 9 32.5t5 12.5q-1 -1 -12 -19.5t-12 -56.5q-1 -8 -1 -13.5v-10.5q-6 6 -12.5 16t-10 23.5t-2.5 29.5t9 34
q10 23 22.5 48.5l26.5 54.5l-88.5 -70t-87.5 -64.5t-72.5 -46t-43.5 -13.5q-9 3 -14 8.5t-8 13.5l-1 -1q-3 13 -1 32l5 24l8 20q11 21 28.5 43t35.5 40q20 21 44 42q-23 -17 -44 -35q-18 -16 -37 -36.5t-30 -42.5q-11 -23 -16 -38.5t-7 -26.5q-2 -12 0 -20q-3 1 -7 3
q-8 4 -9 6q-2 5 -4 13l-2 10q-23 -1 -30 13q-3 6 -2.5 15.5t6.5 23.5t19 34t36 46q14 17 29.5 32.5t31.5 29.5q-15 -5 -28 -8t-23 -5q-11 -2 -20 -3l-4 9l134 52q51 35 99 54t82 21l60 -72l-3 -6q-5 9 -18 11q-11 2 -32.5 -3t-56.5 -23q-22 -12 -46 -30.5t-47 -40t-43.5 -44
t-35.5 -42.5v-1l-2 -2l-6 -10t-11 -22.5t-6 -24.5t8 -16q6 -3 35.5 14.5t70.5 46l86.5 62.5l84.5 64l50 94.5l56.5 99l61 98t63.5 92.5q48 66 96 111t90 74l-73 -76q-37 -39 -72 -86t-67 -95t-59 -93l-47 -81l-32 -59t-14 -26q4 6 19 31l37.5 61.5l51 80.5l59.5 88.5t63 86
t61 72.5l20 20q41 42 71.5 68.5t50.5 41.5q24 18 40 26q8 3 14.5 4.5t11.5 3.5l9 3l31 -39q-2 -6 -12 -24q-8 -15 -26 -42.5l-50 -75.5q-16 -24 -42.5 -54.5l-59 -65l-68.5 -71l-71.5 -71l-67.5 -65.5l-57 -54l-57 -110l-50 -102q-1 -1 -8 -17.5t-13 -36t-7.5 -35.5t8.5 -16
q32 -2 82.5 19.5t108 54.5t116 72.5l106.5 73.5l79.5 57t34.5 25zM-339 224q1 -2 1 -4.5v-3.5l3 -9l-4 -2t-4 -3q-4 -2 -8.5 1t-9.5 2q-5 0 -9 -3.5t-9 0.5q-2 2 -4 5t-4 2q-8 -3 -15 -8t-14 -3q-11 3 -22.5 3t-22.5 -2q-60 -15 -126 -19t-135 -1t-140.5 12t-142 20.5
l-140 23.5t-134.5 22l1 1q-75 14 -148.5 29.5l-132.5 28.5l-132 28q2 6 5 12q2 5 5 9.5t7 6.5t16.5 1.5t26.5 -0.5q16 -1 35 -1l-45 14q7 17 13 29q5 11 10 19t9 7l44 -11.5l77 -19.5l92.5 -23l89.5 -22l70 -17l33 -8q-21 -3 -48.5 -1.5t-58 6t-63 11t-63.5 13.5
q-72 17 -150 39q38 -16 90 -33l109 -32.5t149 -35.5v1l278 -52v1q85 -14 176.5 -24.5t192.5 -18.5q67 -2 130 1t122 9zM457 530q-26 -37 -51.5 -79.5l-51.5 -87.5l7 7l22.5 23.5l42 44l65.5 67.5q27 27 55 60l54.5 67l50.5 67t41.5 60t28 45.5t11.5 23.5q0 8 -7.5 5.5
t-17 -8.5t-18 -13l-8.5 -7q-42 -44 -101 -113.5t-123 -161.5zM-205 231q6 3 12.5 0.5t12.5 -5.5q-11 -3 -23 -5.5t-24 -4.5l-23 -5q-3 0 -5 -1q-4 1 -10 7q8 5 15.5 8.5t15.5 8.5q8 1 14.5 -3t14.5 0zM-299 213q3 1 6.5 3t7.5 -3q1 0 3 -7q-10 -2 -19.5 -3.5t-19.5 -3.5
q10 11 22 14z" />
    <glyph glyph-name="e.ss05" unicode="&#xe048;" horiz-adv-x="677" 
d="M740 311l-69 -41.5l-89.5 -52.5l-100.5 -57.5l-102 -56.5t-95.5 -49t-80.5 -36q-3 -3 -10 -7q-6 -3 -16 -5.5t-26 -3.5q-8 -1 -28 -2t-44.5 1t-50.5 7.5t-46 17.5t-31.5 32.5t-7.5 52.5l2 10.5t3 13.5q5 22 24 47t39 47q24 26 52 51q-23 -17 -44 -35q-18 -16 -36.5 -37
t-29.5 -43q-11 -23 -16 -38t-7 -26q-2 -12 -1 -20q-3 1 -7 3q-8 4 -8 6q-2 5 -4 13l-2 10q-23 0 -30 13q-3 6 -2.5 15t6.5 23.5t19 34t35 45.5q21 25 44.5 46.5t46.5 40.5q-11 -3 -19.5 -5t-15.5 -3q-8 -1 -14 -1l-4 9l134 52q38 20 71 31t59 13l48 -59l4.5 -5l10.5 -12
t11 -14l7 -10l15 -25q-3 -7 -10 -17q-6 -8 -17.5 -19t-31.5 -25t-40 -22t-36 -13q-18 -5 -36 -7l71 49q-7 -5 -21.5 -13.5t-34.5 -17.5t-44 -17.5t-48 -11.5q-23 -3 -41 -1.5t-20 1.5l-9 -12q-20 -27 -31 -52q-10 -21 -12.5 -42t12.5 -33l-3 3q21 -8 53 -10q27 -2 68 2
t99 20q60 17 105.5 34.5t75.5 32.5l100.5 55.5l97 56l86.5 51.5l67 41zM-200 310q1 -2 1 -4.5v-3.5l3 -9l-4 -2t-4 -3q-4 -2 -8.5 1t-9.5 2q-5 0 -9 -3.5t-9 0.5q-2 2 -4 5t-4 2q-8 -3 -15 -8t-14 -3q-11 3 -22.5 3t-22.5 -2q-60 -15 -126 -19t-135 -1t-140.5 12t-142 20.5
l-140 23.5t-134.5 22l1 1q-75 14 -148.5 29.5l-132.5 28.5l-132 28q2 6 5 12q2 5 5 9.5t7 6.5t16.5 1.5t26.5 -0.5q16 -1 35 -1l-45 14q7 17 13 29q5 11 10 19t9 7l44 -11.5l77 -19.5l92.5 -23l89.5 -22l70 -17l33 -8q-21 -3 -48.5 -1.5t-58 6t-63 11t-63.5 13.5
q-72 17 -150 39q38 -16 90 -33l109 -32.5t149 -35.5v1l278 -52v1q85 -14 176.5 -24.5t192.5 -18.5q67 -2 130 1t122 9zM188 333q-21 -11 -43.5 -28t-44 -36.5t-41 -40.5t-34.5 -40q1 0 15.5 6t36.5 16t48 24t51 31q4 2 5 4h1q26 18 45 34t31 29q14 14 23 27q-11 2 -32.5 -2
t-60.5 -24zM-66 317q6 3 12.5 0.5t12.5 -5.5q-11 -3 -23 -5.5t-24 -4.5l-23 -5q-3 0 -5 -1q-4 1 -10 7q8 5 15.5 8.5t15.5 8.5q8 1 14.5 -3t14.5 0zM-160 299q3 1 6.5 3t7.5 -3q1 0 3 -7q-10 -2 -19.5 -3.5t-19.5 -3.5q10 11 22 14z" />
    <glyph glyph-name="f.ss05" unicode="&#xe049;" horiz-adv-x="720" 
d="M768 292q2 -7 3.5 -13.5t3.5 -12.5l-106.5 -65.5l-139.5 -82.5h-1q-5 -3 -30.5 -17t-60 -29.5t-72 -28.5t-64.5 -13q-5 0 -9.5 0.5t-9.5 1.5q-7 2 -11 6q-15 10 -17 32.5t3 46.5t13 44.5l11 28.5q0 1 0.5 1t0.5 1v1l10 21l16 33.5l19 38.5t19 35q-19 -8 -38 -14
q-24 -6 -56.5 -11t-61.5 -8q-34 -4 -70 -7l58 15q21 5 38.5 12l29.5 12q14 6 26 13l-40 -8.5l-45.5 -9t-47 -8l-44.5 -6.5q-16 -30 -30 -59l-27 -55h1l-3 -5q-27 -57 -53 -125t-49 -136.5l-43 -133.5t-34.5 -116.5l-23.5 -84.5t-10 -38q0 2 5 41t21 105q4 17 4.5 19.5
t-1 -4.5t-5.5 -21.5l-9 -32.5l-28 -107q-12 -7 -23 -4q-9 2 -16.5 13.5t-8.5 42.5q-1 24 10 76.5t31 121.5t48.5 149t61.5 160q9 29 26.5 70t41.5 92l-31 -12q-18 -7 -33.5 -11t-26.5 -6q-13 -3 -25 -4l-4 9l130 51q-28 1 -56 4t-56 10q-23 5 -43.5 13t-35.5 15
q-18 8 -33 16h3q38 -13 98.5 -25t138.5 -8q46 91 104.5 189t121.5 184q48 66 96 110.5t90 73.5l-73 -76q-41 -44 -80 -97t-73.5 -106t-62.5 -101t-46 -82l14 16l52 82.5l63 94.5t67.5 93.5t65.5 79.5l20 20q41 42 71.5 68.5t50.5 41.5q24 18 40 26q8 3 14.5 4.5t11.5 3.5
l9 3l31 -39q-2 -6 -12 -24q-8 -15 -26 -42.5l-50 -75.5q-18 -27 -48 -62l-66 -74l-75 -79.5l-75 -76.5l-66.5 -65.5l-48.5 -47.5l-7.5 -13.5t-6.5 -13.5q77 16 127.5 31.5t80.5 26.5q35 13 54 25l36 -58q-5 -5 -14 -16.5t-24 -34.5l-27 -41.5t-22 -37.5l-9 -21l-10 -24
l-10 -23.5t-8 -19.5l1 -9l2 1l52 102l15 30l11 6l-32.5 -71.5t-27.5 -69.5t-14 -53.5t9 -22.5q5 -2 27.5 3t56.5 17.5t75.5 32.5t84.5 48l126 76zM-313 224q1 -2 1 -4.5v-3.5l3 -9l-4 -2t-4 -3q-4 -2 -8.5 1t-9.5 2q-5 0 -9 -3.5t-9 0.5q-2 2 -4 5t-4 2q-8 -3 -15 -8t-14 -3
q-11 3 -22.5 3t-22.5 -2q-82 -22 -184 -23.5t-213.5 10.5t-227.5 33t-225 44.5l-207 45.5t-173 35q2 6 5 12q2 5 5 9.5t7 6.5t16.5 1.5t26.5 -0.5q16 -1 35 -1l-45 14q7 17 13 29q5 11 10 19t9 7l44 -11.5l77 -19.5l92.5 -23l89.5 -22l70 -17l33 -8q-21 -3 -48.5 -1.5t-58 6
t-63 11t-63.5 13.5q-72 17 -150 39q38 -16 90 -33l109 -32.5t149 -35.5v1l278 -52v1q85 -14 176.5 -24.5t192.5 -18.5q67 -2 130 1t122 9zM271 606q-27 -39 -55 -85t-54 -94l64.5 60.5t79.5 79.5q27 27 55 61t54.5 69.5t50 70.5t41 63.5t28 48t11.5 24.5q0 8 -7.5 6t-17 -8
t-17.5 -13t-9 -7q-42 -45 -101 -114.5t-123 -161.5zM-138 -97l33 83q15 38 36 84.5l44 97.5l-52 -94l-25.5 -68l-19.5 -54q-10 -27 -16 -49zM-179 231q6 3 12.5 0.5t12.5 -5.5q-11 -3 -23 -5.5t-24 -4.5l-23 -5q-3 0 -5 -1q-4 1 -10 7q8 5 15.5 8.5t15.5 8.5q8 1 14.5 -3
t14.5 0zM-273 213q3 1 6.5 3t7.5 -3q1 0 3 -7q-10 -2 -19.5 -3.5t-19.5 -3.5q10 11 22 14z" />
    <glyph glyph-name="g.ss05" unicode="&#xe05a;" horiz-adv-x="680" 
d="M740 328l-73.5 -44l-94.5 -55l-60 -43l-95 -68l-110 -80.5l-104 -79.5l-35 -98l-40 -102.5t-44.5 -102t-47.5 -96.5q-38 -73 -78.5 -124.5t-77.5 -86.5l61 87q34 49 64.5 107.5t56.5 116.5t46.5 109.5t33.5 87.5l-12 -18l-39.5 -89.5l-48 -103t-52.5 -102.5t-53 -88
l-16 -23q-35 -48 -60.5 -79t-43.5 -49q-21 -21 -36 -31q-8 -5 -13.5 -8t-10.5 -5q-5 -3 -9 -3l-36 33q1 7 8 25q6 16 19 46.5t38 82.5q14 29 38.5 68.5l54 83.5l62 89.5l62.5 87l55.5 75l41.5 54.5l32.5 97.5l28.5 89.5q0 2 0.5 3t0.5 3q6 19 11.5 39t10.5 41l-40 -35
l-43 -37l-40.5 -34t-32.5 -25q-8 -5 -22.5 -13t-29.5 -15l-27 -12.5t-15 -5.5q-4 -1 -9.5 0.5t-9 8.5t-4 20.5t5.5 37.5q6 22 24 48.5t38.5 49.5t37.5 39.5l21 20.5q-3 -2 -17 -13.5t-32 -28.5t-36.5 -38.5t-30.5 -43.5q-12 -24 -17.5 -41.5t-7.5 -28.5q-2 -13 0 -22
q-4 1 -8 3q-8 4 -9 7q-1 2 -1.5 5.5t-1.5 8.5t-3 11q-25 -1 -32 14q-3 6 -2.5 16.5t7 26t20 36.5t37.5 50q29 34 60.5 62.5t63.5 51.5q-6 -2 -11 -2t-8 -1q-4 -1 -7 -1l-4 9l116 45q67 32 112 34l64 -79l-2 -4l-1 -1q-5 9 -19 11q-12 2 -34.5 -3t-60.5 -25
q-25 -14 -52 -35.5t-52.5 -46.5t-48 -51t-38 -48t-23 -37t-2.5 -19q4 -3 19.5 5.5t38 24t49 36l51.5 40.5l46 37.5l33 27.5q0 3 0.5 5.5t1.5 5.5q14 12 23.5 27t20.5 29l24 -6l-20 -77.5t-24 -85.5q6 17 13 35q5 15 12 33.5l13 35.5q3 15 6.5 29.5t5.5 27.5l22 -5
l-9.5 -41.5l-9.5 -41.5q-5 -32 -17 -80t-31 -107l108 82l105 77l46 31l69.5 45.5l39 25.5l17.5 11.5l4 2.5h1l71 43l56 34q2 -6 3.5 -12t3.5 -12zM-185 283q1 -2 1 -4.5v-3.5l3 -9l-4 -2t-4 -3q-4 -2 -8.5 1t-9.5 2q-5 0 -9 -3.5t-9 0.5q-2 2 -4 5t-4 2q-8 -3 -15 -8t-14 -3
q-11 3 -22.5 3t-22.5 -2q-81 -20 -183.5 -20t-214 11.5t-228 32t-226 43.5l-207 44t-171.5 34q2 6 5 12q2 5 5 9.5t7 6.5t16.5 1.5t26.5 -0.5q16 -1 35 -1l-45 14q7 17 13 29q5 11 10 19t9 7l44 -11.5l77 -19.5l92.5 -23l89.5 -22l70 -17l33 -8q-21 -3 -48.5 -1.5t-58 6
t-63 11t-63.5 13.5q-72 17 -150 39q38 -16 90 -33l109 -32.5t149 -35.5v1l278 -52v1q85 -14 176.5 -24.5t192.5 -18.5q67 -2 130 1t122 9zM-15 -361q21 44 41.5 93t39.5 102l-54.5 -70l-67.5 -91q-22 -31 -44.5 -68.5t-43.5 -77t-39 -77.5t-31 -68.5t-20.5 -51.5t-7.5 -26
q1 -8 8 -4.5t15.5 11t16 15.5l7.5 8q35 50 82.5 127.5t97.5 177.5zM-51 290q6 3 12.5 0.5t12.5 -5.5q-11 -3 -23 -5.5t-24 -4.5l-23 -5q-3 0 -5 -1q-4 1 -10 7q8 5 15.5 8.5t15.5 8.5q8 1 14.5 -3t14.5 0zM-145 272q3 1 6.5 3t7.5 -3q1 0 3 -7q-10 -2 -19.5 -3.5t-19.5 -3.5
q10 11 22 14z" />
    <glyph glyph-name="h.ss05" unicode="&#xe05b;" horiz-adv-x="866" 
d="M899 279q-17 -13 -51.5 -35.5t-80 -49t-99.5 -54t-111 -52t-114.5 -43.5t-110.5 -27q-15 -3 -28 -3q-10 0 -15 1l-33 -1q-27 6 -39.5 23.5t-14 42t5.5 53t19 57.5q27 68 81 150q-3 1 -8 1q-10 1 -29 -9q-17 -8 -45 -27t-73 -57q-28 -25 -53.5 -52t-47.5 -54t-39.5 -52
l-30.5 -44l-30 -38q-2 -6 -3 -7l-1 -2q1 0 1 1q0 3 1 5q3 12 14 47t33 88q7 16 8 18.5t-2 -4.5t-9.5 -20.5t-13.5 -30.5l-45 -101q-13 -5 -23 -1q-8 4 -14 16.5t-2 43.5q4 26 25.5 80.5t56.5 125.5l-13.5 -6t-14.5 -5q-18 -7 -33.5 -11t-26.5 -6q-13 -3 -25 -4l-4 9l131 51
q23 46 50 95l56 98.5t60.5 97.5t63.5 92q49 66 96.5 110.5t89.5 73.5l-73 -76q-37 -39 -72 -86t-67 -95t-58.5 -93l-46.5 -81l-32 -59t-14 -26q4 6 19 31l37.5 61.5l51 80.5l59.5 88.5t63 86t61 72.5l19 20q42 42 72 68.5t50 41.5q24 18 40 26q8 3 15 4.5t12 3.5l9 3l31 -39
q-2 -6 -12 -24q-8 -15 -26.5 -42.5l-50.5 -75.5q-18 -27 -48 -62l-65.5 -74l-74.5 -79.5l-75.5 -76.5l-66.5 -65.5l-49 -47.5l-59.5 -116.5l-49.5 -103.5q14 19 32 39l34.5 38.5t42.5 44.5l24 24q28 26 56 45t53 32t47 21.5t38 13.5l37 8l43 -48q-5 -5 -14 -16.5t-24 -34.5
l-27 -41.5t-22 -37.5l-9 -21l-10 -24l-10 -23.5t-8 -19.5l1 -9l2 1l52 102l15 30l11 6l-32.5 -71.5t-27.5 -69.5t-14 -53.5t9 -22.5q19 -5 62.5 6.5t99.5 33t118.5 50.5l120.5 58.5t105 56.5t72 46zM-313 224q1 -2 1 -4.5v-3.5l3 -9l-4 -2t-4 -3q-4 -2 -8.5 1t-9.5 2
q-5 0 -9 -3.5t-9 0.5q-2 2 -4 5t-4 2q-8 -3 -15 -8t-14 -3q-11 3 -22.5 3t-22.5 -2q-82 -20 -184 -20t-213.5 11.5t-228 32t-226 43.5l-207 44t-171.5 34q2 6 5 12q2 5 5 9.5t7 6.5t16.5 1.5t26.5 -0.5q16 -1 35 -1l-45 14q7 17 13 29q5 11 10 19t9 7l44 -11.5l77 -19.5
l92.5 -23l89.5 -22l70 -17l33 -8q-21 -3 -48.5 -1.5t-58 6t-63 11t-63.5 13.5q-72 17 -150 39q38 -16 90 -33l109 -32.5t149 -35.5v1l278 -52v1q85 -14 176.5 -24.5t192.5 -18.5q67 -2 130 1t122 9zM485 867q-42 -45 -101.5 -114.5t-122.5 -161.5q-27 -39 -55 -85l-55 -94
l64.5 60.5l80.5 79.5q26 27 54 61t54.5 69.5t50 70.5l41.5 63.5t28.5 48t10.5 24.5q1 8 -6.5 5.5t-17 -8.5t-18 -12.5zM-179 231q6 3 12.5 0.5t12.5 -5.5q-11 -3 -23 -5.5t-24 -4.5l-23 -5q-3 0 -5 -1q-4 1 -10 7q8 5 15.5 8.5t15.5 8.5q8 1 14.5 -3t14.5 0zM-273 213
q3 1 6.5 3t7.5 -3q1 0 3 -7q-10 -2 -19.5 -3.5t-19.5 -3.5q10 11 22 14z" />
    <glyph glyph-name="i.ss05" unicode="&#xe05c;" horiz-adv-x="448" 
d="M-259 318q1 -2 1 -4.5v-3.5l3 -9l-4 -2t-4 -3q-4 -2 -8.5 1t-9.5 2q-5 0 -9 -3.5t-9 0.5q-2 2 -4 5t-4 2q-8 -3 -15 -8t-14 -3q-11 3 -22.5 3t-22.5 -2q-82 -20 -184 -20t-213.5 12t-228 32.5t-226 43l-207 43.5t-171.5 34q2 6 5 12q2 5 5 9.5t7 6.5t16.5 1.5t26.5 -0.5
q16 -1 35 -1l-45 14q7 17 13 29q5 11 10 19t9 7l44 -11.5l77 -19.5l92.5 -23l89.5 -22l70 -17l33 -8q-21 -3 -48.5 -1.5t-58 6t-63 11t-63.5 13.5q-72 17 -150 39q38 -16 90 -33l109 -32.5t149 -35.5v1l278 -52v1q85 -14 176.5 -24.5t192.5 -18.5q67 -2 130 1t122 9zM92 365
h-2l31 -34q-5 -5 -14 -16.5t-23 -34.5l-27.5 -41.5t-21.5 -37.5q-9 -18 -20 -44.5l-18 -43.5l1 -9l2 1l52 102l16 30l11 6l-32.5 -71.5t-28 -69.5t-14 -53.5t8.5 -22.5q5 -2 27.5 3t56.5 17.5t75.5 32.5t85.5 48l125 76l96 59l7 -26l-107 -65l-140 -83h-1q-4 -2 -24.5 -13.5
t-49.5 -25.5t-62.5 -27t-61.5 -19q-15 -3 -28 -3q-11 0 -16 1l-32 -1q-24 6 -36.5 19.5t-16 33t0 43t11.5 48.5q8 26 19.5 52t24.5 49q15 32 32 63.5t32 50.5q-7 -2 -13 -3.5t-14 -4.5q-18 -7 -33.5 -11t-26.5 -6q-13 -3 -25 -4l-4 9l148 63zM198 457q-2 2 -11 -10.5
l-20 -28.5l-27 -42l-44 59l29 60q4 9 8 17q4 7 8 12.5t8 6.5t5.5 2.5t3.5 2.5l2 2q1 0 3 -1t3 -2t3 -2l-10 -19.5t-14 -16.5q13 4 23 11t18 15l20.5 -12t19.5 -12t14.5 -10.5t5.5 -6.5q0 -8 -14.5 -26.5t-32 -38l-32 -34.5l-15.5 -16q1 1 7.5 11l14.5 22l15 23t9 16
q1 5 1 8.5v5.5q0 3 -1 4zM-125 325q6 3 12.5 0.5t12.5 -5.5q-11 -3 -23 -5.5t-24 -4.5l-23 -5q-3 0 -5 -1q-4 1 -10 7q8 5 15.5 8.5t15.5 8.5q8 1 14.5 -3t14.5 0zM-219 307q3 1 6.5 3t7.5 -3q1 0 3 -7q-10 -2 -19.5 -3.5t-19.5 -3.5q10 11 22 14zM51 360q1 1 2 1.5t2 2.5
q-1 0 -1.5 -0.5t-1.5 -0.5z" />
    <glyph glyph-name="j.ss05" unicode="&#xe05d;" horiz-adv-x="490" 
d="M10 362q0 1 0.5 1.5t0.5 1.5l47 -31l-5 -37l10 26q-1 2 -1 5q0 6 3 6q2 0 3.5 -1t3.5 -2l3 -3l-1 -10l12 -4l5 -3l-19 -68l-8 -28h1l-4 -10.5l-4 -10.5l-1 -2l-10.5 -30l-11.5 -30q-8 -32 -26 -80t-44 -107l117.5 82l114.5 77l26.5 16.5l23.5 14.5l141 85l77 43l61 34
l3 -24l-79 -44l-101 -55l-66 -43l-103.5 -68l-119.5 -80.5l-114 -79.5q-44 -96 -100 -200.5t-116 -198.5q-48 -73 -94.5 -124.5t-88.5 -86.5l33.5 39.5l38.5 47.5q40 49 78 107.5t71 116t60 109.5l45 88l-15 -19l-49.5 -88.5l-61 -103l-66 -102.5t-64.5 -88l-19 -23
q-41 -48 -70.5 -79t-49.5 -49q-23 -21 -39 -31q-8 -5 -14.5 -8t-11.5 -5q-5 -3 -10 -4l-32 34q1 7 11 25q8 16 25.5 46.5l49.5 82.5q17 29 46 68.5t64.5 83.5l73.5 89.5l73.5 87l65 75l47.5 54.5l45.5 97.5l40.5 89.5h-1q0 3 3 6q11 26 21 53.5l20 56.5t22.5 69.5t20.5 77.5
l7 36q-22 -3 -47 -13q-18 -7 -33.5 -11t-26.5 -6q-13 -3 -25 -4l-4 9l140 55zM-305 287q1 -2 1 -4.5v-3.5l3 -9l-4 -2t-4 -3q-4 -2 -8.5 1t-9.5 2q-5 0 -9 -3.5t-9 0.5q-2 2 -4 5t-4 2q-8 -3 -15 -8t-14 -3q-11 3 -22.5 3t-22.5 -2q-82 -20 -184 -20t-213.5 11.5t-228 32
t-226 43.5l-207 44t-171.5 34q2 6 5 12q2 5 5 9.5t7 6.5t16.5 1.5t26.5 -0.5q16 -1 35 -1l-45 14q7 17 13 29q5 11 10 19t9 7l44 -11.5l77 -19.5l92.5 -23l89.5 -22l70 -17l33 -8q-21 -3 -48.5 -1.5t-58 6t-63 11t-63.5 13.5q-72 17 -150 39q38 -16 90 -33l109 -32.5
t149 -35.5v1l278 -52v1q85 -14 176.5 -24.5t192.5 -18.5q67 -2 130 1t122 9zM-313 -416q27 44 54 93t53 102l-63.5 -70l-78.5 -91q-26 -31 -53.5 -68.5t-53.5 -77t-48.5 -77.5l-40 -68.5t-27.5 -52t-10 -26.5q-1 -8 6.5 -4t17 11.5t18 15.5l8.5 8q42 50 99 127.5t119 177.5z
M120 466q-2 1 -7.5 -14.5t-12.5 -33.5l-17 -49l-57 39l12 67q2 10 5 19q2 8 4.5 14.5t6.5 8.5q6 4 8 7q1 2 1 3q1 -1 3 -1h7q-2 -11 -5 -22t-9 -20q22 16 34 39q10 -2 22 -4t21.5 -4.5l16.5 -4.5t7 -4q2 -7 -6.5 -29t-20.5 -46t-23 -43.5t-12 -21.5q1 2 5.5 13.5t9 25.5
t8 26.5t3.5 17.5q0 7 -2 13q-1 3 -2 4zM-171 294q6 3 12.5 0.5t12.5 -5.5q-11 -3 -23 -5.5t-24 -4.5l-23 -5q-3 0 -5 -1q-4 1 -10 7q8 5 15.5 8.5t15.5 8.5q8 1 14.5 -3t14.5 0zM-28 59l18 35q8 15 16.5 33.5l16.5 35.5l5 13l-11 -6l-21 -54t-24 -57zM-265 276q3 1 6.5 3
t7.5 -3q1 0 3 -7q-10 -2 -19.5 -3.5t-19.5 -3.5q10 11 22 14z" />
    </font>
</defs>
</svg>
