<?xml version="1.0" standalone="no"?>
<!DOCTYPE svg PUBLIC "-//W3C//DTD SVG 1.1//EN" "http://www.w3.org/Graphics/SVG/1.1/DTD/svg11.dtd" >
<svg xmlns="http://www.w3.org/2000/svg">
<metadata></metadata>
<defs>
<font id="silliza_scriptregular" horiz-adv-x="1110" >
<font-face units-per-em="2048" ascent="1536" descent="-512" />
<missing-glyph horiz-adv-x="475" />
<glyph horiz-adv-x="0" />
<glyph horiz-adv-x="682" />
<glyph horiz-adv-x="0" />
<glyph horiz-adv-x="0" />
<glyph unicode="&#xd;" horiz-adv-x="475" />
<glyph unicode=" "  horiz-adv-x="475" />
<glyph unicode="&#x09;" horiz-adv-x="475" />
<glyph unicode="&#xa0;" horiz-adv-x="475" />
<glyph unicode="!" horiz-adv-x="345" d="M291 230q7 26 32.5 45.5t53.5 19.5t42.5 -19.5t7.5 -45.5q-8 -29 -33 -49t-53 -20t-42.5 20.5t-7.5 48.5zM394 396l76 499q6 30 13 50q9 35 34.5 57.5t54.5 22.5q30 0 43 -22.5t2 -66.5q-5 -21 -13 -41l-191 -499h-19z" />
<glyph unicode="&#x22;" horiz-adv-x="422" d="M446 780l13 180q6 29 10.5 62t5.5 40q22 76 81 76q27 0 40 -19t5 -47q-3 -8 -9 -23t-17.5 -41t-20.5 -48l-81 -180h-27zM671 780l15 178l4 75q1 5 2.5 14.5t3.5 14.5q22 76 85 76q24 0 37.5 -19.5t6.5 -46.5q-14 -54 -41 -114l-83 -178h-30z" />
<glyph unicode="#" horiz-adv-x="517" d="M246 161l133 279h-105l14 52h114l100 207h-158l11 49h169l130 277h51l-129 -277h204l136 277h51l-135 -277h104l-11 -49h-115l-98 -207h157l-15 -52h-166l-129 -279h-51l128 279h-204l-135 -279h-51zM451 492h210l104 207h-212z" />
<glyph unicode="$" horiz-adv-x="517" d="M256 203l47 174h26q-15 -85 19.5 -129t122.5 -55l97 358q-117 84 -145 153q-21 43 -3 114q22 78 94 132t176 65l17 59h35l-16 -59q57 -5 83 -13q10 -1 107 -42l-49 -180h-24q21 95 -10.5 139.5t-117.5 56.5l-83 -310q118 -104 158 -160q27 -49 7 -127q-23 -87 -104 -151 t-197 -73l-22 -79h-35l22 79q-109 6 -205 48zM506 193q27 5 79 21q88 55 111 136q9 39 -6 74q-24 43 -95 104zM528 857q-12 -47 4.5 -85.5t71.5 -79.5l76 284q-124 -14 -152 -119z" />
<glyph unicode="%" horiz-adv-x="863" d="M455 140l840 884h55l-842 -884h-53zM478 797q15 62 57 117q39 54 88.5 82t96.5 28q84 0 114 -67q22 -79 0 -160q-29 -106 -95 -164q-66 -55 -141 -55q-72 -7 -109 59t-11 160zM557 667q1 -33 18 -50q8 -10 29 -10q34 0 59 28q44 50 74 162q29 116 12 161q-11 31 -40 31 q-35 0 -65 -38q-37 -42 -65 -152q-26 -94 -22 -132zM971 361q23 98 93.5 164t137.5 65q74 1 113 -66.5t7 -162.5q-30 -110 -96 -162q-68 -59 -139 -59q-72 0 -107 62t-9 159zM1055 203q10 -26 42 -26q28 0 57 31q43 45 72 153q31 123 12 163q-9 32 -40 32q-33 0 -60 -37 q-42 -38 -75 -161q-29 -110 -8 -155z" />
<glyph unicode="&#x26;" horiz-adv-x="807" d="M347 341q19 76 96 148q63 70 237 153q-18 117 -1 182q28 107 123 159q70 42 146 42q74 0 107 -42q36 -38 20 -102q-20 -71 -79 -120q-52 -46 -186 -104q34 -120 97 -255q108 94 233 281l36 -23q-79 -108 -80 -113q-93 -109 -167 -180q59 -114 149 -114t138 91l20 -16 q-44 -84 -105 -126.5t-130 -42.5q-106 0 -183 119q-92 -67 -159.5 -93t-139.5 -26q-103 0 -147 53q-44 58 -25 129zM489 396q-18 -64 10 -114q36 -51 101 -51q33 0 80 18q42 13 113 66l-69 158q-12 36 -35 125q-166 -79 -200 -202zM793 805q-3 -21 10 -109q172 72 202 188 q12 41 -8 70t-59 29q-60 0 -94 -37q-37 -49 -44 -74q-8 -28 -7 -67z" />
<glyph unicode="'" horiz-adv-x="185" d="M351 780l18 180q11 92 13 102q22 76 79 76q27 0 40 -19t5 -47q-2 -8 -47 -112l-79 -180h-29z" />
<glyph unicode="(" horiz-adv-x="345" d="M239.5 178.5q-17.5 118.5 17.5 251.5q51 188 191 345q143 163 304 226l-7 -25q-87 -41 -157 -116q-134 -149 -206 -415q-36 -134 -46 -242q-2 -94 8 -131q11 -112 108 -188l-6 -23q-85 49 -124 110q-65 89 -82.5 207.5z" />
<glyph unicode=")" horiz-adv-x="345" d="M75 -139l5 23q92 46 154 115q66 67 121 178.5t88 235.5q38 146 43 237q5 72 -2 137q-22 112 -111 189l7 25q72 -39 123 -107q64 -90 80.5 -211.5t-17.5 -250.5q-53 -194 -187 -347q-137 -156 -304 -224z" />
<glyph unicode="*" horiz-adv-x="517" d="M430 780q12 37 67 60q26 7 82 17q42 6 78 27q-8 5 -70 23q-75 19 -85 29q-25 17 -16 47q4 18 21 31.5t34 13.5q25 0 44 -13q17 -8 40 -52q21 -35 55 -60q0 11 1.5 29.5t2 27.5t-0.5 26q-1 60 5 86q7 28 26.5 45.5t41.5 17.5q17 0 26 -18t2 -45q-11 -35 -35 -74 q-33 -58 -44 -95q49 31 75 54q64 53 73 58q21 10 50 10q18 0 28 -12t5 -31q-6 -26 -32 -43q-17 -13 -111 -33q-13 -3 -30.5 -8.5t-30 -8.5t-21.5 -5q27 -22 70 -27q69 -18 88 -35q17 -17 9 -42q-4 -18 -21.5 -32t-31.5 -14q-24 0 -41 13.5t-42 57.5l-49 55q-11 -39 -7 -77 q1 -63 -6 -98q-7 -24 -24 -40t-34 -16q-23 0 -38 15q-11 14 -5 41q9 31 35 71q33 53 33 54q10 30 22 50q-36 -18 -78 -53q-62 -56 -86 -62q-16 -11 -35 -11q-21 0 -33 14t-7 32z" />
<glyph unicode="+" horiz-adv-x="585" d="M325 569l13 53h304l82 303h51l-82 -303h306l-13 -53h-306l-82 -304h-51l82 304h-304z" />
<glyph unicode="," horiz-adv-x="206" d="M34 -190l5 25q66 21 112.5 65t60.5 97q2 8 2 18q-1 3 -8 3q-8 0 -32 -9q-12 -9 -25 -9q-32 0 -43.5 18t-3.5 49q8 29 35.5 51t59.5 22q42 0 63.5 -35.5t7.5 -92.5q-18 -66 -77 -119.5t-157 -82.5z" />
<glyph unicode="-" horiz-adv-x="345" d="M234 354l25 92h314l-24 -92h-315z" />
<glyph unicode="." horiz-adv-x="258" d="M174 73q7 26 33.5 46.5t51.5 20.5q29 0 43.5 -20t7.5 -47q-8 -29 -33.5 -50.5t-54.5 -21.5q-25 0 -40 22t-8 50z" />
<glyph unicode="/" horiz-adv-x="288" d="M120 165l540 888h49l-539 -888h-50z" />
<glyph unicode="0" horiz-adv-x="1062" d="M33 310q10 91 46 190q33 93 86.5 180t124.5 162.5t163.5 121t191.5 45.5q85 0 142 -33t81.5 -87t28 -126.5t-11.5 -147.5t-44 -154q-34 -94 -86 -179t-121.5 -156.5t-160 -114t-188.5 -42.5q-102 0 -164.5 47t-80 125t-7.5 169zM115 212q-4 -43 2 -88t25 -75t57.5 -49 t94.5 -19q265 0 446 505q14 38 22 62t21.5 65t19.5 69t13.5 67t6 66t-5 58t-17 51.5t-33 38.5t-51 26.5t-72.5 8.5q-54 0 -104.5 -19t-89 -48t-75 -74.5t-61.5 -86t-51.5 -97t-41 -93t-32.5 -86.5q-18 -48 -30.5 -88.5t-26 -95.5t-17.5 -98z" />
<glyph unicode="1" horiz-adv-x="561" d="M48 -3l329 906q-27 -41 -148 -83q-107 -36 -140 -25q-9 3 -7 11q11 7 56.5 18.5t90.5 25t95 48.5t75 84h110l-319 -877q-22 -54 -60.5 -80.5t-81.5 -27.5z" />
<glyph unicode="2" horiz-adv-x="930" d="M-83 -4q-13 44 24 98t109.5 108.5t137.5 94.5t140 80q48 26 73 40t67 39.5t66 44t57 47.5t54 57t42.5 65t36.5 78q43 114 1.5 182t-157.5 68q-93 0 -180.5 -57t-121.5 -151q-27 -66 -3 -118t92 -52q19 0 46 5q2 -6 6 -13t5.5 -10t-0.5 -5.5t-10 -3.5t-26 -1 q-76 0 -122 62t-27 139q25 104 123 166t221 62q138 0 216 -85.5t29 -220.5q-13 -37 -35.5 -70t-56 -63t-64 -53t-79 -49.5t-81 -43t-87.5 -42.5h1q-93 -44 -157.5 -79t-150 -99.5t-148.5 -140.5h446q143 0 213 45q-2 -9 -4.5 -29t-5 -30t-11.5 -25t-23 -22.5t-41 -13 t-65 -4.5h-550z" />
<glyph unicode="3" horiz-adv-x="945" d="M42 163q-22 73 0 144h22q-20 -106 31 -190t155 -101q98 -16 183.5 54t112.5 174q16 59 19 110.5t-8 97.5t-47.5 72.5t-96.5 26.5q-5 0 -14 -0.5t-13 -0.5v21q14 2 28 2q94 0 179.5 57.5t118.5 149.5q34 96 -12.5 157t-142.5 61q-88 0 -167 -48.5t-111 -136.5 q-10 -28 -8 -63h-31q0 32 16 78q19 52 56 89t84 56t92.5 27.5t95.5 8.5q57 0 105 -11.5t87 -37.5t49 -68t-9 -104q-30 -82 -116.5 -142t-183.5 -75q57 -4 98.5 -37.5t59.5 -81t18 -101.5t-19 -101q-33 -79 -79.5 -132.5t-102.5 -79.5t-107.5 -35.5t-115.5 -9.5 q-82 0 -143 48.5t-83 121.5z" />
<glyph unicode="4" horiz-adv-x="915" d="M-86 271q13 39 217.5 267t412.5 442h65q-102 -83 -214 -202t-235.5 -259.5t-203.5 -221.5h445l126 348q11 24 24.5 38.5t31.5 21.5t32 9.5t39 3.5l-161 -442l-1 -5q-25 -81 -50.5 -134.5t-52 -80.5t-48.5 -38.5t-51 -16.5l99 270h-475z" />
<glyph unicode="5" horiz-adv-x="955" d="M9.5 182q1.5 56 21.5 112q12 7 12 9.5t0 1.5q2 2 33 11q-36 -80 -38.5 -151t37.5 -118.5t121 -47.5q74 0 137 28t109.5 77t79.5 105t57 122q24 67 31 118t-4.5 93t-52.5 64t-111 22q-103 0 -269 -107l-44 33l158 428q22 0 135.5 -1t152.5 0.5t117.5 6t125.5 16t82 30.5 v-3q-13 -37 -42.5 -63t-58 -38t-74.5 -18.5t-70 -7.5t-67 -1h-281l-127 -353q100 60 162 86.5t122 26.5q158 0 225 -96.5t9 -251.5q-63 -174 -205 -265.5t-316 -80.5q-57 4 -96.5 34t-56 76.5t-15 102.5z" />
<glyph unicode="6" horiz-adv-x="988" d="M28 304q10 89 45 185q34 94 92.5 186t134.5 170t173.5 126.5t197.5 48.5q88 0 147 -66t58 -154q-13 -6 -21 -11q-3 -1 -5 -1q-6 -1 -22 -4q20 83 -25 146t-140 63q-76 0 -148 -41t-123 -98.5t-98 -138t-73.5 -141t-50.5 -125.5q-16 -43 -27 -78t-23 -83.5t-15 -86.5 t2 -78t22 -66.5t51.5 -43.5t84.5 -17q66 0 127.5 32.5t108 85t80.5 110t54 115.5q16 43 25 82.5t9.5 80.5t-11.5 70t-43 46.5t-80 14.5q-72 -4 -147.5 -52t-116.5 -106l-14 11q44 80 128 129t169 49q71 0 118.5 -27t67 -73t17 -106.5t-27.5 -128.5q-56 -155 -181.5 -257.5 t-276.5 -102.5q-99 0 -159 46t-77 123t-7 166z" />
<glyph unicode="7" horiz-adv-x="901" d="M88 -4q68 67 165 189t256 318.5t342 399.5h-586q1 3 5.5 27t15 35t34.5 17h526l39 -96q-121 -128 -217 -244.5t-238.5 -303.5t-227.5 -294q-22 -28 -41 -40t-29 -12t-23.5 2.5t-20.5 1.5z" />
<glyph unicode="8" horiz-adv-x="883" d="M-84.5 129q-15.5 56 9.5 134q73 205 344 310l40 14q-23 12 -40.5 22.5t-36.5 25t-30.5 30t-19 34.5t-6.5 42t10 49q32 85 158.5 172t221.5 96l19 -15q-86 -12 -171.5 -69t-126.5 -126q-17 -46 -1 -86t56 -68.5t77.5 -46t79.5 -30.5q50 15 86.5 30t80 39t75 59t49.5 79 q39 95 -12.5 131t-130 19t-117.5 -54q-2 -2 -8 0t-10 6.5t-1 9.5q15 22 43.5 38t62 22.5t69 5.5t65 -12.5t50.5 -32t25.5 -53t-10.5 -75.5q-57 -157 -295 -226q40 -26 65 -43.5t56 -44t46 -51.5t26.5 -57t8.5 -70t-19 -82q-34 -95 -114 -161.5t-171 -95.5t-186 -29 q-71 0 -135 16.5t-115.5 52t-67 91.5zM-11 157.5q-1 -47.5 16 -77.5t51.5 -49t78 -26.5t102.5 -7.5q296 0 373 215q15 41 15.5 78t-7.5 65t-32 55t-45.5 44.5t-61.5 39t-64.5 33t-70.5 30.5l-16 -3q-129 -58 -203 -119t-113 -167q-22 -63 -23 -110.5z" />
<glyph unicode="9" horiz-adv-x="953" d="M0 -19q8 2 4.5 12t4.5 10q242 17 390 102t259 291q29 54 53.5 127t36.5 154t5.5 149.5t-46 113.5t-110.5 45q-64 0 -122.5 -27.5t-102.5 -72.5t-76 -96t-52 -106q-20 -57 -25 -108.5t6 -95.5t49 -70t100 -26q141 0 224 106q26 41 38 90q7 9 11 8.5t6.5 -5t1.5 -4.5l-1 -3 q-1 -3 -2.5 -8.5t-1.5 -9.5q-36 -96 -119.5 -146.5t-182.5 -50.5q-62 0 -100.5 36.5t-47.5 88.5t-5.5 101.5t17.5 82.5q32 76 67.5 134t82 106.5t107.5 74t132 25.5q75 0 127.5 -28.5t78 -76.5t32.5 -111t-3.5 -131.5t-36.5 -139.5q-99 -267 -300.5 -404t-491.5 -137h-7z " />
<glyph unicode=":" horiz-adv-x="288" d="M227 173q8 27 33.5 47t54.5 20q27 0 41.5 -20t6.5 -47q-8 -29 -33 -50t-52 -21q-29 0 -44 21t-7 50zM354 632q7 26 31 45t54 19q28 0 41 -19t6 -45q-8 -31 -32 -51.5t-52 -20.5q-30 0 -43 20.5t-5 51.5z" />
<glyph unicode=";" horiz-adv-x="288" d="M126 -130l6 26q71 20 117 63t60 94q1 3 1 20q-5 5 -9 5q-14 0 -30 -11q-18 -6 -25 -6q-31 0 -45 18.5t-6 49.5q8 29 37.5 51t62.5 22q43 0 63.5 -36t5.5 -93q-17 -65 -77.5 -119t-160.5 -84zM339 591q7 25 32 45.5t53 20.5t42.5 -20.5t7.5 -45.5q-8 -28 -32.5 -47.5 t-53.5 -19.5q-28 0 -42.5 19.5t-6.5 47.5z" />
<glyph unicode="&#x3c;" horiz-adv-x="585" d="M328 581l7 28l736 286l-13 -52l-634 -246l502 -247l-16 -59z" />
<glyph unicode="=" horiz-adv-x="585" d="M298 471l12 47h661l-11 -47h-662zM351 667l13 51h661l-13 -51h-661z" />
<glyph unicode="&#x3e;" horiz-adv-x="585" d="M250 291l15 54l638 246l-507 249l15 55l584 -286l-8 -30z" />
<glyph unicode="?" horiz-adv-x="460" d="M380 230q7 28 33.5 48t57.5 20q27 0 40.5 -20t6.5 -48t-33 -48.5t-51 -20.5q-31 0 -46.5 20t-7.5 49zM404 850q19 68 92 123q67 52 174 52q128 0 168 -68q32 -55 13 -123q-13 -48 -46.5 -94t-106.5 -108q-117 -100 -145 -140q-30 -42 -53 -116h-25q27 86 52 126 q29 49 99 140q50 58 75 106q27 53 33 76q21 75 -8 122t-93 47q-51 0 -88 -23t-46 -57q-5 -21 4 -56q11 -33 5 -50q-5 -21 -23 -36t-39 -15q-26 0 -39.5 26t-2.5 68z" />
<glyph unicode="@" horiz-adv-x="955" d="M388 410q105 422 374 515q267 100 385 -27q125 -122 101 -301q-11 -119 -65 -231q-48 -111 -115.5 -167t-142.5 -56q-38 0 -54.5 23.5t-11.5 64.5q0 35 16 97q-93 -120 -135 -151q-49 -34 -85 -34q-37 0 -60 42.5t-16 107.5q5 88 63 209q64 119 145 184q62 59 111 59 q70 0 81 -93l22 74l82 11l-84 -253l-55 -180q-14 -58 -14 -64q-2 -20 8.5 -34t26.5 -14q80 0 160 196q43 101 41 242q-5 136 -133 205q-123 74 -293 -42t-246 -328q-72 -223 -11 -342q59 -126 251 -126q193 0 458 239l16 -36q-156 -149 -355 -223q-191 -69 -356 41 q-160 111 -109 392zM663 315q-4 -42 10.5 -67.5t37.5 -25.5q31 0 64 30q37 28 75 84q38 50 63 119q40 105 44 165q3 42 -12.5 67t-44.5 25q-31 0 -82 -52q-72 -89 -114 -196q-40 -96 -41 -149z" />
<glyph unicode="A" horiz-adv-x="1029" d="M-28 239q4 40 14 69.5t20.5 48.5t19.5 29l8 9q21 1 22 -9q-54 -85 -54 -188q0 -33 6 -68q16 -106 70 -154q26 -23 50 -23q27 0 52 28q7 7 13 16q43 64 76 190t72 335q-25 8 -62.5 21t-58 20t-42.5 13t-33 6q-30 0 -52.5 -7.5t-34.5 -18.5t-19.5 -24t-9 -22t-0.5 -14 l-22 9q-1 2 -1 4.5t1.5 11.5t7 18.5t20 24t35.5 28.5q15 10 46 10q65 0 200 -44q19 -6 29 -9q66 346 114 491q91 278 229 296q10 1 21 1q75 0 166 -69q24 49 36 49h78q-67 -174 -127.5 -383t-100.5 -400q-40 -192 -63 -354q-20 -138 -20 -232q0 -16 1 -31q4 -101 36 -110 q16 -5 43 17t63 73t74.5 122.5t81.5 176.5t79 225l18 -20q-4 -14 -11.5 -37t-31 -89.5t-47.5 -127t-59.5 -133t-68.5 -122.5q-34 -52 -74 -84q-33 -27 -64 -27q-6 0 -11 1q-45 8 -61 111q-9 60 -10 136q0 55 5 115q11 148 41 333q-34 -9 -76 -9q-70 0 -164 24 q-29 -90 -48.5 -148t-46.5 -131.5t-48 -118t-46 -86.5t-48.5 -59.5t-47.5 -15.5q-10 -1 -20 -1q-61 0 -101 44q-46 50 -62 172q-4 32 -4 60q1 16 2 31zM29 496l2 -2q-2 0 -2 2zM451 518l61 -13q48 -10 89 -10q47 0 85 13q38 226 88 433.5t92 306.5q-18 13 -44 13 q-4 -1 -8 -1q-32 -2 -58 -21q-51 -53 -107.5 -176t-90 -220t-94.5 -285q-9 -27 -13 -40z" />
<glyph unicode="B" horiz-adv-x="864" d="M79 476v17q0 56 11 134q13 90 42 186q59 195 192 318.5t271 135.5q27 53 38 69l148 3q-17 -24 -42 -85q26 -1 41.5 -3t37 -10t33.5 -22.5t21.5 -42t11.5 -66.5q0 -8 1 -16q1 -61 -21 -125q-24 -72 -57 -125t-78.5 -106t-74.5 -79.5t-57 -49.5q38 -5 74 -50l5 -7.5 t12.5 -21.5t17 -34t17 -45t13.5 -55.5t8 -63.5q1 -12 1 -24q0 -24 -5 -46q42 48 88.5 119t72.5 119l26 47l15 -7q-12 -24 -32.5 -63.5t-76.5 -126.5t-103 -135q-36 -139 -127 -221q-51 -45 -95 -45q-42 0 -76 42q-65 80 -73 261q-1 23 -1 46v24q2 149 71 440t155 480 q-120 -5 -274 -159q-67 -67 -124 -199q-56 -130 -78 -292q-7 -49 -6 -98q0 -110 34 -213q-22 -2 -25 -2q-1 0 -8.5 22t-14.5 68.5t-9 106.5zM464 30q19 -57 54 -57q7 0 14 2q47 14 90.5 77.5t50.5 118.5q-21 -12 -47 -12q-131 13 -134 237q-1 40 -1 67q0 36 2 48 q-16 -64 -28 -151q-19 -112 -18 -195q-1 -81 17 -135zM497 531q0 4 2 6q-2 -2 -2 -6zM499 537q4 14 16 29q6 21 41 37q6 5 15.5 13.5t29.5 29.5t39.5 44t43.5 56.5t43.5 68.5t36.5 79q17 42 26 86q9 41 9 90q-1 3 -1 5q0 51 -12 101q-13 50 -56 57q-39 -94 -112.5 -320.5 t-85.5 -258.5l-10 -40q-11 -26 -23 -77zM513 465v-23q0 -34 2 -66q3 -44 14 -93.5t38 -76.5q21 -21 52 -21q8 0 16 1q17 0 44 20q1 11 1 22q0 61 -22 139q-26 92 -63 149q-27 43 -46 43q-6 0 -12 -5q-23 -23 -24 -89z" />
<glyph unicode="C" horiz-adv-x="836" d="M-74 1028q0 42 26 92q26 52 86 87q38 22 84 25q10 1 18 1l74 -11q46 -12 100 -36t102 -50.5t100 -57.5q19 -12 28 -17q114 201 236 245q25 9 46 9q50 0 78 -51q23 -41 23 -94q0 -29 -7 -62q-22 -100 -93 -140q-16 -9 -33 -14q-20 -6 -42 -6q-53 0 -123 31 q-62 -148 -112.5 -326t-70.5 -281q-21 -88 -21 -163q1 -59 13 -109q20 -81 77 -80q25 0 57 15q47 22 97.5 72t89 106t70.5 108.5t49 86.5l17 35l8 -32q-9 -21 -26.5 -54.5t-70.5 -116t-106.5 -140.5t-127.5 -93q-41 -19 -81 -19q-31 0 -61 12q-76 42 -104 136 q-18 61 -18 133q0 39 5 81q11 114 71 316t143 365q-23 14 -77.5 47.5t-83 50t-76.5 40.5t-80.5 30.5t-72.5 8.5h-9q-36 0 -66 -14q-34 -16 -65 -49q-30 -31 -41 -73q-7 -28 -8 -54q0 -12 2 -24q6 -36 16 -69t20 -52l11 -19l-17 -3q-6 9 -15 25t-23 62q-16 48 -16 90z M639 1008q72 -35 117 -35q20 0 34 7q87 38 109 133q6 26 6 49q0 42 -20 76q-19 33 -47 33q-13 0 -28 -8q-7 -4 -14 -9q-73 -55 -157 -246z" />
<glyph unicode="D" horiz-adv-x="1124" d="M-26 1163q8 50 25 91l17 41q1 0 2 -1t4.5 -3t6 -3.5t5 -3.5t4 -3.5t0.5 -1.5q-28 -49 -39 -99q-7 -29 -7 -58q0 -18 4 -36q8 -44 48 -72q40 -26 109 -25h5q176 4 315 96q29 93 76 199l49 94l148 3q-37 -77 -72 -168q69 66 154 109q59 30 116 30q25 0 51 -6 q46 -11 83.5 -37.5t65.5 -66.5t40 -96q9 -42 9 -91q0 -17 -1 -33q-4 -66 -32 -149.5t-79 -174.5q-83 -150 -192 -296q-216 -286 -321 -365q-51 -45 -95 -45q-42 0 -76 42q-65 80 -74 262q-1 23 -1 45v23v5l1 20q7 116 45.5 304t93.5 360q-45 -20 -105 -42q-83 -31 -151 -39 q-26 -3 -49 -3q-37 0 -65 8q-45 13 -73 36.5t-41 55.5q-8 27 -8 55q1 19 4 39zM429 402q-18 -110 -18 -192q0 -84 19 -139q18 -55 53 -55q7 0 14 2q127 40 356 421q121 200 162 380q25 113 27 205q0 13 1 26q0 74 -13 122q-15 56 -40.5 91.5t-52.5 47.5q-18 8 -35 8 q-8 0 -16 -2q-42 -10 -84 -34.5t-75 -56t-50 -50.5t-30 -36q-72 -194 -134.5 -403.5t-83.5 -334.5z" />
<glyph unicode="E" horiz-adv-x="896" d="M-46 1026q0 42 26.5 93.5t85.5 87.5q38 22 84 25q9 1 18 0q38 0 74 -9q46 -12 100.5 -36.5t100.5 -50t100 -57.5l30 -18q112 201 234 245q25 9 46 9q50 0 78 -51q23 -41 23 -94q0 -29 -7 -62q-21 -100 -92 -140q-16 -9 -33 -14q-19 -6 -42 -6q-52 0 -123 31 q-15 -41 -29 -91q-13 -46 -13 -97v-7q1 -56 32 -66q25 -7 47 -7q15 -1 29 3q34 8 55 23l22 15l12 -23h3q-5 -3 -39.5 -27t-63.5 -44.5t-74 -57.5t-81 -71.5t-72 -80.5t-59 -90q-50 -99 -50 -194v-14q4 -102 62 -140q22 -14 52 -14q47 0 114 36q76 46 184.5 180.5 t147.5 224.5l19 -8q-24 -52 -66.5 -119.5t-104 -140.5t-126 -129t-138.5 -81q-38 -13 -71 -13t-63 12q-74 39 -110 105q-27 50 -27 109q1 19 3 38q12 81 63 164.5t161 167.5t261 147q-2 -2 -20 -0.5t-19 1.5q-114 0 -155 78q-21 39 -21 98q0 69 28 167q-22 13 -68 41.5 t-71 43.5t-67.5 37.5t-69.5 31.5t-65 17q-24 5 -45 5q-11 1 -21 -1q-28 -4 -59 -19.5t-58 -43.5q-30 -31 -41 -73q-7 -28 -7 -54q0 -12 2 -24q6 -36 15.5 -69t20.5 -52l10 -19l-19 -3q-6 9 -15 25t-23.5 62t-14.5 88zM669 1008q72 -35 116 -35q20 0 33 7q87 38 109 133 q6 26 6 49q0 42 -20 76q-19 33 -47 33q-13 0 -28 -8q-7 -4 -14 -9q-69 -53 -155 -246z" />
<glyph unicode="F" horiz-adv-x="747" d="M-114 973q-1 8 -1 17q0 36 17 78q21 54 76 96q42 32 96 39q13 2 27 1q45 0 107 -18q80 -24 121.5 -40t137.5 -59q20 -9 30 -13q92 212 208 269q29 14 54 14q44 0 74 -44q34 -48 34 -118q0 -17 -2 -35q-11 -103 -80 -150q-14 -9 -29 -15q-29 -12 -66 -12q-45 0 -100 18 q-12 -49 -66 -293q70 -12 104 -16q42 -5 70 -5q12 0 22 1q32 3 40 11l9 8q2 -2 4.5 -6t6 -11.5t3.5 -10.5q-25 -11 -55 -15q-15 -2 -33.5 -2t-40.5 2q-44 4 -62.5 6.5t-73.5 11.5q-1 -7 -2.5 -14t-3 -12.5t-2.5 -11t-2 -8.5t-1.5 -6t-0.5 -4v-1q-65 -316 -140.5 -506 t-144.5 -202q-18 -4 -34 -4q-51 -1 -89 35q-50 46 -79 168q-10 54 -10 97q0 23 3 42q8 56 26 83l19 28q21 2 22 -8q-40 -80 -40 -166q0 -49 13 -100q25 -95 75 -133q20 -15 37 -15q23 0 41 29q2 3 4 7q23 43 48 129.5t41 161.5t45 215.5t43 206.5q-4 0 -31 -3 q-44 -10 -70.5 -31.5t-32.5 -37t-4 -26.5l-21 6q-1 1 -1.5 4t0 12t5 19t17.5 25.5t33 31.5q36 28 102 28h9q50 213 91 321q-25 11 -72.5 34t-75.5 36t-72 30.5t-73.5 24.5t-67.5 11q-13 1 -25 1q-23 -1 -41 -5q-28 -8 -58 -25.5t-54 -48.5q-28 -36 -34 -78q-3 -17 -2 -33 q0 -24 6 -45q10 -36 23 -67t25 -49l13 -18l-16 -5q-7 8 -18 23t-30.5 59t-24.5 86zM248 595l2 -3h-1l-1 1v2zM597 1031q61 -23 102 -23q30 0 51 12q86 49 95 147q1 12 1 23q0 58 -30 97q-21 27 -45 27q-17 0 -35 -13q-5 -3 -10 -8q-64 -63 -129 -262z" />
<glyph unicode="G" horiz-adv-x="1009" d="M-74 1028q0 41 26 92q27 51 86 87q37 22 84 25q8 1 18 1l74 -11q47 -12 100.5 -36t101.5 -50.5t100 -57.5q19 -12 28 -17q114 201 236 245q25 9 46 9q50 0 78 -51q23 -41 23 -94q0 -29 -7 -62q-22 -100 -93 -140q-16 -9 -33 -14q-20 -6 -42 -6q-53 0 -123 31 q-62 -148 -112.5 -326t-70.5 -281q-22 -95 -22 -175q0 -52 9 -97q16 -79 69 -79q25 0 57 17q43 22 92 84t93 144t68 131t45 97q-1 0 -19 3q-38 6 -69 6q-25 0 -45 -4q-46 -8 -71.5 -28.5t-38 -41.5t-14.5 -37l-3 -16l-18 13q0 4 0.5 10.5t6 25t14 34t27 32.5t43.5 27 q45 12 82 12q13 0 25 -2q46 -5 126 -14q47 -4 85 -4q27 0 49 2l-1 -25q-26 -3 -57 -3q-43 0 -94 6q-15 -39 -35 -85.5t-70 -137.5t-99.5 -154.5t-118.5 -100.5q-41 -23 -79 -23q-27 0 -53 11q-76 42 -104 136q-18 60 -18 133q0 39 5 81q11 114 71 316t143 365 q-23 14 -77.5 47.5t-83 50t-76.5 40.5t-80.5 30.5t-72.5 8.5h-9q-35 0 -66 -14q-34 -17 -65 -49q-30 -32 -41 -73q-7 -28 -7 -54q0 -12 1 -24q6 -37 16 -69.5t20 -51.5l11 -19l-17 -3q-6 9 -15 25t-23 62q-16 48 -16 90zM639 1008q72 -35 117 -35q20 0 34 7q87 38 109 133 q6 26 6 49q0 42 -20 76q-19 33 -47 33q-13 0 -28 -8q-7 -4 -14 -9q-73 -55 -157 -246z" />
<glyph unicode="H" horiz-adv-x="1199" d="M-114 973q-1 8 -1 17q0 36 17 78q21 54 76 96q42 32 96 39q13 2 27 1q45 0 107 -18q80 -24 121.5 -40t137.5 -59q20 -9 30 -13q92 212 208 269q29 14 54 14q44 0 74 -44q34 -48 34 -118q0 -17 -2 -35q-11 -103 -80 -150q-14 -9 -29 -15q-29 -12 -66 -12q-45 0 -100 18 q-19 -74 -68 -297q78 -9 206.5 -29.5t141.5 -22.5l50 -5q78 271 160 477q81 203 113 203h1l77 -8q-60 -120 -119 -260.5t-108 -277t-91 -271.5t-70 -250.5t-43 -205.5q-12 -75 -13 -127q0 -9 1 -19q3 -56 25 -65q15 -6 44 13.5t70 66.5t86.5 114.5t98 168.5t100.5 217 l15 -24q-5 -13 -14.5 -35.5t-39.5 -86.5t-59.5 -121t-72 -126t-80.5 -116q-39 -47 -81 -75q-32 -21 -60 -21q-9 0 -17 2q-50 13 -51 142q0 124 34 292q34 170 90 375q-37 0 -91 5.5t-97 12t-111.5 17.5t-98.5 16q-2 -9 -4 -18.5t-3.5 -16t-2.5 -11.5t-2 -7v-2 q-65 -316 -140.5 -506t-144.5 -202q-18 -4 -34 -4q-51 -1 -89 35q-50 46 -79 168q-10 54 -10 97q0 23 3 42q8 56 26 83l19 28q21 2 22 -8q-40 -80 -40 -166q0 -49 13 -100q25 -95 75 -133q20 -15 37 -15q23 0 41 29q2 3 4 7q23 43 48 129.5t41 161.5t45 215.5t43 206.5 q-4 0 -31 -3q-44 -10 -70.5 -31.5t-32.5 -37t-4 -26.5l-21 6q-1 1 -1.5 4t0 12t5 19t17.5 25.5t33 31.5q23 19 110 19q43 202 92 330q-25 11 -72.5 34t-75.5 36t-72 30.5t-73.5 24.5t-67.5 11q-13 1 -25 1q-23 -1 -41 -5q-28 -8 -58 -25.5t-54 -48.5q-28 -36 -34 -78 q-3 -17 -2 -33q0 -24 6 -45q10 -36 23 -67t25 -49l13 -18l-16 -5q-7 8 -18 23t-30.5 59t-24.5 86zM248 595l2 -3h-1l-1 1v2zM597 1031q61 -23 102 -23q30 0 51 12q86 49 95 147q1 12 1 23q0 58 -30 97q-21 27 -45 27q-17 0 -35 -13q-5 -3 -10 -8q-64 -63 -129 -262z" />
<glyph unicode="I" horiz-adv-x="658" d="M-114 973q-1 8 -1 17q0 36 17 78q21 54 76 96q42 32 96 39q13 2 27 1q45 0 107 -18q80 -24 121.5 -40t137.5 -59q20 -9 30 -13q92 212 208 269q29 14 54 14q44 0 74 -44q34 -48 34 -118q0 -17 -2 -35q-11 -103 -80 -150q-14 -9 -29 -15q-29 -12 -66 -12q-45 0 -100 18 q-13 -52 -34 -146t-36 -163t-14 -67q-65 -316 -140.5 -506t-144.5 -202q-18 -4 -34 -4q-51 -1 -89 35q-50 46 -79 168q-10 54 -10 97q0 23 3 42q8 56 26 83l19 28q21 2 22 -8q-40 -80 -40 -166q0 -49 13 -100q25 -95 75 -133q20 -15 37 -15q23 0 41 29q2 3 4 7 q41 76 84.5 275.5t92.5 431t97 355.5q-25 11 -72.5 34t-75.5 36t-72 30.5t-73.5 24.5t-67.5 11q-13 1 -25 1q-23 -1 -41 -5q-28 -8 -58 -25.5t-54 -48.5q-28 -36 -34 -78q-3 -17 -2 -33q0 -24 6 -45q10 -36 23 -67t25 -49l13 -18l-16 -5q-7 8 -18 23t-30.5 59t-24.5 86z M597 1031q61 -23 102 -23q30 0 51 12q86 49 95 147q1 12 1 23q0 58 -30 97q-21 27 -45 27q-17 0 -35 -13q-5 -3 -10 -8q-64 -63 -129 -262z" />
<glyph unicode="J" horiz-adv-x="1714" d="M-154 25q2 5 5.5 14t23 30.5t47.5 36.5t82 24q30 5 65 5q27 0 57 -3q65 -7 156 -37.5t170.5 -64.5t177 -67t174.5 -45q33 -4 67 -4q46 0 94 8q6 1 28 8q10 45 50 107t95.5 113t99.5 59q31 5 31 -32q0 -52 -55 -125q-75 -99 -190 -137q-7 -39 -7 -77q0 -19 1 -38 q6 -55 24.5 -95t46.5 -69.5t61 -35.5q12 -2 23 -2q23 0 48 8q49 19 83.5 130t57 277.5t46.5 345.5t67 369.5t103 313.5q-25 12 -72.5 34.5t-75.5 35.5t-71.5 30.5t-73 25t-67.5 10.5q-12 2 -23 2q-24 0 -43 -6q-28 -7 -58 -25t-54 -49q-27 -35 -34 -78q-2 -17 -2 -33 q0 -24 6 -45q9 -36 22.5 -67t25.5 -49l13 -18l-16 -5q-7 8 -18 23t-30.5 59t-24.5 86q-1 8 -1 17q0 35 17 78q21 54 76 96q42 32 96 39q13 2 27 2q46 0 107 -19q80 -23 121.5 -39.5t137.5 -59.5q20 -9 30 -13q92 212 208 269q29 14 54 14q44 0 74 -44q34 -48 34 -118 q0 -17 -2 -35q-11 -103 -80 -150q-14 -9 -29 -15q-29 -12 -66 -12q-45 0 -101 18q-13 -52 -33.5 -146t-35.5 -163t-14 -67q-12 -58 -27.5 -144.5t-28 -157.5t-29.5 -157.5t-34 -155t-38 -140.5t-46 -124t-54.5 -93.5t-66.5 -61.5q-33 -18 -70 -18h-8q-8 -3 -17 -3 q-13 0 -28 5q-27 8 -57.5 29t-58.5 65t-41 103q-12 46 -12 91q0 21 3 42q-2 0 -7.5 -1.5t-8.5 -1.5q-56 -8 -106 -8q-35 0 -66 4q-77 9 -171 38t-169 58.5t-166.5 58t-162.5 36.5q-29 3 -55 3q-23 0 -43 -2q-43 -6 -72 -19.5t-46.5 -27t-25.5 -23.5l-8 -11zM1030 -59 q55 21 97.5 52.5t64.5 61t35.5 59.5t17 47t3.5 23q-1 8 -8 8q-14 0 -54 -34q-77 -65 -126 -143q-27 -44 -30 -74zM1693 1031q61 -23 102 -23q31 0 51 12q86 49 95 147q1 12 1 23q0 58 -30 97q-21 27 -46 27q-17 0 -35 -13q-5 -3 -10 -8q-63 -62 -128 -262z" />
<glyph unicode="K" horiz-adv-x="1151" d="M-114 973q-1 8 -1 17q0 36 17 78q21 54 76 96q42 32 96 39q13 2 27 1q45 0 107 -18q80 -24 121.5 -40t137.5 -59q20 -9 30 -13q92 212 208 269q29 14 54 14q44 0 74 -44q34 -48 34 -118q0 -17 -2 -35q-11 -103 -80 -150q-14 -9 -29 -15q-29 -12 -66 -12q-45 0 -100 18 q-13 -52 -34 -146t-36 -163t-14 -67q-2 -11 -17.5 -82.5t-24.5 -106.5q281 348 450 448q62 36 112 52q41 13 68 14q6 0 10 -2q28 -4 47 -12.5t25 -18.5l7 -10l-13 -21q-1 2 -3 4.5t-12 8t-25 8t-44 1t-65 -10.5q-99 -24 -301 -224q108 64 171 63q43 0 66 -29q47 -62 47 -135 q-5 -33 -18.5 -86t-26.5 -96.5t-37.5 -120.5t-35.5 -114q-22 -72 -36 -125q-12 -53 -22 -105q-7 -40 -8 -68q0 -9 1 -17q3 -32 19 -42q7 -5 15 -5q21 -1 51 33q40 46 88.5 140t97 204t99.5 241l23 -7q-8 -23 -22.5 -61t-56 -138t-79.5 -179t-84.5 -151.5t-80.5 -88.5 q-31 -12 -49 -12q-7 0 -12 2q-18 6 -42 32q-45 51 -45 169q0 88 25 212q14 71 53 236.5t44 216.5q1 5 1 9q0 37 -35 37h-5q-65 -4 -182 -105q-43 -37 -84 -81l-1 1q-61 -67 -110 -126q-55 -209 -114.5 -329.5t-113.5 -130.5q-18 -4 -34 -4q-51 -1 -89 35q-50 46 -79 168 q-10 54 -10 97q0 23 3 42q8 56 26 83l19 28q21 2 22 -8q-40 -80 -40 -166q0 -49 13 -100q25 -95 75 -133q20 -15 37 -15q23 0 41 29q2 3 4 7q41 76 84.5 275.5t92.5 431t97 355.5q-25 11 -72.5 34t-75.5 36t-72 30.5t-73.5 24.5t-67.5 11q-13 1 -25 1q-23 -1 -41 -5 q-28 -8 -58 -25.5t-54 -48.5q-28 -36 -34 -78q-3 -17 -2 -33q0 -24 6 -45q10 -36 23 -67t25 -49l13 -18l-16 -5q-7 8 -18 23t-30.5 59t-24.5 86zM376 325l1 1zM597 1031q61 -23 102 -23q30 0 51 12q86 49 95 147q1 12 1 23q0 58 -30 97q-21 27 -45 27q-17 0 -35 -13 q-5 -3 -10 -8q-64 -63 -129 -262z" />
<glyph unicode="L" horiz-adv-x="864" d="M1 -51l2 1q0 20 4 42.5t16.5 55t42.5 62.5t74 49q32 14 72 14q75 0 176 -50q6 35 17.5 110t21 133.5t26 145.5t32.5 156.5t41 155.5t51.5 154t64 140t78.5 125.5t94.5 98.5t112.5 70q26 10 48 10q49 0 78 -49q26 -44 26 -101q0 -26 -5 -55q-19 -100 -89 -142l-25 16 q82 45 96 141q2 17 2 33q0 53 -26 87q-20 26 -44 26q-18 0 -39 -15q-2 -2 -4 -3q-151 -119 -271 -649q-77 -342 -181 -651q34 -22 126.5 -84.5t148.5 -98t144.5 -80t167.5 -68.5q64 -19 124 -29q54 -9 96 -9h9q45 1 84.5 8t68 20t51.5 27.5t38 29.5t24.5 27t14.5 19l5 8 q3 0 29 -26q-43 -47 -87 -78t-64.5 -39.5t-27.5 -8.5q-69 -13 -135 -15h-21q-55 1 -107 9q-62 10 -118.5 25.5t-114 42.5t-104.5 52t-101 60.5t-92 62t-89 62.5t-82 57q-59 -171 -129 -262q-62 -80 -138 -80q-11 0 -22 2q-7 -2 -16 -2q-38 0 -90 47q-63 57 -80 169zM31 -67 q2 -106 57 -168q40 -45 90 -46q19 0 39 7q50 15 88.5 108.5t76.5 260.5q-35 18 -72 32q-52 16 -93 16q-19 1 -35 -3q-52 -10 -81.5 -44t-45 -70t-19.5 -64l-4 -29h-1z" />
<glyph unicode="M" horiz-adv-x="1749" d="M-114 973q-1 8 -1 17q0 36 17 78q21 54 76 96q42 32 96 39q13 2 27 1q45 0 107 -18q80 -24 121.5 -40t137.5 -59q20 -9 30 -13q92 212 208 269q29 14 54 14q44 0 74 -44q34 -48 34 -118q0 -17 -2 -35q-11 -103 -80 -150q-14 -9 -29 -15q-29 -12 -66 -12q-45 0 -100 18 q-13 -52 -34 -146t-36 -163t-14 -67q-31 -151 -63 -267q38 68 75 130.5t81 131t85 127.5t86.5 116.5t87 101.5t84.5 77q44 34 82 51q35 16 69 15h5q36 -2 68 -23q9 -37 9 -84q1 -62 -15 -141q-26 -139 -76 -279t-101 -270.5t-81 -224.5q-21 -65 -21 -96q0 -14 4 -22 q6 -9 36 36q43 63 245 429q264 476 361 598q47 61 70 62q4 1 11 2t27 1.5t38 -2.5t39.5 -13t35.5 -26.5t22 -46.5q5 -20 5 -46q0 -12 -1 -26q-9 -62 -65.5 -227.5t-113.5 -320t-89 -287.5q-17 -71 -18 -110q0 -33 13 -42q7 -5 15 -4q20 1 50 33q40 46 89 139.5t97.5 203.5 t99.5 241l23 -8q-8 -23 -22.5 -61t-56 -137.5t-79.5 -179t-84.5 -151.5t-80.5 -88q-25 -12 -44 -11.5t-30.5 8t-27.5 25.5q-36 41 -36 138q0 113 50 302q18 66 109 359q62 198 62 263q0 9 -1 15q-6 30 -35 22q-42 -41 -152 -227.5t-218.5 -382.5t-210 -356.5t-133.5 -163.5 q-18 -3 -33 -3q-110 0 -110 130v6q2 158 181 554q21 47 63 138q104 224 112 269q4 23 -5 25q-16 19 -40 19q-82 0 -257 -230q-225 -296 -408 -659q-41 -116 -87 -189q-3 -3 -3 -7l-1 1q-41 -59 -76 -65q-18 -4 -34 -4q-51 -1 -89 35q-50 46 -79 168q-10 54 -10 97q0 23 3 42 q8 56 26 83l19 28q21 2 22 -8q-40 -80 -40 -166q0 -49 13 -100q25 -95 75 -133q20 -15 37 -15q23 0 41 29q2 3 4 7q41 76 84.5 275.5t92.5 431t97 355.5q-25 11 -72.5 34t-75.5 36t-72 30.5t-73.5 24.5t-67.5 11q-13 1 -25 1q-23 -1 -41 -5q-28 -8 -58 -25.5t-54 -48.5 q-28 -36 -34 -78q-3 -17 -2 -33q0 -24 6 -45q10 -36 23 -67t25 -49l13 -18l-16 -5q-7 8 -18 23t-30.5 59t-24.5 86zM597 1031q61 -23 102 -23q30 0 51 12q86 49 95 147q1 12 1 23q0 58 -30 97q-21 27 -45 27q-17 0 -35 -13q-5 -3 -10 -8q-64 -63 -129 -262z" />
<glyph unicode="N" horiz-adv-x="1006" d="M-114 973q-1 8 -1 17q0 36 17 78q21 54 76 96q42 32 96 39q13 2 27 1q45 0 107 -18q80 -24 121.5 -40t137.5 -59q20 -9 30 -13q92 212 208 269q29 14 54 14q44 0 74 -44q34 -48 34 -118q0 -17 -2 -35q-11 -103 -80 -150q-14 -9 -29 -15q-29 -12 -66 -12q-45 0 -100 18 q-2 -10 -12 -50.5t-15 -64.5q31 -58 52 -282.5t27 -382t6 -203.5q133 688 277 956q32 60 67.5 100.5t67 57.5t62 23.5t54.5 1.5t42.5 -12t28.5 -15l10 -7q-74 -8 -158 -114.5t-154 -263.5t-126.5 -328.5t-85.5 -326.5q-23 -125 -23 -206q0 -19 1 -36q-3 -3 -17 -7t-32 -5h-3 q-15 0 -29 12t-16 38v83v105q-1 114 -14.5 349.5t-39.5 332.5l-16 51q-4 -19 -8.5 -40.5t-8 -38.5t-7 -33.5t-6 -29t-4.5 -22t-3 -13.5l-1 -5q-65 -316 -140.5 -506t-144.5 -202q-18 -4 -34 -4q-51 -1 -89 35q-50 46 -79 168q-10 54 -10 97q0 23 3 42q8 56 26 83l19 28 q21 2 22 -8q-40 -80 -40 -166q0 -49 13 -100q25 -95 75 -133q20 -15 37 -15q23 0 41 29q2 3 4 7q41 76 84.5 275.5t92.5 431t97 355.5q-25 11 -72.5 34t-75.5 36t-72 30.5t-73.5 24.5t-67.5 11q-13 1 -25 1q-23 -1 -41 -5q-28 -8 -58 -25.5t-54 -48.5q-28 -36 -34 -78 q-3 -17 -2 -33q0 -24 6 -45q10 -36 23 -67t25 -49l13 -18l-16 -5q-7 8 -18 23t-30.5 59t-24.5 86zM597 1031q61 -23 102 -23q30 0 51 12q86 49 95 147q1 12 1 23q0 58 -30 97q-21 27 -45 27q-17 0 -35 -13q-5 -3 -10 -8q-64 -63 -129 -262z" />
<glyph unicode="O" d="M-74 1028q0 42 26 92q26 52 86 87q38 22 84 25q10 1 18 1l74 -11q46 -12 100 -36t102 -50.5t100 -57.5q19 -12 28 -17q114 201 236 245q23 8 43 8q25 0 45 -13q36 -23 51 -74q1 0 7.5 -4.5t7.5 -5.5t7.5 -5.5t9 -7.5t9 -10t11.5 -14t12 -17t15 -22q54 -83 59 -205 q1 -15 1 -29q0 -107 -32 -219q-36 -127 -97 -250.5t-140.5 -224t-159.5 -156.5q-25 -17 -40 -27t-37 -22q-22 -10 -40 -14q-14 -3 -30 -3h-10q-22 1 -42 9q-76 42 -104 136q-18 61 -18 133q0 39 5 81q11 114 71 316t143 365q-23 14 -77.5 47.5t-83 50t-76.5 40.5t-80.5 30.5 t-72.5 8.5h-9q-36 0 -66 -14q-34 -16 -65 -49q-30 -31 -41 -73q-7 -28 -8 -54q0 -12 2 -24q6 -36 16 -69t20 -52l11 -19l-17 -3q-6 9 -15 25t-23 62q-16 48 -16 90zM433 100q16 -79 69 -79q25 0 57 17q65 42 133.5 135t124.5 207.5t98.5 243t61.5 242.5q12 70 12 130 q0 38 -5 74q-12 90 -59 128q2 -16 2 -32q-1 -33 -9 -67q-12 -50 -44.5 -91t-79.5 -54q-20 -6 -42 -6q-53 0 -123 31q-62 -148 -112.5 -326t-70.5 -281q-22 -95 -22 -175q0 -52 9 -97zM639 1008q72 -35 117 -35q20 0 34 7q87 38 109 133q6 26 6 49q0 42 -20 76q-19 33 -47 33 q-13 0 -28 -8q-7 -4 -14 -9q-73 -55 -157 -246z" />
<glyph unicode="P" horiz-adv-x="946" d="M12 255q8 56 26 83l19 28q21 2 22 -8q-40 -80 -40 -166q0 -49 13 -100q25 -95 75 -133q20 -15 37 -15q23 0 41 29q2 3 4 7q22 41 45.5 122t39 150t41.5 196h1q42 190 118.5 461.5t124.5 374.5q-232 -17 -345 -228q-70 -131 -70 -311q0 -110 26 -237l-23 -2q-17 33 -29 89 q-12 57 -14 129v18q0 64 9 131q10 77 43 152.5t83.5 136t136.5 101.5t196 49q26 50 37 66l148 3q-17 -36 -25 -56q61 0 115.5 -14t83.5 -37q64 -34 96 -149q6 -52 7 -101q0 -215 -119 -360q-90 -109 -213 -142q-40 -11 -73 -11q-47 0 -77 23q-25 19 -28 50q-1 3 -1 10.5 t2 20.5t7.5 23.5t18.5 16.5t33 3q29 -7 24 -45t-28 -51q-4 -6 9 -9q7 -2 16 0q42 12 86 60.5t79 114.5t63.5 144t43.5 149q15 69 15 126q0 62 -20 89q-44 59 -145 59h-7q-109 -281 -289 -915h-2q-56 -210 -115 -331.5t-113 -131.5q-18 -4 -34 -4q-51 -1 -89 35 q-50 46 -79 168q-10 54 -10 97q0 23 3 42z" />
<glyph unicode="Q" d="M-74 1028q0 41 26 92q27 51 86 87q37 22 84 25q8 1 18 1l74 -11q47 -12 100.5 -36t101.5 -50.5t100 -57.5q19 -12 28 -17q114 201 236 245q23 8 43 8q26 0 45 -13q36 -23 51 -74q1 0 7.5 -4.5t7.5 -5.5t7.5 -5.5t9 -7.5t9 -10t11.5 -14t12 -17t15 -22q54 -83 59 -205 q1 -14 1 -29q0 -107 -32 -219q-37 -127 -97.5 -250.5t-140 -224t-159.5 -156.5q-33 -25 -58 -38q6 -63 29 -135q12 -38 32 -70.5t41 -53.5t44.5 -38t44 -24.5t38.5 -14t28 -5.5t13 2l-6 -33l-23 5q-22 5 -48 15.5t-58.5 29.5t-64.5 55.5t-54 85.5q-38 82 -49 165 q-30 -13 -59 -13q-25 0 -49 10q-76 42 -104 136q-18 60 -18 133q0 39 5 81q11 114 71 316t143 365q-23 14 -77.5 47.5t-83 50t-76.5 40.5t-80.5 30.5t-72.5 8.5h-9q-35 0 -66 -14q-34 -17 -65 -49q-30 -32 -41 -73q-7 -28 -7 -54q0 -12 1 -24q6 -37 16 -69.5t20 -51.5 l11 -19l-17 -3q-6 9 -15 25t-23 62q-16 48 -16 90zM431 110q15 -89 71 -89q16 0 35 7q-4 43 -4 80q0 16 1 30q2 50 6.5 79.5t6.5 31.5q1 2 10.5 2t18.5 -1l9 -1q-3 -10 -7 -27t-9 -71q-3 -30 -3 -60q0 -23 2 -47q77 54 157 175.5t139 267t95 289.5q30 119 30 220q0 20 -1 40 q-8 117 -63 162q2 -16 2 -32q0 -33 -9 -67q-12 -50 -44.5 -91t-79.5 -54q-20 -6 -42 -6q-53 0 -123 31q-62 -148 -112.5 -326t-70.5 -281q-22 -94 -22 -175q0 -45 7 -87zM639 1008q72 -35 117 -35q20 0 34 7q87 38 109 133q6 26 6 49q0 42 -20 76q-19 33 -47 33 q-13 0 -28 -8q-7 -4 -14 -9q-73 -55 -157 -246z" />
<glyph unicode="R" horiz-adv-x="1101" d="M12 255q8 56 26 83l19 28q21 2 22 -8q-40 -80 -40 -166q0 -49 13 -100q25 -95 75 -133q20 -15 37 -15q23 0 41 29q2 3 4 7q22 41 45.5 122t39 150t41.5 196h1q42 190 118.5 461.5t124.5 374.5q-232 -17 -345 -228q-70 -131 -70 -311q0 -110 26 -237l-23 -2q-17 33 -29 89 q-12 57 -14 129v18q0 64 9 131q10 77 43 152.5t83.5 136t136.5 101.5t196 49q26 50 37 66l148 3q-17 -36 -25 -56q61 0 115.5 -14t83.5 -37q64 -34 96 -149q6 -50 6 -98q0 -69 -12 -129q-20 -104 -65.5 -175t-100 -118t-116.5 -71q111 -21 171 -110q2 -2 7 -10t7 -11.5 t7 -11.5t7 -13t6 -13.5t5.5 -16t3.5 -17t3 -20t1 -21.5q-5 -33 -18.5 -87t-26 -95t-37.5 -121.5t-35 -113.5q-22 -73 -36 -125q-13 -54 -23 -106q-8 -40 -8 -68q0 -8 1 -16q3 -32 19 -42q7 -5 15 -5q20 -1 50 33q40 46 89 140t97.5 204t99.5 241l24 -8q-8 -23 -22.5 -61 t-56 -137.5t-79.5 -179t-84.5 -151.5t-80.5 -88q-31 -12 -49 -12q-7 0 -12 2q-18 6 -42 32q-45 51 -45 169q0 87 25 211q13 67 39 169t41.5 173.5t15.5 111.5q0 67 -38.5 108.5t-88.5 49.5q-30 -7 -57 -7q-32 0 -58 10q-48 18 -52 63q-1 3 -1 10.5t2 20.5t7.5 23.5 t18.5 16.5t33 3q29 -7 24 -45t-28 -51q-4 -6 9 -9q7 -2 16 0q42 12 86 60.5t79 114.5t63.5 144t43.5 149q15 69 15 126q0 62 -20 89q-44 59 -145 59h-7q-109 -281 -289 -915h-2q-56 -210 -115 -331.5t-113 -131.5q-18 -4 -34 -4q-51 -1 -89 35q-50 46 -79 168q-10 54 -10 97 q0 23 3 42z" />
<glyph unicode="S" horiz-adv-x="639" d="M-696 862q-1 8 -1 16q1 37 17 73q20 43 73 73q47 26 110 26h17q67 -3 152.5 -47.5t183 -105t163.5 -84.5q48 133 193.5 276.5t290.5 218.5l75 -87l7 -7l5 -4l-2 -2q10 -17 11 -39q0 -47 -46 -117q-68 -104 -161 -186t-190 -104q-26 -6 -59 -6h-17q-34 -59 -33 -101 q-1 -40 25 -63q26 -24 67.5 -40t92.5 -29.5t97.5 -28.5t86.5 -41.5t57 -63.5q19 -44 20 -90q0 -77 -54 -161q-67 -106 -180 -167q-81 -44 -148 -44q-35 0 -66 12q-72 28 -97 120q4 43 32 86.5t63 75.5t92 68t96 56.5t98 50t76 38.5q-23 18 -61 32.5t-76.5 23.5t-83 21 t-81.5 24t-71 33.5t-52.5 49t-25.5 70.5q-2 13 -2 26q0 33 12 72q-84 32 -267 149q-139 89 -241 89q-77 0 -131 -51q-37 -35 -40 -78v-14q0 -33 12 -55l15 -26q-1 -1 -3 -2t-6.5 -3.5t-6.5 -4.5l-3 -2q-31 28 -35 74zM31 86q-6 -17 -6 -30q0 -32 41 -32h2q74 3 209 92 q53 35 103 77q60 59 87 103q26 42 26 70q0 31 -26 54q-199 -97 -303 -172.5t-133 -161.5zM146 788q24 2 50 8q79 18 155 74t123 116q46 62 74 114q23 44 24 64q0 4 -1 6q-4 12 -11 19q-88 -65 -191.5 -158t-168.5 -171q-25 -30 -54 -72z" />
<glyph unicode="T" horiz-adv-x="631" d="M-114 1110q-1 8 -1 17q0 35 17 79q21 54 76 96q34 26 81 33q26 4 52 4q20 -1 39 -3q44 -6 105 -26t103.5 -38t105.5 -46l33 -15q37 84 76 142l98 2q-38 -73 -74 -186q40 -14 80.5 -25.5t111 -23.5t132.5 -13h7q60 0 126 16q70 17 124 55q45 32 59 70q7 20 7 37t-6 31 q-12 30 -31 56.5t-37 41.5l-19 14l8 22q8 -6 20.5 -16t38.5 -41.5t39 -62.5q9 -21 8 -46q1 -13 -1 -27q-6 -42 -45 -78q-41 -40 -96.5 -64t-106.5 -33q-37 -6 -80 -6h-35q-64 4 -105.5 9.5t-96.5 20t-68.5 19l-40.5 13.5q-13 -52 -34 -146t-36 -163t-14 -67 q-65 -316 -140.5 -506t-144.5 -202q-18 -4 -34 -4q-51 0 -89 36q-50 46 -79 167q-10 54 -10 97q0 23 3 42q8 56 26 84l19 27q21 3 22 -7q-40 -79 -40 -164q0 -50 14 -103q24 -95 74 -133q20 -15 37 -15q23 0 41 29q2 3 4 7q41 76 84.5 275.5t92.5 431t97 355.5 q-25 12 -72 34.5t-75.5 36t-72.5 31t-73.5 24.5t-67.5 11q-13 1 -25 1q-23 -1 -41 -5q-28 -8 -58 -25.5t-54 -48.5q-28 -36 -34 -78q-3 -17 -2 -33q0 -24 6 -45q10 -36 23 -67t25 -49l13 -18l-16 -6q-7 9 -18 23.5t-30.5 58.5t-24.5 86z" />
<glyph unicode="U" horiz-adv-x="1218" d="M-114 973q-1 8 -1 17q0 36 17 78q21 54 76 96q42 32 96 39q13 2 27 1q45 0 107 -18q80 -24 121.5 -40t137.5 -59q20 -9 30 -13q92 212 208 269q29 14 54 14q44 0 74 -44q34 -48 34 -118q0 -17 -2 -35q-11 -103 -80 -150q-14 -9 -29 -15q-29 -12 -66 -12q-45 0 -100 18 q-13 -39 -24.5 -73t-32.5 -99.5t-36.5 -121.5t-35 -130.5t-30.5 -135.5t-21 -127q-8 -54 -7 -96v-18q2 -49 11 -89q10 -39 34 -59q21 -17 51 -17h10q55 4 119 75t119 174t108 226t88 224.5t55 175.5l6 20h163q0 -1 -0.5 -4.5t-0.5 -5.5q-6 -39 -30 -112.5t-56.5 -156 t-70.5 -178t-70 -179t-56 -159.5t-28.5 -119t12.5 -57q15 -8 48 11.5t77 63.5t90.5 103t94.5 138t84 161l23 -9q-38 -86 -99.5 -187t-135.5 -189.5t-129 -113.5q-31 -12 -50 -12q-8 0 -12 2q-18 6 -40 32q-36 41 -36 134q0 109 50 289q-196 -385 -333 -385h-3q-99 3 -151 73 q-51 70 -57 180q-1 20 -1 41q0 94 20 208q25 139 71 276t105 267q-25 11 -72.5 34t-75.5 36t-72 30.5t-73.5 24.5t-67.5 11q-13 1 -25 1q-23 -1 -41 -5q-28 -8 -58 -25.5t-54 -48.5q-28 -36 -34 -78q-3 -17 -2 -33q0 -24 6 -45q10 -36 23 -67t25 -49l13 -18l-16 -5 q-7 8 -18 23t-30.5 59t-24.5 86zM597 1031q61 -23 102 -23q30 0 51 12q86 49 95 147q1 12 1 23q0 58 -30 97q-21 27 -45 27q-17 0 -35 -13q-5 -3 -10 -8q-64 -63 -129 -262z" />
<glyph unicode="V" horiz-adv-x="747" d="M-499 660q0 57 35 121q28 49 78.5 82.5t131 52t131.5 26t150 16.5l30 3q7 228 94 337q42 49 88 50q23 0 46 -13q57 -29 83 -108q12 -39 12 -74q0 -53 -27 -99q-10 -17 -24 -31q-50 -57 -158 -79q8 -52 23.5 -143.5t27 -159t11.5 -65.5q56 -311 56 -503q0 -74 -8 -130 q119 357 279 635q57 99 126 188.5t127.5 146.5t109 99.5t79.5 61.5l28 19l36 -12q-8 -4 -22 -13t-58 -43t-89 -75t-108.5 -112.5t-122.5 -152.5q-57 -79 -118.5 -198.5t-108.5 -233.5t-86 -217t-60 -166l-21 -63l-36 4l4 31q-18 221 -93 561.5t-93 522.5q-28 -3 -80 -6.5 t-83.5 -6t-79 -9.5t-77.5 -15t-67 -24t-61 -36.5t-45 -51t-32 -69.5q-6 -26 -6 -49q0 -19 4 -35q9 -37 31.5 -65.5t46.5 -47.5t42 -29l18 -9l-12 -14q-10 4 -25.5 11.5t-50.5 36t-55.5 62.5t-20.5 91zM167 974q114 19 149 66q42 58 42 118q0 31 -11 63q-22 61 -68 83 q-16 8 -31 8q-29 0 -50 -32q-4 -7 -8 -15q-27 -62 -27 -185q0 -48 4 -106z" />
<glyph unicode="W" horiz-adv-x="1338" d="M30 538q0 104 9 195q7 63 26.5 151.5t39.5 143.5l166 -1q-31 -73 -60 -198.5t-34 -218.5q-12 -198 -12 -345q0 -207 24 -312q28 -125 89 -124h10q21 4 43 67.5t46 168.5t50.5 221.5t67 250t84.5 230.5l15 30h174l-7 -20q-26 -73 -35 -120q-18 -81 -28 -217 q-7 -96 -7 -191q0 -40 1 -81q4 -136 36 -230q29 -86 78 -87q5 0 10 1q34 5 70 71t109 260q-93 88 -127 225q-20 77 -20 153q0 58 12 116q26 132 83 244q57 113 149 167q58 34 117 34q35 0 71 -13q24 -7 28 -47q1 -7 0 -15q0 -37 -14 -95q-18 -70 -29 -107t-33 -103 q-33 -99 -201 -561q32 -12 62 -12q22 1 43 7q50 16 93 56.5t74 82.5t49 75l17 33l19 -10q-2 -5 -6 -12.5t-17 -31t-27 -45.5t-35.5 -50.5t-43.5 -51t-50.5 -42.5t-56 -30t-60.5 -8.5t-64 17.5q-70 -184 -113.5 -252t-93.5 -83q-17 -5 -34 -5q-44 0 -82 37 q-52 51 -82.5 148.5t-46.5 218.5q-13 97 -14 199q0 25 1 50q4 128 25 233q-44 -102 -81 -235t-60.5 -243t-45.5 -208.5t-46 -157t-52 -63.5q-13 -2 -25 -2q-44 0 -82 30q-48 40 -78.5 115.5t-51.5 173.5t-29 208q-8 104 -8 202q1 7 1 13zM962 352q2 -106 44 -140 q136 365 195 540q35 100 62 214q14 58 14 89q0 29 -13 32q-7 2 -14 2q-40 0 -86 -63q-56 -74 -100 -194q-44 -118 -74 -246q-28 -118 -28 -218v-16z" />
<glyph unicode="X" horiz-adv-x="952" d="M-250 442q2 46 23.5 91.5t54 82.5t79 75.5t91.5 69.5t97 65q13 8 19 12q-70 142 -70 268q0 41 7 79q19 87 90 95q8 1 16 1q57 0 113 -51q72 -64 74 -151q1 -27 -6 -54q-20 -85 -104 -152q18 -31 125.5 -228t180.5 -319q21 21 73 79q63 70 106 139.5t61 125.5 q20 54 28 106q6 34 5 62q1 15 -1 27q-4 37 -11 64.5t-14 41.5l-7 14q166 -19 166 -130q0 -156 -323 -492l-66 -68q297 -488 546 -634l-40 -5q-106 55 -264.5 201.5t-320.5 360.5q-83 -79 -168.5 -155t-129.5 -112l-45 -36l-6 22q9 9 129 116t201 190q-192 260 -336 560 q-9 -6 -54 -34.5t-80 -52.5t-82.5 -66t-77 -81.5t-45.5 -91.5q-10 -31 -10 -62q0 -21 4 -42q10 -44 37 -75t59 -44t62.5 -20t50.5 -6h20l-3 -16q-5 -1 -14.5 -1.5t-36 1.5t-51 8t-54 22t-50.5 39.5t-35 65.5q-13 39 -13 88v7zM101 1175q8 -96 116 -268q90 67 100 127 q3 19 3 36q0 82 -58 138q-46 43 -95 43h-8q-49 -4 -57 -53q-1 -7 -1 -15v-8z" />
<glyph unicode="Y" horiz-adv-x="1718" d="M-154 25q2 5 5.5 14t23 30.5t47.5 36.5t82 24q30 5 65 5q27 0 57 -3q65 -7 156 -37.5t170.5 -64.5t177 -67t174.5 -45q33 -4 67 -4q46 0 94 8q6 1 28 8q10 45 50 107t95.5 113t99.5 59q31 5 31 -32q0 -52 -55 -125q-75 -99 -190 -137q-7 -39 -7 -77q0 -19 1 -38 q6 -55 24.5 -95t46.5 -69.5t61 -35.5q12 -2 23 -2q23 0 48 8q33 13 58.5 62.5t45 144t32.5 178t32.5 229t33.5 232.5q-112 -165 -248 -165q-57 0 -117 28q-56 26 -80 86q-18 46 -18 101q0 17 2 34q7 75 29 159.5t54.5 163.5t62.5 143.5t50 103.5l20 39l50 5h1 q1 0 -19.5 -40.5t-51.5 -107.5t-65 -148.5t-57 -167t-30 -160.5q-2 -16 -2 -32q0 -55 20 -98q25 -57 85 -77q26 -10 52 -10q7 0 13 1q33 3 60 13.5t54 33.5t48.5 47.5t42.5 58t37 64t31 64.5q54 292 131 451l15 32q29 63 45 90h104q-29 -45 -58.5 -161.5t-55 -261.5 t-55 -311t-65.5 -319.5t-78.5 -278t-101.5 -196.5q-53 -64 -114 -64q-7 0 -14 1q-8 -3 -17 -3q-13 0 -28 5q-27 8 -57.5 29t-58.5 65t-41 103q-12 46 -12 91q0 21 3 42q-2 0 -7.5 -1.5t-8.5 -1.5q-56 -8 -106 -8q-35 0 -66 4q-77 9 -171 38t-169 58.5t-166.5 58t-162.5 36.5 q-29 3 -55 3q-23 0 -43 -2q-43 -6 -72 -19.5t-46.5 -27t-25.5 -23.5l-8 -11zM1030 -59q55 21 97.5 52.5t64.5 61t35.5 59.5t17 47t3.5 23q-1 8 -8 8q-14 0 -54 -34q-77 -65 -126 -143q-27 -44 -30 -74z" />
<glyph unicode="Z" horiz-adv-x="1028" d="M13 101q1 9 7 34h2q47 113 184 143q22 5 45 5q76 0 169 -56q18 27 81.5 123.5t110 163.5t113 158t133 165t127.5 126q-19 13 -51.5 37.5t-53.5 39.5t-52.5 35t-55.5 30.5t-55.5 19.5t-59.5 8t-61 -9.5t-65 -27.5q-36 -22 -57.5 -53.5t-26 -60.5t-4 -55t4.5 -41l5 -16 l-19 -1q-3 8 -7 21q-5 15 -5 53q0 35 11 65q11 32 49.5 69t102.5 60q34 13 70 13h4q34 0 66 -8q34 -8 70 -24t68.5 -36t66 -42.5t63.5 -43.5q10 -7 15 -11q156 141 282 166q19 3 34 3q56 0 69 -45q4 -14 5 -29q0 -43 -35 -94q-52 -80 -135 -100q-10 -3 -20 -4q-14 -2 -27 -2 q-57 0 -118 33q-82 -108 -190 -254.5t-190.5 -253.5t-189.5 -238q19 -15 115.5 -98.5t168.5 -132t155 -81.5q68 -29 132 -43q61 -14 108 -13q2 -1 3 -1q48 0 90 7t71.5 19.5t50 24t31.5 19.5l11 8l4 -5q4 -5 8 -11l4 -5q-33 -20 -65 -35.5t-55 -23t-40.5 -12.5t-27.5 -6.5 t-11 -2.5q-24 -1 -47 -1q-58 0 -112 7q-76 10 -141 35t-117.5 51t-106.5 67t-89 70.5t-84 74.5t-74 66q-105 -121 -194 -183q-66 -45 -124 -46q-21 0 -40 6q-5 -1 -9 -1q-38 1 -74 45q-27 34 -27 83q0 24 6 52zM39 116q-14 -37 -14 -69q-1 -35 17 -63q27 -43 83 -43 q12 0 24 2q86 9 255 262q-40 27 -54 31q-58 24 -104 24h-7q-49 -2 -86 -25t-62 -49.5t-37 -47.5l-13 -22h-2zM1081 935q20 -11 29 -15.5t23 -11t23.5 -7.5t21 -1t22.5 4q99 23 146 102q24 38 24 67q0 14 -6 26q-10 22 -35 22q-16 0 -37 -9q-76 -35 -211 -177z" />
<glyph unicode="[" horiz-adv-x="231" d="M142 -54q-1 4 7 20q44 217 147 597t191 637l-4 10q2 20 22 36t45 16q8 0 22 -0.5t20 -0.5q21 0 62 0.5t61 0.5q18 0 25 -5t5 -16q-5 -62 -155 -62h-72q-35 -114 -72 -249t-76 -288t-62 -245t-60 -244.5t-39 -161.5q69 8 148 8q22 0 31 -9t6 -24q3 -15 -17.5 -30.5 t-47.5 -15.5l-153 -5q-20 0 -28 7.5t-6 23.5z" />
<glyph unicode="\" horiz-adv-x="250" d="M350 278.5q-1 102.5 0 202.5t1.5 160t4 157t4 122.5t5 127t4.5 103.5q5 23 18 36t27 13q17 0 28.5 -13.5t12.5 -38.5q-14 -185 -25.5 -363t-24 -389.5t-19.5 -328.5q0 -16 -3.5 -27.5t-7 -16.5t-5.5 -5q-15 0 -17 43q-2 115 -3 217.5z" />
<glyph unicode="]" horiz-adv-x="234" d="M-1 -61q1 36 39.5 48.5t112.5 12.5q48 0 67 -1q26 83 53.5 178.5t55 198.5t50 187.5t49.5 192.5t40.5 164.5t37 152.5t26.5 110q-59 -4 -148 -4q-21 0 -29.5 8.5t-5.5 22.5q1 20 20.5 36t46.5 16h154q31 0 36 -26q-2 -13 -16 -25q-39 -208 -141 -587t-191 -642 q0 -12 -1 -16q3 -15 -17 -30.5t-48 -15.5h-45q-19 0 -58 -2.5t-59 -2.5q-16 0 -23.5 6.5t-5.5 17.5z" />
<glyph unicode="^" horiz-adv-x="570" d="M312 922q-3 4 11 20q45 48 97 119q5 9 22 18t30 10.5t15 -1.5q10 -59 27 -101.5t28 -56.5t18 -17q5 -5 -17 -9q-21 -4 -41 -4q-35 0 -72 118q-43 -77 -80 -93q-7 -3 -16.5 -3.5t-15.5 -0.5t-6 1z" />
<glyph unicode="_" horiz-adv-x="321" d="M-56 -78q0 20 13.5 35t33.5 15h454q28 0 28 -32q-2 -20 -18.5 -38t-33.5 -18h-443q-19 0 -28 11.5t-6 26.5z" />
<glyph unicode="`" horiz-adv-x="746" d="M443 1062q4 4 11 9.5t22 18t24 21.5t8 10t23 -25t58.5 -63.5t69.5 -75.5t59 -65l25 -26l-26 -18z" />
<glyph unicode="a" horiz-adv-x="656" d="M30 379q14 75 45 150t85 131t112 66q13 2 25 2q66 0 94 -71q4 21 27 47h147q-57 -92 -131 -362q-49 -180 -48 -256q0 -39 12 -51q13 -13 29 -12q51 0 139 119q117 159 163 287l19 -8q-82 -215 -188 -329q-87 -94 -155 -93q-15 0 -29 4q-84 28 -84 154q0 76 30 188 q-105 -171 -188 -171q-12 0 -24 4q-54 12 -74 69q-12 34 -12 75q1 27 6 57zM156 243q6 -18 17 -18q3 0 7 2q72 34 149 159q7 43 16 82.5t19.5 82t15.5 66.5l-1 16q-2 20 -13.5 36.5t-32.5 20.5q-3 1 -6 1q-19 0 -43 -24q-86 -87 -121 -254q-15 -69 -15 -115q0 -34 8 -55z " />
<glyph unicode="b" horiz-adv-x="574" d="M4 187q5 179 84 506q100 411 214 607q71 122 133 123q24 0 46 -19q19 -16 33 -32t21 -34.5t12 -32.5t2 -36.5t-4 -35t-10.5 -39.5t-13.5 -38t-17.5 -42.5t-17.5 -42.5q-33 -79 -148 -292t-151 -267q-12 -27 -25 -82q4 12 16 28q4 12 20.5 24.5t39.5 21t54.5 -3.5 t60.5 -49q2 -3 5.5 -8.5t14 -24t18.5 -38t19 -50.5t15.5 -61.5t7.5 -70.5q1 -12 1 -24q0 -28 -5 -54q47 52 99 131.5t81 132.5l29 53l16 -8q-13 -27 -36 -70.5t-85.5 -140.5t-114.5 -149q-41 -156 -142 -246q-57 -50 -105 -50q-45 0 -82 44q-71 84 -83 280q-2 33 -2 67v23z M122 -132q21 -69 62 -69q7 0 15 2q52 16 100 86.5t55 131.5q-27 -13 -51 -12q-146 13 -149 262q-3 39 -3 70q0 35 4 60q-24 -100 -32 -169q-19 -121 -19 -212q0 -89 18 -150zM177 347v-32q0 -24 1 -46q2 -38 9.5 -85t21 -80.5t40.5 -53.5q21 -16 47 -16q8 0 16 1q15 1 49 24 q1 11 1 23q0 69 -25 156q-29 102 -69 165q-30 47 -52 47q-7 0 -13 -5q-25 -22 -26 -98zM199 556q40 67 138 263.5t122 254.5q38 92 53 172q6 31 6 51q0 33 -15 39q-2 1 -4 1q-25 -1 -73 -117q-52 -126 -133.5 -378.5t-93.5 -285.5z" />
<glyph unicode="c" horiz-adv-x="430" d="M-18 235q4 76 28 159.5t60 152t79 116t81 54.5q15 2 28 2q21 1 38 -5q27 -10 37.5 -28t16 -37.5t4.5 -33.5v-14l-22 -16q2 22 -6.5 53t-29 48t-55.5 -17q-29 -31 -82 -188q-75 -219 -75 -342q0 -15 1 -28q7 -82 59 -82q23 0 55 16q36 18 80 67t80 106.5t67 112.5t48 91 l18 37l17 -23q-9 -21 -24.5 -56t-64.5 -121t-97 -147t-115 -99q-40 -23 -78 -23q-25 0 -48 10q-56 30 -80 94q-21 54 -20 118q-1 11 0 23z" />
<glyph unicode="d" horiz-adv-x="645" d="M-38 158q-7 31 -7 65q0 79 37 178q53 143 142 209q44 33 90 37q9 1 17 1q88 0 106 -88q62 232 108.5 384.5t103 297t110.5 197.5q31 31 62 31q22 0 43 -16q28 -21 43 -46q15 -24 20 -46q2 -9 2 -22q1 -14 -3 -34q-6 -34 -13 -55.5t-22.5 -65t-22.5 -64.5 q-30 -92 -133 -281.5t-164 -282.5q-15 -57 -35.5 -133t-35.5 -130t-31.5 -116.5t-25.5 -106.5q-9 -45 -15 -85q-5 -31 -6 -53q0 -7 1 -13q2 -26 11 -36q7 -9 19 -9q9 0 20 4q28 11 60 45q52 56 124 183t117 226l46 99l25 -2q-19 -47 -65 -140t-116 -217q-69 -125 -140 -187 q-38 -34 -68 -33q-25 0 -43 24q-17 23 -25 51q-8 26 -9 66q0 42 4 83q3 35 11.5 109t12.5 126v3q-2 -4 -15 -29t-18.5 -35t-19.5 -35t-24 -37.5t-26 -33.5t-30 -32t-32 -24t-37.5 -19t-39.5 -7h-10q-82 0 -103 95zM79 134q5 -32 20 -32h3q20 7 42 23.5t42.5 40t39 47.5 t36 51.5t28.5 46.5t22 37l10 19q3 27 8.5 69.5t8.5 65.5q-9 66 -39 100q-16 19 -33 19q-14 0 -27 -12q-80 -67 -131 -254q-32 -117 -32 -190q0 -17 2 -31zM500 633q44 68 131 245t109 241q68 193 68 241q0 25 -12 25t-62 -111q-50 -113 -117 -295t-117 -346z" />
<glyph unicode="e" horiz-adv-x="416" d="M2 320q4 90 26.5 176.5t71.5 150.5t112 79q23 5 46 6q36 0 70 -14q52 -20 52 -66q0 -5 -1 -10q-5 -53 -30 -97t-55.5 -68.5t-66.5 -42t-57.5 -23.5t-34.5 -7q-36 -101 -38 -219q0 -7 -1 -13q0 -120 53 -120q5 0 10 1q42 10 90.5 53.5t87.5 99.5t72.5 111t52.5 92l18 37 l28 5q-9 -20 -25 -53t-64 -114t-95 -139t-110 -95q-40 -23 -75 -23q-21 0 -42 8q-49 39 -74 117q-22 68 -22 144q0 12 1 24zM145 434q26 3 52 13t56.5 30t56.5 58t41 88q3 10 3 18q0 23 -18 37q-10 8 -22 8q-17 0 -36 -19q-26 -27 -65 -94t-68 -139z" />
<glyph unicode="f" horiz-adv-x="479" d="M-39 -250v33q0 73 7 151q21 240 99 642h2q2 19 4 19l3 13q3 14 9 36.5t14.5 50.5t20.5 58.5t26 58t31.5 51.5t36.5 37q48 33 84 33q26 0 46 -18q30 -29 30 -88q0 -34 -10 -78q-9 -43 -29 -92q-49 -122 -146 -243q1 -2 18.5 -24.5t23 -28l22.5 -22.5t29 -23t30.5 -12.5 t38.5 -6.5q39 0 77 15t64 36.5t46.5 42.5t30.5 36l10 15q5 5 10 -5q1 -3 1 -5q0 -4 -2 -6q-4 -7 -12 -18.5t-34 -39.5t-54.5 -48.5t-71.5 -33.5q-31 -10 -61 -10q-13 0 -27 2q-44 7 -66 22.5t-51 56.5q21 -67 39 -136.5t35 -182.5q17 -110 17 -205v-6q-1 -98 -28.5 -203 t-86.5 -178q-47 -50 -88 -50q-36 0 -67 42q-65 89 -71 312zM45 -187q-20 -121 -20 -206q0 -138 53 -179q13 -10 27 -10q27 0 59 34q49 52 84 172q29 103 29 221q0 21 -1 42q-10 215 -98 486q-105 -390 -133 -560zM200 455q83 128 113 227q14 45 21 80q7 39 7 59q0 15 -3 25 q-4 12 -7 15.5t-5 3.5q-10 0 -99 -302q-5 -25 -27 -108z" />
<glyph unicode="g" horiz-adv-x="588" d="M-373 -703q-21 26 -21 62q0 42 30 97q27 50 79 104q45 47 114.5 93t123 73t128 61.5t95.5 45.5l11 34q49 176 107 446q-39 -79 -91 -133q-48 -51 -104 -51h-8q-75 5 -75 134t64 280q58 140 121 170q7 3 13 5q22 5 40 5q36 0 57 -19q32 -29 43 -72q6 25 25 77l146 3 q-31 -103 -111.5 -424t-103.5 -377q89 75 189 197q69 84 152 220l22 -13q-85 -145 -155 -232q-105 -131 -223 -222q-31 -90 -67 -161q-88 -165 -199 -282q-131 -134 -262 -156q-24 -4 -45 -4q-63 0 -95 39zM-352 -588q-11 -29 -11 -51q0 -24 12 -40q18 -28 55 -33 q9 -1 19 -1q30 0 63 12q45 16 94.5 52.5t90.5 86.5q112 139 194 365q-29 -17 -123 -61.5t-173.5 -94t-137.5 -111.5q-61 -65 -83 -124zM139 170q2 -3 5 -3q2 0 4 1q77 43 162 217q15 127 35 212q-28 88 -61 88q-22 0 -47 -42q-53 -88 -88 -288q-17 -96 -17 -144q0 -30 7 -41 z" />
<glyph unicode="h" horiz-adv-x="728" d="M30 364q10 108 28.5 225.5t48 243.5t51 211t39.5 147q7 26 15 52.5t19 59t24.5 60.5t29 55t33.5 46q18 18 38 30q17 10 36 11q4 -1 6 -1q22 -2 45 -16q37 -24 41 -88q1 -11 0 -22q0 -56 -18 -124q-22 -84 -57 -179t-78.5 -188t-80.5 -169.5t-63.5 -129.5t-28.5 -60 q-34 -112 -56 -229q-14 -77 -14 -121q0 -22 4 -35q4 -17 18 -7q30 23 73 171q49 171 125.5 297t137.5 129l3 3q8 1 20 2t42.5 -3.5t52.5 -16.5q23 -14 38 -46q11 -23 11 -54q0 -13 -2 -27q-5 -29 -60.5 -227t-87.5 -363q-16 -84 -16 -133q0 -48 15 -63q1 -1 3 -1 q22 0 121 192q107 208 211 446l24 -8q-5 -11 -56 -126t-92.5 -205.5t-93.5 -187.5t-80 -124q-13 -12 -28 -12q-26 0 -60 37q-46 52 -46 171q0 88 25 212q7 37 66 277q31 129 31 186q0 23 -5 34q-10 23 -40 15q-20 -15 -43.5 -41.5t-63 -91t-72.5 -146.5q-17 -44 -35.5 -92.5 t-29 -77.5t-22 -59.5t-20 -46.5t-18.5 -29t-20 -17t-23 -2q-42 8 -58 78q-10 44 -10 103q-1 35 3 75zM165 585q12 35 101 229t149 362q44 123 44 186q0 23 -6 39q-1 2 -2 2q-8 0 -34 -61q-78 -181 -184 -518q-48 -153 -68 -239z" />
<glyph unicode="i" horiz-adv-x="343" d="M14 224q5 86 21 177.5t36.5 159t32.5 87.5q4 15 14 26l147 2q-67 -103 -137 -376q-38 -146 -38 -215q0 -59 28 -60q29 0 97.5 81t131.5 179.5t85 154.5l16 -25q-21 -63 -86 -162.5t-140 -177.5q-70 -72 -108 -72h-6q-53 7 -76 71q-19 53 -19 120q0 15 1 30zM224 961 q25 17 48 17q19 0 36 -11q32 -20 37 -70q1 -8 1 -15q0 -24 -10 -38q-14 -18 -33.5 -22t-43 -11t-34.5 -21q-7 -9 -12 -18t-7 -14l-1 -5q-5 3 -11 10q-8 7 -18 30q-10 21 -9 44q0 86 57 124z" />
<glyph unicode="j" horiz-adv-x="387" d="M-645 -703q-21 26 -21 62q0 42 30 97q27 50 79 104q45 47 115 93t124.5 73.5t129 61.5t96.5 45l12 34q26 94 48 187.5t48 217.5t40 187q11 49 29 78h139q-28 -82 -95 -325.5t-91 -300.5q123 104 248.5 274t147.5 239l25 -13q-16 -37 -54 -99t-93.5 -141.5t-133 -164 t-155.5 -145.5q-30 -96 -62 -161q-87 -165 -201 -282q-132 -134 -264 -156q-24 -4 -45 -4q-64 0 -96 39zM-624 -588q-11 -29 -11 -51q0 -24 12 -40q18 -28 55 -33q9 -1 19 -1q30 0 63 12q45 16 94.5 52.5t91.5 86.5q118 144 198 365q-30 -18 -94.5 -49t-117.5 -57 t-117.5 -69.5t-109.5 -91.5q-61 -65 -83 -124zM138 734q-1 5 -1 12q0 13 5 34q18 62 64 77q14 4 26 4q31 0 56 -27q27 -30 27 -78q0 -15 -3 -32q-4 -25 -17 -47t-25 -31l-11 -10q-2 17 -15 37q-7 12 -24 18.5t-32.5 9t-30.5 10.5t-19 23z" />
<glyph unicode="k" horiz-adv-x="719" d="M34 356q12 109 29.5 213t52 238t52.5 201t41 146q6 25 15 53.5t21 61t26.5 62.5t31 57.5t34.5 47.5t37 30q15 8 31 8q5 0 9 -1q21 -3 41 -22q47 -43 57 -99q4 -25 5 -46q-1 -26 -7 -48q-12 -39 -44 -120q-5 -13 -8 -20q-37 -92 -132.5 -295.5t-135.5 -265.5 q-5 -15 -13.5 -43t-14 -46.5t-14.5 -48.5t-14.5 -49.5t-13.5 -49t-12 -46.5t-9.5 -42.5t-6.5 -37t-2.5 -30t2.5 -21.5q5 -21 22 0q26 34 69 164q82 254 227 464q79 116 168 185q51 40 78 41q18 0 25 -18q3 -9 4 -23q0 -20 -8 -50q-32 -128 -161 -173q97 -17 97 -114 q0 -13 -2 -28q-4 -25 -23 -88.5t-41.5 -134.5t-46.5 -159t-38 -161q-16 -74 -18 -142v-15q0 -57 18 -86q2 -3 4 -3q16 0 62 79q56 94 129.5 250.5t133.5 308.5l24 -7l-6 -10q-5 -13 -26 -65q-156 -397 -252 -519q-50 -64 -88 -64q-28 0 -49 35q-33 55 -33 164q0 95 25 232 q10 59 35 175q43 201 43 265v5q-2 59 -36 59q-7 0 -15 -2q-93 -136 -158 -284q-26 -60 -49 -122.5t-34 -94t-23.5 -58.5t-24 -35.5t-29.5 -5.5q-41 9 -57 74q-9 37 -9 87q0 39 5 87zM209 633q50 78 224 488q38 92 53 171q6 30 6 51q0 33 -15 39q-16 3 -100.5 -235 t-167.5 -514zM432 737q85 0 159 72q41 39 55 77q10 28 10 45q0 6 -2 10q-4 17 -12 23q-1 1 -2 1q-8 0 -28 -16q-24 -19 -68 -67t-89 -111z" />
<glyph unicode="l" horiz-adv-x="415" d="M11 143q2 125 26 290q0 2 3 26t7 51.5t13 79t20.5 108t31 137.5t43.5 169q21 82 42 148.5t44.5 125.5t46 98.5t47.5 66.5t49 29q4 0 8 1q21 0 44 -13q22 -14 36 -31.5t21.5 -34t9.5 -38.5t0.5 -39.5t-8 -44t-12.5 -45.5t-15 -49l-15 -50q-27 -99 -134.5 -344.5 t-153.5 -321.5q-10 -49 -28.5 -130t-27.5 -124.5t-21 -105.5q-10 -64 -12 -100q-1 -14 -1 -28q-1 -24 1 -49q2 -41 15 -68.5t35 -46.5q10 -8 21 -8q45 0 123 126q96 158 170 334l73 178l28 -6q-4 -3 -35.5 -79t-77 -177t-98 -199.5t-108.5 -156.5q-43 -45 -78 -45 q-11 0 -21 4q-33 14 -57 53q-24 40 -40 112q-15 65 -15 171v26zM181 538q37 66 126 290t110 297q18 62 27 94t20 79q10 43 10 66q0 28 -13 29q-7 0 -29 -53q-22 -54 -54 -146t-66.5 -201.5t-69.5 -231t-61 -223.5z" />
<glyph unicode="m" horiz-adv-x="1148" d="M23 420q18 213 60 281l3 4h144q-59 -128 -105 -314q-26 -105 -26 -151q0 -35 15 -35h2q2 0 4 1q22 69 34.5 106t42.5 111t58 125t72.5 114t95.5 112q57 59 136 59q24 0 50 -5q43 -9 43 -86q0 -74 -39 -210q-18 -63 -110 -336q-61 -179 -61 -231q0 -9 2 -15q5 -12 17 -10 q16 2 56 99.5t89.5 234.5t101.5 273.5t103 233t83 98.5q8 1 21 3q4 0 10 1q13 -1 36 -3q33 -4 57 -16.5t42 -48.5q13 -27 12 -65q0 -13 -1 -27q-6 -39 -22.5 -101.5t-37 -128.5t-43 -139t-40.5 -139t-30 -122q-10 -50 -10 -85v-10q2 -38 19 -49q7 -5 15 -4q20 1 50 33 q40 46 89 139.5t97.5 203.5t99.5 241l23 -8q-8 -23 -22.5 -61t-56 -137.5t-79.5 -179t-84.5 -151.5t-80.5 -88q-25 -12 -44 -11.5t-30.5 8t-27.5 25.5q-46 52 -46 171q0 88 25 212q7 37 65 277q31 128 31 185q0 23 -5 35q-10 23 -40 15q-39 -42 -103.5 -201t-120.5 -321.5 t-115.5 -295t-93.5 -134.5q-55 16 -55 145q0 85 24 220q10 52 73 335q29 130 29 177q0 21 -6 26q-5 4 -12 0q-55 -34 -105.5 -95t-89 -135.5t-66.5 -138t-55.5 -134.5t-37.5 -93q-18 -41 -42 -41q-12 0 -25 11q-41 33 -57 129q-7 37 -7 75q0 18 2 37z" />
<glyph unicode="n" horiz-adv-x="844" d="M21 339q3 92 26 186.5t57 166.5l151 1q-64 -111 -119 -281q-38 -118 -38 -171q0 -23 7 -33q2 -10 18 18q15 25 143 288q219 450 314 538q29 27 49 25q4 1 11 2t27 1q3 0 6 1q17 0 32 -3q18 -3 39.5 -13t36 -26.5t22.5 -46.5q5 -20 5 -46q0 -12 -1 -26q-6 -39 -30 -112.5 t-56.5 -156t-70 -178t-70 -179t-56 -159.5t-28 -119t12.5 -57q15 -8 48 11.5t77 63.5t90.5 103t94.5 138t84 161l23 -9q-38 -86 -99.5 -187t-135.5 -189.5t-129 -113.5q-31 -12 -50 -12q-7 0 -12 2q-19 6 -41 32q-36 41 -36 133q0 114 55 307q19 66 115 358q64 196 64 258 q0 9 -1 15q-5 30 -34 22q-38 -12 -149 -210.5t-224.5 -425t-127.5 -248.5q-9 -17 -23 -14.5t-26 13t-21 25.5q-30 50 -30 132v15z" />
<glyph unicode="o" horiz-adv-x="514" d="M-9 324q14 96 49.5 186.5t94.5 153t122 66.5q7 1 14 1q27 0 49 -10q28 -12 41.5 -28t22 -39t10 -34.5t2.5 -22.5q15 3 28 -5.5t13 -23.5q0 -16 -8 -54.5t-16 -70.5t-8 -30v1q-26 -94 -33 -111q17 -28 46 -19q44 14 84 51.5t58 68.5l18 30l17 -1q-3 -7 -9 -18t-25 -39.5 t-40 -51t-53 -42t-64 -22.5q-24 -1 -41 24q-87 -212 -164 -247q-28 -12 -56 -12q-24 0 -48 9q-65 32 -91 113q-17 53 -18 112q0 32 5 65zM91 121q8 -45 48 -48h8q52 0 111 73q48 60 86 157q-21 41 -25 107q-1 14 -1 28q0 52 12 94q15 54 43 63q0 24 -8.5 42.5t-30.5 26.5 q-6 2 -12 3q-19 0 -47 -19q-56 -37 -105 -138q-49 -100 -71 -210q-13 -67 -14 -119q1 -33 6 -60zM352 493q-7 -35 -6 -67q0 -44 12 -82q4 18 11 43.5t11.5 43.5t10 39.5t8.5 37t5 30.5q1 9 0 16v9q-1 10 -5 15q-31 -2 -47 -85z" />
<glyph unicode="p" horiz-adv-x="716" d="M-39 -144q9 175 36 362t87 375.5t143 314.5l165 -2q-132 -214 -244 -532q21 46 42 88.5t46 88.5t50 84t51 73t52 58.5t51.5 37.5t50.5 12.5t47 -19.5q35 -19 68 -54t35 -69v-15q0 -87 -43 -188q-48 -110 -117 -196.5t-140.5 -148.5t-116.5 -73q32 -12 71 -13q4 -1 7 -1 q36 0 82 14q49 15 96 46q77 52 153 134.5t113 138.5l38 57l21 -16q-6 -10 -17 -26.5t-46.5 -63.5t-72 -88.5t-90.5 -89t-105 -76.5q-61 -35 -118 -47q-37 -9 -65 -9q-17 0 -31 3q-38 7 -68 23.5t-44.5 35t-15.5 32.5q-1 3 -1 10.5t2 20.5t7.5 23.5t18.5 16.5t33 3 q29 -7 23.5 -45t-28.5 -51q-4 -6 9 -9q7 -2 16 0q77 22 171 208q88 174 124 344q13 62 13 100q0 56 -28 61q-14 3 -36 -11q-96 -61 -178 -199t-133.5 -300.5t-85 -332.5t-43.5 -306q-6 -67 -6 -119q0 -54 6 -92q0 -5 -2 -9t-4 -5l-6 -3l-5 -2q-24 32 -35 152q-7 67 -7 152 q0 66 4 142z" />
<glyph unicode="q" horiz-adv-x="702" d="M25 312.5q0 46.5 10 101t34 108t53.5 98.5t69.5 75.5t82 35.5q10 1 19 1q69 0 96 -75q5 17 18 29l164 2l1 -2q-8 -15 -101 -271h3l-3 -5l-1 -2v-1q16 -21 37 -42t50.5 -41.5t57.5 -24.5t58 7q55 29 82 99l19 -6q-34 -95 -110 -118q-18 -6 -37 -6q-29 0 -61 13 q-53 21 -79 63q18 -68 33 -139.5t27 -185.5q8 -80 8 -152q0 -31 -1 -60q-5 -98 -37 -202.5t-94 -174.5q-49 -45 -88 -45t-70 45q-58 86 -58 289v27q1 90 15 186q27 198 78 399q-109 -153 -186 -153q-13 0 -26 5q-31 9 -47 42.5t-16 80zM136 253q7 -24 23 -17q67 28 150 143 q7 35 17 70.5t28 94t23 73.5l-1 16q-2 20 -12.5 37.5t-30.5 22.5q-3 1 -6 1q-18 0 -42 -23q-90 -83 -134 -247q-20 -77 -20 -127q0 -26 5 -44zM268 -482q10 -64 44 -93q14 -12 30 -12q26 0 57 31q51 50 91.5 169.5t40.5 262.5q0 221 -73 493q-41 -115 -94 -293 q-35 -119 -57 -212.5t-35 -187.5q-8 -53 -8 -97q0 -33 4 -61z" />
<glyph unicode="r" horiz-adv-x="634" d="M99 436q103 229 183 437q-43 9 -82 27q-23 10 -37.5 25t-19 28.5t-5 29t1 21.5l2.5 10q32 126 114 169q31 17 58 16q24 0 44 -12q25 -16 31 -47q1 -5 1 -10q0 -56 -70 -238q12 -5 60 -9.5t76 -17.5q62 -27 62 -114v-5q-6 -39 -22.5 -101.5t-37 -128.5t-43 -139 t-40.5 -139q-17 -66 -29 -122q-10 -50 -11 -85q1 -5 1 -9q2 -38 18 -50q7 -4 15 -5q27 0 71 48q58 62 124 177.5t122 250.5l25 -9q-56 -137 -153 -291.5t-153 -181.5q-31 -12 -49 -12q-6 -1 -11 1q-18 6 -42 32q-39 46 -47 131q-2 25 -3 51q0 62 13 126q18 92 42 192 q23 100 43 180q19 74 19 127v7q-2 54 -35 61l-25 10q-35 -94 -81.5 -203t-75.5 -172l-29 -62zM167 1002q-1 -6 -1 -12q0 -30 28 -52q34 -26 97 -41q67 179 67 228q0 6 -1 10q-8 36 -41 36q-6 0 -14 -1q-51 -9 -93 -67q-32 -45 -42 -101z" />
<glyph unicode="s" horiz-adv-x="571" d="M-67 -223q1 39 25 92q26 55 77 111q74 87 243 207q-18 7 -73 18q-149 36 -161 168q-1 11 -1 23q0 107 83 232q82 124 191 185q68 38 125 38q54 0 98 -35q19 -16 36 -39q10 -15 10 -34q0 -32 -29 -77q-14 -21 -32 -39t-40.5 -32t-42 -25t-48.5 -20t-46 -14.5t-47 -10.5 t-40.5 -7t-38.5 -6l-27 -3q-44 -45 -66 -89q-21 -41 -21 -80v-6q2 -42 43.5 -74t123.5 -49l26 -8q116 84 309 202l13 -20q-127 -69 -297 -192q68 -33 79 -105q2 -16 2 -32q0 -58 -30 -123q-31 -72 -107 -146q-74 -73 -160 -105q-30 -11 -58 -11q-51 0 -94 38q-25 25 -25 68z M-40 -224q4 -33 30 -58q15 -13 36 -13q22 -1 50 15q54 30 105 93t94 136t59 126q7 26 7 44q-1 12 -3 21q-8 23 -35 37q-57 -42 -106 -82.5t-95 -84t-77 -84.5t-49 -79q-16 -32 -16 -60q-1 -6 0 -11zM221 535q54 5 122 23t108 43q75 47 91 92q3 8 3 14q0 11 -12 11h-3 q-58 -9 -148 -61.5t-161 -121.5z" />
<glyph unicode="t" horiz-adv-x="415" d="M9 920l3 29l124 -17l29 98q75 256 147 378q51 86 101 87q21 0 42 -15q22 -15 36 -32.5t21.5 -34.5t8.5 -38.5t-0.5 -39.5t-8.5 -44t-13 -45t-16 -49t-16 -50q-23 -69 -101 -247q74 -14 160 -13.5t183 13.5l2 -30q-106 -12 -202 -12q-83 0 -158 9q-132 -289 -189 -380 q-17 -73 -27 -117.5t-23.5 -108.5t-19.5 -105q-4 -41 -10 -91q-4 -32 -4 -58q0 -13 1 -25q3 -34 10 -66.5t22 -54t38 -34.5q11 -6 24 -7q27 0 57 30q46 43 85.5 118t73.5 153t53 135l20 57l22 -6q-4 -14 -12 -37t-33 -87t-50 -120t-61 -118t-69 -97q-40 -50 -89 -50 q-9 0 -19 2q-73 13 -111 129q-31 93 -31 236q0 128 25 296q0 2 8.5 55.5t30 157t56.5 227.5q-77 11 -120 19zM180 563q42 72 140 307l-46 6q-70 -221 -94 -313zM285 908q3 0 11 -0.5t11 -0.5q12 -4 28 -4q67 162 94 242q19 58 29 93q10 34 22 80q11 42 11 65q0 29 -13 30 q-12 -1 -70 -153q-58 -154 -123 -352z" />
<glyph unicode="u" horiz-adv-x="699" d="M11 223q4 87 19.5 178.5t35 159t31.5 87.5q10 27 39 47l148 3q-56 -78 -142 -372q-50 -170 -51 -245q0 -54 27 -56q4 0 7 -1q136 0 321 508q6 19 36.5 95t30.5 77l167 3q-12 -23 -38 -80.5t-64 -146.5t-70 -183q-31 -93 -53 -179q-19 -74 -19 -131v-17q4 -62 39 -77 q8 -3 16 -3q34 0 80 54q58 68 116.5 198t96.5 279l23 -7q-3 -9 -8 -25.5t-21 -65t-33.5 -93.5t-44 -103.5t-52.5 -104t-58 -84.5t-63 -56q-24 -13 -43.5 -13t-31.5 8t-28 26q-44 51 -60 114q-11 44 -10 90q0 19 2 38q6 65 29 165q-29 -64 -59.5 -116.5t-66.5 -99t-75 -70.5 q-34 -21 -66 -22q-5 0 -10 1q-53 5 -77 69q-21 54 -21 127q0 12 1 24z" />
<glyph unicode="v" horiz-adv-x="634" d="M0 134v26q0 86 16 170q20 96 50 230t39 201h155v-15q-6 -39 -22.5 -101.5t-36.5 -128.5t-43 -139t-40.5 -139t-29.5 -122q-10 -50 -9 -85q-1 -5 -1 -9q2 -38 19 -50q7 -5 16 -5q37 0 101 85q80 105 162 276q-22 50 -22 127q0 59 13 135q11 62 32 122.5t46 105t51 78.5 t49 48q16 10 28 10q5 0 9 -2q30 -15 29 -69q-1 -11 -1 -24q-8 -75 -54 -192q-95 -240 -149 -335q26 -46 74 -54q15 -3 29 -3q32 0 64 13q44 19 76 51q63 64 63 69h-1l14 -19q-4 -6 -12 -16.5t-32.5 -36.5t-49.5 -45.5t-62 -34.5q-31 -12 -60 -12h-11q-73 5 -107 57 q-63 -121 -132 -220t-112 -120q-31 -12 -49 -12q-5 -1 -11 1q-18 6 -43 32q-42 50 -45 152zM382 430q6 -50 12 -67l35 80q21 44 43.5 95t58 139t50.5 154q8 33 7.5 54.5t-7.5 31.5q-6 8 -15 8q-21 0 -57 -53q-66 -97 -105 -247q-23 -91 -23 -164q0 -16 1 -31z" />
<glyph unicode="w" horiz-adv-x="1075" d="M18 312q16 114 40 212t40 124q1 6 7 18h161q-69 -138 -136 -387q-36 -135 -36 -198q0 -54 26 -56h7q34 0 72 33q42 37 76.5 92t70.5 130.5t59 134.5t43 117q57 166 83 273l154 -5q4 -16 4 -54q-6 -39 -22.5 -101.5t-37 -128.5t-43 -139t-40.5 -139t-30 -122 q-10 -50 -10 -85v-9q2 -38 19 -50q7 -5 16 -5q37 -1 101 85q80 106 163 276q-22 50 -22 127q0 59 13 135q22 122 75 222t102 132q48 0 67 -37q2 -12 2 -26q0 -62 -36 -174q-44 -138 -87.5 -239t-70.5 -152q28 -38 72 -42q9 -1 16 -1q35 0 69 15q41 19 73 51q69 71 63 69 l13 -19q-4 -6 -12 -16.5t-32.5 -36.5t-49.5 -45.5t-62 -34.5q-31 -12 -60 -12h-11q-38 2 -60 12t-38 35q-59 -113 -133.5 -210.5t-119.5 -119.5q-31 -12 -49 -12q-6 -1 -11 1q-18 6 -42 32q-32 38 -44 96q-6 33 -6 73q0 31 4 67q9 82 22 147.5t36 164.5q5 19 7 29 q-100 -246 -126 -302q-98 -207 -191 -245q-24 -10 -50 -10q-8 0 -16 1q-66 7 -86 101q-12 53 -12 114q-1 45 6 94zM810 430q6 -50 12 -67l35 80q25 53 68 228q36 148 36 206q0 11 -1 18q0 2 -1 2q-4 0 -20 -23q-58 -88 -98 -220q-32 -106 -32 -193q0 -16 1 -31z" />
<glyph unicode="x" horiz-adv-x="721" d="M-92 -391q64 29 164.5 151t249.5 341q-57 82 -128 207.5t-124 212.5t-92 120l215 -3q27 -44 78.5 -216.5t89.5 -259.5q97 147 109 166q-22 50 -22 127q0 59 13 135q11 62 32 122.5t46 105t51 78.5t49 48q16 10 28 10q5 0 9 -2q30 -15 30 -69q0 -11 -2 -24 q-8 -75 -54 -192q-93 -234 -150 -335q26 -46 74 -54q15 -3 29 -3q31 0 63 13q44 19 77 51q69 71 63 69l13 -19q-4 -6 -12 -16.5t-32.5 -36.5t-49.5 -45.5t-62 -34.5q-31 -12 -60 -12h-11q-72 5 -106 57q-49 -79 -109 -172q30 -64 63 -113t76 -90q44 -40 98 -60 q45 -16 96 -16q10 0 21 1q-1 -12 -2 -17t-6.5 -9.5t-17.5 -4.5q-184 4 -364 253q-127 -191 -237.5 -326.5t-147.5 -154.5q-8 -3 -16 -3q-13 0 -28 9q-7 4 -7 7q0 2 3 4zM475 430q6 -50 12 -67l35 80q21 44 43.5 95t58 139t50.5 154q8 33 8 54.5t-8 31.5q-6 8 -15 8 q-21 0 -57 -53q-66 -97 -105 -247q-23 -91 -23 -164q0 -16 1 -31z" />
<glyph unicode="y" horiz-adv-x="708" d="M-309 -703q-21 26 -21 62q0 43 30 98q28 50 79 103q45 47 114.5 93t123 73t128 61.5t95.5 45.5l12 34q53 188 93 379q-65 -122 -131 -155q-30 -13 -58 -13q-11 0 -22 2q-38 8 -65 30q-13 12 -22.5 32t-13.5 45t-6 52t-0.5 58t3.5 57t6 55t7 46.5t6.5 37t3.5 20.5 q17 82 65 115h125q-20 -39 -39.5 -83t-46 -113.5t-41.5 -126.5q-16 -59 -16 -113q0 -52 23 -75q16 -16 36.5 -18t46.5 13t53.5 46.5t58.5 90t59 136.5l15 74q55 273 117 335h107q-32 -87 -124.5 -455.5t-117.5 -427.5q123 104 249 274t148 239l25 -13q-16 -37 -54 -99 t-93.5 -141.5t-133 -164t-155.5 -145.5q-31 -90 -67 -161q-87 -165 -201 -282q-131 -134 -262 -156q-24 -4 -44 -4q-63 0 -95 39zM-288 -588q-11 -29 -11 -51q0 -24 12 -40q18 -28 55 -33q9 -1 19 -1q30 0 63 12q45 16 94 52.5t90 86.5q115 143 196 365q-29 -17 -123 -61.5 t-174 -94t-138 -111.5q-61 -65 -83 -124z" />
<glyph unicode="z" horiz-adv-x="551" d="M-256 -540q8 63 45 145.5t90 160.5q56 82 134 155t138.5 114t122.5 73q24 79 24 143q0 118 -83 181l-3 1q-2 1 -3 3q-1 1 -3 1q-16 -7 -89 -32l-22 28q149 49 222 99q168 116 168 181v6q-6 41 -83 41h-7q-102 -3 -217 -65l-64 112q20 14 34 21q54 20 110 28q31 4 59 5 q21 0 43 -3q46 -6 83.5 -23t59.5 -43q23 -27 23 -63q0 -33 -18 -69q-20 -38 -70.5 -83.5t-128.5 -89.5q-22 -14 -72 -36q3 -2 20 -12.5t25 -17t25 -22t27.5 -34.5t23.5 -45.5t22.5 -64t15.5 -82.5q53 33 95.5 77.5t64 80t42.5 80.5l16 -16q-32 -79 -87.5 -146.5 t-131.5 -102.5q-10 -88 -34.5 -176t-58 -165.5t-75.5 -148.5t-87.5 -126.5t-95.5 -97.5q-50 -40 -98 -62q-46 -21 -92 -22h-2q-47 0 -86 26q-24 18 -24 61q0 11 2 25zM-234 -582q25 -39 61 -39q59 0 145 109q114 144 220 391q51 118 71 199q-100 -60 -183.5 -130.5 t-174.5 -191.5q-59 -81 -109 -194q-35 -80 -35 -119q-1 -16 5 -25z" />
<glyph unicode="{" horiz-adv-x="267" d="M148 528q0 1 2 3t7 4t11 2q48 23 81 56t54.5 92t29 89t22.5 112q3 16 5 24q19 84 57 122.5t98 38.5q23 0 59 -11t37 -24q0 -3 -10 -3q-15 0 -38 1.5t-31 1.5q-46 0 -66.5 -35.5t-41.5 -137.5q-27 -127 -46 -174q-51 -127 -160 -162q86 -34 79 -135q-2 -61 -40 -179 t-40 -149q-2 -45 21 -69t78 -24q8 0 12 -2.5t3 -6.5q-6 -18 -65 -18q-60 0 -88.5 37.5t-26.5 103.5q2 50 36.5 156.5t37.5 141.5q6 95 -73 142q-4 0 -4 3z" />
<glyph unicode="|" horiz-adv-x="184" d="M157 51q2 70 88 388.5t163 553.5q3 11 5.5 13.5t12.5 2.5q8 0 18 -10.5t9 -21.5q0 -17 -21.5 -87.5t-86 -305t-143.5 -559.5q-4 -13 -16 -13q-14 0 -24 10.5t-5 28.5z" />
<glyph unicode="}" horiz-adv-x="301" d="M48 -15q0 6 16 6q13 0 34 -3t26 -3q51 0 73 36.5t37 136.5q3 11 11 45l12 51t14.5 49t19.5 50.5t24.5 45t32.5 42.5t41.5 31.5t52.5 24.5q-82 28 -82 128q3 63 42.5 182.5t43.5 149.5q0 95 -98 95q-22 0 -22 10q5 16 68 16q62 0 90.5 -37.5t23.5 -101.5 q-2 -51 -36 -157.5t-36 -142.5q-5 -94 76 -140l3 -6q0 -1 -2.5 -3t-8.5 -4t-14 -2q-47 -22 -80.5 -58t-53.5 -86.5t-31.5 -93t-24.5 -106.5q-3 -17 -5 -26q-26 -164 -144 -164q-28 0 -64.5 10.5t-38.5 24.5z" />
<glyph unicode="~" horiz-adv-x="468" d="M413 875q1 33 39 64.5t89 31.5q27 0 52.5 -4t54 -10t45.5 -8q43 -4 80 4.5t50 16t18 12.5q-4 -21 -51.5 -70t-94.5 -49q-25 0 -80 14.5t-85 14.5q-57 0 -91 -30q-7 -1 -24 -27q0 5 -1 19.5t-1 20.5zM415 834v1v-1z" />
<glyph unicode="&#xa8;" horiz-adv-x="694" d="M350 1033q7 26 33.5 46.5t50.5 20.5q29 0 44 -20t8 -47q-8 -29 -33.5 -50.5t-54.5 -21.5q-25 0 -40 22t-8 50zM556 1033q7 26 33.5 46.5t51.5 20.5q29 0 43.5 -20t7.5 -47q-8 -29 -33.5 -50.5t-54.5 -21.5q-25 0 -40 22t-8 50z" />
<glyph unicode="&#xad;" horiz-adv-x="345" d="M234 354l25 92h314l-24 -92h-315z" />
<glyph unicode="&#xb0;" horiz-adv-x="634" d="M415 1001q0 45 32.5 77t77.5 32t77.5 -32t32.5 -77t-32.5 -77.5t-77.5 -32.5t-77.5 32.5t-32.5 77.5zM467 1004q0 -24 17 -41.5t41 -17.5t41.5 17.5t17.5 41.5t-17.5 41t-41.5 17t-41 -17t-17 -41z" />
<glyph unicode="&#xb4;" horiz-adv-x="746" d="M443 866q15 16 39.5 43t77 83t86.5 93t33 36t15 -16t32 -29l17 -14l-273 -214z" />
<glyph unicode="&#xb8;" horiz-adv-x="185" d="M-6 -56l24 11q0 -5 1 -12.5t6 -27t13 -34t23 -25t34 -7.5q30 4 42 32t7.5 54.5t-14.5 32.5l-32 13l7 25l24 -10l19 54q1 0 3.5 -0.5t7 -1t7.5 -0.5l2 -1l-19 -60q2 -1 4.5 -2.5t8.5 -9t9 -17.5t2 -29t-9 -42q-13 -39 -38 -59t-50.5 -18.5t-44.5 19.5q-16 14 -25 43 t-10 50z" />
<glyph unicode="&#xc0;" horiz-adv-x="1029" d="M-28.5 239q3.5 40 14 69.5t21 48.5t19.5 29l8 9q21 1 22 -9q-71 -113 -48 -256q17 -105 70.5 -153.5t101.5 4.5q7 7 13 16q43 64 76 190t72 335q-25 8 -62.5 21t-58 20t-42.5 13t-33 6q-30 0 -52.5 -7.5t-34.5 -18.5t-19.5 -24t-9 -22t-0.5 -14l-22 9q-1 2 -1 4.5 t1.5 11.5t7 18.5t20 24t35.5 28.5q47 31 246 -34q19 -6 29 -9q66 346 114 491q91 278 229 296q83 11 187 -68q24 49 36 49h78q-67 -174 -127.5 -383t-100.5 -400t-63 -353.5t-19 -263.5t36 -110q16 -5 43 17t63 73t74.5 122.5t81.5 176.5t79 225l18 -20q-4 -14 -11.5 -37 t-31 -89.5t-47.5 -127t-59.5 -133t-69 -123t-73 -83t-75.5 -26.5q-46 8 -61.5 111t-4.5 250.5t41 333.5q-88 -24 -240 15q-29 -90 -48.5 -148t-46.5 -131.5t-48 -118t-46 -86.5t-48.5 -59.5t-47.5 -15.5q-76 -8 -121.5 42.5t-61.5 172.5q-6 51 -2.5 91zM29 496l2 -2 q-2 0 -2 2zM451 518l61 -13q102 -22 174 3q38 226 88 433.5t92 306.5q-21 15 -52.5 12.5t-57.5 -21.5q-51 -53 -107.5 -176t-90 -220t-94.5 -285q-9 -27 -13 -40zM569 1586q4 3 11 9t21.5 18.5t23.5 21t8 9.5t23 -25t59 -63.5l70 -75t59 -64.5l25 -26l-26 -18z" />
<glyph unicode="&#xc1;" horiz-adv-x="1029" d="M-28.5 239q3.5 40 14 69.5t21 48.5t19.5 29l8 9q21 1 22 -9q-71 -113 -48 -256q17 -105 70.5 -153.5t101.5 4.5q7 7 13 16q43 64 76 190t72 335q-25 8 -62.5 21t-58 20t-42.5 13t-33 6q-30 0 -52.5 -7.5t-34.5 -18.5t-19.5 -24t-9 -22t-0.5 -14l-22 9q-1 2 -1 4.5 t1.5 11.5t7 18.5t20 24t35.5 28.5q47 31 246 -34q19 -6 29 -9q66 346 114 491q91 278 229 296q83 11 187 -68q24 49 36 49h78q-67 -174 -127.5 -383t-100.5 -400t-63 -353.5t-19 -263.5t36 -110q16 -5 43 17t63 73t74.5 122.5t81.5 176.5t79 225l18 -20q-4 -14 -11.5 -37 t-31 -89.5t-47.5 -127t-59.5 -133t-69 -123t-73 -83t-75.5 -26.5q-46 8 -61.5 111t-4.5 250.5t41 333.5q-88 -24 -240 15q-29 -90 -48.5 -148t-46.5 -131.5t-48 -118t-46 -86.5t-48.5 -59.5t-47.5 -15.5q-76 -8 -121.5 42.5t-61.5 172.5q-6 51 -2.5 91zM29 496l2 -2 q-2 0 -2 2zM451 518l61 -13q102 -22 174 3q38 226 88 433.5t92 306.5q-21 15 -52.5 12.5t-57.5 -21.5q-51 -53 -107.5 -176t-90 -220t-94.5 -285q-9 -27 -13 -40zM784 1397q15 16 39.5 43t77 83t86.5 93t33 36t15 -16t33 -29l16 -14l-274 -214z" />
<glyph unicode="&#xc2;" horiz-adv-x="1029" d="M-28.5 239q3.5 40 14 69.5t21 48.5t19.5 29l8 9q21 1 22 -9q-71 -113 -48 -256q17 -105 70.5 -153.5t101.5 4.5q7 7 13 16q43 64 76 190t72 335q-25 8 -62.5 21t-58 20t-42.5 13t-33 6q-30 0 -52.5 -7.5t-34.5 -18.5t-19.5 -24t-9 -22t-0.5 -14l-22 9q-1 2 -1 4.5 t1.5 11.5t7 18.5t20 24t35.5 28.5q47 31 246 -34q19 -6 29 -9q66 346 114 491q91 278 229 296q83 11 187 -68q24 49 36 49h78q-67 -174 -127.5 -383t-100.5 -400t-63 -353.5t-19 -263.5t36 -110q16 -5 43 17t63 73t74.5 122.5t81.5 176.5t79 225l18 -20q-4 -14 -11.5 -37 t-31 -89.5t-47.5 -127t-59.5 -133t-69 -123t-73 -83t-75.5 -26.5q-46 8 -61.5 111t-4.5 250.5t41 333.5q-88 -24 -240 15q-29 -90 -48.5 -148t-46.5 -131.5t-48 -118t-46 -86.5t-48.5 -59.5t-47.5 -15.5q-76 -8 -121.5 42.5t-61.5 172.5q-6 51 -2.5 91zM29 496l2 -2 q-2 0 -2 2zM451 518l61 -13q102 -22 174 3q38 226 88 433.5t92 306.5q-21 15 -52.5 12.5t-57.5 -21.5q-51 -53 -107.5 -176t-90 -220t-94.5 -285q-9 -27 -13 -40zM698 1409q-3 4 11 20q45 48 97 119q5 9 22 18t30 10.5t15 -1.5q10 -59 27 -101.5t28 -56.5t18 -17 q5 -5 -17 -9q-21 -4 -41 -4q-35 0 -72 118q-43 -77 -80 -93q-7 -3 -16.5 -3.5t-15.5 -0.5t-6 1z" />
<glyph unicode="&#xc3;" horiz-adv-x="1029" d="M-28.5 239q3.5 40 14 69.5t21 48.5t19.5 29l8 9q21 1 22 -9q-71 -113 -48 -256q17 -105 70.5 -153.5t101.5 4.5q7 7 13 16q43 64 76 190t72 335q-25 8 -62.5 21t-58 20t-42.5 13t-33 6q-30 0 -52.5 -7.5t-34.5 -18.5t-19.5 -24t-9 -22t-0.5 -14l-22 9q-1 2 -1 4.5 t1.5 11.5t7 18.5t20 24t35.5 28.5q47 31 246 -34q19 -6 29 -9q66 346 114 491q91 278 229 296q83 11 187 -68q24 49 36 49h78q-67 -174 -127.5 -383t-100.5 -400t-63 -353.5t-19 -263.5t36 -110q16 -5 43 17t63 73t74.5 122.5t81.5 176.5t79 225l18 -20q-4 -14 -11.5 -37 t-31 -89.5t-47.5 -127t-59.5 -133t-69 -123t-73 -83t-75.5 -26.5q-46 8 -61.5 111t-4.5 250.5t41 333.5q-88 -24 -240 15q-29 -90 -48.5 -148t-46.5 -131.5t-48 -118t-46 -86.5t-48.5 -59.5t-47.5 -15.5q-76 -8 -121.5 42.5t-61.5 172.5q-6 51 -2.5 91zM29 496l2 -2 q-2 0 -2 2zM451 518l61 -13q102 -22 174 3q38 226 88 433.5t92 306.5q-21 15 -52.5 12.5t-57.5 -21.5q-51 -53 -107.5 -176t-90 -220t-94.5 -285q-9 -27 -13 -40zM530 1461q-1 2 0 2l8 9q8 8 19 18.5t28.5 20.5t37.5 14t46 -1q13 -3 56.5 -14t71.5 -17t64.5 -12t60 -5 t33.5 10q15 15 11.5 24t-14.5 12l-11 4l8 19q2 0 5 -1t11 -5t11.5 -10t6.5 -15.5t-4 -22.5q-43 -101 -229 -54q-34 9 -65 17.5t-46 13t-28 8t-19 4t-11.5 -1t-12.5 -5.5q-12 -7 -18.5 -13t-7.5 -8l-1 -2z" />
<glyph unicode="&#xc4;" horiz-adv-x="1029" d="M-28.5 239q3.5 40 14 69.5t21 48.5t19.5 29l8 9q21 1 22 -9q-71 -113 -48 -256q17 -105 70.5 -153.5t101.5 4.5q7 7 13 16q43 64 76 190t72 335q-25 8 -62.5 21t-58 20t-42.5 13t-33 6q-30 0 -52.5 -7.5t-34.5 -18.5t-19.5 -24t-9 -22t-0.5 -14l-22 9q-1 2 -1 4.5 t1.5 11.5t7 18.5t20 24t35.5 28.5q47 31 246 -34q19 -6 29 -9q66 346 114 491q91 278 229 296q83 11 187 -68q24 49 36 49h78q-67 -174 -127.5 -383t-100.5 -400t-63 -353.5t-19 -263.5t36 -110q16 -5 43 17t63 73t74.5 122.5t81.5 176.5t79 225l18 -20q-4 -14 -11.5 -37 t-31 -89.5t-47.5 -127t-59.5 -133t-69 -123t-73 -83t-75.5 -26.5q-46 8 -61.5 111t-4.5 250.5t41 333.5q-88 -24 -240 15q-29 -90 -48.5 -148t-46.5 -131.5t-48 -118t-46 -86.5t-48.5 -59.5t-47.5 -15.5q-76 -8 -121.5 42.5t-61.5 172.5q-6 51 -2.5 91zM29 496l2 -2 q-2 0 -2 2zM451 518l61 -13q102 -22 174 3q38 226 88 433.5t92 306.5q-21 15 -52.5 12.5t-57.5 -21.5q-51 -53 -107.5 -176t-90 -220t-94.5 -285q-9 -27 -13 -40zM614 1502q7 26 34 47t51 21q29 0 43.5 -20.5t7.5 -47.5q-8 -29 -33 -50t-54 -21q-25 0 -40.5 21.5t-8.5 49.5z M821 1502q7 26 34 47t51 21q29 0 43.5 -20.5t7.5 -47.5q-8 -29 -33.5 -50t-54.5 -21q-25 0 -40 21.5t-8 49.5z" />
<glyph unicode="&#xc5;" horiz-adv-x="1029" d="M-28.5 239q3.5 40 14 69.5t21 48.5t19.5 29l8 9q21 1 22 -9q-71 -113 -48 -256q17 -105 70.5 -153.5t101.5 4.5q7 7 13 16q43 64 76 190t72 335q-25 8 -62.5 21t-58 20t-42.5 13t-33 6q-30 0 -52.5 -7.5t-34.5 -18.5t-19.5 -24t-9 -22t-0.5 -14l-22 9q-1 2 -1 4.5 t1.5 11.5t7 18.5t20 24t35.5 28.5q47 31 246 -34q19 -6 29 -9q66 346 114 491q91 278 229 296q83 11 187 -68q24 49 36 49h78q-67 -174 -127.5 -383t-100.5 -400t-63 -353.5t-19 -263.5t36 -110q16 -5 43 17t63 73t74.5 122.5t81.5 176.5t79 225l18 -20q-4 -14 -11.5 -37 t-31 -89.5t-47.5 -127t-59.5 -133t-69 -123t-73 -83t-75.5 -26.5q-46 8 -61.5 111t-4.5 250.5t41 333.5q-88 -24 -240 15q-29 -90 -48.5 -148t-46.5 -131.5t-48 -118t-46 -86.5t-48.5 -59.5t-47.5 -15.5q-76 -8 -121.5 42.5t-61.5 172.5q-6 51 -2.5 91zM29 496l2 -2 q-2 0 -2 2zM451 518l61 -13q102 -22 174 3q38 226 88 433.5t92 306.5q-21 15 -52.5 12.5t-57.5 -21.5q-51 -53 -107.5 -176t-90 -220t-94.5 -285q-9 -27 -13 -40zM745 1505q0 46 30.5 78.5t74.5 32.5t75.5 -32.5t31.5 -78.5t-31.5 -77.5t-75.5 -31.5t-74.5 31.5t-30.5 77.5z M799 1508q0 -23 14.5 -38.5t36.5 -15.5t37.5 15.5t15.5 38.5q0 24 -15.5 40.5t-37.5 16.5t-36.5 -16.5t-14.5 -40.5z" />
<glyph unicode="&#xc6;" horiz-adv-x="1429" d="M-28.5 239q3.5 40 14 69.5t21 48.5t19.5 29l8 9q21 1 22 -9q-71 -113 -48 -256q17 -105 70.5 -153.5t101.5 4.5q7 7 13 16q43 64 76 190t72 335q-25 8 -62.5 21t-58 20t-42.5 13t-33 6q-30 0 -52.5 -7.5t-34.5 -18.5t-19.5 -24t-9 -22t-0.5 -14l-22 9q-1 2 -1 4.5 t1.5 11.5t7 18.5t20 24t35.5 28.5q47 31 246 -34q19 -6 29 -9q66 346 114 491q91 278 229 296q83 11 187 -68q24 49 36 49h78q-67 -174 -127.5 -383t-100.5 -400t-63 -353.5t-19 -263.5t36 -110q16 -5 43 17t63 73t74.5 122.5t81.5 176.5t79 225l18 -20q-4 -14 -11.5 -37 t-31 -89.5t-47.5 -127t-59.5 -133t-69 -123t-73 -83t-75.5 -26.5q-46 8 -61.5 111t-4.5 250.5t41 333.5q-88 -24 -240 15q-29 -90 -48.5 -148t-46.5 -131.5t-48 -118t-46 -86.5t-48.5 -59.5t-47.5 -15.5q-76 -8 -121.5 42.5t-61.5 172.5q-6 51 -2.5 91zM29 496l2 -2 q-2 0 -2 2zM451 518l61 -13q102 -22 174 3q38 226 88 433.5t92 306.5q-21 15 -52.5 12.5t-57.5 -21.5q-51 -53 -107.5 -176t-90 -220t-94.5 -285q-9 -27 -13 -40zM480.5 1017.5q-0.5 41.5 26 93t85.5 87.5q31 19 67 25t79 -3.5t79 -20.5t87.5 -37.5t82 -43.5t84.5 -49 q19 -11 29 -17q113 202 234 246q84 30 125 -43q35 -64 15 -157q-22 -99 -93 -139q-15 -9 -32 -14q-65 -19 -166 25q-16 -41 -29.5 -90.5t-12.5 -105t32 -65.5q42 -11 76.5 -3.5t56.5 22.5l21 15l12 -23h2l-49 -33q-48 -33 -85 -61.5t-89.5 -73.5t-95.5 -97t-70 -105 q-54 -105 -50 -208t62 -140t167 21q76 46 184.5 181t147.5 225l19 -9q-24 -52 -66.5 -119.5t-104 -140.5t-126 -129t-138 -81t-134.5 -1q-74 39 -110 105t-24.5 147t63 164.5t161.5 167.5t261 147q-3 -2 -20.5 0t-19.5 2q-115 0 -155 77q-44 81 8 265q-22 13 -67.5 41.5 t-71 44t-67.5 37.5t-70 31.5t-65 17.5t-65.5 3.5t-59.5 -19.5t-58 -43q-30 -32 -41 -73.5t-5.5 -78t15.5 -69t20 -51.5l11 -19l-19 -3q-6 9 -15 25t-23.5 62t-15 87.5zM1195 999q105 -51 149 -28q87 38 109 133q17 73 -14 125q-29 49 -75 25q-7 -4 -14 -9q-69 -53 -155 -246 z" />
<glyph unicode="&#xc7;" horiz-adv-x="836" d="M-73.5 1026q-0.5 42 26 93.5t85.5 87.5q37 22 83.5 25t93 -9.5t100 -36.5t101.5 -50.5t100 -57.5q19 -12 28 -17q114 201 236 245q84 30 124 -42q36 -64 16 -156q-22 -100 -93 -140q-16 -9 -33 -14q-65 -19 -165 25q-62 -148 -112.5 -326t-70.5 -281 q-37 -156 -8.5 -271.5t134.5 -65.5q47 22 97.5 72t89 106t70.5 108.5t49 86.5l17 35l8 -32q-9 -21 -26.5 -54.5t-70.5 -116t-106.5 -140.5t-128 -93t-141.5 -7q-76 42 -104 135.5t-13 214.5q11 114 71 316t143 365q-23 14 -77.5 47.5t-83 50t-76.5 40.5t-80.5 30.5 t-72.5 8.5t-74.5 -14.5t-65.5 -48.5q-30 -32 -41 -73.5t-5.5 -78t15.5 -69t20 -51.5l11 -19l-17 -3q-6 9 -15 25t-23.5 62t-15 88zM315 -88l23 10q0 -5 1 -12.5t6 -27t13 -33.5t23 -24.5t34 -7.5q23 3 36 21t14 38.5t-3 38t-11 21.5l-33 13l8 25l23 -11l19 55q1 0 3.5 -0.5 t7 -1t7.5 -0.5l3 -1l-19 -60q2 -1 4.5 -2.5t8 -9t8.5 -17.5t2 -29t-9 -42q-13 -39 -38 -59t-50.5 -18.5t-44.5 19.5q-16 14 -25 43t-10 50zM639 1008q105 -51 151 -28q87 38 109 133q17 73 -14 125q-29 49 -75 25q-7 -4 -14 -9q-73 -55 -157 -246z" />
<glyph unicode="&#xc8;" horiz-adv-x="896" d="M-46 1026q0 42 26.5 93.5t85.5 87.5q37 22 83.5 25t92 -9t100.5 -36.5t101 -50t100 -57.5l30 -18q112 201 234 245q84 30 124 -42q36 -64 16 -156q-21 -100 -92 -140q-16 -9 -33 -14q-64 -19 -165 25q-16 -41 -29.5 -90.5t-12.5 -105t32 -65.5q42 -11 76 -3.5t55 22.5 l22 15l12 -23h3q-5 -3 -39.5 -27t-63.5 -44.5t-74 -57.5t-81 -71.5t-72 -80.5t-59 -90q-54 -106 -50 -208.5t61.5 -139t166.5 21.5q76 46 184.5 180.5t147.5 224.5l19 -8q-24 -52 -66.5 -119.5t-104 -140.5t-126 -129t-138 -81t-134.5 -1q-74 39 -110 105t-24.5 147 t63 164.5t161.5 167.5t261 147q-2 -2 -20 -0.5t-19 1.5q-114 0 -155 78q-45 83 7 265q-22 13 -68 41.5t-71 43.5t-67.5 37.5t-69.5 31.5t-65 17t-66 3.5t-59 -19.5t-58 -43q-30 -32 -41 -73.5t-5.5 -78t15.5 -69t21 -51.5l10 -19l-19 -3q-6 9 -15 25t-23.5 62t-14.5 88z M512 1559q4 4 11 9.5t21.5 18t23.5 21.5t8 10t23 -25t59 -63.5t70 -75.5t60 -64l24 -27l-26 -17zM669 1008q105 -51 149 -28q87 38 109 133q17 73 -14 125q-29 49 -75 25q-7 -4 -14 -9q-69 -53 -155 -246z" />
<glyph unicode="&#xc9;" horiz-adv-x="896" d="M-46 1026q0 42 26.5 93.5t85.5 87.5q37 22 83.5 25t92 -9t100.5 -36.5t101 -50t100 -57.5l30 -18q112 201 234 245q84 30 124 -42q36 -64 16 -156q-21 -100 -92 -140q-16 -9 -33 -14q-64 -19 -165 25q-16 -41 -29.5 -90.5t-12.5 -105t32 -65.5q42 -11 76 -3.5t55 22.5 l22 15l12 -23h3q-5 -3 -39.5 -27t-63.5 -44.5t-74 -57.5t-81 -71.5t-72 -80.5t-59 -90q-54 -106 -50 -208.5t61.5 -139t166.5 21.5q76 46 184.5 180.5t147.5 224.5l19 -8q-24 -52 -66.5 -119.5t-104 -140.5t-126 -129t-138 -81t-134.5 -1q-74 39 -110 105t-24.5 147 t63 164.5t161.5 167.5t261 147q-2 -2 -20 -0.5t-19 1.5q-114 0 -155 78q-45 83 7 265q-22 13 -68 41.5t-71 43.5t-67.5 37.5t-69.5 31.5t-65 17t-66 3.5t-59 -19.5t-58 -43q-30 -32 -41 -73.5t-5.5 -78t15.5 -69t21 -51.5l10 -19l-19 -3q-6 9 -15 25t-23.5 62t-14.5 88z M669 1008q105 -51 149 -28q87 38 109 133q17 73 -14 125q-29 49 -75 25q-7 -4 -14 -9q-69 -53 -155 -246zM835 1379q15 16 40 43t77 83t86 93t33 36t15 -16t32 -29l17 -14l-273 -213z" />
<glyph unicode="&#xca;" horiz-adv-x="896" d="M-46 1026q0 42 26.5 93.5t85.5 87.5q37 22 83.5 25t92 -9t100.5 -36.5t101 -50t100 -57.5l30 -18q112 201 234 245q84 30 124 -42q36 -64 16 -156q-21 -100 -92 -140q-16 -9 -33 -14q-64 -19 -165 25q-16 -41 -29.5 -90.5t-12.5 -105t32 -65.5q42 -11 76 -3.5t55 22.5 l22 15l12 -23h3q-5 -3 -39.5 -27t-63.5 -44.5t-74 -57.5t-81 -71.5t-72 -80.5t-59 -90q-54 -106 -50 -208.5t61.5 -139t166.5 21.5q76 46 184.5 180.5t147.5 224.5l19 -8q-24 -52 -66.5 -119.5t-104 -140.5t-126 -129t-138 -81t-134.5 -1q-74 39 -110 105t-24.5 147 t63 164.5t161.5 167.5t261 147q-2 -2 -20 -0.5t-19 1.5q-114 0 -155 78q-45 83 7 265q-22 13 -68 41.5t-71 43.5t-67.5 37.5t-69.5 31.5t-65 17t-66 3.5t-59 -19.5t-58 -43q-30 -32 -41 -73.5t-5.5 -78t15.5 -69t21 -51.5l10 -19l-19 -3q-6 9 -15 25t-23.5 62t-14.5 88z M661 1368q-3 4 11 20q45 48 97 119q5 9 22.5 18t30.5 11t15 -1q10 -59 27 -101.5t28 -57t18 -17.5q5 -5 -17 -9q-21 -4 -42 -4q-34 0 -71 118q-42 -77 -81 -93q-7 -3 -16.5 -3.5t-15.5 -0.5t-6 1zM669 1008q105 -51 149 -28q87 38 109 133q17 73 -14 125q-29 49 -75 25 q-7 -4 -14 -9q-69 -53 -155 -246z" />
<glyph unicode="&#xcb;" horiz-adv-x="896" d="M-46 1026q0 42 26.5 93.5t85.5 87.5q37 22 83.5 25t92 -9t100.5 -36.5t101 -50t100 -57.5l30 -18q112 201 234 245q84 30 124 -42q36 -64 16 -156q-21 -100 -92 -140q-16 -9 -33 -14q-64 -19 -165 25q-16 -41 -29.5 -90.5t-12.5 -105t32 -65.5q42 -11 76 -3.5t55 22.5 l22 15l12 -23h3q-5 -3 -39.5 -27t-63.5 -44.5t-74 -57.5t-81 -71.5t-72 -80.5t-59 -90q-54 -106 -50 -208.5t61.5 -139t166.5 21.5q76 46 184.5 180.5t147.5 224.5l19 -8q-24 -52 -66.5 -119.5t-104 -140.5t-126 -129t-138 -81t-134.5 -1q-74 39 -110 105t-24.5 147 t63 164.5t161.5 167.5t261 147q-2 -2 -20 -0.5t-19 1.5q-114 0 -155 78q-45 83 7 265q-22 13 -68 41.5t-71 43.5t-67.5 37.5t-69.5 31.5t-65 17t-66 3.5t-59 -19.5t-58 -43q-30 -32 -41 -73.5t-5.5 -78t15.5 -69t21 -51.5l10 -19l-19 -3q-6 9 -15 25t-23.5 62t-14.5 88z M669 1008q105 -51 149 -28q87 38 109 133q17 73 -14 125q-29 49 -75 25q-7 -4 -14 -9q-69 -53 -155 -246zM709 1422q7 26 33.5 46.5t51.5 20.5q29 0 44 -20t8 -47q-8 -29 -33.5 -50.5t-54.5 -21.5q-25 0 -40.5 22t-8.5 50zM916 1422q7 26 33.5 46.5t51.5 20.5q29 0 43.5 -20 t7.5 -47q-8 -29 -33.5 -50.5t-54.5 -21.5q-25 0 -40 22t-8 50z" />
<glyph unicode="&#xcc;" horiz-adv-x="747" d="M-114 973q-5 42 16 95.5t76 95.5q42 32 96.5 39t134 -16.5t121 -40t137.5 -59.5q20 -9 30 -13q92 212 208 269q81 38 128 -30q42 -60 32 -153q-11 -103 -80 -150q-14 -9 -29 -15q-65 -27 -166 6q-13 -52 -34 -146t-36 -163t-14 -67q-65 -316 -140.5 -506t-144.5 -202 q-73 -15 -123.5 31.5t-78.5 167.5q-15 83 -7 139t26 83l19 28q21 2 22 -8q-63 -125 -27 -266q25 -95 75 -133q47 -36 78 14q2 3 4 7q41 76 84.5 275.5t92.5 431t97 355.5q-25 11 -72.5 34t-75.5 36t-72 30.5t-73.5 24.5t-67.5 11t-66 -3.5t-58 -25.5t-54 -49 q-27 -35 -33.5 -77.5t3 -78.5t23 -67t25.5 -49l13 -18l-16 -5q-7 8 -18 23t-30.5 59t-24.5 86zM424 1619q4 4 11 9.5t22 18t24 21.5t8 10t23 -25t58.5 -63.5t69.5 -75.5t60 -64l24 -27l-26 -17zM597 1031q104 -39 153 -11q86 49 95 147q7 74 -29 120q-35 45 -80 14 q-5 -3 -10 -8q-64 -63 -129 -262z" />
<glyph unicode="&#xcd;" horiz-adv-x="747" d="M-114 973q-5 42 16 95.5t76 95.5q42 32 96.5 39t134 -16.5t121 -40t137.5 -59.5q20 -9 30 -13q92 212 208 269q81 38 128 -30q42 -60 32 -153q-11 -103 -80 -150q-14 -9 -29 -15q-65 -27 -166 6q-13 -52 -34 -146t-36 -163t-14 -67q-65 -316 -140.5 -506t-144.5 -202 q-73 -15 -123.5 31.5t-78.5 167.5q-15 83 -7 139t26 83l19 28q21 2 22 -8q-63 -125 -27 -266q25 -95 75 -133q47 -36 78 14q2 3 4 7q41 76 84.5 275.5t92.5 431t97 355.5q-25 11 -72.5 34t-75.5 36t-72 30.5t-73.5 24.5t-67.5 11t-66 -3.5t-58 -25.5t-54 -49 q-27 -35 -33.5 -77.5t3 -78.5t23 -67t25.5 -49l13 -18l-16 -5q-7 8 -18 23t-30.5 59t-24.5 86zM571 1362q15 16 39.5 43t76.5 82.5t86 92.5t33 36t15 -15.5t33 -28.5l16 -14l-273 -214zM597 1031q104 -39 153 -11q86 49 95 147q7 74 -29 120q-35 45 -80 14q-5 -3 -10 -8 q-64 -63 -129 -262z" />
<glyph unicode="&#xce;" horiz-adv-x="747" d="M-114 973q-5 42 16 95.5t76 95.5q42 32 96.5 39t134 -16.5t121 -40t137.5 -59.5q20 -9 30 -13q92 212 208 269q81 38 128 -30q42 -60 32 -153q-11 -103 -80 -150q-14 -9 -29 -15q-65 -27 -166 6q-13 -52 -34 -146t-36 -163t-14 -67q-65 -316 -140.5 -506t-144.5 -202 q-73 -15 -123.5 31.5t-78.5 167.5q-15 83 -7 139t26 83l19 28q21 2 22 -8q-63 -125 -27 -266q25 -95 75 -133q47 -36 78 14q2 3 4 7q41 76 84.5 275.5t92.5 431t97 355.5q-25 11 -72.5 34t-75.5 36t-72 30.5t-73.5 24.5t-67.5 11t-66 -3.5t-58 -25.5t-54 -49 q-27 -35 -33.5 -77.5t3 -78.5t23 -67t25.5 -49l13 -18l-16 -5q-7 8 -18 23t-30.5 59t-24.5 86zM597 1031q104 -39 153 -11q86 49 95 147q7 74 -29 120q-35 45 -80 14q-5 -3 -10 -8q-64 -63 -129 -262zM625 1410q-3 4 11 20q45 48 97 119q5 9 22 18t30 11t15 -1 q10 -59 27 -101.5t28 -57t18 -17.5q5 -5 -17 -9q-21 -4 -41 -4q-34 0 -72 119q-43 -79 -80 -94q-7 -3 -16.5 -3.5t-15.5 -0.5t-6 1z" />
<glyph unicode="&#xcf;" horiz-adv-x="747" d="M-114 973q-5 42 16 95.5t76 95.5q42 32 96.5 39t134 -16.5t121 -40t137.5 -59.5q20 -9 30 -13q92 212 208 269q81 38 128 -30q42 -60 32 -153q-11 -103 -80 -150q-14 -9 -29 -15q-65 -27 -166 6q-13 -52 -34 -146t-36 -163t-14 -67q-65 -316 -140.5 -506t-144.5 -202 q-73 -15 -123.5 31.5t-78.5 167.5q-15 83 -7 139t26 83l19 28q21 2 22 -8q-63 -125 -27 -266q25 -95 75 -133q47 -36 78 14q2 3 4 7q41 76 84.5 275.5t92.5 431t97 355.5q-25 11 -72.5 34t-75.5 36t-72 30.5t-73.5 24.5t-67.5 11t-66 -3.5t-58 -25.5t-54 -49 q-27 -35 -33.5 -77.5t3 -78.5t23 -67t25.5 -49l13 -18l-16 -5q-7 8 -18 23t-30.5 59t-24.5 86zM560 1472q7 26 33.5 46.5t51.5 20.5q29 0 43.5 -20t7.5 -47q-8 -29 -33 -50.5t-54 -21.5q-25 0 -40.5 22t-8.5 50zM597 1031q104 -39 153 -11q86 49 95 147q7 74 -29 120 q-35 45 -80 14q-5 -3 -10 -8q-64 -63 -129 -262zM767 1472q7 26 33.5 46.5t50.5 20.5q29 0 44 -20t8 -47q-8 -29 -33.5 -50.5t-54.5 -21.5q-25 0 -40 22t-8 50z" />
<glyph unicode="&#xd0;" horiz-adv-x="1224" d="M-26.5 1163q8.5 50 25.5 91l17 41q1 0 2 -1t4.5 -3t6 -3.5t5 -3.5t4 -3.5t0.5 -1.5q-28 -50 -39 -99.5t-3.5 -94t49 -71t113.5 -25.5q176 4 315 96q29 93 76 199l49 94l148 3q-37 -77 -72 -168q69 66 154 109t167 24q46 -11 83.5 -37.5t65.5 -66.5t40 -96.5t8 -123 t-32 -150t-79 -174.5q-83 -150 -192 -296q-216 -286 -321 -365q-101 -89 -171 -3q-65 80 -74 262q-2 34 -1 68v5l1 20q7 116 45.5 304t93.5 360q-45 -20 -105 -42q-83 -31 -151.5 -39t-113.5 5t-73 36.5t-41 55.5q-13 44 -4.5 94zM208 573l25 93h314l-25 -93h-314zM429 402 q-36 -223 1 -331q22 -66 67 -53q127 40 356 421q121 200 162 380q25 113 27.5 205t-12.5 147.5t-40.5 91.5t-52.5 48t-51 6q-42 -10 -84 -34.5t-75 -56t-50 -50.5t-30 -36q-72 -194 -134.5 -403.5t-83.5 -334.5z" />
<glyph unicode="&#xd1;" horiz-adv-x="1006" d="M-114 973q-5 42 16 95.5t76 95.5q42 32 96.5 39t134 -16.5t121 -40t137.5 -59.5q20 -9 30 -13q92 212 208 269q81 38 128 -30q42 -60 32 -153q-11 -103 -80 -150q-14 -9 -29 -15q-65 -27 -166 6q-2 -10 -12 -50.5t-15 -64.5q31 -58 52 -282.5t27 -382t6 -203.5 q133 688 277 956q32 60 67.5 100.5t67 57.5t62 23.5t54.5 1.5t42.5 -12t28.5 -15l10 -7q-74 -8 -158 -114.5t-154 -263.5t-126.5 -328.5t-85.5 -326.5t-22 -242q-3 -3 -17.5 -7t-32 -5t-32 11.5t-15.5 38.5q1 73 0 187.5t-14.5 350t-39.5 332.5l-16 51q-4 -19 -8.5 -40.5 t-8 -38.5t-7 -33.5t-6 -29t-4.5 -22t-3 -13.5l-1 -5q-65 -316 -140.5 -506t-144.5 -202q-73 -15 -123.5 31.5t-78.5 167.5q-15 83 -7 139t26 83l19 28q21 2 22 -8q-63 -125 -27 -266q25 -95 75 -133q47 -36 78 14q2 3 4 7q41 76 84.5 275.5t92.5 431t97 355.5 q-25 11 -72.5 34t-75.5 36t-72 30.5t-73.5 24.5t-67.5 11t-66 -3.5t-58 -25.5t-54 -49q-27 -35 -33.5 -77.5t3 -78.5t23 -67t25.5 -49l13 -18l-16 -5q-7 8 -18 23t-30.5 59t-24.5 86zM597 1031q104 -39 153 -11q86 49 95 147q7 74 -29 120q-35 45 -80 14q-5 -3 -10 -8 q-64 -63 -129 -262zM952 1280l8 8q8 9 19 19.5t28.5 20.5t37.5 14t46 -1q12 -3 56.5 -14t72.5 -17t64.5 -12t60 -5t33.5 10q15 15 11.5 24t-15.5 13l-11 3l9 19q2 0 5 -1t11 -5t11 -10t6 -15.5t-4 -22.5q-43 -100 -228 -54q-34 9 -65 17.5t-46 13t-28.5 8t-19.5 4t-11.5 -1 t-12.5 -5.5q-12 -7 -18.5 -13t-7.5 -8v-2q1 1 -12 13z" />
<glyph unicode="&#xd2;" d="M-73.5 1026q-0.5 42 26 93.5t85.5 87.5q37 22 83.5 25t93 -9.5t100 -36.5t101.5 -50.5t100 -57.5q19 -12 28 -17q114 201 236 245q53 18 88.5 -5t50.5 -74q1 0 7.5 -4.5t7.5 -5.5t7.5 -5.5t9 -7.5t9 -10t11.5 -14t12 -17t15 -22q54 -83 59 -204.5t-31.5 -248.5 t-97 -250.5t-140 -224t-159.5 -156.5q-25 -17 -40 -27t-37.5 -21.5t-40 -15t-39 -2.5t-42.5 9q-76 42 -104 135.5t-13 214.5q11 114 71 316t143 365q-23 14 -77.5 47.5t-83 50t-76.5 40.5t-80.5 30.5t-72.5 8.5t-74.5 -14.5t-65.5 -48.5q-30 -32 -41 -73.5t-5.5 -78 t15.5 -69t20 -51.5l11 -19l-17 -3q-6 9 -15 25t-23.5 62t-15 88zM433 99.5q24 -115.5 126 -61.5q65 42 133.5 135t124.5 207.5t98.5 243t61.5 242t7 204t-59 128.5q6 -49 -6.5 -99t-45 -91t-79.5 -54q-65 -19 -165 25q-62 -148 -112.5 -326t-70.5 -281q-37 -157 -13 -272.5z M629 1554q4 3 11 9t21.5 18.5t23.5 21t8 9.5t23 -25t59 -63.5l70 -75t59 -64.5l25 -26l-26 -18zM639 1008q105 -51 151 -28q87 38 109 133q17 73 -14 125q-29 49 -75 25q-7 -4 -14 -9q-73 -55 -157 -246z" />
<glyph unicode="&#xd3;" d="M-73.5 1026q-0.5 42 26 93.5t85.5 87.5q37 22 83.5 25t93 -9.5t100 -36.5t101.5 -50.5t100 -57.5q19 -12 28 -17q114 201 236 245q53 18 88.5 -5t50.5 -74q1 0 7.5 -4.5t7.5 -5.5t7.5 -5.5t9 -7.5t9 -10t11.5 -14t12 -17t15 -22q54 -83 59 -204.5t-31.5 -248.5 t-97 -250.5t-140 -224t-159.5 -156.5q-25 -17 -40 -27t-37.5 -21.5t-40 -15t-39 -2.5t-42.5 9q-76 42 -104 135.5t-13 214.5q11 114 71 316t143 365q-23 14 -77.5 47.5t-83 50t-76.5 40.5t-80.5 30.5t-72.5 8.5t-74.5 -14.5t-65.5 -48.5q-30 -32 -41 -73.5t-5.5 -78 t15.5 -69t20 -51.5l11 -19l-17 -3q-6 9 -15 25t-23.5 62t-15 88zM433 99.5q24 -115.5 126 -61.5q65 42 133.5 135t124.5 207.5t98.5 243t61.5 242t7 204t-59 128.5q6 -49 -6.5 -99t-45 -91t-79.5 -54q-65 -19 -165 25q-62 -148 -112.5 -326t-70.5 -281q-37 -157 -13 -272.5z M639 1008q105 -51 151 -28q87 38 109 133q17 73 -14 125q-29 49 -75 25q-7 -4 -14 -9q-73 -55 -157 -246zM933 1300q15 16 39.5 43t77 83t86.5 93t33 36t15 -15.5t32 -28.5l17 -14l-273 -214z" />
<glyph unicode="&#xd4;" d="M-73.5 1026q-0.5 42 26 93.5t85.5 87.5q37 22 83.5 25t93 -9.5t100 -36.5t101.5 -50.5t100 -57.5q19 -12 28 -17q114 201 236 245q53 18 88.5 -5t50.5 -74q1 0 7.5 -4.5t7.5 -5.5t7.5 -5.5t9 -7.5t9 -10t11.5 -14t12 -17t15 -22q54 -83 59 -204.5t-31.5 -248.5 t-97 -250.5t-140 -224t-159.5 -156.5q-25 -17 -40 -27t-37.5 -21.5t-40 -15t-39 -2.5t-42.5 9q-76 42 -104 135.5t-13 214.5q11 114 71 316t143 365q-23 14 -77.5 47.5t-83 50t-76.5 40.5t-80.5 30.5t-72.5 8.5t-74.5 -14.5t-65.5 -48.5q-30 -32 -41 -73.5t-5.5 -78 t15.5 -69t20 -51.5l11 -19l-17 -3q-6 9 -15 25t-23.5 62t-15 88zM433 99.5q24 -115.5 126 -61.5q65 42 133.5 135t124.5 207.5t98.5 243t61.5 242t7 204t-59 128.5q6 -49 -6.5 -99t-45 -91t-79.5 -54q-65 -19 -165 25q-62 -148 -112.5 -326t-70.5 -281q-37 -157 -13 -272.5z M639 1008q105 -51 151 -28q87 38 109 133q17 73 -14 125q-29 49 -75 25q-7 -4 -14 -9q-73 -55 -157 -246zM772 1363q-3 4 11 19q45 48 98 120q5 9 22 18t30 11t15 -1q10 -59 27 -101.5t28 -56.5t18 -17q5 -5 -16.5 -9.5t-41.5 -4.5q-34 0 -72 119q-43 -78 -81 -94 q-7 -3 -16.5 -3.5t-15.5 -0.5t-6 1z" />
<glyph unicode="&#xd5;" d="M-73.5 1026q-0.5 42 26 93.5t85.5 87.5q37 22 83.5 25t93 -9.5t100 -36.5t101.5 -50.5t100 -57.5q19 -12 28 -17q114 201 236 245q53 18 88.5 -5t50.5 -74q1 0 7.5 -4.5t7.5 -5.5t7.5 -5.5t9 -7.5t9 -10t11.5 -14t12 -17t15 -22q54 -83 59 -204.5t-31.5 -248.5 t-97 -250.5t-140 -224t-159.5 -156.5q-25 -17 -40 -27t-37.5 -21.5t-40 -15t-39 -2.5t-42.5 9q-76 42 -104 135.5t-13 214.5q11 114 71 316t143 365q-23 14 -77.5 47.5t-83 50t-76.5 40.5t-80.5 30.5t-72.5 8.5t-74.5 -14.5t-65.5 -48.5q-30 -32 -41 -73.5t-5.5 -78 t15.5 -69t20 -51.5l11 -19l-17 -3q-6 9 -15 25t-23.5 62t-15 88zM433 99.5q24 -115.5 126 -61.5q65 42 133.5 135t124.5 207.5t98.5 243t61.5 242t7 204t-59 128.5q6 -49 -6.5 -99t-45 -91t-79.5 -54q-65 -19 -165 25q-62 -148 -112.5 -326t-70.5 -281q-37 -157 -13 -272.5z M639 1008q105 -51 151 -28q87 38 109 133q17 73 -14 125q-29 49 -75 25q-7 -4 -14 -9q-73 -55 -157 -246zM669 1373q-1 2 0 2l7 9q8 8 19 18.5t28.5 21t37.5 14.5t46 -1q14 -3 57 -14t71.5 -17t65 -12.5t60 -5.5t33.5 10q15 15 11.5 24t-14.5 12l-11 4l8 19q2 0 5 -1t11 -5 t11.5 -10t6.5 -15.5t-4 -22.5q-43 -101 -229 -54q-34 9 -65 17.5t-46 13t-28 8t-19 4t-11.5 -1t-12.5 -5.5q-12 -7 -18.5 -13t-7.5 -8l-1 -2z" />
<glyph unicode="&#xd6;" d="M-73.5 1026q-0.5 42 26 93.5t85.5 87.5q37 22 83.5 25t93 -9.5t100 -36.5t101.5 -50.5t100 -57.5q19 -12 28 -17q114 201 236 245q53 18 88.5 -5t50.5 -74q1 0 7.5 -4.5t7.5 -5.5t7.5 -5.5t9 -7.5t9 -10t11.5 -14t12 -17t15 -22q54 -83 59 -204.5t-31.5 -248.5 t-97 -250.5t-140 -224t-159.5 -156.5q-25 -17 -40 -27t-37.5 -21.5t-40 -15t-39 -2.5t-42.5 9q-76 42 -104 135.5t-13 214.5q11 114 71 316t143 365q-23 14 -77.5 47.5t-83 50t-76.5 40.5t-80.5 30.5t-72.5 8.5t-74.5 -14.5t-65.5 -48.5q-30 -32 -41 -73.5t-5.5 -78 t15.5 -69t20 -51.5l11 -19l-17 -3q-6 9 -15 25t-23.5 62t-15 88zM433 99.5q24 -115.5 126 -61.5q65 42 133.5 135t124.5 207.5t98.5 243t61.5 242t7 204t-59 128.5q6 -49 -6.5 -99t-45 -91t-79.5 -54q-65 -19 -165 25q-62 -148 -112.5 -326t-70.5 -281q-37 -157 -13 -272.5z M639 1008q105 -51 151 -28q87 38 109 133q17 73 -14 125q-29 49 -75 25q-7 -4 -14 -9q-73 -55 -157 -246zM692 1423q7 26 34 47t51 21q29 0 43.5 -20.5t7.5 -47.5q-8 -29 -33.5 -50t-54.5 -21q-25 0 -40 21.5t-8 49.5zM898 1423q7 26 34 47t51 21q29 0 43.5 -20.5t7.5 -47.5 q-8 -29 -33.5 -50t-54.5 -21q-25 0 -40 21.5t-8 49.5z" />
<glyph unicode="&#xd8;" d="M-73.5 1026q-0.5 42 26 93.5t85.5 87.5q37 22 83.5 25t93 -9.5t100 -36.5t101.5 -50.5t100 -57.5q19 -12 28 -17q114 201 236 245q53 18 88.5 -5t50.5 -74q1 0 7.5 -4.5t7.5 -5.5t7.5 -5.5t9 -7.5t9 -10t11.5 -14t12 -17t15 -22q54 -83 59 -204.5t-31.5 -248.5 t-97 -250.5t-140 -224t-159.5 -156.5q-25 -17 -40 -27t-37.5 -21.5t-40 -15t-39 -2.5t-42.5 9q-76 42 -104 135.5t-13 214.5q11 114 71 316t143 365q-23 14 -77.5 47.5t-83 50t-76.5 40.5t-80.5 30.5t-72.5 8.5t-74.5 -14.5t-65.5 -48.5q-30 -32 -41 -73.5t-5.5 -78 t15.5 -69t20 -51.5l11 -19l-17 -3q-6 9 -15 25t-23.5 62t-15 88zM312 -39l746 1227h68l-746 -1227h-68zM433 99.5q24 -115.5 126 -61.5q65 42 133.5 135t124.5 207.5t98.5 243t61.5 242t7 204t-59 128.5q6 -49 -6.5 -99t-45 -91t-79.5 -54q-65 -19 -165 25 q-62 -148 -112.5 -326t-70.5 -281q-37 -157 -13 -272.5zM639 1008q105 -51 151 -28q87 38 109 133q17 73 -14 125q-29 49 -75 25q-7 -4 -14 -9q-73 -55 -157 -246z" />
<glyph unicode="&#xd9;" horiz-adv-x="1218" d="M-114 973q-5 42 16 95.5t76 95.5q42 32 96.5 39t134 -16.5t121 -40t137.5 -59.5q20 -9 30 -13q92 212 208 269q81 38 128 -30q42 -60 32 -153q-11 -103 -80 -150q-14 -9 -29 -15q-65 -27 -166 6q-13 -39 -24.5 -73t-32.5 -99.5t-36.5 -121.5t-35 -130.5t-30.5 -135.5 t-20.5 -126.5t-7.5 -114.5t11.5 -89t33.5 -59.5t61 -16.5q55 4 119 75t119 174t108 226t88 224.5t55 175.5l6 20h163q0 -1 -0.5 -4.5t-0.5 -5.5q-6 -39 -30 -112.5t-56.5 -156t-70.5 -178t-70 -179t-56 -159.5t-28.5 -119t12.5 -57q15 -8 48 11.5t77 63.5t90.5 103t94.5 138 t84 161l23 -9q-38 -86 -99.5 -187t-135.5 -189.5t-129 -113.5q-43 -16 -61.5 -10t-40.5 32q-78 90 14 423q-198 -389 -336 -385q-99 3 -151 73.5t-57.5 180t19.5 248.5t71 276t105 267q-25 11 -72.5 34t-75.5 36t-72 30.5t-73.5 24.5t-67.5 11t-66 -3.5t-58 -25.5t-54 -49 q-27 -35 -33.5 -77.5t3 -78.5t23 -67t25.5 -49l13 -18l-16 -5q-7 8 -18 23t-30.5 59t-24.5 86zM597 1031q104 -39 153 -11q86 49 95 147q7 74 -29 120q-35 45 -80 14q-5 -3 -10 -8q-64 -63 -129 -262zM724 1548q4 3 11 9t21.5 18.5t23.5 21t8 9.5t23 -25t59 -63.5l70 -75 t60 -64.5l24 -26l-26 -18z" />
<glyph unicode="&#xda;" horiz-adv-x="1218" d="M-114 973q-5 42 16 95.5t76 95.5q42 32 96.5 39t134 -16.5t121 -40t137.5 -59.5q20 -9 30 -13q92 212 208 269q81 38 128 -30q42 -60 32 -153q-11 -103 -80 -150q-14 -9 -29 -15q-65 -27 -166 6q-13 -39 -24.5 -73t-32.5 -99.5t-36.5 -121.5t-35 -130.5t-30.5 -135.5 t-20.5 -126.5t-7.5 -114.5t11.5 -89t33.5 -59.5t61 -16.5q55 4 119 75t119 174t108 226t88 224.5t55 175.5l6 20h163q0 -1 -0.5 -4.5t-0.5 -5.5q-6 -39 -30 -112.5t-56.5 -156t-70.5 -178t-70 -179t-56 -159.5t-28.5 -119t12.5 -57q15 -8 48 11.5t77 63.5t90.5 103t94.5 138 t84 161l23 -9q-38 -86 -99.5 -187t-135.5 -189.5t-129 -113.5q-43 -16 -61.5 -10t-40.5 32q-78 90 14 423q-198 -389 -336 -385q-99 3 -151 73.5t-57.5 180t19.5 248.5t71 276t105 267q-25 11 -72.5 34t-75.5 36t-72 30.5t-73.5 24.5t-67.5 11t-66 -3.5t-58 -25.5t-54 -49 q-27 -35 -33.5 -77.5t3 -78.5t23 -67t25.5 -49l13 -18l-16 -5q-7 8 -18 23t-30.5 59t-24.5 86zM597 1031q104 -39 153 -11q86 49 95 147q7 74 -29 120q-35 45 -80 14q-5 -3 -10 -8q-64 -63 -129 -262zM929 1085q15 17 39.5 43t76.5 82.5t86 93.5t33 36t15 -16t33 -29l17 -14 l-274 -213z" />
<glyph unicode="&#xdb;" horiz-adv-x="1218" d="M-114 973q-5 42 16 95.5t76 95.5q42 32 96.5 39t134 -16.5t121 -40t137.5 -59.5q20 -9 30 -13q92 212 208 269q81 38 128 -30q42 -60 32 -153q-11 -103 -80 -150q-14 -9 -29 -15q-65 -27 -166 6q-13 -39 -24.5 -73t-32.5 -99.5t-36.5 -121.5t-35 -130.5t-30.5 -135.5 t-20.5 -126.5t-7.5 -114.5t11.5 -89t33.5 -59.5t61 -16.5q55 4 119 75t119 174t108 226t88 224.5t55 175.5l6 20h163q0 -1 -0.5 -4.5t-0.5 -5.5q-6 -39 -30 -112.5t-56.5 -156t-70.5 -178t-70 -179t-56 -159.5t-28.5 -119t12.5 -57q15 -8 48 11.5t77 63.5t90.5 103t94.5 138 t84 161l23 -9q-38 -86 -99.5 -187t-135.5 -189.5t-129 -113.5q-43 -16 -61.5 -10t-40.5 32q-78 90 14 423q-198 -389 -336 -385q-99 3 -151 73.5t-57.5 180t19.5 248.5t71 276t105 267q-25 11 -72.5 34t-75.5 36t-72 30.5t-73.5 24.5t-67.5 11t-66 -3.5t-58 -25.5t-54 -49 q-27 -35 -33.5 -77.5t3 -78.5t23 -67t25.5 -49l13 -18l-16 -5q-7 8 -18 23t-30.5 59t-24.5 86zM597 1031q104 -39 153 -11q86 49 95 147q7 74 -29 120q-35 45 -80 14q-5 -3 -10 -8q-64 -63 -129 -262zM944 1283q-3 4 11 20q45 48 97 119q5 9 22 18t30 11t15 -1 q10 -59 27 -101.5t28 -57t18 -17.5q5 -5 -17 -9q-21 -4 -41 -4q-35 0 -72 118q-43 -77 -80 -93q-7 -3 -16.5 -3.5t-15.5 -0.5t-6 1z" />
<glyph unicode="&#xdc;" horiz-adv-x="1218" d="M-114 973q-5 42 16 95.5t76 95.5q42 32 96.5 39t134 -16.5t121 -40t137.5 -59.5q20 -9 30 -13q92 212 208 269q81 38 128 -30q42 -60 32 -153q-11 -103 -80 -150q-14 -9 -29 -15q-65 -27 -166 6q-13 -39 -24.5 -73t-32.5 -99.5t-36.5 -121.5t-35 -130.5t-30.5 -135.5 t-20.5 -126.5t-7.5 -114.5t11.5 -89t33.5 -59.5t61 -16.5q55 4 119 75t119 174t108 226t88 224.5t55 175.5l6 20h163q0 -1 -0.5 -4.5t-0.5 -5.5q-6 -39 -30 -112.5t-56.5 -156t-70.5 -178t-70 -179t-56 -159.5t-28.5 -119t12.5 -57q15 -8 48 11.5t77 63.5t90.5 103t94.5 138 t84 161l23 -9q-38 -86 -99.5 -187t-135.5 -189.5t-129 -113.5q-43 -16 -61.5 -10t-40.5 32q-78 90 14 423q-198 -389 -336 -385q-99 3 -151 73.5t-57.5 180t19.5 248.5t71 276t105 267q-25 11 -72.5 34t-75.5 36t-72 30.5t-73.5 24.5t-67.5 11t-66 -3.5t-58 -25.5t-54 -49 q-27 -35 -33.5 -77.5t3 -78.5t23 -67t25.5 -49l13 -18l-16 -5q-7 8 -18 23t-30.5 59t-24.5 86zM597 1031q104 -39 153 -11q86 49 95 147q7 74 -29 120q-35 45 -80 14q-5 -3 -10 -8q-64 -63 -129 -262zM911 1274q7 26 33.5 46.5t51.5 20.5q29 0 43.5 -20t7.5 -47 q-8 -29 -33 -50.5t-54 -21.5q-25 0 -40.5 22t-8.5 50zM1118 1274q7 26 33.5 46.5t50.5 20.5q29 0 44 -20t8 -47q-8 -29 -33.5 -50.5t-54.5 -21.5q-25 0 -40 22t-8 50z" />
<glyph unicode="&#xdd;" horiz-adv-x="1718" d="M-154 25q2 5 5.5 14t23 30.5t47.5 36.5t82 24t122 2q65 -7 156 -37.5t170.5 -64.5t177 -67t174 -44.5t161.5 3.5q6 1 28 8q10 45 50 107t95.5 113t99.5 59q30 5 31 -30q1 -53 -55 -127q-75 -99 -190 -137q-11 -59 -5.5 -114.5t24 -95.5t46.5 -69.5t61.5 -35.5t70.5 6 q33 13 58.5 62.5t45 144t32.5 178t32.5 229t33.5 232.5q-159 -234 -365 -137q-56 26 -79.5 86t-16.5 135t29 159.5t54.5 163.5t62.5 143.5t50 103.5l20 39l50 5h1q1 0 -19.5 -40.5t-51.5 -107.5t-65 -148.5t-57 -167t-30.5 -160t18 -131t85.5 -76.5q33 -13 65.5 -9.5 t59.5 14t54 33.5t48.5 47.5t42.5 58t37 64t31 64.5q54 292 131 451l15 32q29 63 45 90h104q-29 -45 -58.5 -161.5t-55 -261.5t-55 -311t-65.5 -319.5t-78.5 -278t-101.5 -196t-128 -63.5q-18 -6 -45 2t-57.5 29t-58.5 65t-41 103q-17 67 -9 133q-2 0 -7.5 -1.5t-8.5 -1.5 q-95 -13 -172 -4t-171 38t-169 58.5t-166.5 58t-162.5 36.5q-56 6 -98.5 0.5t-71.5 -19t-46.5 -27t-25.5 -23.5l-8 -11zM1030 -59q55 21 97.5 52.5t64.5 61t35.5 59.5t17 47t3.5 23q-2 25 -62 -26q-77 -65 -126 -143q-27 -44 -30 -74zM1420 1191q15 16 40 42.5t77 83t86 93 t33 35.5t15 -15.5t33 -28.5l16 -14l-273 -214z" />
<glyph unicode="&#xde;" horiz-adv-x="724" d="M-31.5 -453.5q-3.5 104.5 15.5 254t52.5 327.5t82.5 367.5t104 363.5t119 324.5t125 242.5l165 -3q-68 -110 -249.5 -504.5t-234.5 -544.5q21 46 42 88.5t46 88.5t50 84t51 73t52 58.5t51.5 37.5t50.5 12.5t47 -19.5q35 -19 68 -54t35 -69q4 -93 -43.5 -203 t-116.5 -196.5t-140.5 -148.5t-116.5 -73q32 -12 71 -13.5t88.5 13.5t96.5 46q77 52 153 134.5t113 138.5l38 57l21 -16q-6 -10 -17 -26.5t-46.5 -63.5t-72 -88.5t-90.5 -89t-105 -76.5q-61 -35 -118 -47.5t-95.5 -5.5t-68.5 23.5t-44.5 35t-15.5 32.5q-1 3 -1 10.5t2 20.5 t7.5 23.5t18.5 16.5t33 3q29 -7 23.5 -45t-28.5 -51q-4 -6 9 -9q7 -2 16 0q77 22 171 208q88 174 124 344q32 153 -15 161q-14 3 -36 -11q-96 -61 -178 -199t-133.5 -300.5t-85 -332.5t-44 -306.5t0.5 -210.5q0 -5 -2 -9t-4 -5l-6 -3l-5 -2q-27 32 -30.5 136.5z" />
<glyph unicode="&#xdf;" horiz-adv-x="1462" d="M-313 51q13 52 43.5 109.5t64 102t65 81t52.5 56.5l21 20l33 -31q-7 3 -20.5 -0.5t-67 -61t-119.5 -170.5q-36 -62 -44.5 -125t7 -112.5t51.5 -85t84 -48t111 4.5t126 66q105 81 234 310q-38 138 -25 262l23 8q-10 -88 25 -229q48 88 99 194t89 192t69 160.5t49 116 t20 40.5l40 -4q-26 -70 -67 -171q47 -39 121 -18q29 8 54 41t40.5 77t25 79.5t13.5 63.5q-123 -44 -178 -25q-66 22 -50 115q14 86 82 165q74 86 146 80q15 -2 29 -8q98 -45 100 -245q243 107 332 137q196 64 256 9q28 -27 35.5 -60.5t-2.5 -67t-29 -67t-44 -62.5 t-46.5 -51.5t-36.5 -34.5l-15 -13l-17 3q6 5 8.5 7.5t16 15.5t23 23.5t26 28t27.5 33.5t25 35.5t22 38t14 37.5t5.5 37.5t-6.5 34.5q-10 25 -28 40t-44.5 19t-53.5 3.5t-66 -11.5t-71 -21.5t-79.5 -31t-79.5 -35t-84 -38.5t-81 -37q-48 -183 -139 -265q-81 -78 -196 -78 l-21 -2q-20 -1 -20 1q116 -63 179 -147t68.5 -167.5t-27.5 -164.5t-105 -147t-168 -105q-95 -31 -160 13t-103 137q-96 -145 -203.5 -243.5t-200.5 -114.5q-90 -14 -157.5 22.5t-95 111.5t-4.5 167zM370 143q29 -78 64 -111q44 -37 91.5 -37.5t94 34t84.5 85t62 116.5 t27 128q7 164 -158 341q-73 -180 -157 -360q-48 -103 -108 -196zM715 1128q-38 -95 17 -139q6 -5 13 -9q33 -23 163 28q20 193 -17 246q-29 38 -89 -8q-58 -45 -87 -118z" />
<glyph unicode="&#xe0;" horiz-adv-x="656" d="M57.5 379q13.5 75 45 150t85.5 131t112 66q85 15 118 -69q4 19 28 47h146q-57 -92 -130 -362t-36 -307q51 -52 167.5 107t162.5 287l19 -8q-83 -214 -188 -328.5t-183 -89.5q-135 44 -54 342q-120 -195 -212 -167q-53 12 -73.5 69t-7 132zM178 1062q4 4 11 9.5t22 18 t24 21.5t8 10t23 -25t58.5 -63.5t69.5 -75.5t60 -65l24 -26l-26 -18zM184 243q8 -23 24 -16q72 34 149 159q7 43 16 82.5t19.5 82t15.5 66.5l-1 16q-2 20 -13.5 36.5t-32.5 21t-49 -23.5q-86 -87 -121 -254q-25 -119 -7 -170z" />
<glyph unicode="&#xe1;" horiz-adv-x="656" d="M57.5 379q13.5 75 45 150t85.5 131t112 66q85 15 118 -69q4 19 28 47h146q-57 -92 -130 -362t-36 -307q51 -52 167.5 107t162.5 287l19 -8q-83 -214 -188 -328.5t-183 -89.5q-135 44 -54 342q-120 -195 -212 -167q-53 12 -73.5 69t-7 132zM178 866q15 16 40 43t77 83 t86 93t33 36t15 -16t33 -29l16 -14l-273 -214zM184 243q8 -23 24 -16q72 34 149 159q7 43 16 82.5t19.5 82t15.5 66.5l-1 16q-2 20 -13.5 36.5t-32.5 21t-49 -23.5q-86 -87 -121 -254q-25 -119 -7 -170z" />
<glyph unicode="&#xe2;" horiz-adv-x="656" d="M57.5 379q13.5 75 45 150t85.5 131t112 66q85 15 118 -69q4 19 28 47h146q-57 -92 -130 -362t-36 -307q51 -52 167.5 107t162.5 287l19 -8q-83 -214 -188 -328.5t-183 -89.5q-135 44 -54 342q-120 -195 -212 -167q-53 12 -73.5 69t-7 132zM184 243q8 -23 24 -16 q72 34 149 159q7 43 16 82.5t19.5 82t15.5 66.5l-1 16q-2 20 -13.5 36.5t-32.5 21t-49 -23.5q-86 -87 -121 -254q-25 -119 -7 -170zM205 922q-3 4 11 20q45 48 97 119q5 9 22 18t30 10.5t15 -1.5q10 -59 27 -101.5t28 -56.5t18 -17q5 -5 -17 -9q-21 -4 -41 -4q-35 0 -72 118 q-43 -77 -80 -93q-7 -3 -16.5 -3.5t-15.5 -0.5t-6 1z" />
<glyph unicode="&#xe3;" horiz-adv-x="656" d="M57.5 379q13.5 75 45 150t85.5 131t112 66q85 15 118 -69q4 19 28 47h146q-57 -92 -130 -362t-36 -307q51 -52 167.5 107t162.5 287l19 -8q-83 -214 -188 -328.5t-183 -89.5q-135 44 -54 342q-120 -195 -212 -167q-53 12 -73.5 69t-7 132zM97 852q-1 2 0 2l8 8 q8 9 19 19.5t28.5 21t37.5 14.5t46 -1q13 -3 56.5 -14t71.5 -17t64.5 -12t60 -5t33.5 10q15 15 11.5 24t-14.5 12l-11 3l8 19q2 0 5 -1t11 -5t11.5 -10t6.5 -15.5t-4 -22.5q-43 -101 -229 -54q-34 9 -65 17.5t-46 13t-28 8.5t-19 4.5t-11.5 -1t-12.5 -5.5q-12 -7 -18.5 -13 t-7.5 -8l-1 -3zM184 243q8 -23 24 -16q72 34 149 159q7 43 16 82.5t19.5 82t15.5 66.5l-1 16q-2 20 -13.5 36.5t-32.5 21t-49 -23.5q-86 -87 -121 -254q-25 -119 -7 -170z" />
<glyph unicode="&#xe4;" horiz-adv-x="656" d="M57.5 379q13.5 75 45 150t85.5 131t112 66q85 15 118 -69q4 19 28 47h146q-57 -92 -130 -362t-36 -307q51 -52 167.5 107t162.5 287l19 -8q-83 -214 -188 -328.5t-183 -89.5q-135 44 -54 342q-120 -195 -212 -167q-53 12 -73.5 69t-7 132zM158 1033q7 26 33.5 46.5 t51.5 20.5q29 0 43.5 -20t7.5 -47q-8 -29 -33.5 -50.5t-54.5 -21.5q-25 0 -40 22t-8 50zM184 243q8 -23 24 -16q72 34 149 159q7 43 16 82.5t19.5 82t15.5 66.5l-1 16q-2 20 -13.5 36.5t-32.5 21t-49 -23.5q-86 -87 -121 -254q-25 -119 -7 -170zM364 1033q7 26 33.5 46.5 t51.5 20.5q29 0 43.5 -20t7.5 -47q-8 -29 -33 -50.5t-54 -21.5q-25 0 -40.5 22t-8.5 50z" />
<glyph unicode="&#xe5;" horiz-adv-x="656" d="M57.5 379q13.5 75 45 150t85.5 131t112 66q85 15 118 -69q4 19 28 47h146q-57 -92 -130 -362t-36 -307q51 -52 167.5 107t162.5 287l19 -8q-83 -214 -188 -328.5t-183 -89.5q-135 44 -54 342q-120 -195 -212 -167q-53 12 -73.5 69t-7 132zM184 243q8 -23 24 -16 q72 34 149 159q7 43 16 82.5t19.5 82t15.5 66.5l-1 16q-2 20 -13.5 36.5t-32.5 21t-49 -23.5q-86 -87 -121 -254q-25 -119 -7 -170zM222 979q0 46 31 78.5t75 32.5t75 -32.5t31 -78.5t-31 -78t-75 -32t-75 32t-31 78zM276 982q0 -23 15 -39t37 -16t37 16t15 39 q0 24 -15 40.5t-37 16.5t-37 -16.5t-15 -40.5z" />
<glyph unicode="&#xe6;" horiz-adv-x="1047" d="M57.5 379q13.5 75 45 150t85.5 131t112 66q85 15 118 -69q4 19 28 47h146q-57 -92 -130 -362t-36 -307q51 -52 167.5 107t162.5 287l19 -8q-83 -214 -188 -328.5t-183 -89.5q-135 44 -54 342q-120 -195 -212 -167q-53 12 -73.5 69t-7 132zM184 243q8 -23 24 -16 q72 34 149 159q7 43 16 82.5t19.5 82t15.5 66.5l-1 16q-2 20 -13.5 36.5t-32.5 21t-49 -23.5q-86 -87 -121 -254q-25 -119 -7 -170zM603 320.5q4 90.5 26.5 176.5t71.5 150t112 79q59 14 116 -8t51 -76q-5 -53 -30 -97t-55.5 -68.5t-66.5 -42t-57.5 -23.5t-34.5 -7 q-36 -101 -38 -219q-2 -133 53 -133q5 0 10 1q42 10 90 53.5t87.5 99.5t72.5 111t51 92l19 37l28 5q-9 -20 -25 -53t-64 -114t-95 -139t-110 -95t-117 -15q-49 38 -74 116.5t-21 169zM746 434q26 3 52 13t56.5 30t56.5 58t41 88q10 34 -15.5 54.5t-57.5 -10.5 q-26 -27 -65 -94t-68 -139z" />
<glyph unicode="&#xe7;" horiz-adv-x="473" d="M15 -89l23 10q0 -5 1 -12.5t6.5 -27t13 -33.5t23 -24.5t34.5 -7.5q30 4 42 31.5t7.5 54t-14.5 32.5l-33 13l8 25l23 -10l19 54q1 0 3.5 -0.5t7 -1t7.5 -0.5l3 -1l-19 -60q2 -1 4.5 -2.5t8 -8.5t8.5 -17t2 -29t-9 -42q-13 -39 -38 -59t-50.5 -19t-44.5 19q-16 14 -25 43 t-10 51zM26.5 235q4.5 76 28 159.5t59.5 152t79 116t81 54.5q39 6 66 -3.5t37.5 -27.5t16 -37.5t4.5 -33.5v-14l-22 -16q2 22 -6.5 53t-29 48t-55.5 -17q-29 -31 -82 -188q-84 -245 -74 -370q10 -119 114 -66q36 18 79.5 67t79.5 106.5t67 112.5t49 91l17 37l18 -23 q-9 -21 -24.5 -56t-64.5 -121t-97 -147t-115 -99t-126 -13q-55 30 -79.5 94.5t-20 140.5z" />
<glyph unicode="&#xe8;" horiz-adv-x="416" d="M2 320.5q4 90.5 26.5 176.5t71.5 150t112 79q59 14 116 -8t51 -76q-5 -53 -30 -97t-55.5 -68.5t-66.5 -42t-57.5 -23.5t-34.5 -7q-36 -101 -38 -219q-3 -133 52 -133q5 0 10 1q42 10 90.5 53.5t87.5 99.5t72.5 111t52.5 92l18 37l28 5q-9 -20 -25 -53t-64 -114t-95 -139 t-110 -95t-117 -15q-49 38 -74 116.5t-21 169zM59 1062q4 4 11 9.5t21.5 18t23.5 21.5t8 10t23 -25t58.5 -63.5t69.5 -75.5t60 -65l24 -26l-26 -18zM145 434q26 3 52 13t56.5 30t56.5 58t41 88q10 34 -15.5 54.5t-57.5 -10.5q-26 -27 -65 -94t-68 -139z" />
<glyph unicode="&#xe9;" horiz-adv-x="416" d="M2 320.5q4 90.5 26.5 176.5t71.5 150t112 79q59 14 116 -8t51 -76q-5 -53 -30 -97t-55.5 -68.5t-66.5 -42t-57.5 -23.5t-34.5 -7q-36 -101 -38 -219q-3 -133 52 -133q5 0 10 1q42 10 90.5 53.5t87.5 99.5t72.5 111t52.5 92l18 37l28 5q-9 -20 -25 -53t-64 -114t-95 -139 t-110 -95t-117 -15q-49 38 -74 116.5t-21 169zM59 866q15 16 39.5 43t76.5 83t86 93t33 36t15 -16t33 -29l16 -14l-273 -214zM145 434q26 3 52 13t56.5 30t56.5 58t41 88q10 34 -15.5 54.5t-57.5 -10.5q-26 -27 -65 -94t-68 -139z" />
<glyph unicode="&#xea;" horiz-adv-x="416" d="M2 320.5q4 90.5 26.5 176.5t71.5 150t112 79q59 14 116 -8t51 -76q-5 -53 -30 -97t-55.5 -68.5t-66.5 -42t-57.5 -23.5t-34.5 -7q-36 -101 -38 -219q-3 -133 52 -133q5 0 10 1q42 10 90.5 53.5t87.5 99.5t72.5 111t52.5 92l18 37l28 5q-9 -20 -25 -53t-64 -114t-95 -139 t-110 -95t-117 -15q-49 38 -74 116.5t-21 169zM85 922q-3 4 11 20q45 48 97 119q5 9 22 18t30 10.5t15 -1.5q6 -37 15 -67.5t18 -49t17.5 -32t14.5 -19t9 -7.5q5 -5 -17 -9q-21 -4 -42 -4q-35 0 -72 118q-43 -77 -80 -93q-7 -3 -16.5 -3.5t-15.5 -0.5t-6 1zM145 434 q26 3 52 13t56.5 30t56.5 58t41 88q10 34 -15.5 54.5t-57.5 -10.5q-26 -27 -65 -94t-68 -139z" />
<glyph unicode="&#xeb;" horiz-adv-x="416" d="M2 320.5q4 90.5 26.5 176.5t71.5 150t112 79q59 14 116 -8t51 -76q-5 -53 -30 -97t-55.5 -68.5t-66.5 -42t-57.5 -23.5t-34.5 -7q-36 -101 -38 -219q-3 -133 52 -133q5 0 10 1q42 10 90.5 53.5t87.5 99.5t72.5 111t52.5 92l18 37l28 5q-9 -20 -25 -53t-64 -114t-95 -139 t-110 -95t-117 -15q-49 38 -74 116.5t-21 169zM38 1033q7 26 33.5 46.5t51.5 20.5q29 0 43.5 -20t7.5 -47q-8 -29 -33.5 -50.5t-54.5 -21.5q-25 0 -40 22t-8 50zM145 434q26 3 52 13t56.5 30t56.5 58t41 88q10 34 -15.5 54.5t-57.5 -10.5q-26 -27 -65 -94t-68 -139z M244 1033q7 26 33.5 46.5t51.5 20.5q29 0 43.5 -20t7.5 -47q-8 -29 -33 -50.5t-54 -21.5q-25 0 -40.5 22t-8.5 50z" />
<glyph unicode="&#xec;" horiz-adv-x="343" d="M14 224.5q5 86.5 21 177.5t36.5 158.5t32.5 87.5q4 15 14 26l147 2q-67 -103 -137.5 -376t-9.5 -275q29 0 97.5 81t131.5 179.5t85 154.5l16 -25q-21 -63 -86 -162.5t-140 -177.5t-114 -72q-53 7 -76 71t-18 150.5zM22 1062q4 4 11 9.5t21.5 18t23.5 21.5t8 10t23 -25 t59 -63.5t70 -75.5t60 -65l24 -26l-27 -18z" />
<glyph unicode="&#xed;" horiz-adv-x="343" d="M14 224.5q5 86.5 21 177.5t36.5 158.5t32.5 87.5q4 15 14 26l147 2q-67 -103 -137.5 -376t-9.5 -275q29 0 97.5 81t131.5 179.5t85 154.5l16 -25q-21 -63 -86 -162.5t-140 -177.5t-114 -72q-53 7 -76 71t-18 150.5zM22 866q15 16 39.5 43t76.5 83t86 93t33 36t15 -16 t33 -29l17 -14l-274 -214z" />
<glyph unicode="&#xee;" horiz-adv-x="343" d="M14 224.5q5 86.5 21 177.5t36.5 158.5t32.5 87.5q4 15 14 26l147 2q-67 -103 -137.5 -376t-9.5 -275q29 0 97.5 81t131.5 179.5t85 154.5l16 -25q-21 -63 -86 -162.5t-140 -177.5t-114 -72q-53 7 -76 71t-18 150.5zM48 922q-3 4 11 19q45 48 98 120q5 9 22 18t30 10.5 t15 -1.5q10 -59 27 -101.5t28 -56.5t18 -17q5 -5 -17 -9q-21 -4 -42 -4q-34 0 -71 118q-42 -77 -81 -93q-7 -3 -16.5 -3.5t-15.5 -0.5t-6 1z" />
<glyph unicode="&#xef;" horiz-adv-x="343" d="M1 1033q7 26 33.5 46.5t51.5 20.5q29 0 44 -20t8 -47q-8 -29 -33.5 -50.5t-54.5 -21.5q-25 0 -40.5 22t-8.5 50zM14 224.5q5 86.5 21 177.5t36.5 158.5t32.5 87.5q4 15 14 26l147 2q-67 -103 -137.5 -376t-9.5 -275q29 0 97.5 81t131.5 179.5t85 154.5l16 -25 q-21 -63 -86 -162.5t-140 -177.5t-114 -72q-53 7 -76 71t-18 150.5zM208 1033q7 26 33.5 46.5t51.5 20.5q29 0 43.5 -20t7.5 -47q-8 -29 -33.5 -50.5t-54.5 -21.5q-25 0 -40 22t-8 50z" />
<glyph unicode="&#xf0;" horiz-adv-x="953" d="M93.5 219q-8.5 90 19 172t83.5 178q14 24 40.5 51t63.5 49.5t75 33t78.5 -2.5t71.5 -53q39 -51 57.5 -110t11.5 -125.5t-45 -124.5q-3 -3 -6.5 -8t-5.5 -7l-2 -3l-8 -2q-10 2 -5 17q32 38 50 85q35 128 -50 242q-37 50 -81 64.5t-86 -3t-80.5 -52.5t-71.5 -86 q-43 -67 -67 -142.5t-17.5 -164t57.5 -155.5q43 -57 102.5 -61.5t118 31.5t116 94t101 121.5t68.5 118.5q68 148 78 275t-34 246q-113 -28 -122 -44q-8 -18 -6 -31t8 -20l7 -8q-51 -8 -57 -11v18q0 18 2.5 36t21.5 38t53 29l82 21q-37 95 -109 207q-3 6 5.5 9.5t5.5 11.5 l5 -6q74 -98 124 -214q137 40 152 90q7 30 4 49t-10 28l-8 9l32 12q3 -4 7 -11.5t11.5 -28t9.5 -39t-5 -41t-26 -38.5q-35 -28 -155 -59q139 -360 -92 -715q-52 -80 -115 -137t-131 -85.5t-137 -8t-125 94.5q-56 76 -64.5 166zM556 781v2v-2z" />
<glyph unicode="&#xf1;" horiz-adv-x="844" d="M21 339q3 92 26 186.5t57 166.5l151 1q-64 -112 -119 -281.5t-31 -203.5q2 -10 18 18q15 25 143 288q219 450 314 538q29 27 49 25q4 1 11 2t27 1.5t38 -2.5t39.5 -13t36 -26.5t22.5 -47t4 -71.5q-6 -39 -30 -112.5t-56.5 -156t-70 -178t-70 -179t-56 -159.5t-28 -119 t12.5 -57q15 -8 48 11.5t77 63.5t90.5 103t94.5 138t84 161l23 -9q-38 -86 -99.5 -187t-135.5 -189.5t-129 -113.5q-43 -16 -62 -10t-41 32q-80 91 19 440q19 66 115 358q73 223 63 273q-5 30 -34 22q-38 -12 -149 -210.5t-224.5 -425t-127.5 -248.5q-9 -17 -23 -14.5 t-26 13t-21 25.5q-33 55 -30 147zM190 854l8 8q8 9 19 19.5t28.5 21t37.5 14.5t46 -1q12 -3 56.5 -14t72.5 -17t64.5 -12t60 -5t33.5 10q15 15 11.5 24t-15.5 12l-11 3l9 19q2 0 5 -1t11 -5t11 -10t6 -15.5t-4 -22.5q-43 -100 -228 -54q-34 9 -65 17.5t-46 13t-28.5 8.5 t-19.5 4.5t-11.5 -1t-12.5 -5.5q-12 -7 -18.5 -13t-7.5 -8v-3q1 1 -12 13z" />
<glyph unicode="&#xf2;" horiz-adv-x="514" d="M-9 323.5q14 95.5 49.5 186.5t94.5 153.5t122 66.5q36 3 63.5 -9t41 -28t22 -39t10 -34.5t2.5 -22.5q15 3 28 -5.5t13 -23.5q0 -16 -8 -54.5t-16 -70.5t-8 -30v1q-26 -94 -33 -111q17 -28 46 -19q44 14 84 51.5t58 68.5l18 30l17 -1q-3 -7 -9 -18t-25 -39.5t-40 -51 t-53 -42t-64 -22.5q-24 -1 -41 24q-87 -212 -164 -247q-53 -23 -104 -3q-65 32 -91.5 113t-12.5 176.5zM91 121q8 -45 48 -48q55 -6 119 73q48 60 86 157q-21 41 -25 107.5t11 121t43 63.5q0 24 -8.5 42.5t-30.5 27t-59 -16.5q-56 -37 -105 -138t-71 -210.5t-8 -178.5z M108 1062q4 4 11 9.5t22 18t24 21.5t8 10t23 -25t58.5 -63.5t69.5 -75.5t60 -65l24 -26l-26 -18zM352.5 493q-15.5 -83 5.5 -149q4 18 11 43.5t11.5 43.5t10 39.5t8.5 37t4.5 30.5t0.5 25t-5 15q-31 -2 -46.5 -85z" />
<glyph unicode="&#xf3;" horiz-adv-x="514" d="M-9 323.5q14 95.5 49.5 186.5t94.5 153.5t122 66.5q36 3 63.5 -9t41 -28t22 -39t10 -34.5t2.5 -22.5q15 3 28 -5.5t13 -23.5q0 -16 -8 -54.5t-16 -70.5t-8 -30v1q-26 -94 -33 -111q17 -28 46 -19q44 14 84 51.5t58 68.5l18 30l17 -1q-3 -7 -9 -18t-25 -39.5t-40 -51 t-53 -42t-64 -22.5q-24 -1 -41 24q-87 -212 -164 -247q-53 -23 -104 -3q-65 32 -91.5 113t-12.5 176.5zM91 121q8 -45 48 -48q55 -6 119 73q48 60 86 157q-21 41 -25 107.5t11 121t43 63.5q0 24 -8.5 42.5t-30.5 27t-59 -16.5q-56 -37 -105 -138t-71 -210.5t-8 -178.5z M108 866q15 16 40 43t77 83t86 93t33 36t15 -16t33 -29l16 -14l-273 -214zM352.5 493q-15.5 -83 5.5 -149q4 18 11 43.5t11.5 43.5t10 39.5t8.5 37t4.5 30.5t0.5 25t-5 15q-31 -2 -46.5 -85z" />
<glyph unicode="&#xf4;" horiz-adv-x="514" d="M-9 323.5q14 95.5 49.5 186.5t94.5 153.5t122 66.5q36 3 63.5 -9t41 -28t22 -39t10 -34.5t2.5 -22.5q15 3 28 -5.5t13 -23.5q0 -16 -8 -54.5t-16 -70.5t-8 -30v1q-26 -94 -33 -111q17 -28 46 -19q44 14 84 51.5t58 68.5l18 30l17 -1q-3 -7 -9 -18t-25 -39.5t-40 -51 t-53 -42t-64 -22.5q-24 -1 -41 24q-87 -212 -164 -247q-53 -23 -104 -3q-65 32 -91.5 113t-12.5 176.5zM91 121q8 -45 48 -48q55 -6 119 73q48 60 86 157q-21 41 -25 107.5t11 121t43 63.5q0 24 -8.5 42.5t-30.5 27t-59 -16.5q-56 -37 -105 -138t-71 -210.5t-8 -178.5z M133 922q-3 4 11 20q45 48 97 119q5 9 22.5 18t30.5 10.5t15 -1.5q10 -59 27 -101.5t28 -56.5t18 -17q5 -5 -17 -9q-21 -4 -42 -4q-34 0 -71 118q-42 -77 -81 -93q-7 -3 -16.5 -3.5t-15.5 -0.5t-6 1zM352.5 493q-15.5 -83 5.5 -149q4 18 11 43.5t11.5 43.5t10 39.5t8.5 37 t4.5 30.5t0.5 25t-5 15q-31 -2 -46.5 -85z" />
<glyph unicode="&#xf5;" horiz-adv-x="514" d="M-9 323.5q14 95.5 49.5 186.5t94.5 153.5t122 66.5q36 3 63.5 -9t41 -28t22 -39t10 -34.5t2.5 -22.5q15 3 28 -5.5t13 -23.5q0 -16 -8 -54.5t-16 -70.5t-8 -30v1q-26 -94 -33 -111q17 -28 46 -19q44 14 84 51.5t58 68.5l18 30l17 -1q-3 -7 -9 -18t-25 -39.5t-40 -51 t-53 -42t-64 -22.5q-24 -1 -41 24q-87 -212 -164 -247q-53 -23 -104 -3q-65 32 -91.5 113t-12.5 176.5zM26 854l8 8q8 9 19 19.5t28.5 21t37.5 14.5t46 -1q12 -3 56.5 -14t72.5 -17t64.5 -12t60 -5t33.5 10q15 15 11.5 24t-15.5 12l-11 3l9 19q2 0 5 -1t11 -5t11 -10 t6 -15.5t-4 -22.5q-43 -100 -228 -54q-34 9 -65 17.5t-46 13t-28.5 8.5t-19.5 4.5t-11.5 -1t-12.5 -5.5q-12 -7 -18.5 -13t-7.5 -8v-3q1 1 -12 13zM91 121q8 -45 48 -48q55 -6 119 73q48 60 86 157q-21 41 -25 107.5t11 121t43 63.5q0 24 -8.5 42.5t-30.5 27t-59 -16.5 q-56 -37 -105 -138t-71 -210.5t-8 -178.5zM352.5 493q-15.5 -83 5.5 -149q4 18 11 43.5t11.5 43.5t10 39.5t8.5 37t4.5 30.5t0.5 25t-5 15q-31 -2 -46.5 -85z" />
<glyph unicode="&#xf6;" horiz-adv-x="514" d="M-9 323.5q14 95.5 49.5 186.5t94.5 153.5t122 66.5q36 3 63.5 -9t41 -28t22 -39t10 -34.5t2.5 -22.5q15 3 28 -5.5t13 -23.5q0 -16 -8 -54.5t-16 -70.5t-8 -30v1q-26 -94 -33 -111q17 -28 46 -19q44 14 84 51.5t58 68.5l18 30l17 -1q-3 -7 -9 -18t-25 -39.5t-40 -51 t-53 -42t-64 -22.5q-24 -1 -41 24q-87 -212 -164 -247q-53 -23 -104 -3q-65 32 -91.5 113t-12.5 176.5zM88 1033q7 26 33.5 46.5t51.5 20.5q29 0 43.5 -20t7.5 -47q-8 -29 -33.5 -50.5t-54.5 -21.5q-25 0 -40 22t-8 50zM91 121q8 -45 48 -48q55 -6 119 73q48 60 86 157 q-21 41 -25 107.5t11 121t43 63.5q0 24 -8.5 42.5t-30.5 27t-59 -16.5q-56 -37 -105 -138t-71 -210.5t-8 -178.5zM294 1033q7 26 33.5 46.5t51.5 20.5q29 0 43.5 -20t7.5 -47q-8 -29 -33.5 -50.5t-54.5 -21.5q-25 0 -40 22t-8 50zM352.5 493q-15.5 -83 5.5 -149 q4 18 11 43.5t11.5 43.5t10 39.5t8.5 37t4.5 30.5t0.5 25t-5 15q-31 -2 -46.5 -85z" />
<glyph unicode="&#xf8;" horiz-adv-x="514" d="M-64 -12l79 130q-26 57 -27 137t21 159.5t58 150t87 116t103 49.5q71 4 106 -40l112 186h50l-139 -228q5 -17 10 -51q15 3 28 -5.5t13 -23.5q0 -16 -8 -54.5t-16 -70.5t-8 -30v1q-26 -94 -33 -111q17 -28 46 -19q44 14 84 51.5t58 68.5l18 30l17 -1q-3 -7 -9 -18 t-25 -39.5t-40 -51t-53 -42t-64 -22.5q-24 -1 -41 24q-87 -212 -164 -247q-53 -23 -104 -3q-33 15 -56 44l-54 -90h-49zM86 154q0 -16 5 -33q8 -45 48 -48q55 -6 119 73q48 60 86 157q-21 41 -25 107.5t11 121t43 63.5q0 4 -1.5 13.5t-1.5 11.5zM89 243l255 417 q-26 16 -69 -12q-65 -43 -118 -164t-68 -241zM352.5 493q-15.5 -83 5.5 -149q4 18 11 43.5t11.5 43.5t10 39.5t8.5 37t4.5 30.5t0.5 25t-5 15q-31 -2 -46.5 -85z" />
<glyph unicode="&#xf9;" horiz-adv-x="699" d="M11 223q4 87 19.5 178.5t35 159t31.5 87.5q10 27 39 47l148 3q-56 -78 -142.5 -372.5t-23.5 -300.5q138 -14 328 507q6 19 36.5 95t30.5 77l167 3q-12 -23 -38 -80.5t-64 -146.5t-69.5 -183t-53.5 -179.5t-18.5 -147.5t38.5 -77q38 -17 96 51.5t116.5 198t96.5 278.5 l23 -7q-3 -9 -8 -25.5t-21 -65t-33.5 -93.5t-44 -103.5t-52.5 -104t-58 -84.5t-63 -56q-24 -13 -43.5 -13t-31.5 8t-28 26q-44 51 -59.5 114t-9 128t29.5 165q-29 -64 -59.5 -116.5t-66.5 -99t-75 -71t-76 -20.5q-53 6 -77 69.5t-20 150.5zM200 1062q4 4 11 9.5t22 18 t24 21.5t8 10t23 -25t58.5 -63.5t69.5 -75.5t60 -65l24 -26l-26 -18z" />
<glyph unicode="&#xfa;" horiz-adv-x="699" d="M11 223q4 87 19.5 178.5t35 159t31.5 87.5q10 27 39 47l148 3q-56 -78 -142.5 -372.5t-23.5 -300.5q138 -14 328 507q6 19 36.5 95t30.5 77l167 3q-12 -23 -38 -80.5t-64 -146.5t-69.5 -183t-53.5 -179.5t-18.5 -147.5t38.5 -77q38 -17 96 51.5t116.5 198t96.5 278.5 l23 -7q-3 -9 -8 -25.5t-21 -65t-33.5 -93.5t-44 -103.5t-52.5 -104t-58 -84.5t-63 -56q-24 -13 -43.5 -13t-31.5 8t-28 26q-44 51 -59.5 114t-9 128t29.5 165q-29 -64 -59.5 -116.5t-66.5 -99t-75 -71t-76 -20.5q-53 6 -77 69.5t-20 150.5zM200 866q15 16 40 43t77 83t86 93 t33 36t15 -16t33 -29l16 -14l-273 -214z" />
<glyph unicode="&#xfb;" horiz-adv-x="699" d="M11 223q4 87 19.5 178.5t35 159t31.5 87.5q10 27 39 47l148 3q-56 -78 -142.5 -372.5t-23.5 -300.5q138 -14 328 507q6 19 36.5 95t30.5 77l167 3q-12 -23 -38 -80.5t-64 -146.5t-69.5 -183t-53.5 -179.5t-18.5 -147.5t38.5 -77q38 -17 96 51.5t116.5 198t96.5 278.5 l23 -7q-3 -9 -8 -25.5t-21 -65t-33.5 -93.5t-44 -103.5t-52.5 -104t-58 -84.5t-63 -56q-24 -13 -43.5 -13t-31.5 8t-28 26q-44 51 -59.5 114t-9 128t29.5 165q-29 -64 -59.5 -116.5t-66.5 -99t-75 -71t-76 -20.5q-53 6 -77 69.5t-20 150.5zM225 922q-3 4 11 19q45 48 98 120 q5 9 22 18t30 10.5t15 -1.5q10 -59 27 -101.5t28 -56.5t18 -17q5 -5 -17 -9q-21 -4 -42 -4q-34 0 -71 118q-42 -77 -81 -93q-7 -3 -16.5 -3.5t-15.5 -0.5t-6 1z" />
<glyph unicode="&#xfc;" horiz-adv-x="699" d="M11 223q4 87 19.5 178.5t35 159t31.5 87.5q10 27 39 47l148 3q-56 -78 -142.5 -372.5t-23.5 -300.5q138 -14 328 507q6 19 36.5 95t30.5 77l167 3q-12 -23 -38 -80.5t-64 -146.5t-69.5 -183t-53.5 -179.5t-18.5 -147.5t38.5 -77q38 -17 96 51.5t116.5 198t96.5 278.5 l23 -7q-3 -9 -8 -25.5t-21 -65t-33.5 -93.5t-44 -103.5t-52.5 -104t-58 -84.5t-63 -56q-24 -13 -43.5 -13t-31.5 8t-28 26q-44 51 -59.5 114t-9 128t29.5 165q-29 -64 -59.5 -116.5t-66.5 -99t-75 -71t-76 -20.5q-53 6 -77 69.5t-20 150.5zM180 1033q7 26 33.5 46.5 t51.5 20.5q29 0 43.5 -20t7.5 -47q-8 -29 -33.5 -50.5t-54.5 -21.5q-25 0 -40 22t-8 50zM386 1033q7 26 33.5 46.5t51.5 20.5q29 0 43.5 -20t7.5 -47q-8 -29 -33.5 -50.5t-54.5 -21.5q-25 0 -40 22t-8 50z" />
<glyph unicode="&#xfd;" horiz-adv-x="708" d="M-309 -703q-47 58 9 160q28 50 79 103q45 47 114.5 93t123 73t128 61.5t95.5 45.5l12 34q53 188 93 379q-65 -122 -131 -155q-43 -18 -80.5 -10.5t-64.5 29.5q-13 12 -22.5 32t-13.5 45t-6 52t-0.5 58t3.5 57t6 55t7 46.5t6.5 37t3.5 20.5q17 82 65 115h125 q-20 -39 -39.5 -83t-46 -113.5t-41.5 -126.5t-15.5 -110.5t22.5 -77.5q16 -16 36.5 -18t46.5 13t53.5 46.5t58.5 90t59 136.5l15 74q55 273 117 335h107q-32 -87 -124.5 -455.5t-117.5 -427.5q123 104 249 274t148 239l25 -13q-16 -37 -54 -99t-93.5 -141.5t-133 -164 t-155.5 -145.5q-31 -90 -67 -161q-87 -165 -201 -282q-131 -134 -262 -156q-97 -17 -139 35zM-288 -588q-22 -59 1 -91q18 -28 55.5 -33t82 11t93.5 52.5t90 86.5q115 143 196 365q-29 -17 -123 -61.5t-174 -94t-138 -111.5q-61 -65 -83 -124zM205 866q15 16 39.5 43 t76.5 83t86 93t33 36t15 -16t33 -29l17 -14l-274 -214z" />
<glyph unicode="&#xfe;" horiz-adv-x="724" d="M-31.5 -453.5q-3.5 104.5 15.5 254t52.5 327.5t82.5 367.5t104 363.5t119 324.5t125 242.5l165 -3q-68 -110 -249.5 -504.5t-234.5 -544.5q21 46 42 88.5t46 88.5t50 84t51 73t52 58.5t51.5 37.5t50.5 12.5t47 -19.5q35 -19 68 -54t35 -69q4 -93 -43.5 -203 t-116.5 -196.5t-140.5 -148.5t-116.5 -73q32 -12 71 -13.5t88.5 13.5t96.5 46q77 52 153 134.5t113 138.5l38 57l21 -16q-6 -10 -17 -26.5t-46.5 -63.5t-72 -88.5t-90.5 -89t-105 -76.5q-61 -35 -118 -47.5t-95.5 -5.5t-68.5 23.5t-44.5 35t-15.5 32.5q-1 3 -1 10.5t2 20.5 t7.5 23.5t18.5 16.5t33 3q29 -7 23.5 -45t-28.5 -51q-4 -6 9 -9q7 -2 16 0q77 22 171 208q88 174 124 344q32 153 -15 161q-14 3 -36 -11q-96 -61 -178 -199t-133.5 -300.5t-85 -332.5t-44 -306.5t0.5 -210.5q0 -5 -2 -9t-4 -5l-6 -3l-5 -2q-27 32 -30.5 136.5z" />
<glyph unicode="&#xff;" horiz-adv-x="708" d="M-309 -703q-47 58 9 160q28 50 79 103q45 47 114.5 93t123 73t128 61.5t95.5 45.5l12 34q53 188 93 379q-65 -122 -131 -155q-43 -18 -80.5 -10.5t-64.5 29.5q-13 12 -22.5 32t-13.5 45t-6 52t-0.5 58t3.5 57t6 55t7 46.5t6.5 37t3.5 20.5q17 82 65 115h125 q-20 -39 -39.5 -83t-46 -113.5t-41.5 -126.5t-15.5 -110.5t22.5 -77.5q16 -16 36.5 -18t46.5 13t53.5 46.5t58.5 90t59 136.5l15 74q55 273 117 335h107q-32 -87 -124.5 -455.5t-117.5 -427.5q123 104 249 274t148 239l25 -13q-16 -37 -54 -99t-93.5 -141.5t-133 -164 t-155.5 -145.5q-31 -90 -67 -161q-87 -165 -201 -282q-131 -134 -262 -156q-97 -17 -139 35zM-288 -588q-22 -59 1 -91q18 -28 55.5 -33t82 11t93.5 52.5t90 86.5q115 143 196 365q-29 -17 -123 -61.5t-174 -94t-138 -111.5q-61 -65 -83 -124zM184 1033q7 26 33.5 46.5 t51.5 20.5q29 0 43.5 -20t7.5 -47q-8 -29 -33 -50.5t-54 -21.5q-25 0 -40.5 22t-8.5 50zM391 1033q7 26 33.5 46.5t50.5 20.5q29 0 44 -20t8 -47q-8 -29 -33.5 -50.5t-54.5 -21.5q-25 0 -40 22t-8 50z" />
<glyph unicode="&#x178;" horiz-adv-x="1718" d="M-154 25q2 5 5.5 14t23 30.5t47.5 36.5t82 24t122 2q65 -7 156 -37.5t170.5 -64.5t177 -67t174 -44.5t161.5 3.5q6 1 28 8q10 45 50 107t95.5 113t99.5 59q30 5 31 -30q1 -53 -55 -127q-75 -99 -190 -137q-11 -59 -5.5 -114.5t24 -95.5t46.5 -69.5t61.5 -35.5t70.5 6 q33 13 58.5 62.5t45 144t32.5 178t32.5 229t33.5 232.5q-159 -234 -365 -137q-56 26 -79.5 86t-16.5 135t29 159.5t54.5 163.5t62.5 143.5t50 103.5l20 39l50 5h1q1 0 -19.5 -40.5t-51.5 -107.5t-65 -148.5t-57 -167t-30.5 -160t18 -131t85.5 -76.5q33 -13 65.5 -9.5 t59.5 14t54 33.5t48.5 47.5t42.5 58t37 64t31 64.5q54 292 131 451l15 32q29 63 45 90h104q-29 -45 -58.5 -161.5t-55 -261.5t-55 -311t-65.5 -319.5t-78.5 -278t-101.5 -196t-128 -63.5q-18 -6 -45 2t-57.5 29t-58.5 65t-41 103q-17 67 -9 133q-2 0 -7.5 -1.5t-8.5 -1.5 q-95 -13 -172 -4t-171 38t-169 58.5t-166.5 58t-162.5 36.5q-56 6 -98.5 0.5t-71.5 -19t-46.5 -27t-25.5 -23.5l-8 -11zM1030 -59q55 21 97.5 52.5t64.5 61t35.5 59.5t17 47t3.5 23q-2 25 -62 -26q-77 -65 -126 -143q-27 -44 -30 -74zM1346 1325q7 26 34 47t51 21 q29 0 43.5 -20.5t7.5 -47.5q-8 -29 -33.5 -50t-54.5 -21q-25 0 -40 21.5t-8 49.5zM1552 1325q7 26 34 47t51 21q29 0 43.5 -20.5t7.5 -47.5q-8 -29 -33.5 -50t-54.5 -21q-25 0 -40 21.5t-8 49.5z" />
<glyph unicode="&#x2c6;" horiz-adv-x="570" d="M312 922q-3 4 11 20q45 48 97 119q5 9 22 18t30 10.5t15 -1.5q10 -59 27 -101.5t28 -56.5t18 -17q5 -5 -17 -9q-21 -4 -41 -4q-35 0 -72 118q-43 -77 -80 -93q-7 -3 -16.5 -3.5t-15.5 -0.5t-6 1z" />
<glyph unicode="&#x2dc;" horiz-adv-x="639" d="M176 852q-1 2 0 2l8 8q8 9 19 19.5t28.5 21t37.5 14.5t46 -1q13 -3 56.5 -14t71.5 -17t64.5 -12t60 -5t33.5 10q15 15 11.5 24t-14.5 12l-11 3l8 19q2 0 5 -1t11 -5t11.5 -10t6.5 -15.5t-4 -22.5q-43 -101 -229 -54q-34 9 -65 17.5t-46 13t-28 8.5t-19 4.5t-11.5 -1 t-12.5 -5.5q-12 -7 -18.5 -13t-7.5 -8l-1 -3z" />
<glyph unicode="&#x2000;" horiz-adv-x="839" />
<glyph unicode="&#x2001;" horiz-adv-x="1678" />
<glyph unicode="&#x2002;" horiz-adv-x="839" />
<glyph unicode="&#x2003;" horiz-adv-x="1678" />
<glyph unicode="&#x2004;" horiz-adv-x="559" />
<glyph unicode="&#x2005;" horiz-adv-x="419" />
<glyph unicode="&#x2006;" horiz-adv-x="279" />
<glyph unicode="&#x2007;" horiz-adv-x="279" />
<glyph unicode="&#x2008;" horiz-adv-x="209" />
<glyph unicode="&#x2009;" horiz-adv-x="335" />
<glyph unicode="&#x200a;" horiz-adv-x="93" />
<glyph unicode="&#x2010;" horiz-adv-x="345" d="M234 354l25 92h314l-24 -92h-315z" />
<glyph unicode="&#x2011;" horiz-adv-x="345" d="M234 354l25 92h314l-24 -92h-315z" />
<glyph unicode="&#x2012;" horiz-adv-x="345" d="M234 354l25 92h314l-24 -92h-315z" />
<glyph unicode="&#x2013;" horiz-adv-x="352" d="M249 471q0 19 11.5 31t36 17t47.5 6.5t60 1.5h193q42 0 32 -33q3 -14 -15 -29.5t-41 -18.5q-18 0 -82 -3.5t-109 -3.5q-5 0 -20.5 -0.5t-25 0t-25 1t-25.5 2.5t-19.5 5.5t-14 9.5t-3.5 14z" />
<glyph unicode="&#x2014;" horiz-adv-x="454" d="M275 473q2 16 11.5 27t29.5 17t40.5 9t55 4t62 0.5t73.5 -1.5t78 -1q17 0 40 0.5t37.5 1t31.5 0t27.5 -2t20 -4.5t13.5 -8t4 -13q-3 -16 -18.5 -32t-37.5 -19q-52 -11 -224 -11q-138 0 -213 5q-17 0 -25 7.5t-6 20.5z" />
<glyph unicode="&#x2018;" horiz-adv-x="184" d="M360 1062q3 75 73.5 159t116.5 84q10 0 10 -7q-1 -3 -21.5 -30t-45.5 -62.5t-35 -58.5q30 9 38 9q65 0 67 -78q0 -41 -35 -78t-85 -37q-44 0 -64.5 28.5t-18.5 70.5z" />
<glyph unicode="&#x2019;" horiz-adv-x="184" d="M377 1138q1 40 36 77t87 37q44 0 64 -29.5t14 -71.5q-1 -49 -36.5 -107.5t-79 -96t-70.5 -37.5q-5 0 -7 0.5t-3.5 2.5t-1.5 6q1 5 22 32t47 63.5t37 59.5q-17 -12 -41 -12q-34 0 -50.5 21t-17.5 55z" />
<glyph unicode="&#x201a;" horiz-adv-x="184" d="M59 61q3 43 36.5 79.5t85.5 36.5q42 0 62 -29t17 -70q-2 -50 -37 -109t-79 -96.5t-72 -37.5q-12 0 -11 8q0 3 20.5 30.5t46.5 65t37 60.5q-20 -11 -39 -11q-67 0 -67 73z" />
<glyph unicode="&#x201c;" horiz-adv-x="323" d="M377 1061q4 71 73.5 156t111.5 85q6 0 7.5 -0.5t3.5 -2.5t0 -6q0 -3 -19.5 -30.5t-44.5 -64t-36 -58.5q20 11 42 11q32 0 47.5 -21.5t13.5 -52.5q-1 -44 -34 -82t-84 -38q-45 0 -65.5 30.5t-15.5 73.5zM581 1024q6 53 43.5 110.5t78 92t62.5 34.5q3 0 6.5 -5t2.5 -10 q-1 -2 -21 -31t-44.5 -67t-34.5 -60q26 16 46 16q64 0 64 -71q-4 -45 -32.5 -82.5t-78.5 -37.5q-52 0 -73.5 31.5t-18.5 79.5z" />
<glyph unicode="&#x201d;" horiz-adv-x="336" d="M398 888q2 7 44.5 65t53.5 86q-14 -6 -38 -6q-33 0 -49.5 20t-9.5 51q-1 44 30 81.5t80 37.5q42 0 61 -24.5t14 -64.5q-3 -57 -37.5 -118t-73 -96.5t-60.5 -35.5q-12 0 -15 4zM604 1134q0 41 34.5 79.5t85.5 38.5q81 0 81 -101q-5 -75 -75 -159.5t-117 -84.5q-5 0 -3 6 q-2 6 16 33t43.5 63t35.5 56q-12 -3 -38 -3q-36 0 -52 19.5t-11 52.5z" />
<glyph unicode="&#x201e;" horiz-adv-x="339" d="M80 61q1 41 36.5 78.5t86.5 37.5q44 0 64 -28.5t18 -70.5q-4 -76 -73.5 -159.5t-116.5 -83.5q-10 0 -9 8q0 3 20 30.5t46 65t37 60.5q-24 -11 -38 -11q-35 0 -49 18t-22 55zM304 61q0 42 34 79t86 37q45 0 65.5 -28.5t15.5 -70.5q-3 -76 -73 -159.5t-116 -83.5h-1h-4 t-2.5 2t0.5 6q0 3 20 30.5t45.5 65t36.5 60.5q-20 -11 -39 -11q-66 0 -68 73z" />
<glyph unicode="&#x2022;" horiz-adv-x="320" d="M298 604q6 67 54.5 121.5t125.5 54.5q56 0 82 -32t21 -81q-3 -61 -54.5 -117t-119.5 -56q-51 0 -82.5 28.5t-26.5 81.5z" />
<glyph unicode="&#x2026;" horiz-adv-x="500" d="M127 76q3 43 39 80t86 37q39 0 57.5 -20t15.5 -50q-3 -47 -37.5 -85t-84.5 -38q-13 0 -16 3q-62 10 -60 73zM363 85q3 44 36.5 81t84.5 37q38 0 56 -23t16 -57q-3 -47 -35 -85t-76 -38q-15 0 -25 3q-59 10 -57 82zM600 85q1 49 41.5 78.5t87.5 29.5q30 0 51.5 -17.5 t18.5 -52.5q-2 -49 -34.5 -86t-87.5 -37q-33 0 -56.5 24t-20.5 61z" />
<glyph unicode="&#x202f;" horiz-adv-x="335" />
<glyph unicode="&#x205f;" horiz-adv-x="419" />
<glyph unicode="&#x20ac;" horiz-adv-x="539" d="M224 404q4 26 35.5 34t98.5 8l19 70l-73 8q-33 0 -33 20q1 12 15.5 23.5t36.5 13.5l72 1q54 174 160.5 296.5t228.5 122.5q45 0 63 -25q51 -22 74.5 -80.5t20.5 -126.5q-2 -23 -15.5 -50.5t-27 -44t-15.5 -14.5q-20 5 -37.5 14.5t-32 35.5t-9.5 62q5 35 24.5 78t23.5 56 q5 16 6 25t-4.5 12.5t-9 4t-13.5 0.5q-78 0 -162.5 -107t-134.5 -250h52h35h40.5h39.5t39 -0.5t31 -1.5t22.5 -3t7.5 -5q3 -15 -20 -27.5t-65 -20.5t-96.5 -12.5t-114.5 -4.5q-12 -44 -9 -65h240q14 0 -8.5 -22t-87.5 -41t-154 -12q-3 -86 32 -139t109 -60q68 -6 138.5 34 t100.5 74q-126 -207 -292 -207q-49 0 -87.5 15.5t-64.5 42t-42.5 64.5t-22.5 82t-4 94q-130 0 -130 28zM869 288q1 4 7 7q-1 -3 -7 -7z" />
<glyph unicode="&#x25fc;" horiz-adv-x="950" d="M0 0v951h951v-951h-951z" />
<glyph unicode="&#xfb01;" horiz-adv-x="823" d="M-39 -250q-2 89 7 184q21 240 99 642h2q2 19 4 19l3 13q3 14 9 36.5t14.5 50.5t20.5 58.5t26 58t31.5 51.5t36.5 37q84 58 130 15q47 -45 20 -166q-9 -43 -29 -92q-49 -122 -146 -243q1 -2 18.5 -24.5t23 -28l22.5 -22.5t29 -23t30.5 -12.5t38.5 -6.5q39 0 77 15t64 36.5 t46.5 42.5t30.5 36l10 15q5 5 10 -5q3 -7 -1 -11q-4 -7 -12 -18.5t-34 -39.5t-54.5 -48.5t-72 -34t-87.5 -7.5q-44 7 -66 22.5t-51 56.5q21 -67 39 -136.5t35 -182.5t16.5 -211t-28 -203t-86.5 -178q-91 -96 -155 -8q-65 89 -71 312zM45 -187q-53 -318 33 -385q37 -28 86 24 t83.5 172.5t28.5 262.5q-10 215 -98 486q-105 -390 -133 -560zM200 455q83 128 113 227q14 45 20.5 80.5t7 54t-3 30t-6.5 15t-5 3.5q-10 0 -99 -302q-5 -25 -27 -108zM494 224.5q5 86.5 21 177.5t36.5 158.5t32.5 87.5q4 15 14 26l147 2q-67 -103 -137.5 -376t-9.5 -275 q29 0 97.5 81t130.5 179.5t85 154.5l16 -25q-21 -63 -86 -162.5t-139.5 -177.5t-113.5 -72q-53 7 -76 71t-18 150.5zM647 841q2 83 57 120q45 30 84 6q32 -20 37 -70q4 -35 -9.5 -53.5t-33 -22t-43 -10.5t-34.5 -21q-7 -9 -12 -18t-7 -14l-1 -5q-5 3 -11.5 10t-17 30 t-9.5 48z" />
<glyph unicode="&#xfb02;" horiz-adv-x="895" d="M-39 -250q-2 89 7 184q21 240 99 642h2q2 19 4 19l3 13q3 14 9 36.5t14.5 50.5t20.5 58.5t26 58t31.5 51.5t36.5 37q84 58 130 15q47 -45 20 -166q-9 -43 -29 -92q-49 -122 -146 -243q1 -2 18.5 -24.5t23 -28l22.5 -22.5t29 -23t30.5 -12.5t38.5 -6.5q39 0 77 15t64 36.5 t46.5 42.5t30.5 36l10 15q5 5 10 -5q3 -7 -1 -11q-4 -7 -12 -18.5t-34 -39.5t-54.5 -48.5t-72 -34t-87.5 -7.5q-44 7 -66 22.5t-51 56.5q21 -67 39 -136.5t35 -182.5t16.5 -211t-28 -203t-86.5 -178q-91 -96 -155 -8q-65 89 -71 312zM45 -187q-53 -318 33 -385q37 -28 86 24 t83.5 172.5t28.5 262.5q-10 215 -98 486q-105 -390 -133 -560zM200 455q83 128 113 227q14 45 20.5 80.5t7 54t-3 30t-6.5 15t-5 3.5q-10 0 -99 -302q-5 -25 -27 -108zM490 143q2 125 26 290q0 1 3 25.5t7 52t13 79t21 108t31.5 137.5t43.5 169q21 82 42 148.5t44.5 125.5 t46 98.5t47.5 66.5t49.5 29.5t51.5 -12.5q22 -14 36 -31.5t21.5 -34t9.5 -38.5t0.5 -39.5t-8 -44t-12.5 -45.5t-15 -49l-15 -50q-27 -99 -134.5 -344.5t-153.5 -321.5q-10 -49 -28.5 -130t-27.5 -124.5t-20.5 -106t-13 -99t1 -77.5t15 -68.5t34.5 -46.5q47 -40 143.5 117.5 t170.5 334.5l73 178l28 -6q-4 -3 -35.5 -79t-77 -177t-98 -199.5t-109 -157t-98.5 -40.5q-33 14 -57 53t-41 111.5t-15 197.5zM661 538q37 66 126 290t110 297q18 62 27 94t20 79t10 70t-13 25q-7 1 -29.5 -53t-54 -146t-66 -201.5t-69.5 -231t-61 -223.5z" />
</font>
</defs>
</svg>
