<?xml version="1.0" standalone="no"?>
<!DOCTYPE svg PUBLIC "-//W3C//DTD SVG 1.1//EN" "http://www.w3.org/Graphics/SVG/1.1/DTD/svg11.dtd" >
<svg xmlns="http://www.w3.org/2000/svg">
<metadata></metadata>
<defs>
<font id="v_agnes_duoregular" horiz-adv-x="583" >
<font-face units-per-em="2048" ascent="1536" descent="-512" />
<missing-glyph horiz-adv-x="500" />
<glyph horiz-adv-x="0" />
<glyph horiz-adv-x="682" />
<glyph horiz-adv-x="0" />
<glyph horiz-adv-x="0" />
<glyph unicode="&#xd;" />
<glyph unicode=" " />
<glyph unicode="," horiz-adv-x="423" d="M33 -176q-4 3 5 6q5 1 18 4q37 7 46 14q13 10 101 152q10 16 0 21t-25.5 8t-15.5 12q0 16 11 53.5t11 57.5q0 14 107 14q9 0 37.5 -24t40.5 -36q2 -2 -3 -28.5t-10.5 -53.5t-5.5 -28q0 -4 -48 -62t-58 -63q-6 -3 -33.5 -24t-50 -33.5t-58.5 -13t-69 23.5z" />
<glyph unicode="." horiz-adv-x="290" d="M47 121q0 3 1.5 6.5t5.5 18.5t9 36q7 32 8 31q1 0 2 -3q3 -11 9 -1t24.5 12.5t33.5 0.5l16 -3q4 -3 11 -8t21 -15.5t21 -18.5t2 -9q-6 -2 3 -27t21.5 -51.5t12.5 -28.5q0 -4 -11.5 -13t-19.5 -13q-6 -3 -6 -29q0 -2 -20 -2t-48 1t-32 1q-8 0 -11.5 3.5t-5 10.5t-2.5 9 q-1 3 -6 9.5t-8.5 12.5t-3.5 10t-5 13.5t-11.5 21.5t-8.5 17t-2 8z" />
<glyph unicode="0" horiz-adv-x="827" d="M6 344q-6 108 0 213q6 84 41 158q6 13 41 80q30 45 37 53q47 59 98 113q9 12 49 43q9 7 29 19t29 19q26 20 55 5q8 -4 29 -14t31.5 -15.5t29 -15t30.5 -17.5t27 -19t27 -22q6 -5 18.5 -12t16.5 -10q27 -19 37 -58q6 -23 -4 -37t-35 -14q-14 0 -38.5 3.5t-33.5 4.5 t-24.5 4t-18.5 4q-49 -52 -61 -86q-9 -30 -15 -45q-2 -6 -11 -16t-11 -16q-49 -112 -57 -207q0 -16 -9 -43q-24 -92 -18 -185q4 -34 8 -53q31 -14 70 -2q101 30 151 103q15 21 72 100q20 29 29 63q18 87 30 115q6 16 0 35q-2 5 -5 20.5t-8.5 25t-16.5 13.5q-7 5 -11 13 q-13 31 -6 45q2 5 5.5 7.5t8.5 3.5t8 1.5t10 0t9 -0.5q4 0 13.5 -1t13.5 -1q18 0 31 -19q5 -10 16 -30.5t16 -30.5q20 -37 9 -78q-16 -53 -19 -131q0 -9 -10 -29q-14 -21 -37.5 -61t-30.5 -51q-9 -15 -16 -39q-14 -64 -76 -113q-58 -45 -102 -86q-31 -23 -64 -20q-6 1 -19 2 t-18 2q-95 11 -139 55q-17 17 -43 27q-47 28 -94 69q-67 57 -74 158z" />
<glyph unicode="1" horiz-adv-x="481" d="M4 192.5q-2 43.5 4 87t12.5 92.5t6.5 68q0 9 -1.5 38t-0.5 44q0 26 4 76q0 6 2 20t2 21q1 26 6 158q0 20 -2 32q-12 83 4 127q3 6 0 13q-2 24 16 65q21 3 54 10q28 6 53 9q35 6 55 -19q2 -2 8.5 -11t8.5 -12.5t4.5 -11t1.5 -14t-6 -14.5q36 -27 55 -94q16 -56 26 -134 q3 -19 9 -41q29 -83 26 -178q-1 -29 -1 -88.5t-1 -89.5q0 -7 -37 -91t-37 -91q-5 -44 -49 -70q-5 -3 -27 -14.5t-34 -18.5l-6 -18q-4 -19 -18 -24t-29 6q-5 4 -27 26q-8 10 -30.5 38t-35.5 42q-14 18 -16 61.5z" />
<glyph unicode="2" horiz-adv-x="653" d="M-55 145q-2 11 33 103.5t36 99.5q36 189 148 324q45 53 90 125q16 24 45 84q9 20 0 49q-97 0 -150 -64q-4 -6 -12 -14q-17 -17 -10 -43q4 -15 8 -53q1 -14 -6.5 -21t-20.5 -6q-7 1 -19 6t-15 6q-7 3 -20.5 10.5t-20.5 10.5q-1 1 -7 5.5t-8 8.5q-3 3 -18 23q0 54 43 104 q54 67 119 117q49 34 94 39q16 3 34.5 7t22.5 5t15.5 -2t21 -9.5t31.5 -23.5q26 -21 70 -51q15 -13 30 -35q70 -100 86 -233q10 -78 -26 -142q-54 -98 -95 -139q-4 -4 -11 -12t-11 -12q-24 -20 -100.5 -131t-81.5 -117q-8 -10 -25 -19q-22 -8 -39 -28q3 -5 17 -1l14 3 q13 0 29 4q9 2 41.5 10t53.5 14.5t40 14.5q17 6 57 10q24 0 57 -29q4 -3 9 -18q1 -9 2 -28.5t2 -28.5q-19 -16 -54 -27q-137 -36 -200 -64q-100 -44 -193 -12q-31 14 -43 31l-12 18q-37 76 -51 131z" />
<glyph unicode="3" horiz-adv-x="776" d="M-25 913q5 6 16.5 18.5t16.5 18.5q55 8 82 29q1 1 3 2t3 2q21 5 84 25.5t101 25.5q55 4 90 -6q45 -13 78 -52t34 -91q0 -48 -32 -103q-26 -35 -35 -49q1 -4 3.5 -6.5t4 -3t5.5 -1.5t5 -1q56 -4 82 -8q35 -3 53 -27q13 -15 38 -39.5t34 -34.5q73 -82 70 -198 q-3 -51 -25 -90q-35 -68 -55 -117q-32 -65 -78 -94q-18 -12 -64 -54q-2 0 -6 -4q-17 -9 -55.5 -32.5t-68 -38.5t-60.5 -23q-41 -14 -55 -24q-22 -17 -60 -17q-17 15 -32.5 35.5t-23.5 35.5t-22 42t-20 39q-10 19 -4 39q4 24 4 36q0 34 27 64l102 102q39 35 117 101 q53 49 86 90q17 21 26 47q-17 7 -36 0q-40 -10 -99 -6q-33 3 -51 -15q-1 -1 -4 -3t-4 -3q-30 -17 -47 13q-5 5 -8 14q-20 50 -27 59q-2 4 -2 13q-2 19 -14 51q-18 48 22 82q43 37 117 123q1 1 8 14q-7 -2 -39.5 -9t-45 -10t-36.5 -10t-42 -15t-36 -18v-22q-3 -19 -11.5 -25 t-27.5 -2l-18 6q-50 80 -53 86t-8 20t-7 19z" />
<glyph unicode="4" horiz-adv-x="673" d="M0 668q-9 42 14 82q13 25 55.5 116.5t73.5 137.5q18 25 15 51q0 13 16 26q40 32 78 15q4 -2 17 -7t22 -9.5t16 -10.5q19 -19 19 -35q0 -6 2 -18.5t2 -18.5q3 -35 -27 -47q-9 -4 -31 -8q-49 -96 -71 -131q-11 -20 -66 -104q-5 -10 -10 -25q2 -4 5 -6t5 -2.5t6.5 0t5.5 0.5 q95 17 166 43q1 7 6.5 38t7.5 41t8 36t11 40t14 34t19 36q14 8 39 4q10 -2 30.5 -6t30.5 -6q59 -8 99 -68q29 -43 8 -86q-21 -44 -29 -151q-5 -120 -8 -135q-3 -23 -5 -47.5t-2 -52v-46t1.5 -51.5t1.5 -47q0 -34 -6 -72q-7 -21 -4 -41q6 -31 6 -123q-13 -15 -19.5 -19 t-29.5 -13q-42 16 -56 22q-7 2 -25 10.5t-28 10.5q-9 2 -17.5 4.5t-17.5 6.5t-15 7t-16 9.5t-14 9t-15.5 10.5t-13.5 10q-42 28 -36 78q1 13 2.5 83t7.5 107q8 47 28 137q1 5 11 76q-5 -1 -14 -3.5t-13 -2.5q-50 -15 -129 -22q-14 -2 -57 8q-24 3 -37 26q-28 49 -37 99z" />
<glyph unicode="5" horiz-adv-x="663" d="M-10 174q11 52 12 53q26 61 84 107q49 39 113 96q41 35 99 111.5t83 126.5q2 5 8 14t8 14q23 43 -6 82q-53 -9 -102 -18q-22 -4 -27 -19q-2 -2 -6 -10q-17 -13 -35 -4q-2 1 -5 3t-5 3q-67 78 -72 146q-3 17 0 34q12 35 2 60q-6 11 9 22q3 1 7 4t7.5 4.5t7.5 2.5 q138 32 156 36q58 9 110 15q13 1 36.5 3t35.5 3q68 3 92 -49q16 -32 -18 -41q-50 -8 -74 -8q-59 0 -143 -25q-20 -7 -58.5 -18.5t-52.5 -16.5q-14 -4 -12 -22q24 4 30 4q112 15 175 -27q2 -1 6 -3.5t7 -4.5t5 -4q57 -60 73 -92q7 -12 11 -25q5 -13 18.5 -38.5t18.5 -39.5 q8 -10 5 -44t-7.5 -58t-12.5 -59.5t-10 -47.5q-12 -76 -28 -114q0 -2 -1.5 -4.5t-1.5 -3.5q-11 -19 -19 -38.5t-18 -53.5t-12 -40q-9 -27 -43 -69q-18 -24 -39 -45q-54 -63 -122 -66l-93 -6q-18 -1 -46 11t-42 26q-10 10 -42.5 44t-51.5 52q-16 20 -14 37z" />
<glyph unicode="6" horiz-adv-x="731" d="M0 346q0 17 2 21q12 10 8 43q-6 93 37 219.5t103 212.5q10 16 30.5 45.5t30.5 44.5q31 44 106 96q9 3 28 11.5t27.5 10.5t30.5 -1q4 -2 16.5 -0.5t16.5 0.5q56 -4 88 -19q14 -5 41.5 -14.5t40.5 -14.5q20 -7 49 -22q22 -13 32.5 -41t4.5 -53q-6 -36 -39 -29q-14 2 -37 10 q-22 4 -38 -4q-31 -14 -39.5 -20.5t-28.5 -32.5q-1 -2 -17 -21t-22 -30q-21 -33 -25 -53q-5 -16 -39 -96.5t-40 -106.5h73q107 -3 154 -96q40 -79 2 -138q-64 -111 -125 -170q-14 -14 -22 -18q-21 -12 -37 -31q-16 -16 -29 -16q-20 -2 -45 -17q-36 -17 -72 2q-3 2 -7.5 6 t-6.5 5q-21 5 -53.5 24t-42.5 23q-7 4 -21.5 12t-21.5 12q-35 22 -58 64q-37 68 -55 182zM285 193q0 -36 12 -58q17 -2 36.5 2t30.5 8t34.5 15t29.5 14q4 8 22.5 49t26.5 62q4 10 17.5 39t19.5 45q7 23 -8.5 43t-38.5 18q-21 0 -57 -12q-18 -7 -15 -27v-16q0 -12 -8 -17.5 t-20 0.5q-3 1 -11 7t-15.5 8.5t-16.5 1.5l-7.5 -15t-7.5 -18q-2 -10 -7.5 -35.5t-8.5 -39.5t-5.5 -35t-2.5 -39z" />
<glyph unicode="7" horiz-adv-x="737" d="M-8 236q19 124 104 282q12 23 66 96q6 9 18.5 29.5t22.5 35.5t20 28q70 95 111 129q4 3 11 11t11 11q40 35 41 35q9 5 22.5 18.5t20.5 18.5q-20 1 -46 -10.5t-34 -12.5l-36 -6t-37 -6q-2 -2 -5.5 -6t-5.5 -6q-24 -30 -53 -15q-1 0 -20 13q-8 6 -32.5 40.5t-27.5 43.5 q-3 13 3 31.5t16 21.5q5 2 9.5 4t8.5 5.5t7 6t7.5 6.5t6.5 6.5l6 7.5t6 7q53 13 82 -29q17 2 47 7.5t45 7.5q52 10 94 10q15 1 32 1t38 -0.5t33 -0.5t16 -2q4 -3 22.5 -17.5t25.5 -20.5t17.5 -20t16.5 -28q23 -52 -23 -84q-19 -16 -30 -35q-6 -11 -32.5 -57t-42 -75.5 t-28.5 -60.5q-8 -20 -26 -57t-23 -47q-2 -5 -18 -38.5t-23 -51.5q-7 -15 -21.5 -45t-21.5 -45q-9 -17 -10 -23q-10 -40 -49 -104q-31 -60 -58 -119q-4 -12 -12 -33t-12 -33q-2 -4 -12 -45q-28 -17 -47 -14.5t-41 27.5q-59 66 -111 94l-8 8q-51 35 -41 105z" />
<glyph unicode="8" horiz-adv-x="669" d="M7.5 341.5q-1.5 29.5 0.5 44.5t8 54q4 13 13 19q4 4 9 8t11.5 8.5t9.5 7.5q6 5 18.5 15.5t22.5 19.5t17 17q12 14 25.5 25.5t34.5 27.5t28 22q5 3 14 10.5t12 10.5l-18 18q-35 28 -47 76q-11 57 -8 125q3 79 53.5 135t122.5 74q27 5 33 4q94 -18 120 -29q47 -17 70 -47 q34 -37 41 -98q2 -37 2 -111q-4 -29 -10 -41q-6 -13 -17.5 -41t-22 -50t-22.5 -40q-18 -35 4 -71q20 -27 23 -56q30 -27 33.5 -36.5t-6.5 -45.5q-10 -29 -7 -57q4 -57 -10 -90q-7 -18 -47 -105q-8 -16 -8 -22q-5 -70 -90 -103q-20 -8 -53 -4q-81 11 -119 45q-53 39 -88 54 q-31 12 -74 45q-43 32 -55 86q-3 19 -13 43q-9 23 -10.5 52.5zM233 791q-6 -24 15 -41q2 -2 18.5 -16.5t23 -19.5t20.5 -12.5t28 -11.5q58 35 70 41q31 14 57 57q10 20 12 23q32 47 10 123q-13 38 -47 43q-30 7 -53 10q-49 6 -80 -33q-7 -9 -22.5 -26.5t-22.5 -26.5 q-1 -2 -6 -7.5t-6 -8.5q-15 -76 -17 -94zM244 252q9 -15 24 -33q28 11 29 12q60 45 102 101q17 23 23 49q10 42 -14 104q-10 -9 -33.5 -28t-40 -34t-29.5 -32q-11 -13 -30.5 -42t-30.5 -42q-23 -26 0 -55z" />
<glyph unicode="9" horiz-adv-x="741" d="M14 762q27 81 80 153q50 62 111 91q53 27 104 41q28 6 58 -3q68 -29 112 -57t76 -72q7 -7 16 -10q29 -14 76 -55q43 -40 17 -90q-15 -34 -25 -82q-6 -32 -37 -123q-20 -61 -39 -90l-2 -4q-3 -16 -9.5 -34.5t-13 -31.5t-17 -33t-15.5 -30q-52 -98 -80 -135 q-62 -78 -66 -84q-10 -13 -69 -109q-8 -17 -23 -35q-2 -2 -18 -10q-114 109 -131 127q-42 45 -44.5 59.5t19.5 67.5q43 111 103 199q3 5 8.5 16t9.5 18q-2 1 -5 4t-5.5 5t-5.5 2q-40 9 -82 55q-9 12 -30 34t-26 27q-12 12 -14 15q-63 69 -33 174zM154 588q2 0 7 -3t9 -3 q69 0 106 26q6 4 18.5 13.5t23 17t20.5 12.5q34 16 57 58q21 44 64 90q16 20 16 32q-113 49 -199 -40q-9 -9 -26.5 -30t-26.5 -30q-35 -35 -63 -100q-12 -24 -6 -43z" />
<glyph unicode="A" horiz-adv-x="921" d="M-84 633q0 28 23 31h18q17 0 48 1t48 1q18 0 23 22q0 6 2 10q4 37 13.5 77t24 89t21.5 76q2 6 25 64q67 147 76 165q9 20 45 72q4 8 8 8q7 1 9.5 0t8.5 3t8 5.5t7.5 6.5t7.5 6q67 47 143 47q48 0 100 -19q20 -6 37 -26q13 -13 58 -53q26 -26 30 -31q28 -38 28 -75 q0 -8 -1 -17v-10q0 -26 8 -60q6 -21 6 -45q6 -103 9 -203q0 -14 -5 -76q-2 -46 -2 -86q0 -80 9 -139q4 -28 5.5 -91t6.5 -95q3 -15 0 -31q-5 -16 -3 -48.5t3.5 -47.5t6.5 -47t7 -47q2 -14 2 -28q0 -52 -37 -87q-14 -14 -32 -2q-34 24 -39 65q-4 23 -4 66v276q0 109 -2 164 q0 8 -2 24t-2 23q-28 17 -55 17q-18 0 -36 -8q-17 -8 -47 -8q-19 0 -43 3q-43 9 -90 15q-3 1 -10.5 -0.5t-9.5 -1.5q-6 -6 -6 -8q-16 -78 -27 -146v-14q2 -15 2.5 -29.5t-1 -32.5t-2.5 -27t-5 -31.5t-4.5 -26.5t-6.5 -30.5t-6 -27.5q-1 -7 -3 -20.5t-3 -20.5 q-4 -24 -3.5 -44t3.5 -36q6 -22 6 -45t-6 -45q-6 -21 -6 -42t6 -42q1 -3 2 -10.5t2 -11.5q-3 -2 -10 -7.5t-10 -5.5q-26 -3 -47 -24q-30 -23 -60 -23q-24 0 -36 -4q-5 -1 -10 -1q-6 -1 -13 1q-12 4 -26 10.5t-23 8.5l-6 6q-7 15 -24 33.5t-23 27.5q-23 36 -23 84 q0 25 -1.5 69.5t-1.5 81t3 68.5q3 24 5 52.5t4 62.5t3 53q1 16 17 166q-43 13 -60 8q-20 -6 -37.5 17t-17.5 51zM383 686q20 -8 31 -8q43 -9 76 -9q20 0 36 3q31 6 43.5 8t37.5 1t44 -7l6 12q-3 41 -7 124t-7 124q-5 70 -33 158q-4 23 -16 32q-47 33 -72 33 q-61 -68 -84 -135q-30 -93 -35 -129q-1 -12 -4 -30.5t-5 -34.5t-3 -31q0 -20 -8 -56q-3 -13 -3 -27t3 -28z" />
<glyph unicode="B" horiz-adv-x="1024" d="M0 621v178q0 21 4 67q15 269 21 320q2 16 2 34.5t-1 42t-1 37.5q1 1 5.5 5t6.5 6q13 24 32 24q8 0 17 -4q9 -3 51 -8q19 -3 37 -12q11 -5 32 -17t32 -18q24 8 36 14q51 20 99 20q23 0 45 -5q7 -2 22 -2.5t21 -2.5q6 -3 12.5 -8t13.5 -12t11 -10l10.5 -7l12 -8t9.5 -9 t9 -13q4 -10 26 -23q15 -59 17 -69q7 -30 7 -59q0 -53 -24 -105q-31 -64 -67 -117q-3 -3 -6 -20q4 0 8.5 -0.5t7.5 -0.5t6 1q15 6 39 6t57 -6q93 -21 133 -45q4 -4 9 -4q4 -1 8.5 -3.5t7.5 -4.5t7 -6t6.5 -6t6.5 -7t5.5 -7t5.5 -8.5t5 -8t5.5 -9t5.5 -8.5q41 -61 64 -150 q14 -57 15 -125q0 -12 -1 -24q-2 -6 -2 -16q-40 -123 -76 -170q-15 -19 -39 -56.5t-33 -50.5q-92 -119 -151 -166q-6 -4 -13.5 -10.5t-16 -14.5t-13.5 -12q-39 -32 -82 -37q-63 -7 -107 -32q-16 -8 -29 -8q-20 0 -34 18q-10 12 -35 20q-19 4 -24 13t-5 37v16q-3 1 -8 3t-8 3 q-16 3 -32 10t-36 18.5t-32 16.5q-48 18 -66 84q-21 69 -26 121q-1 13 -6 68.5t-6.5 78.5t-3.5 65q-1 28 -1 53v24q0 22 -3.5 64.5t-4.5 56.5zM291 1155q9 -83 18 -162q3 -30 11.5 -88t11.5 -80q11 13 46 54.5t54 62.5q18 23 25 33q24 34 49 94q5 14 5 27q0 22 -17 37 q-30 30 -50 30q-3 -1 -12 8q-13 11 -37 15q-7 2 -15.5 2h-14t-14.5 -2.5t-12.5 -4t-14 -5.5t-13.5 -5t-10.5 -7.5t-9.5 -8.5zM338 612q4 -20 4 -26q-2 -22 -2 -66.5t2 -111.5q0 -14 -1 -40t-1 -40v-84q0 -62 2 -76q2 2 5 -25q1 -19 4 -68l3 -42q4 5 16 -16q5 -8 16 -29 q24 -45 30 -45q1 0 20.5 7t27 12t25.5 18.5t35.5 37t38.5 58.5q40 25 85.5 113t73.5 197q21 81 22 142q0 22 -3 41q8 15 8 33v7q-2 23 -16 38q-11 14 -18 19q-65 43 -109 45q-2 0 -26 6q-10 0 -30 1t-30 1q-44 -3 -84 -12q-15 -3 -57 -17q-41 -19 -41 -71v-7z" />
<glyph unicode="C" horiz-adv-x="933" d="M12 406q-7 67 -7 135q0 122 24 243q13 75 61 207q41 116 82 193q26 51 45 80q41 62 105 65q4 0 19 3q13 3 23 3q2 -1 3 -1q11 0 22 -5q3 -2 66 -18q1 -1 4 -2t4 -2q48 -3 96 -54q25 -25 29 -32q17 -36 47 -86q12 -21 12 -48q0 -33 19 -69q6 -12 20 -68q7 -35 -10 -59 q-15 -23 -25 -35q-14 26 -65 150q-48 118 -81 133q-6 3 -12 3q-31 0 -63 -71h-16q-11 -67 -11 -70v-6q-45 -143 -55 -324q-4 -72 -4 -140q0 -104 9 -198q16 -157 50 -304q11 -46 33 -64q10 -21 21 -30.5t28.5 -6t40.5 24.5q148 132 201 301q16 -13 46 -8t36 -8v-5 q3 -13 3 -26q0 -32 -17 -68q0 -2 -4 -10q-22 -29 -60 -94.5t-59 -93.5q-2 -4 -7.5 -11.5t-7.5 -11.5q-48 -70 -127 -76q-11 -1 -30 -4q-19 -2 -31 -4q-7 -1 -16 -1h-13q-16 1 -30 5q-9 -1 -20 -1q-56 0 -138 40q-5 2 -19 10.5t-22 10.5q-49 18 -100 79q-19 23 -25 48 q-4 20 -19.5 90t-22.5 102.5t-16.5 87.5t-15.5 101z" />
<glyph unicode="D" horiz-adv-x="991" d="M0 500q1 26 5 77t5 76v133q1 18 2 52t2 51q2 27 6.5 92.5t6.5 101.5q2 29 10 97q2 37 10 102q1 4 2 12.5t2 12.5q22 11 35 11q7 0 12 -3q6 -3 13 0q12 3 25 3q45 0 97 -34q24 -15 50 -61q17 -38 20 -49q3 3 7.5 6.5t6.5 5.5q26 33 70 49q7 2 24.5 8.5t24 8.5t24 7t25 4 t25.5 -1q48 -6 94 -27q88 -37 129 -70q49 -37 55 -110q6 -75 9 -154q1 -6 2 -17t2 -16q3 -26 3 -57q0 -49 -7 -111q-4 -37 -11.5 -75.5t-19 -86.5t-16.5 -73q-1 -2 -2.5 -6t-2.5 -6q-4 -9 -30 -66.5t-43 -85.5q-12 -21 -37 -56.5t-35 -51.5q-10 -12 -33 -35 q-13 -13 -47.5 -49.5t-54.5 -55.5q-19 -13 -25 -39q-10 -34 -34 -34q-22 0 -39 -14t-39 -42q-4 -5 -10 -11t-13 -12.5t-10 -9.5q-15 -12 -29 -26q-19 -20 -30.5 -21.5t-30.5 15.5l-8 4q-16 -3 -33 -10q-24 -10 -33 -15q-12 10 -33.5 29.5t-23.5 21.5q-31 27 -41 86 q-22 106 -27 175q0 10 -2 63q-2 44 -3 59l3 70q1 11 -0.5 35.5t-1.5 32.5t-2 40q-1 19 0 33v17zM322 104q-2 -6 -1 -16q0 -15 3 -37q6 5 13.5 13.5t8.5 9.5q24 24 27 26q22 12 57 56q22 29 41 51q72 77 123 209q44 109 82 305q16 92 16 223q0 44 -2 92q0 1 -6 43 q-6 39 -31 51q-5 2 -38.5 18t-51.5 23q-23 8 -40 8q-7 0 -13 -1q-52 -11 -109 -48q-6 -5 -12 -10.5t-12 -12.5t-10 -12t-9.5 -15t-8 -14t-9 -15.5t-8.5 -14.5q0 -22 1 -64.5t1 -62.5q1 -17 2.5 -48t2.5 -56t1 -47q2 -66 2 -197q0 -14 2 -59q1 -27 0 -47v-23 q-2 -29 -2.5 -84.5t-1.5 -73.5q0 -99 -18 -170z" />
<glyph unicode="E" horiz-adv-x="745" d="M1 424q1 28 1.5 42.5t3.5 51t4 43.5q7 121 7 181q0 20 -1 34q-1 11 -1 25q0 29 3 73v25q0 81 9 107q5 13 6 39t2 34q2 16 7 45.5t7 44.5q1 5 -0.5 13.5t-1.5 11.5q0 12 2 12q9 8 13 18.5t6.5 28t3.5 23.5q29 29 57 31q24 0 43 8q11 3 23 3q18 0 36 -7q79 -25 113 -86 q9 -19 25 -25q12 -3 32.5 -10.5t36.5 -12t31 -6.5q30 -6 80 -38q13 -7 18 -29t-2 -37q-2 -5 -14 -29q-24 -3 -45 -6q-8 0 -12 2q-11 9 -36 15.5t-34 11.5q-4 2 -18.5 6t-22.5 10q-5 5 -37 10q-10 -15 -10 -16q-19 -111 -19 -215q0 -25 9 -117h9q32 0 48.5 1t40.5 7t43 19 q18 -12 33 -18q36 -19 39 -60q-12 -51 -66 -57q-30 -4 -43 -8q-22 -7 -35 -15q-17 -5 -43 -16v-35q-2 -15 -2 -33q0 -25 4 -55q19 -116 25 -217q1 -18 -1.5 -58t-0.5 -61q0 -6 -3.5 -18t-4.5 -15q-10 -34 -9 -64q0 -23 5 -42q25 -9 59 10q13 6 34.5 19t30.5 18q31 19 37 43 q7 1 21.5 3t21.5 3q40 4 56 -8q34 -22 41 -53q5 -15 6 -17q-16 -55 -84 -82q-24 -10 -66 -43q-4 -3 -12.5 -10t-15 -11.5t-13.5 -6.5q-5 -1 -9.5 -4.5t-9 -9.5t-5.5 -7q-70 4 -101 4q-25 0 -47 11q-31 16 -84 38q-62 28 -116 113q-41 68 -48 100q-2 8 -30 89 q-7 19 -11.5 41.5t-7.5 51t-6 42.5q-2 24 -4 46q-1 14 -1 29v21z" />
<glyph unicode="F" horiz-adv-x="757" d="M-8 1237q4 20 12 26t25 3q17 -2 45 2q119 26 254 32q12 0 141 11q7 1 15 1q18 0 44 -5q27 -6 101 -29q31 -9 55 -33q7 -8 21 -20.5t18 -16.5q1 -4 1 -8q0 -11 -11 -16q-29 -11 -57 -11q-26 0 -52 9q-28 8 -41 6q-13 -1 -38 -4t-38 -4q-11 0 -40.5 -4t-45.5 -2 q-4 1 -14 -1t-14 -2q2 -15 16 -34q11 -16 14 -39q1 -9 7.5 -37.5t7.5 -44.5q3 -22 7 -68t7 -69q3 -21 3.5 -61.5t2.5 -57.5q5 -26 11 -31q2 -2 12 -2q12 2 29 2q33 0 88 -8q30 -3 53 -29q4 -5 15.5 -13.5t15.5 -12.5q11 -12 8.5 -28t-17.5 -22q-25 -13 -47 -2q-4 1 -18 7.5 t-21 7.5q-13 4 -27 4q-28 0 -59 -15q-16 -6 -16 -28v-66q2 -21 2 -43q0 -40 -6 -84q-1 -16 -5 -46.5t-5 -45.5q-1 -6 -4 -32.5t-7 -41.5q-3 -10 0 -20q3 -14 0 -29q-3 -10 0 -20q3 -21 3 -45q0 -63 -17 -152q-6 -21 -6 -45q-3 -25 -17 -39q-33 -36 -61 -43q-39 -11 -63 -12 h-6q-22 0 -54 6q-50 9 -72 66q-11 32 -16 59q-12 86 -14 131q-1 42 -5.5 127.5t-5.5 128.5v7q0 28 5 145q0 2 12 241q0 45 2 68q8 212 14 321v29q-39 -4 -51 -18q-22 -29 -53 -7q-28 18 -33 46q-11 35 -11 53q0 5 1 8z" />
<glyph unicode="G" horiz-adv-x="868" d="M10 348q-6 78 -6 167t6 187q0 4 4.5 23t3.5 31q0 7 11 51q55 180 96 254q2 2 2 4q12 36 68 100q24 30 49 66q9 11 26.5 34.5t26.5 34.5q4 5 29 25q6 4 11 4q3 0 5 -2q11 -7 31.5 -8t23.5 -2q9 -2 28.5 -9.5t25.5 -9.5q16 -8 24 -16q33 -33 53 -43q10 -3 17 -18 q11 -22 35 -58q8 -13 12 -33q4 -45 29 -126q6 -20 6 -39q0 -31 -17 -60q-10 -21 -26 -24t-31 12q-22 22 -26.5 32t-10.5 48q-1 6 -3 18.5t-3 18.5q-5 42 -33 77q-2 2 -8.5 10.5t-8.5 11t-8 9.5t-9.5 10.5t-9 8.5t-10.5 9t-11 7q-25 -16 -37 -45q-14 -29 -45 -115 q-9 -35 -9 -65q0 -12 1 -23q3 -31 0 -61q-5 -39 -5 -90q0 -3 -3 -38t-3 -52v-107q0 -3 1 -10.5t1 -11.5q-2 -25 -2 -63q0 -10 1 -20v-33q0 -31 -1 -52q0 -86 6 -127q2 -18 2 -54q0 -41 17 -137q9 -61 74 -96q12 -7 30 10q47 59 60 84q35 66 65 195q6 30 6 61q7 57 27 88 q2 0 2 10q-10 5 -15.5 4.5t-15 -5t-14.5 -5.5q-20 -2 -35 -37q-10 -1 -21.5 0.5t-24 3.5t-19.5 3q-12 4 -19 14q-8 8 -28 33q-17 20 -17 43q0 13 6 28q2 2 6 2q13 -2 28 -2q38 0 87 13t86 16q19 2 60 -6q2 0 10 -4q12 0 23.5 -6.5t17.5 -12t19 -20.5t16 -19q10 -12 10 -26 q0 -9 -4 -19q-14 -27 -21 -30q-14 -6 -18 -39q-7 -52 -7 -90q0 -25 3 -43q1 -4 1 -9.5t-0.5 -12.5t-0.5 -11q-1 -23 -4 -70t-4 -71q-4 -35 0 -50q3 -9 3 -20t-1 -18.5t-3.5 -20.5t-3.5 -18q-3 -22 -16.5 -30t-26.5 3q-18 15 -30 35q-25 36 -25 65q0 8 -4 17q-3 8 -4 12 q-9 -14 -10 -16q-5 -15 -13 -31.5t-13.5 -25t-18.5 -27.5t-17 -25q-3 -5 -8 -8t-17 -10t-19 -10.5t-17.5 -8t-20 -6t-18.5 -0.5q-8 0 -10 -2q-16 -4 -33 -4q-46 0 -100 26q-46 17 -74 39q-87 70 -146 222q-34 88 -49 237z" />
<glyph unicode="H" horiz-adv-x="954" d="M0 946q1 21 5.5 79.5t4.5 90.5q1 29 9.5 84t9.5 82q3 19 16 29q5 4 11 6q4 1 8 3q3 1 7 2h3q6 0 9 -0.5t11 -2.5t9 -2.5t10 -4t10 -3.5q3 -1 22 -15q46 -27 58 -104q3 -24 10 -57q2 -10 5 -32t5 -32q2 -13 7.5 -41t7.5 -41q1 -7 6 -63.5t6 -85.5q4 -68 16 -113 q4 -16 7.5 -25.5t4.5 -12t3 -11t6 -27.5t16 -77.5t19 -90.5q0 -3 18 -82q3 -13 8 -20q2 -2 6 -23q23 48 47 77.5t42.5 40t42 30t42.5 47.5q6 8 19 21.5t16 17.5q34 42 64 59q5 3 20.5 12t27 14t23.5 7q5 0 9 4q6 10 6 45q0 44 -1 132t-1 132q0 27 1 83t1 83q1 8 3 24.5 t3 24.5q3 21 14 30t25 1q14 -10 22 -27q17 -34 17 -64v-9q0 -95 -4 -142q-7 -65 -7 -120q0 -27 2 -52v-6q4 -15 4.5 -30.5t-0.5 -37.5t-1 -30q0 -47 -3 -94q0 -45 13 -156q0 -6 1 -17.5t1 -17.5q-3 -39 -3 -60q0 -13 1 -20q1 -15 -0.5 -42.5t-1.5 -36.5q-2 -44 -2 -88t2 -89 q0 -7 1 -19.5t1 -22.5t-2 -19q-1 -10 2.5 -31.5t1.5 -34.5q-1 -4 4 -38q0 -3 2 -9.5t2 -9.5q1 -8 1 -15q0 -21 -9 -32q-12 -12 -33 -2q-9 5 -27.5 15.5t-27.5 15.5q-11 6 -13 8q-2 4 -14.5 23.5t-17.5 31.5q-14 32 -14 62q0 8 1 16q2 21 5.5 61t5.5 58q10 140 10 170v13 q0 29 4 116q0 65 -6 88q-3 -2 -9.5 -6.5t-10.5 -8.5t-7 -8q-48 -90 -78 -131.5t-125 -148.5q-6 -7 -28 -25q-22 -15 -27 -41q1 -4 19.5 -86t21.5 -88q15 -40 17 -49q4 -13 4 -25q0 -29 -23 -49q-36 -34 -72 -34q-19 0 -39 10q-9 5 -25.5 13t-29.5 16t-24 18q-23 23 -86 39 q-42 11 -66 41t-33 73q-26 96 -30 256q0 74 -13 260q-13 165 -13 298q0 39 1 75z" />
<glyph unicode="I" horiz-adv-x="499" d="M10 567q1 33 3 97.5t3 97.5q1 24 4.5 73t4.5 74q0 56 4 162q1 35 3 105.5t3 105.5q30 41 86 49h4q12 0 43 -4q18 -4 47 -41q13 -18 29 -57q18 -41 18 -80q0 -15 4 -35q4 -12 4 -20q0 -25 9 -113q5 -45 7 -53q4 -8 0 -19v-15q0 -23 5 -50q15 -136 16 -170 q2 -43 9.5 -122.5t9.5 -98.5q1 -20 4 -62.5t4 -64.5v-23q-4 -128 -10 -190q0 -4 -4 -39.5t-3 -55.5q2 -27 2 -75q3 -23 -6 -41q-19 -42 -39 -62q-15 -15 -35 -15q-6 0 -12 1q-17 3 -32 12q-25 11 -71 41.5t-67 40.5q-11 26 -16 43q-15 44 -18 94q-3 95 -3 191q0 77 -6 151 q-4 37 -4 168z" />
<glyph unicode="J" horiz-adv-x="798" d="M14 176q-1 13 -1 27q0 43 12 92q5 19 22 22q22 3 47.5 -15t32.5 -44q3 -17 0 -31q-6 -23 2 -63q6 -64 59 -156q1 -1 3.5 -3t3.5 -3q55 -59 86 -84q5 4 26 25q23 23 23 59v8q-1 28 -2 84t-2 84q-2 25 -5.5 76.5t-5.5 77.5q-8 128 -8 483q-1 13 -1 33.5t1 47.5t1 47.5 t-1 33.5q-1 21 -1 49q0 56 3 137q0 21 -2 37q-19 0 -51 4q-20 0 -33 -18q-11 -17 -29 -12.5t-26 26.5q-10 23 -10 49q0 20 6 41q7 22 26 19q21 -4 45 -4q30 0 64 6q15 3 31.5 5t37 4t31.5 3q10 1 31 3t31 3h9l89 -47q9 -9 12 -22q13 -75 52 -197q6 -24 6 -49q0 -89 10 -150 q1 -5 1 -12q0 -14 -3 -33q-1 -21 -1 -41q0 -32 3 -61q1 -16 1 -31q0 -34 -5 -61q-6 -33 -6 -97q-5 -57 -11 -73q0 -9 -2 -13q-15 -98 -20 -116q-1 -31 -13 -95t-12 -98q0 -23 -10 -43q-12 -26 -33 -96q-5 -27 -24 -62q-3 -6 -10.5 -18t-10.5 -18q-18 -44 -55 -50 q-68 -14 -121 -14q-16 0 -22 -2q-17 -5 -34 -5q-56 0 -108 50q-55 49 -92 125q-27 56 -33 119q-4 36 -4 57z" />
<glyph unicode="K" horiz-adv-x="1032" d="M2 629v92q0 80 4 121q3 25 8 143q1 14 4.5 70t6.5 86q6 66 18 131q4 24 13 32.5t28 6.5q6 0 18.5 -1t18.5 -1q4 1 8 1q27 0 57 -30q3 -4 26 -30t32 -42q26 -41 32 -94q1 -15 1.5 -45t1.5 -45q0 -27 2 -41v-162q0 -76 12 -125q6 -25 6 -49q0 -13 -2 -26q-2 -20 -2.5 -56.5 t-1.5 -48.5q7 -5 9 5q1 2 1 3q13 30 36.5 93t35.5 94q6 14 80 207q5 15 12.5 31.5t13.5 27.5t16 28.5t15 26.5q4 10 13.5 30t13.5 30q13 27 37 82t36 83q12 36 50 52q12 7 29 7q11 0 24 -3q22 -3 18 -39q-3 -27 -16 -43q-37 -42 -70 -131q-28 -93 -67 -166q-21 -40 -39 -84 q-15 -31 -27 -47q-17 -25 -20 -70q13 3 42.5 11t45.5 10q49 6 77 6h13q33 0 53 -29q4 -4 25 -27.5t32 -37.5q19 -22 39 -84q11 -33 21 -80q9 -34 16.5 -73t16.5 -87.5t14 -75.5q0 -1 1 -4t1 -4q0 -15 0.5 -30.5t3 -32t4.5 -28t6.5 -30t6.5 -27t8 -30t8 -27.5q15 -57 24 -121 q2 -18 -2 -55q28 -9 39 -14q7 -3 12 -16q4 -9 4 -18q0 -4 -1 -7q-2 -13 -9.5 -20.5t-17.5 -4.5q-9 1 -13.5 0.5t-13 -3t-12.5 -3.5q-24 -6 -41 -6t-27 6q-71 41 -102 64q-57 38 -78 125q-17 72 -22 106q-5 36 -16.5 106.5t-16.5 106.5q-20 155 -23 190q-3 30 -16 43 q-13 18 -23 25q-38 33 -73 59q-27 -18 -43 -26q-34 -19 -51 -78q-7 -25 -19.5 -74t-19.5 -73t-21.5 -75t-21.5 -75q-3 -12 -14.5 -47t-16.5 -55q-18 -76 -18 -134q0 -13 1 -26q1 -10 1 -22t-0.5 -27t-0.5 -23q-4 -8 -8 -10q-56 -27 -86 -27h-4q-30 4 -51 9q-3 0 -21 6 q-53 15 -71 116q-6 40 -6 41q-17 68 -21 174q-7 164 -7 329q0 55 1 110z" />
<glyph unicode="L" horiz-adv-x="757" d="M0 248v28q0 102 12 244q11 100 13 170q5 177 43 387q10 51 14 156q0 10 -2.5 32t-3.5 33q8 1 27.5 5t29.5 4h20q65 0 123 -17q12 -4 52 -24q41 -25 43 -62q0 -17 10 -30q5 -7 8.5 -15t6.5 -14.5t5.5 -16.5t4 -15.5t3.5 -17t2.5 -15.5t2.5 -17t2 -16q7 -50 7 -119 q0 -58 -5 -129q-2 -26 -2 -57q0 -43 4 -95q2 -14 2 -35.5t-2 -50.5q0 -19 -4 -47q-3 -42 -15 -86q-2 -8 -6 -31.5t-8 -34.5q-22 -71 -22 -137q0 -13 -4 -37t-5 -34q-1 -7 -1 -21.5t-1 -21.5q-1 -11 -4 -34t-4 -34q-5 -19 -4 -23t23 -90q0 -4 8 -12q38 0 78 31q37 37 55 57 q33 42 53 55.5t72 28.5q32 -13 49 -49q-3 -4 -8 -13.5t-8 -13.5q-21 -21 -23 -34q-3 -7 -12 -17q-48 -48 -62 -59q-10 -8 -39 -29q-6 -4 -19.5 -11t-23.5 -14t-16 -18q-4 -4 -6 -4q-7 -1 -25 -4q-15 -3 -23 -3q-1 1 -2 1q-7 0 -26 4q-8 2 -23.5 6t-23.5 6q-30 13 -47 15 q-95 15 -189 116q-7 7 -10 13q-1 3 -9 23t-15 28q-6 8 -21 18t-20 15q-18 24 -21 61q-1 19 -4 59.5t-4 61.5z" />
<glyph unicode="M" horiz-adv-x="1124" d="M0 805q3 50 10 150.5t10 150.5q2 54 13 129q1 9 -0.5 27t-1.5 26q1 2 8 10.5t10 14.5q11 21 25 21q7 0 16 -5q4 -4 8 -4q51 0 103 -70q11 -13 24 -10h7q44 0 61 -69q2 -10 5 -21.5t7 -25t6 -21.5q3 -10 8.5 -27t9 -30.5t5.5 -26.5q26 -124 63 -217q23 -51 29 -86 q6 -34 37 -98q25 32 51 96q12 30 36.5 89.5t37.5 88.5q0 1 3.5 9.5t4.5 13.5q17 69 66 151q27 49 40 94q17 59 55 59q5 0 9 -1q16 -4 27 -2q22 1 40 -13.5t39 -42.5q26 -40 26 -79q0 -6 -1 -13q-3 -16 -3.5 -32.5t0.5 -38.5t1 -31v-115q2 -43 10 -129q2 -23 2 -65 q0 -89 17 -205q0 -1 1 -5t1 -6q-1 -12 -1 -28q0 -25 2 -60t2 -61q0 -17 -1 -29t-1 -28q0 -32 3 -78v-127q0 -21 -2 -31q-4 -23 -4 -65q1 -16 1 -32q0 -26 -3 -48q-3 -46 -35 -49q-4 -1 -7 -1q-16 0 -34 11q-19 13 -56.5 34t-52.5 31q-49 33 -69 78q-15 43 -15 70 q-1 33 -4 93t-5 108.5t-3 91.5q0 71 4 219q0 97 6 211q-11 -15 -18 -37q-71 -161 -86 -191q-25 -50 -60 -50q-8 0 -16 3q-50 14 -84 86q-28 58 -49 119q-66 205 -76 232q-4 11 -10 34t-10 35q0 6 -9 27v-25q5 -230 5 -276q0 -60 8 -178q1 -9 2 -27.5t2 -26.5q3 -35 6 -126 t10 -140q2 -16 3 -35.5t1.5 -42.5t1.5 -35q4 -50 4 -75q3 -33 15 -56q10 -23 10 -42q0 -31 -25 -54q-20 -17 -41 -17q-16 0 -32 9q-16 8 -44 26t-36 23q-5 2 -15.5 5t-15.5 5q-61 15 -82 109q-8 39 -8 84q4 184 4 272q0 47 -2 72q-6 113 -6 218q0 64 2 124z" />
<glyph unicode="N" horiz-adv-x="858" d="M-2 369q2 6 2 20q6 236 6 238q13 178 25 250q3 19 24 192q3 29 23 154q1 8 5 22.5t5 22.5q8 43 43 43q47 0 68 -11q10 -4 30 -8q35 -9 57 -45.5t27 -89.5q3 -49 19 -82q4 -8 8 -24q3 -22 35 -174q12 -51 28 -164q2 -12 8 -36t7 -38q1 -15 8.5 -37t9.5 -31 q4 -16 11.5 -49.5t11.5 -50.5q0 -3 1 -10t1 -10q7 -26 20.5 -81t20.5 -81q35 -141 61 -213q6 -25 25 -47q1 4 3.5 12.5t2.5 11.5q2 16 5 47t5 47v58q0 45 8 61q9 16 9 45q-6 62 -6 141q0 55 3 117q1 34 7.5 97t7.5 86q2 24 5 71t5 70q-6 6 -2 49t4 49q0 33 8 99q4 25 4 73 q0 28 19 41q31 17 51 -16q8 -16 8 -39q-1 -16 -0.5 -44.5t-0.5 -52t-5 -44.5q-3 -14 -8 -95q-2 -31 -4 -94t-4 -94q0 -12 -2 -40.5t-2.5 -44.5t1 -40t5.5 -43v-14q-1 -19 1 -51q1 -25 2 -44q0 -15 -1 -26q-2 -20 -2.5 -57.5t-1.5 -49.5q0 -12 -1 -24.5t-2.5 -28t-2.5 -24.5 v-80q-1 -20 -2.5 -57.5t-2.5 -57.5q0 -8 -1 -24t-1 -23v-8q0 -44 -20 -103q-9 -27 -35.5 -39t-48.5 0q-50 28 -66 88q-8 29 -30 80t-25 60q-27 72 -35 112q-30 131 -63 228q-31 98 -66 278q-15 83 -22 103q-4 -23 -5 -48t-0.5 -55.5t-0.5 -46.5q0 -39 -2 -57 q-1 -24 -11 -131q-5 -108 -8 -131q-4 -37 -4 -111q-2 -22 -2 -44.5t2 -45.5q4 -78 10 -115q2 -14 2 -28q0 -26 -6 -54q-10 -40 -24 -69q-3 -15 -19 -23q-19 -10 -33 -10q-9 0 -16 4q-10 3 -20 0q-3 -2 -7 -2q-7 0 -12 8q-10 10 -16 10q-13 3 -24.5 11t-21.5 22.5t-16 24.5 t-16 30q-19 47 -21 82q0 18 -10 105q-11 112 -11 196q0 28 1 52z" />
<glyph unicode="O" horiz-adv-x="862" d="M4 649q8 143 37 217q2 20 8 42t11.5 35.5t15.5 37.5t14 33q11 26 51 86q19 31 70 78q26 23 57 26q6 0 66 6h10q86 -12 127 -20q9 -2 26.5 -9.5t24.5 -9.5q20 -6 58 -14.5t43 -9.5q19 -3 41 -25q14 -11 19.5 -36t0.5 -50q0 -6 -6 -18q-22 -29 -49 -29q-7 0 -13 2 q-39 13 -57 21q-20 11 -62 9t-59 -15q-72 -55 -102 -127q-25 -58 -25 -119q0 -10 -1 -21.5t-2.5 -25t-2.5 -21.5q-2 -25 -2 -50q0 -50 8 -101q2 -17 4 -52.5t4 -52.5q1 -23 6.5 -67l6.5 -52q4 -28 4 -41v-8q0 -40 16 -125q11 -50 27 -110q7 -32 27 -35q2 0 4 2q9 11 29 35 t31.5 38.5t26.5 37t27 43.5q44 84 66 147q10 26 24.5 76t20.5 69q4 8 4 11q2 24 8.5 75.5t8.5 75.5q1 10 0 26q0 21 -1 52q-1 6 -6 41q-2 6 -8.5 32t-9.5 42q-6 32 -23 51q-22 19 -12 59q6 39 33 39q39 0 55 -6q24 -6 36 -38q7 -19 6 -39q0 -14 -3 -29q-6 -28 0 -56 q4 -30 12 -49q6 -19 2 -35q-2 -15 -2 -20t4.5 -19t5.5 -18q-8 -33 -10 -47q-7 -58 -28 -94q-17 -28 -17 -72q-3 -101 -28 -205q-14 -64 -60 -147q-46 -99 -57 -131q-17 -54 -53 -72q-4 -3 -13.5 -10t-13.5 -10q-32 -19 -62 -19q-10 0 -20 2q-16 4 -48.5 13.5t-49.5 13.5 q-73 19 -131 86q-82 94 -109 244q-3 16 -10 38q-17 89 -19 123q-13 157 -13 252q0 23 1 43z" />
<glyph unicode="P" horiz-adv-x="772" d="M2 1042q1 12 2.5 32.5t2.5 37.5t1 33v90q-1 9 -2 26.5t-2 26.5q0 17 8.5 28t20.5 11q4 1 8 1q19 0 43 -11q65 -34 70 -37q26 -19 34 -51q4 -14 12.5 -40.5t12.5 -39.5q3 -14 8 -23q28 50 47 78q31 49 76 58q40 12 64 12h4q32 0 100 -33q30 -15 66 -78q42 -66 55 -131 q3 -13 10.5 -34.5t9.5 -28.5q19 -72 19 -140q0 -64 -17 -124q-1 -3 -18 -74q-10 -29 -16 -37q-63 -90 -148 -156q-44 -34 -86 -34q-25 0 -49 12q-6 2 -14 6h-9q-32 -18 -32 -56q0 -9 2 -18q5 -31 10 -143q0 -30 4 -92q2 -20 2 -54q0 -61 -6 -168q-12 -12 -14 -16 q-4 -11 -10.5 -17.5t-16.5 -12t-14 -9.5q-5 -2 -9.5 -2t-9.5 2q-27 6 -53 6q-16 0 -31 -2q-10 -3 -20 4q-29 15 -49 27q-36 29 -45 92q-14 92 -14 228q0 32 1 67q1 36 2 108.5t2 108.5v19q0 46 -4 120q-4 90 -4 109q-5 142 -5 236q0 48 1 83zM256 899q15 -149 18 -303 q0 -27 11 -64h8q11 8 33.5 24t33.5 24q10 10 11 12q6 8 18.5 25.5t18.5 25.5q19 24 22 64q3 24 10 57q9 36 47 166q9 30 9 61q-6 83 -37 166q-11 25 -29 31q-3 1 -10 2t-10 2q-11 3 -22 3q-50 0 -83 -67q-9 -16 -20 -45q-31 -70 -30 -147q-1 -18 1 -37z" />
<glyph unicode="Q" horiz-adv-x="890" d="M10 410q-13 79 -13 164q0 120 26 251q22 126 53 193q8 19 26 53.5t23 44.5q20 38 47 49q7 3 16 11q23 30 82 81q10 7 20.5 16.5t22.5 21.5t19 18q17 15 32 15q9 0 17 -5q3 -1 11.5 -4.5t12.5 -5.5l11 -5.5t12 -7t10.5 -8t10.5 -10.5q4 -6 10.5 -11t11.5 -8.5t14 -9 t13 -8.5q9 -6 35.5 -24t41.5 -27q19 -12 33 -51q6 -19 -4 -37q-19 -26 -34.5 -33.5t-41.5 0.5q-28 13 -35.5 11t-31.5 -29q-42 -42 -58 -80q-7 -14 -21.5 -37t-19.5 -33q-15 -22 -22 -67q-22 -107 -43 -172q-6 -15 -6 -33q-6 -89 -10 -266q0 -17 2 -25l12 -111q2 -18 10 -49 q14 -47 44 -47q6 0 13 2q54 12 113 82q3 3 14 25q-8 32 -43 110q-6 10 -26 56q-2 6 -6 22q-1 7 -1 14q0 31 19 52q2 2 8 6.5t9 7.5q16 -7 32.5 -22.5t24.5 -25t28.5 -38t24.5 -33.5q12 12 14 21q8 22 25 67t25 68q14 41 24 53q13 15 17 55q0 69 -27 142q-29 89 -55 123 q-5 10 -9 16q-4 20 7 27q17 13 22 14q6 1 13 1q22 0 49 -13q3 -2 12 -19q3 -7 18 -47q5 -14 15.5 -41t15.5 -41q6 -24 6 -26q16 -87 16 -161q0 -52 -8 -97q-6 -42 -6 -46q-5 -61 -26 -143q-4 -16 -21 -51q-6 -14 -18.5 -38t-16.5 -32q4 -15 9.5 -32.5t12 -38t9.5 -31.5 q23 -70 31 -135q1 -11 5 -31.5t5 -28.5q1 -7 1 -12q0 -33 -24 -47q-13 -8 -28 -19q-11 -8 -20 -8q-13 0 -25 15q-30 36 -37 48t-21 56q-1 4 -24 80q-9 32 -15 41q-27 -26 -34 -37q-12 -16 -26.5 -29t-34.5 -29.5t-29 -23.5q-33 -26 -85 -26h-14q-76 9 -143 67q-18 18 -39 33 q-38 38 -57 86q-29 73 -37 143q-3 24 -10.5 72.5t-10.5 71.5z" />
<glyph unicode="R" horiz-adv-x="864" d="M-8 1243q-1 13 -1 25q0 37 7 65q1 0 25 -2t36 -4q21 -3 47 -10q17 -7 27 -17q5 -7 22 -29.5t27 -37.5q28 12 60 22q40 15 84 15q41 0 86 -13q105 -26 194 -186q28 -53 28 -117q0 -40 -11 -84q-9 -21 -15 -30q-4 -5 -23.5 -37t-33 -47t-31.5 -23q-3 -2 -8 -8t-8 -8 q0 -15 12 -27q41 -41 51 -59q9 -14 29 -41.5t29 -42.5q22 -36 32 -47q10 -14 20.5 -33.5t17.5 -33.5t18 -38.5t16 -36.5q26 -66 35 -108q20 -101 55 -201q1 -3 29 -112q5 -36 8 -46q7 -21 7 -43q1 -24 -7 -48q-14 -48 -39 -64q-9 -5 -27.5 -15.5t-27.5 -15.5q-6 -3 -10 -3 q-2 0 -4 1q-71 11 -105 57q-36 48 -47 111q-2 18 -10 49q-38 143 -84 375q-6 34 -27 104q-38 112 -65 179q-26 58 -71 58q-6 0 -13 -1q-47 -10 -80 -45v-35q0 -172 2 -258q0 -19 4 -47q2 -40 2 -66.5t-2 -40.5q1 -8 1.5 -70.5t8.5 -95.5q4 -15 4 -31q0 -18 -5 -38 q-10 -37 -36 -55q-25 -19 -53 -19q-10 0 -20 2q-20 4 -31 4q-56 9 -80 90q-13 49 -25 142q0 22 -2 32q-13 50 -13 130q0 20 1 42q0 33 2 100t2 101v121q-1 67 -2 201t-2 202q-1 40 -5 121t-5 121zM196 1014q2 -29 9.5 -72.5t9.5 -56.5q2 -17 7 -48.5t8 -57.5t3 -50 q0 -3 7 -27q12 8 44 29.5t50 34.5q9 7 25.5 20t30 23.5t26.5 17.5q20 12 39 33.5t30.5 40t28.5 49.5q6 12 8 35q0 5 1 9q0 16 -5 24q-24 40 -39 53q-53 43 -102 43q-20 0 -66 8q-8 1 -15 1q-51 0 -95 -36q-1 -3 -2 -8t-2 -8q-2 -15 -2 -31q0 -13 1 -26z" />
<glyph unicode="S" horiz-adv-x="794" d="M12 530q-1 14 -1 40q0 65 7 202q8 155 82 313q34 66 95 138q2 3 6 8t6 8q33 53 65 57q2 1 7 7t8 8q3 1 10.5 1t13.5 1q1 1 8 8.5t13 13.5q5 -5 12 -7.5t11 -3t14.5 0t11.5 0.5q54 0 96 -45q22 -22 25 -27q15 -21 35 -24q19 -2 30 -35q1 -5 3 -16.5t3 -16.5q0 -1 1 -3 t1 -3q49 -61 62 -104q12 -37 12 -108t-6 -123l-6 -52q-50 -113 -66 -113q-11 0 -21 11.5t-17 42.5q-3 12 -3 28q0 25 7 58q9 48 11 102q1 27 1 48t-1 35l-3 30q-6 23 -11.5 41.5t-12.5 40t-14.5 37.5t-16.5 32t-18.5 25.5t-20 15t-23 3.5t-25.5 -11q-29 -21 -49.5 -59 t-31.5 -90.5t-16.5 -94t-10.5 -103.5t-8 -85q2 0 5 -1t5 -1q0 -7 -4 -15q-1 -5 -2 -15.5t-2 -16.5q-6 -79 -6 -80q-5 -36 -5 -67q0 -14 1 -27q1 -17 2 -50t2 -49q0 -19 10 -22q37 -21 45 -21q20 -1 54.5 0t45.5 2q38 0 55.5 -0.5t47.5 -7.5t53 -20q52 -27 70 -95 q23 -90 22 -153v-19q-4 -71 -20 -112q-9 -22 -11 -35q-9 -37 -30 -55q-37 -33 -56 -37q-8 0 -14 -6q-29 -22 -109 -39q-7 -2 -107.5 -10.5t-107.5 -10.5q-10 -3 -20 -3q-32 0 -59 28q-36 36 -43 98q-5 52 -5 87q0 24 2 40q3 29 11 40t30 17q2 1 7 3q10 4 10 -1q0 -18 86 -33 q94 -17 187 -19q19 0 35 -1q66 0 99 8h3q21 0 21 36q0 27 -11 73q0 11 -4 27q-7 35 -21.5 49t-42.5 16q-12 1 -23 1q-68 0 -120 -36q-34 -21 -72 -21q-25 0 -51 9l-57 19q-1 0 -6 2t-7 4q-5 5 -40.5 36.5t-51.5 53.5q-34 49 -41 63q-32 57 -35 135z" />
<glyph unicode="T" horiz-adv-x="768" d="M-41 1264q-3 11 -3 21q0 13 5 24q5 18 17 18h4q8 -1 70.5 -5t70.5 -5q32 -7 63 -7q42 0 80 13q13 5 21 2q12 -4 26 -8.5t31 -11t27 -9.5q27 -12 43 -14q43 -8 121 -16q165 -14 180 -39q6 -10 18.5 -31t18.5 -31q4 -7 4 -13q0 -4 -2 -9q-4 -11 -13 -13h-6q-16 5 -113 7.5 t-116 11.5q-11 5 -24 7t-29.5 3t-26.5 2q-3 -38 -3 -78q0 -24 1 -49q2 -29 2 -58.5t-2 -60.5q-2 -35 -2 -75q0 -89 8 -205l6 -129q0 -1 -1 -4.5t-1 -5.5q5 -18 5.5 -37.5t-0.5 -47.5t-1 -38q0 -13 -2 -39t-2 -39q-6 -183 -6 -186q0 -15 -2 -21q-4 -21 -6 -47t-1.5 -44.5 t1 -48.5t0.5 -46q-2 -20 -2 -60l-33 -22q-14 -9 -27 -9q-10 0 -20 5q-42 18 -75 18h-7q-22 0 -53 14q-46 22 -49 95q0 17 -2 101q-1 38 -2 63q0 29 2 38q2 37 3 112t3 112q2 39 5 83t7 98t6 83q3 48 9.5 144.5t9.5 144.5q2 17 6 48.5t6 47.5q16 112 22 178q-31 7 -219 16 q-34 0 -51 52z" />
<glyph unicode="U" horiz-adv-x="831" d="M10 680q0 20 2 60t2 61l6 141v15q0 167 62 346q6 19 12 23q2 1 6 2q6 0 15 -3q14 -2 41 -2q5 -1 15 -1.5t18.5 -1.5t15.5 -3q49 -16 74 -109q31 -99 45 -178q2 -10 2 -24q0 -34 -10 -92q-14 -81 -15 -107q0 -254 -20 -338q-2 -9 3 -50t1 -50q-9 -18 -10.5 -41t1.5 -55 q3 -31 3 -47q0 -17 8 -70q2 -11 8 -34t8 -34q18 -74 64 -86q8 -2 24.5 -5t24.5 -5q28 -6 47 35q5 13 20 45.5t23 52.5q24 63 35 98q11 44 12 53q4 45 13.5 135.5t13.5 135.5q1 9 4 27.5t4 27.5q16 136 16 205q0 13 1 40t1 40q4 75 4 159q0 105 -6 224q0 1 1 3t1 3 q15 24 37 24q40 5 47 5q15 0 29 -7q15 -8 19 -34q1 -6 0 -12q0 -19 -9 -33q-13 -17 -16 -60q-6 -55 -6 -170q0 -43 -2 -63q0 -12 -5 -80q-10 -140 -10 -170v-8q0 -18 -8 -70q-13 -73 -20 -166q-16 -170 -60 -303q-1 -4 -3 -13.5t-3 -13.5q-13 -59 -43 -77q-7 -6 -16 -27 q-7 -14 -20.5 -40t-20.5 -40q-26 -56 -72 -72q-39 -15 -74 -15q-40 0 -74 19q-54 28 -71 39q-49 35 -86 117q-2 5 -22 51.5t-31 69.5q-16 31 -23 76q-14 108 -14 168v14q0 37 -6 107.5t-7 78.5q0 19 -3 55t-3 54z" />
<glyph unicode="V" horiz-adv-x="946" d="M0 1225q-10 23 -10 50.5t10 59.5q14 0 20 -2q2 0 10 -1.5t11 -0.5q14 4 26 4q8 0 15 -2q8 -3 26.5 -8t28.5 -8.5t24.5 -11t26.5 -17.5q30 -23 48 -53q43 -64 100 -176q2 -4 26 -64q6 -17 17.5 -48t17.5 -48q18 -53 27 -113q3 -34 13 -99.5t12 -82.5q9 -52 12 -106 q4 -35 8 -105q2 -23 10 -69q5 -48 2 -60q-3 -22 -2.5 -60.5t-1.5 -60.5q-3 -10 0 -20q4 -17 3.5 -38.5t-3.5 -47.5q10 -10 15 -13t10 1t10 16q27 69 35 98q11 43 33 140q6 26 19 77t19 76q34 156 72 309q12 44 53 174q3 9 54 166q2 7 5 23.5t5 23.5q9 60 39 101q2 4 8 10 q20 20 33 4q8 -9 8 -24q0 -10 -4 -23q-2 -8 -12.5 -64t-22.5 -83q-1 -1 -12 -35q0 -1 -2 -10.5t-4 -14.5q-1 -5 -16 -54.5t-21 -76.5q-6 -34 -33 -125q-26 -84 -31 -123q-1 -15 -7.5 -41t-8.5 -37q-12 -59 -57 -241q-38 -158 -50 -199q-5 -18 -12.5 -51.5t-13 -54.5 t-14.5 -49t-19 -50q-26 -58 -64 -58q-4 0 -8 1q-122 9 -209 133q-11 16 -22 36.5t-24 47.5t-21 41t-12 39q-1 15 -4 29t-9 35l-8 28q-7 31 -74 328q-11 66 -18 149q-2 17 -19 181q-2 25 -10 75q-8 42 -24.5 126t-24.5 126q0 9 -4 21z" />
<glyph unicode="W" horiz-adv-x="1378" d="M2 1137v16q0 16 1 31q2 23 7 60t6 46q4 17 18 32q13 13 22 13h3q37 -8 56 -4q4 1 13 2t13 2h15q9 -9 32.5 -16.5t34.5 -20.5q36 -7 58 -75q25 -83 28 -164q2 -34 7.5 -101.5t7.5 -101.5q2 -18 2 -35t-2 -35q-1 -20 -3.5 -64.5t-3.5 -68.5q0 -63 2 -94q1 -12 4 -54t3 -65 q0 -20 1 -58t1 -58q0 -117 47 -183q7 -9 13 -20t16 -32.5t12 -25.5q8 13 10 19q33 74 59 162q9 32 74 229q27 78 33 107q3 13 8 25.5t13.5 29t11.5 24.5q8 20 23.5 56t21.5 51q2 5 7 15.5t7 15.5q9 17 27.5 51.5t27.5 52.5q11 27 25 43q22 29 50 29q18 0 38 -12 q23 -15 31 -72q8 -50 8 -90q0 -18 -2 -33q-1 -15 -1 -32q0 -51 11 -122q5 -40 16.5 -115t14.5 -98q1 -7 3 -25t4.5 -31.5t6.5 -25.5q2 -4 2 -14q0 -59 23 -149q3 -12 8 -36t8 -36q21 18 25 59q2 18 6 37.5t9.5 43t8.5 36.5q15 96 17 119q2 14 6.5 47t7 57t2.5 47 q0 16 3 34.5t8 40t7 34.5q33 186 45 240q5 30 52 221q3 14 10 43t10 43q8 34 35 55q30 23 55 4q4 -3 14 -10t16.5 -13.5t10.5 -15.5q12 -33 12 -60q0 -11 -2 -22q-1 -7 -4 -20.5t-4 -20.5q-19 -77 -39 -166q-1 -1 -6 -34q-5 -40 -6 -47q-5 -26 -14.5 -80t-14.5 -80 q-3 -20 -8 -58t-8 -57q-2 -18 -10 -45q-4 -23 -13.5 -67t-13.5 -66q-26 -107 -35 -150q-8 -29 -4 -41q0 -1 -1 -6.5t-1 -7.5q-23 -52 -26 -102v-11q-13 -23 -27 -72t-21 -65q-18 -46 -32 -49q-27 -12 -43 6q-2 3 -17 8q-14 9 -28 29q-37 58 -72 150q-18 50 -27 104 q-33 152 -45 252q-2 16 -8.5 61t-7.5 70q0 16 -6 25q-10 25 -10 82l-3.5 42t-3.5 48q-16 -9 -26 -33q-3 -11 -14.5 -47t-16.5 -56q-21 -75 -31 -129q-1 -8 -4.5 -24t-5 -23.5t-3 -24.5t0.5 -26q1 -6 -10 -49q-11 -29 -19 -102q-9 -69 -32 -187q-12 -50 -33 -98 q-7 -13 -20.5 -37.5t-20.5 -36.5q-22 -40 -64 -47q-6 -1 -13 -1q-23 0 -42 9q-21 12 -129 74q-24 14 -65 78q-7 10 -28 51t-38 59q-9 27 -34 78t-34 80q-27 82 -45 174q-34 190 -41 307q-1 18 -4.5 60.5t-5 74t-0.5 62.5v15q0 45 -4 182z" />
<glyph unicode="X" horiz-adv-x="1099" d="M25 29q2 12 10 32q2 8 35 115q13 49 24 66q18 33 25 77q9 70 49 136q1 3 7.5 16t9.5 17.5t9 14t12 15t13 10.5l4 4q4 15 13 28.5t16 20.5t23.5 19.5t21.5 17.5q15 15 27 56q-2 6 -7 16q-50 85 -94 223q-8 30 -33 91q-18 41 -36 59q-23 23 -15 55q1 3 3 25.5t8 34.5 q19 3 35 3q45 0 71 -24q27 -27 27 -47q2 -19 18 -43q57 -96 88 -188l12 -48q2 -5 6.5 -14t6.5 -14q14 -2 28 12q22 24 62 86q23 34 39 55q21 26 59.5 77t54.5 71q37 43 115 129q53 53 74 90q16 29 31 35q52 -9 98 -43q28 -18 59 -70q10 -15 10 -41q-7 -65 -30 -98 q-10 -15 -30.5 -74.5t-47.5 -77.5q-2 -1 -77 -117.5t-160 -244.5t-107 -154q6 -13 35.5 -55.5t34.5 -52.5q4 -10 22 -41q21 -53 45 -105q5 -9 29 -57t39 -72q7 -12 16 -24t21 -26l18 -21q13 -15 16 -39q2 -9 -3.5 -19.5t-12.5 -11.5q-29 -11 -53 -4q-58 17 -97 78 q-21 37 -65.5 110.5t-65.5 110.5q-3 6 -35 64t-40 75q-36 -51 -45 -72t-22 -41.5t-31.5 -45t-26.5 -37.5q-18 -35 -122.5 -192.5t-119.5 -160.5q-4 -1 -7 -1q-10 0 -16 7q-84 87 -84 187q0 18 3 37z" />
<glyph unicode="Y" horiz-adv-x="925" d="M-16 1255q4 22 8 29q2 5 7 10.5t7 10.5q2 3 14 3.5t15 4.5h2q3 0 7 -6q4 -8 8.5 -21.5t9 -30.5t9.5 -34.5t9.5 -32.5t9 -24.5t8.5 -10.5q19 -11 31 -96t23 -101q27 -42 79 -208q11 -37 73 -90q57 -48 86 -48q7 0 12 2q14 6 12 33l16 46q3 6 4 5q8 8 8 11q1 3 19 45.5 t24 66.5q0 4 4 12q9 21 42 106.5t55 129.5q9 18 28.5 55t28.5 56q4 7 9 13t12.5 12.5t9.5 8.5q5 -2 104 -17t105 -28q6 -12 6 -22q0 -11 -8 -19q-11 -14 -25 -57q-29 -74 -76 -170q-3 -7 -8 -22.5t-8 -22.5q-25 -104 -72 -182q-4 -8 -26 -62q-7 -18 -7 -35q0 -28 -12 -49 q-6 -8 -14 -24q-18 -30 -53 -125q-11 -30 -21 -47q-26 -42 -39 -99q-8 -41 -39 -108q-15 -38 -18 -80q-2 -21 -5 -63.5t-5 -63.5q-3 -29 -25 -47q-5 -6 -98.5 -17.5t-100.5 -17.5q-1 -1 -2 -1l-2 1q-26 6 -40.5 27.5t-14.5 46.5t6 49q1 3 3 8t3 8q2 6 10 32t12 43t5 36 q0 4 2 8q6 21 20.5 74.5t23 82.5t23 71t29.5 75q22 48 41 88q2 4 4 12.5t4 12.5q-10 4 -31 14.5t-32 14.5q-20 7 -41 32q-87 129 -109 174q-33 77 -45 115q-2 7 -35 109q-2 9 -12.5 42t-13.5 52q-23 112 -53 194z" />
<glyph unicode="Z" horiz-adv-x="819" d="M2 47q-5 33 -5 65q0 92 40 181q75 166 127 244q15 24 39.5 73t29.5 58q8 16 23.5 41.5t19.5 33.5q18 31 58 93q11 26 24 36q27 30 45 99q10 39 37 73q36 45 62 105q-12 8 -13 8q-77 0 -116 -2q-10 0 -14.5 -0.5t-11.5 -5.5t-11 -16q-1 -3 -7 -6.5t-7 -4.5 q-28 -23 -41.5 -19t-32.5 38q-16 29 -19 61q-3 21 2 37q7 21 23 74q21 3 61 7t60 7q61 10 147 10q52 0 88 -10q20 -5 25 -2q8 6 16 6q17 0 33 -31q20 -27 31 -51q31 -56 39 -80q23 -66 23 -117q0 -9 -1 -18q-5 -48 -37 -80q-16 -16 -24 -22q-23 -19 -25 -45q-5 -16 -8 -17 q-10 -6 -23 -32q-6 -13 -19.5 -40t-23.5 -49t-18 -44q-8 -19 -51 -93q-46 -84 -74 -131q-28 -39 -29 -41q-9 -16 -39 -68t-47 -79q-61 -103 -100 -182q-5 -10 -21.5 -42t-23.5 -51q-1 -2 -2 -6.5t-2.5 -9t-3.5 -8.5q4 0 9 -1t8.5 -1t6.5 2q14 9 31.5 14t30 6t33.5 2t30 2 q54 8 99 7h26q10 -1 20.5 1.5t17.5 5.5t20.5 9.5t19.5 9.5q33 -57 33 -108q2 -28 -8 -44t-29 -16q-27 -4 -45 4q-25 10 -60.5 9.5t-82.5 -9.5q-10 -2 -52 -13t-65 -13q-7 0 -15 -4q-39 -25 -118 -25h-5q-21 0 -44 23q-15 15 -19 41q-2 13 -27 79q-2 5 -6.5 16.5t-6.5 18 t-4 16.5q-1 7 -1 14v7z" />
<glyph unicode="a" horiz-adv-x="1009" d="M-29 188q12 45 19 129q9 85 45 166q30 76 74 117q64 58 159 117q18 10 45 10q17 0 37 -4q3 -3 10 -12t11 -13q20 -26 49 -45q21 -14 56.5 -42t49.5 -38q4 -3 17.5 -14t21.5 -18q1 1 6.5 8t6.5 10q9 20 20 57q9 34 41 48q5 -2 35 -17q39 -19 61 -35q63 -38 88 -118 q7 -14 4 -27q-1 -15 -5 -44.5t-5 -43.5q-3 -20 -8 -41t-12.5 -45.5t-10.5 -36.5q-15 -47 -30 -66q-33 -42 -37 -149q12 -10 20 -2q13 7 36.5 20.5t35.5 20.5q4 3 112.5 105.5t116.5 105.5q12 6 27 6q7 0 13.5 -6.5t6.5 -14.5q0 -24 -4 -32q-9 -18 -22 -31q-9 -8 -127 -121 t-131 -123q-30 -21 -60 -21q-11 0 -22 3q-2 2 -10 2q-46 3 -78 35q-52 52 -66 100q-2 5 -12 35q-19 -2 -33 -25q-21 -41 -80 -100q-46 -51 -57 -61q-22 -20 -37 -31t-38 -21.5t-46 -11.5q-4 -1 -11 -2t-11 -2q-9 -2 -18 -2q-27 0 -60 16q-83 43 -170 160q-17 25 -19 43 q-9 37 -9 65q0 21 5 37zM248 -23q-1 -3 -1 -6q0 -8 9 -14q36 24 41 29q118 114 160 170q18 28 57 67q17 17 14 51q-3 20 -3 43q0 43 12 95q4 24 6 34q-25 25 -49 25q-18 0 -35 -14q-22 -15 -23 -15q-38 -15 -74 -63q-16 -19 -24 -41q-4 -8 -14 -43q-22 -72 -45 -160 q-2 -9 -5.5 -27.5t-5.5 -27.5q-3 -17 -10 -51.5t-10 -51.5z" />
<glyph unicode="b" horiz-adv-x="1013" d="M-7 372q0 62 9 111q2 0 4 -2l21 88q0 3 1 8t1 7q10 49 26 143q21 117 49 188q20 66 23 127q3 54 27 91q15 20 26 57q10 28 38 29h3q26 0 51 -25q5 -6 16 -17.5t20 -21.5t16 -20q12 -18 30 -33q32 -30 76 -101q6 -3 6 -12q2 -7 12 -37t14 -48.5t5 -37.5q0 -29 -2 -43 q-14 -73 -14 -120v-11q0 -26 -13 -102q-4 -40 -4 -66q4 4 15 8q13 10 30 13q5 1 29 8.5t37 9.5q80 15 92 17q16 0 37 -7q82 -28 119 -57q29 -22 41 -53q18 -41 20 -68q4 -58 4 -82v-15q0 -42 -14 -89q-1 -3 -3.5 -12.5t-2.5 -14.5q-5 -24 -23 -53q-35 -54 -98 -98 q-7 -5 -22 -11.5t-17 -7.5l-41 -18q-51 -18 -68 -19q-16 -2 -53 -10q-32 -7 -55 2l-68 21l-4 2l-18 10l22 35q33 3 66 16q-2 0 -2 -2q2 0 4.5 -1t3.5 -1q8 4 10 8q24 18 47 41q4 2 8 10l5 9q52 68 61 166q29 70 33 102q0 2 6 20q5 13 0.5 26t-2.5 26q0 15 -10 28 q-18 6 -41 6l-52 -6q-14 -3 -31.5 -12.5t-27.5 -17t-30 -24.5t-23 -19q-2 -2 -2 -7q-31 -119 -60 -206q-2 -5 -37 -131l-6 -17q-12 -30 -57 -65q-19 -14 -23 -21q-6 -11 -15 -11q-2 0 -5 1q-29 8 -39 10l-8 4q-34 13 -50.5 13t-45.5 -13q-27 9 -35 17t-21 41q-1 47 -6.5 115 t-10 119t-4.5 113z" />
<glyph unicode="c" horiz-adv-x="714" d="M-14 295v18q0 63 18 119q3 7 8 33q7 30 29 67q46 72 127 127q9 6 51 25q20 7 51 23q66 23 86 24q42 7 70 14q16 4 32 4q20 0 40 -6q14 -5 43 -14t43 -14q1 0 3 -1t3 -1q20 -10 30 -16t16.5 -17t2.5 -25q-15 2 -30 2q-55 0 -107 -24v2q-8 4 -10 2q-14 -7 -15 -8 q-12 -9 -33 -29.5t-26 -24.5q-8 -8 -10 -14l-5 -10q-66 -84 -81 -213q-3 -7 -12 -30.5t-13 -34.5t-9 -30t-7 -36q0 -6 -9 -29q-4 -13 -14 -108q-4 -21 8 -35q22 -5 47 -5q11 0 23 1q41 4 63 8q70 11 131 59q6 4 25 20.5t31 24.5q58 42 139 127q20 20 55 20q13 0 29 -3 q16 -4 16 -19q0 -22 -10 -35q-61 -69 -119 -104q-15 -9 -40.5 -27.5t-37.5 -25.5q-4 -3 -12 -8.5t-12 -8.5q-75 -44 -80 -47q-11 -5 -41 -14q-10 -3 -38.5 -12.5t-45.5 -12.5q-44 -9 -119 -20q-28 0 -47 8q-96 29 -153 74q-36 26 -54 67q-22 56 -24 88q-2 16 -3 33.5 t-1.5 38.5t-1.5 33z" />
<glyph unicode="d" horiz-adv-x="1060" d="M-4 172q-1 18 -1 36q0 114 44 228q21 54 67 80q21 10 57.5 34.5t49.5 31.5q46 25 92 28h8q34 0 80 -22q73 -34 121 -92q5 22 14.5 59.5t10.5 42.5q4 23 13 71.5t13 71.5q14 91 47 189q20 55 23 127q3 50 27 88q13 19 28 57q11 28 38 30h4q25 0 48 -24q39 -39 51 -59 q8 -12 31 -35q32 -28 78 -98l6 -12q3 -13 11 -38.5t12.5 -46t5.5 -38.5q0 -31 -2 -43q-15 -81 -15 -131q0 -15 -10 -103q-1 -3 -6 -65q-3 -66 -18 -121q-26 -118 -60 -207q-8 -26 -37 -133q-1 -2 -2 -7.5t-2 -7.5q-16 -33 -57 -65q-2 -2 -11.5 -9t-13.5 -14q-5 -11 -20 -8 q-10 2 -39 10q-1 0 -3 1.5t-3 1.5q-35 15 -51 15t-45 -15q-29 10 -37 19t-27 52q-2 -2 -7 -4t-7 -4q-8 -8 -10 -12q-45 -53 -119 -66q-10 -2 -31 -6t-31 -6q-26 -7 -37 -21q-12 -14 -28 -14q-6 0 -13 2q-11 4 -16 2q-8 -1 -15.5 0t-16.5 5t-14 6.5t-16.5 10t-15.5 9.5 q-8 7 -25.5 20.5t-25.5 20.5q-86 71 -92 178zM295 35q14 0 18 4q8 3 23.5 11t23.5 11q13 6 25.5 13t26 16t22 15.5t25 18.5t22.5 17q17 14 17 41v121q0 19 -6 25q-30 50 -54 67q-16 -10 -18 -14q-27 -57 -33 -76q-2 -5 -25 -60t-30 -87q0 -3 -2.5 -8l-3.5 -7 q-17 -33 -31 -90v-18z" />
<glyph unicode="e" horiz-adv-x="632" d="M-35 158q-4 46 -4 82q0 57 10 92q36 113 70 180q64 125 174 174q38 17 92 45q29 15 67 15q11 0 23 -1q24 -39 68 -65q12 -8 14 -14q3 -7 18 -30.5t17 -37.5q7 -24 2 -37q-6 -18 0 -41q8 -18 -6 -35q-18 -18 -31 -41q-53 -71 -135 -92q-8 -2 -23.5 -7.5t-17.5 -6.5 q-18 -6 -35 -6q-23 0 -32 -25q-35 -103 -41 -123q-9 -41 -15 -88q-2 -12 -2 -24q0 -25 10 -47q22 -10 58 4q109 36 205 116q4 3 12 9.5t12 9.5q23 15 82 74q7 8 22 20t21 18q9 6 21 23q16 16 45 10q20 -6 27 -21q3 -7 3 -14q0 -8 -4 -18q-4 -11 -12 -14q-19 -13 -80 -74 q-13 -15 -59 -47q-32 -22 -76 -53q-7 -4 -21.5 -13.5t-21.5 -13.5q-8 -4 -12 -8q-42 -31 -129 -66q-1 0 -4 -2t-5 -2q-9 -1 -26 -3t-31 -3q-7 0 -14 -0.5t-13 0.5q-23 0 -63 14q-42 15 -92 62q-62 53 -68 125zM293 430q5 0 9 -1l3 -1q1 1 4 2t4 2q36 16 70 55q21 21 29 33 q2 5 2.5 18t1.5 17v6q1 3 1 6q0 8 -7 15q-4 4 -9 4t-10 -4q-4 0 -4 -4q-41 -46 -51 -68q-6 -10 -18 -28t-15 -23q-1 -2 -10 -29z" />
<glyph unicode="f" d="M-31 -43q0 25 2 73t2 72q5 178 72 420q6 25 19.5 76t19.5 76q9 37 43 106q9 14 23 23q7 5 15 5q9 0 19 -7q7 -3 32.5 -17.5t39.5 -19.5q33 -13 61.5 -55.5t30.5 -77.5l6 -135v-9q-6 -18 -8 -43t-1.5 -46.5t-0.5 -47.5q-2 -4 -2 -16q-1 -13 -4 -37t-4 -37q0 -51 -2 -86 q15 13 81.5 54t78.5 53q36 33 69 69q18 20 49 20q8 0 17 -1q19 -1 27 -15q3 -6 3 -13q0 -8 -4 -17q-2 -8 -11 -23t-9 -16q-3 -4 -10.5 -17.5t-12.5 -19.5q-31 -36 -43 -43q-108 -67 -155 -107q-21 -21 2 -53q24 -35 24 -77v-9q0 -21 2 -29q7 -37 7 -112q0 -30 -1 -66 q-2 -74 -51 -182q-4 -9 -11.5 -18t-12.5 -13.5t-16 -12.5t-15 -11q-44 -30 -98 -33h-11l-65 14q-7 3 -28.5 13t-31.5 16q-62 36 -88 102q-22 54 -28 74q-21 94 -21 149v9q1 17 0 50q-1 17 -1 29t1 19zM233 -420q3 -1 6 -1q10 0 17 15t20.5 45t20.5 44q40 75 51 215q1 6 1 13 q0 13 -3 26q-4 20 -14 47.5t-13 40.5q-15 -9 -12 -29q0 -25 -10 -55q-9 -21 -6 -39q4 -41 -6 -60q-4 -6 -4 -20v-12q0 -51 -21 -103q-5 -21 -6 -22q-6 -24 -12 -45q-10 -18 -10 -46q0 -7 1 -14z" />
<glyph unicode="g" horiz-adv-x="952" d="M-20 332v8q9 27 18 84t16 82q11 48 27 104q19 56 72 99q14 11 31.5 11t37.5 -11l133 -76q79 -48 174 -129q26 -20 41 -12q19 10 54 -15q50 -33 82 -51q22 -14 39 -41q27 -45 34 -78q15 -57 15 -107v-16q-6 -130 -9 -254q-1 -18 -5 -52t-5 -50q28 21 43 41q19 26 60.5 72 t64.5 84q18 29 29 55t16 39t10 18q3 3 10 25.5t15 42t23.5 33t35.5 -1.5q3 2 5 -5q2 -6 2 -13q0 -22 -13 -58q-6 -18 -14.5 -58t-22.5 -65q-4 -7 -21.5 -44t-33.5 -65t-47 -63t-68 -55q-82 -42 -104 -52q-2 -14 -2 -43q-1 -30 -25 -127q-6 -33 -32 -116q-3 -10 -13.5 -28.5 t-13.5 -25.5q-4 -12 -4 -20v-11q0 -50 -41 -83q-1 -1 -8.5 -6.5t-10 -8.5t-5.5 -9.5t-3 -14.5q0 -1 -1 -3t-1 -3q-11 -11 -28.5 -34t-34 -39.5t-35.5 -25.5q-52 -22 -72 -24q-16 -3 -37 -13q-15 -7 -32 -7q-30 0 -70 20q-3 2 -25 13.5t-34 16.5q-48 18 -72 48q-4 6 -25 16 q-27 18 -37 49q-18 59 -16 78q0 11 -4 31q-7 32 -7 61q0 75 44 135q10 16 31.5 44.5t29.5 39.5q16 27 52 45q61 27 126 51q13 5 35 5q22 -3 29 20q0 2 4 18l27 162q0 1 -4 17l-25 -13q-37 -18 -80 -18q-24 0 -51 6q-21 7 -23 8q-95 55 -161 121q-52 49 -76 127 q-6 18 -8.5 37.5t-3.5 43t-2 34.5zM100 -690q12 -12 31 -12l68 4q8 0 12 4q53 38 82 94q28 65 41 123q1 8 3 17t5 19.5t4 16.5q11 56 11 88q0 8 -1 14q-6 -1 -26 -4.5t-32.5 -7t-23.5 -8.5l-6 -6q-7 -9 -33 -29.5t-34 -38.5q-2 -3 -11 -8q-34 -23 -49 -68l-18 -32 q-17 -31 -17 -64q0 -22 -4 -30q-5 -13 -5 -34q0 -17 3 -38zM270 61q13 3 15 5q49 23 94 61q37 37 45 43q17 14 20 43q8 55 21 113q3 22 16 75q-21 35 -51 50q-5 2 -16 7.5t-17 8t-15 5.5t-17 4q-5 1 -9 1h-6q-2 -4 -2 -8q0 -65 -10 -84q-2 -2 -2 -8q-30 -128 -41 -182 l-25 -113v-21z" />
<glyph unicode="h" horiz-adv-x="1028" d="M-23 465q0 10 1.5 29t1.5 28v17q0 37 6 94q9 77 33 214t30 177q12 84 47 158q17 39 47 49q14 -6 40 -17.5t46 -20t37 -13.5q51 -13 99 -64q44 -47 57 -112q5 -27 5 -50q0 -10 -1 -18q-3 -31 6 -62q26 -106 26 -224q0 -26 -1 -52q-2 -18 -5.5 -55t-5.5 -56v-8 q-6 -17 -15 -50t-13 -46q-13 -42 -23 -102q8 -5 17 4q9 11 26.5 34.5t26.5 34.5q57 57 88 84q52 44 129 47q34 0 57 -10q42 -15 68 -61q39 -66 39 -140v-10q-3 -70 -25 -123q-16 -41 -22 -82q-1 -5 -2 -16t-2 -16q4 -18 22 -21h6q52 0 115 53q58 66 78 109q10 18 18 49 t13 51.5t10 20.5q6 0 9 -1t8.5 -6t8.5 -19q4 -19 4 -39q0 -44 -28 -107q-29 -65 -62 -99q-35 -40 -82 -65q-29 -15 -52 -25q-23 -8 -53 -14q-15 -3 -29 -3q-15 1 -27 3q-24 6 -51 25.5t-48 54.5l-6 12q-5 10 -10 35q-2 13 -3 26.5t-1.5 30t-1.5 25.5q0 127 12 174q3 17 8 63 q0 3 -1 10.5t-1 10.5q-23 13 -39 -8q-18 -20 -55 -59.5t-59 -63.5t-51 -60t-50 -69q-10 -17 -32 -46.5t-27 -37.5q-27 -38 -74 -53q-22 -9 -33 -7q-65 8 -109.5 37.5t-78.5 87.5q-32 56 -51 129q-4 13 -2 17q2 16 2 22.5t-2.5 22t-3.5 22.5q-9 57 -9 150z" />
<glyph unicode="i" horiz-adv-x="479" d="M-10 227q0 86 6 127q14 103 29 172l30 111q3 10 9.5 29.5t9.5 29.5q6 36 37 52q41 -11 94 -33q33 -15 46 -30t25 -54q12 -38 12 -68q0 -6 -1 -12q-2 -25 -2 -76q-1 -7 -1 -39.5t-3 -48.5v-16q4 -36 3.5 -80.5t-3.5 -95.5q-2 -19 -2 -34q0 -23 4 -38q4 -14 0 -43l6 -35 q43 8 94 49q58 66 78 109q8 18 15.5 49t13 51.5t10.5 20.5q9 0 13.5 -2t10 -16.5t6.5 -43.5v-9q0 -42 -26 -100q-29 -64 -64 -100q-43 -43 -80 -63q-59 -30 -81 -35q-19 -8 -46 -8q-56 0 -96 37q-6 3 -18.5 10t-18.5 10q-37 25 -63 72q-44 75 -47 151zM160 891q-1 9 -1 17 q0 90 58 151q13 13 31 13q9 0 18 -3q22 -6 63.5 -23.5t47.5 -19.5q1 -1 3 -2t3 -2q23 -12 31 -35q3 -9 3 -18q0 -13 -7 -25q-45 -74 -115 -102q-3 -1 -10 -3.5t-10.5 -4t-10 -4t-10 -4.5t-9 -5.5t-9 -6.5t-8 -7.5t-7.5 -9.5q-8 -11 -20 -11q-13 0 -31 13q-8 70 -10 92z" />
<glyph unicode="j" horiz-adv-x="524" d="M-422 -612q-8 33 -8 64q0 72 43 132l61 84q22 31 54 45q67 29 125 51q13 5 36 5q20 -3 27 20q4 12 4 18l10 54q19 71 35 158.5t25 148.5t23.5 170.5t21.5 157.5q16 -10 31 -4q16 9 51 -15q32 -22 82 -51q25 -16 41 -41q25 -49 34 -78q13 -60 13 -106v-17 q-2 -43 -4 -127.5t-4 -126.5l-9 -86q10 6 31 27l70 80q10 11 30 29q9 8 17.5 21.5t16.5 29.5t11 20q6 9 30 58t26 51q1 1 10 29.5t20.5 54t20.5 26.5q16 2 21 -8q2 -3 2 -10q0 -10 -5 -27q-14 -43 -14 -78q0 -13 -8 -41q-6 -19 -39 -91t-53 -95q-3 -4 -20 -23.5t-29.5 -31.5 t-34.5 -30t-50.5 -33t-62.5 -25q-4 -40 -4 -62q-1 -30 -25 -127q-6 -33 -32 -116q-3 -11 -13 -30.5t-12 -23.5q-7 -11 -4 -20v-7q0 -55 -43 -87q-2 -2 -6 -5l-6 -4.5t-5 -5t-5 -6.5t-3.5 -7.5t-1.5 -10.5q0 -4 -2 -6q-4 -4 -37 -45.5t-59 -53.5q-6 -2 -17.5 -7.5t-18.5 -8 t-17.5 -5t-20.5 -3.5q-17 -3 -34 -13q-16 -7 -34 -7q-31 0 -71 20q-41 23 -59 30q-44 18 -72 48q-5 7 -23 16q-25 15 -36 49q-1 5 -6 19.5t-6.5 21t-3.5 17.5t-1 20q0 11 -4 31zM-367 -690q14 -12 33 -12l68 4q4 0 12 4q56 43 80 94q30 62 41 123l12 53q12 61 12 93v9 q-68 -13 -81 -20l-9 -6q-6 -8 -32 -29t-33 -39q-1 -2 -6 -5l-4 -3q-34 -23 -52 -68l-16 -32q-18 -32 -18 -64q0 -20 -5 -30q-5 -13 -5 -34q0 -17 3 -38zM92 653q-1 9 -1 17q0 90 59 151q12 13 30 13q9 0 19 -3q21 -7 60 -23t50 -20l6 -4q23 -14 31 -36q3 -9 3 -17 q0 -13 -7 -24q-46 -75 -117 -103q-2 -1 -12.5 -5t-13.5 -5.5t-11.5 -5.5t-13 -7.5t-10.5 -9t-10 -12.5q-8 -11 -20 -11q-14 0 -34 13z" />
<glyph unicode="k" horiz-adv-x="1067" d="M-4 664q0 55 8 94q10 49 10 123q2 106 31 249q13 61 16 84q23 9 31 9q4 1 7 1q9 0 16 -7q11 -8 42.5 -25t47.5 -33q100 -61 145 -180q22 -61 58 -154q12 -27 12 -53q1 -12 3 -33.5t3 -38.5t0 -32q0 -8 -1 -34t-1.5 -38.5t-3.5 -32t-8 -33.5q-4 -14 -10.5 -48.5 t-12.5 -51.5q-6 -19 -9 -59t-5 -52q0 -16 2 -28q6 4 10 8q6 14 21.5 47.5t23.5 52.5q21 48 94 226q7 17 19.5 51.5t19.5 50.5q2 5 43 90q7 14 19 17q31 12 49 14q4 1 8 0t10 -3t8 -3q20 -23 13 -43q-5 -23 -13 -29q-13 -11 -26 -55q-5 -19 -13.5 -40t-15 -35.5t-18.5 -39 t-17 -35.5q-15 -34 -26 -69q5 -9 12.5 -16t19 -16t13.5 -11q86 -64 166 -172q27 -31 69 -88q0 -1 18.5 -25.5t26.5 -38.5q9 -13 27 -37t27 -37q18 -13 45 -6q19 5 38 47t28 82l9 39q2 -1 15 0t29 -7.5t18 -25.5q2 -38 -28.5 -117.5t-90.5 -117.5q-39 -25 -79 -25h-9 q-104 0 -170 70q-14 14 -24.5 29t-14.5 23l-4 9q-18 30 -51 85.5t-60 102t-51 87.5q-5 8 -18 39q-6 -3 -6 -4q-24 -68 -76 -156q-10 -20 -21 -53q-27 -94 -92 -156q-20 -20 -49 -20q-13 0 -29 4q-12 4 -16 4h-3q-40 0 -114 47q-75 46 -102 125q-21 66 -23 90 q-13 123 -16 219q-4 66 -4 195z" />
<glyph unicode="l" horiz-adv-x="587" d="M-12 506l6 147q23 238 69 355q11 29 31.5 86t32.5 86l4 10t4.5 11t3.5 9q11 24 27 26h5q15 0 36 -15q16 -11 46.5 -34t45.5 -34q18 -14 25 -25q18 -32 25.5 -47.5t16 -43t7.5 -52.5q-2 -24 -2 -51t1 -61t1 -52q0 -19 -8 -55q0 -4 -2.5 -13t-2.5 -14q-2 -32 -7.5 -65 t-14 -74.5t-12.5 -62.5q-1 -2 -2 -7t-2 -8q-4 -27 -14.5 -94.5t-16.5 -105.5q-8 -55 -8 -129v-8q0 -36 16 -91q11 -31 28.5 -42.5t34.5 1.5q14 9 35.5 30t30.5 28q5 4 82.5 85t85.5 87l12 6q26 -4 33 -19q8 -12 8 -23q0 -9 -6 -18q-9 -18 -18 -30q-37 -57 -140 -152 t-151 -100q-5 -1 -11 -1q-45 0 -104 38q-29 20 -69 55q-40 36 -82 121q-31 60 -62 176q-18 106 -18 170z" />
<glyph unicode="m" horiz-adv-x="1552" d="M-12 492q3 54 37 280q1 12 4 38t4 40q2 20 16 30q8 6 18 6q7 0 15 -3q32 -11 70 -31q6 -3 26.5 -14.5t32.5 -16.5q26 -17 35 -45q43 -120 43 -229q0 -25 -2 -49q-4 -32 -4 -58q0 -33 6 -57q4 -2 5.5 -0.5l2.5 2.5t1 4t1 4q41 121 59 182q24 69 88 140q21 21 56 24 q14 1 27 1q45 0 75 -11q23 -8 41 -18q40 -25 57 -70q22 -51 29 -117q2 -15 3 -30.5t1.5 -34.5t1.5 -29q3 -32 -4 -63q-7 -20 -14 -62q4 -1 6.5 0.5t3.5 3.5t2 5t2 5q6 15 18.5 45.5t18.5 45.5q18 46 68 100q6 7 13 16t15 20t13 17q74 88 153 117q4 2 14.5 10t18.5 8 q9 0 20 11.5t13 13.5q35 -21 63 -35q70 -30 137 -88q48 -42 78 -94q4 -20 4 -27q3 -32 3 -61q0 -77 -23 -129q-23 -59 -41 -195q0 -32 9 -52.5t16 -25t22 -12.5h2q18 0 86 90q72 96 96 154q12 27 21.5 38.5t15 11t14 -4.5t13.5 -4q5 -2 5 -10q-1 -13 -13 -44 q-10 -26 -20 -49t-21 -45q-16 -35 -23 -48.5t-23 -35.5t-34 -37q-11 -9 -22 -25t-18.5 -25.5t-28 -17t-54.5 -7.5q-43 0 -92.5 16.5t-77.5 33.5l-29 17q-6 4 -41 29q-36 24 -59 84t-28 108l-5 48v38q9 145 17 197v25q-6 2 -9 2q-12 -11 -58.5 -48t-66.5 -63q-26 -29 -28 -65 q0 -4 -11 -37q-5 -16 -16 -54t-18 -57q-17 -53 -56 -92q-18 -20 -59 -31q-3 -1 -7 -1q-24 0 -61 35q-42 40 -51 87q-2 10 -2 57q0 36 1 107t1 108q0 19 -10 101q0 28 -16 55h-19q-31 -17 -45 -43q-45 -82 -55 -102q-3 -5 -8.5 -16.5t-8.5 -16.5q-8 -13 -15 -29t-15.5 -40 t-12.5 -33q-4 -10 -12 -31t-12 -31q-5 -16 -15.5 -46.5t-15.5 -45.5q-23 -77 -45 -139q-9 -32 -2 -52q6 -17 -10 -20q-6 0 -51.5 8.5t-49.5 11.5q-20 12 -62 37.5t-63 38.5q-40 24 -53 74q-10 42 -20 96q-7 48 -7 110q0 52 5 116z" />
<glyph unicode="n" horiz-adv-x="1036" d="M4 393q0 123 2 146q2 31 19 98q8 39 34 141q2 13 11 35q8 30 36 41q3 1 6 1q14 0 38 -11q18 -9 52 -28t44 -25q30 -19 35 -50q2 -10 14 -34q21 -54 21 -92q0 -8 -1 -15q-1 -8 -1 -18q0 -42 10 -127q10 -43 18 -64q11 18 12 23q35 78 41 94q35 86 84 162q50 82 155 82h7 q31 0 98 -27q28 -10 45 -39q5 -10 19.5 -31t19.5 -34q15 -25 19 -54q11 -66 11 -120q0 -27 -3 -52q-4 -27 -10.5 -80t-10.5 -79q-2 -16 -10 -48l-12 -36q-10 -45 -13 -76t-0.5 -44.5t8 -21t13.5 -6t15.5 0.5t13.5 -1h2q20 0 86 90q70 96 96 154q12 27 21.5 38.5t15 11 t14 -4.5t13.5 -4q5 -2 5 -11q0 -12 -13 -43q-11 -27 -21 -49t-21 -45q-4 -8 -13.5 -27.5t-14.5 -28t-13.5 -22.5t-17.5 -24t-20 -19t-26 -32t-35 -33t-62 -10q-80 0 -138 26q-11 3 -24 19q-37 41 -43 84q-4 30 -8 90q-1 41 -1 78q0 111 9 184q1 15 5 44.5t5 45.5 q8 65 10 102q1 6 -0.5 19t-1.5 18q-19 4 -22 2q-18 -18 -33 -39q-13 -18 -31 -47q-3 -5 -10.5 -16t-11 -17.5t-8 -17t-5.5 -22.5q-2 -15 -18 -43q-10 -20 -31.5 -57.5t-31.5 -57.5q-21 -35 -27 -82q-6 -58 -21 -111q-11 -32 -14 -73q0 -18 -14 -72q-10 -31 -33 -37 q-8 0 -14 -6q-18 -14 -44 -14q-24 0 -55 12q-29 13 -84 47q-28 18 -59 74q-36 60 -53 139q-4 27 -23 113q-6 34 -6 63z" />
<glyph unicode="o" horiz-adv-x="860" d="M-6 371v9v13q2 11 5.5 24.5t4.5 20.5q21 114 96 189q8 8 17 14q23 15 69 45.5t70 46.5q39 26 74 26q6 0 12 -1q37 -3 76 -23q8 -5 100 -55q6 -4 14 -8q16 -10 13 -27q-6 -39 -45 -39h-4q-14 5 -27.5 4.5t-22 -2t-21 -10t-16.5 -12t-18 -15.5q-59 -52 -78 -116 q-8 -26 -4 -62q0 -37 -6 -74q-3 -16 -8 -98q-2 -14 -2 -47q0 -51 14 -100q20 -7 35 4q72 46 100 90q54 82 68 133q7 17 14 29q13 30 19 63q0 18 6 33q5 15 -2 43q-2 11 -2 20q0 23 13 43q19 26 52 25q9 0 11 -2t7 -5t7 -5q131 -56 207 -64q29 -3 63 0.5t49 2t19 -16.5 q8 -16 8 -29q1 -6 -1 -10q-4 -16 -38 -29q-21 -4 -38 -5.5t-48.5 4t-51 10t-46.5 11.5t-35 9q-16 4 -45 18q-4 -24 -2 -38q3 -18 -12 -29q-16 -16 -23 -45q-2 -4 -10 -27.5t-11 -31.5t-11 -23.5t-17 -26.5q-4 -18 -13.5 -35t-23.5 -37.5t-20 -31.5q-8 -18 -37 -43 q-47 -38 -97 -82q-17 -11 -20 -12q-63 -22 -103 -22q-6 0 -12 1q-37 4 -55 12q-42 18 -94 48q-45 25 -66 75q-28 62 -28 97l-5 20q-16 50 -24 156z" />
<glyph unicode="p" horiz-adv-x="1064" d="M-35 -137q-1 33 -1 63q0 70 5 123q7 100 25 168q1 4 2 11.5t2 11.5q12 130 20 190v25q-1 12 -1 26q0 78 28 209q0 2 12 37q1 6 4.5 17.5t4.5 17.5q3 26 25 26h3q34 0 64 -18q8 -5 29 -14t32 -17q25 -20 41 -51q43 -93 47 -106q1 -5 12 -33q12 -7 17 2q26 39 35 51 q58 73 166 82q4 0 13.5 1t14.5 1q13 2 27 2q82 0 166 -63q20 -14 57 -60q56 -78 68 -155q9 -61 16 -80q2 -4 2 -13q4 -24 6 -69.5t6 -69.5q2 -7 2 -16q0 -23 -12 -56q-1 -1 -4 -9t-4 -13q-2 -14 -8.5 -27t-12 -19.5t-18 -20.5t-16.5 -19q-5 -5 -11 -8q-18 -6 -65 -29 t-78 -29q-38 -6 -80 -6q-22 0 -45 13q-72 28 -151 67q-9 4 -19.5 11.5t-23.5 17.5t-19 14q-2 -17 -5 -49t-5 -49q-2 -31 -2 -98q0 -39 -4 -117v-25q11 -49 10 -57q0 -4 -2.5 -24t0.5 -25q0 -15 -4 -19q-18 -22 -14 -51q-9 5 -33 21q-4 1 -11.5 4.5t-9.5 3.5q-18 -1 -55 12 t-43 14q-40 10 -47 9q-15 -4 -43 12q-4 4 -8 4q-83 54 -97 133q-10 49 -10 115zM352 143q2 -2 8 -9.5t9 -10.5t8.5 -8t10.5 -8t11 -5q19 -5 35 -5q40 0 55 32q36 69 46 92q15 30 18 68q8 69 37 137q15 35 18 74q4 20 4 40q0 29 -8 60q-24 7 -43 7q-22 0 -37 -9 q-45 -25 -61 -51q-6 -8 -19.5 -23.5t-19.5 -23.5q-32 -41 -41 -62q-22 -62 -27 -106q-4 -36 -4 -105v-84z" />
<glyph unicode="q" horiz-adv-x="1001" d="M-31 354q6 6 9 15.5t5 25t3 19.5q14 91 71 217q25 56 101 74q20 3 47 14q22 7 55 22q16 4 29 4q25 0 37 -2q53 -10 88 -43q11 -10 33.5 -30.5t33.5 -30.5q6 -5 45 -33q18 -13 41 -26q27 -14 35 -48q5 2 17 4.5t18 4.5q16 8 37 -9q5 -4 33.5 -27.5t44.5 -35.5 q24 -21 30 -51q11 -47 11 -89q0 -46 -13 -87q-42 -143 -63 -269q-3 -19 -15 -34q-6 -12 -6 -27q10 -9 21 2q64 41 117.5 100t81 106.5t51.5 91.5t34 54q20 20 52 23q14 0 25 -14q8 -11 8 -22q0 -4 -1 -7q-4 -25 -14 -41q-4 -5 -55 -109.5t-60 -113.5q-7 -8 -68 -61.5 t-65 -57.5q-1 -1 -5.5 -6.5t-6.5 -6.5q-7 -5 -22 -15l-24 -16t-22.5 -13t-25.5 -11q-41 -18 -51 -22q-8 -15 4 -39q4 -14 4 -43q-2 -31 -2 -94q0 -9 -4 -25q-5 -19 -35 -111q-5 -11 -23 -43q-8 -11 -27.5 -37.5t-29.5 -42.5q-27 -43 -92 -71q-13 -5 -25 -5q-17 0 -33 11 q-2 1 -6 2t-6 2q-69 25 -92 115q-20 88 -20 157q3 89 14 154q3 21 7.5 58t8.5 68t8 58q2 17 5.5 36t9 43t8.5 36q0 3 4 23q-12 -3 -16 -5q-25 -12 -60 -12q-29 0 -65 8q-60 14 -123 64q-66 56 -98 121q-20 41 -20 91q0 30 7 62zM260 121q6 -2 14 -2q35 11 109 53 q19 13 29 41q33 104 82 178q4 6 22.5 32.5t30.5 43.5q-5 2 -23 8q-12 3 -25 3q-36 0 -75 -21q-11 -5 -21.5 -12.5t-26 -20.5t-18.5 -16q-20 -14 -20 -43q-2 -29 -27 -82q-6 -15 -12 -33q-6 -21 -19.5 -61t-15.5 -46q-1 -3 -2 -10.5t-2 -11.5zM467 -586q-2 -3 -2 -6 q0 -4 4 -8q26 24 40.5 49t43.5 102q8 20 14 44.5t12.5 57.5t10.5 48l-4 20q-2 -3 -6 -7.5t-5 -6.5q-7 -27 -36 -78q-1 -2 -6.5 -12.5t-6.5 -17.5q-4 -28 -24 -68q-11 -24 -21 -55q-4 -12 -14 -62z" />
<glyph unicode="r" horiz-adv-x="899" d="M8 842q4 12 17 14q19 0 34 -10q6 -5 18.5 -15.5t18.5 -15.5q37 -30 76 -33q104 0 147 11q9 1 41 12q20 5 58 17.5t57 17.5q20 5 42 5q30 0 65 -9q16 -5 28 -27q6 -10 4.5 -21t-10.5 -14q-21 -12 -37 -10q-4 1 -9.5 1t-12 -0.5t-10.5 -0.5q3 -8 7 -11.5t9 -5t8 -4.5 q11 -11 23 -20q58 -52 96 -105q49 -71 49 -144q0 -21 -4 -42q-4 -20 -29 -123q-8 -25 -28 -65q-2 -4 -6.5 -11.5t-6.5 -11.5q-27 -55 -65 -96q-4 -4 -8 -6q-35 -26 -39 -113q-2 -20 10 -61q3 -15 20 -24.5t29 -4.5q12 8 16 12q53 53 60 62q16 17 45.5 50.5t44.5 49.5 q10 13 30.5 37t30.5 37q72 82 86 96q5 6 29 16q9 3 16 -3.5t9 -18.5q0 -21 -2 -29q-12 -37 -21 -49q-10 -16 -30.5 -42t-28.5 -38q-5 -7 -15.5 -21t-18.5 -25.5t-13 -22.5q-35 -61 -101 -138q-24 -30 -65 -43q-8 -3 -64 -20q-18 -4 -36 -4q-58 0 -111 47q-24 20 -37 33 q-58 56 -84 147q-29 109 -29 198q0 35 4 66q12 80 20 128t25 113.5t39 115.5q5 10 11 28q-28 12 -53 12q-1 0 -2 1q-27 0 -130 -11q0 -2 -2 -6.5t-2 -7.5q-10 -55 -59 -242t-64 -213q-2 -5 -5 -8t-9.5 -7t-7.5 -5q-9 -4 -18.5 2t-14.5 18q-2 6 -14 16.5t-9 18.5 q14 29 38.5 135t45.5 208.5t23 109.5l-13.5 9t-15.5 9q-6 2 -12 5t-10.5 5.5t-11 8t-9.5 8t-9.5 9.5t-8 9t-9 11t-8.5 10q-3 1 -8 12q-5 10 -5 19q0 4 1 8z" />
<glyph unicode="s" horiz-adv-x="735" d="M-125 -418q3 39 6 70q7 30 15 55q51 142 145 213q138 105 242 189q-14 14 -35 26q-41 29 -84 68q-98 79 -135 194q-2 9 -8.5 27t-10 32.5t-4.5 28.5q-3 21 -3 41q0 60 30 105q9 14 25 41t26.5 43.5t26.5 38.5t32 39q80 84 158 100q7 2 51 18q56 22 133 25h4q22 0 78 -21 q32 -14 43 -20q44 -20 74 -57q-7 -14 -12 -32.5t-6.5 -30t-4.5 -36t-4 -32.5q0 -17 -4 -23q-6 -13 -19 -46t-20.5 -50t-21.5 -41.5t-29 -42.5q-16 -20 -71 -64q-11 -9 -34.5 -26.5t-35.5 -26.5q-22 -20 -72 -31q-28 -8 -46.5 3.5t-37.5 46.5q15 10 19 10q27 5 51 26 q9 7 48.5 37t59.5 47q85 65 109 152q3 13 12.5 36.5t12.5 30.5q11 26 2 52q-3 0 -10.5 2t-10.5 2q-70 -3 -113 -23q-114 -52 -157 -106q-4 -5 -18 -22t-19.5 -24t-17 -22t-18 -24.5t-15.5 -23.5t-16 -27t-13 -27q0 -2 -4 -6q-16 -18 -15 -48q0 -18 5 -40q12 -46 18 -66 q14 -50 60 -100q46 -46 75 -64q5 -3 16.5 -10t16.5 -10q3 3 13.5 10t15.5 12q38 31 122.5 69.5t163.5 69.5t95 41q16 11 32 11q15 -1 30 -11q20 -14 20 -32q0 -9 -5 -19q-10 -17 -73 -53t-164 -90.5t-160 -91.5q3 -3 8.5 -10.5t8.5 -10.5q5 -5 14 -16.5t14 -16.5 q58 -51 107 -147q45 -92 51 -170q-43 -103 -139 -180q-146 -108 -265 -152q-2 2 -14 8q-15 8 -49 17q-12 2 -35.5 5t-34.5 5q-10 0 -16 6q-10 8 -64 35q-27 9 -61 39q-9 8 -26.5 25.5t-26.5 25.5q-10 9 -31 45zM25 -362q17 -9 30 -9q9 0 17 4q48 32 57 39q66 54 94 82 q90 90 133 137q21 24 25 80q0 21 -16 43q-1 1 -3.5 4.5t-3.5 4.5q-64 -43 -127 -93q-14 -14 -24 -20q-7 -6 -22.5 -17t-27 -20t-20.5 -18q-11 -11 -21.5 -24.5t-23.5 -32t-18 -25.5q-6 -3 -6 -11q-1 -12 -3 -23t-6.5 -22.5t-7.5 -18.5t-10.5 -21t-9.5 -19q-2 -4 -6 -20z" />
<glyph unicode="t" horiz-adv-x="643" d="M-105 894q2 6 11 5q7 -5 38 -1.5t36 3.5q10 0 30.5 -1t32.5 -1q8 -1 53 -6q15 45 39 106q4 13 10 27t13.5 30.5t11.5 26.5q4 13 10 27t13.5 30.5t11.5 26.5q2 4 6 11.5t6 11.5q13 20 36 20t46 -22q26 -26 53 -47q37 -32 51 -97q4 -20 4 -48q0 -16 -1 -33q-7 -35 -7 -62 q0 -14 2 -22q15 -4 31.5 -3.5t34.5 3.5q8 2 18 2q39 0 90 -35q6 -4 17 -15q12 -13 10.5 -28.5t-16.5 -16.5q-4 -2 -15 -2l-35 1q-34 1 -34 -1h-2q-13 0 -70 9q-6 2 -22 6q-20 3 -27.5 -2t-11.5 -25q-3 -16 -10.5 -48.5t-10.5 -49.5q-3 -19 -8 -58t-8 -59q-3 -21 -3 -47 t0.5 -42t3 -51t3.5 -44q0 -29 2 -43q1 -7 1.5 -19.5t1.5 -23t3 -19.5q7 -36 0 -55q-1 -3 -2 -11t-2 -12q-5 -51 -35 -94q1 -4 2 -13.5t2 -14.5q1 -15 11.5 -23.5t21.5 -5.5h4q5 3 36 21t46 32t101 73t108 89q21 33 63 33h7q6 0 22 -8q11 -5 11 -16q0 -3 -1 -7q0 -14 -4 -20 q-20 -46 -28 -56q-15 -18 -89 -63t-90 -64l-22 -22q-8 -7 -23.5 -21.5t-23.5 -21.5q-44 -38 -82 -43q-1 0 -4.5 -1t-5.5 -1q-21 -8 -44 -8q-46 0 -100 32q-79 47 -125 101q-78 91 -84 200q-1 19 -4 58.5t-4 58.5q-1 26 -1 52q0 143 42 268q1 4 10 30t13 41q3 13 6 35 q-9 -1 -25 -2t-24 -2q-9 -3 -19 -3q-27 0 -67 17q-33 17 -45 56q-2 7 -2 11t1 6z" />
<glyph unicode="u" horiz-adv-x="1060" d="M2 262v21v12q0 82 25 209q3 17 22 65q3 8 11.5 24.5t11.5 24.5q4 11 10.5 22t11.5 18.5t15 19.5t13.5 16t16.5 17.5t15 15.5q2 3 3.5 4.5t4 3t4 2t6 1t7.5 1t10.5 1t13.5 1.5q39 -31 78 -59q3 -2 13.5 -12t16.5 -13q23 -20 29 -47q3 -14 8.5 -39t7.5 -36v-17 q-1 -18 -16 -47t-16 -47q-2 -14 -6.5 -27t-12 -28.5t-10.5 -24.5q-13 -29 -27 -94q-5 -32 -2.5 -57t0.5 -52.5t-16 -46.5q-15 -21 -10 -51h12q54 25 82 57q8 10 35 39t41 47q27 37 65 99q1 2 3 6.5t4 7.5t5 4q15 9 23 51q3 43 18 72q21 57 54 121q7 13 24.5 34.5t20.5 26.5 q5 6 39 51q14 19 22 21q33 14 57 -10q9 -8 30 -20t26 -15q31 -19 43 -55q12 -33 12 -72v-16q-2 -25 -6.5 -51.5t-12 -61t-10.5 -49.5q-10 -39 -26 -117q-2 -6 -6.5 -18.5t-6.5 -18.5q-20 -61 -22 -102q3 -3 5.5 -3.5t4 0t3.5 2t3 1.5q6 4 18.5 12t18.5 12q2 2 67 51.5 t124.5 92.5t70.5 45q17 3 31 -15q8 -12 8 -24q0 -6 -2 -12q-6 -18 -235 -218q-30 -21 -37 -30q-17 -17 -41 -23q-27 -8 -43 -10q-10 -1 -19 -1l-65 15q-84 47 -119 88q-3 4 -9.5 12t-10 13t-8 12.5t-7.5 14.5q-8 12 -12 20q-8 -8 -22.5 -20t-25.5 -23t-18 -23 q-6 -13 -28 -30q-78 -59 -96 -70q-36 -26 -77 -26h-9q-38 4 -56 22q-44 35 -86 74q-34 34 -49 78q-30 85 -43 151z" />
<glyph unicode="v" horiz-adv-x="780" d="M-20 543v119v133q0 6 1 19t1 20q0 13 7.5 20.5t18.5 7.5q55 0 72 -55q8 -32 8 -49v-78q4 -82 6 -125q0 -1 1.5 -9.5t0.5 -13.5q-4 -11 -1.5 -45.5t3.5 -46t6 -47t7 -47.5q12 -74 12 -147q0 -3 4 -43q14 26 20 43q20 49 66 139q10 19 20 41.5t21.5 51.5t17.5 44q3 6 23 51 q35 72 41 88q19 44 57 103q6 10 19.5 29t23.5 34.5t17 30.5q30 56 84 117q21 24 52 24q8 0 17 -2q12 -8 21 -20q2 -1 5.5 -4.5t4.5 -3.5q11 1 30 -13t25 -16q13 -4 58 -39q18 -16 18 -37q0 -7 -2 -14q-16 -44 -18 -47q-18 -37 -58 -150q-21 -70 -74 -166q-10 -17 -16 -37 q-14 -34 -68 -118q-34 -53 -45 -80q-19 -44 -63 -82q-19 -19 -27 -29q-8 -11 -25.5 -33.5t-25.5 -33.5q-23 -27 -35 -56q-19 -46 -61 -57q-12 -2 -31 -14q-23 -15 -43 -15q-7 0 -14 2q-5 2 -37 7q-27 5 -51 27.5t-31 51.5q-16 54 -18 80q-7 127 -37 350q-8 63 -8 140z" />
<glyph unicode="w" horiz-adv-x="1474" d="M-27 475q0 66 21 148q3 11 29 98q9 37 16 49q14 32 14 57q3 28 29 28q5 0 10 -1q34 -8 53 -16q49 -18 52 -19q20 -3 36 -16q91 -75 91 -162v-12q0 -8 1 -25.5t1 -25.5q-3 -37 -9 -66q-4 -16 -4 -49q1 -19 0 -58t0 -59q4 -152 25 -221q2 -6 2.5 -18.5t1.5 -16.5 q1 -5 2 -15t2 -14q8 0 8 2q29 38 39 60q40 86 51 119q44 111 95 188q7 11 27.5 45t33.5 53q27 39 70 50q20 4 41 4t43 -4q21 -7 26 -25q20 -55 20 -87q0 -6 -1 -11q-2 -38 -7.5 -114t-7.5 -114q-4 -41 -8 -123q0 -27 19 -51q4 4 12 8q33 53 45 95q22 96 51 209q6 25 19.5 73 t19.5 72q24 88 45 174q7 29 10 51q6 51 52 80q4 2 12 8t12 8q25 18 49 0q16 -13 64 -32q28 -14 33 -17q45 -31 45 -82h2v-13q0 -61 18 -73q10 -7 19.5 -15t15 -13t6.5 -6l57 -21q41 1 76 21q15 9 27 22.5t17 23.5l5 9q3 0 7 -1.5t12 -10.5q9 -10 8 -24q0 -19 -26 -51 q-27 -32 -77 -52q-19 -7 -40 -7q-37 0 -82 21q-43 20 -78 43q-1 -4 -2 -13.5t-2 -13.5q-7 -20 -15 -34q-15 -34 -20 -58q-10 -60 -23 -102q-7 -23 -39 -94q0 -5 -4 -13q-47 -100 -86 -139q-10 -10 -32 -45q-14 -23 -45 -33q-58 -16 -86 -16q-6 0 -48 -6q-11 -1 -22 -1 q-45 0 -80 23q-25 16 -41 41q-41 61 -41 135q0 12 2 34.5t2 33.5q1 19 3 57.5t3 57.5q0 9 4 63q-22 -17 -43 -55q-37 -84 -53 -139q-4 -5 -8 -23q-3 -24 -11.5 -47.5t-22 -52t-19.5 -43.5q-1 -4 -4 -11.5t-5 -14.5t-4 -13q-18 -66 -86 -84q-16 -6 -53 -10q-13 -2 -25 -2 q-33 0 -63 12q-6 2 -18.5 7t-18.5 7q-74 25 -137 113q-45 61 -82 170q-29 84 -33 231z" />
<glyph unicode="x" horiz-adv-x="815" d="M-76 6q6 18 8 21q5 12 16.5 35.5t16.5 35.5q12 28 23 41q15 17 22 49q13 49 45 84q2 3 7 9.5t8 10.5t7.5 9.5t10 10t12.5 7.5q2 1 2 3q4 9 12 18t14.5 13t20.5 12t17 10q10 7 24 35q-1 2 -2 5.5t-2 4.5q-42 55 -69 141q-4 9 -12.5 27.5t-12.5 27.5q-14 24 -29 37 q-19 13 -10 35q1 3 3 16.5t7 20.5q17 2 32 2q36 0 55 -14q22 -18 22 -31q0 -11 12 -27q45 -58 68 -116q1 -6 4 -16.5t4 -12.5q1 -4 8 -18q13 -2 25 6q20 16 53 53q16 19 35 35q97 91 98 92q17 14 99 82q53 41 65 57q13 17 25 21q42 -6 80 -27q24 -12 47 -43q9 -12 6 -25 q-3 -37 -29 -63q-29 -31 -67 -94q-38 -58 -101 -135q-1 -2 -4 -5.5t-4 -5.5q-7 -17 -20 -33t-32 -33.5t-28 -27.5q-4 -6 -15.5 -14.5t-15.5 -14.5q-18 -28 -32 -45q-7 -7 -25 -34q5 -7 14.5 -21.5t14.5 -21.5q11 -15 16 -27q4 -7 35 -66q5 -8 16.5 -25.5t16.5 -25.5 q3 -5 9 -14t9 -14q1 0 2 -1.5t2 -1.5q15 -13 33 -13q17 0 37 11q30 16 79 83.5t83 127.5l34 60q40 0 48 -27q4 -13 4 -37.5t-2 -42.5l-2 -18q-62 -90 -76 -113q-10 -15 -43.5 -47t-40.5 -37q-1 0 -6.5 -5.5t-14 -11t-23 -11.5t-33.5 -8t-46 1q-25 -4 -37 0q-49 9 -76 50 q-60 77 -102 137q-4 6 -27 47q-28 -25 -41 -45q-8 -13 -18.5 -25t-27 -29t-23.5 -24q-3 -3 -9 -6q-14 -2 -47 -25q-5 -4 -21.5 -12.5t-23.5 -15.5q-13 -12 -32 -19q-37 -15 -46 -51q-3 -19 -21 -34.5t-40 -16.5q-3 -1 -6 -1q-7 0 -12 5q-64 53 -64 110q0 14 4 29z" />
<glyph unicode="y" horiz-adv-x="991" d="M-25 -428q-1 10 -1 20q0 40 10 70q21 67 264 121q80 16 158 16q11 21 14 54q7 71 22 114q0 1 13 58l-6 8q-2 -1 -7 -2t-6 -2q-5 -4 -13 -12t-15.5 -14.5t-14.5 -10.5q-61 -37 -110 -39h-4q-59 0 -144 53q-26 16 -65 55q-82 85 -93 187q-2 23 -2 42q0 44 11 70q2 6 2 25v8 q0 61 30 131q65 145 109 213q6 12 8 13q26 16 33 18q3 2 6 2q2 0 5 -2q6 -2 13 -8t11 -8q12 -5 24 -13.5t25.5 -20t21.5 -16.5q49 -33 54 -77l4 -13q18 -27 18 -67q0 -18 -4 -39q-2 -11 -52 -158.5t-50 -171.5l-4 -106l24 -17q5 -5 38.5 1t39.5 9q36 20 77.5 75t59.5 71 q18 15 31 45q22 52 41 152q9 39 25.5 117.5t25.5 117.5q3 13 11.5 37t11.5 35q36 7 57 -11q5 -4 11 -4.5t12.5 1t9.5 1.5q2 0 7.5 2.5t7.5 2t9 -2.5q74 -40 103 -81q8 -12 8 -21q-1 -11 -0.5 -31.5t-0.5 -36t-5 -28.5q-2 -9 -2.5 -29t-1.5 -26q0 -25 -2 -29 q-7 -19 -11.5 -57t-7.5 -50q-4 -21 -8 -65q-5 -33 -8 -43q-10 -31 -23 -119l-24 -135q-4 -21 -27 -82q2 1 41 27q10 7 27 22.5t30.5 27.5t14.5 13q2 1 26 25q9 9 45 51q7 8 16 20t11 15q16 20 37 55q2 4 15.5 31.5t15.5 29.5q1 1 3.5 11t8 19t14.5 11q17 3 24 -11 q3 -5 3 -13q0 -12 -6 -29q-6 -16 -18 -39.5t-19.5 -39t-7.5 -19.5q0 -2 1.5 -7t1.5 -8t-4.5 -9.5t-13.5 -14.5q-8 -6 -57.5 -67.5t-87.5 -92.5q-43 -36 -143 -74v-2q-15 -106 -68 -229q-25 -58 -57 -82q-13 -10 -32.5 -32t-27.5 -29q-70 -54 -114 -64q-20 -5 -23 -8 q-29 -25 -98 -25h-37h-6q-98 0 -199 93q-3 3 -13.5 12.5t-15.5 15.5l-2 2l-12 15l-6 10v2q-18 36 -21 90zM36 -462l5 -9l20 -31q12 -17 31 -20q5 -1 10 -1q20 0 35 11q27 12 43 23q7 5 17.5 15.5t15.5 14.5q54 39 123 148q10 20 22 35h-20l-98 -33q-10 0 -27.5 -2t-59.5 -19 t-71 -47q-30 -29 -40 -53q-8 -15 -8 -25q0 -4 2 -7z" />
<glyph unicode="z" horiz-adv-x="694" d="M-426 -367q16 82 74 150q73 86 149 137q30 21 72 41q119 60 174 74q30 7 63.5 21.5t40.5 15.5q2 0 30.5 7t47.5 8t54 -5q10 14 38 61q29 53 45 88l7 23q-41 36 -103 61q-12 4 -20 4q-11 0 -32 2t-34 2.5t-31 -0.5t-32 -4h-2q-43 1 -58.5 13.5t-42.5 64.5q-10 22 -4 47.5 t23 36.5q23 15 42.5 34.5t48.5 55t36 43.5q2 0 2 9q-8 4 -15 4q-23 3 -69.5 7t-69.5 7q-25 3 -55 16q-20 5 -35 35q-5 10 -2 18.5t12 8.5q4 0 13.5 -1t13.5 -1q26 -4 68 -4q27 0 61 2q91 8 124 8h7q53 0 135 -53q13 -9 16.5 -26.5t-4.5 -27.5l-30 -28l-47 -37 q-20 -15 -41 -43q-13 -18 -54 -55q-3 -3 -10 -8.5t-10.5 -8.5t-8 -8t-7.5 -10q3 -6 4 -6q62 -2 168 -45q90 -35 170 -109q59 -56 67 -129q2 0 4 2q14 6 23 14.5t26 18.5q42 24 62 41q5 4 8.5 8.5t4.5 7t3.5 8.5t3.5 9q8 17 15 28q6 8 15.5 26t10.5 19q8 13 29 13 q11 0 11 -11q0 -3 -1 -8q-1 -7 -17.5 -40t-23.5 -46q-1 -1 -9.5 -18t-16 -30.5t-20.5 -31t-25 -26.5q-27 -21 -99 -43v-60q0 -5 -10 -35q-8 -37 -30.5 -102.5t-26.5 -77.5q-8 -20 -8 -31q-1 -15 -5.5 -26.5t-14 -26.5t-11.5 -20l-25 -41q-12 -21 -30 -39q-17 -14 -31 -39 q-7 -13 -15.5 -25.5t-20.5 -25t-19.5 -20t-23 -21.5t-20.5 -19q-10 -2 -33 -18t-42 -14q-8 4 -8 -4q-4 -9 -12.5 -14.5t-20.5 -10.5t-17 -8q-21 -13 -46 -13q-23 0 -50 11q-36 16 -70 16h-10q-9 -3 -18 0q-25 5 -53 5t-60 -5q-8 -1 -17 -1q-34 0 -85 20q-5 2 -17 8t-19 9 t-17 5.5t-19 1.5q-42 20 -60 40t-28 65q-4 21 -4 41t4 38zM-340 -412l6 -6q21 -3 40 -3q51 0 81 22q14 9 40 25.5t40 25.5q14 10 37 30.5t33 28.5l36 35q3 3 9.5 8t9.5 8.5t6 10.5t2 16q-2 5 8 14q63 55 98 84q28 25 46 45q16 20 71 84q-59 0 -127 -32q-46 -22 -92 -45.5 t-70.5 -37t-25.5 -14.5q-43 -34 -60 -41q-5 -2 -36 -28l-82 -82q-20 -16 -31 -39l-31 -59q-10 -17 -9 -35q-1 -7 1 -15z" />
<glyph unicode="&#xa0;" />
<glyph unicode="&#x2000;" horiz-adv-x="682" />
<glyph unicode="&#x2001;" horiz-adv-x="1365" />
<glyph unicode="&#x2002;" horiz-adv-x="682" />
<glyph unicode="&#x2003;" horiz-adv-x="1365" />
<glyph unicode="&#x2004;" horiz-adv-x="455" />
<glyph unicode="&#x2005;" horiz-adv-x="341" />
<glyph unicode="&#x2006;" horiz-adv-x="227" />
<glyph unicode="&#x2007;" horiz-adv-x="227" />
<glyph unicode="&#x2008;" horiz-adv-x="170" />
<glyph unicode="&#x2009;" horiz-adv-x="273" />
<glyph unicode="&#x200a;" horiz-adv-x="75" />
<glyph unicode="&#x202f;" horiz-adv-x="273" />
<glyph unicode="&#x205f;" horiz-adv-x="341" />
<glyph unicode="&#x25fc;" horiz-adv-x="839" d="M0 0v840h840v-840h-840z" />
</font>
</defs>
</svg>
