<?xml version="1.0" standalone="no"?>
<!DOCTYPE svg PUBLIC "-//W3C//DTD SVG 1.1//EN" "http://www.w3.org/Graphics/SVG/1.1/DTD/svg11.dtd" >
<svg>
<metadata>
Created by FontForge 20090622 at Thu Apr 14 12:12:54 2016
 By deploy user
Copyright (c) 2016 by moriztype. All rights reserved.
</metadata>
<defs>
<font id="Briskwondering" horiz-adv-x="71" >
  <font-face 
    font-family="Brisk wondering"
    font-weight="400"
    font-stretch="normal"
    units-per-em="1000"
    panose-1="2 0 5 6 0 0 0 2 0 3"
    ascent="800"
    descent="-200"
    x-height="367"
    cap-height="945"
    bbox="-1344.5 -499 1567.02 1043.36"
    underline-thickness="50"
    underline-position="-50"
    unicode-range="U+000D-U+FB02"
  />
<missing-glyph horiz-adv-x="227" 
 />
    <glyph glyph-name="a_a" unicode="aa" horiz-adv-x="362" 
d="M267 329q-23 34 -51 -18q-26 -49 -26 -96q1 -26 14 -26q30 0 55 68t25 112q7 -1 9 -1.5t5 -7t1 -19.5v-30.5t1 -51t3 -52.5t7 -45t13 -17q3 1 6.5 10.5t8 27.5t8 33.5t9 42.5l8.5 41q10 0 6 -27q-1 -3 -6 -29l-8 -41t-9 -36t-12 -31t-12 -10q-36 0 -41 144
q-38 -94 -78 -94q-29 0 -32 38q-10 -21 -19.5 -33.5t-17.5 -11.5q-35 0 -40 108q-38 -71 -78 -71q-37 0 -32 44.5t40 77.5q23 22 46 19q13 -2 15 -10.5t-5 -15.5q-25 27 -54 -18q-26 -39 -22 -71q1 -16 13 -16q30 0 55 51t25 84q14 -2 16 -9q0 -5 -1 -12v-22.5t1 -38.5
t2.5 -39.5t6.5 -33.5t13 -13q12 3 39 71q9 44 33.5 79.5t49.5 30.5q13 -3 15 -14t-5 -21z" />
    <glyph glyph-name="b_b" unicode="bb" horiz-adv-x="321" 
d="M-203 590q112 -11 192 16q4 60 13.5 118t25 113.5t40.5 90t55 34.5q47 0 62 -41.5t6 -88.5q-9 -54 -38.5 -109.5t-72.5 -89.5q-29 -24 -75 -39q-3 -33 -3 -65q80 -2 146 20q4 60 13.5 118t25 113.5t40.5 90t55 34.5q47 0 62 -41.5t6 -88.5q-9 -54 -38.5 -109.5
t-72.5 -89.5q-29 -24 -75 -39q-10 -167 7 -278q1 -10 4 -24.5t9 -35t15 -31.5t19 -6q12 8 16 57q-6 6 -14 18t-16 27t-9 25.5t9 14.5q21 5 32 -8q16 -17 16 -70q22 -16 62 57q1 3 5 9l4 8q10 -10 1 -23q-3 -4 -9 -14.5l-9.5 -16.5t-11 -16t-13 -13.5t-15 -7.5t-16.5 1
q-7 -50 -24 -60q-20 -7 -35 7t-23.5 41t-12 47t-5.5 39q-29 -32 -59 -17q-7 -50 -24 -60q-17 -9 -31 1t-22.5 33.5t-12 39.5t-6.5 32q-11 72 -11 200q-6 0 -10 1q-6 1 -9.5 2t-5 3.5t-2.5 4.5t-1 5v4q1 0 12 -1.5t17 -1.5q0 1 3 58q-67 -25 -173 -17q-6 1 -9.5 2t-5 3.5
t-2.5 4.5t-1 5v4zM165 555q38 14 63 34q40 32 68.5 84.5t37.5 104.5q13 109 -51 109q-45 -2 -77 -106.5t-41 -225.5zM6 612q38 14 63 34q40 32 68.5 84.5t37.5 104.5q13 109 -51 109q-45 -2 -77 -106.5t-41 -225.5zM147 531q-61 -23 -145 -19q0 -133 10 -196q1 -10 4 -24.5
t9 -35t15 -31.5t19 -6q12 8 16 57q-6 6 -14 18t-16 27t-9 25.5t9 14.5q21 5 32 -8q16 -17 16 -70q30 -19 55 17v-1q-9 119 -1 232zM76 302q3 29 -15 44q-7 5 -7 -1q1 -1 1 -2q7 -27 21 -41zM235 245q3 29 -15 44q-7 5 -7 -1q1 -1 1 -2q7 -27 21 -41z" />
    <glyph glyph-name="c_c" unicode="cc" horiz-adv-x="225" 
d="M71 339q-11 12 -22 9q-17 -7 -30.5 -46.5t0.5 -51.5q16 -13 94 48q16 50 35 62q9 5 20.5 -0.5t14 -15t-7.5 -17.5q-13 19 -20 15q-17 -9 -29.5 -65.5t0.5 -72.5q5 -2 8 -2.5t11 5.5t13.5 12t15 17.5l17 20.5l17.5 21.5t18 21.5q13 -8 -14 -38q-3 -3 -9 -11.5t-10 -13.5
l-11 -13.5t-12 -13.5l-11.5 -11t-12 -9t-11 -5t-10.5 -1t-9 5q-23 23 -8 90q-53 -40 -73 -44q-15 -3 -26 4q-24 19 -8 66t42 58q20 8 31 -4q8 -9 -3 -20z" />
    <glyph glyph-name="d_d" unicode="dd" horiz-adv-x="538" 
d="M239 581q75 -10 142 -1q40 292 135 366q59 40 103 20q55 -26 39 -133q-15 -93 -76 -169q-79 -82 -186 -99q-18 -177 1 -349q15 -149 46 -191q9 -12 18 1q8 9 15 24t13 30.5t12 38.5t10 40t9 42l7.5 37.5t6 35t4.5 25.5q9 -1 9.5 -8t-2.5 -24q-1 -7 -8 -49.5t-10.5 -59.5
t-11.5 -49.5t-18 -54.5t-23 -39q-12 -13 -24 -12t-21 12q-25 34 -39 108.5t-14 131.5q-7 -17 -19.5 -37t-30.5 -37.5t-35.5 -18t-34.5 21.5q-27 -98 -68 -150q-11 -12 -22.5 -11t-19.5 11q-23 31 -36 100t-13 122q-54 -105 -98 -80q-23 14 -18 62q4 37 23.5 69t49.5 38
q19 4 38 -15q1 0 1 -1q-3 117 6 212q-48 -6 -102 -1q-16 1 -22.5 5.5t-4.5 12.5q70 -10 132 -1q37 270 125 339q54 37 95 18q29 -13 36.5 -55.5t-0.5 -67.5q-13 -85 -70 -156q-73 -76 -172 -92q-17 -161 0 -323q15 -137 43 -177q8 -10 17 1q35 40 74 172q1 47 21.5 87.5
t58.5 47.5q21 4 41 -16q1 0 1 -1q-3 126 6 229q-52 -7 -110 -1q-17 1 -24 5.5t-5 13.5zM398 582q119 29 171 93q56 69 73 160q13 95 -31 116q-34 19 -85 -19q-88 -69 -128 -350zM117 559q111 27 159 86q51 63 67 148q13 88 -29 107q-21 8 -41 2t-37 -19q-82 -64 -119 -324z
M372 278q-2 30 -14 46q-29 29 -61 -20q-28 -45 -26 -93q1 -24 12 -32q16 -12 49 32t40 67zM93 277q-3 31 -13 43q-28 28 -57 -20q-27 -45 -23 -89q2 -18 11 -25q15 -11 45.5 30t36.5 61z" />
    <glyph glyph-name="e_e" unicode="ee" horiz-adv-x="234" 
d="M23 235q8 -23 28 -37q17 -12 35 23t29 72q9 61 38 79q15 7 23.5 -2t11.5 -24q5 -32 -10 -77.5t-40 -61.5q9 -26 29 -40t48 65q10 27 21 68q12 -2 5 -24l-6 -18.5l-8 -25t-9.5 -27.5t-11 -25.5t-13.5 -20t-16 -9.5t-19 5q-40 25 -45 96q-31 -91 -71 -65q-47 34 -44.5 98.5
t40.5 87.5q15 7 23.5 -2t11.5 -24q5 -30 -9.5 -62t-40.5 -49zM134 225q18 13 29 52t8 66q-4 25 -21 2q-14 -18 -18 -59.5t2 -60.5zM19 253q19 14 29.5 39.5t7.5 50.5q-4 25 -21 2q-27 -42 -16 -92z" />
    <glyph glyph-name="g_g" unicode="gg" horiz-adv-x="388" 
d="M293 369v6q3 1 7.5 5t7 3.5t4.5 -7.5v-1q4 -78 1 -141q-6 -112 -16 -208q33 -2 72 -15q18 -7 21.5 -11.5t-0.5 -16.5q-52 24 -95 26q-40 -300 -127 -318q-40 -10 -60 29q-24 45 -8 123q17 77 66 127q-35 12 -66 14q-40 -300 -127 -318q-40 -10 -60 29q-24 45 -8 123
q19 81 71 132q46 46 109 50q11 98 16 210q2 40 2 99q-29 -55 -69 -64q-21 -4 -33 7t-7 32q5 22 24.5 43.5t40.5 29.5q24 7 39 -13v6q3 1 7.5 5t7 3.5t4.5 -7.5v-1q4 -78 1 -141q-6 -112 -16 -208q33 -1 78 -17q43 37 100 41q11 98 16 210q2 40 2 99q-29 -55 -69 -64
q-21 -4 -33 7t-7 32q5 22 24.5 43.5t40.5 29.5q24 7 39 -13zM164 -293q77 17 114 301q-53 -5 -96 -45q-48 -48 -65 -124q-16 -71 6 -111q14 -27 41 -21zM-31 -318q77 17 114 301q-53 -5 -96 -45q-48 -48 -65 -124q-16 -71 6 -111q14 -27 41 -21zM283 342q-3 20 -15.5 23
t-25.5 -11q-12 -12 -26.5 -38t-4.5 -32q19 -11 40 11.5t32 46.5zM88 317q-3 20 -15.5 23t-25.5 -11q-12 -12 -26.5 -38t-4.5 -32q19 -11 40 11.5t32 46.5z" />
    <glyph glyph-name="h_h" unicode="hh" horiz-adv-x="409" 
d="M-178 597q83 -13 179 18q7 107 22 174q20 93 52 133q35 45 77.5 36.5t52.5 -64.5q6 -43 -3 -88q-14 -69 -64.5 -120.5t-120.5 -82.5q-7 -115 -1 -337v-41l1 -21q2 7 15 47l7 22t11.5 32t13.5 29t18 24.5t20 7.5q28 -2 24 -99q-2 -148 8 -149q7 -1 21 30t55 146
q-5 165 2 284q-64 -23 -145 -18q-28 4 -22 19q77 -13 168 16q7 107 21 164q19 88 48 125q34 42 73.5 34t48.5 -61q6 -36 -2 -82q-26 -124 -174 -191q-7 -108 -1 -316q1 -11 1 -38v-20q5 19 14 44q0 1 6.5 20t11 30t12.5 27t17 24t19 7q26 -2 22 -93q-2 -139 8 -140
q6 -1 19 28q15 31 54 143q11 -3 1 -34l-9.5 -26.5l-10.5 -30t-10.5 -28.5t-11.5 -27.5t-11 -21t-11.5 -15.5t-10.5 -4q-28 3 -23 157q1 12 1 21.5t-1 25t-4.5 23.5t-9.5 5q-5 -3 -10.5 -11.5t-11 -21.5t-9 -23t-8 -24.5t-4.5 -15.5q-20 -62 -32 -62q-11 0 -14 73l-7.5 -21.5
l-8.5 -24.5t-8.5 -23.5l-9 -24t-8.5 -21t-9.5 -18.5l-9 -14t-9 -9.5t-8.5 -2.5q-29 3 -24 167q1 13 1 23.5t-1 27t-4.5 24.5t-10.5 5q-16 -8 -46 -102q-22 -66 -34 -66q-4 0 -7.5 7.5t-4.5 19.5t-1.5 23l-1 22.5t-0.5 13.5q-6 207 1 330q-67 -24 -154 -19q-30 4 -24 20z
M18 623q141 64 168 187q9 35 3 78q-6 49 -41.5 53.5t-61.5 -33.5q-29 -39 -47 -123q-15 -72 -21 -162zM229 603q61 28 103 72.5t55 103.5q7 37 2 73q-5 46 -38 50.5t-58 -31.5q-28 -38 -44 -116q-13 -60 -20 -152z" />
    <glyph glyph-name="i_i" unicode="ii" horiz-adv-x="145" 
d="M20 352q-6 -102 4 -109q12 -4 45 42q1 20 3.5 51t2.5 33q14 -1 15 -6q1 -4 1 -11q-9 -148 -1 -153q5 -2 18 21t26 51t14 29q10 -3 0 -25l-13.5 -28t-16 -30t-18 -26.5t-14.5 -7.5q-19 5 -17 83q-33 -42 -51 -36q-8 3 -12.5 13.5t-5.5 29.5t-0.5 33t2.5 36.5t2 26.5
q14 -1 15 -6q1 -4 1 -11zM16 429q8 -2 8 -20q-1 -8 -3.5 -13.5t-6.5 -4.5q-10 0 -8 19t10 19zM87 429q8 -2 8 -20q-1 -8 -3.5 -13.5t-6.5 -4.5q-10 0 -8 19t10 19z" />
    <glyph glyph-name="j_j" unicode="jj" horiz-adv-x="172" 
d="M16 349q-2 -60 -4 -175t-5 -172q10 1 35 -2q19 7 34 10q3 70 5 193.5t4 168.5q2 0 6 0.5t5 0t3 -2t2.5 -4.5t0.5 -8q-2 -60 -4 -175t-5 -172q12 2 40 -3t45 -13q23 -10 14 -26q-53 30 -100 27v-3q-1 -3 -1 -6q0 -1 1 -1q23 -10 14 -26q-2 1 -8 4.5t-9 4.5
q-11 -103 -21 -145q-30 -131 -99 -146q-28 -6 -44 14q-19 -17 -42 -23q-47 -10 -59 48q-17 81 39 183q51 87 127 101q3 70 5 193.5t4 168.5q2 0 6 0.5t5 0t3 -2t2.5 -4.5t0.5 -8zM-35 -305q88 18 108 281q-16 6 -24 8q-25 -12 -47 -32q-6 -81 -20 -137q-16 -72 -45 -110
q10 -13 28 -10zM-121 -314q20 4 37 21l-6 19q-17 81 39 183q18 31 38 51q0 4 0.5 11.5t0.5 11.5q-67 -16 -110 -91q-55 -98 -37 -172q7 -40 38 -34zM-36 -99q-55 -98 -37 -172l2 -7q40 57 55 209zM93 443q9 0 9 -18q0 -8 -2.5 -14.5t-6.5 -5.5q-9 0 -9 19q2 19 9 19zM7 434
q9 0 9 -18q0 -8 -2.5 -14.5t-6.5 -5.5q-9 0 -9 19q2 19 9 19zM5 -24l15 12q-10 0 -14 -1v-1q0 -2 -0.5 -4.5t-0.5 -5.5z" />
    <glyph glyph-name="k_k" unicode="kk" horiz-adv-x="390" 
d="M-152 575q92 -17 156 4q15 232 64 314q20 33 46 51t49 17t42 -14t25 -42.5t-2 -68.5q-36 -160 -138 -234q-32 -24 -70 -36q0 -8 -1 -24t-1 -23q-8 -169 -3 -337q10 81 34.5 128t66.5 41q9 -1 9.5 -5t-4.5 -11q-55 -85 -45 -108q26 -91 40 -89q12 1 34 43q21 42 41 98
q0 89 5 194q0 12 2 42q-63 -16 -135 -6q-29 4 -20 20q92 -17 156 4q15 232 64 314q20 33 46 51t49 17t42 -14t25 -42.5t-2 -68.5q-36 -160 -138 -234q-32 -24 -70 -36q0 -8 -1 -24t-1 -23q-3 -58 -5 -177q1 -2 0 -5q0 -105 2 -155q10 81 34.5 128t66.5 41q9 -1 9.5 -5
t-4.5 -11q-54 -85 -45 -108q3 -12 17 -28t24 -15q7 2 14.5 10t15 22t14 27.5t13.5 31.5l11 29l9.5 26t5.5 16q8 1 10 -3t-2 -18q-1 -3 -6.5 -18.5t-10 -27l-11.5 -29t-14 -30.5t-15 -25.5t-16.5 -19.5t-16.5 -8q-19 -2 -35 15.5t-24 38.5q-10 26 41 112q-48 -10 -68 -147
q-11 -96 -7 -244q8 -108 8 -128q-17 -1 -17 -2q-19 209 -20 475q-42 -118 -74 -120q-8 -1 -16 6.5t-14.5 22t-11 25.5t-10 28t-6.5 18q-10 26 41 112q-48 -10 -68 -147q-11 -96 -7 -244q8 -108 8 -128q-17 -1 -17 -2q-10 108 -15.5 283t0.5 424q0 12 2 42q-63 -16 -135 -6
q-29 4 -20 20zM21 584q32 12 59 31q96 69 131 224q11 60 -10 87.5t-56.5 14.5t-62.5 -58q-44 -71 -61 -299zM216 538q32 12 59 31q96 69 131 224q11 60 -10 87.5t-56.5 14.5t-62.5 -58q-44 -71 -61 -299z" />
    <glyph glyph-name="l_l" unicode="ll" horiz-adv-x="341" 
d="M55 515q73 -19 121 -4q7 159 30.5 268t65.5 126q24 9 46 -2t32 -35q20 -40 14.5 -97.5t-25 -112t-59.5 -100t-89 -60.5q-2 -44 -2 -133q0 -118 8 -250t28 -166q9 -7 20 8t23 51t22.5 71t22 86l17 76l12.5 59q10 2 8 -16q-1 -3 -2 -10q-1 -3 -1 -5q-44 -222 -76 -292
q-22 -48 -43 -47q-15 1 -26 36t-16.5 91t-8.5 104t-4 98.5t-1 51.5q-38 -156 -75 -220q-23 -37 -42 -37q-24 1 -38 46.5t-17 113.5t-3 134t2 123t1 65q-37 -9 -100 -1q-24 4 -20 23q73 -19 121 -4q7 159 30.5 268t65.5 126q24 9 46 -2t32 -35q20 -40 14.5 -97.5t-25 -112
t-59.5 -100t-89 -60.5q0 -6 -1 -65.5t-1 -121.5t3 -129t13 -110t27 -43q11 0 25 24q25 42 53.5 131t36.5 142q0 82 1 124q-37 -9 -98 -1q-24 4 -20 23zM192 516q45 16 81 58t52.5 92t21.5 103.5t-12 91.5q-8 19 -23.5 27.5t-33.5 1.5q-69 -28 -86 -374zM17 559q45 16 81 58
t52.5 92t21.5 103.5t-12 91.5q-8 19 -23.5 27.5t-33.5 1.5q-69 -28 -86 -374z" />
    <glyph glyph-name="m_m" unicode="mm" horiz-adv-x="521" 
d="M20 301q-2 -19 -2 -55q2 7 7 27t8.5 30.5l8.5 25t11 22.5q7 9 16 6.5t12 -10.5q8 -19 10 -48.5t0.5 -54.5t0.5 -50q10 18 39 90q22 52 29 67q14 23 27 17q13 -8 9 -113q-4 -116 6 -127q27 16 56 160h5h5.5t4 -1t3.5 -3.5t1 -6.5v-34q25 76 35 88q7 7 16 5.5t12 -8.5
q8 -16 10 -41t0.5 -46t0.5 -42q13 21 34.5 66t34.5 66q14 20 27 14t9 -95q-4 -105 6 -106q22 -2 60 156q12 0 7 -18q-1 -3 -8.5 -31.5t-14 -46.5t-16 -41t-20 -31t-20.5 1q-15 15 -11 117q4 74 0 81q-8 -10 -41 -78t-48 -74q-11 -5 -15 16q-2 10 -2 54q0 68 -9 73
q-12 -18 -23 -54.5t-13 -41.5q-8 -21 -14 -27q-4 -5 -12 -2q-4 6 -6 34q-16 -61 -33 -96t-34 -18q-14 16 -10 138q4 88 0 96q-9 -14 -26 -59t-33.5 -82t-28.5 -40q-11 -3 -15 12q-2 22 -2 71q0 71 -9 87q-12 -21 -23 -65t-13 -49q-8 -25 -14 -32q-4 -7 -12 -2q-12 27 -2 123
h5q6 1 8 0.5t4 -4t2 -10.5z" />
    <glyph glyph-name="n_n" unicode="nn" horiz-adv-x="320" 
d="M167 287q0 -5 -0.5 -16.5t-0.5 -18.5q39 109 65 113q5 1 8.5 -4t5.5 -17q4 -31 0.5 -80t-2.5 -95t11 -46q14 1 68 176q10 -2 4 -22q-4 -11 -12.5 -39l-14.5 -46.5t-14 -39.5t-15.5 -32t-14.5 -11q-27 1 -29 57q-1 31 1.5 88.5t1.5 87.5q-16 -15 -40.5 -77.5t-25.5 -77.5
q-1 -8 -10 -8q-10 0 -5 85q-34 -110 -50 -122q-4 -3 -7 -3q-23 1 -25 50q-1 26 2 75t2 75q-13 -13 -34 -66.5t-22 -66.5q-1 -6 -11 -6q-5 0 -5 24.5t1 51.5t0 29q18 0 18 -13q0 -4 -0.5 -14t-0.5 -16q35 93 56 96q6 1 9 -4t5 -15q2 -14 1 -36t-2.5 -48.5t-2.5 -49t1 -38
t8 -15.5q13 1 57 148q19 5 19 -13z" />
    <glyph glyph-name="o_o" unicode="oo" horiz-adv-x="282" 
d="M219 356q-34 13 -54 -30q-20 -40 -6 -70q7 -17 24 -18q15 -1 24 15t12 35q-26 6 -32 24.5t15 34.5q9 7 17 7q22 -2 18 -54q8 0 26 0.5t27 -0.5q-4 -13 -20 -13h-34q-7 -28 -19 -47t-34 -18q-40 0 -46 48q-10 -7 -25 -10.5t-22 -1.5q-4 -23 -9.5 -39.5t-16.5 -31
t-26 -14.5q-19 0 -30 16.5t-13 40t0.5 46t7.5 38.5q16 48 50 56q22 8 20 -21q-30 9 -47 -31t-13 -83.5t25 -43.5q26 0 35 68q-25 8 -30.5 32.5t14.5 45.5q9 9 16 9q22 -2 19 -74q23 -4 45 18q2 31 18 54t43 28q15 2 19.5 -3t1.5 -13zM75 273q2 47 -4 51q-17 -18 -14 -32.5
t18 -18.5zM220 301q2 34 -3 36q-18 -13 -15 -23t18 -13z" />
    <glyph glyph-name="p_p" unicode="pp" horiz-adv-x="424" 
d="M17 344q0 -14 -1 -45.5t-1 -48.5q16 77 60 106q20 15 36.5 8.5t27 -21.5t13.5 -34q5 -28 -1 -58q-14 -74 -63 -104q-20 -13 -43.5 0t-29.5 35q-2 -125 -5 -184q61 2 99 -23q41 44 97 54q4 125 6 291q12 2 14.5 -2t2.5 -18q0 -6 -0.5 -16t-0.5 -16q16 73 60 100
q32 19 50.5 3t25 -46t1.5 -56q-14 -68 -63 -97q-21 -12 -44.5 -0.5t-29.5 33.5q-2 -117 -5 -173q41 2 88 -17q22 -9 13 -23q-53 26 -103 23q-18 -277 -121 -298q-32 -7 -47.5 18t-13.5 56.5t4 51.5q11 50 36 91q9 14 20 29q-42 21 -91 17q-18 -296 -120 -318q-24 -6 -39 8.5
t-19 39t-3.5 47t4.5 39.5q11 53 36 97q50 88 126 102q5 116 7 363h5.5h4.5t3 -0.5t2.5 -2t1 -4.5t0.5 -7zM-116 -321q92 19 108 299q-67 -17 -109 -93q-26 -44 -35 -92q-3 -13 -4 -31.5t0.5 -39.5t11.5 -33.5t28 -9.5zM96 -267q93 18 109 280q-67 -15 -110 -87
q-26 -41 -35 -86q-3 -12 -4 -29t0.5 -37t11.5 -32t28 -9zM24 213v-1q22 -78 64 -43q31 26 45 77l2 8q4 26 1 53q-3 23 -18 35t-34 1q-23 -17 -45 -73q-18 -50 -15 -57zM237 234v-1q-1 -10 11 -30q30 -49 73 10q23 32 28 59q1 17 0.5 40.5t-14.5 39t-38 4.5q-22 -15 -45 -69
q-18 -46 -15 -53z" />
    <glyph glyph-name="q_q" unicode="qq" horiz-adv-x="463" 
d="M330 314l28.5 29.5t28.5 28.5q1 0 4 -3t5 -6t1 -3q-33 -31 -58 -110t-36 -173q42 1 74 -37q24 -31 37 -79q11 -47 8 -91q-3 -46 -19.5 -74t-45.5 -26q-57 3 -71 110q-9 53 -4 141q2 26 4 38q-37 -10 -73 -38q-2 1 -3.5 4t0 8t8.5 10q39 27 70 33q16 139 57 232
l-18.5 -16.5t-24.5 -18t-28.5 -15t-26.5 -4.5t-22 11q-19 27 -8 59t37 46q30 15 51 -5t25 -51zM301 61l-3 -41q-5 -78 3 -138q18 -95 57 -97q21 -1 33.5 23t14.5 63q3 38 -7 86q-14 47 -35 72q-24 32 -63 32zM316 304q-10 47 -28 55q-25 10 -43 -27t-6 -57q15 -23 77 29z
M107 261l30.5 31.5t30.5 30.5q2 0 5 -3t5 -6t1 -3q-35 -34 -62 -119.5t-39 -186.5q45 1 80 -40q26 -33 39 -85q12 -49 9 -98t-21 -79.5t-49 -28.5q-60 4 -77 119q-9 57 -4 152q2 28 4 41q-39 -10 -78 -41q-3 1 -4.5 4.5t0.5 9t9 10.5q43 29 75 35q18 150 62 250
q-95 -87 -129 -46q-21 29 -9 63.5t40 49.5q32 16 54.5 -5t27.5 -55zM76 -12q-2 -14 -4 -44q-5 -87 4 -149q18 -102 61 -104q23 -1 36.5 24.5t15.5 67.5q3 44 -8 93q-14 49 -37 78q-28 34 -68 34zM92 250q-11 51 -31 59q-26 11 -46 -29t-6 -61q16 -24 83 31z" />
    <glyph glyph-name="r_r" unicode="rr" horiz-adv-x="314" 
d="M197 366q20 2 33 5q14 4 19 -12q4 -19 -11 -92q-23 -115 -9 -122q15 -6 88 155q5 0 6.5 -3t0 -9t-3.5 -11l-6 -15q0 -1 -6 -14l-11 -23.5t-13.5 -27t-16 -28t-16 -22.5t-16.5 -15t-14 -1q-25 13 0 139q15 72 11 86q-28 -6 -40 -5q-2 -14 -24.5 -75.5t-53.5 -119
t-48 -44.5q-25 19 0 154q15 81 11 96q-52 -12 -69 2q-10 13 -6.5 39t21.5 48t36 13q8 -9 -17 -91q12 1 33 6q14 4 19 -13q4 -18 -11 -103q-23 -126 -8 -135q10 -5 49 82.5t53 141.5q-9 2 -13 6q-9 12 -5.5 35t20.5 42.5t35 11.5q8 -8 -17 -81zM25 374q22 71 22 77
q-15 -8 -27 -44q-11 -33 5 -33zM181 367q21 65 21 69q-15 -7 -26 -40q-11 -29 5 -29z" />
    <glyph glyph-name="s_s" unicode="ss" horiz-adv-x="394" 
d="M249 300q32 30 11 45q-17 12 -38 1q-23 -13 -12 -41q11 -29 48 -69t44 -50q17 22 50.5 60l47.5 55q5 -2 4 -11t-8 -16q-56 -63 -84 -104q23 -37 21 -65q-1 -19 -14 -28q-13 -10 -27 -1q-17 9 -17 35q0 31 18 59q-11 16 -37 43t-36 41l-45.5 -49.5l-36.5 -39.5t-19 -23
q23 -37 21 -65q-1 -19 -14 -28q-13 -10 -27 -1q-17 9 -17 35q0 30 18 59q-6 9 -46.5 54.5t-52.5 74.5q-12 34 8 53t45.5 15t33.5 -23t-8 -45q-14 -16 -24 1q32 30 11 45q-17 12 -38 1q-23 -13 -12 -41q11 -29 48 -69t44 -50q16 21 53.5 59t48.5 51q-38 58 -9 84
q20 19 45.5 15t33.5 -23t-8 -45q-14 -16 -24 1zM316 106q2 20 -14 47q-10 -20 -10 -41q1 -17 8 -22q4 -3 9 0q6 6 7 16zM123 78q2 20 -14 47q-10 -20 -10 -41q1 -17 8 -22q5 -3 9 0q6 6 7 16z" />
    <glyph glyph-name="t_t" unicode="tt" horiz-adv-x="262" 
d="M242 661q-28 -16 -86 -31q0 -37 -3 -123t-4 -153.5t-0.5 -142.5t6.5 -125.5t18 -66.5q7 -8 11 -5q28 22 80 286q9 -1 10 -6t-3 -23q-37 -192 -55 -235q-11 -27 -22 -35q-19 -14 -35 9q-29 38 -29 215l-16 -79t-15 -64t-18 -54.5t-19 -26.5q-19 -14 -35 9q-13 18 -20 65
t-8 118t0 132.5t4 147.5t4 125q-55 -9 -63 -9q-1 5 -1.5 8t2.5 4.5t4.5 2t5 1t4.5 0.5l49 9q2 66 4 99q8 171 36 217q6 10 13.5 14.5t13.5 1t6 -15.5q-43 -11 -52 -213l-5 -99q59 9 116 25q2 46 4 70l2 27q1 26 2.5 39l4.5 40t6 44.5t8.5 36.5t12.5 30q6 10 13.5 14.5
t13.5 1t6 -15.5q-40 -10 -52 -213l-4 -70q79 22 85 37q10 -3 9 -11t-9 -12zM24 602q-1 -17 -2.5 -65t-2.5 -76t-2 -77.5t-1.5 -82t0 -75.5t2 -72.5t4.5 -59t8 -48t11 -27.5q7 -8 11 -5q29 23 78 278q1 64 5 173.5t5 160.5q-48 -12 -116 -24z" />
    <glyph glyph-name="u_u" unicode="uu" horiz-adv-x="346" 
d="M26 347q-5 -45 -5 -78q0 -42 8 -44q34 0 66 134q4 11 12 8q7 -1 5 -39q-11 -202 5 -202q6 -1 19 37t36 118q0 44 7 86q10 3 16 -1.5t4 -18.5q-5 -45 -5 -78q0 -42 8 -44q34 0 66 134q4 11 12 8q7 -1 5 -39q-8 -142 7 -147q24 -5 58 119q12 2 6 -19q-12 -50 -30 -85
t-35 -32q-11 2 -16.5 8t-9 33.5t-1.5 78.5l-7.5 -20.5t-9 -20.5t-13 -20.5t-16.5 -11.5t-21 -2q-18 4 -23 36q-7 -28 -13 -47.5t-14 -42.5t-16 -34.5t-15 -11.5q-33 1 -25 175l-7.5 -20.5t-9 -20.5t-13 -20.5t-16.5 -11.5t-21 -2q-23 7 -25 60q0 50 7 98q10 3 16 -1.5
t4 -18.5z" />
    <glyph glyph-name="v_v" unicode="vv" horiz-adv-x="358" 
d="M203 344q-16 -121 -5 -144q3 -3 18.5 14.5t20.5 27.5q21 33 41 85q22 59 22 107q-39 6 -60 33q-16 -15 -49 -26.5t-53 -11.5q0 -48 -23 -113q-19 -51 -42 -87q-26 -40 -43 -49q-18 -9 -27 7q-16 35 -1 154q0 7 1.5 17t1.5 12q14 -1 17.5 -7t1.5 -24q-16 -121 -5 -144
q3 -3 18.5 14.5t20.5 27.5q21 33 41 85q22 59 22 107q-57 10 -74 60q-9 20 -1.5 39t28.5 13q59 -22 64 -96q41 2 94 34q-18 30 -10.5 52t31.5 15q59 -22 64 -96q40 2 93 35q6 -10 4 -14t-17 -11q-47 -26 -80 -26q0 -48 -23 -113q-19 -51 -42 -87q-26 -40 -43 -49
q-18 -9 -27 7q-16 35 -1 154q1 6 2 16t1 13q14 -1 17.5 -7t1.5 -24zM300 451q-2 29 -20.5 54.5t-37.5 24.5q-4 -1 -3.5 -10.5t4.5 -19.5q14 -41 57 -49zM121 446q-2 29 -20.5 54.5t-37.5 24.5q-4 -1 -3.5 -10.5t4.5 -19.5q14 -41 57 -49z" />
    <glyph glyph-name="w_w" unicode="ww" horiz-adv-x="590" 
d="M317 336q0 -1 -3 -25.5t-3.5 -34t-1 -28.5t2 -32t7.5 -23q20 2 52 120q8 31 16 31q12 1 12 -29q0 -63 9.5 -181.5t21.5 -116.5q31 5 66 173q31 153 31 231q-34 8 -57 37.5t-12 60.5q4 15 18 22q24 10 41 -6t21 -41q4 -19 6 -59q69 3 112 37q9 -15 -9 -25
q-45 -27 -103 -29q-1 -81 -32 -232q-39 -181 -81 -189q-9 -2 -16.5 9t-12.5 32.5t-8.5 45t-6 55t-3.5 55t-2 51.5t-2 37q-30 -104 -61 -106q-26 0 -29 56q-1 48 6 106q2 28 2 33q23 0 19 -35zM527 438q-1 27 -6 54q-3 16 -13.5 28.5t-23.5 5.5q-8 -6 -10 -12
q-7 -23 11.5 -46t41.5 -30zM22 336q0 -1 -3 -25.5t-3.5 -34t-1 -28.5t2 -32t7.5 -23q20 2 52 120q8 31 16 31q6 0 8 -5t2 -15v-9q0 -191 28 -195q33 11 58.5 81.5t36.5 128.5q7 51 7 91q-34 8 -57 37.5t-12 60.5q4 15 18 22q24 10 41 -6t21 -41q4 -19 6 -59q69 3 112 37
q9 -15 -9 -25q-45 -27 -103 -29q0 -43 -8 -91q-11 -66 -40 -141.5t-68 -81.5q-9 -2 -16.5 2.5t-12 16.5t-8 24t-5.5 33.5t-2.5 34t-2 36t-1.5 31.5q-30 -104 -61 -106q-26 0 -29 56q-1 48 6 106q2 28 2 33q23 0 19 -35zM232 438q-2 27 -6 54q-3 16 -13.5 28.5t-23.5 5.5
q-8 -6 -10 -12q-7 -23 11.5 -46t41.5 -30z" />
    <glyph glyph-name="x_x" unicode="xx" horiz-adv-x="488" 
d="M225 174q60 27 99 74q-9 15 -29.5 52.5t-29.5 52.5q-15 -54 -46.5 -115.5t-52.5 -66.5q-22 -7 -37 6t-40 56q-36 -40 -82 -65q-19 -10 -26 6q60 27 99 74q-62 110 -69 119q8 6 13 4.5t13 -13.5q5 -8 23.5 -41.5l30.5 -53.5q41 62 47.5 138t-25.5 115q-10 11 -20.5 3.5
t-10.5 -20.5q0 -9 1 -14q-5 -3 -11.5 -1t-6.5 15q0 26 20.5 36.5t39.5 -6.5q37 -41 31 -132q-7 -86 -56 -150q24 -41 36.5 -53.5t26.5 -6.5q20 8 51.5 77t41.5 101q10 17 25 -7q5 -8 23.5 -41.5l30.5 -53.5q47 66 50 148q-32 7 -54 32t-22 56q0 26 20.5 36.5t39.5 -6.5
q28 -28 33 -103q38 -3 83 24q1 -7 1 -11.5t-4.5 -8.5t-15.5 -9q-35 -13 -65 -12q-4 -92 -57 -162q26 -44 47 -69t35 -19q9 3 17.5 15.5t16 31t12.5 34t10.5 35.5t7.5 25q5 0 7 -4.5t1 -10.5t-3 -13q-34 -121 -66 -129q-38 -8 -96 90q-36 -40 -82 -65q-19 -10 -26 6zM385 428
q-6 69 -28 88q-12 10 -21.5 3t-9.5 -20q0 -25 17.5 -45t41.5 -26z" />
    <glyph glyph-name="y_y" unicode="yy" horiz-adv-x="366" 
d="M25 352q0 -17 -4 -53t-2 -56q15 12 45 81q25 56 37 56q5 0 8 -5t4 -12.5t1 -16t-0.5 -15t0.5 -10.5q1 -33 1 -287q45 10 105 3q15 -1 19.5 -5.5t1.5 -13.5q-69 13 -128 0q-19 -299 -137 -294q-39 1 -51 52q-6 32 3 73q7 39 32 83q50 75 138 99q3 148 0 289l-2 33
q-1 -4 -3.5 -9.5t-6.5 -13l-7 -13.5l-6.5 -13.5l-7 -14.5l-7 -13.5t-7.5 -13.5l-7 -12t-7.5 -11l-7 -8t-7.5 -6t-7 -3q-12 -1 -15 14q-5 29 -4 46t4.5 47t3.5 46q13 2 17.5 -3t3.5 -20zM-24 -260q102 -3 119 273q-76 -22 -120 -91q-25 -37 -31 -75q-8 -39 -2 -67
q8 -40 34 -40zM206 344q0 -18 -4 -56t-2 -59q12 10 46 86q26 59 37 59q5 0 8 -5.5t4 -13.5t1 -17t-0.5 -16t0.5 -11q1 -35 1 -304q45 11 106 4q15 -1 19.5 -6t1.5 -15q-70 14 -129 0q-19 -316 -138 -311q-40 1 -52 55q-6 34 3 78q8 44 33 87q50 79 139 105q3 157 0 306
l-2 35q-1 -4 -4 -9.5t-6.5 -14t-6.5 -14.5q-39 -82 -55 -95q-5 -4 -10 -5q-12 -3 -15 14q-8 10 -2 74.5t6 73.5q13 1 17.5 -4t3.5 -21zM157 -304q103 -3 120 289q-77 -23 -121 -96q-24 -39 -32 -80t-2 -71q8 -42 35 -42z" />
    <glyph glyph-name="z_z" unicode="&#x7a;&#x7a;" horiz-adv-x="440" 
d="M-3 311q3 29 34 51q14 8 29.5 13t31 1t19.5 -22q2 -16 -7 -33t-39 -52q18 4 33 3t26 -7t20 -15.5t15 -22t11 -26.5t7 -29.5l4 -31t2.5 -30t1 -27.5t-0.5 -23v-10q25 3 59 -2q5 -1 8.5 -2.5t5 -2.5t2.5 -3.5t1 -3.5v-3.5v-3.5q-42 11 -77 5q-7 -63 -29 -130
q-20 -61 -48.5 -101t-59.5 -48q-33 -6 -48 16q-20 26 -8 82q12 57 48 106q51 69 127 88q2 20 1.5 43.5t-3.5 54t-11.5 54t-23 41.5t-36.5 17t-54 -18q-9 -4 -14 -1q-5 6 2 14q75 64 67 100q-5 21 -36 6q-33 -15 -42 -43q-4 -12 1 -23q-7 -3 -13.5 1t-5.5 18zM137 -93
q19 55 27 123q-68 -19 -111 -80q-36 -48 -46 -100q-11 -50 6 -71q8 -14 28 -8q54 11 96 136zM217 301q3 33 34 57q9 7 20.5 11.5t24 6t22 -5t11.5 -21.5q2 -19 -7 -38t-38 -58q21 6 39 2.5t29.5 -14.5t20.5 -27.5t14 -37t8.5 -42t4 -43t1.5 -40t0 -33.5v-11q25 3 59 -2
q6 -1 9.5 -3t5 -5t2 -4.5t-0.5 -5.5v-4q-39 13 -76 6q-8 -77 -28 -147q-45 -150 -107 -167q-31 -7 -47 17q-20 30 -8 93q12 64 47 119q52 79 126 99q8 109 -17 181q-32 91 -109 36q-7 -6 -13 -2q-5 7 2 16q74 74 66 113q-5 23 -35 8q-31 -17 -41 -48q-5 -15 0 -28
q-8 -3 -14 2t-5 20zM355 -154q19 62 27 138q-67 -20 -110 -90q-35 -55 -45 -112q-11 -56 6 -81q9 -15 27 -9q54 14 95 154z" />
    <glyph glyph-name="a_r" unicode="ar" horiz-adv-x="332" 
d="M214 372q8 1 35 7q14 4 19 -13q4 -18 -11 -103q-23 -128 -9 -136q14 -7 90 173q5 0 6.5 -3.5t0 -9.5t-4 -12.5l-6.5 -16.5q-66 -163 -94 -146q-25 14 0 154q15 81 11 96q-28 -7 -40 -6q-1 -3 -17.5 -56.5t-32 -91t-27.5 -39.5q-35 0 -40 108q-38 -71 -78 -71
q-37 0 -32 44.5t40 77.5q23 22 46 19q13 -2 15 -10.5t-5 -15.5q-25 27 -55 -18q-26 -39 -22 -71q2 -16 14 -16q15 2 33 19.5t29 42.5q18 40 18 73q4 1 7 1t5.5 -5.5t2.5 -16.5q0 -141 22 -144q9 -1 61 171q-9 3 -13 7q-10 13 -6.5 39t21.5 48t36 13q7 -8 -19 -92zM199 373
q22 71 22 78q-15 -8 -27 -45q-11 -33 5 -33z" />
    <glyph glyph-name="b_r" unicode="br" horiz-adv-x="303" 
d="M187 373q12 1 33 6q14 4 19 -13q4 -18 -11 -103q-23 -128 -9 -136q14 -7 90 173q5 0 6.5 -3.5t0 -9.5t-4 -12.5l-6.5 -16.5q-66 -163 -94 -146q-25 14 0 154q15 81 11 96q-24 -6 -40 -6q-13 -37 -32 -60t-34 -28.5t-25 -0.5q-7 -50 -24 -60q-17 -9 -31 1t-22.5 33.5
t-12 39.5t-6.5 32q-11 72 -11 161q0 63 4 114q-16 -6 -36 -9q-62 -14 -137 -8q-6 1 -9.5 2t-5 3.5t-2.5 4.5t-1 5v4q80 -10 151 5q20 4 41 11q4 60 13.5 118t25 113.5t40.5 90t55 34.5q47 0 62 -41.5t6 -88.5q-9 -54 -38.5 -109.5t-72.5 -89.5q-29 -24 -75 -39
q-3 -41 -3 -120q0 -95 10 -158q1 -10 4 -24.5t9 -35t15 -31.5t19 -6q12 8 16 57q-8 5 -19.5 22t-16.5 32q-8 23 7.5 31t30.5 -8q16 -17 16 -70q8 -5 21 2t28 26.5t23 46.5q-7 2 -12 6q-10 13 -6.5 39t21.5 48t36 13q8 -9 -17 -91zM6 612q38 14 63 34q40 32 68.5 84.5
t37.5 104.5q13 109 -51 109q-45 -2 -77 -106.5t-41 -225.5zM170 374q22 71 22 77q-15 -8 -27 -44q-11 -33 5 -33zM77 297q4 34 -15 49q-6 5 -8 0q-3 -8 5.5 -25t17.5 -24z" />
    <glyph glyph-name="c_r" unicode="cr" horiz-adv-x="268" 
d="M152 373q12 1 33 6q14 4 19 -13q4 -18 -11 -103q-23 -128 -9 -136q14 -7 90 173q5 0 6.5 -3.5t0 -9.5t-4 -12.5l-6.5 -16.5q-66 -163 -94 -146q-25 14 0 154q15 81 11 96q-25 -6 -40 -6q-26 -59 -71 -95t-67 -22q-24 19 -8 66t42 58q20 8 31 -4q8 -9 -3 -20q-11 12 -22 9
q-17 -7 -30.5 -46.5t0.5 -51.5q8 -6 29.5 7t45.5 41.5t35 59.5q-6 1 -11 6q-10 13 -6.5 39t21.5 48t36 13q8 -9 -17 -91zM135 374q22 71 22 77q-15 -8 -27 -44q-11 -33 5 -33z" />
    <glyph glyph-name="d_r" unicode="dr" horiz-adv-x="427" 
d="M311 373q12 1 33 6q14 4 19 -13q4 -18 -11 -103q-23 -128 -9 -136q14 -7 90 173q5 0 6.5 -3.5t0 -9.5t-4 -12.5l-6.5 -16.5q-66 -163 -94 -146q-25 14 0 154q15 81 11 96q-25 -6 -40 -6l-34 -147q-53 -203 -90 -207q-17 -3 -31.5 29t-23.5 78.5t-14 85.5t-6 60
q-57 -115 -106 -87q-24 16 -19 67q4 40 25 75t54 41q21 4 41 -16q1 0 1 -1q-3 126 6 229q-52 -7 -110 -1q-17 1 -24 5.5t-5 13.5q75 -10 142 -1q40 292 135 366q59 40 103 20q55 -26 39 -133q-15 -93 -76 -169q-79 -82 -186 -99q-18 -177 1 -349q6 -64 21.5 -127.5
t30.5 -67.5q20 -5 57.5 124.5t53.5 211.5q-8 1 -14 7q-10 13 -8 39t18 48t34 13q8 -9 -10 -91zM129 582q119 29 171 93q56 69 73 160q13 95 -31 116q-34 19 -85 -19q-88 -69 -128 -350zM103 278q-2 30 -14 46q-29 29 -61 -20q-28 -45 -26 -93q1 -24 12 -32q16 -12 49 32
t40 67zM294 374q15 56 15 77q-8 -4 -16.5 -23.5t-9 -35.5t10.5 -18z" />
    <glyph glyph-name="e_r" unicode="er" horiz-adv-x="273" 
d="M156 372q6 1 34 7q14 4 19 -13q4 -18 -11 -103q-23 -128 -9 -136q14 -7 90 173q5 0 6.5 -3.5t0 -9.5t-4 -12.5l-6.5 -16.5q-66 -163 -94 -146q-25 14 0 154q15 81 11 96q-24 -6 -41 -6q-1 -2 -11.5 -32.5t-20 -52.5t-22.5 -48t-27.5 -36t-27.5 -1q-30 22 -39.5 61.5
t1.5 75t34 49.5q15 7 23.5 -2t11.5 -24q5 -31 -8.5 -62.5t-39.5 -48.5q9 -25 26 -37q9 -7 22 10t27 52t21 54t15 43q-9 3 -13 7q-10 13 -6.5 39t21.5 48t36 13q8 -9 -18 -92zM21 253q19 13 28.5 38.5t6.5 51.5q-4 25 -21 2q-25 -39 -14 -92zM140 373q22 71 22 78
q-8 -4 -18 -23.5t-12 -35.5t8 -19z" />
    <glyph glyph-name="f_r" unicode="fr" horiz-adv-x="376" 
d="M260 373q26 83 17 91q-18 11 -36 -11.5t-21.5 -49t6.5 -39.5q4 -4 12 -6q-8 -29 -27 -51.5t-43 -19.5q2 -12 8 -14q4 -1 11 1q46 12 66 82q17 0 42 6q4 -15 -11 -96q-25 -140 0 -154q28 -17 94 146l6.5 16.5t4 12.5t0 9.5t-6.5 3.5q-76 -180 -90 -173q-14 8 9 136
q15 85 11 103q-5 17 -19 13q-21 -5 -33 -6zM243 374q-17 0 -5 40q12 35 24 35q4 -1 -19 -75zM5 477q-76 -9 -152 -15q-2 10 4 13t22 5q57 5 128 14q20 182 69.5 299t127.5 130q46 6 68.5 -31.5t10.5 -77.5q-15 -51 -59 -68q-28 -12 -30 9q29 4 47.5 21.5t25.5 42.5
q9 36 -8 64.5t-52 22.5q-71 -11 -116.5 -122.5t-64.5 -286.5q124 14 187 24q3 -9 -2.5 -14t-11 -6t-14.5 -2l-71 -9.5t-90 -10.5q-17 -166 -6 -352q3 -71 12 -135q81 -4 133 -58q36 -39 50.5 -91.5t3.5 -101.5q-13 -67 -59 -69q-70 -3 -114 157q-16 58 -29 148
q-60 -2 -132 -27q-4 18 18 25q63 18 112 18q-10 83 -12 133q-11 175 4 351zM32 -24q13 -89 29 -142q20 -71 43.5 -108.5t52.5 -36.5q30 0 44 55q17 108 -50 179q-46 47 -119 53z" />
    <glyph glyph-name="g_r" unicode="gr" horiz-adv-x="352" 
d="M236 373q12 1 33 6q14 4 19 -13q4 -18 -11 -103q-23 -128 -9 -136q14 -7 90 173q5 0 6.5 -3.5t0 -9.5t-4 -12.5l-6.5 -16.5q-66 -163 -94 -146q-25 14 0 154q15 81 11 96q-24 -6 -41 -6q-22 -70 -65 -79q-17 -4 -19 11v2q23 -3 41.5 18t27.5 49q-30 6 -20 49q9 39 35 55
q12 8 23 3q8 -9 -17 -91zM219 374q22 71 22 77q-15 -8 -27 -44q-11 -33 5 -33zM98 344v6q3 1 7.5 5t7 3.5t4.5 -7.5v-1q4 -78 1 -141q-6 -112 -16 -208q33 -1 72 -15q18 -7 21.5 -11.5t-0.5 -16.5q-52 24 -95 26q-40 -300 -127 -318q-40 -10 -60 29q-24 45 -8 123
q19 81 71 132q46 46 109 50q11 98 16 210q2 40 2 99q-29 -55 -69 -64q-21 -4 -33 7t-7 32q5 22 24.5 43.5t40.5 29.5q24 7 39 -13zM-31 -318q77 17 114 301q-53 -5 -96 -45q-48 -48 -65 -124q-16 -71 6 -111q14 -27 41 -21zM88 317q-3 20 -15.5 23t-25.5 -11
q-12 -12 -26.5 -38t-4.5 -32q19 -11 40 11.5t32 46.5z" />
    <glyph glyph-name="h_r" unicode="hr" horiz-adv-x="366" 
d="M250 373q12 1 33 6q14 4 19 -13q4 -18 -11 -103q-23 -128 -9 -136q14 -7 90 173q5 0 6.5 -3.5t0 -9.5t-4 -12.5l-6.5 -16.5q-66 -163 -94 -146q-25 14 0 154q15 81 11 96q-31 -7 -41 -6q-19 -69 -56 -163t-55 -92q-29 3 -24 167q1 13 1 23.5t-1 27t-4.5 24.5t-10.5 5
q-16 -8 -46 -102q-22 -66 -34 -66q-4 0 -7.5 7.5t-4.5 19.5t-1.5 23l-1 22.5t-0.5 13.5q-6 207 1 330q-67 -24 -154 -19q-30 4 -24 20q83 -13 179 18q7 107 22 174q20 93 52 133q35 45 77.5 36.5t52.5 -64.5q6 -43 -3 -88q-14 -69 -64.5 -120.5t-120.5 -82.5
q-7 -115 -1 -337v-41l1 -21q2 7 15 47l7 22t11.5 32t13.5 29t18 24.5t20 7.5q28 -2 24 -99q-2 -148 8 -149q6 -1 24 40t38 96t34 103q-6 1 -14 7q-10 13 -6.5 39t21.5 48t36 13q8 -9 -17 -91zM18 623q141 64 168 187q9 35 3 78q-6 49 -41.5 53.5t-61.5 -33.5
q-29 -39 -47 -123q-15 -72 -21 -162zM235 374q20 65 20 77q-15 -8 -26 -44q-10 -33 6 -33z" />
    <glyph glyph-name="i_r" unicode="ir" horiz-adv-x="229" 
d="M113 373q12 1 33 6q14 4 19 -13q4 -18 -11 -103q-23 -128 -9 -136q14 -7 90 173q5 0 6.5 -3.5t0 -9.5t-4 -12.5l-6.5 -16.5q-66 -163 -94 -146q-25 14 0 154q15 81 11 96q-26 -6 -41 -6q-33 -67 -54.5 -98.5t-34.5 -27.5q-8 3 -12.5 13.5t-5.5 29.5t-0.5 33t2.5 36.5
t2 26.5q14 -1 15 -6q1 -4 1 -11q-6 -100 4 -106q7 -3 31 38.5t38 72.5q-9 2 -14 7q-10 13 -6.5 39t21.5 48t36 13q8 -9 -17 -91zM99 373q19 61 19 78q-15 -8 -26 -45q-9 -33 7 -33zM16 429q8 -2 8 -20q-1 -8 -3.5 -13.5t-6.5 -4.5q-10 0 -8 19t10 19z" />
    <glyph glyph-name="j_r" unicode="jr" horiz-adv-x="244" 
d="M128 373q12 1 33 6q14 4 19 -13q4 -18 -11 -103q-23 -128 -9 -136q14 -7 90 173q5 0 6.5 -3.5t0 -9.5t-4 -12.5l-6.5 -16.5q-66 -163 -94 -146q-25 14 0 154q15 81 11 96q-25 -6 -42 -6q-22 -69 -65 -78q-17 -4 -19 11v2q23 -3 41.5 18.5t26.5 48.5q-29 5 -20 47
q9 39 35 55q13 9 25 4q8 -9 -17 -91zM111 374q22 71 22 77q-15 -8 -27 -44q-11 -33 5 -33zM16 349q-2 -60 -4 -175t-5 -172q15 2 43 -2.5t42 -12.5t16.5 -13.5t-2.5 -13.5q-52 29 -100 26q0 -1 -1.5 -13.5t-3.5 -31.5t-4.5 -40.5t-6.5 -45t-8 -40.5q-30 -131 -99 -146
q-47 -10 -59 48q-17 81 39 183q51 87 127 101q3 70 5 193.5t4 168.5q2 0 6 0.5t5 0t3 -2t2.5 -4.5t0.5 -8zM-121 -314q91 18 109 297q-67 -16 -110 -91q-55 -98 -37 -172q7 -40 38 -34zM7 434q9 0 9 -18q0 -8 -2.5 -14.5t-6.5 -5.5q-9 0 -9 19q2 19 9 19z" />
    <glyph glyph-name="k_r" unicode="kr" horiz-adv-x="353" 
d="M236 373q14 1 34 6q14 4 19 -13q4 -18 -11 -103q-23 -128 -9 -136q14 -7 90 173q5 0 6.5 -3.5t0 -9.5t-4 -12.5l-6.5 -16.5q-66 -163 -94 -146q-25 14 0 154q15 81 11 96q-31 -7 -41 -6l-7.5 -22l-13 -38t-16 -44.5t-19 -47t-19.5 -41t-20 -30.5t-19 -12q-8 -1 -16 6.5
t-14.5 22t-11 25.5t-10 28t-6.5 18q-10 26 41 112q-48 -10 -68 -147q-11 -96 -7 -244q8 -108 8 -128q-17 -1 -17 -2q-10 108 -15.5 283t0.5 424q0 12 2 42q-63 -16 -135 -6q-29 4 -20 20q92 -17 156 4q15 232 64 314q20 33 46 51t49 17t42 -14t25 -42.5t-2 -68.5
q-36 -160 -138 -234q-32 -24 -70 -36q0 -8 -1 -24t-1 -23q-8 -169 -3 -337q10 81 34.5 128t66.5 41q9 -1 9.5 -5t-4.5 -11q-55 -85 -45 -108q27 -93 40 -91q22 5 56 93t44 128q-9 3 -13 7q-10 13 -6.5 39.5t21.5 48t36 12.5q8 -9 -18 -91zM21 584q32 12 59 31q96 69 131 224
q11 60 -10 87.5t-56.5 14.5t-62.5 -58q-44 -71 -61 -299zM221 374q21 68 21 77q-8 -4 -18 -23.5t-11.5 -35t8.5 -18.5z" />
    <glyph glyph-name="l_r" unicode="lr" horiz-adv-x="311" 
d="M195 373q12 1 33 6q14 4 19 -13q4 -18 -11 -103q-23 -128 -9 -136q14 -7 90 173q5 0 6.5 -3.5t0 -9.5t-4 -12.5l-6.5 -16.5q-66 -163 -94 -146q-25 14 0 154q15 81 11 96q-31 -7 -39 -7q-42 -188 -62 -251q-45 -140 -81 -117q-4 3 -8 7q-20 23 -30 121q-10 89 -12 218
q-2 69 0 213q-37 -9 -98 -1q-24 4 -20 23q73 -19 121 -4q7 159 30.5 268t65.5 126q24 9 46 -2t32 -35q20 -40 14.5 -97.5t-25 -112t-59.5 -100t-89 -60.5q-4 -103 -1 -217q0 -116 12 -217q10 -95 28 -113q15 -13 44 62q43 115 72 271q3 11 4 20q-6 1 -14 7q-11 13 -10.5 39
t15 48t32.5 13q10 -11 -3 -91zM17 569q45 16 81 58t52.5 92t21.5 103.5t-12 91.5q-8 19 -23.5 27.5t-33.5 1.5q-69 -28 -86 -374zM178 374q8 46 8 77q-8 -4 -15 -23t-5.5 -36.5t12.5 -17.5z" />
    <glyph glyph-name="m_r" unicode="mr" horiz-adv-x="417" 
d="M301 373q12 1 33 6q14 4 19 -13q4 -18 -11 -103q-23 -128 -9 -136q14 -7 90 173q5 0 6.5 -3.5t0 -9.5t-4 -12.5l-6.5 -16.5q-66 -163 -94 -146q-25 14 0 154q15 81 11 96q-32 -7 -40 -6q-9 -35 -17.5 -64t-26 -81.5t-34.5 -78.5t-29 -15q-14 16 -10 138q4 88 0 96
q-9 -14 -26 -59t-33.5 -82t-28.5 -40q-11 -3 -15 12q-2 22 -2 71q0 71 -9 87q-12 -21 -23 -65t-13 -49q-8 -25 -14 -32q-4 -7 -12 -2q-12 27 -2 123h5q6 1 8 0.5t4 -4t2 -10.5q-2 -19 -2 -55q2 7 7 27t8.5 30.5l8.5 25t11 22.5q7 9 16 6.5t12 -10.5q8 -19 10 -48.5
t0.5 -54.5t0.5 -50q10 18 39 90q22 52 29 67q14 23 27 17q13 -8 9 -113q-4 -108 4 -121q15 9 41.5 88.5t39.5 134.5q-8 1 -14 7q-10 13 -7 39t20.5 48t35.5 13q10 -11 -15 -91zM285 374q19 61 19 77q-15 -8 -26 -44q-9 -33 7 -33z" />
    <glyph glyph-name="n_r" unicode="nr" horiz-adv-x="330" 
d="M214 373q12 1 33 6q14 4 19 -13q4 -18 -11 -103q-23 -128 -9 -136q14 -7 90 173q5 0 6.5 -3.5t0 -9.5t-4 -12.5l-6.5 -16.5q-66 -163 -94 -146q-25 14 0 154q15 81 11 96q-32 -7 -41 -6q-17 -64 -51 -156t-50 -91q-28 1 -30 57q-1 31 2 88.5t2 87.5q-16 -15 -40.5 -77.5
t-25.5 -77.5q-1 -8 -10 -8q-6 0 -6.5 29t1 60t0.5 34q19 0 19 -15q0 -5 -0.5 -16.5t-0.5 -18.5q39 109 65 113q6 1 9.5 -4.5t5.5 -17.5q3 -19 -0.5 -76t-3.5 -99t11 -42q17 0 88 231q-9 3 -13 7q-10 13 -6.5 39t21.5 48t36 13q8 -9 -17 -91zM197 374q22 71 22 77
q-15 -8 -27 -44q-11 -33 5 -33z" />
    <glyph glyph-name="o_r" unicode="or" horiz-adv-x="299" 
d="M183 373q12 1 33 6q14 4 19 -13q4 -18 -11 -103q-23 -128 -9 -136q14 -7 90 173q5 0 6.5 -3.5t0 -9.5t-4 -12.5l-6.5 -16.5q-66 -163 -94 -146q-25 14 0 154q15 81 11 96q-28 -7 -41 -6q-10 -27 -29 -44.5t-32.5 -22t-20.5 -3.5q-7 -28 -19 -46t-34 -17q-27 0 -38 21.5
t-9 44.5t10 41q18 36 52 42q14 3 18 -2t3 -14q-35 4 -54 -33q-11 -17 -8 -51t26 -34q27 0 36 50q-26 6 -32 24.5t15 34.5q9 7 17 7q22 -2 18 -54q15 -2 36.5 15.5t29.5 42.5q-30 12 -16 59q11 38 35 48q10 5 19 -1q9 -7 -17 -91zM168 373q23 76 20 78q-8 5 -19 -19
q-17 -37 -8 -54q2 -5 7 -5zM79 301q2 34 -3 36q-18 -13 -15 -23t18 -13z" />
    <glyph glyph-name="p_r" unicode="pr" horiz-adv-x="370" 
d="M254 373q12 1 33 6q14 4 19 -13q4 -18 -11 -103q-23 -128 -9 -136q14 -7 90 173q5 0 6.5 -3.5t0 -9.5t-4 -12.5l-6.5 -16.5q-66 -163 -94 -146q-25 14 0 154q15 81 11 96q-24 -6 -40 -6q-21 -64 -63 -73q-17 -4 -19 11v2q22 -3 39.5 16t26.5 45q-14 5 -19 19.5t-0.5 31
t12.5 31.5t21 22.5t24 2.5q8 -9 -17 -91zM237 374q22 71 22 77q-15 -8 -26.5 -38.5t4.5 -38.5zM17 344q0 -14 -1 -45.5t-1 -48.5q16 77 60 106q20 15 36.5 8.5t27 -21.5t13.5 -34q5 -28 -1 -58q-14 -74 -63 -104q-20 -13 -43.5 0t-29.5 35q-2 -125 -5 -184q42 2 87 -18
q21 -10 13 -25q-50 28 -102 25q-18 -296 -120 -318q-24 -6 -39 8.5t-19 39t-3.5 47t4.5 39.5q11 53 36 97q50 88 126 102q5 116 7 363h5.5h4.5t3 -0.5t2.5 -2t1 -4.5t0.5 -7zM-116 -321q92 19 108 299q-67 -17 -109 -93q-26 -44 -35 -92q-3 -13 -4 -31.5t0.5 -39.5
t11.5 -33.5t28 -9.5zM24 213v-1q-2 -11 11 -32q30 -52 72 11q23 34 28 63q4 26 1 53q-3 23 -18 35t-34 1q-23 -17 -45 -73q-18 -50 -15 -57z" />
    <glyph glyph-name="q_r" unicode="qr" horiz-adv-x="385" 
d="M107 261l30.5 31.5t30.5 30.5q2 0 5 -3t5 -6t1 -3q-35 -34 -62 -119.5t-39 -186.5q45 1 80 -40q26 -33 39 -85q12 -49 9 -98t-21 -79.5t-49 -28.5q-60 4 -77 119q-9 57 -4 152q2 28 4 41q-31 -4 -78 -41q-15 8 4 24q33 29 76 35q18 150 62 250q-95 -87 -129 -46
q-21 29 -9 63.5t40 49.5q32 16 54.5 -5t27.5 -55zM76 -12q-2 -14 -4 -44q-5 -87 4 -149q18 -102 61 -104q23 -1 36.5 24.5t15.5 67.5q3 44 -8 93q-14 49 -37 78q-28 34 -68 34zM269 373q12 1 33 6q14 4 19 -13q4 -18 -11 -103q-23 -128 -9 -136q14 -7 90 173q5 0 6.5 -3.5
t0 -9.5t-4 -12.5l-6.5 -16.5q-66 -163 -94 -146q-25 14 0 154q15 81 11 96q-24 -6 -41 -6q-21 -66 -64 -75q-17 -4 -19 11v2q41 -6 67 64q-7 2 -12 6q-10 13 -6.5 39t21.5 48t36 13q8 -9 -17 -91zM92 250q-11 51 -31 59q-26 11 -46 -29t-6 -61q16 -24 83 31zM252 374
q22 71 22 77q-15 -8 -27 -44q-11 -33 5 -33z" />
    <glyph glyph-name="a_r_r" unicode="arr" horiz-adv-x="490" 
d="M216 373q12 1 33 6q14 4 19 -13q3 -13 -6 -74l-15 -105t1 -59q8 -5 46 82t58 148q-27 4 -20 47t31 59q13 8 25 0q11 -7 -12 -82l-3 -9q14 1 34 6q14 4 19 -13q1 -4 -1.5 -25.5t-6 -49t-6 -54.5t-1.5 -45.5t6 -18.5q12 0 37 43t42 84q5 0 6.5 -3.5t0 -9.5t-4 -12.5
l-6.5 -16.5q-11 -28 -40 -69t-45 -33q-11 6 -13 34.5t2.5 61l9 66.5t3.5 44q-29 -6 -42 -5q-6 -18 -19.5 -54.5l-33.5 -86.5t-41 -82t-33 -25q-14 6 -14 41.5t7.5 75t14 81t3.5 55.5q-30 -8 -40 -7q-56 -187 -77 -186q-35 0 -40 108q-38 -71 -78 -71q-37 0 -32 44.5t40 77.5
q23 22 46 19q13 -2 15 -10.5t-5 -15.5q-24 27 -53 -16q-26 -38 -24 -70q2 -17 14 -18q17 -1 37.5 23t31.5 54t11 57q10 11 14 -7q1 -6 1 -14q0 -140 21 -144q11 -3 64 171q-31 11 -19 58q10 39 32 50q11 6 20 -1q12 -8 -14 -91zM357 374q26 73 19 77q-8 5 -19 -19
q-16 -37 -7 -53q2 -5 7 -5zM202 374q22 72 16 77q-8 6 -17 -17q-15 -37 -7 -55q3 -5 8 -5z" />
    <glyph glyph-name="s_r" unicode="sr" horiz-adv-x="355" 
d="M239 373q12 1 33 6q14 4 19 -13q4 -18 -11 -103q-23 -128 -9 -136q14 -7 90 173q5 0 6.5 -3.5t0 -9.5t-4 -12.5l-6.5 -16.5q-66 -163 -94 -146q-25 14 0 154q15 81 11 96q-24 -6 -42 -6q-13 -32 -32.5 -65t-34.5 -54l-31 -42l-19 -25q23 -37 21 -65q-1 -19 -14 -28
q-13 -10 -27 -1q-17 9 -17 35q0 27 19 57q-6 8 -47 54.5t-53 76.5q-12 34 8 53t45.5 15t33.5 -23t-8 -45q-14 -16 -24 1q32 30 11 45q-17 12 -38 1q-23 -13 -12 -41q11 -29 48.5 -70.5t44.5 -50.5q81 97 111 175q-11 3 -12 5q-10 13 -6 40t22 49.5t35 10.5q14 -10 -17 -91z
M119 106q2 20 -14 47q-10 -20 -10 -41q1 -17 8 -22q5 -3 9 0q6 6 7 16zM223 374q26 74 21 77q-8 5 -19 -19q-17 -36 -9 -53q2 -5 7 -5z" />
    <glyph glyph-name="t_r" unicode="tr" horiz-adv-x="289" 
d="M84 629q-19 -17 -60 -27q-1 -17 -2.5 -65t-2.5 -76t-2 -77.5t-1.5 -82t0 -75.5t2 -72.5t4.5 -59t8 -48t11 -27.5q7 -8 11 -5q24 18 55 139t45 204q-29 11 -24 59q4 41 24 50q8 4 16 -2q14 -10 4 -91q14 1 34 6q14 4 19 -13q4 -18 -11 -103q-23 -128 -9 -136q14 -7 90 173
q5 0 6.5 -3.5t0 -9.5t-4 -12.5l-6.5 -16.5q-66 -163 -94 -146q-25 14 0 154q15 81 11 96q-24 -6 -39 -6q-65 -325 -107 -355q-19 -14 -35 9q-13 18 -20 65t-8 118t0 132.5t4 147.5t4 125q-29 -4 -63 -6q-5 15 12 17h3q34 2 49 5q2 66 4 99q8 171 36 217q6 10 13.5 14.5
t13.5 1t6 -15.5q-43 -11 -52 -213l-5 -99q48 13 64 38q15 -13 -4 -27zM156 374q2 16 3 34.5t0 30.5t-3 12q-9 0 -13.5 -18t-0.5 -37.5t14 -21.5z" />
    <glyph glyph-name="u_r" unicode="ur" horiz-adv-x="331" 
d="M215 373q12 1 33 6q14 4 19 -13q4 -18 -11 -103q-23 -128 -9 -136q14 -7 90 173q5 0 6.5 -3.5t0 -9.5t-4 -12.5l-6.5 -16.5q-66 -163 -94 -146q-25 14 0 154q15 81 11 96q-26 -6 -39 -6q-12 -58 -45 -153t-50 -94q-33 1 -25 175l-7.5 -20.5t-9 -20.5t-13 -20.5
t-16.5 -11.5t-21 -2q-23 7 -25 60q0 50 7 98q10 3 16 -1.5t4 -18.5q-5 -45 -5 -78q0 -42 8 -44q34 0 66 134q4 11 12 8q7 -1 5 -39q-11 -194 5 -198q7 -1 33 75.5t45 151.5q-8 1 -14 7q-17 13 -4 59q12 43 33 45q6 1 12 -4q14 -11 -7 -91zM199 374q18 70 11 77q-6 6 -14 -13
q-14 -37 -6 -57q3 -7 9 -7z" />
    <glyph glyph-name="v_r" unicode="vr" horiz-adv-x="337" 
d="M221 373q12 1 33 6q14 4 19 -13q4 -18 -11 -103q-23 -128 -9 -136q14 -7 90 173q5 0 6.5 -3.5t0 -9.5t-4 -12.5l-6.5 -16.5q-66 -163 -94 -146q-25 14 0 154q15 81 11 96q-26 -6 -41 -6q-22 -71 -66 -80q-17 -4 -19 11v2q24 -3 42.5 19t26.5 50q-7 2 -12 6q-18 12 -1 58
q-18 -7 -48 -7q0 -48 -23 -113q-19 -51 -42 -87q-26 -40 -43 -49q-18 -9 -27 7q-16 35 -1 154q0 7 1.5 17t1.5 12q14 -1 17.5 -7t1.5 -24q-16 -121 -5 -144q3 -3 18.5 14.5t20.5 27.5q21 33 41 85q22 59 22 107q-57 10 -74 60q-9 20 -1.5 39t28.5 13q59 -22 64 -96
q35 2 59 13q20 33 41 20q3 -2 4 -5t0.5 -8.5t-1.5 -11t-3.5 -14.5t-4.5 -15.5t-6 -17.5t-6 -19zM121 432q-2 29 -20.5 54.5t-37.5 24.5q-4 -1 -3.5 -10.5t4.5 -19.5q14 -41 57 -49zM204 374q3 11 7.5 24l7 20.5l5.5 16.5t3 11t-1 5q-9 5 -20 -20q-18 -39 -8 -54q2 -3 6 -3z
" />
    <glyph glyph-name="w_r" unicode="wr" horiz-adv-x="453" 
d="M22 336q0 -1 -3 -25.5t-3.5 -34t-1 -28.5t2 -32t7.5 -23q20 2 52 120q8 31 16 31q10 1 10 -29q7 -197 28 -195q24 2 46.5 48.5t33 87t15.5 74.5q7 41 7 91q-34 8 -57 37.5t-12 60.5q4 15 18 22q24 10 41 -6t21 -41q4 -19 6 -59q43 -4 64 11q19 28 41 18q3 -1 4 -4t0.5 -9
t-1.5 -11t-3.5 -14l-4.5 -16t-6 -18.5t-6 -18.5q12 1 33 6q14 4 19 -13q4 -18 -11 -103q-23 -128 -9 -136q14 -7 90 173q5 0 6.5 -3.5t0 -9.5t-4 -12.5l-6.5 -16.5q-66 -163 -94 -146q-25 14 0 154q15 81 11 96q-26 -6 -42 -6q-22 -70 -65 -79q-17 -4 -19 11v2
q24 -3 42 18.5t27 49.5q-7 2 -12 6q-19 14 -2 60q-23 -8 -52 -6q0 -43 -8 -91q-4 -26 -12.5 -58.5t-21.5 -71.5t-33 -65.5t-41 -27.5q-9 -2 -16.5 2.5t-12 16.5t-8 24t-5.5 33.5t-2.5 34t-2 36t-1.5 31.5q-30 -104 -61 -106q-26 0 -29 56q-1 48 6 106q2 28 2 33q23 0 19 -35
zM232 438q-2 27 -6 54q-3 16 -13.5 28.5t-23.5 5.5q-8 -6 -10 -12q-7 -23 11.5 -46t41.5 -30zM320 374q3 11 7.5 24l7 20.5l5.5 16.5t3 11t-1 5q-9 5 -20 -20q-18 -39 -8 -54q2 -3 6 -3z" />
    <glyph glyph-name="x_r" unicode="xr" horiz-adv-x="402" 
d="M285 372q6 1 34 7q14 4 19 -13q4 -18 -11 -103q-23 -128 -9 -136q14 -7 90 173q5 0 6.5 -3.5t0 -9.5t-4 -12.5l-6.5 -16.5q-66 -163 -94 -146q-25 14 0 154q15 81 11 96q-32 -7 -41 -6q-12 -54 -43 -131t-52 -82q-38 -8 -96 90q-36 -40 -82 -65q-19 -10 -26 6
q60 27 99 74q-62 110 -69 119q8 6 13 4.5t13 -13.5q5 -8 23.5 -41.5l30.5 -53.5q47 66 50 148q-32 7 -54 32t-22 56q0 26 20.5 36.5t39.5 -6.5q28 -28 33 -103q38 -3 83 24q1 -7 1 -11.5t-4.5 -8.5t-15.5 -9q-35 -13 -65 -12q-4 -92 -57 -162q26 -45 47 -70t35 -20
q18 7 43.5 75.5t39.5 124.5q-30 11 -18 57q10 40 33 51q10 5 19 -1t-14 -92zM141 428q-6 69 -28 88q-12 10 -21.5 3t-9.5 -20q0 -25 17.5 -45t41.5 -26zM270 374q23 74 17 77q-8 5 -17 -15.5t-10 -39.5t10 -22z" />
    <glyph glyph-name="y_r" unicode="yr" horiz-adv-x="341" 
d="M23 344q0 -18 -4 -56t-2 -59q12 10 46 86q26 59 37 59q5 0 8 -5.5t4 -13.5t1 -17t-0.5 -16t0.5 -11q1 -35 1 -304q45 11 106 4q15 -1 19.5 -6t1.5 -15q-70 14 -129 0q-19 -316 -138 -311q-40 1 -52 55q-6 34 3 78q7 44 33 87q50 79 139 105q3 157 0 306l-2 35
q-1 -4 -4 -9.5t-6.5 -14t-6.5 -14.5q-39 -82 -55 -95q-5 -4 -10 -5q-12 -3 -15 14q-8 10 -2 74.5t6 73.5q13 1 17.5 -4t3.5 -21zM-26 -304q103 -3 120 289q-77 -23 -121 -96q-24 -39 -32 -80t-2 -71q8 -42 35 -42zM225 373q12 1 33 6q14 4 19 -13q4 -18 -11 -103
q-23 -128 -9 -136q14 -7 90 173q5 0 6.5 -3.5t0 -9.5t-4 -12.5l-6.5 -16.5q-66 -163 -94 -146q-25 14 0 154q15 81 11 96q-25 -6 -41 -6q-27 -63 -69 -68q-11 -2 -14 1.5t-4 9.5v3q22 -5 40.5 12.5t29.5 43.5q-13 4 -17 18t0 30.5t12 31.5t20.5 23t24.5 3q8 -9 -17 -91z
M208 374q22 71 22 77q-15 -8 -26.5 -39.5t4.5 -37.5z" />
    <glyph glyph-name="z_r" unicode="&#x7a;r" horiz-adv-x="378" 
d="M262 373q12 1 33 6q14 4 19 -13q4 -18 -11 -103q-23 -128 -9 -136q14 -7 90 173q5 0 6.5 -3.5t0 -9.5t-4 -12.5l-6.5 -16.5q-66 -163 -94 -146q-25 14 0 154q15 81 11 96q-25 -6 -42 -6q-8 -29 -25 -53t-41 -29q-17 -4 -19 11v2q24 -3 43 19.5t27 51.5q-27 4 -18 49
q9 42 34 57q12 7 23 0q9 -8 -17 -91zM245 374q23 75 19 77q-5 4 -15 -14q-18 -36 -12 -56q2 -7 8 -7zM-3 301q3 33 34 57q9 7 20.5 11.5t24 6t22 -5t11.5 -21.5q2 -19 -7 -38t-38 -58q21 6 39 2.5t29.5 -14.5t20.5 -27.5t14 -37t8.5 -42t4 -43t1.5 -40t0 -33.5v-11
q25 3 59 -2q6 -1 9.5 -3t5 -5t2 -4.5t-0.5 -5.5v-4q-39 13 -76 6q-8 -77 -28 -147q-45 -150 -107 -167q-31 -7 -47 17q-20 30 -8 93q12 64 47 119q52 79 126 99q8 109 -17 181q-32 91 -109 36q-7 -6 -13 -2q-5 7 2 16q74 74 66 113q-5 23 -35 8q-31 -17 -41 -48
q-5 -15 0 -28q-8 -3 -14 2t-5 20zM135 -154q19 62 27 138q-67 -20 -110 -90q-35 -55 -45 -112q-11 -56 6 -81q9 -15 27 -9q54 14 95 154z" />
    <glyph glyph-name="a_x" unicode="ax" horiz-adv-x="418" 
d="M155 174q60 27 99 74q-57 101 -60 106q-38 -185 -60 -185q-35 0 -40 108q-38 -71 -78 -71q-37 0 -32 44.5t40 77.5q23 22 46 19q13 -2 15 -10.5t-5 -15.5q-25 27 -54 -17q-25 -38 -23 -70q2 -16 14 -16q34 0 62 64q18 43 18 69q4 1 7 1t5.5 -5.5t2.5 -16.5
q0 -142 20 -145q15 -2 53 182q1 4 5 5.5t10 -2.5t11 -12t23.5 -41.5l30.5 -53.5q47 66 50 148q-32 7 -54 32t-22 56q0 26 20.5 36.5t39.5 -6.5q28 -28 33 -103q38 -3 83 24q1 -7 1 -11.5t-4.5 -8.5t-15.5 -9q-35 -13 -65 -12q-4 -92 -57 -162q26 -45 47 -70t35 -20
q32 13 64 143q5 0 7 -4.5t1 -10.5t-3 -13q-34 -121 -66 -129q-38 -8 -96 90q-36 -40 -82 -65q-19 -10 -26 6zM315 428q-6 69 -28 88q-12 10 -21.5 3t-9.5 -20q0 -25 17.5 -45t41.5 -26z" />
    <glyph glyph-name="b_x" unicode="bx" horiz-adv-x="389" 
d="M126 174q60 27 99 74l-28.5 51.5t-30.5 52.5q-9 -24 -17 -40t-24 -31t-34 -14q-7 -50 -24 -60q-17 -9 -31 1t-22.5 33.5t-12 39.5t-6.5 32q-11 72 -11 161q0 63 4 114q-16 -6 -36 -9q-62 -14 -137 -8q-6 1 -9.5 2t-5 3.5t-2.5 4.5t-1 5v4q80 -10 151 5q20 4 41 11
q4 60 13.5 118t25 113.5t40.5 90t55 34.5q47 0 62 -41.5t6 -88.5q-9 -54 -38.5 -109.5t-72.5 -89.5q-29 -24 -75 -39q-3 -41 -3 -120q0 -95 10 -158q1 -10 4 -24.5t9 -35t15 -31.5t19 -6q12 8 16 57q-8 5 -19.5 22t-16.5 32q-8 23 7.5 31t30.5 -8q16 -17 16 -70q8 -2 16 2.5
t15.5 15.5t12.5 20.5t11 23.5t8 18q10 22 26 -5q5 -8 23.5 -41.5l30.5 -53.5q47 66 50 148q-32 7 -54 32t-22 56q0 26 20.5 36.5t39.5 -6.5q28 -28 33 -103q38 -3 83 24q1 -7 1 -11.5t-4.5 -8.5t-15.5 -9q-35 -13 -65 -12q-4 -92 -57 -162q26 -45 47 -70t35 -20
q32 13 64 143q5 0 7 -4.5t1 -10.5t-3 -13q-34 -121 -66 -129q-38 -8 -96 90q-36 -40 -82 -65q-19 -10 -26 6zM6 612q38 14 63 34q40 32 68.5 84.5t37.5 104.5q13 109 -51 109q-45 -2 -77 -106.5t-41 -225.5zM286 428q-6 69 -28 88q-12 10 -21.5 3t-9.5 -20q0 -25 17.5 -45
t41.5 -26zM77 293q4 33 -14 51q-7 7 -9 2q-3 -8 5.5 -27t17.5 -26z" />
    <glyph glyph-name="c_x" unicode="cx" horiz-adv-x="354" 
d="M91 174q60 27 99 74q-59 104 -60 106q-10 -7 -35.5 -43t-48.5 -59.5t-37 -12.5q-23 20 -7.5 66.5t41.5 57.5q20 8 31 -4q8 -9 -3 -20q-11 12 -22 9q-17 -7 -30.5 -46.5t0.5 -51.5q7 -5 23.5 14t40.5 52.5t38 47.5t26 -6q5 -8 23.5 -41.5l30.5 -53.5q47 66 50 148
q-32 7 -54 32t-22 56q0 26 20.5 36.5t39.5 -6.5q28 -28 33 -103q38 -3 83 24q1 -7 1 -11.5t-4.5 -8.5t-15.5 -9q-35 -13 -65 -12q-4 -92 -57 -162q26 -45 47 -70t35 -20q32 13 64 143q5 0 7 -4.5t1 -10.5t-3 -13q-34 -121 -66 -129q-38 -8 -96 90q-36 -40 -82 -65
q-19 -10 -26 6zM251 428q-6 69 -28 88q-12 10 -21.5 3t-9.5 -20q0 -25 17.5 -45t41.5 -26z" />
    <glyph glyph-name="d_x" unicode="dx" horiz-adv-x="513" 
d="M273 185q8 3 15 7.5l12 7.5t11 8l9.5 8t8.5 9t7 8t7 8t6 7q-6 10 -27.5 49t-31.5 54q0 -2 -7 -50t-15 -89.5t-20.5 -91.5t-29.5 -81.5t-36 -35.5q-17 -3 -31.5 28.5t-23.5 78t-14 85.5t-6 60q-57 -115 -106 -87q-24 16 -19 67q4 40 25 75t54 41q21 4 41 -16q1 0 1 -1
q-3 126 6 229q-52 -7 -110 -1q-17 1 -24 5.5t-5 13.5q75 -10 142 -1q40 292 135 366q59 40 103 20q55 -26 39 -133q-15 -93 -76 -169q-79 -82 -186 -99q-18 -177 1 -349q6 -67 22.5 -134t31.5 -63q50 14 98 348q8 6 13 4.5t13 -13.5q5 -8 23.5 -41.5l30.5 -53.5
q47 66 50 148q-32 7 -54 32t-22 56q0 26 20.5 36.5t39.5 -6.5q28 -28 33 -103q38 -3 83 24q1 -7 1 -11.5t-4.5 -8.5t-15.5 -9q-35 -13 -65 -12q-4 -92 -57 -162q26 -45 47 -70t35 -20q32 13 64 143q5 0 7 -4.5t1 -10.5t-3 -13q-34 -121 -66 -129q-38 -8 -96 90
q-72 -80 -85 -48zM129 582q119 29 171 93q56 69 73 160q13 95 -31 116q-34 19 -85 -19q-88 -69 -128 -350zM103 278q-2 30 -14 46q-29 29 -61 -20q-28 -45 -26 -93q1 -24 12 -32q16 -12 49 32t40 67zM410 428q-6 69 -28 88q-12 10 -21.5 3t-9.5 -20q0 -25 17.5 -45t41.5 -26
z" />
    <glyph glyph-name="e_x" unicode="ex" horiz-adv-x="359" 
d="M96 174q60 27 99 74l-21 38l-23 41t-18 29q-44 -177 -81 -175q-5 1 -10 4q-47 35 -44.5 99.5t40.5 87.5q15 7 23.5 -2t11.5 -24q5 -31 -8.5 -62.5t-39.5 -48.5q9 -25 26 -37q5 -2 10 -0.5t11 12t11 20.5t10.5 26t9.5 29l8.5 28.5t7 25t5.5 19.5l2 9q8 6 13 4.5t13 -13.5
q5 -8 23.5 -41.5l30.5 -53.5q47 66 50 148q-32 7 -54 32t-22 56q0 26 20.5 36.5t39.5 -6.5q28 -28 33 -103q38 -3 83 24q1 -7 1 -11.5t-4.5 -8.5t-15.5 -9q-35 -13 -65 -12q-4 -92 -57 -162q26 -45 47 -70t35 -20q32 13 64 143q5 0 7 -4.5t1 -10.5t-3 -13q-34 -121 -66 -129
q-38 -8 -96 90q-36 -40 -82 -65q-19 -10 -26 6zM256 428q-6 69 -28 88q-12 10 -21.5 3t-9.5 -20q0 -25 17.5 -45t41.5 -26zM21 253q19 13 28.5 38.5t6.5 51.5q-4 25 -21 2q-25 -39 -14 -92z" />
    <glyph glyph-name="h_x" unicode="hx" horiz-adv-x="452" 
d="M189 174q60 27 99 74q-6 10 -28 49.5t-32 55.5q0 -2 -8.5 -31.5l-13 -45l-13.5 -47t-16 -50l-15 -39t-15.5 -30.5t-13.5 -9q-29 3 -24 167q1 13 1 23.5t-1 27t-4.5 24.5t-10.5 5q-16 -8 -46 -102q-22 -66 -34 -66q-4 0 -7.5 7.5t-4.5 19.5t-1.5 23l-1 22.5t-0.5 13.5
q-6 207 1 330q-67 -24 -154 -19q-30 4 -24 20q83 -13 179 18q7 107 22 174q20 93 52 133q35 45 77.5 36.5t52.5 -64.5q6 -43 -3 -88q-14 -69 -64.5 -120.5t-120.5 -82.5q-7 -115 -1 -337v-41l1 -21q2 7 15 47l7 22t11.5 32t13.5 29t18 24.5t20 7.5q28 -2 24 -99
q-2 -148 8 -149q18 -3 85 249q8 6 13 4.5t13 -13.5q5 -8 23.5 -41.5l30.5 -53.5q47 66 50 148q-32 7 -54 32t-22 56q0 26 20.5 36.5t39.5 -6.5q28 -28 33 -103q38 -3 83 24q1 -7 1 -11.5t-4.5 -8.5t-15.5 -9q-35 -13 -65 -12q-4 -92 -57 -162q26 -45 47 -70t35 -20
q32 13 64 143q5 0 7 -4.5t1 -10.5t-3 -13q-34 -121 -66 -129q-38 -8 -96 90q-36 -40 -82 -65q-19 -10 -26 6zM18 623q141 64 168 187q9 35 3 78q-6 49 -41.5 53.5t-61.5 -33.5q-29 -39 -47 -123q-15 -72 -21 -162zM349 428q-6 69 -28 88q-12 10 -21.5 3t-9.5 -20
q0 -25 17.5 -45t41.5 -26z" />
    <glyph glyph-name="i_x" unicode="ix" horiz-adv-x="315" 
d="M52 174q60 27 99 74l-21 38l-23 41t-18 29q-9 -34 -32 -81.5t-39 -44.5q-8 3 -12.5 13.5t-5.5 29.5t-0.5 33t2.5 36.5t2 26.5q14 -1 15 -6q1 -4 1 -11q-6 -100 4 -106q10 3 33.5 55.5t24.5 65.5q8 6 13 4.5t13 -13.5q5 -8 23.5 -41.5l30.5 -53.5q47 66 50 148
q-32 7 -54 32t-22 56q0 26 20.5 36.5t39.5 -6.5q28 -28 33 -103q38 -3 83 24q1 -7 1 -11.5t-4.5 -8.5t-15.5 -9q-35 -13 -65 -12q-4 -92 -57 -162q26 -45 47 -70t35 -20q32 13 64 143q5 0 7 -4.5t1 -10.5t-3 -13q-34 -121 -66 -129q-38 -8 -96 90q-36 -40 -82 -65
q-19 -10 -26 6zM212 428q-6 69 -28 88q-12 10 -21.5 3t-9.5 -20q0 -25 17.5 -45t41.5 -26zM16 429q8 -2 8 -20q-1 -8 -3.5 -13.5t-6.5 -4.5q-10 0 -8 19t10 19z" />
    <glyph glyph-name="k_x" unicode="kx" horiz-adv-x="439" 
d="M176 174q60 27 99 74l-20.5 37l-22 40.5t-17.5 29.5q-1 -3 -21 -72.5t-40 -115t-37 -46.5q-8 -1 -16 6.5t-14.5 22t-11 25.5t-10 28t-6.5 18q-10 26 41 112q-48 -10 -68 -147q-11 -96 -7 -244q8 -108 8 -128q-17 -1 -17 -2q-10 108 -15.5 283t0.5 424q0 12 2 42
q-63 -16 -135 -6q-29 4 -20 20q92 -17 156 4q15 232 64 314q20 33 46 51t49 17t42 -14t25 -42.5t-2 -68.5q-36 -160 -138 -234q-32 -24 -70 -36q0 -8 -1 -24t-1 -23q-8 -169 -3 -337q10 81 34.5 128t66.5 41q9 -1 9.5 -5t-4.5 -11q-55 -85 -45 -108q26 -91 40 -89
q13 2 31.5 51.5t35.5 108t23 69.5q8 6 13 4.5t13 -13.5q5 -8 23.5 -41.5l30.5 -53.5q47 66 50 148q-32 7 -54 32t-22 56q0 26 20.5 36.5t39.5 -6.5q28 -28 33 -103q38 -3 83 24q1 -7 1 -11.5t-4.5 -8.5t-15.5 -9q-35 -13 -65 -12q-4 -92 -57 -162q26 -45 47 -70t35 -20
q32 13 64 143q5 0 7 -4.5t1 -10.5t-3 -13q-34 -121 -66 -129q-38 -8 -96 90q-36 -40 -82 -65q-19 -10 -26 6zM21 584q32 12 59 31q96 69 131 224q11 60 -10 87.5t-56.5 14.5t-62.5 -58q-44 -71 -61 -299zM336 428q-6 69 -28 88q-12 10 -21.5 3t-9.5 -20q0 -25 17.5 -45
t41.5 -26z" />
    <glyph glyph-name="l_x" unicode="lx" horiz-adv-x="397" 
d="M-120 568q73 -19 121 -4q7 159 30.5 268t65.5 126q24 9 46 -2t32 -35q20 -40 14.5 -97.5t-25 -112t-59.5 -100t-89 -60.5q-4 -103 -1 -217q0 -116 12 -217q11 -103 23 -115q17 -17 48 85q33 113 63 280q18 10 29 -9q5 -8 23.5 -41.5l30.5 -53.5q47 66 50 148
q-32 7 -54 32t-22 56q0 26 20.5 36.5t39.5 -6.5q28 -28 33 -103q38 -3 83 24q1 -7 1 -11.5t-4.5 -8.5t-15.5 -9q-35 -13 -65 -12q-4 -92 -57 -162q26 -45 47 -70t35 -20q32 13 64 143q5 0 7 -4.5t1 -10.5t-3 -13q-34 -121 -66 -129q-38 -8 -96 90l-8 -9q-9 -9 -21 -18.5
t-27 -17.5q-19 -10 -26 6q48 22 73 54q-59 104 -60 106q-50 -304 -102 -360q-19 -20 -37 0q-13 15 -24 121q-10 89 -12 218q-2 69 0 213q-37 -9 -98 -1q-24 4 -20 23zM17 569q45 16 81 58t52.5 92t21.5 103.5t-12 91.5q-8 19 -23.5 27.5t-33.5 1.5q-69 -28 -86 -374z
M294 428q-6 69 -28 88q-12 10 -21.5 3t-9.5 -20q0 -25 17.5 -45t41.5 -26z" />
    <glyph glyph-name="m_x" unicode="mx" horiz-adv-x="503" 
d="M254 183q48 20 85 65q-6 10 -28 50t-32 55l-13.5 -62.5t-20.5 -83.5t-29 -79.5t-27 -10.5q-14 16 -10 138q4 88 0 96q-9 -14 -26 -59t-33.5 -82t-28.5 -40q-11 -3 -15 12q-2 22 -2 71q0 71 -9 87q-12 -21 -23 -65t-13 -49q-8 -25 -14 -32q-4 -7 -12 -2q-12 27 -2 123h5
q6 1 8 0.5t4 -4t2 -10.5q-2 -19 -2 -55q2 7 7 27t8.5 30.5l8.5 25t11 22.5q7 9 16 6.5t12 -10.5q8 -19 10 -48.5t0.5 -54.5t0.5 -50q10 18 39 90q22 52 29 67q14 23 27 17q13 -8 9 -113q-4 -117 5 -127q28 36 69 239q8 6 13 4.5t13 -13.5q5 -8 23.5 -41.5l30.5 -53.5
q47 66 50 148q-32 7 -54 32t-22 56q0 26 20.5 36.5t39.5 -6.5q28 -28 33 -103q38 -3 83 24q1 -7 1 -11.5t-4.5 -8.5t-15.5 -9q-35 -13 -65 -12q-4 -92 -57 -162q26 -45 47 -70t35 -20q32 13 64 143q5 0 7 -4.5t1 -10.5t-3 -13q-34 -121 -66 -129q-38 -8 -96 90
q-34 -38 -68 -56q-19 -10 -26 6zM400 428q-6 69 -28 88q-12 10 -21.5 3t-9.5 -20q0 -25 17.5 -45t41.5 -26z" />
    <glyph glyph-name="n_x" unicode="nx" horiz-adv-x="416" 
d="M153 174q60 27 99 74l-30 54t-30 53q-2 -7 -8 -31l-11 -43t-13 -46l-14.5 -47.5t-13.5 -39.5t-13.5 -29t-11.5 -10q-15 -3 -22 13t-8 44q-1 31 2 88.5t2 87.5q-16 -15 -40.5 -77.5t-25.5 -77.5q-1 -8 -10 -8q-6 0 -6.5 29t1 60t0.5 34q19 0 19 -15q0 -5 -0.5 -16.5
t-0.5 -18.5q39 109 65 113q6 1 9.5 -4.5t5.5 -17.5q4 -31 0 -80t-3.5 -94.5t11.5 -45.5q7 0 20 41t31.5 110t25.5 93q8 6 13 4.5t13 -13.5q5 -8 23.5 -41.5l30.5 -53.5q47 66 50 148q-32 7 -54 32t-22 56q0 26 20.5 36.5t39.5 -6.5q28 -28 33 -103q38 -3 83 24q1 -7 1 -11.5
t-4.5 -8.5t-15.5 -9q-35 -13 -65 -12q-4 -92 -57 -162q26 -45 47 -70t35 -20q32 13 64 143q5 0 7 -4.5t1 -10.5t-3 -13q-34 -121 -66 -129q-38 -8 -96 90q-36 -40 -82 -65q-19 -10 -26 6zM313 428q-6 69 -28 88q-12 10 -21.5 3t-9.5 -20q0 -25 17.5 -45t41.5 -26z" />
    <glyph glyph-name="o_x" unicode="ox" horiz-adv-x="385" 
d="M122 174q60 27 99 74l-60 105q-7 -23 -22 -39.5t-26.5 -22t-17.5 -4.5q-7 -28 -19 -46.5t-34 -17.5q-27 0 -38 21.5t-9 44.5t10 41q18 36 52 42q14 3 18 -2t3 -14q-35 4 -54 -33q-11 -17 -8 -50t26 -33q28 0 36 48q-26 6 -32 24.5t15 34.5q9 7 17 7q22 -2 18 -54
q13 -1 33 22t23 45q8 6 13 4.5t13 -13.5q5 -8 23.5 -41.5l30.5 -53.5q47 66 50 148q-32 7 -54 32t-22 56q0 26 20.5 36.5t39.5 -6.5q28 -28 33 -103q38 -3 83 24q1 -7 1 -11.5t-4.5 -8.5t-15.5 -9q-35 -13 -65 -12q-4 -92 -57 -162q26 -45 47 -70t35 -20q32 13 64 143
q5 0 7 -4.5t1 -10.5t-3 -13q-34 -121 -66 -129q-38 -8 -96 90q-36 -40 -82 -65q-19 -10 -26 6zM282 428q-6 69 -28 88q-12 10 -21.5 3t-9.5 -20q0 -25 17.5 -45t41.5 -26zM79 301q2 34 -3 36q-18 -13 -15 -23t18 -13z" />
    <glyph glyph-name="r_x" unicode="rx" horiz-adv-x="402" 
d="M139 174q60 27 99 74q-56 100 -61 107q-6 -36 -44 -136q-46 -119 -67 -107q-25 18 0 154q15 81 11 96q-52 -12 -69 2q-10 13 -6.5 39t21.5 48t36 13q8 -9 -17 -91q12 1 33 6q14 4 19 -13q4 -18 -11 -103q-23 -128 -9 -136q9 -5 46 93t49 147q8 6 13 4.5t13 -13.5
q5 -8 23.5 -41.5l30.5 -53.5q47 66 50 148q-32 7 -54 32t-22 56q0 26 20.5 36.5t39.5 -6.5q28 -28 33 -103q38 -3 83 24q1 -7 1 -11.5t-4.5 -8.5t-15.5 -9q-35 -13 -65 -12q-4 -92 -57 -162q26 -45 47 -70t35 -20q32 13 64 143q5 0 7 -4.5t1 -10.5t-3 -13q-34 -121 -66 -129
q-38 -8 -96 90q-36 -40 -82 -65q-19 -10 -26 6zM299 428q-6 69 -28 88q-12 10 -21.5 3t-9.5 -20q0 -25 17.5 -45t41.5 -26zM25 374q22 71 22 77q-15 -8 -27 -44q-11 -33 5 -33z" />
    <glyph glyph-name="s_x" unicode="sx" horiz-adv-x="441" 
d="M178 174q60 27 99 74q-6 10 -27.5 49t-31.5 54q-20 -58 -103 -181q23 -37 21 -65q-1 -19 -14 -28q-13 -10 -27 -1q-17 9 -17 35q0 27 19 57q-6 8 -47 54.5t-53 76.5q-12 34 8 53t45.5 15t33.5 -23t-8 -45q-14 -16 -24 1q32 30 11 45q-17 12 -38 1q-23 -13 -12 -41
q11 -29 48.5 -70.5t44.5 -50.5q93 131 102 183q8 6 13 4.5t13 -13.5q5 -8 23.5 -41.5l30.5 -53.5q47 66 50 148q-32 7 -54 32t-22 56q0 26 20.5 36.5t39.5 -6.5q28 -28 33 -103q38 -3 83 24q1 -7 1 -11.5t-4.5 -8.5t-15.5 -9q-35 -13 -65 -12q-4 -92 -57 -162q26 -45 47 -70
t35 -20q32 13 64 143q5 0 7 -4.5t1 -10.5t-3 -13q-34 -121 -66 -129q-38 -8 -96 90q-36 -40 -82 -65q-19 -10 -26 6zM338 428q-6 69 -28 88q-12 10 -21.5 3t-9.5 -20q0 -25 17.5 -45t41.5 -26zM119 106q2 20 -14 47q-10 -20 -10 -41q1 -17 8 -22q5 -3 9 0q6 6 7 16z" />
    <glyph glyph-name="t_x" unicode="tx" horiz-adv-x="375" 
d="M84 629q-19 -17 -60 -27q-1 -17 -2.5 -65t-2.5 -76t-2 -77.5t-1.5 -82t0 -75.5t2 -72.5t4.5 -59t8 -48t11 -27.5q7 -8 11 -5q24 18 61 205l29 148q8 6 13 4.5t13 -13.5q5 -8 23.5 -41.5l30.5 -53.5q47 66 50 148q-32 7 -54 32t-22 56q0 26 20.5 36.5t39.5 -6.5
q28 -28 33 -103q38 -3 83 24q1 -7 1 -11.5t-4.5 -8.5t-15.5 -9q-35 -13 -65 -12q-4 -92 -57 -162q26 -45 47 -70t35 -20q32 13 64 143q5 0 7 -4.5t1 -10.5t-3 -13q-34 -121 -66 -129q-38 -8 -96 90q-29 -33 -55 -46q-19 -10 -26 5q37 14 72 56q-9 15 -29.5 52.5t-29.5 52.5
l-25 -132q-37 -198 -67 -220q-18 -13 -33 9q-13 18 -20 65t-8 118t0 132.5t4 147.5t4 125q-29 -4 -63 -6q-5 15 12 17h3q34 2 49 5q2 66 4 99q8 171 36 217q6 10 13.5 14.5t13.5 1t6 -15.5q-43 -11 -52 -213l-5 -99q48 13 64 38q15 -13 -4 -27zM272 428q-6 69 -28 88
q-12 10 -21.5 3t-9.5 -20q0 -25 17.5 -45t41.5 -26z" />
    <glyph glyph-name="u_x" unicode="ux" horiz-adv-x="417" 
d="M154 174q60 27 99 74q-54 94 -61 105q0 -1 -18 -80.5t-32 -121.5t-26 -42q-33 1 -25 175l-7.5 -20.5t-9 -20.5t-13 -20.5t-16.5 -11.5t-21 -2q-23 7 -25 60q0 50 7 98q10 3 16 -1.5t4 -18.5q-5 -45 -5 -78q0 -42 8 -44q34 0 66 134q4 11 12 8q7 -1 5 -39q-11 -202 5 -202
q4 0 14 34t26.5 102t26.5 105q8 6 13 4.5t13 -13.5q5 -8 23.5 -41.5l30.5 -53.5q47 66 50 148q-32 7 -54 32t-22 56q0 26 20.5 36.5t39.5 -6.5q28 -28 33 -103q38 -3 83 24q1 -7 1 -11.5t-4.5 -8.5t-15.5 -9q-35 -13 -65 -12q-4 -92 -57 -162q26 -45 47 -70t35 -20
q32 13 64 143q5 0 7 -4.5t1 -10.5t-3 -13q-34 -121 -66 -129q-38 -8 -96 90q-36 -40 -82 -65q-19 -10 -26 6zM314 428q-6 69 -28 88q-12 10 -21.5 3t-9.5 -20q0 -25 17.5 -45t41.5 -26z" />
    <glyph glyph-name="v_x" unicode="vx" horiz-adv-x="423" 
d="M160 174q60 27 99 74q-62 110 -69 119q8 6 13 4.5t13 -13.5q5 -8 23.5 -41.5l30.5 -53.5q47 66 50 148q-25 5 -44.5 22.5t-27.5 41.5q-25 -19 -58.5 -32.5t-51.5 -13.5q0 -48 -23 -113q-19 -51 -42 -87q-26 -40 -43 -49q-18 -9 -27 7q-16 35 -1 154q0 7 1.5 17t1.5 12
q14 -1 17.5 -7t1.5 -24q-16 -121 -5 -144q3 -3 18.5 14.5t20.5 27.5q21 33 41 85q22 59 22 107q-57 10 -74 60q-9 20 -1.5 39t28.5 13q59 -22 64 -96q18 1 50 14t56 31q-3 33 19 45.5t41 -6.5q28 -28 33 -103q38 -3 83 24q1 -7 1 -11.5t-4.5 -8.5t-15.5 -9q-35 -13 -65 -12
q-4 -92 -57 -162q26 -45 47 -70t35 -20q32 13 64 143q5 0 7 -4.5t1 -10.5t-3 -13q-34 -121 -66 -129q-38 -8 -96 90q-36 -40 -82 -65q-19 -10 -26 6zM320 428q-6 69 -28 88q-12 10 -21.5 3t-9.5 -20q0 -25 17.5 -45t41.5 -26zM121 446q-2 29 -20.5 54.5t-37.5 24.5
q-4 -1 -3.5 -10.5t4.5 -19.5q14 -41 57 -49z" />
    <glyph glyph-name="w_x" unicode="wx" horiz-adv-x="539" 
d="M276 174q60 27 99 74q-62 110 -69 119q8 6 13 4.5t13 -13.5q5 -8 23.5 -41.5l30.5 -53.5q47 66 50 148q-49 10 -69 54q-58 -47 -118 -47q0 -43 -8 -91q-4 -26 -12.5 -58.5t-21.5 -71.5t-33 -65.5t-41 -27.5q-9 -2 -16.5 2.5t-12 16.5t-8 24t-5.5 33.5t-2.5 34t-2 36
t-1.5 31.5q-30 -104 -61 -106q-26 0 -29 56q-1 48 6 106q2 28 2 33q23 0 19 -35q0 -1 -3 -25.5t-3.5 -34t-1 -28.5t2 -32t7.5 -23q20 2 52 120q8 31 16 31q10 1 10 -29q7 -197 28 -195q24 2 46.5 48.5t33 87t15.5 74.5q7 41 7 91q-34 8 -57 37.5t-12 60.5q4 15 18 22
q24 10 41 -6t21 -41q4 -19 6 -59q25 0 48 8t33 14.5t32 22.5q-2 6 -2 19q0 26 20.5 36.5t39.5 -6.5q28 -28 33 -103q38 -3 83 24q1 -7 1 -11.5t-4.5 -8.5t-15.5 -9q-35 -13 -65 -12q-4 -92 -57 -162q26 -45 47 -70t35 -20q32 13 64 143q5 0 7 -4.5t1 -10.5t-3 -13
q-34 -121 -66 -129q-38 -8 -96 90q-36 -40 -82 -65q-19 -10 -26 6zM436 428q-6 69 -28 88q-12 10 -21.5 3t-9.5 -20q0 -25 17.5 -45t41.5 -26zM232 438q-2 27 -6 54q-3 16 -13.5 28.5t-23.5 5.5q-8 -6 -10 -12q-7 -23 11.5 -46t41.5 -30z" />
    <glyph glyph-name="d_b" unicode="db" horiz-adv-x="425" 
d="M-30 581q75 -10 142 -1q40 292 135 366q59 40 103 20q53 -25 40 -126q1 0 4.5 0.5t5.5 0.5q33 0 52 -19t20 -43.5t-2 -47.5q-9 -46 -40 -92.5t-74 -75.5q-29 -21 -77 -33q-3 -35 -3 -102q0 -80 10 -133q1 -8 4.5 -20.5t9.5 -29.5t15 -27t19 -5q13 6 17 48q-9 5 -20.5 19
t-16.5 27q-8 20 8 26.5t31 -7.5q16 -14 16 -59q13 -6 30.5 4.5t27.5 28.5q8 -4 -2 -19q-9 -13 -25.5 -22t-32.5 -5q-7 -43 -24 -51q-44 -18 -68 61q-2 -9 -7.5 -43.5t-12.5 -66.5t-16.5 -67t-24.5 -58t-32 -26t-31.5 28.5t-23.5 78t-14 85.5t-6 60q-57 -115 -106 -87
q-24 16 -19 67q4 40 25 75t54 41q21 4 41 -16q1 0 1 -1q-3 95 2 175q-14 0 -21 1q-6 1 -9.5 2t-5 3t-2.5 3.5t-1 4v3.5l39 -3l4 40q-52 -7 -110 -1q-17 1 -24 5.5t-5 13.5zM258 428q0 54 4 97q-13 -4 -37 -8q-50 -8 -103 -8q-9 -162 6 -293q4 -41 12 -85.5t19.5 -78.5
t22.5 -33q14 1 27 25.5t22.5 62.5t16.5 74t12.5 72t7.5 43q-10 63 -10 132zM129 582q98 23 150 70q32 153 94 182v1q13 95 -31 116q-34 19 -85 -19q-88 -69 -128 -350zM280 545q38 12 65 29q40 27 69.5 71.5t38.5 87.5q13 93 -52 93q-3 0 -8 -1.5t-6 -1.5q-16 -85 -74 -159
l-18 -18q-12 -61 -15 -101zM103 278q-2 30 -14 46q-29 29 -61 -20q-28 -45 -26 -93q1 -24 12 -32q16 -12 49 32t40 67zM221 531q7 1 42 9q3 37 11 89q-66 -52 -147 -64q-2 -14 -4 -42q52 0 98 8zM303 679q45 57 64 131q-36 -32 -64 -131zM353 279q4 28 -15 41q-7 5 -9 0
q-3 -6 5.5 -20.5t18.5 -20.5z" />
    <glyph glyph-name="t_b" unicode="tb" horiz-adv-x="276" 
d="M-72 590q38 -6 77 -4l2 136q8 171 36 217q6 10 13.5 14.5t13.5 1t6 -15.5q-43 -11 -52 -213q-2 -89 -2 -139q27 1 57 8q20 4 41 11q4 60 13.5 118t25 113.5t40.5 90t55 34.5q47 0 62 -41.5t6 -88.5q-9 -54 -38.5 -109.5t-72.5 -89.5q-29 -24 -75 -39q-3 -41 -3 -120
q0 -95 10 -158q1 -10 4 -24.5t9 -35t15 -31.5t19 -6q12 8 16 57q-8 5 -19.5 22t-16.5 32q-8 23 7.5 31t30.5 -8q16 -17 16 -70q30 -19 55 17q9 -10 -2 -21q-25 -27 -55 -12q-7 -50 -24 -60q-40 -20 -61 55q-37 -183 -52 -224q-11 -29 -23 -37q-19 -14 -35 9
q-26 35 -30 154.5t4 252.5l4 152q-38 0 -59 2q-6 1 -9.5 2t-5 3.5t-2.5 4.5t-1 5v4zM22 570l-4 -153q-7 -132 -3.5 -249t26.5 -149q7 -8 11 -5q27 21 78 275l-4 24q-11 72 -11 161q0 63 4 114q-17 -6 -36 -9q-28 -7 -61 -9zM137 612q38 14 63 34q40 32 68.5 84.5t37.5 104.5
q13 109 -51 109q-45 -2 -77 -106.5t-41 -225.5zM208 297q4 34 -15 49q-6 5 -8 0q-3 -8 5.5 -25t17.5 -24z" />
    <glyph glyph-name="d_h" unicode="dh" horiz-adv-x="482" 
d="M-30 581q75 -10 142 -1q40 292 135 366q59 40 103 20q40 -19 42 -91q30 9 54.5 -6t31.5 -48q7 -38 -3 -77q-27 -115 -187 -178q-7 -101 -1 -294q1 -10 1 -36v-19q2 7 15 41q1 1 7.5 19t11.5 28.5t13.5 25.5t18.5 22t20 6q28 -2 24 -87q-2 -129 8 -130q5 -1 13.5 11.5
t20.5 39t21 48.5l24 59q14 -2 1 -31q-2 -6 -9.5 -24.5l-11.5 -28t-11.5 -26t-12.5 -26t-11.5 -19.5t-12.5 -14t-12 -4q-29 3 -24 146q1 12 1 21t-1 23.5t-4.5 21.5t-10.5 4q-5 -2 -11 -10t-12 -20t-10 -22t-8.5 -22.5t-5.5 -14.5q-22 -58 -34 -58t-14 45q-26 -153 -51 -201
q-17 -33 -38 -37q-17 -3 -31.5 28.5t-23.5 78t-14 85.5t-6 60q-57 -115 -106 -87q-24 16 -19 67q4 40 25 75t54 41q21 4 41 -16q1 0 1 -1q-3 126 6 229q-52 -7 -110 -1q-17 1 -24 5.5t-5 13.5zM271 560q-60 -20 -146 -18q-15 -171 3 -326q4 -41 12 -85.5t19.5 -78.5
t22.5 -33q17 1 33.5 42t26 87t18 96t9.5 55q-5 152 2 261zM129 582q98 23 150 71q6 42 15 76q20 80 53 116q12 13 28 23q2 66 -33 83q-34 19 -85 -19q-88 -69 -128 -350zM289 584q66 25 111 66.5t59 96.5q9 31 3 68q-4 31 -24.5 42t-45.5 1l-3 -25q-15 -93 -76 -169l-18 -18
q-4 -30 -6 -62zM103 278q-2 30 -14 46q-29 29 -61 -20q-28 -45 -26 -93q1 -24 12 -32q16 -12 49 32t40 67zM272 577q2 36 4 53q-65 -52 -149 -65q0 -2 -0.5 -4t-0.5 -3q64 -5 146 19zM358 833q-31 -35 -48 -108q-4 -16 -10 -50q56 69 73 160q0 2 0.5 6.5t0.5 6.5
q-8 -5 -16 -15z" />
    <glyph glyph-name="d_t" unicode="dt" horiz-adv-x="400" 
d="M-30 581q75 -10 142 -1q40 292 135 366q59 40 103 20q55 -26 39 -133q-15 -93 -76 -169q-8 -9 -24 -23q-3 -48 -3 -83q23 1 101 4l1 -15l-102 -4q0 -30 -1 -106.5t-1.5 -132t1.5 -120.5t8 -107.5t17 -57.5q7 -8 11 -5q28 22 80 286q9 -1 10 -6t-3 -23q-37 -192 -55 -235
q-11 -27 -22 -35q-19 -14 -35 9q-25 33 -30 205q-34 -203 -84 -212q-17 -3 -31.5 28.5t-23.5 78t-14 85.5t-6 60q-57 -115 -106 -87q-24 16 -19 67q4 40 25 75t54 41q21 4 41 -16q1 0 1 -1q-3 126 6 229q-52 -7 -110 -1q-17 1 -24 5.5t-5 13.5zM270 543q-1 0 -6.5 -0.5
t-29 -1.5t-62.5 -3v14q47 1 98 5q0 22 2 70q-64 -49 -145 -62q-18 -177 1 -349q4 -41 12 -85.5t19.5 -78.5t22.5 -33q7 0 14 7t13 20t11.5 27.5t10.5 35l9 37t8.5 40t6.5 36.5t5.5 33.5t4.5 25.5q0 89 5 262zM129 582q95 23 144 65q14 210 48 257q17 21 28 4
q-42 -33 -59 -244l10 11q56 69 73 160q13 95 -31 116q-34 19 -85 -19q-88 -69 -128 -350zM103 278q-2 30 -14 46q-29 29 -61 -20q-28 -45 -26 -93q1 -24 12 -32q16 -12 49 32t40 67z" />
    <glyph glyph-name="l_h" unicode="lh" horiz-adv-x="361" 
d="M-120 568q73 -19 121 -4q7 159 30.5 268t65.5 126q24 9 46 -2t32 -35q14 -36 14 -79q16 51 39 80q35 45 77.5 36.5t52.5 -64.5q6 -43 -3 -88q-14 -69 -64.5 -120.5t-120.5 -82.5q-7 -115 -1 -337q1 -12 1 -41v-21q2 7 15 47l7 22t11.5 32t13.5 29t18 24.5t20 7.5
q28 -2 24 -99q-2 -148 8 -149q5 -1 13 13t19 42.5l17.5 46.5l17.5 50l11 30q13 -3 1 -36q-3 -8 -10 -28.5l-11 -32t-11 -30t-12.5 -29.5t-12 -22.5t-12.5 -16.5t-11 -4q-29 3 -24 167q1 13 1 23.5t-1 27t-4.5 24.5t-10.5 5q-16 -8 -46 -102q-22 -66 -34 -66q-10 0 -14 45
q-49 -247 -98 -244q-11 1 -21 13q-13 15 -24 121q-10 89 -12 218q-2 69 0 213q-37 -9 -98 -1q-24 4 -20 23zM153 596q-35 -14 -86 -19q-22 -16 -51 -26q-4 -103 -1 -217q0 -116 12 -217q11 -103 23 -115t26.5 13.5t29 75.5t25 93.5t19.5 87.5q0 1 0.5 2.5t0.5 2.5
q-5 193 2 319zM17 569q45 16 81 58t52.5 92t21.5 103.5t-12 91.5q-8 19 -23.5 27.5t-33.5 1.5q-69 -28 -86 -374zM171 623q141 64 168 187q9 35 3 78q-6 49 -41.5 53.5t-61.5 -33.5q-29 -39 -47 -123q-15 -72 -21 -162zM154 615q4 60 8 90q-28 -67 -70 -107q33 7 62 17z" />
    <glyph glyph-name="g_j" unicode="gj" horiz-adv-x="280" 
d="M210 349q-2 -60 -4 -175t-5 -172q15 2 43 -2.5t42 -12.5t16.5 -13.5t-2.5 -13.5q-52 29 -100 26q0 -1 -1.5 -13.5t-3.5 -31.5t-4.5 -40.5t-6.5 -45t-8 -40.5q-30 -131 -99 -146q-41 -8 -56 35q-22 -32 -48 -38q-40 -10 -60 29q-24 45 -8 123q19 81 71 132q46 46 109 50
q11 98 16 210q2 40 2 99q-29 -55 -69 -64q-21 -4 -33 7t-7 32q5 22 24.5 43.5t40.5 29.5q24 7 39 -13v6q3 1 7.5 5t7 3.5t4.5 -7.5v-1q4 -78 1 -141q-6 -112 -16 -208q30 -2 52 -8q10 4 30 8q3 70 5 193.5t4 168.5q2 0 6 0.5t5 0t3 -2t2.5 -4.5t0.5 -8zM-31 -318q26 6 47 43
q-12 79 41 175q7 14 18 28l8 55q-53 -5 -96 -45q-48 -48 -65 -124q-16 -71 6 -111q14 -27 41 -21zM73 -314q91 18 109 297q-52 -11 -92 -63q-22 -132 -56 -196q0 -3 1 -4q7 -40 38 -34zM88 317q-3 20 -15.5 23t-25.5 -11q-12 -12 -26.5 -38t-4.5 -32q19 -11 40 11.5t32 46.5
zM68 -115q-38 -70 -37 -131q21 49 37 131zM201 434q9 0 9 -18q0 -8 -2.5 -14.5t-6.5 -5.5q-9 0 -9 19q2 19 9 19zM100 -16l-5 -32q18 18 36 29q-17 3 -31 3z" />
    <glyph glyph-name="z_j" unicode="&#x7a;j" horiz-adv-x="306" 
d="M236 349q-2 -60 -4 -175t-5 -172q15 2 43 -2.5t42 -12.5t16.5 -13.5t-2.5 -13.5q-52 29 -100 26q0 -1 -1.5 -13.5t-3.5 -31.5t-4.5 -40.5t-6.5 -45t-8 -40.5q-30 -131 -99 -146q-27 -6 -43 13q-5 -3 -15 -7q-31 -7 -47 17q-20 30 -8 93q12 64 47 119q52 79 126 99
q8 109 -17 181q-32 91 -109 36q-7 -6 -13 -2q-5 7 2 16q74 74 66 113q-5 23 -35 8q-31 -17 -41 -48q-5 -15 0 -28q-8 -3 -14 2t-5 20q3 33 34 57q9 7 20.5 11.5t24 6t22 -5t11.5 -21.5q2 -19 -7 -38t-38 -58q39 11 64.5 -7.5t36 -60.5t13.5 -75.5t3 -75.5q0 -14 -2 -42
q15 6 31 9q3 70 5 193.5t4 168.5q2 0 6 0.5t5 0t3 -2t2.5 -4.5t0.5 -8zM99 -314q91 18 109 297q-15 -3 -30 -11q-8 -66 -26 -130q-33 -110 -78 -150q11 -9 25 -6zM135 -154q13 42 24 115q-38 -26 -61 -69q-55 -98 -37 -172l3 -13q40 36 71 139zM162 -17v1q-67 -20 -110 -90
q-35 -55 -45 -112q-11 -56 6 -81q9 -15 27 -9q8 3 10 4q-4 8 -6 21q-17 81 39 183q33 58 79 83zM227 434q9 0 9 -18q0 -8 -2.5 -14.5t-6.5 -5.5q-9 0 -9 19q2 19 9 19z" />
    <glyph glyph-name="g_p" unicode="gp" horiz-adv-x="406" 
d="M211 344q0 -14 -1 -45.5t-1 -48.5q16 77 60 106q20 15 36.5 8.5t27 -21.5t13.5 -34q5 -28 -1 -58q-14 -74 -63 -104q-20 -13 -43.5 0t-29.5 35q-2 -125 -5 -184q42 2 87 -18q21 -10 13 -25q-50 28 -102 25q-18 -296 -120 -318q-45 -10 -58 46q-24 -37 -51 -42
q-40 -10 -60 29q-24 45 -8 123q19 81 71 132q46 46 109 50q11 98 16 210q2 40 2 99q-29 -55 -69 -64q-21 -4 -33 7t-7 32q5 22 24.5 43.5t40.5 29.5q24 7 39 -13v6q3 1 7.5 5t7 3.5t4.5 -7.5v-1q4 -78 1 -141q-6 -112 -16 -208q28 -1 63 -12q11 5 22 6q5 116 7 363h5.5h4.5
t3 -0.5t2.5 -2t1 -4.5t0.5 -7zM-31 -318q28 7 52 50q-3 33 4 64q11 53 36 97q3 7 11 19q8 43 11 71q-53 -5 -96 -45q-48 -48 -65 -124q-16 -71 6 -111q14 -27 41 -21zM78 -321q92 19 108 299q-67 -17 -109 -93q-10 -16 -16 -30q8 34 11 57l21 27q-22 -139 -56 -208
q2 -26 11.5 -40.5t29.5 -11.5zM218 213v-1q-2 -11 11 -32q30 -52 72 11q23 34 28 63q4 26 1 53q-3 23 -18 35t-34 1q-23 -17 -45 -73q-18 -50 -15 -57zM88 317q-3 20 -15.5 23t-25.5 -11q-12 -12 -26.5 -38t-4.5 -32q19 -11 40 11.5t32 46.5zM100 -16q-4 -30 -7 -45
q23 26 48 40q-17 5 -41 5zM61 -145q-12 -28 -19 -62l-3 -19q15 43 22 81z" />
    <glyph glyph-name="t_h" unicode="th" horiz-adv-x="339" 
d="M-47 597q23 -4 53 -4q0 58 2 114q8 171 36 217q6 10 13.5 14.5t13.5 1t6 -15.5q-43 -11 -52 -213l-3 -118q49 2 110 22q7 107 22 174q20 93 52 133q35 45 77.5 36.5t52.5 -64.5q6 -43 -3 -88q-14 -69 -64.5 -120.5t-120.5 -82.5q-7 -115 -1 -337q1 -12 1 -41v-21
q2 7 15 47l7 22t11.5 32t13.5 29t18 24.5t20 7.5q28 -2 24 -99q-2 -148 8 -149q5 -1 13 13t19 42.5l17.5 46.5l17.5 50l11 30q13 -3 1 -36q-3 -8 -10 -28.5l-11 -32t-11 -30t-12.5 -29.5t-12 -22.5t-12.5 -16.5t-11 -4q-29 3 -24 167q1 13 1 23.5t-1 27t-4.5 24.5t-10.5 5
q-16 -8 -46 -102q-22 -66 -34 -66t-14 49q-40 -208 -69 -228q-19 -14 -35 9q-26 35 -30 154.5t4 252.5l4 159q-18 0 -28 1q-30 4 -24 20zM22 576l-4 -159q-7 -132 -3.5 -249t26.5 -149q7 -8 11 -5q28 22 77 271q-5 192 2 311q-49 -18 -109 -20zM149 623q141 64 168 187
q9 35 3 78q-6 49 -41.5 53.5t-61.5 -33.5q-29 -39 -47 -123q-15 -72 -21 -162z" />
    <glyph glyph-name="T_h" unicode="Th" horiz-adv-x="677" 
d="M291 597q83 -13 179 18q7 107 22 174q20 93 52 133q12 14 18 19q-94 0 -143 1q-47 1 -138 1q-2 -98 -20 -404q-15 -236 -22 -425q63 -55 82 -151q10 -50 8 -104q-3 -50 -14 -89q-7 -29 -19 -47t-24 -20q-15 -4 -25.5 10.5t-15.5 44.5q-19 89 -10 348q-36 27 -74 36
q6 19 31 8q22 -8 44 -23q3 76 11.5 234t9.5 180q18 306 21 402q-182 2 -322 -4q-34 -1 -34 16q140 8 356 6v38h5q10 0 11.5 -1.5t1.5 -11.5v-3q-1 -8 -1 -23h138q114 -2 177 -2q28 6 49.5 -11t28.5 -53q6 -43 -3 -88q-14 -69 -64.5 -120.5t-120.5 -82.5q-7 -115 -1 -337
q1 -12 1 -41v-21q2 7 15 47l7 22t11.5 32t13.5 29t18 24.5t20 7.5q28 -2 24 -99q-2 -148 8 -149q5 -1 13 13t19 42.5l17.5 46.5l17.5 50l11 30q13 -3 1 -36q-3 -8 -10 -28.5l-11 -32t-11 -30t-12.5 -29.5t-12 -22.5t-12.5 -16.5t-11 -4q-29 3 -24 167q1 13 1 23.5t-1 27
t-4.5 24.5t-10.5 5q-16 -8 -46 -102q-22 -66 -34 -66q-4 0 -7.5 7.5t-4.5 19.5t-1.5 23l-1 22.5t-0.5 13.5q-6 207 1 330q-67 -24 -154 -19q-30 4 -24 20zM487 623q141 64 168 187q9 35 3 78q-6 49 -41.5 53.5t-61.5 -33.5q-29 -39 -47 -123q-15 -72 -21 -162zM238 90
q-7 -245 9 -328q11 -45 22 -42q14 3 29 54q12 40 13 86q2 53 -8 99q-15 83 -65 131z" />
    <glyph glyph-name="C_r" unicode="Cr" horiz-adv-x="580" 
d="M464 373q12 1 33 6q14 4 19 -13q4 -18 -11 -103q-23 -128 -9 -136q14 -7 90 173q5 0 6.5 -3.5t0 -9.5t-4 -12.5l-6.5 -16.5q-66 -163 -94 -146q-25 14 0 154q15 81 11 96q-24 -6 -40 -6q-21 -96 -71 -258t-92 -262q-34 -81 -66 -124.5t-61 -38.5q-105 18 -147 321
q-26 199 -15 432q13 242 57 390q14 49 35 86.5t47.5 61.5t59 21.5t64.5 -36.5q26 -28 35 -86q2 -16 -1 -20.5t-14 -6.5q-4 71 -33 101q-28 30 -55.5 31t-50 -22t-40 -57t-30.5 -78q-44 -148 -57 -386q-11 -230 15 -428q40 -291 133 -307q40 -7 108 153q40 97 89.5 256
t73.5 258q-9 3 -13 7q-10 13 -6.5 39t21.5 48t36 13q8 -9 -17 -91zM447 374q22 71 22 77q-15 -8 -27 -44q-11 -33 5 -33z" />
    <glyph glyph-name="C_x" unicode="Cx" horiz-adv-x="666" 
d="M420 185q30 14 46.5 27t35.5 36l-25.5 45.5l-29.5 51.5q-81 -343 -151 -509q-34 -81 -66 -124.5t-61 -38.5q-105 18 -147 321q-26 199 -15 432q13 242 57 390q14 49 35 86.5t47.5 61.5t59 21.5t64.5 -36.5q26 -28 35 -86q2 -16 -1 -20.5t-14 -6.5q-4 71 -33 101
q-28 30 -55.5 31t-50 -22t-40 -57t-30.5 -78q-44 -148 -57 -386q-11 -230 15 -428q40 -291 133 -307q40 -7 108 153q40 96 85 255.5t69 266.5q-3 3 5 6q9 4 20 -13q5 -8 23.5 -41.5l30.5 -53.5q47 66 50 148q-32 7 -54 32t-22 56q0 26 20.5 36.5t39.5 -6.5q28 -28 33 -103
q38 -3 83 24q1 -7 1 -11.5t-4.5 -8.5t-15.5 -9q-35 -13 -65 -12q-4 -92 -57 -162q26 -45 47 -70t35 -20q32 13 64 143q5 0 7 -4.5t1 -10.5t-3 -13q-34 -121 -66 -129q-38 -8 -96 90q-32 -37 -65 -54q-19 -10 -26 6zM563 428q-6 69 -28 88q-12 10 -21.5 3t-9.5 -20
q0 -25 17.5 -45t41.5 -26z" />
    <glyph glyph-name="L_r" unicode="Lr" horiz-adv-x="479" 
d="M363 373q12 1 33 6q14 4 19 -13q4 -18 -11 -103q-23 -128 -9 -136q14 -7 90 173q5 0 6.5 -3.5t0 -9.5t-4 -12.5l-6.5 -16.5q-66 -163 -94 -146q-25 14 0 154q15 81 11 96q-24 -6 -39 -6q-83 -284 -143 -430q-45 -111 -89 -180q-51 -81 -90 -71q-1 0 -5 2
q-28 12 -28.5 163.5t14.5 346.5q1 19 2 28q10 176 14.5 263.5t5 211t-9.5 187.5q-7 43 -18 64.5t-26 19.5q-3 15 1.5 18t20.5 -6q28 -18 39 -93q11 -65 10.5 -187t-5 -217t-15.5 -262l-11.5 -198.5t-6 -151.5t2.5 -128t16 -42l1 -1q1 0 1 -0.5t1 -0.5q27 -7 71 64
q38 59 88 178q68 164 141 424q-7 2 -12 6q-10 13 -6.5 39t21.5 48t36 13q8 -9 -17 -91zM346 374q22 71 22 77q-15 -8 -27 -44q-11 -33 5 -33z" />
    <glyph glyph-name="L_x" unicode="Lx" horiz-adv-x="565" 
d="M302 174q60 27 99 74q-8 13 -27 48.5t-29 50.5l-20 -73.5l-31.5 -114.5t-36.5 -120t-41 -113q-45 -111 -89 -180q-51 -81 -90 -71q-1 0 -5 2q-28 12 -28.5 163.5t14.5 346.5q1 19 2 28q10 176 14.5 263.5t5 211t-9.5 187.5q-7 43 -18 64.5t-26 19.5q-3 15 1.5 18t20.5 -6
q28 -18 39 -93q11 -65 10.5 -187t-5 -217t-15.5 -262l-11.5 -198.5t-6 -151.5t2.5 -128t16 -42l1 -1q1 0 1 -0.5t1 -0.5q27 -7 71 64q38 59 88 178q20 49 43.5 122t38 124l32.5 118.5t19 69.5q7 5 12 3.5t13 -13.5q5 -8 23.5 -41.5l30.5 -53.5q47 66 50 148q-32 7 -54 32
t-22 56q0 26 20.5 36.5t39.5 -6.5q28 -28 33 -103q38 -3 83 24q1 -7 1 -11.5t-4.5 -8.5t-15.5 -9q-35 -13 -65 -12q-4 -92 -57 -162q26 -45 47 -70t35 -20q32 13 64 143q5 0 7 -4.5t1 -10.5t-3 -13q-34 -121 -66 -129q-38 -8 -96 90q-36 -40 -82 -65q-19 -10 -26 6zM462 428
q-6 69 -28 88q-12 10 -21.5 3t-9.5 -20q0 -25 17.5 -45t41.5 -26z" />
    <glyph glyph-name="R_r" unicode="Rr" horiz-adv-x="653" 
d="M537 373q12 1 33 6q14 4 19 -13q4 -18 -11 -103q-23 -128 -9 -136q14 -7 90 173q5 0 6.5 -3.5t0 -9.5t-4 -12.5l-6.5 -16.5q-66 -163 -94 -146q-25 14 0 154q15 81 11 96q-24 -6 -39 -6q-22 -131 -38 -214t-51.5 -209.5t-75.5 -201.5q-44 -87 -93 -62q-15 8 -26 33.5
t-18.5 74t-12 87.5t-10.5 109q-21 221 -41 293q-52 -16 -89 -2q-11 -293 -2 -393q-7 -1 -10.5 -0.5t-5.5 2t-2.5 4t-0.5 7v11.5q-5 94 4 377q-26 15 -33 38q-11 36 17 54q6 6 20 11q0 21 1 32q14 352 11 464q11 -2 14.5 -10.5t3.5 -28.5q1 -110 -11 -426q-1 -10 -1 -28
q39 -1 60 -24t35 -64q68 34 117 138q28 61 43 139q14 72 8 147q-8 95 -54.5 160.5t-132.5 81.5q-29 3 -52 2q-62 -6 -105 -44q-50 -41 -61 -111q-6 -33 -3 -74q-7 0 -13 9t-5 26q0 22 3 42q13 75 67 121q47 41 115 48q27 3 57 -2q92 -16 142 -85.5t60 -170.5q6 -74 -8 -153
q-14 -75 -45 -143q-51 -111 -128 -149q23 -80 43 -298q6 -67 10 -104.5t10.5 -84t15.5 -70.5t21 -30q32 -17 70 55q88 167 163 618q-9 2 -13 6q-10 13 -6.5 39t21.5 48t36 13q8 -9 -17 -91zM162 283q-28 84 -80 77l-3 -77q40 -17 83 0zM520 374q22 71 22 77q-15 -8 -27 -44
q-11 -33 5 -33zM56 351q-17 -11 -11 -36q3 -14 17 -23q0 20 2 64q-1 -1 -4 -2.5t-4 -2.5z" />
    <glyph glyph-name="R_x" unicode="Rx" horiz-adv-x="739" 
d="M418 118q17 8 52 34q11 59 36 214q2 5 4.5 7.5t5 2t4.5 -1.5t4 -4t3.5 -5t2.5 -5l2 -2q5 -8 23.5 -41.5l30.5 -53.5q47 66 50 148q-32 7 -54 32t-22 56q0 26 20.5 36.5t39.5 -6.5q28 -28 33 -103q38 -3 83 24q1 -7 1 -11.5t-4.5 -8.5t-15.5 -9q-35 -13 -65 -12
q-4 -92 -57 -162q26 -45 47 -70t35 -20q32 13 64 143q5 0 7 -4.5t1 -10.5t-3 -13q-34 -121 -66 -129q-38 -8 -96 90q-39 -44 -97 -90q-52 -284 -119 -412q-44 -87 -93 -62q-15 8 -26 33.5t-18.5 74t-12 87.5t-10.5 109q-21 221 -41 293q-52 -16 -89 -2q-11 -293 -2 -393
q-7 -1 -10.5 -0.5t-5.5 2t-2.5 4t-0.5 7v11.5q-5 94 4 377q-26 15 -33 38q-11 36 17 54q6 6 20 11q0 21 1 32q14 352 11 464q11 -2 14.5 -10.5t3.5 -28.5q1 -110 -11 -426q-1 -10 -1 -28q39 -1 60 -24t35 -64q68 34 117 138q28 61 43 139q14 72 8 147q-8 95 -54.5 160.5
t-132.5 81.5q-29 3 -52 2q-62 -6 -105 -44q-50 -41 -61 -111q-6 -33 -3 -74q-7 0 -13 9t-5 26q0 22 3 42q13 75 67 121q47 41 115 48q27 3 57 -2q92 -16 142 -85.5t60 -170.5q6 -74 -8 -153q-14 -75 -45 -143q-51 -111 -128 -149q23 -80 43 -298q6 -67 10 -104.5t10.5 -84
t15.5 -70.5t21 -30q32 -17 70 55q64 123 113 386q-18 -12 -22 -14q-19 -10 -26 6zM492 170q54 44 83 78l-27.5 49l-26.5 47q-4 -22 -13.5 -81t-15.5 -93zM162 283q-28 84 -80 77l-3 -77q40 -17 83 0zM636 428q-6 69 -28 88q-12 10 -21.5 3t-9.5 -20q0 -25 17.5 -45t41.5 -26
zM56 351q-17 -11 -11 -36q3 -14 17 -23q0 20 2 64q-1 -1 -4 -2.5t-4 -2.5z" />
    <glyph glyph-name="f_f" unicode="ff" horiz-adv-x="436" 
d="M-126 431v16q20 1 129 16l4 31q20 182 69.5 299t127.5 130q46 6 68.5 -31.5t10.5 -77.5q-15 -51 -59 -68q-28 -12 -30 9q29 4 47.5 21.5t25.5 42.5q9 36 -8 64.5t-52 22.5q-71 -11 -116.5 -122.5t-64.5 -286.5l-4 -31q32 4 78 10.5l78 11l47 6.5q20 182 69.5 299
t127.5 130q46 6 68.5 -31.5t10.5 -77.5q-15 -51 -59 -68q-28 -12 -30 9q29 4 47.5 21.5t25.5 42.5q9 36 -8 64.5t-52 22.5q-71 -11 -116.5 -122.5t-64.5 -286.5q124 14 187 24l2 -19q-18 -2 -84 -10.5t-107 -12.5q-17 -166 -6 -352q3 -71 12 -135q81 -4 133 -58
q36 -39 50.5 -91.5t3.5 -101.5q-13 -67 -59 -69q-70 -3 -114 157q-16 58 -29 148q-59 -2 -104 -15q16 -10 34 -28q36 -39 50.5 -91.5t3.5 -101.5q-13 -67 -59 -69q-70 -3 -114 157q-16 58 -29 148q-60 -2 -132 -27q-4 18 18 25q63 18 112 18q-10 83 -12 133q-11 176 1 320
q-96 -13 -128 -15zM18 127q3 -71 12 -135q45 -1 81 -20q70 21 120 21q-10 83 -12 133q-11 175 4 351l-46.5 -6.5l-78.5 -11l-77 -10.5q-15 -175 -3 -322zM32 -24q13 -89 29 -142q20 -71 43.5 -108.5t52.5 -36.5q30 0 44 55q17 108 -50 179q-46 47 -119 53zM250 -24
q13 -89 29 -142q20 -71 43.5 -108.5t52.5 -36.5q30 0 44 55q17 108 -50 179q-46 47 -119 53z" />
    <glyph glyph-name=".notdef" horiz-adv-x="227" 
 />
    <glyph glyph-name=".null" horiz-adv-x="0" 
 />
    <glyph glyph-name="nonmarkingreturn" horiz-adv-x="333" 
 />
    <glyph glyph-name="NULL" horiz-adv-x="0" 
 />
    <glyph glyph-name="NULL" horiz-adv-x="0" 
 />
    <glyph glyph-name="CR" unicode="&#xd;" horiz-adv-x="227" 
 />
    <glyph glyph-name="space" unicode=" " horiz-adv-x="227" 
 />
    <glyph glyph-name="exclam" unicode="!" horiz-adv-x="89" 
d="M105 957q-27 -95 -36 -233.5t-6 -237.5t12 -269q0 -15 -8 -17q-4 -2 -11 -1q-10 166 -13.5 266t4 239.5t32.5 236.5q7 23 26 16zM71 159q13 0 16 -24q1 -11 -3.5 -18.5t-10.5 -7.5q-7 -1 -12 6t-6 17q2 25 16 27z" />
    <glyph glyph-name="quotedbl" unicode="&#x22;" horiz-adv-x="127" 
d="M59 878q-8 -20 -17 -13l2.5 7.5t3 8.5l3.5 9t2.5 8.5t1 6.5t-1 5t-3.5 2q-11 -4 -13 13q-4 23 12 31q3 2 7 2q9 0 12.5 -10.5t1 -25.5t-5 -25.5t-5.5 -18.5zM113 878q-8 -20 -17 -13l2.5 7.5t3 8.5l3.5 9t2.5 8.5t1 6.5t-1 5t-3.5 2q-11 -4 -13 13q-4 23 12 31q3 2 7 2
q9 0 12.5 -10.5t1 -25.5t-5 -25.5t-5.5 -18.5z" />
    <glyph glyph-name="numbersign" unicode="#" horiz-adv-x="628" 
d="M631 943q-50 -28 -94 -136t-90 -286q61 0 74 26q10 -7 8 -17t-10 -14q-24 -17 -78 -17q-19 -74 -55 -228l-24 -103q77 -3 92 25q10 -7 8 -17t-10 -14q-27 -19 -95 -16q-87 -362 -154 -466q-10 -17 -23 -4q41 56 78 171.5t82 299.5q-23 1 -66 7q-63 9 -106 10
q-89 -375 -158 -484q-10 -17 -23 -4q42 58 80.5 179t83.5 309q-68 0 -96 -29q-15 19 6 31q34 21 95 21l21 87q41 178 59 244q-84 3 -114 -29q-15 19 6 31q36 23 113 20q87 333 169 405q23 19 28 -2q-86 -48 -180 -404q41 -3 85 -9q50 -7 87 -8q90 349 173 423q23 19 28 -2z
M193 271l-20 -85q21 -1 103 -10q49 -6 69 -7l25 105l54 226q-35 1 -83 8q-60 8 -88 9q-27 -100 -60 -246z" />
    <glyph glyph-name="dollar" unicode="$" horiz-adv-x="545" 
d="M356 950q-18 -14 -32 -44q67 -5 118 -40q61 -44 52 -106q-2 -13 -8 -15t-12 1q21 60 -41 107q-48 34 -116 37q-55 -138 -48 -520q0 -1 2 -3q111 -185 157 -333q11 -33 18 -64.5t9.5 -71t-4 -70.5t-27.5 -59t-57 -42q-34 -14 -82 -14q-16 0 -24 1l-12 -41q-10 -16 -25 -10
q9 18 17 52q-120 10 -176 88t-30 198l3.5 12t6.5 9t11 1q-35 -122 16 -203t173 -91q26 126 10 512q-2 41 -4 125q-179 290 -118 437q38 90 143 102q9 1 27 1q8 19 22 39q21 21 31 5zM413 31q-47 140 -143 304q3 -91 3 -92q18 -383 -9 -514q4 0 11 -0.5t10 -0.5q44 1 77 14
q129 50 51 289zM277 889q-94 -10 -129 -91q-54 -136 102 -398q-4 351 46 490q-13 0 -19 -1z" />
    <glyph glyph-name="percent" unicode="%" horiz-adv-x="542" 
d="M145 430q-31 0 -53.5 19t-32.5 50t-14.5 57.5t-5.5 55.5q0 29 4.5 64t15 73.5t32 65.5t49.5 29q27 0 46 -21.5t28 -54.5t12.5 -61t3.5 -53q1 -24 -2.5 -58t-11.5 -73t-26.5 -66t-44.5 -27zM145 444q24 1 40 26t22.5 62.5t9 67t1.5 53.5q0 22 -3.5 50t-11.5 59.5t-24 51.5
t-38 17q-27 -4 -46 -29.5t-27.5 -63t-12 -68t-3.5 -58.5t5 -56t15 -54.5t29 -42.5t44 -15zM382 -187q-31 0 -53.5 19t-32.5 50t-14.5 57.5t-5.5 55.5q0 29 4.5 64t15 73.5t32 65.5t49.5 29q27 0 46 -21.5t28 -54.5t12.5 -61t3.5 -53q1 -24 -2.5 -58t-11.5 -73t-26.5 -66
t-44.5 -27zM382 -173q24 1 40 26t22.5 62.5t9 67t1.5 53.5q0 22 -3.5 50t-11.5 59.5t-24 51.5t-38 17q-27 -4 -46 -29.5t-27.5 -63t-12 -68t-3.5 -58.5t5 -56t15 -54.5t29 -42.5t44 -15zM482 942q-24 -13 -47 -45.5t-45.5 -88t-40 -107.5t-40 -136.5t-36 -141l-36.5 -153.5
q-52 -228 -94 -372.5t-89 -218.5q-10 -17 -23 -4q34 46 70 150.5t59 195l61 252.5q34 146 53.5 221.5t51.5 184.5t63 172t65 93q23 19 28 -2z" />
    <glyph glyph-name="ampersand" unicode="&#x26;" horiz-adv-x="551" 
d="M425 265q8 4 13 -1.5t6.5 -11.5t2.5 -14q8 -66 2 -142q127 -333 -80 -438q-28 -12 -28 6q207 87 104 394q-18 -123 -88 -184q-63 -53 -137.5 -38t-110.5 85q-17 37 -19 82.5t17.5 106t61.5 124.5q85 133 106 169q-8 15 -42 70t-47 86q-46 108 -44.5 180.5t39.5 123.5
q45 62 121 66t117 -60q19 -31 23.5 -70.5t-7.5 -86.5t-24 -83.5t-39 -88t-39.5 -73l-37.5 -64.5q91 -154 140 -269q2 61 -10 131zM347 -113q72 67 86 207q-96 205 -148 293q-44 -75 -102 -162q-40 -61 -59 -118.5t-17.5 -100.5t18.5 -77q33 -62 101.5 -74t120.5 32zM285 420
l36.5 64l37 70.5t36.5 83t22.5 77.5t7.5 80t-20 65q-38 59 -105 52.5t-106 -59.5q-76 -107 8 -288q14 -28 43 -76t40 -69z" />
    <glyph glyph-name="quotesingle" unicode="'" 
d="M59 878q-8 -20 -17 -13l2.5 7.5t3 8.5l3.5 9t2.5 8.5t1 6.5t-1 5t-3.5 2q-11 -4 -13 13q-4 23 12 31q3 2 7 2q9 0 12.5 -10.5t1 -25.5t-5 -25.5t-5.5 -18.5z" />
    <glyph glyph-name="parenleft" unicode="(" horiz-adv-x="396" 
d="M356 941q-97 -27 -165 -172q-77 -164 -92 -413q-16 -240 36 -436q50 -191 147 -235q-8 -18 -31 -2q-86 59 -133 233q-51 190 -35 441q15 250 93 419q63 134 151 172q26 10 29 -7z" />
    <glyph glyph-name="parenright" unicode=")" horiz-adv-x="315" 
d="M13 -312q97 27 165 172q77 164 92 413q16 240 -36 436q-50 191 -147 235q8 18 31 2q86 -59 133 -233q51 -190 35 -441q-15 -250 -93 -419q-63 -134 -151 -172q-26 -10 -29 7z" />
    <glyph glyph-name="asterisk" unicode="*" horiz-adv-x="408" 
d="M173 729q11 12 21 -4q25 -41 23 -149q72 83 106 93q6 2 13 -2t2 -13q-17 4 -42.5 -18.5t-67.5 -69.5q-7 -9 -11 -13q68 -75 88 -89t33 -11q5 -9 -2 -13t-13 -2q-33 8 -107 94q0 -32 0.5 -48.5t2.5 -38.5t7 -33.5t14 -15.5q-4 -9 -10.5 -7.5t-10.5 6.5q-18 29 -18 139
q-74 -84 -115 -96q-19 -6 -18 12q43 2 130 103q-88 102 -130 104q-1 17 18 12q42 -12 115 -97q2 126 -28 157z" />
    <glyph glyph-name="plus" unicode="+" horiz-adv-x="419" 
d="M210 468q13 13 21 -4q23 -42 16 -160q56 -7 101.5 -6t55.5 17q9 -5 7 -11.5t-8 -9.5q-30 -16 -157 -5q-5 -57 -2.5 -102t19.5 -54q-4 -9 -11 -7.5t-10 7.5q-12 20 -13.5 64t2.5 94q-131 14 -164 -15q-12 12 5 21q39 21 160 9q8 130 -22 162z" />
    <glyph glyph-name="comma" unicode="," horiz-adv-x="77" 
d="M64 76q-8 -20 -17 -13l2.5 7.5t3 8.5l3.5 9t2.5 8.5t1 6.5t-1 5t-3.5 2q-11 -4 -13 13q-4 23 12 31q3 2 7 2q9 0 12.5 -10.5t1 -25.5t-5.5 -25.5t-5 -18.5z" />
    <glyph glyph-name="hyphen" unicode="-" horiz-adv-x="418" 
d="M66 276q-12 12 5 21q41 21 182 7q51 -7 95.5 -6t54.5 17q9 -5 7 -11.5t-8 -9.5q-31 -17 -151 -5q-53 8 -108.5 7t-76.5 -20z" />
    <glyph glyph-name="period" unicode="." horiz-adv-x="63" 
d="M46 159q13 0 16 -24q1 -11 -3.5 -18.5t-10.5 -7.5q-7 -1 -12 6t-6 17q2 25 16 27z" />
    <glyph glyph-name="slash" unicode="/" horiz-adv-x="455" 
d="M451 943q-24 -13 -47 -45.5t-45.5 -88t-40 -107.5t-40 -136.5t-36 -141l-36.5 -153.5q-52 -228 -94 -372.5t-89 -218.5q-10 -17 -23 -4q34 46 70 150.5t59 195l61 252.5q34 146 53.5 221.5t51.5 184.5t63 172t65 93q23 19 28 -2z" />
    <glyph glyph-name="zero" unicode="0" horiz-adv-x="398" 
d="M36 -92l-14 8q-11 8 -4 22l14 -10q-25 136 -25 305q0 205 36 360q54 211 153 211q45 0 72.5 -113t27.5 -271q0 -150 -23 -271q-26 -138 -76 -205q-59 -80 -144 -45q2 -10 7.5 -27.5t8.5 -29.5l3 -11q-3 -3 -6.5 -2.5t-7.5 7.5t-9 20q-9 23 -13 52zM22 233q0 -178 28 -315
q80 -40 135 35q46 61 73 199q23 119 23 268q0 152 -23.5 260.5t-61.5 108.5q-29 0 -54 -21.5t-41.5 -57.5t-26 -63.5t-16.5 -57.5q-36 -151 -36 -356z" />
    <glyph glyph-name="one" unicode="1" horiz-adv-x="310" 
d="M14 566q16 15 77 125q24 46 39 69.5t23 22.5q11 0 10 -18q-2 -54 1 -145q0 -118 1 -244.5t-12.5 -262t-41.5 -207.5q32 -3 74 -30q17 -11 9 -24q-49 36 -89 39q-27 -59 -66 -65q-17 -2 -20 14t5 27q25 40 73 40q28 67 41 202.5t11.5 263.5t-1.5 247v142l-44 -78
q-44 -85 -63 -111q-15 -20 -27 -7zM34 -159h3q31 4 53 50q-13 0 -25 -7q-12 -6 -24.5 -20t-6.5 -23z" />
    <glyph glyph-name="two" unicode="2" horiz-adv-x="424" 
d="M175 316q-14 -5 -20 13q-23 77 -17.5 150.5t23.5 126.5t48 98q50 74 99 89q35 13 43 -33q17 -95 -62 -379q-68 -244 -144 -404q84 -13 198 -71q19 -10 12 -23q-127 67 -216 80q-16 -34 -31.5 -60t-44 -50.5t-55.5 -20.5q-19 2 -30 18.5t-10 38.5q6 54 58 77q42 20 104 13
q73 154 144 406q80 287 64 371q-5 29 -25 23q-46 -15 -90 -83q-30 -46 -47.5 -99t-22 -128t21.5 -153zM123 -36q-52 5 -90 -12q-45 -21 -49 -63q-1 -17 6 -29t20 -13q10 -2 20.5 1.5t20.5 13l18 17.5t17.5 23l14 22.5l13 22.5t9.5 17z" />
    <glyph glyph-name="three" unicode="3" horiz-adv-x="312" 
d="M42 621q-8 -2 -12 3.5t-4 11.5q-3 92 34 129q17 16 36 15.5t35 -15.5q55 -44 55 -155.5t-28 -190.5q-24 -52 -46 -73q50 -23 67 -86t12 -134q-8 -126 -66 -216q-47 -77 -133 -81q-14 0 -21 15q87 -6 142 75q60 86 63 208q3 68 -13.5 130.5t-63.5 77.5q-29 -21 -73 -24
q-15 1 -22.5 9t1.5 20q14 19 43 20.5t48 -8.5q31 28 46 72q18 47 26.5 108.5t-2 126.5t-44.5 96q-25 22 -52 0q-35 -37 -28 -134zM26 325q30 3 57 18q-31 8 -52 -1q-23 -16 -5 -17z" />
    <glyph glyph-name="four" unicode="4" horiz-adv-x="336" 
d="M95 872q15 6 18 -11q29 -158 -83 -550q-14 -46 -20 -74q-1 -3 -2.5 -11t-2.5 -12l-1 -5q42 -13 95 -3t75 31q3 30 8 54q12 44 25 40q8 -2 12 -18q1 -5 1.5 -10t0.5 -9t-1.5 -9t-2 -8t-3.5 -9l-4 -8t-5 -8l-5 -7.5t-6 -8.5l-4 -6q-13 -129 15 -399q-7 -3 -11.5 2t-5.5 9.5
t-2 12.5q-23 234 -14 360q-63 -44 -176 -21q-12 1 -7 28q4 21 25 93q116 407 81 557zM194 263q15 28 9 46q-1 -4 -4.5 -20.5t-4.5 -25.5z" />
    <glyph glyph-name="five" unicode="5" horiz-adv-x="350" 
d="M173 770q-8 29 -163 -14q6 -86 -20 -251q128 10 183 -122q31 -78 29 -175q-2 -101 -27 -188q-23 -81 -63 -134t-88 -61q-22 -3 -21 13q49 -4 90.5 48.5t66.5 138.5q27 91 27 182q0 98 -28 169q-51 129 -187 111q0 1 3.5 25.5l7.5 54t7.5 69t4.5 71t-1 59.5q8 3 38.5 11
t74.5 15t65 -3q15 -6 1 -19z" />
    <glyph glyph-name="six" unicode="6" horiz-adv-x="332" 
d="M302 659q3 82 -40.5 109t-104.5 -32q-56 -58 -99 -189q-39 -126 -51 -268q-2 -24 -2 -35q96 44 153 -61q40 -76 40 -186t-39 -150q-37 -39 -89 12q-52 49 -71 164.5t-7 256.5q12 146 52 271q44 136 102 195q39 43 87 44t72 -48q13 -27 13 -67q0 -4 -0.5 -8t-4.5 -7
t-11 -1zM4 227q-6 -122 13 -218.5t63 -138.5q43 -40 68 -13q35 38 35 140q0 107 -38 179q-52 96 -141 51z" />
    <glyph glyph-name="seven" unicode="7" horiz-adv-x="440" 
d="M-43 617q53 -20 121.5 -25.5t146.5 9.5q8 32 13 49t18 48.5t26 49t35 32t48 15.5q33 4 49 -17.5t2 -49.5q-49 -106 -177 -139q-45 -166 -106 -524q-29 -173 -38 -221q-4 -25 -19 -18q8 42 23 130.5t19 110.5q61 365 102 517q-129 -27 -253 13q-19 6 -10 20zM242 605
q115 34 160 129q9 20 -2 33t-33 13q-17 -1 -32 -6.5t-27 -20l-19.5 -24t-16.5 -32.5l-12 -30.5t-10.5 -34t-7.5 -27.5z" />
    <glyph glyph-name="eight" unicode="8" horiz-adv-x="389" 
d="M112 225q-74 175 -92 265q-25 138 32 228q23 38 57.5 57.5t71.5 6.5q35 -13 58.5 -52.5t32.5 -94.5t12 -95.5t2 -81.5q0 -108 -23.5 -239t-56.5 -224q16 -101 -43 -147q-34 -23 -73.5 -14.5t-56.5 44.5q-30 51 -22 118t36 128t65 101zM271 458q0 277 -95 309
q-31 13 -60.5 -6t-51.5 -51q-53 -95 -29 -217q17 -88 93 -266q61 -150 73 -201q29 93 49.5 213t20.5 219zM118 210q-34 -42 -59.5 -98.5t-33 -118.5t19.5 -107q51 -62 109 -26q24 18 33 47t8 58.5t-14 75t-26 79.5t-37 90z" />
    <glyph glyph-name="nine" unicode="9" horiz-adv-x="369" 
d="M-9 -157q62 -11 117 44q42 46 75 130q31 84 46 182q18 117 13 240q-30 -38 -58.5 -52.5t-66.5 -0.5q-52 17 -81.5 67.5t-38.5 111.5q-9 54 9 110t58 86q58 37 101 -6q37 -36 59.5 -107t29 -152.5t3.5 -159t-13 -140.5q-18 -105 -46 -185q-33 -87 -80 -135
q-50 -51 -110 -50q-7 0 -13.5 4t-3.5 13zM155 744q-39 35 -82 4q-38 -28 -53.5 -79.5t-7.5 -101.5q9 -58 36.5 -105t73.5 -62q37 -13 64 4.5t55 55.5q-12 211 -86 284z" />
    <glyph glyph-name="colon" unicode=":" horiz-adv-x="72" 
d="M55 350q13 0 16 -24q1 -11 -3.5 -18.5t-10.5 -7.5q-7 -1 -12 6t-6 17q2 25 16 27zM55 159q13 0 16 -24q1 -11 -3.5 -18.5t-10.5 -7.5q-7 -1 -12 6t-6 17q2 25 16 27z" />
    <glyph glyph-name="semicolon" unicode=";" horiz-adv-x="76" 
d="M58 350q13 0 16 -24q1 -11 -3.5 -18.5t-10.5 -7.5q-7 -1 -12 6t-6 17q2 25 16 27zM64 76q-8 -20 -17 -13l2.5 7.5t3 8.5l3.5 9t2.5 8.5t1 6.5t-1 5t-3.5 2q-11 -4 -13 13q-4 23 12 31q3 2 7 2q9 0 12.5 -10.5t1 -25.5t-5.5 -25.5t-5 -18.5z" />
    <glyph glyph-name="less" unicode="&#x3c;" horiz-adv-x="367" 
d="M302 74q-5 28 -40.5 58.5t-94.5 68.5q-93 63 -111 94q-5 -9 -7 -20q-19 3 -10 20q9 20 33 42.5t45 37.5t59 40l46.5 32.5t38 29t32.5 32t8 23.5q9 3 12 -4t1 -13q-16 -36 -130 -113q-89 -56 -118 -92q5 -25 77 -74q7 -5 21 -14l11 -8q38 -25 59 -40t45 -37.5t33 -42.5
q9 -18 -10 -20z" />
    <glyph glyph-name="equal" unicode="=" horiz-adv-x="423" 
d="M76 345q-12 12 5 21q41 21 182 7q51 -7 95.5 -6t54.5 17q9 -5 7 -11.5t-8 -9.5q-31 -17 -151 -5q-53 8 -108.5 7t-76.5 -20zM77 217q-12 12 5 21q41 21 182 7q51 -7 95.5 -6t54.5 17q9 -5 7 -11.5t-8 -9.5q-31 -17 -151 -5q-53 8 -108.5 7t-76.5 -20z" />
    <glyph glyph-name="greater" unicode="&#x3e;" horiz-adv-x="337" 
d="M67 74q-19 2 -10 20q9 20 33 42.5t45 37.5t59 40q81 55 98 75q9 11 11 21q-29 36 -118 92q-114 77 -130 113q-2 6 1 13t12 4q-1 -10 8 -23.5t32.5 -32t38 -29l46.5 -32.5q38 -25 59 -40t45 -37.5t33 -42.5q9 -17 -10 -20q-2 11 -7 20q-18 -31 -111 -94
q-59 -38 -94.5 -68.5t-40.5 -58.5z" />
    <glyph glyph-name="question" unicode="?" horiz-adv-x="308" 
d="M140 159q13 0 16 -24q1 -11 -3.5 -18.5t-10.5 -7.5q-7 -1 -12 6t-6 17q2 25 16 27zM113 742q-8 -1 -10 3.5t-2 11.5q3 120 49 173q43 36 75 22t47 -62q12 -38 13.5 -79t-10.5 -93.5t-21 -83t-31 -95.5l-6 -18q-71 -199 -70 -301q0 -17 -12 -14q-3 48 8.5 108.5t23.5 99.5
t37 111q17 47 27 77.5t21 73t15 74.5t2.5 68t-10.5 68q-12 41 -41 52t-58 -16q-47 -56 -47 -180z" />
    <glyph glyph-name="at" unicode="@" horiz-adv-x="425" 
d="M275 322q-25 27 -54 -18q-26 -39 -22 -71q1 -16 13 -16q30 0 55 51t25 84q14 -2 16 -9q0 -5 -1 -12v-22.5t1 -38.5t2.5 -39.5t6.5 -33.5t13 -13q4 1 13 25q24 73 24 204q0 211 -53 297q-29 47 -73 47.5t-75 -39.5q-38 -47 -65 -138q-46 -155 -46 -354q0 -97 13 -175
q10 -82 44 -148q32 -56 72 -66l2 -1h2q39 -6 84 30q56 45 75 121l6 26q16 -3 8 -30q-19 -82 -79 -128q-50 -41 -96 -34q-4 0 -6 1q-47 13 -80 73q-34 64 -48 154q-12 72 -12 177q0 207 46 358q29 96 69 145q42 49 91.5 44.5t80.5 -56.5q55 -93 55 -304q0 -144 -28 -209
q-14 -34 -25 -34q-35 0 -40 108q-38 -71 -78 -71q-37 0 -32 44.5t40 77.5q23 22 46 19q13 -2 15 -10.5t-5 -15.5z" />
    <glyph glyph-name="A" unicode="A" horiz-adv-x="403" 
d="M-7 -127q6 82 20 391l13 264q-82 46 -184 66q1 10 8.5 12.5t25.5 -2.5q83 -19 151 -56q12 200 29 306.5t46 107.5q137 4 148 -414q3 -93 -1 -231q64 -126 76 -289q7 -118 -10 -222q-17 -97 -40 -123q-13 -16 -25 -8q-27 15 -30.5 144t5.5 298l7 195q-68 132 -189 206
q-1 -19 -12 -254q-15 -308 -19 -369q-1 -16 -4.5 -20.5t-14.5 -1.5zM103 945q-38 -1 -59 -406q118 -70 188 -191q3 103 0 200q-9 400 -129 397zM248 278q-4 -111 -5 -162q-9 -165 -7.5 -289.5t23.5 -136.5q0 1 2 3q20 25 36 116q18 108 10 217q-10 141 -59 252z" />
    <glyph glyph-name="B" unicode="B" horiz-adv-x="355" 
d="M-78 801q47 76 119 102q48 19 94 8q48 -10 81 -46q56 -63 56 -173q0 -150 -56 -240q-16 -28 -42 -51q10 -7 18 -16q65 -69 85 -222q16 -132 -10 -254q-16 -72 -42 -124q21 -5 38 -13q17 -6 21.5 -11t-0.5 -17q-40 18 -68 25q-20 -33 -46 -58q-40 -37 -91 -44
q-46 -6 -67 20q-16 21 -5 47q8 25 38 43q63 37 162 13q27 50 43 122q26 120 10 249q-18 145 -81 212q-10 11 -19 18q-40 -27 -91 -27q-20 0 -26 11q-7 13 5 29q12 15 33 21q39 11 79 -13q24 19 41 49q53 85 53 231q0 105 -51 161q-30 33 -72 41q-39 9 -83 -7
q-77 -27 -124 -119q-20 6 -2 33zM38 731q-12 -224 -12 -740v-120q0 -15 -3 -18t-14 -3v141q-2 510 13 758q11 2 14 -1.5t2 -16.5zM158 -276q23 21 40 50q-90 20 -144 -12q-25 -16 -31 -34q-6 -19 3 -30q14 -19 51 -13q47 6 81 39zM69 382q42 0 74 19q-28 16 -57 7
q-16 -6 -24 -15q-6 -6 -4 -8q1 -3 11 -3z" />
    <glyph glyph-name="C" unicode="C" horiz-adv-x="422" 
d="M290 836q-4 71 -33 101q-28 30 -55.5 31t-50 -22t-40 -57t-30.5 -78q-44 -148 -57 -386q-11 -230 15 -428q40 -291 133 -307q40 -7 108 153q80 193 141 462q5 -1 6.5 -1t5 -2.5t2.5 -6t-1 -11.5q-65 -274 -138 -448q-34 -81 -66 -124.5t-61 -38.5q-105 18 -147 321
q-26 199 -15 432q13 242 57 390q14 49 35 86.5t47.5 61.5t59 21.5t64.5 -36.5q26 -28 35 -86q2 -16 -1 -20.5t-14 -6.5z" />
    <glyph glyph-name="D" unicode="D" horiz-adv-x="361" 
d="M-14 18q6 -74 34 -102l4 -4q0 75 1 117q2 163 4 254t8 228.5t20 213t36 94.5q14 11 33 4q21 -9 0 -26q-13 14 -22 8q-19 -17 -32 -91.5t-18.5 -206t-7.5 -228.5t-3 -250q-2 -92 -2 -128q21 -9 50 -9q72 3 124 171q41 130 54 321q12 181 -11 337q-34 216 -121 231h-1
q-27 4 -53 -24t-51 -81q-47 -98 -75 -248l-4 -31q-12 -3 -14.5 6t2.5 27q25 151 74 254q59 124 123 114h1q100 -17 136 -246q23 -147 12 -339q-13 -194 -55 -326q-55 -180 -141 -183q-29 0 -50 7l-2 -72q0 -16 -2 -18t-16 -4q2 56 2 103q-38 21 -51 92q-5 30 14 35z" />
    <glyph glyph-name="E" unicode="E" horiz-adv-x="405" 
d="M-40 933q42 6 109 1l3 43q15 -1 16.5 -3.5t-0.5 -18.5l-2 -23l53 -6q55 -7 87.5 -10.5t84.5 -2.5t96 11q2 -11 -1.5 -15t-19.5 -7q-88 -14 -249 7l-52 7q-18 -218 -30 -466h157q20 0 25.5 -2t5.5 -15h-188q-24 -529 20 -690q8 -32 19.5 -48t24.5 -12q6 3 31 63l35 76
t41.5 74.5t60.5 76t71 44.5q17 6 23.5 4t11.5 -13q-34 -6 -65.5 -28.5t-53 -46.5t-45.5 -67t-34 -64l-29 -63q-29 -69 -43 -72q-22 -7 -38 12t-27 60q-64 239 9 1178q-78 8 -128 -6q-4 17 21 22z" />
    <glyph glyph-name="F" unicode="F" horiz-adv-x="306" 
d="M-31 514q6 0 23.5 0.5t27.5 0.5q9 217 26 399q-18 0 -42 -0.5t-37 -1t-19 -0.5q-2 12 1.5 14.5t20.5 3.5q7 0 34 0.5t44 0.5l3 27q16 -1 17 -3t0 -10l-2 -14h324q18 -1 48 -1q20 0 27.5 -3t8.5 -15q-42 0 -84 1q-44 0 -159 0.5t-166 0.5q-16 -156 -28 -399
q23 0 71.5 -0.5t71.5 -0.5h74q0 -6 -1 -8.5t-3 -5t-7 -3.5t-13 -1q-31 0 -50 1q-22 0 -71.5 0.5t-71.5 0.5q-7 -144 -9 -296q77 -70 112 -219q16 -64 17 -120q3 -60 -6 -102q-15 -70 -57 -70h-4q-44 6 -64 146q-16 121 -16 317v40q-38 33 -86 36q0 13 7 15t24 -2
q28 -8 56 -27q1 128 8 282l-71 -3q-2 11 1.5 14.5t19.5 4.5zM28 178v-24q0 -206 16 -315q16 -127 48 -130q0 -1 2 -1q27 0 40 57q9 46 6 97q-3 54 -17 118q-29 129 -95 198z" />
    <glyph glyph-name="G" unicode="G" horiz-adv-x="422" 
d="M417 723q-6 97 -53 153.5t-136 50.5q-68 -5 -116.5 -85t-73.5 -207q-23 -117 -25 -254q0 -133 21 -235q33 -160 96 -163t101 48.5t57 129.5q6 29 6 31q5 25 8.5 73t7.5 70q12 0 14 -3.5t0 -16.5q-3 -80 -3 -158v-36q0 -70 -1 -108q2 2 6 5.5t5 4.5q21 13 22 -8
q-15 -3 -34 -28q-10 -331 -81 -331q-46 0 -37 80q5 39 18 79q30 104 83 177q2 53 2 160q-49 -192 -174 -186q-78 3 -113 177q-22 109 -21 238q0 137 24 258q27 133 79.5 216.5t128.5 89.5q92 6 143.5 -50t62.5 -148q1 -24 -17 -24zM238 -326q53 0 63 287q-37 -60 -66 -151
q-13 -44 -16 -76q-7 -60 19 -60z" />
    <glyph glyph-name="H" unicode="H" horiz-adv-x="332" 
d="M263 947q0 -56 -7 -273q-12 -378 -14 -514q87 -163 83 -332q0 -62 -14 -113q-14 -47 -31 -53q-11 -3 -19 6q-40 48 -36 487q-72 133 -200 236q-10 -364 -10 -510q0 -15 -1.5 -16.5t-15.5 -1.5q0 193 9 542q-56 43 -114 76q5 10 10 11t19 -7q47 -29 85 -58q0 2 0.5 6
t0.5 6q8 317 9 436q12 2 15 -1.5t2 -18.5q0 -29 -8 -417q0 -4 -0.5 -12t-0.5 -12q123 -96 200 -223q2 169 13 484q9 253 6 289h5h7t4 -1.5t2.5 -5t0.5 -10.5zM242 122q-4 -398 32 -443q9 3 20 41q13 49 14 108q2 150 -66 294z" />
    <glyph glyph-name="I" unicode="I" horiz-adv-x="148" 
d="M64 924q-1 -59 -8 -178q-17 -394 -20 -556l9 -14q56 -84 85 -213q25 -122 10 -210q-13 -68 -49 -89q-23 -14 -38 10q-42 67 -35 511q-53 74 -117 87q4 10 9 12t22 -3q45 -18 87 -68q4 188 20 534q7 139 8 198q15 0 16.5 -2t0.5 -19zM35 159q-5 -417 33 -475q6 -11 13 -5
q29 17 41 77q16 80 -9 203q-26 115 -78 200z" />
    <glyph glyph-name="J" unicode="J" horiz-adv-x="265" 
d="M-16 863l150 95q8 6 16 -2q15 -14 28 -117q11 -99 14 -241q9 -364 -45 -620q48 -6 72 -13q16 -4 19 -8.5t1 -15.5q-49 16 -95 19q-63 -274 -187 -301q-71 -16 -103 25q-28 35 -14 93q13 58 59 108q92 97 232 93q53 251 45 619q-4 137 -16 240q-9 87 -20 104l-170 -108
q-5 9 -2.5 15t16.5 15zM-47 -324q116 26 174 285q-131 3 -214 -88q-44 -48 -56 -101q-11 -49 10 -78q26 -31 86 -18z" />
    <glyph glyph-name="K" unicode="K" horiz-adv-x="335" 
d="M388 933q-4 11 -7.5 16t-7.5 3q-12 -4 -29 -30.5t-40.5 -81t-40 -96.5l-46.5 -120l-53.5 -138t-46 -104t-47.5 -80q10 -33 26 -92q25 -96 43 -159t49 -157t64 -149.5t65 -68.5q25 -11 51.5 14t52.5 91q11 -6 12 -10.5t-6 -20.5q-53 -117 -117 -91q-35 14 -69.5 70.5
t-67.5 155t-50.5 158.5t-44.5 163q-8 33 -22 82q-13 -10 -28 -7q-2 -274 -2 -395q0 -16 -3 -18.5t-15 -3.5q0 200 3 425q-14 9 -23 28q-7 20 -2 37q7 20 26 19q2 168 4 246q3 225 3 330q14 1 16 -2t2 -19l-3 -309q-2 -81 -4 -253q22 -14 35 -46q36 50 136 311l47.5 122.5
l42 99.5t43.5 83.5t34 32.5q16 5 26 -8q17 -20 -6 -28zM51 304q-9 27 -22 40v-44q12 -5 22 4zM11 313v42h-1q-2 1 -4 -1t-3 -6q-5 -10 2 -25q1 -5 6 -10z" />
    <glyph glyph-name="L" unicode="L" horiz-adv-x="321" 
d="M8 973q28 -18 39 -93q11 -65 10.5 -187t-5 -217t-15.5 -262l-11.5 -198.5t-6 -151.5t2.5 -128t16 -42l1 -1q1 0 1 -0.5t1 -0.5q27 -7 71 64q38 59 88 178q79 190 124 356q5 0 7 -0.5t5 -2.5t2 -6.5t-2 -12.5q-51 -175 -120 -342q-45 -111 -89 -180q-51 -81 -90 -71
q-1 0 -5 2q-28 12 -28.5 163.5t14.5 346.5q1 19 2 28q10 176 14.5 263.5t5 211t-9.5 187.5q-7 43 -18 64.5t-26 19.5q-3 15 1.5 18t20.5 -6z" />
    <glyph glyph-name="M" unicode="M" horiz-adv-x="713" 
d="M-12 -152q12 -3 21 7t16 32q21 72 21 387q-2 208 5 321q4 64 12 112.5t21.5 88t34.5 59t49 17.5q127 -8 134 -578q25 232 65 401q61 256 148 260q60 2 88.5 -64.5t33.5 -190.5q6 -118 -15 -436q-14 -201 -17 -286q57 -26 96 -98q28 -52 36 -104q9 -53 -5 -89
q-17 -40 -58 -34q-50 6 -69 87t-17 226q-35 15 -77 6q0 5 -0.5 9t4 7t14.5 4q30 3 60 -7q2 83 16 280q21 318 15 435q-4 115 -28.5 177.5t-75.5 60.5q-73 -3 -133 -246q-61 -257 -84 -623q0 -30 -1 -40q0 -6 -1 -10t-3.5 -5.5t-3.5 -2t-5 0t-5 0.5q0 17 3 59q2 60 2.5 125.5
t-0.5 160t-8.5 176.5t-19.5 156.5t-35.5 119t-54.5 46.5t-52 -33t-31.5 -90.5t-15.5 -137.5q-7 -113 -5 -320q0 -317 -22 -392q-15 -46 -38 -51q-15 -3 -17.5 1t2.5 16zM605 -41q-2 -134 13.5 -209t58.5 -80q28 -3 39 24q14 29 4 79q-7 48 -34 100q-33 59 -81 86z" />
    <glyph glyph-name="N" unicode="N" horiz-adv-x="434" 
d="M41 941q-2 -183 -6 -378l-2 -96q59 479 206 480q42 0 68.5 -42t37 -109.5t11.5 -164.5q1 -150 -20 -433q-4 -51 -14 -230q64 -53 86 -127q11 -36 11 -76q-2 -38 -13 -62q-17 -37 -48 -35q-36 3 -47.5 78t-6.5 213q-50 39 -128 55q3 11 8 13t22 -2q60 -17 99 -45l14 220
q21 306 19 431q-2 142 -24.5 221t-74.5 78q-54 -1 -94.5 -73t-63.5 -193.5t-35.5 -236t-18.5 -245.5l-5 -245q0 -4 -0.5 -7t-1.5 -5t-3 -2.5t-3 -0.5h-5h-5q-1 105 6 246l7 395l7 394h2q6 0 8 -0.5t4.5 -4t2.5 -11.5zM321 -55q-10 -256 38 -259q19 -3 31 25q11 22 11 54
q2 35 -10 71q-18 63 -70 109z" />
    <glyph glyph-name="O" unicode="O" horiz-adv-x="469" 
d="M206 803q-30 37 -57 16q-50 -39 -86 -205q-35 -172 -35 -348q0 -112 14 -199t48.5 -145t86.5 -58h13q90 14 147 208q54 181 54 411q0 110 -15 203q-13 100 -52 172q-37 65 -83 77l-2 1h-3q-47 6 -98 -35q-64 -51 -87 -140l-6 -31q-7 1 -10.5 9.5t0.5 25.5q23 96 92 149
q60 48 112 39q4 0 6 -1q55 -15 93 -85q41 -74 56 -179q14 -87 14 -205q0 -238 -54 -416q-60 -204 -162 -220q-5 -1 -15 -1q-58 0 -96.5 60.5t-54 151.5t-15.5 208q0 190 36 351q37 175 91 216q34 26 66 -3q18 -16 2 -27z" />
    <glyph glyph-name="P" unicode="P" horiz-adv-x="541" 
d="M53 782q4 20 7 29q17 58 51 95v52q16 0 17 -4q1 -2 1 -12v-18q21 18 41 27q60 28 133 17q15 -1 34 -7q84 -25 123 -102t35 -183q-5 -141 -72 -268q-69 -137 -170 -182q-74 -35 -150 -6q-4 -146 -5 -201q92 -68 101 -190q4 -42 -7 -90q-9 -41 -30 -60q-20 -23 -45 -10
q-39 23 -36 340q-28 20 -76 35q0 19 26 10q26 -10 50 -24q2 130 5 197q-36 19 -64 44q-20 16 -8 32q33 -34 73 -56q3 101 9 204q14 414 14 427q-21 -31 -34 -72q-7 -29 -11 -53q-18 4 -12 29zM113 451l-9 -212q72 -29 142 3q94 42 162 173q65 128 70 262q4 99 -32.5 171.5
t-113.5 95.5q-9 3 -31 7q-70 10 -124 -17q-29 -14 -49 -35q-3 -165 -15 -448zM98 -3q-5 -293 29 -313q10 -7 23 7q16 16 25 53q10 35 7 84q-9 106 -84 169z" />
    <glyph glyph-name="Q" unicode="Q" horiz-adv-x="489" 
d="M179 -15q3 -32 45 -99q72 38 120 199q54 175 54 411q0 116 -14 203q-16 105 -53 172q-48 81 -104.5 76t-104.5 -57.5t-63 -115.5q-3 -12 -7 -31q-18 4 -10 35q13 56 49.5 103t80 70t92 7t82.5 -78q40 -72 55 -178q14 -88 14 -206q0 -236 -54 -416q-49 -167 -128 -208
q60 -92 73 -162q2 -16 -1.5 -21.5t-13.5 -7.5q-2 35 -15 71t-25 57t-34 56q-12 -4 -18 -5q-5 -1 -15 -1q-43 0 -76 34t-52 94t-28.5 133t-9.5 159q0 190 36 351q36 175 91 216q35 25 67 -3q17 -16 1 -27q-28 37 -57 16q-48 -37 -85 -205q-35 -162 -35 -348q0 -112 14 -199
t48 -145t86 -58h13l10 2q-29 44 -39 75q-8 21 11 31z" />
    <glyph glyph-name="R" unicode="R" horiz-adv-x="495" 
d="M-80 764q0 22 3 42q13 75 67 121q47 41 115 48q27 3 57 -2q92 -16 142 -85.5t60 -170.5q6 -74 -8 -153q-14 -75 -45 -143q-51 -111 -128 -149q23 -80 43 -298q6 -67 10 -104.5t10.5 -84t15.5 -70.5t21 -30q32 -17 70 55q20 39 38 88.5t29.5 86t25 102t18 91t17 102
t14.5 89.5l18 -3l-15 -90.5t-17.5 -102t-18.5 -93.5t-25 -102t-30 -87.5t-39 -89.5q-44 -87 -93 -62q-15 8 -26 33.5t-18.5 74t-12 87.5t-10.5 109q-21 221 -41 293q-52 -16 -89 -2q-11 -293 -2 -393q-7 -1 -10.5 -0.5t-5.5 2t-2.5 4t-0.5 7v11.5q-5 94 4 377q-26 15 -33 38
q-11 36 17 54q6 6 20 11q0 21 1 32q14 352 11 464q11 -2 14.5 -10.5t3.5 -28.5q1 -110 -11 -426q-1 -10 -1 -28q39 -1 60 -24t35 -64q68 34 117 138q28 61 43 139q14 72 8 147q-8 95 -54.5 160.5t-132.5 81.5q-29 3 -52 2q-62 -6 -105 -44q-50 -41 -61 -111q-6 -33 -3 -74
q-7 0 -13 9t-5 26zM162 283q-28 84 -80 77l-3 -77q40 -17 83 0zM56 351q-17 -11 -11 -36q3 -14 17 -23q0 20 2 64q-1 -1 -4 -2.5t-4 -2.5z" />
    <glyph glyph-name="S" unicode="S" horiz-adv-x="556" 
d="M526 790q25 66 -42 120q-33 25 -78.5 37.5t-90.5 8.5q-106 -9 -145 -96q-70 -155 117 -479q6 -12 26 -48q89 29 171 -4q26 -11 15 -28q-82 45 -178 16q85 -160 126 -308q11 -38 17.5 -72.5t7.5 -78t-7.5 -78t-32.5 -64.5t-64 -44q-37 -13 -91 -12q-166 2 -237 103.5
t-18 255.5q35 101 108 186.5t166 121.5q-19 36 -25 45q-192 332 -118 495q43 96 160 107q49 4 98 -10t84 -40q66 -52 53 -119q-3 -14 -9.5 -16.5t-12.5 1.5zM430 5q-39 140 -125 306q-91 -35 -162 -117.5t-105 -180.5q-49 -146 16.5 -240t222.5 -96q51 0 85 12
q143 50 68 316z" />
    <glyph glyph-name="T" unicode="T" horiz-adv-x="469" 
d="M-207 927q140 8 356 6v38h5q10 0 11.5 -1.5t1.5 -11.5v-3q-1 -8 -1 -23h138q138 -2 213 -2q18 0 24.5 -3.5t7.5 -13.5q-163 0 -245 1q-47 1 -138 1q-2 -98 -20 -404q-15 -236 -22 -425q63 -55 82 -151q10 -50 8 -104q-3 -50 -14 -89q-7 -29 -19 -47t-24 -20
q-15 -4 -25.5 10.5t-15.5 44.5q-19 89 -10 348q-36 27 -74 36q6 19 31 8q22 -8 44 -23q3 76 11.5 234t9.5 180q18 306 21 402q-182 2 -322 -4q-34 -1 -34 16zM123 62q-7 -245 9 -328q11 -45 22 -42q14 3 29 54q12 40 13 86q2 53 -8 99q-15 83 -65 131z" />
    <glyph glyph-name="U" unicode="U" horiz-adv-x="527" 
d="M64 902l-4 -74q-36 -585 18 -816q22 -95 60.5 -142t95.5 -34q102 23 149 361q33 242 33 569q12 -2 15 -6.5t3 -22.5l-2 -112q0 -90 -2 -320v-244q-2 -176 -2 -245q0 -67 -1 -96v-46q0 -18 -3.5 -23.5t-14.5 -7.5q0 48 1 78q0 61 1 95q0 157 1 245q0 39 0.5 119.5
t0.5 121.5l-12 -108q-48 -349 -162 -375q-67 -16 -110.5 35t-67.5 155q-25 106 -30.5 284t-1.5 276t13 259l6 96q6 0 9 -1t5 -6t2 -15z" />
    <glyph glyph-name="V" unicode="V" horiz-adv-x="506" 
d="M46 936q15 -30 29 -103.5t21.5 -139.5t20.5 -193l25.5 -233.5t27.5 -188t43 -189.5q1 -4 1 -11q14 3 54 263q56 343 94 490q83 326 196 335q16 1 21 -5.5t3 -14.5q-62 16 -112 -71.5t-91 -248.5q-38 -145 -94 -488q-22 -141 -36 -206.5t-29 -70.5t-24 22
q-23 70 -43 188.5t-29 195t-25 232.5q-11 111 -17.5 165.5t-17 127.5t-21.5 107.5t-24 42.5q10 14 13.5 12.5t13.5 -18.5z" />
    <glyph glyph-name="W" unicode="W" horiz-adv-x="585" 
d="M36 622q1 -20 1 -76q3 -349 22 -481q15 -99 33 -96q16 2 30 17.5t26.5 44t22 54.5t19.5 68t14.5 64l12.5 61q17 81 28 82q12 2 15 -39q19 -261 47 -365q13 -47 26.5 -66.5t28.5 -15.5q28 9 59 112.5t52.5 257.5t24.5 299q3 142 -16 242q-21 108 -65 145q-43 35 -111 -2
q-10 17 21 28q59 23 101 -13q50 -40 71 -154q21 -104 16 -246q-2 -148 -25.5 -305.5t-57 -264t-64.5 -116.5q-23 -7 -42.5 15.5t-34.5 79.5q-31 116 -48 367v6q-7 -47 -8 -51q-8 -39 -13.5 -63.5t-16 -67t-21 -70t-24.5 -57.5t-30.5 -46t-34.5 -18q-19 -3 -32 26t-21 85
q-19 131 -22 482q0 18 -0.5 42t-1 38.5t-0.5 22.5q11 0 14.5 -4.5t3.5 -21.5z" />
    <glyph glyph-name="X" unicode="X" horiz-adv-x="477" 
d="M35 951q15 -8 28.5 -22t27 -37.5t24 -44t24 -58l22.5 -62.5t23 -74l21.5 -75.5l23.5 -82.5q31 -113 44 -156q103 261 140 617q16 -6 14 -29q-35 -337 -138 -595l-8 -20q28 -93 53.5 -167.5t62 -156t74.5 -140.5t88 -108.5t105 -73.5q-7 -18 -34 -3q-63 36 -118 100
t-99 152t-76.5 174.5t-66.5 196.5q-68 -159 -221 -412q-17 -29 -31 -19l96 162.5t74 136.5t74 158q-11 37 -50 178l-25 91l-24 82.5t-25 78l-24.5 65t-26 58t-26 40.5t-29 29t-30.5 10q5 23 33 7z" />
    <glyph glyph-name="Y" unicode="Y" horiz-adv-x="460" 
d="M73 923q15 -62 -14 -337q-33 -311 -21 -415q13 -105 65 -98q59 7 123 134q68 134 125 371q3 14 13 11q13 -3 10 -196q-2 -127 -11 -287q20 8 31 10q29 6 29 -13q-31 -1 -61 -18q0 -12 -2 -36.5l-3 -36.5q-26 -368 -75 -364q-28 3 -43 74q-9 54 -6 109q2 64 18 122
q29 101 94 143q9 166 11 297q1 35 2 84t1 61q-52 -207 -117 -339q-69 -136 -137 -144q-37 -4 -57 25.5t-27 88.5q-12 98 17 386l3 32q9 81 13 124t7 99t0 86.5t-13 42.5q9 6 15 3.5t10 -19.5zM339 13l5 60q-50 -38 -76 -124q-15 -52 -18 -119q-3 -56 7 -104q10 -58 26 -60
q32 -3 56 347z" />
    <glyph glyph-name="Z" unicode="Z" horiz-adv-x="489" 
d="M246 485q40 -1 81 -6q56 161 95.5 292.5t41.5 163.5q-96 -34 -226 -34q-113 0 -182 20q-18 5 -24 11t-3 18q67 -32 209 -32q138 2 228 36q10 3 13 -6q6 -16 -34 -157t-101 -313q94 -9 126 -9q0 -17 -24 -17q-16 0 -104 8h-4q-4 -9 -7 -20q-97 -269 -171 -416
q82 -25 147 -136q13 -25 -2 -35q-66 130 -153 156q-56 -110 -96 -145q-38 -35 -66 -6q-38 43 -5 100q20 35 52 53q38 21 79 20q18 0 27 -2q73 146 172 416l6 17q-84 7 -108 7q2 11 8 14t25 2zM45 -123q36 32 90 135q-4 1 -11 2t-8 1q-38 0 -70 -19q-29 -18 -46 -46
q-26 -48 3 -80q15 -17 42 7z" />
    <glyph glyph-name="bracketleft" unicode="[" horiz-adv-x="376" 
d="M320 905l-8 3q-8 2 -20.5 6t-28.5 8.5t-33.5 8.5t-33.5 6.5t-29.5 2.5t-21.5 -4q-10 -6 -22.5 -174t-19.5 -381q-7 -236 2.5 -426t38.5 -251q7 -11 27 -16q22 -4 57 4q33 11 60 31q36 27 36 63h17q0 -44 -42 -76q-26 -22 -66 -34q-41 -11 -66 -4q-30 5 -38 25
q-58 114 -44 685q7 214 23 388t29 181q27 9 69 2.5t81 -19.5l39 -12z" />
    <glyph glyph-name="backslash" unicode="\" horiz-adv-x="473" 
d="M0 943q5 21 28 2q34 -30 65 -93t63 -172t51.5 -184.5t53.5 -221.5l61 -252.5t59 -195t70 -150.5q-13 -13 -23 4q-47 74 -89 218.5t-94 372.5l-36.5 153.5t-36 141t-40 136.5t-40 107.5t-45.5 88t-47 45.5z" />
    <glyph glyph-name="bracketright" unicode="]" horiz-adv-x="337" 
d="M64 905l-6 17l15.5 5l38 11.5t49.5 12t49 6t37 -5.5q13 -7 29 -181t23 -388q14 -571 -44 -685q-8 -20 -38 -25q-25 -7 -66 4q-40 12 -66 34q-42 32 -42 76h17q0 -36 36 -63q27 -20 60 -31q35 -8 57 -4q20 5 27 16q29 61 38.5 251t2.5 426q-7 213 -19.5 381t-22.5 174
q-8 4 -21.5 4t-29.5 -2.5t-33.5 -6.5t-33.5 -8.5t-28.5 -8.5t-20.5 -6z" />
    <glyph glyph-name="asciicircum" unicode="^" horiz-adv-x="472" 
d="M1 685q20 4 43.5 27.5t39.5 47t41 63.5q60 95 90 113q-11 4 -14 5q3 20 20 11q28 -12 56.5 -45.5t66.5 -88.5l33.5 -45l30 -37.5t32.5 -32t24 -7.5q3 -9 -4 -12.5t-13 -1.5q-37 15 -116 127q-60 91 -99 118q-6 -1 -11.5 -4.5t-13 -11t-12.5 -13t-14 -18t-13 -19t-15 -23
l-15 -22.5l-38.5 -60.5t-36 -45.5t-42.5 -34q-17 -9 -20 9z" />
    <glyph glyph-name="underscore" unicode="_" horiz-adv-x="518" 
d="M55 63q-16 13 7 22q26 11 71 13.5t76.5 1t96.5 -6.5q69 -7 128.5 -6t72.5 18q12 -5 9.5 -12.5t-10.5 -10.5q-44 -18 -203 -5q-71 9 -145 7.5t-103 -21.5z" />
    <glyph glyph-name="grave" unicode="`" horiz-adv-x="129" 
d="M107 895q-4 -10 -6.5 -10t-9.5 6q-10 9 -50 56q8 7 11 5.5t12 -12.5q32 -40 43 -45z" />
    <glyph glyph-name="a" unicode="a" horiz-adv-x="174" 
d="M80 321q-25 27 -54 -18q-26 -39 -22 -71q1 -16 13 -16q30 0 55 51t25 84q16 7 15 -21q1 -7 0.5 -23t0 -37t2 -40t6.5 -32.5t13 -14.5q3 0 6.5 6.5t8 20t8 25.5l9.5 33l9 31q10 0 6 -20q-1 -3 -5.5 -22t-8 -30.5t-9.5 -27t-12 -23t-12 -7.5q-35 0 -40 108q-38 -71 -78 -71
q-37 0 -32 44.5t40 77.5q23 22 46 19q13 -2 15 -10.5t-5 -15.5z" />
    <glyph glyph-name="b" unicode="b" horiz-adv-x="145" 
d="M-203 590q80 -10 151 5q20 4 41 11q4 60 13.5 118t25 113.5t40.5 90t55 34.5q47 0 62 -41.5t6 -88.5q-9 -54 -38.5 -109.5t-72.5 -89.5q-29 -24 -75 -39q-3 -41 -3 -120q0 -95 10 -158q1 -10 4 -24.5t9 -35t15 -31.5t19 -6q12 8 16 57q-8 5 -19.5 22t-16.5 32
q-8 23 7.5 31t30.5 -8q16 -17 16 -70q30 -19 55 17q10 -10 -2 -21q-25 -27 -55 -12q-7 -50 -24 -60q-17 -9 -31 1t-22.5 33.5t-12 39.5t-6.5 32q-11 72 -11 161q0 63 4 114q-16 -6 -36 -9q-62 -14 -137 -8q-6 1 -9.5 2t-5 3.5t-2.5 4.5t-1 5v4zM6 612q38 14 63 34
q40 32 68.5 84.5t37.5 104.5q13 109 -51 109q-45 -2 -77 -106.5t-41 -225.5zM77 297q4 34 -15 49q-6 5 -8 0q-3 -8 5.5 -25t17.5 -24z" />
    <glyph glyph-name="c" unicode="c" horiz-adv-x="110" 
d="M71 339q-11 12 -22 9q-17 -7 -30.5 -46.5t0.5 -51.5q15 -11 67 29l26 20q3 -1 3 -4.5t-4.5 -9.5t-13.5 -13q-2 -2 -9.5 -8t-10.5 -8l-10 -7t-10.5 -6.5t-9.5 -4.5t-10 -3.5t-9 -1t-10 1t-9 4.5q-24 19 -8 66t42 58q20 8 31 -4q8 -9 -3 -20z" />
    <glyph glyph-name="d" unicode="d" horiz-adv-x="269" 
d="M-30 581q75 -10 142 -1q40 292 135 366q59 40 103 20q55 -26 39 -133q-15 -93 -76 -169q-79 -82 -186 -99q-18 -177 1 -349q4 -41 12 -85.5t19.5 -78.5t22.5 -33q17 1 33.5 42t26 87t18 96t9.5 55q9 -1 9.5 -8t-2.5 -24q-2 -7 -10.5 -56.5t-17 -89t-26.5 -77t-40 -41.5
q-17 -3 -31.5 28.5t-23.5 78t-14 85.5t-6 60q-57 -115 -106 -87q-24 16 -19 67q4 40 25 75t54 41q21 4 41 -16q1 0 1 -1q-3 126 6 229q-52 -7 -110 -1q-17 1 -24 5.5t-5 13.5zM129 582q119 29 171 93q56 69 73 160q13 95 -31 116q-34 19 -85 -19q-88 -69 -128 -350zM103 278
q-2 30 -14 46q-29 29 -61 -20q-28 -45 -26 -93q1 -24 12 -32q16 -12 49 32t40 67z" />
    <glyph glyph-name="e" unicode="e" horiz-adv-x="115" 
d="M25 235q9 -25 26 -37q10 -7 22 5t21.5 34.5t15 38t7.5 24.5q13 0 5 -24q-1 -3 -4.5 -12l-6 -15.5t-7 -16l-8 -16.5t-8.5 -14.5t-10.5 -12t-11 -7t-12 -2t-12.5 5.5q-46 35 -44 99t40 87q15 7 23.5 -2t11.5 -24q5 -31 -8.5 -62.5t-39.5 -48.5zM21 253q19 13 28.5 38.5
t6.5 51.5q-4 25 -21 2q-25 -39 -14 -92z" />
    <glyph glyph-name="f" unicode="f" horiz-adv-x="218" 
d="M5 477q-76 -9 -152 -15q-2 10 4 13t22 5q57 5 128 14q20 182 69.5 299t127.5 130q46 6 68.5 -31.5t10.5 -77.5q-15 -51 -59 -68q-28 -12 -30 9q29 4 47.5 21.5t25.5 42.5q9 36 -8 64.5t-52 22.5q-71 -11 -116.5 -122.5t-64.5 -286.5q124 14 187 24q3 -9 -2.5 -14t-11 -6
t-14.5 -2l-71 -9.5t-90 -10.5q-17 -166 -6 -352q3 -71 12 -135q81 -4 133 -58q36 -39 50.5 -91.5t3.5 -101.5q-13 -67 -59 -69q-70 -3 -114 157q-16 58 -29 148q-60 -2 -132 -27q-4 18 18 25q63 18 112 18q-10 83 -12 133q-11 175 4 351zM32 -24q13 -89 29 -142
q20 -71 43.5 -108.5t52.5 -36.5q30 0 44 55q17 108 -50 179q-46 47 -119 53z" />
    <glyph glyph-name="g" unicode="g" horiz-adv-x="194" 
d="M98 344v6q3 1 7.5 5t7 3.5t4.5 -7.5v-1q4 -78 1 -141q-6 -112 -16 -208q33 -1 72 -15q18 -7 21.5 -11.5t-0.5 -16.5q-52 24 -95 26q-40 -300 -127 -318q-40 -10 -60 29q-24 45 -8 123q19 81 71 132q46 46 109 50q11 98 16 210q2 40 2 99q-29 -55 -69 -64q-21 -4 -33 7
t-7 32q5 22 24.5 43.5t40.5 29.5q24 7 39 -13zM-31 -318q77 17 114 301q-53 -5 -96 -45q-48 -48 -65 -124q-16 -71 6 -111q14 -27 41 -21zM88 317q-3 20 -15.5 23t-25.5 -11q-12 -12 -26.5 -38t-4.5 -32q19 -11 40 11.5t32 46.5z" />
    <glyph glyph-name="h" unicode="h" horiz-adv-x="208" 
d="M-178 597q83 -13 179 18q4 66 9 110t21.5 103.5t43.5 93.5q35 45 77.5 36.5t52.5 -64.5q6 -43 -3 -88q-14 -69 -64.5 -120.5t-120.5 -82.5q-7 -115 -1 -337v-41l1 -21q2 7 15 47l7 22t11.5 32t13.5 29t18 24.5t20 7.5q28 -2 24 -99q-2 -148 8 -149q5 -1 13 13t19 42.5
l17.5 46.5l17.5 50l11 30q13 -3 1 -36q-3 -8 -10 -28.5l-11 -32t-11 -30t-12.5 -29.5t-12 -22.5t-12.5 -16.5t-11 -4q-29 3 -24 167q1 13 1 23.5t-1 27t-4.5 24.5t-10.5 5q-16 -8 -46 -102q-22 -66 -34 -66q-4 0 -7.5 7.5t-4.5 19.5t-1.5 23l-1 22.5t-0.5 13.5q-6 207 1 330
q-67 -24 -154 -19q-30 4 -24 20zM18 623q141 64 168 187q9 35 3 78q-6 49 -41.5 53.5t-61.5 -33.5q-25 -33 -40.5 -91.5t-19 -94t-8.5 -99.5z" />
    <glyph glyph-name="i" unicode="i" 
d="M20 352q-6 -100 4 -106q8 -3 25.5 18.5t26.5 36.5q11 -11 0 -25q-37 -52 -58 -46q-8 3 -12.5 13.5t-5.5 29.5t-0.5 33t2.5 36.5t2 26.5q14 -1 15 -6q1 -4 1 -11zM16 429q8 -2 8 -20q-1 -8 -3.5 -13.5t-6.5 -4.5q-10 0 -8 19t10 19z" />
    <glyph glyph-name="j" unicode="j" horiz-adv-x="86" 
d="M16 349q-2 -60 -4 -175t-5 -172q15 2 43 -2.5t42 -12.5t16.5 -13.5t-2.5 -13.5q-52 29 -100 26q0 -1 -1.5 -13.5t-3.5 -31.5t-4.5 -40.5t-6.5 -45t-8 -40.5q-30 -131 -99 -146q-47 -10 -59 48q-17 81 39 183q51 87 127 101q3 70 5 193.5t4 168.5q2 0 6 0.5t5 0t3 -2
t2.5 -4.5t0.5 -8zM-121 -314q91 18 109 297q-67 -16 -110 -91q-55 -98 -37 -172q7 -40 38 -34zM7 434q9 0 9 -18q0 -8 -2.5 -14.5t-6.5 -5.5q-9 0 -9 19q2 19 9 19z" />
    <glyph glyph-name="k" unicode="k" horiz-adv-x="195" 
d="M-152 575q92 -17 156 4q15 232 64 314q20 33 46 51t49 17t42 -14t25 -42.5t-2 -68.5q-36 -160 -138 -234q-32 -24 -70 -36q0 -8 -1 -24t-1 -23q-8 -169 -3 -337q10 81 34.5 128t66.5 41q9 -1 9.5 -5t-4.5 -11q-55 -85 -45 -108q26 -91 40 -89q12 1 34 43q20 41 49 119
q7 1 9 -3t-3 -18q0 -1 -9.5 -27.5t-16 -42.5t-17.5 -39t-22.5 -35.5t-22.5 -13.5q-8 -1 -16 6.5t-14.5 22t-11 25.5t-10 28t-6.5 18q-10 26 41 112q-48 -10 -68 -147q-11 -96 -7 -244q8 -108 8 -128q-17 -1 -17 -2q-10 108 -15.5 283t0.5 424q0 12 2 42q-63 -16 -135 -6
q-29 4 -20 20zM21 584q32 12 59 31q96 69 131 224q11 60 -10 87.5t-56.5 14.5t-62.5 -58q-44 -71 -61 -299z" />
    <glyph glyph-name="l" unicode="l" horiz-adv-x="153" 
d="M-120 568q73 -19 121 -4q7 159 30.5 268t65.5 126q24 9 46 -2t32 -35q20 -40 14.5 -97.5t-25 -112t-59.5 -100t-89 -60.5q-4 -103 -1 -217q0 -116 12 -217q11 -103 23 -115t26.5 13.5t29 75.5t25 93.5t19.5 87.5q2 6 3.5 15.5t2.5 12.5q4 -1 6 -2.5t2.5 -6t0.5 -7
t-1.5 -8.5t-1.5 -7q-37 -183 -64 -241q-32 -71 -64 -34q-13 15 -24 121q-10 89 -12 218q-2 69 0 213q-37 -9 -98 -1q-24 4 -20 23zM17 569q45 16 81 58t52.5 92t21.5 103.5t-12 91.5q-8 19 -23.5 27.5t-33.5 1.5q-33 -17 -56 -122t-30 -252z" />
    <glyph glyph-name="m" unicode="m" horiz-adv-x="259" 
d="M20 301q-2 -19 -2 -55q2 7 7 27t8.5 30.5l8.5 25t11 22.5q7 9 16 6.5t12 -10.5q8 -19 10 -48.5t0.5 -54.5t0.5 -50q10 18 39 90q22 52 29 67q14 23 27 17q13 -8 9 -113q-4 -116 6 -127q28 17 59 171q11 0 7 -22q-33 -127 -53 -154q-14 -18 -26 -6q-14 16 -10 138
q4 88 0 96q-9 -14 -26 -59t-33.5 -82t-28.5 -40q-11 -3 -15 12q-2 22 -2 71q0 71 -9 87q-12 -21 -23 -65t-13 -49q-8 -25 -14 -32q-4 -7 -12 -2q-12 27 -2 123h5q6 1 8 0.5t4 -4t2 -10.5z" />
    <glyph glyph-name="n" unicode="n" horiz-adv-x="172" 
d="M19 287q0 -5 -0.5 -16.5t-0.5 -18.5q39 109 65 113q6 1 9.5 -4.5t5.5 -17.5q4 -31 0 -80t-3.5 -94.5t11.5 -45.5q14 1 68 176q10 -2 4 -22q-4 -11 -12.5 -39l-14.5 -46.5t-14 -39.5t-15.5 -32t-14.5 -11q-28 1 -30 57q-1 31 2 88.5t2 87.5q-16 -15 -40.5 -77.5
t-25.5 -77.5q-1 -8 -10 -8q-6 0 -6.5 29t1 60t0.5 34q19 0 19 -15z" />
    <glyph glyph-name="o" unicode="o" horiz-adv-x="141" 
d="M78 356q-35 4 -54 -33q-11 -17 -8 -50t26 -33q28 0 36 48q-26 6 -32 24.5t15 34.5q9 7 17 7q22 -2 18 -54q8 0 26 0.5t27 -0.5q-4 -13 -20 -13h-11h-12.5h-10.5q-7 -28 -19 -46.5t-34 -17.5q-27 0 -38 21.5t-9 44.5t10 41q18 36 52 42q14 3 18 -2t3 -14zM79 301
q2 34 -3 36q-18 -13 -15 -23t18 -13z" />
    <glyph glyph-name="p" unicode="p" horiz-adv-x="212" 
d="M17 344q0 -14 -1 -45.5t-1 -48.5q16 77 60 106q20 15 36.5 8.5t27 -21.5t13.5 -34q5 -28 -1 -58q-14 -74 -63 -104q-20 -13 -43.5 0t-29.5 35q-2 -125 -5 -184q42 2 87 -18q21 -10 13 -25q-50 28 -102 25q-18 -296 -120 -318q-24 -6 -39 8.5t-19 39t-3.5 47t4.5 39.5
q11 53 36 97q50 88 126 102q5 116 7 363h5.5h4.5t3 -0.5t2.5 -2t1 -4.5t0.5 -7zM-116 -321q92 19 108 299q-67 -17 -109 -93q-26 -44 -35 -92q-3 -13 -4 -31.5t0.5 -39.5t11.5 -33.5t28 -9.5zM24 213v-1q-2 -11 11 -32q30 -52 72 11q23 34 28 63q4 26 1 53q-3 23 -18 35
t-34 1q-23 -17 -45 -73q-18 -50 -15 -57z" />
    <glyph glyph-name="q" unicode="q" horiz-adv-x="227" 
d="M107 261l30.5 31.5t30.5 30.5q2 0 5 -3t5 -6t1 -3q-35 -34 -62 -119.5t-39 -186.5q45 1 80 -40q26 -33 39 -85q12 -49 9 -98t-21 -79.5t-49 -28.5q-60 4 -77 119q-9 57 -4 152q2 28 4 41q-31 -4 -78 -41q-15 8 4 24q33 29 76 35q18 150 62 250q-95 -87 -129 -46
q-21 29 -9 63.5t40 49.5q32 16 54.5 -5t27.5 -55zM76 -12q-2 -14 -4 -44q-5 -87 4 -149q18 -102 61 -104q23 -1 36.5 24.5t15.5 67.5q3 44 -8 93q-14 49 -37 78q-28 34 -68 34zM92 250q-11 51 -31 59q-26 11 -46 -29t-6 -61q16 -24 83 31z" />
    <glyph glyph-name="r" unicode="r" horiz-adv-x="158" 
d="M42 373q12 1 33 6q14 4 19 -13q4 -18 -11 -103q-23 -128 -9 -136q14 -7 90 173q5 0 6.5 -3.5t0 -9.5t-4 -12.5l-6.5 -16.5q-66 -163 -94 -146q-25 14 0 154q15 81 11 96q-52 -12 -69 2q-10 13 -6.5 39t21.5 48t36 13q8 -9 -17 -91zM25 374q22 71 22 77q-15 -8 -27 -44
q-11 -33 5 -33z" />
    <glyph glyph-name="s" unicode="s" horiz-adv-x="197" 
d="M52 300q32 30 11 45q-17 12 -38 1q-23 -13 -12 -41q11 -29 48 -69t44 -50q17 22 50.5 60l47.5 55q5 -2 4 -11t-8 -16q-56 -63 -84 -104q23 -37 21 -65q-1 -19 -14 -28q-13 -10 -27 -1q-17 9 -17 35q0 31 18 59q-6 9 -46.5 54.5t-52.5 74.5q-12 34 8 53t45.5 15t33.5 -23
t-8 -45q-14 -16 -24 1zM119 106q2 20 -14 47q-10 -20 -10 -41q1 -17 8 -22q5 -3 9 0q6 6 7 16z" />
    <glyph glyph-name="t" unicode="t" horiz-adv-x="131" 
d="M84 629q-19 -17 -60 -27q-1 -17 -2.5 -65t-2.5 -76t-2 -77.5t-1.5 -82t0 -75.5t2 -72.5t4.5 -59t8 -48t11 -27.5q7 -8 11 -5q28 22 80 286q9 -1 10 -6t-3 -23q-37 -192 -55 -235q-11 -27 -22 -35q-19 -14 -35 9q-13 18 -20 65t-8 118t0 132.5t4 147.5t4 125
q-29 -4 -63 -6q-5 15 12 17h3q34 2 49 5q2 66 4 99q8 171 36 217q6 10 13.5 14.5t13.5 1t6 -15.5q-43 -11 -52 -213l-5 -99q48 13 64 38q15 -13 -4 -27z" />
    <glyph glyph-name="u" unicode="u" horiz-adv-x="173" 
d="M26 347q-5 -45 -5 -78q0 -42 8 -44q34 0 66 134q4 11 12 8q7 -1 5 -39q-11 -202 5 -202q7 -1 21 42t39 132q12 2 6 -19l-14 -54t-15.5 -52.5t-20 -49t-17.5 -16.5q-33 1 -25 175l-7.5 -20.5t-9 -20.5t-13 -20.5t-16.5 -11.5t-21 -2q-23 7 -25 60q0 50 7 98q10 3 16 -1.5
t4 -18.5z" />
    <glyph glyph-name="v" unicode="v" horiz-adv-x="179" 
d="M24 339q-16 -121 -5 -144q3 -3 18.5 14.5t20.5 27.5q21 33 41 85q22 59 22 107q-57 10 -74 60q-9 20 -1.5 39t28.5 13q59 -22 64 -96q40 2 93 35q6 -10 4 -14t-17 -11q-47 -26 -80 -26q0 -48 -23 -113q-19 -51 -42 -87q-26 -40 -43 -49q-18 -9 -27 7q-16 35 -1 154
q0 7 1.5 17t1.5 12q14 -1 17.5 -7t1.5 -24zM121 446q-2 29 -20.5 54.5t-37.5 24.5q-4 -1 -3.5 -10.5t4.5 -19.5q14 -41 57 -49z" />
    <glyph glyph-name="w" unicode="w" horiz-adv-x="295" 
d="M22 336q0 -1 -3 -25.5t-3.5 -34t-1 -28.5t2 -32t7.5 -23q20 2 52 120q8 31 16 31q10 1 10 -29q7 -197 28 -195q24 2 46.5 48.5t33 87t15.5 74.5q7 41 7 91q-34 8 -57 37.5t-12 60.5q4 15 18 22q24 10 41 -6t21 -41q4 -19 6 -59q69 3 112 37q9 -15 -9 -25
q-45 -27 -103 -29q0 -43 -8 -91q-4 -26 -12.5 -58.5t-21.5 -71.5t-33 -65.5t-41 -27.5q-9 -2 -16.5 2.5t-12 16.5t-8 24t-5.5 33.5t-2.5 34t-2 36t-1.5 31.5q-30 -104 -61 -106q-26 0 -29 56q-1 48 6 106q2 28 2 33q23 0 19 -35zM232 438q-2 27 -6 54q-3 16 -13.5 28.5
t-23.5 5.5q-8 -6 -10 -12q-7 -23 11.5 -46t41.5 -30z" />
    <glyph glyph-name="x" unicode="x" horiz-adv-x="244" 
d="M-19 174q60 27 99 74q-62 110 -69 119q8 6 13 4.5t13 -13.5q5 -8 23.5 -41.5l30.5 -53.5q47 66 50 148q-32 7 -54 32t-22 56q0 26 20.5 36.5t39.5 -6.5q28 -28 33 -103q38 -3 83 24q1 -7 1 -11.5t-4.5 -8.5t-15.5 -9q-35 -13 -65 -12q-4 -92 -57 -162q26 -45 47 -70
t35 -20q32 13 64 143q5 0 7 -4.5t1 -10.5t-3 -13q-34 -121 -66 -129q-38 -8 -96 90q-36 -40 -82 -65q-19 -10 -26 6zM141 428q-6 69 -28 88q-12 10 -21.5 3t-9.5 -20q0 -25 17.5 -45t41.5 -26z" />
    <glyph glyph-name="y" unicode="y" horiz-adv-x="183" 
d="M23 344q0 -18 -4 -56t-2 -59q12 10 46 86q26 59 37 59q5 0 8 -5.5t4 -13.5t1 -17t-0.5 -16t0.5 -11q1 -35 1 -304q45 11 106 4q15 -1 19.5 -6t1.5 -15q-70 14 -129 0q-19 -316 -138 -311q-40 1 -52 55q-6 34 3 78q7 44 33 87q50 79 139 105q3 157 0 306l-2 35
q-1 -4 -4 -9.5t-6.5 -14t-6.5 -14.5q-39 -82 -55 -95q-5 -4 -10 -5q-12 -3 -15 14q-8 10 -2 74.5t6 73.5q13 1 17.5 -4t3.5 -21zM-26 -304q103 -3 120 289q-77 -23 -121 -96q-24 -39 -32 -80t-2 -71q8 -42 35 -42z" />
    <glyph glyph-name="z" unicode="z" horiz-adv-x="220" 
d="M-3 301q3 33 34 57q9 7 20.5 11.5t24 6t22 -5t11.5 -21.5q2 -19 -7 -38t-38 -58q21 6 39 2.5t29.5 -14.5t20.5 -27.5t14 -37t8.5 -42t4 -43t1.5 -40t0 -33.5v-11q25 3 59 -2q6 -1 9.5 -3t5 -5t2 -4.5t-0.5 -5.5v-4q-39 13 -76 6q-8 -77 -28 -147q-45 -150 -107 -167
q-31 -7 -47 17q-20 30 -8 93q12 64 47 119q52 79 126 99q8 109 -17 181q-32 91 -109 36q-7 -6 -13 -2q-5 7 2 16q74 74 66 113q-5 23 -35 8q-31 -17 -41 -48q-5 -15 0 -28q-8 -3 -14 2t-5 20zM135 -154q19 62 27 138q-67 -20 -110 -90q-35 -55 -45 -112q-11 -56 6 -81
q9 -15 27 -9q54 14 95 154z" />
    <glyph glyph-name="braceleft" unicode="{" horiz-adv-x="388" 
d="M74 328q48 -11 62 -73q8 -64 6 -232q-4 -187 9 -256q10 -55 43 -72q25 -10 43 -3t29.5 27t17 41.5t5.5 40.5q12 2 14.5 -6t-0.5 -14q-7 -54 -36.5 -86.5t-79.5 -14.5q-41 20 -52 83q-14 71 -10 260q4 167 -5 229q-18 68 -68 57l-7 23q42 17 60 48t16 66t-3 77
q-3 63 -4 99.5t1.5 99t11 101.5t28 77t48.5 54q33 14 60.5 3.5t44.5 -39.5q16 -29 22 -80q4 -20 -15 -18q-3 59 -21 90q-14 23 -35.5 32.5t-46.5 -3.5q-32 -20 -51 -65t-24.5 -113t-5.5 -115.5t3 -121.5q1 -40 3 -75.5t-13 -69t-50 -51.5z" />
    <glyph glyph-name="bar" unicode="|" horiz-adv-x="168" 
d="M153 911q-42 -34 -60.5 -138.5t-15.5 -236t8 -282.5q12 -162 8.5 -327.5t-32.5 -242.5q-10 -16 -25 -10q33 71 37.5 240t-6.5 338q-5 136 -6.5 209.5t1 177.5t18 168t42.5 99q21 21 31 5z" />
    <glyph glyph-name="braceright" unicode="}" horiz-adv-x="393" 
d="M321 301q-48 11 -62 73q-8 64 -6 232q4 187 -9 256q-10 55 -43 72q-25 10 -43 3t-29.5 -27t-17 -41.5t-5.5 -40.5q-12 -2 -14.5 6t0.5 14q7 54 36.5 86.5t79.5 14.5q41 -20 52 -83q14 -71 10 -260q-4 -167 5 -229q18 -68 68 -57l7 -23q-42 -17 -60 -48t-16 -66t3 -77
q3 -63 4 -99.5t-1.5 -99t-11 -101.5t-28 -77t-48.5 -54q-33 -14 -60.5 -3.5t-44.5 39.5q-16 29 -22 80q-4 20 15 18q3 -59 21 -90q14 -23 35.5 -32.5t46.5 3.5q32 20 51 65t24.5 113t5.5 115.5t-3 121.5q-1 40 -3 75.5t13 69t50 51.5z" />
    <glyph glyph-name="asciitilde" unicode="~" horiz-adv-x="655" 
d="M72 204q-10 -5 -14.5 1t-4.5 14q-2 37 18.5 70.5t55.5 47.5q16 7 36.5 7t39 -4t44 -14t43.5 -19l46 -23l21 -11l23 -12l22 -10.5t24 -10t22 -6t23.5 -4t21 1t21.5 5.5q43 19 54 62.5t-10 81.5q18 11 25 -16q12 -46 -3.5 -83.5t-57.5 -59.5q-18 -9 -38.5 -10.5t-43.5 6
t-39 14.5t-41 20.5t-33 17.5q-98 48 -132 55q-37 8 -62 -3q-33 -15 -51 -49t-10 -69z" />
    <glyph glyph-name="exclamdown" unicode="&#xa1;" horiz-adv-x="89" 
d="M105 115q-19 -7 -26 16q-25 97 -32.5 236.5t-4 239.5t13.5 266h8t5 -1.5t3.5 -2.5t2 -3.5t0.5 -3.5v-4v-3q-9 -170 -12 -269t6 -237.5t36 -233.5zM71 913q-14 2 -16 27q1 10 6 17t12 6q6 0 10.5 -7.5t3.5 -18.5q-3 -24 -16 -24z" />
    <glyph glyph-name="cent" unicode="&#xa2;" horiz-adv-x="110" 
d="M114 911q-54 -43 -67 -182t-6 -367q1 0 1 0.5t1 0.5q20 8 31 -4q8 -9 -3 -20q-11 12 -22 9l-7 -5l4 -89v-2q14 7 66 47q3 -1 3 -4.5t-4.5 -9.5t-13.5 -13q-37 -28 -50 -34q11 -159 7 -319t-32 -235q-10 -16 -25 -10q32 69 37 231.5t-6 327.5q-10 0 -19 6q-19 17 -12 50.5
t27 58.5q-7 223 3 361t56 197q21 21 31 5zM19 250q3 -3 9 -3v5l-3 66q-10 -21 -12.5 -40t6.5 -28z" />
    <glyph glyph-name="sterling" unicode="&#xa3;" horiz-adv-x="321" 
d="M-129 412q-12 12 5 21q41 20 157 9q16 313 -3 435q-7 43 -18 64.5t-26 19.5q-3 15 1.5 18t20.5 -6q28 -18 39 -93q19 -119 3 -440h8q51 -7 95.5 -6t54.5 17q9 -5 7 -11.5t-8 -9.5q-31 -17 -151 -5q-1 0 -3.5 0.5t-3.5 0.5q0 -8 -12 -212l-11.5 -198.5t-6 -151.5t2.5 -128
t16 -42l1 -1q1 0 1 -0.5t1 -0.5q27 -7 71 64q38 59 88 178q79 190 124 356q5 0 7 -0.5t5 -2.5t2 -6.5t-2 -12.5q-51 -175 -120 -342q-45 -111 -89 -180q-51 -81 -90 -71q-1 0 -5 2q-28 12 -28.5 163.5t14.5 346.5q1 19 2 28l12 212q-128 14 -161 -15z" />
    <glyph glyph-name="yen" unicode="&#xa5;" horiz-adv-x="460" 
d="M108 -217q-12 12 5 21q34 18 119 13q7 88 12 112q-106 9 -137 -18q-12 12 5 21q37 19 136 12q32 111 97 152q9 166 11 297q1 35 2 84t1 61q-52 -207 -117 -339q-69 -136 -137 -144q-37 -4 -57 25.5t-27 88.5q-12 98 17 386l3 32q9 81 13 124t7 99t0 86.5t-13 42.5
q9 6 15 3.5t10 -19.5q15 -62 -14 -337q-33 -311 -21 -415q13 -105 65 -98q59 7 123 134q68 134 125 371q3 14 13 11q13 -3 10 -196q-2 -127 -11 -287q20 8 31 10q29 6 29 -13q-31 -1 -61 -18q0 -10 -1.5 -25t-4 -49l-5.5 -77q79 -5 93 16q9 -5 7 -11.5t-8 -9.5
q-26 -13 -94 -10q-7 -71 -13 -111q96 -7 109 14q9 -5 7 -11.5t-8 -9.5q-28 -14 -110 -9q-22 -147 -52 -144q-19 2 -31.5 36t-15.5 64t-3 54q-95 7 -124 -19zM249 -184q9 -1 34 -4t37 -3q7 58 11 112l-69 7q-13 -65 -13 -112zM283 -334q9 -1 18 33t17 95q-13 1 -36 4t-33 3
q1 -38 10 -86t24 -49zM333 -64l11 137q-23 -18 -47.5 -59t-30.5 -72z" />
    <glyph glyph-name="brokenbar" unicode="&#xa6;" horiz-adv-x="128" 
d="M72 260q12 13 21 -4q15 -26 17 -80t-3 -102q-5 -51 -3 -95.5t19 -53.5q-4 -9 -11 -7.5t-10 7.5q-18 30 -10 151q6 53 2.5 108t-22.5 76zM69 685q12 13 21 -4q15 -26 17 -80t-3 -102q-5 -51 -3 -95.5t19 -53.5q-4 -9 -11 -7.5t-10 7.5q-18 30 -10 151q6 53 2.5 108
t-22.5 76z" />
    <glyph glyph-name="section" unicode="&#xa7;" horiz-adv-x="224" 
d="M95 529q36 23 20 42q-13 15 -37 9q-25 -7 -20 -38q3 -21 13.5 -42.5t25.5 -46t22 -38.5q28 -60 18 -94q-5 -19 -19 -24q-15 -8 -27 4q-15 13 -9 38q4 22 20 44q-5 11 -21.5 14t-29.5 -6.5t-9 -31.5q5 -30 33 -76.5t33 -58.5q21 18 61.5 48t57.5 45q5 -3 2.5 -11.5
t-11.5 -14.5q-68 -50 -103 -85q14 -39 7 -67q-6 -19 -19 -25q-17 -7 -27 5q-15 11 -10 37q6 30 30 54q-5 11 -35 63.5t-36 83.5q-5 36 19 50q33 21 62 -4q-7 14 -24 42t-27 50t-14 44q-5 36 18 51q23 14 47.5 5t28.5 -29.5t-17 -42.5q-16 -12 -23 6zM105 143q6 18 -4 49
q-13 -17 -18 -38q-2 -19 4 -23q3 -5 8 -2q7 4 10 14zM121 326q6 19 -4 49q-15 -19 -18 -39q-3 -16 3 -23q5 -3 9 -2q7 7 10 15z" />
    <glyph glyph-name="dieresis" unicode="&#xa8;" horiz-adv-x="121" 
d="M27 750q13 0 16 -24q1 -11 -3.5 -18.5t-10.5 -7.5q-7 -1 -12 6t-6 17q2 25 16 27zM102 751q13 0 16 -24q1 -11 -3.5 -18.5t-10.5 -7.5q-7 -1 -12 6t-6 17q2 25 16 27z" />
    <glyph glyph-name="guillemotleft" unicode="&#xab;" horiz-adv-x="445" 
d="M330 73q-5 28 -40.5 58.5t-94.5 68.5q-93 63 -111 94q-5 -9 -7 -20q-19 2 -10 20q9 20 33 42.5t45 37.5t59 40l46.5 32.5t38 29t32.5 32t8 23.5q9 3 12 -4t1 -13q-16 -36 -130 -113q-89 -56 -118 -92q5 -25 77 -74q7 -5 21 -14l11 -8q38 -25 59 -40t45 -37.5t33 -42.5
q9 -17 -10 -20zM428 73q-5 28 -40.5 58.5t-94.5 68.5q-93 63 -111 94q-5 -9 -7 -20q-19 2 -10 20q9 20 33 42.5t45 37.5t59 40l46.5 32.5t38 29t32.5 32t8 23.5q9 3 12 -4t1 -13q-16 -36 -130 -113q-89 -56 -118 -92q5 -25 77 -74q7 -5 21 -14l11 -8q38 -25 59 -40t45 -37.5
t33 -42.5q9 -17 -10 -20z" />
    <glyph glyph-name="logicalnot" unicode="&#xac;" horiz-adv-x="524" 
d="M525 277q-14 -14 -26 5q-23 40 -19 147q-44 -15 -167 -4q-63 8 -128 5t-89 -25q-15 15 5 25q30 17 94 18.5t121 -5.5q60 -7 111.5 -5t62.5 21q13 -7 9 -17q-6 -131 26 -165z" />
    <glyph glyph-name="plusminus" unicode="&#xb1;" horiz-adv-x="424" 
d="M210 468q13 13 21 -4q23 -42 16 -160q56 -7 101.5 -6t55.5 17q9 -5 7 -11.5t-8 -9.5q-30 -16 -157 -5q-5 -57 -2.5 -102t19.5 -54q-4 -9 -11 -7.5t-10 7.5q-12 20 -13.5 64t2.5 94q-131 14 -164 -15q-12 12 5 21q39 21 160 9q8 130 -22 162zM70 68q-12 12 5 21
q41 21 182 7q51 -7 95.5 -6t54.5 17q9 -5 7 -11.5t-8 -9.5q-31 -17 -151 -5q-53 8 -108.5 7t-76.5 -20z" />
    <glyph glyph-name="acute" unicode="&#xb4;" horiz-adv-x="116" 
d="M107 942q-11 -5 -43 -45q-9 -11 -12 -12.5t-11 5.5q40 47 50 56q7 6 9.5 6t6.5 -10z" />
    <glyph glyph-name="periodcentered" unicode="&#xb7;" horiz-adv-x="51" 
d="M26 429q13 0 16 -24q1 -11 -3.5 -18.5t-10.5 -7.5q-7 -1 -12 6t-6 17q2 25 16 27z" />
    <glyph glyph-name="cedilla" unicode="&#xb8;" horiz-adv-x="132" 
d="M117 -76q1 -4 4.5 -13.5t5 -14t3.5 -12.5t2 -12.5t-0.5 -11t-3 -10.5t-7.5 -8t-12 -6q-20 -10 -57.5 -7t-35.5 25q12 -4 41.5 -7t41.5 2q8 4 10 12.5t0 17.5t-5.5 19.5t-7 19t-4 16t3.5 11t15 2.5q0 -5 6 -23z" />
    <glyph glyph-name="guillemotright" unicode="&#xbb;" horiz-adv-x="442" 
d="M175 73q-19 3 -10 20q9 20 33 42.5t45 37.5t59 40q81 55 98 75q9 11 11 21q-29 36 -118 92q-114 77 -130 113q-2 6 1 13t12 4q-1 -10 8 -23.5t32.5 -32t38 -29l46.5 -32.5q38 -25 59 -40t45 -37.5t33 -42.5q9 -18 -10 -20q-2 11 -7 20q-18 -31 -111 -94
q-59 -38 -94.5 -68.5t-40.5 -58.5zM77 73q-19 3 -10 20q9 20 33 42.5t45 37.5t59 40q81 55 98 75q9 11 11 21q-29 36 -118 92q-114 77 -130 113q-2 6 1 13t12 4q-1 -10 8 -23.5t32.5 -32t38 -29l46.5 -32.5q38 -25 59 -40t45 -37.5t33 -42.5q9 -18 -10 -20q-2 11 -7 20
q-18 -31 -111 -94q-59 -38 -94.5 -68.5t-40.5 -58.5z" />
    <glyph glyph-name="questiondown" unicode="&#xbf;" horiz-adv-x="308" 
d="M269 910q-13 0 -16 24q-1 11 3.5 18.5t10.5 7.5q7 1 12 -6t6 -17q-2 -25 -16 -27zM296 327q8 1 10 -3.5t2 -11.5q-3 -120 -49 -173q-43 -36 -75 -22t-47 62q-12 38 -13.5 79t10.5 93.5t21 83t31 95.5l6 18q71 199 70 301q0 17 12 14q3 -48 -8.5 -108.5t-23.5 -99.5
t-37 -111q-17 -47 -27 -77.5t-21 -73t-15 -74.5t-2.5 -68t10.5 -68q12 -41 41 -52t58 16q47 56 47 180z" />
    <glyph glyph-name="Agrave" unicode="&#xc0;" horiz-adv-x="349" 
d="M-15 -138q9 116 19 372l13 250q-75 42 -175 63q3 17 32 9q79 -18 144 -53q11 189 27 290.5t44 102.5q129 4 140 -393q3 -88 -1 -219q62 -121 72 -274q7 -109 -9 -211q-17 -93 -38 -117q-13 -14 -24 -7q-25 14 -28.5 136.5t4.5 282.5l7 185q-64 124 -179 196
q-1 -14 -12 -241q-10 -245 -18 -351q-1 -16 -4 -19.5t-14 -1.5zM90 880q-37 -1 -56 -385q111 -67 178 -182q3 98 0 190q-9 380 -122 377zM227 247q-4 -104 -4 -154q-9 -157 -7.5 -275t22.5 -129q0 1 2 3q18 23 34 110q17 106 9 206q-8 130 -56 239zM147 922q-4 -10 -6.5 -10
t-9.5 6q-10 9 -50 56q8 7 11 5.5t12 -12.5q32 -40 43 -45z" />
    <glyph glyph-name="Aacute" unicode="&#xc1;" horiz-adv-x="349" 
d="M-17 -139q9 113 19 367l12 248q-77 43 -172 62q2 10 8.5 11.5t23.5 -2.5q76 -17 141 -52q11 187 27 287t44 101q128 4 139 -388q3 -88 -1 -217q59 -118 71 -272q7 -108 -9 -208q-18 -92 -38 -116q-12 -15 -23 -7q-25 14 -28.5 135t4.5 280l7 183q-66 125 -178 193
q-2 -42 -5.5 -123.5t-5.5 -114.5q-17 -338 -18 -347q-1 -15 -4.5 -19t-13.5 -1zM87 867q-35 -1 -56 -381q109 -65 177 -179q3 96 0 188q-9 375 -121 372zM223 241q-4 -106 -5 -152q-8 -155 -6.5 -272t21.5 -128q0 1 2 3q18 23 34 109q17 104 9 203q-11 137 -55 237zM165 966
q-11 -5 -43 -45q-9 -11 -12 -12.5t-11 5.5q40 47 50 56q7 6 9.5 6t6.5 -10z" />
    <glyph glyph-name="Acircumflex" unicode="&#xc2;" horiz-adv-x="349" 
d="M-16 -139q9 115 19 369l13 249q-82 44 -174 62q2 10 8.5 11.5t23.5 -2.5q77 -17 142 -52q12 189 28 289t43 101q129 4 140 -390q3 -88 -1 -218q61 -122 71 -273q7 -107 -9 -209q-16 -90 -38 -116q-12 -15 -23 -7q-25 14 -28.5 135t4.5 281l7 184q-64 124 -178 194
l-12 -239q-10 -243 -18 -348q-1 -16 -4.5 -20t-13.5 -1zM88 872q-35 -1 -56 -383q111 -65 178 -180q3 97 0 189q-9 377 -122 374zM225 243q-4 -105 -5 -153q-8 -155 -6.5 -272.5t21.5 -128.5q0 1 2 3q20 26 34 109q17 104 9 205q-9 132 -55 237zM66 926q11 5 47 50l-5 3
q1 15 14 8q12 -10 28.5 -31.5t23.5 -28.5q-8 -12 -23 7q-16 20 -28 32q-6 -5 -20 -23t-23 -25q-13 -7 -14 8z" />
    <glyph glyph-name="Atilde" unicode="&#xc3;" horiz-adv-x="349" 
d="M8 873q-4 -2 -6 -0.5t-3 4t-1 4.5q-1 21 10 39t30 26q9 4 20.5 4t21 -2t24.5 -8t23.5 -10.5t25.5 -12.5l11.5 -6t13 -6.5t12 -5.5t13 -5.5t12 -3.5t12.5 -2.5t11.5 0.5t11.5 3q24 11 30 35t-5 44q10 6 13 -9q7 -24 -2 -45t-31 -33q-10 -5 -21.5 -5.5t-24 3.5t-21.5 8
t-22 11t-18 9l-6 3q-19 10 -28 14t-26.5 10.5t-24.5 5t-21 -3.5q-19 -8 -28.5 -27t-5.5 -38zM-16 -138q9 114 19 370l13 249q-82 44 -174 62q1 10 8 12.5t24 -2.5q78 -17 143 -53q11 188 27 289t43 102q129 4 140 -391q3 -88 -1 -218q60 -117 72 -274q7 -109 -9 -209
q-17 -91 -38 -117q-13 -14 -24 -7q-25 15 -28.5 136.5t5.5 281.5l6 184q-66 126 -178 195q-1 -17 -12 -240q-10 -243 -18 -349q-1 -16 -4.5 -20t-13.5 -1zM88 875q-36 -1 -55 -384q112 -67 177 -180q3 97 0 189q-9 378 -122 375zM225 245q-4 -104 -4 -153q-9 -156 -7.5 -274
t22.5 -129q0 1 2 3q18 23 34 109q17 106 9 206q-10 133 -56 238z" />
    <glyph glyph-name="Adieresis" unicode="&#xc4;" horiz-adv-x="349" 
d="M-12 -134q6 77 20 378l12 255q-78 45 -178 64q1 10 8.5 12.5t24.5 -2.5q83 -20 146 -54q12 194 28.5 296.5t44.5 103.5q132 4 143 -400q2 -90 -1 -224q63 -124 73 -279q7 -111 -9 -215q-18 -95 -39 -118q-12 -15 -24 -8q-26 15 -29.5 139.5t5.5 287.5l6 189
q-65 127 -182 199q-1 -17 -12 -246q-17 -333 -18 -357q-1 -16 -4.5 -20t-14.5 -1zM95 903q-38 -1 -57 -393q114 -68 181 -185q3 100 0 194q-7 387 -124 384zM235 258q-4 -106 -5 -157q-9 -159 -7 -279.5t23 -132.5q0 1 1 3q21 27 35 112q18 104 10 210q-10 138 -57 244z
M65 978q13 0 16 -24q1 -11 -3.5 -18.5t-10.5 -7.5q-7 -1 -12 6t-6 17q2 25 16 27zM140 979q13 0 16 -24q1 -11 -3.5 -18.5t-10.5 -7.5q-7 -1 -12 6t-6 17q2 25 16 27z" />
    <glyph glyph-name="Aring" unicode="&#xc5;" horiz-adv-x="349" 
d="M-14 -137q9 115 19 373l13 251q-80 45 -176 63q3 17 33 10q81 -20 144 -54q19 330 54 382q-3 25 6 43q13 26 36 30q7 2 10.5 0t4 -3.5t0.5 -6.5q-10 6 -24 -3.5t-19 -21.5q-6 -12 -6 -28q5 3 9 3q22 0 38 -9q8 16 6 32.5t-17 17.5q6 6 13 6q12 -1 13 -21t-8 -39
q87 -56 96 -382q3 -88 -1 -220q61 -120 73 -275q6 -119 -10 -212q-15 -91 -38 -117q-11 -14 -24 -8q-25 15 -28.5 137.5t4.5 283.5l7 186q-65 126 -180 197q-5 -76 -11 -242q-15 -290 -19 -352q-1 -16 -4.5 -20t-13.5 -1zM104 857q-18 0 -26 14q-27 -56 -43 -373
q112 -67 179 -182q3 97 0 190q-7 316 -86 368q-12 -16 -24 -17zM229 249q-4 -106 -4 -154q-9 -158 -7.5 -276.5t22.5 -129.5q0 1 2 2q18 25 34 111q17 97 10 207q-10 136 -57 240zM91 884q-3 0 -7 -4q5 -16 19 -16q9 0 17 13q-13 7 -29 7z" />
    <glyph glyph-name="AE" unicode="&#xc6;" horiz-adv-x="754" 
d="M-7 -127q6 82 20 391l13 264q-82 46 -184 66q1 10 8.5 12.5t25.5 -2.5q83 -19 151 -56q12 200 29 306.5t46 107.5q137 4 148 -414q3 -93 -1 -231q64 -126 76 -289q7 -118 -10 -222q-17 -97 -40 -123q-13 -16 -25 -8q-27 15 -30.5 144t5.5 298l7 195q-68 132 -189 206
q-1 -19 -12 -254q-15 -308 -19 -369q-1 -16 -4.5 -20.5t-14.5 -1.5zM103 945q-38 -1 -59 -406q118 -70 188 -191q3 103 0 200q-9 400 -129 397zM248 278q-4 -111 -5 -162q-9 -165 -7.5 -289.5t23.5 -136.5q0 1 2 3q20 25 36 116q18 108 10 217q-10 141 -59 252zM309 933
q42 6 109 1l3 43q15 -1 16.5 -3.5t-0.5 -18.5l-2 -23l53 -6q55 -7 87.5 -10.5t84.5 -2.5t96 11q2 -11 -1.5 -15t-19.5 -7q-88 -14 -249 7l-52 7q-18 -218 -30 -466h157q20 0 25.5 -2t5.5 -15h-188q-24 -529 20 -690q8 -32 19.5 -48t24.5 -12q6 3 31 63l35 76t41.5 74.5
t60.5 76t71 44.5q17 6 23.5 4t11.5 -13q-34 -6 -65.5 -28.5t-53 -46.5t-45.5 -67t-34 -64l-29 -63q-29 -69 -43 -72q-22 -7 -38 12t-27 60q-64 239 9 1178q-78 8 -128 -6q-4 17 21 22z" />
    <glyph glyph-name="Ccedilla" unicode="&#xc7;" horiz-adv-x="422" 
d="M287 822q-4 70 -33 99q-28 29 -55 30.5t-49 -21.5t-39.5 -56.5t-30.5 -76.5q-43 -143 -56 -381q-11 -228 15 -423q17 -132 50.5 -213.5t80.5 -89.5q39 -7 107 151q77 185 139 456q5 -1 6.5 -1t5 -2.5t2.5 -6t-1 -11.5q-67 -277 -136 -442q-34 -80 -65.5 -123t-60.5 -38
q-53 9 -90 94.5t-55 222.5q-26 197 -15 427q13 237 56 385q15 48 35.5 85t46.5 61t58 21t64 -36q26 -26 35 -85q1 -15 -1.5 -19.5t-13.5 -6.5zM346 -230q1 -4 4.5 -13.5t5 -14t3.5 -12.5t2 -12.5t-0.5 -11t-3 -10.5t-7.5 -8t-12 -6q-20 -10 -57.5 -7t-35.5 25q12 -4 41.5 -7
t41.5 2q8 4 10 12.5t0 17.5t-5.5 19.5t-7 19t-4 16t3.5 11t15 2.5q0 -5 6 -23z" />
    <glyph glyph-name="Egrave" unicode="&#xc8;" horiz-adv-x="405" 
d="M-41 850q38 6 101 1l3 40q14 -1 15.5 -3.5t-0.5 -16.5l-2 -22l50 -5q158 -23 250 -2q2 -11 -1.5 -14.5t-17.5 -6.5q-86 -13 -233 7l-49 6q-17 -216 -28 -435h147h14t8 -1.5t6 -5t1 -9.5h-176q-22 -497 19 -645q8 -31 18 -45.5t23 -10.5q6 3 29 59q20 45 33 71t39 69
t56.5 71.5t65.5 41.5q12 4 17.5 4t9 -2.5t6.5 -10.5q-31 -5 -61 -26t-50 -44t-42.5 -62t-32 -60l-26.5 -59q-26 -60 -37 -66q-1 -1 -3 -1q-20 -7 -35.5 10.5t-25.5 56.5q-60 224 9 1101q-72 8 -120 -5q-4 15 20 20zM241 905q-4 -10 -6.5 -10t-9.5 6q-10 9 -50 56q8 7 11 5.5
t12 -12.5q32 -40 43 -45z" />
    <glyph glyph-name="Eacute" unicode="&#xc9;" horiz-adv-x="405" 
d="M-40 885q37 5 104 1l3 41q14 -1 16 -3.5t0 -17.5l-2 -22l51 -6q163 -23 257 -2q2 -11 -1.5 -14.5t-18.5 -6.5q-84 -14 -239 7l-50 6q-16 -184 -29 -448h151q25 0 28 -6q2 -3 2 -10h-181q-24 -509 19 -664q8 -32 19 -47t23 -11q7 4 30 61q21 48 34 73.5t40 70.5t58.5 74
t67.5 42q17 6 23 4.5t11 -12.5q-32 -6 -62.5 -27.5t-51 -45.5t-44 -64t-33.5 -61.5l-27 -60.5q-26 -60 -37 -67q-3 -1 -5 -2q-21 -7 -36.5 11t-25.5 58q-62 227 8 1133q-75 8 -123 -6q-4 17 21 22zM229 952q-11 -5 -43 -45q-9 -11 -12 -12.5t-11 5.5q40 47 50 56q7 6 9.5 6
t6.5 -10z" />
    <glyph glyph-name="Ecircumflex" unicode="&#xca;" horiz-adv-x="405" 
d="M-42 855q37 5 103 1l3 40h7t4.5 -1t3 -1t1 -2.5t0.5 -3.5t-0.5 -5.5t-0.5 -7.5l-2 -21l49 -6q163 -21 252 -2q2 -11 -1.5 -14.5t-18.5 -5.5q-38 -6 -84.5 -6t-71 2.5t-77.5 9.5l-49 7q-17 -189 -28 -438h147h14t8 -1.5t6 -5t1 -9.5h-176q-23 -491 18 -647q17 -63 42 -57
q6 4 29 60q18 42 32.5 70.5t39.5 70.5t56.5 71t66.5 42q12 4 17.5 4.5t9 -2.5t6.5 -10q-39 -7 -73 -33t-62.5 -71.5t-42.5 -73t-35 -75.5q-27 -65 -41 -68q-20 -6 -35 11.5t-26 56.5q-60 225 9 1106q-75 7 -120 -6q-4 16 19 21zM146 896q11 5 47 50l-5 3q1 15 14 8
q12 -10 28.5 -31.5t23.5 -28.5q-8 -12 -23 7q-16 20 -28 32q-6 -5 -20 -23t-23 -25q-13 -7 -14 8z" />
    <glyph glyph-name="Edieresis" unicode="&#xcb;" horiz-adv-x="405" 
d="M-42 855q37 5 103 1l3 40h7t4.5 -1t3 -1t1 -2.5t0.5 -3.5t-0.5 -5.5t-0.5 -7.5l-2 -21l49 -6q163 -21 252 -2q2 -11 -1.5 -14.5t-18.5 -5.5q-38 -6 -84.5 -6t-71 2.5t-77.5 9.5l-49 7q-17 -189 -28 -438h147h14t8 -1.5t6 -5t1 -9.5h-176q-23 -491 18 -647q17 -63 42 -57
q6 4 29 60q18 42 32.5 70.5t39.5 70.5t56.5 71t66.5 42q12 4 17.5 4.5t9 -2.5t6.5 -10q-39 -7 -73 -33t-62.5 -71.5t-42.5 -73t-35 -75.5q-27 -65 -41 -68q-20 -6 -35 11.5t-26 56.5q-60 225 9 1106q-75 7 -120 -6q-4 16 19 21zM170 939q13 0 16 -24q1 -11 -3.5 -18.5
t-10.5 -7.5q-7 -1 -12 6t-6 17q2 25 16 27zM245 940q13 0 16 -24q1 -11 -3.5 -18.5t-10.5 -7.5q-7 -1 -12 6t-6 17q2 25 16 27z" />
    <glyph glyph-name="Igrave" unicode="&#xcc;" horiz-adv-x="148" 
d="M56 858q-1 -55 -8 -169q-16 -341 -19 -527l9 -13q53 -79 80 -202q24 -116 10 -199q-13 -64 -47 -85q-21 -13 -36 10q-40 64 -33 484q-49 70 -111 83q4 10 9 11.5t21 -3.5q41 -16 82 -64q5 217 19 506q7 133 8 188q14 0 15.5 -2t0.5 -18zM28 133q-5 -394 31 -451
q6 -9 13 -4q27 15 39 73q14 75 -9 192q-24 109 -74 190zM80 914q-4 -10 -6.5 -10t-9.5 6q-10 9 -50 56q8 7 11 5.5t12 -12.5q32 -40 43 -45z" />
    <glyph glyph-name="Iacute" unicode="&#xcd;" horiz-adv-x="148" 
d="M57 877q-2 -84 -7 -172q-17 -375 -19 -535l8 -14q53 -77 82 -205q24 -119 9 -202q-11 -64 -47 -86q-22 -13 -36 10q-41 65 -34 492q-50 71 -112 84q4 10 9 12t21 -3q44 -19 83 -66q3 114 19 514q7 133 8 191q14 0 15.5 -2t0.5 -18zM30 140q-5 -400 31 -457q6 -11 13 -5
q27 15 39 74q16 77 -9 196q-24 109 -74 192zM87 963q-11 -5 -43 -45q-9 -11 -12 -12.5t-11 5.5q40 47 50 56q7 6 9.5 6t6.5 -10z" />
    <glyph glyph-name="Icircumflex" unicode="&#xce;" horiz-adv-x="148" 
d="M54 847l-7 -167q-16 -339 -19 -522l8 -14q53 -78 80 -200q24 -115 10 -197q-13 -64 -46 -84q-22 -13 -36 10q-40 64 -33 480q-50 69 -110 82q4 10 8.5 11.5t20.5 -3.5q41 -16 82 -64q5 215 19 502q7 175 7 186q14 0 15.5 -2t0.5 -18zM27 128q-5 -391 31 -446q6 -9 12 -5
q27 16 39 73q15 74 -9 190q-25 110 -73 188zM4 906q11 5 47 50l-5 3q1 15 14 8q12 -10 28.5 -31.5t23.5 -28.5q-8 -12 -23 7q-16 20 -28 32q-6 -5 -20 -23t-23 -25q-13 -7 -14 8z" />
    <glyph glyph-name="Idieresis" unicode="&#xcf;" horiz-adv-x="148" 
d="M59 884q-1 -58 -8 -173q-16 -348 -19 -538l9 -14q53 -82 82 -206q24 -118 10 -203q-13 -66 -48 -86q-21 -14 -37 9q-40 63 -34 495q-52 73 -113 84q4 10 9 12t21 -3q45 -19 84 -66q4 183 20 517q7 142 7 192q15 0 16.5 -2t0.5 -18zM31 143q-5 -403 32 -460q6 -11 12 -5
q28 16 40 75q16 77 -9 196q-24 112 -75 194zM19 983q13 0 16 -24q1 -11 -3.5 -18.5t-10.5 -7.5q-7 -1 -12 6t-6 17q2 25 16 27zM94 984q13 0 16 -24q1 -11 -3.5 -18.5t-10.5 -7.5q-7 -1 -12 6t-6 17q2 25 16 27z" />
    <glyph glyph-name="Eth" unicode="&#xd0;" horiz-adv-x="361" 
d="M-128 278q-12 12 5 21q38 20 152 10q12 465 64 510q14 11 33 4q21 -9 0 -26q-13 14 -22 8q-48 -41 -58 -498q142 -20 163 10q9 -5 7 -11.5t-8 -9.5q-17 -9 -41 -12t-42 -1.5t-44 5t-35 4.5q-3 -135 -3 -263q-2 -92 -2 -128q21 -9 50 -9q72 3 124 171q41 130 54 321
q12 181 -11 337q-34 216 -121 231h-1q-27 4 -53 -24t-51 -81q-47 -98 -75 -248l-4 -31q-12 -3 -14.5 6t2.5 27q25 151 74 254q59 124 123 114h1q100 -17 136 -246q23 -147 12 -339q-13 -194 -55 -326q-55 -180 -141 -183q-29 0 -50 7l-2 -72q0 -16 -2 -18t-16 -4q2 56 2 103
q-38 21 -51 92q-5 30 14 35q6 -74 34 -102l4 -4q0 75 1 117q2 184 4 265q-125 12 -157 -16z" />
    <glyph glyph-name="Ntilde" unicode="&#xd1;" horiz-adv-x="434" 
d="M38 842q-2 -169 -6 -349l-2 -88q55 442 191 443q39 0 63 -39t34 -101t11 -152q1 -128 -19 -399q-3 -45 -7.5 -125t-5.5 -88q60 -49 80 -117q10 -34 10 -70q-1 -33 -12 -57q-16 -34 -45 -32q-34 2 -44 71.5t-5 196.5q-48 37 -119 51q3 10 8 12t20 -2q55 -16 92 -41l12 203
q20 270 18 397q-2 131 -22.5 204t-68.5 72q-34 0 -62.5 -31.5t-48.5 -88t-35 -122.5t-25 -148t-15.5 -152.5t-9.5 -147.5l-5 -226q0 -4 -0.5 -7t-1.5 -4.5t-2.5 -2t-3.5 -0.5h-4h-4q-1 97 5 227l7 364q1 81 3.5 205.5t2.5 158.5h2q5 0 7.5 -0.5t4.5 -4t2 -10.5zM296 -77
q-9 -237 35 -239q18 -3 29 23q10 22 10 50q2 31 -9 66q-17 59 -65 100zM84 889q-8 -5 -8 7q-1 17 8.5 32.5t25.5 22.5q28 11 98 -24q1 -1 8.5 -5t9.5 -5l9 -4.5t10 -4.5l9 -3t10 -2.5t9 -1t9.5 0t8.5 2.5q21 9 25.5 29.5t-5.5 38.5q9 4 12 -8q12 -46 -28 -66
q-9 -5 -18.5 -5.5t-20.5 3t-18 6.5t-19 9.5t-16 8.5q-3 1 -11 5l-11 5.5l-10.5 5t-11 5t-10 3.5t-10.5 2.5t-9 1t-9 -0.5t-8 -3q-16 -7 -24.5 -23t-4.5 -32z" />
    <glyph glyph-name="Ograve" unicode="&#xd2;" horiz-adv-x="469" 
d="M191 730q-27 35 -52 15q-45 -35 -80 -189q-32 -162 -32 -322q0 -161 34 -266.5t104 -105.5h12q83 14 136 193q49 165 49 380q0 105 -13 187q-14 95 -48 159q-35 61 -77 71h-2q-2 1 -3 1q-43 6 -90 -32q-59 -47 -81 -129l-5 -29q-18 2 -10 32q22 89 85 138q55 45 104 36
q4 0 5 -1q51 -13 86 -78q39 -71 52 -166q13 -82 13 -189q0 -223 -50 -385q-55 -189 -150 -203q-4 -1 -13 -1q-41 0 -71.5 31.5t-48 86.5t-26 122.5t-8.5 147.5q0 175 33 324q35 163 85 200q31 24 61 -3q16 -15 1 -25zM232 910q-4 -10 -6.5 -10t-9.5 6q-10 9 -50 56
q8 7 11 5.5t12 -12.5q32 -40 43 -45z" />
    <glyph glyph-name="Oacute" unicode="&#xd3;" horiz-adv-x="469" 
d="M192 735q-27 34 -53 15q-46 -37 -79 -191q-33 -157 -33 -323q0 -76 7.5 -141t23.5 -118.5t43.5 -83.5t64.5 -30h12q84 13 136 193q50 165 50 382q0 108 -14 188q-11 90 -48 160q-33 60 -77 72h-2q-2 1 -3 1q-44 4 -91 -33q-59 -48 -81 -130l-5 -29q-7 1 -10 8.5t1 24.5
q20 88 85 138q55 45 104 36q4 0 6 -1q52 -13 86 -79q38 -69 52 -166q13 -74 13 -190q0 -219 -50 -387q-26 -89 -64.5 -143t-86.5 -61q-4 -1 -13 -1q-41 0 -71.5 31.5t-48.5 87t-26.5 123.5t-8.5 148q0 178 34 326q33 162 84 201q32 24 62 -3q16 -15 1 -25zM249 965
q-11 -5 -43 -45q-9 -11 -12 -12.5t-11 5.5q40 47 50 56q7 6 9.5 6t6.5 -10z" />
    <glyph glyph-name="Ocircumflex" unicode="&#xd4;" horiz-adv-x="469" 
d="M186 704q-27 33 -51 14q-45 -34 -78 -183q-31 -160 -31 -313q0 -156 33 -258t101 -102h11q82 13 132 187q49 159 49 368q0 95 -14 182q-12 89 -46 154q-33 59 -75 69h-2q-1 1 -2 1q-42 6 -88 -31q-57 -45 -78 -126l-6 -27q-6 0 -9.5 7.5t0.5 23.5q22 88 83 133
q54 44 100 35h6q50 -13 83 -77q36 -67 50 -160q13 -81 13 -184q0 -214 -49 -373q-54 -183 -145 -197q-4 -1 -13 -1q-52 0 -86.5 54t-48.5 135.5t-14 186.5q0 168 32 315q33 157 82 194q31 23 59 -3q17 -14 2 -24zM145 908q11 5 47 50l-5 3q1 15 14 8q12 -10 28.5 -31.5
t23.5 -28.5q-8 -12 -23 7q-16 20 -28 32q-6 -5 -20 -23t-23 -25q-13 -7 -14 8z" />
    <glyph glyph-name="Otilde" unicode="&#xd5;" horiz-adv-x="469" 
d="M196 732q-28 35 -54 16q-47 -38 -81 -195q-33 -160 -33 -329q0 -165 34.5 -273t106.5 -108h12q85 14 139 197q51 172 51 389q0 110 -14 193q-12 94 -49 162q-36 63 -79 73q-1 0 -4 1q-45 6 -93 -33q-61 -49 -83 -132l-5 -30q-7 1 -10.5 9t0.5 24q22 91 87 142
q57 45 106 36q4 0 6 -1q52 -13 88 -80q40 -71 53 -170q13 -75 13 -194q0 -225 -51 -394q-57 -192 -153 -208q-5 -1 -14 -1q-42 0 -73 32.5t-49 89t-27 125.5t-9 151q0 178 35 332q33 164 86 205q32 24 62 -3q17 -15 2 -26zM96 891q-8 -5 -8 7q-1 17 8.5 32.5t25.5 22.5
q28 11 98 -24q1 -1 8.5 -5t9.5 -5l9 -4.5t10 -4.5l9 -3t10 -2.5t9 -1t9.5 0t8.5 2.5q21 9 25.5 29.5t-5.5 38.5q9 4 12 -8q12 -46 -28 -66q-9 -5 -18.5 -5.5t-20.5 3t-18 6.5t-19 9.5t-16 8.5q-3 1 -11 5l-11 5.5l-10.5 5t-11 5t-10 3.5t-10.5 2.5t-9 1t-9 -0.5t-8 -3
q-16 -7 -24.5 -23t-4.5 -32z" />
    <glyph glyph-name="Odieresis" unicode="&#xd6;" horiz-adv-x="469" 
d="M195 730q-28 35 -54 15q-46 -36 -81 -193q-33 -168 -33 -328q0 -105 13.5 -187t46 -136.5t81.5 -54.5h12q84 13 138 196q51 170 51 387q0 110 -14 191q-12 92 -49 162q-34 62 -78 72h-2q-2 1 -3 1q-44 6 -92 -33q-60 -48 -82 -131l-6 -30q-6 1 -9.5 9t0.5 24
q22 90 87 141q55 45 105 36q4 0 6 -1q53 -13 87 -80q39 -69 53 -168q13 -77 13 -193q0 -224 -51 -392q-55 -193 -152 -207q-5 -1 -14 -1q-41 0 -72 32t-49.5 88t-27 125t-8.5 150q0 174 34 331q35 165 86 203q32 24 62 -3q17 -15 2 -25zM172 949q13 0 16 -24
q1 -11 -3.5 -18.5t-10.5 -7.5q-7 -1 -12 6t-6 17q2 25 16 27zM247 950q13 0 16 -24q1 -11 -3.5 -18.5t-10.5 -7.5q-7 -1 -12 6t-6 17q2 25 16 27z" />
    <glyph glyph-name="multiply" unicode="&#xd7;" horiz-adv-x="334" 
d="M314 433q19 -1 11 -18q-16 -45 -110 -118q25 -34 34.5 -46l27 -32.5t28.5 -27t21 -5.5q4 -9 -3 -12t-13 -1q-15 6 -34.5 25t-33 36.5l-39.5 53.5q-29 -22 -44 -34.5t-33 -29t-24.5 -29t-4.5 -22.5q-9 -3 -13 3.5t-1 12.5q11 35 112 112q-76 107 -119 114q1 16 19 10
q43 -17 112 -115q102 79 107 123z" />
    <glyph glyph-name="Oslash" unicode="&#xd8;" horiz-adv-x="469" 
d="M459 943q-50 -28 -96 -142q20 -52 31 -125q14 -87 14 -205q0 -237 -54 -416q-60 -204 -162 -220q-5 -1 -15 -1q-37 0 -69 27q-38 -119 -77 -181q-10 -17 -23 -4q43 60 87 199q-84 97 -84 379q0 190 36 351q37 175 91 216q34 26 66 -3q18 -16 2 -27q-30 37 -57 16
q-50 -39 -86 -205q-35 -172 -35 -348q0 -265 73 -360q32 103 97 380q89 386 146 526q-7 20 -20 46q-37 65 -83 77l-2 1h-3q-47 6 -98 -35q-64 -51 -87 -140l-6 -31q-7 1 -10.5 9.5t0.5 25.5q23 96 92 149q60 48 112 39q4 0 6 -1q55 -15 93 -85l16 -32q38 87 77 122
q23 19 28 -2zM177 -148h13q90 14 147 208q54 181 54 411q0 110 -15 203q-7 52 -23 103q-54 -139 -139 -506q-59 -259 -100 -392q29 -27 63 -27z" />
    <glyph glyph-name="Ugrave" unicode="&#xd9;" horiz-adv-x="527" 
d="M64 902l-4 -74q-36 -585 18 -816q22 -95 60.5 -142t95.5 -34q102 23 149 361q33 242 33 569q12 -2 15 -6.5t3 -22.5l-2 -112q0 -90 -2 -320v-244q-2 -176 -2 -245q0 -67 -1 -96v-46q0 -18 -3.5 -23.5t-14.5 -7.5q0 48 1 78q0 61 1 95q0 157 1 245q0 39 0.5 119.5
t0.5 121.5l-12 -108q-48 -349 -162 -375q-67 -16 -110.5 35t-67.5 155q-25 106 -30.5 284t-1.5 276t13 259l6 96q6 0 9 -1t5 -6t2 -15zM286 893q-4 -10 -6.5 -10t-9.5 6q-10 9 -50 56q8 7 11 5.5t12 -12.5q32 -40 43 -45z" />
    <glyph glyph-name="Uacute" unicode="&#xda;" horiz-adv-x="527" 
d="M64 902l-4 -74q-36 -585 18 -816q22 -95 60.5 -142t95.5 -34q102 23 149 361q33 242 33 569q12 -2 15 -6.5t3 -22.5l-2 -112q0 -90 -2 -320v-244q-2 -176 -2 -245q0 -67 -1 -96v-46q0 -18 -3.5 -23.5t-14.5 -7.5q0 48 1 78q0 61 1 95q0 157 1 245q0 39 0.5 119.5
t0.5 121.5l-12 -108q-48 -349 -162 -375q-67 -16 -110.5 35t-67.5 155q-25 106 -30.5 284t-1.5 276t13 259l6 96q6 0 9 -1t5 -6t2 -15zM261 938q-11 -5 -43 -45q-9 -11 -12 -12.5t-11 5.5q40 47 50 56q7 6 9.5 6t6.5 -10z" />
    <glyph glyph-name="Ucircumflex" unicode="&#xdb;" horiz-adv-x="527" 
d="M64 902l-4 -74q-36 -585 18 -816q22 -95 60.5 -142t95.5 -34q102 23 149 361q33 242 33 569q12 -2 15 -6.5t3 -22.5l-2 -112q0 -90 -2 -320v-244q-2 -176 -2 -245q0 -67 -1 -96v-46q0 -18 -3.5 -23.5t-14.5 -7.5q0 48 1 78q0 61 1 95q0 157 1 245q0 39 0.5 119.5
t0.5 121.5l-12 -108q-48 -349 -162 -375q-67 -16 -110.5 35t-67.5 155q-25 106 -30.5 284t-1.5 276t13 259l6 96q6 0 9 -1t5 -6t2 -15zM190 890q11 5 47 50l-5 3q1 15 14 8q12 -10 28.5 -31.5t23.5 -28.5q-8 -12 -23 7q-16 20 -28 32q-6 -5 -20 -23t-23 -25q-13 -7 -14 8z
" />
    <glyph glyph-name="Udieresis" unicode="&#xdc;" horiz-adv-x="527" 
d="M64 902l-4 -74q-36 -585 18 -816q22 -95 60.5 -142t95.5 -34q102 23 149 361q33 242 33 569q12 -2 15 -6.5t3 -22.5l-2 -112q0 -90 -2 -320v-244q-2 -176 -2 -245q0 -67 -1 -96v-46q0 -18 -3.5 -23.5t-14.5 -7.5q0 48 1 78q0 61 1 95q0 157 1 245q0 39 0.5 119.5
t0.5 121.5l-12 -108q-48 -349 -162 -375q-67 -16 -110.5 35t-67.5 155q-25 106 -30.5 284t-1.5 276t13 259l6 96q6 0 9 -1t5 -6t2 -15zM220 954q13 0 16 -24q1 -11 -3.5 -18.5t-10.5 -7.5q-7 -1 -12 6t-6 17q2 25 16 27zM295 955q13 0 16 -24q1 -11 -3.5 -18.5t-10.5 -7.5
q-7 -1 -12 6t-6 17q2 25 16 27z" />
    <glyph glyph-name="Yacute" unicode="&#xdd;" horiz-adv-x="460" 
d="M73 923q15 -62 -14 -337q-33 -311 -21 -415q13 -105 65 -98q59 7 123 134q68 134 125 371q3 14 13 11q13 -3 10 -196q-2 -127 -11 -287q20 8 31 10q29 6 29 -13q-31 -1 -61 -18q0 -12 -2 -36.5l-3 -36.5q-26 -368 -75 -364q-28 3 -43 74q-9 54 -6 109q2 64 18 122
q29 101 94 143q9 166 11 297q1 35 2 84t1 61q-52 -207 -117 -339q-69 -136 -137 -144q-37 -4 -57 25.5t-27 88.5q-12 98 17 386l3 32q9 81 13 124t7 99t0 86.5t-13 42.5q9 6 15 3.5t10 -19.5zM339 13l5 60q-50 -38 -76 -124q-15 -52 -18 -119q-3 -56 7 -104q10 -58 26 -60
q32 -3 56 347zM271 923q-11 -5 -43 -45q-9 -11 -12 -12.5t-11 5.5q40 47 50 56q7 6 9.5 6t6.5 -10z" />
    <glyph glyph-name="Thorn" unicode="&#xde;" horiz-adv-x="833" 
 />
    <glyph glyph-name="agrave" unicode="&#xe0;" horiz-adv-x="174" 
d="M80 321q-25 27 -54 -18q-26 -39 -22 -71q1 -16 13 -16q30 0 55 51t25 84q16 7 15 -21q1 -7 0.5 -23t0 -37t2 -40t6.5 -32.5t13 -14.5q3 0 6.5 6.5t8 20t8 25.5l9.5 33l9 31q10 0 6 -20q-1 -3 -5.5 -22t-8 -30.5t-9.5 -27t-12 -23t-12 -7.5q-35 0 -40 108q-38 -71 -78 -71
q-37 0 -32 44.5t40 77.5q23 22 46 19q13 -2 15 -10.5t-5 -15.5zM102 389q-4 -10 -6.5 -10t-9.5 6q-10 9 -50 56q8 7 11 5.5t12 -12.5q32 -40 43 -45z" />
    <glyph glyph-name="aacute" unicode="&#xe1;" horiz-adv-x="174" 
d="M80 321q-25 27 -54 -18q-26 -39 -22 -71q1 -16 13 -16q30 0 55 51t25 84q16 7 15 -21q1 -7 0.5 -23t0 -37t2 -40t6.5 -32.5t13 -14.5q3 0 6.5 6.5t8 20t8 25.5l9.5 33l9 31q10 0 6 -20q-1 -3 -5.5 -22t-8 -30.5t-9.5 -27t-12 -23t-12 -7.5q-35 0 -40 108q-38 -71 -78 -71
q-37 0 -32 44.5t40 77.5q23 22 46 19q13 -2 15 -10.5t-5 -15.5zM124 437q-11 -5 -43 -45q-9 -11 -12 -12.5t-11 5.5q40 47 50 56q7 6 9.5 6t6.5 -10z" />
    <glyph glyph-name="acircumflex" unicode="&#xe2;" horiz-adv-x="174" 
d="M80 321q-25 27 -54 -18q-26 -39 -22 -71q1 -16 13 -16q30 0 55 51t25 84q16 7 15 -21q1 -7 0.5 -23t0 -37t2 -40t6.5 -32.5t13 -14.5q3 0 6.5 6.5t8 20t8 25.5l9.5 33l9 31q10 0 6 -20q-1 -3 -5.5 -22t-8 -30.5t-9.5 -27t-12 -23t-12 -7.5q-35 0 -40 108q-38 -71 -78 -71
q-37 0 -32 44.5t40 77.5q23 22 46 19q13 -2 15 -10.5t-5 -15.5zM29 389q11 5 47 50l-5 3q1 15 14 8q12 -10 28.5 -31.5t23.5 -28.5q-8 -12 -23 7q-16 20 -28 32q-6 -5 -20 -23t-23 -25q-13 -7 -14 8z" />
    <glyph glyph-name="atilde" unicode="&#xe3;" horiz-adv-x="174" 
d="M80 321q-25 27 -54 -18q-26 -39 -22 -71q1 -16 13 -16q30 0 55 51t25 84q16 7 15 -21q1 -7 0.5 -23t0 -37t2 -40t6.5 -32.5t13 -14.5q3 0 6.5 6.5t8 20t8 25.5l9.5 33l9 31q10 0 6 -20q-1 -3 -5.5 -22t-8 -30.5t-9.5 -27t-12 -23t-12 -7.5q-35 0 -40 108q-38 -71 -78 -71
q-37 0 -32 44.5t40 77.5q23 22 46 19q13 -2 15 -10.5t-5 -15.5zM10 384q-6 -4 -6 4q-2 26 23 37q19 7 66 -16q41 -21 56 -15q14 6 17 19.5t-4 25.5q8 4 8 -5q8 -32 -19 -44q-6 -3 -12 -3.5t-14 2t-12 4t-13 6t-10 5.5q-46 23 -61 16q-11 -5 -16.5 -15.5t-2.5 -20.5z" />
    <glyph glyph-name="adieresis" unicode="&#xe4;" horiz-adv-x="174" 
d="M80 321q-25 27 -54 -18q-26 -39 -22 -71q1 -16 13 -16q30 0 55 51t25 84q16 7 15 -21q1 -7 0.5 -23t0 -37t2 -40t6.5 -32.5t13 -14.5q3 0 6.5 6.5t8 20t8 25.5l9.5 33l9 31q10 0 6 -20q-1 -3 -5.5 -22t-8 -30.5t-9.5 -27t-12 -23t-12 -7.5q-35 0 -40 108q-38 -71 -78 -71
q-37 0 -32 44.5t40 77.5q23 22 46 19q13 -2 15 -10.5t-5 -15.5zM45 431q13 0 16 -24q1 -11 -3.5 -18.5t-10.5 -7.5q-7 -1 -12 6t-6 17q2 25 16 27zM120 432q13 0 16 -24q1 -11 -3.5 -18.5t-10.5 -7.5q-7 -1 -12 6t-6 17q2 25 16 27z" />
    <glyph glyph-name="aring" unicode="&#xe5;" horiz-adv-x="174" 
d="M80 321q7 7 5 15.5t-15 10.5q-35 5 -66 -44q-29 -46 -18 -78q7 -19 30 -19q40 0 78 71q5 -108 40 -108q6 0 12 7.5t12 23t9.5 27t8 30.5t5.5 22q4 20 -6 20l-9 -31l-9.5 -33t-8 -25.5t-8 -20t-6.5 -6.5q-8 1 -13 14.5t-6.5 32.5t-2 40t0 37t-0.5 23q1 28 -15 21
q0 -33 -25 -84t-55 -51q-22 0 -10 43q12 47 39 66q19 13 34 -4zM87 460q6 6 13 6q13 -1 13.5 -23t-11 -44t-28.5 -24q-27 0 -31 29t6 45q13 26 36 30q7 2 10.5 0t4 -3.5t0.5 -6.5q-10 6 -24 -3.5t-19 -21.5q-9 -17 -4.5 -39.5t20.5 -22.5q10 0 21 19t10.5 38.5t-17.5 20.5z
" />
    <glyph glyph-name="ae" unicode="&#xe6;" horiz-adv-x="289" 
d="M200 238q9 -25 26 -37q10 -7 22 5t21.5 34.5t15 38t7.5 24.5q12 -2 5 -24q-2 -5 -6 -16.5l-7.5 -21t-8.5 -21.5t-11 -19.5t-13 -13t-15.5 -5.5t-18.5 7q-33 21 -42 67q-9 -37 -19.5 -62.5t-21.5 -24.5q-35 0 -40 108q-38 -71 -78 -71q-37 0 -32 44.5t40 77.5q23 22 46 19
q13 -2 15 -10.5t-5 -15.5q-25 27 -54 -18q-26 -39 -22 -71q1 -16 13 -16q30 0 55 51t25 84q14 -2 16 -9q0 -5 -1 -12v-22.5t1 -38.5t2.5 -39.5t6.5 -33.5t13 -13q3 1 6 7t7 18.5l7.5 23.5t9 30.5l8.5 29.5q3 61 40 83q15 7 23.5 -2t11.5 -24q5 -31 -8.5 -62.5t-39.5 -48.5z
M196 256q19 13 28.5 38.5t6.5 51.5q-4 25 -21 2q-25 -39 -14 -92z" />
    <glyph glyph-name="ccedilla" unicode="&#xe7;" horiz-adv-x="110" 
d="M71 339q-11 12 -22 9q-17 -7 -30.5 -46.5t0.5 -51.5q15 -11 67 29l26 20q3 -1 3 -4.5t-4.5 -9.5t-13.5 -13q-2 -2 -9.5 -8t-10.5 -8l-10 -7t-10.5 -6.5t-9.5 -4.5t-10 -3.5t-9 -1t-10 1t-9 4.5q-24 19 -8 66t42 58q20 8 31 -4q8 -9 -3 -20zM67 222q11 -28 -2 -32
q-8 -3 -21.5 -2.5t-12.5 9.5q20 -8 30 -2q3 2 3.5 4.5t0 6t-2 7.5t-2.5 7t-1.5 5.5t1 4t5.5 1.5q0 -3 2 -9z" />
    <glyph glyph-name="egrave" unicode="&#xe8;" horiz-adv-x="115" 
d="M25 235q9 -25 26 -37q10 -7 22 5t21.5 34.5t15 38t7.5 24.5q13 0 5 -24q-1 -3 -4.5 -12l-6 -15.5t-7 -16l-8 -16.5t-8.5 -14.5t-10.5 -12t-11 -7t-12 -2t-12.5 5.5q-46 35 -44 99t40 87q15 7 23.5 -2t11.5 -24q5 -31 -8.5 -62.5t-39.5 -48.5zM21 253q19 13 28.5 38.5
t6.5 51.5q-4 25 -21 2q-25 -39 -14 -92zM79 402q-4 -10 -6.5 -10t-9.5 6q-10 9 -50 56q8 7 11 5.5t12 -12.5q32 -40 43 -45z" />
    <glyph glyph-name="eacute" unicode="&#xe9;" horiz-adv-x="115" 
d="M25 235q9 -25 26 -37q10 -7 22 5t21.5 34.5t15 38t7.5 24.5q13 0 5 -24q-1 -3 -4.5 -12l-6 -15.5t-7 -16l-8 -16.5t-8.5 -14.5t-10.5 -12t-11 -7t-12 -2t-12.5 5.5q-46 35 -44 99t40 87q15 7 23.5 -2t11.5 -24q5 -31 -8.5 -62.5t-39.5 -48.5zM21 253q19 13 28.5 38.5
t6.5 51.5q-4 25 -21 2q-25 -39 -14 -92zM89 455q-11 -5 -43 -45q-9 -11 -12 -12.5t-11 5.5q40 47 50 56q7 6 9.5 6t6.5 -10z" />
    <glyph glyph-name="ecircumflex" unicode="&#xea;" horiz-adv-x="115" 
d="M25 235q9 -25 26 -37q10 -7 22 5t21.5 34.5t15 38t7.5 24.5q13 0 5 -24q-1 -3 -4.5 -12l-6 -15.5t-7 -16l-8 -16.5t-8.5 -14.5t-10.5 -12t-11 -7t-12 -2t-12.5 5.5q-46 35 -44 99t40 87q15 7 23.5 -2t11.5 -24q5 -31 -8.5 -62.5t-39.5 -48.5zM21 253q19 13 28.5 38.5
t6.5 51.5q-4 25 -21 2q-25 -39 -14 -92zM-2 402q11 5 47 50l-5 3q1 15 14 8q12 -10 28.5 -31.5t23.5 -28.5q-8 -12 -23 7q-16 20 -28 32q-6 -5 -20 -23t-23 -25q-13 -7 -14 8z" />
    <glyph glyph-name="edieresis" unicode="&#xeb;" horiz-adv-x="115" 
d="M25 235q9 -25 26 -37q10 -7 22 5t21.5 34.5t15 38t7.5 24.5q13 0 5 -24q-1 -3 -4.5 -12l-6 -15.5t-7 -16l-8 -16.5t-8.5 -14.5t-10.5 -12t-11 -7t-12 -2t-12.5 5.5q-46 35 -44 99t40 87q15 7 23.5 -2t11.5 -24q5 -31 -8.5 -62.5t-39.5 -48.5zM21 253q19 13 28.5 38.5
t6.5 51.5q-4 25 -21 2q-25 -39 -14 -92zM21 450q13 0 16 -24q1 -11 -3.5 -18.5t-10.5 -7.5q-7 -1 -12 6t-6 17q2 25 16 27zM96 451q13 0 16 -24q1 -11 -3.5 -18.5t-10.5 -7.5q-7 -1 -12 6t-6 17q2 25 16 27z" />
    <glyph glyph-name="igrave" unicode="&#xec;" 
d="M20 352q-6 -100 4 -106q8 -3 25.5 18.5t26.5 36.5q11 -11 0 -25q-37 -52 -58 -46q-8 3 -12.5 13.5t-5.5 29.5t-0.5 33t2.5 36.5t2 26.5q14 -1 15 -6q1 -4 1 -11zM16 429q8 -2 8 -20q-1 -8 -3.5 -13.5t-6.5 -4.5q-10 0 -8 19t10 19zM57 454q-2 -8 -5 -8.5t-6 4.5
q-1 1 -2 1q-14 12 -42 46q6 6 9 4.5t10 -10.5q28 -33 36 -37z" />
    <glyph glyph-name="iacute" unicode="&#xed;" 
d="M20 352q-6 -100 4 -106q8 -3 25.5 18.5t26.5 36.5q11 -11 0 -25q-37 -52 -58 -46q-8 3 -12.5 13.5t-5.5 29.5t-0.5 33t2.5 36.5t2 26.5q14 -1 15 -6q1 -4 1 -11zM16 429q8 -2 8 -20q-1 -8 -3.5 -13.5t-6.5 -4.5q-10 0 -8 19t10 19zM47 488q-10 -5 -28 -30q-9 -11 -16 -5
q27 32 34 38q8 8 10 -3z" />
    <glyph glyph-name="icircumflex" unicode="&#xee;" 
d="M20 352q-6 -100 4 -106q8 -3 25.5 18.5t26.5 36.5q11 -11 0 -25q-37 -52 -58 -46q-8 3 -12.5 13.5t-5.5 29.5t-0.5 33t2.5 36.5t2 26.5q14 -1 15 -6q1 -4 1 -11zM16 429q8 -2 8 -20q-1 -8 -3.5 -13.5t-6.5 -4.5q-10 0 -8 19t10 19zM-7 456q10 4 35 37l-3 2q0 12 10 6
q9 -8 22 -24.5t17 -20.5q-6 -9 -17 6q-16 19 -21 23q-5 -4 -15.5 -17t-16.5 -18q-4 -2 -5.5 -2.5t-3.5 1t-2 7.5z" />
    <glyph glyph-name="idieresis" unicode="&#xef;" 
d="M20 352q-6 -100 4 -106q8 -3 25.5 18.5t26.5 36.5q11 -11 0 -25q-37 -52 -58 -46q-8 3 -12.5 13.5t-5.5 29.5t-0.5 33t2.5 36.5t2 26.5q14 -1 15 -6q1 -4 1 -11zM16 429q8 -2 8 -20q-1 -8 -3.5 -13.5t-6.5 -4.5q-10 0 -8 19t10 19zM4 480q8 0 11 -15q2 -17 -9 -17
q-10 0 -12 15q2 15 10 17zM53 481q7 0 10 -16q1 -6 -2 -11t-7 -5q-4 -1 -7.5 3.5t-4.5 10.5q2 16 11 18z" />
    <glyph glyph-name="eth" unicode="&#xf0;" horiz-adv-x="369" 
d="M-9 -157q62 -11 117 44q42 46 75 130q31 84 46 182q18 117 13 240q-30 -38 -58.5 -52.5t-66.5 -0.5q-52 17 -81.5 67.5t-38.5 111.5q-9 54 9 110t58 86q58 37 101 -6q37 -36 59.5 -107t29 -152.5t3.5 -159t-13 -140.5q-18 -105 -46 -185q-33 -87 -80 -135
q-50 -51 -110 -50q-7 0 -13.5 4t-3.5 13zM155 744q-39 35 -82 4q-38 -28 -53.5 -79.5t-7.5 -101.5q9 -58 36.5 -105t73.5 -62q37 -13 64 4.5t55 55.5q-12 211 -86 284z" />
    <glyph glyph-name="ntilde" unicode="&#xf1;" horiz-adv-x="172" 
d="M19 287q0 -5 -0.5 -16.5t-0.5 -18.5q39 109 65 113q6 1 9.5 -4.5t5.5 -17.5q4 -31 0 -80t-3.5 -94.5t11.5 -45.5q14 1 68 176q10 -2 4 -22q-4 -11 -12.5 -39l-14.5 -46.5t-14 -39.5t-15.5 -32t-14.5 -11q-28 1 -30 57q-1 31 2 88.5t2 87.5q-16 -15 -40.5 -77.5
t-25.5 -77.5q-1 -8 -10 -8q-6 0 -6.5 29t1 60t0.5 34q19 0 19 -15zM6 397q-6 -3 -6 5q-3 29 25 41q18 8 72 -18q44 -23 61 -17q15 7 18.5 22t-4.5 28q6 3 9 -6q9 -35 -21 -48q-6 -3 -13 -4t-15.5 2t-13 5t-14 7l-11.5 6q-50 25 -66 17q-12 -4 -18 -16t-3 -24z" />
    <glyph glyph-name="ograve" unicode="&#xf2;" horiz-adv-x="141" 
d="M78 356q-35 4 -54 -33q-11 -17 -8 -50t26 -33q28 0 36 48q-26 6 -32 24.5t15 34.5q9 7 17 7q22 -2 18 -54q8 0 26 0.5t27 -0.5q-4 -13 -20 -13h-11h-12.5h-10.5q-7 -28 -19 -46.5t-34 -17.5q-27 0 -38 21.5t-9 44.5t10 41q18 36 52 42q14 3 18 -2t3 -14zM79 301
q2 34 -3 36q-18 -13 -15 -23t18 -13zM87 406q-4 -10 -6.5 -10t-9.5 6q-10 9 -50 56q8 7 11 5.5t12 -12.5q32 -40 43 -45z" />
    <glyph glyph-name="oacute" unicode="&#xf3;" horiz-adv-x="141" 
d="M78 356q-35 4 -54 -33q-11 -17 -8 -50t26 -33q28 0 36 48q-26 6 -32 24.5t15 34.5q9 7 17 7q22 -2 18 -54q8 0 26 0.5t27 -0.5q-4 -13 -20 -13h-11h-12.5h-10.5q-7 -28 -19 -46.5t-34 -17.5q-27 0 -38 21.5t-9 44.5t10 41q18 36 52 42q14 3 18 -2t3 -14zM79 301
q2 34 -3 36q-18 -13 -15 -23t18 -13zM94 458q-11 -5 -43 -45q-9 -11 -12 -12.5t-11 5.5q40 47 50 56q7 6 9.5 6t6.5 -10z" />
    <glyph glyph-name="ocircumflex" unicode="&#xf4;" horiz-adv-x="141" 
d="M78 356q-35 4 -54 -33q-11 -17 -8 -50t26 -33q28 0 36 48q-26 6 -32 24.5t15 34.5q9 7 17 7q22 -2 18 -54q8 0 26 0.5t27 -0.5q-4 -13 -20 -13h-11h-12.5h-10.5q-7 -28 -19 -46.5t-34 -17.5q-27 0 -38 21.5t-9 44.5t10 41q18 36 52 42q14 3 18 -2t3 -14zM79 301
q2 34 -3 36q-18 -13 -15 -23t18 -13zM12 409q11 5 47 50l-5 3q1 15 14 8q12 -10 28.5 -31.5t23.5 -28.5q-8 -12 -23 7q-16 20 -28 32q-6 -5 -20 -23t-23 -25q-13 -7 -14 8z" />
    <glyph glyph-name="otilde" unicode="&#xf5;" horiz-adv-x="141" 
d="M78 356q-35 4 -54 -33q-11 -17 -8 -50t26 -33q28 0 36 48q-26 6 -32 24.5t15 34.5q9 7 17 7q22 -2 18 -54q8 0 26 0.5t27 -0.5q-4 -13 -20 -13h-11h-12.5h-10.5q-7 -28 -19 -46.5t-34 -17.5q-27 0 -38 21.5t-9 44.5t10 41q18 36 52 42q14 3 18 -2t3 -14zM79 301
q2 34 -3 36q-18 -13 -15 -23t18 -13zM7 413q-4 -3 -4 3q-2 19 17 26q14 6 47 -11q27 -16 40 -11q21 9 9 33q6 1 6 -4q5 -23 -13 -32q-4 -2 -9 -2.5t-10.5 1.5t-8.5 3.5l-9 4.5l-8 4q-33 15 -43 11q-18 -7 -14 -26z" />
    <glyph glyph-name="odieresis" unicode="&#xf6;" horiz-adv-x="141" 
d="M78 356q-35 4 -54 -33q-11 -17 -8 -50t26 -33q28 0 36 48q-26 6 -32 24.5t15 34.5q9 7 17 7q22 -2 18 -54q8 0 26 0.5t27 -0.5q-4 -13 -20 -13h-11h-12.5h-10.5q-7 -28 -19 -46.5t-34 -17.5q-27 0 -38 21.5t-9 44.5t10 41q18 36 52 42q14 3 18 -2t3 -14zM79 301
q2 34 -3 36q-18 -13 -15 -23t18 -13zM32 438q8 0 10 -15q1 -6 -2 -11t-6 -5q-5 -1 -8 3t-3 11q0 15 9 17zM78 438q8 0 9 -15q1 -6 -1.5 -11t-6.5 -5q-9 0 -11 15q2 16 10 16z" />
    <glyph glyph-name="divide" unicode="&#xf7;" horiz-adv-x="381" 
d="M194 421q13 0 16 -24q1 -11 -3.5 -18.5t-10.5 -7.5q-7 -1 -12 6t-6 17q2 25 16 27zM194 230q13 0 16 -24q1 -11 -3.5 -18.5t-10.5 -7.5q-7 -1 -12 6t-6 17q2 25 16 27zM32 287q-12 12 5 21q41 21 182 7q51 -7 95.5 -6t54.5 17q9 -5 7 -11.5t-8 -9.5q-31 -17 -151 -5
q-53 8 -108.5 7t-76.5 -20z" />
    <glyph glyph-name="oslash" unicode="&#xf8;" horiz-adv-x="141" 
d="M296 943q-32 -18 -62 -70t-58.5 -136.5t-51 -167.5t-50.5 -199q4 -3 4 -14h-7q-1 -1 -1 -4q4 2 8 2q22 -2 18 -54q8 0 26 0.5t27 -0.5q-4 -13 -20 -13h-11h-12.5h-10.5q-7 -28 -19 -46.5t-34 -17.5h-2q-48 -207 -87.5 -340.5t-84.5 -202.5q-10 -17 -23 -4q46 63 87 198
t92 352q-27 14 -29.5 48t16.5 63.5t47 34.5q56 234 104.5 378t105.5 195q23 19 28 -2zM28 244l17 73q-1 7 4 16l4 20q-27 -13 -37 -51t12 -58zM78 288q-14 3 -21 9q-9 -37 -13 -57q26 1 34 48zM79 301q2 34 -3 36q-10 -7 -12 -11l-3 -12q1 -9 18 -13z" />
    <glyph glyph-name="ugrave" unicode="&#xf9;" horiz-adv-x="173" 
d="M26 347q-5 -45 -5 -78q0 -42 8 -44q34 0 66 134q4 11 12 8q7 -1 5 -39q-11 -202 5 -202q7 -1 21 42t39 132q12 2 6 -19l-14 -54t-15.5 -52.5t-20 -49t-17.5 -16.5q-33 1 -25 175l-7.5 -20.5t-9 -20.5t-13 -20.5t-16.5 -11.5t-21 -2q-23 7 -25 60q0 50 7 98q10 3 16 -1.5
t4 -18.5zM87 412q-4 -10 -6.5 -10t-9.5 6q-10 9 -50 56q8 7 11 5.5t12 -12.5q32 -40 43 -45z" />
    <glyph glyph-name="uacute" unicode="&#xfa;" horiz-adv-x="173" 
d="M26 347q-5 -45 -5 -78q0 -42 8 -44q34 0 66 134q4 11 12 8q7 -1 5 -39q-11 -202 5 -202q7 -1 21 42t39 132q12 2 6 -19l-14 -54t-15.5 -52.5t-20 -49t-17.5 -16.5q-33 1 -25 175l-7.5 -20.5t-9 -20.5t-13 -20.5t-16.5 -11.5t-21 -2q-23 7 -25 60q0 50 7 98q10 3 16 -1.5
t4 -18.5zM107 458q-11 -5 -43 -45q-9 -11 -12 -12.5t-11 5.5q40 47 50 56q7 6 9.5 6t6.5 -10z" />
    <glyph glyph-name="ucircumflex" unicode="&#xfb;" horiz-adv-x="173" 
d="M26 347q-5 -45 -5 -78q0 -42 8 -44q34 0 66 134q4 11 12 8q7 -1 5 -39q-11 -202 5 -202q7 -1 21 42t39 132q12 2 6 -19l-14 -54t-15.5 -52.5t-20 -49t-17.5 -16.5q-33 1 -25 175l-7.5 -20.5t-9 -20.5t-13 -20.5t-16.5 -11.5t-21 -2q-23 7 -25 60q0 50 7 98q10 3 16 -1.5
t4 -18.5zM21 435q11 5 47 50l-5 3q1 15 14 8q12 -10 28.5 -31.5t23.5 -28.5q-8 -12 -23 7q-16 20 -28 32q-6 -5 -20 -23t-23 -25q-13 -7 -14 8z" />
    <glyph glyph-name="udieresis" unicode="&#xfc;" horiz-adv-x="173" 
d="M26 347q-5 -45 -5 -78q0 -42 8 -44q34 0 66 134q4 11 12 8q7 -1 5 -39q-11 -202 5 -202q7 -1 21 42t39 132q12 2 6 -19l-14 -54t-15.5 -52.5t-20 -49t-17.5 -16.5q-33 1 -25 175l-7.5 -20.5t-9 -20.5t-13 -20.5t-16.5 -11.5t-21 -2q-23 7 -25 60q0 50 7 98q10 3 16 -1.5
t4 -18.5zM37 463q11 0 14 -21q1 -9 -2.5 -15.5t-9.5 -6.5q-6 -1 -10.5 5t-5.5 15q2 21 14 23zM102 464q11 0 14 -21q1 -9 -3 -15.5t-9 -6.5q-6 -1 -10.5 4.5t-5.5 15.5q2 21 14 23z" />
    <glyph glyph-name="yacute" unicode="&#xfd;" horiz-adv-x="183" 
d="M23 344q0 -18 -4 -56t-2 -59q12 10 46 86q26 59 37 59q5 0 8 -5.5t4 -13.5t1 -17t-0.5 -16t0.5 -11q1 -35 1 -304q45 11 106 4q15 -1 19.5 -6t1.5 -15q-70 14 -129 0q-19 -316 -138 -311q-40 1 -52 55q-6 34 3 78q7 44 33 87q50 79 139 105q3 157 0 306l-2 35
q-1 -4 -4 -9.5t-6.5 -14t-6.5 -14.5q-39 -82 -55 -95q-5 -4 -10 -5q-12 -3 -15 14q-8 10 -2 74.5t6 73.5q13 1 17.5 -4t3.5 -21zM-26 -304q103 -3 120 289q-77 -23 -121 -96q-24 -39 -32 -80t-2 -71q8 -42 35 -42zM115 479q-11 -5 -43 -45q-9 -11 -12 -12.5t-11 5.5
q40 47 50 56q7 6 9.5 6t6.5 -10z" />
    <glyph glyph-name="thorn" unicode="&#xfe;" horiz-adv-x="168" 
d="M-117 590q80 -10 151 5q20 4 41 11q4 60 13.5 118t25 113.5t40.5 90t55 34.5q47 0 62 -41.5t6 -88.5q-9 -54 -38.5 -109.5t-72.5 -89.5q-29 -24 -75 -39q-3 -41 -3 -120q0 -62 2 -90q5 -48 8 -68q1 -10 4 -24.5t9 -35t15 -31.5t19 -6q12 8 16 57q-6 6 -14 18t-16 27
t-9 25.5t9 14.5q21 5 32 -8q16 -17 16 -70q30 -19 55 17q10 -10 -2 -21q-25 -27 -55 -12q-7 -50 -24 -60q-35 -18 -57 42q10 -154 6.5 -309.5t-31.5 -228.5q-10 -16 -25 -10q33 71 37.5 240t-6.5 338l-4 105q-3 42 -3 90q0 63 4 114q-16 -6 -36 -9q-62 -14 -137 -8
q-6 1 -9.5 2t-5 3.5t-2.5 4.5t-1 5v4zM92 612q38 14 63 34q40 32 68.5 84.5t37.5 104.5q13 109 -51 109q-45 -2 -77 -106.5t-41 -225.5zM162 302q3 29 -15 44q-7 5 -7 -1q1 -1 1 -2q7 -27 21 -41z" />
    <glyph glyph-name="ydieresis" unicode="&#xff;" horiz-adv-x="183" 
d="M23 344q0 -18 -4 -56t-2 -59q12 10 46 86q26 59 37 59q5 0 8 -5.5t4 -13.5t1 -17t-0.5 -16t0.5 -11q1 -35 1 -304q45 11 106 4q15 -1 19.5 -6t1.5 -15q-70 14 -129 0q-19 -316 -138 -311q-40 1 -52 55q-6 34 3 78q7 44 33 87q50 79 139 105q3 157 0 306l-2 35
q-1 -4 -4 -9.5t-6.5 -14t-6.5 -14.5q-39 -82 -55 -95q-5 -4 -10 -5q-12 -3 -15 14q-8 10 -2 74.5t6 73.5q13 1 17.5 -4t3.5 -21zM-26 -304q103 -3 120 289q-77 -23 -121 -96q-24 -39 -32 -80t-2 -71q8 -42 35 -42zM27 457q13 0 16 -24q1 -11 -3.5 -18.5t-10.5 -7.5
q-7 -1 -12 6t-6 17q2 25 16 27zM102 458q13 0 16 -24q1 -11 -3.5 -18.5t-10.5 -7.5q-7 -1 -12 6t-6 17q2 25 16 27z" />
    <glyph glyph-name="dotlessi" unicode="&#x131;" 
d="M20 352q-6 -100 4 -106q8 -3 25.5 18.5t26.5 36.5q11 -11 0 -25q-37 -52 -58 -46q-8 3 -12.5 13.5t-5.5 29.5t-0.5 33t2.5 36.5t2 26.5q14 -1 15 -6q1 -4 1 -11zM16 429q8 -2 8 -20q-1 -8 -3.5 -13.5t-6.5 -4.5q-10 0 -8 19t10 19z" />
    <glyph glyph-name="Lslash" unicode="&#x141;" horiz-adv-x="321" 
d="M8 973q28 -18 39 -93q11 -65 10.5 -187t-5 -217t-15.5 -262l-11.5 -198.5t-6 -151.5t2.5 -128t16 -42l1 -1q1 0 1 -0.5t1 -0.5q27 -7 71 64q38 59 88 178q79 190 124 356q5 0 7 -0.5t5 -2.5t2 -6.5t-2 -12.5q-51 -175 -120 -342q-45 -111 -89 -180q-51 -81 -90 -71
q-1 0 -5 2q-28 12 -28.5 163.5t14.5 346.5q1 19 2 28q10 176 14.5 263.5t5 211t-9.5 187.5q-7 43 -18 64.5t-26 19.5q-3 15 1.5 18t20.5 -6z" />
    <glyph glyph-name="lslash" unicode="&#x142;" horiz-adv-x="153" 
d="M-138 395q-12 12 5 21q39 19 130 12q0 19 0.5 58.5t0.5 59.5q-37 -9 -98 -1q-24 4 -20 23q73 -19 121 -4q7 159 30.5 268t65.5 126q24 9 46 -2t32 -35q20 -40 14.5 -97.5t-25 -112t-59.5 -100t-89 -60.5q-3 -63 -3 -125q78 -9 127 -8.5t59 16.5q9 -5 7 -11.5t-8 -9.5
q-14 -8 -42 -9.5t-56.5 0.5t-86.5 7q2 -190 14 -294q11 -103 23 -115t26.5 13.5t29 75.5t25 93.5t19.5 87.5q2 6 3.5 15.5t2.5 12.5q4 -1 6 -2.5t2.5 -6t0.5 -7t-1.5 -8.5t-1.5 -7q-37 -183 -64 -241q-32 -71 -64 -34q-13 15 -24 121q-13 111 -13 298q-105 7 -135 -18z
M17 569q45 16 81 58t52.5 92t21.5 103.5t-12 91.5q-8 19 -23.5 27.5t-33.5 1.5q-69 -28 -86 -374z" />
    <glyph glyph-name="OE" unicode="&#x152;" horiz-adv-x="762" 
d="M324 939q42 6 109 1l3 43q15 -1 16.5 -3.5t-0.5 -18.5l-2 -23l53 -6q55 -7 87.5 -10.5t84.5 -2.5t96 11q2 -11 -1.5 -15t-19.5 -7q-88 -14 -249 7l-52 7q-18 -218 -30 -466h157q20 0 25.5 -2t5.5 -15h-188q-24 -529 20 -690q8 -32 19.5 -48t24.5 -12q6 3 31 63l35 76
t41.5 74.5t60.5 76t71 44.5q17 6 23.5 4t11.5 -13q-34 -6 -65.5 -28.5t-53 -46.5t-45.5 -67t-34 -64l-29 -63q-29 -69 -43 -72q-22 -7 -38 12t-27 60q-36 133 -27 526q-14 -112 -41 -204q-60 -204 -162 -220q-5 -1 -15 -1q-58 0 -96.5 60.5t-54 151.5t-15.5 208
q0 190 36 351q37 175 91 216q34 26 66 -3q18 -16 2 -27q-30 37 -57 16q-50 -39 -86 -205q-35 -172 -35 -348q0 -112 14 -199t48.5 -145t86.5 -58h13q90 14 147 208q54 181 54 411q0 110 -15 203q-13 100 -52 172q-37 65 -83 77l-2 1h-3q-47 6 -98 -35q-64 -51 -87 -140
l-6 -31q-7 1 -10.5 9.5t0.5 25.5q23 96 92 149q60 48 112 39q4 0 6 -1q55 -15 93 -85q41 -74 56 -179q9 -61 12 -130q7 127 25 365q-78 8 -128 -6q-4 17 21 22z" />
    <glyph glyph-name="oe" unicode="&#x153;" horiz-adv-x="208" 
d="M117 235q9 -25 26 -37q10 -7 22 5t21.5 34.5t15 38t7.5 24.5q12 -2 5 -24q-2 -5 -6 -16.5l-7.5 -21t-8.5 -21.5t-11 -19.5t-13 -13t-15.5 -5.5t-18.5 7q-40 25 -44 83q-16 -47 -48 -46q-27 0 -38 21.5t-9 44.5t10 41q18 36 52 42q14 3 18 -2t3 -14q-35 4 -54 -33
q-11 -17 -8 -50t26 -33q28 0 36 48q-26 6 -32 24.5t15 34.5q9 7 17 7q17 -2 18 -30q11 35 34 48q15 7 23.5 -2t11.5 -24q5 -31 -8.5 -62.5t-39.5 -48.5zM113 253q19 13 28.5 38.5t6.5 51.5q-4 25 -21 2q-25 -39 -14 -92zM79 301q2 34 -3 36q-18 -13 -15 -23t18 -13z" />
    <glyph glyph-name="Scaron" unicode="&#x160;" horiz-adv-x="556" 
d="M494 728q24 62 -39 113q-31 24 -74.5 36t-85.5 8q-101 -9 -137 -91q-66 -146 110 -453q16 -30 25 -45q84 28 162 -4q25 -11 14 -26q-78 43 -169 15q79 -149 120 -291q74 -265 -75 -319q-33 -13 -86 -11q-157 1 -224 97t-17 242q32 95 101.5 176t157.5 115q-3 6 -8 15
t-8.5 16t-7.5 12q-181 313 -111 468q40 90 151 101q100 8 172 -47q62 -51 50 -113q-3 -14 -9 -16t-12 2zM404 -14q-37 132 -119 289q-86 -32 -153 -110.5t-99 -171.5q-47 -137 15.5 -226.5t210.5 -90.5q51 0 80 11q134 48 65 299zM114 949q1 15 14 8q10 -8 24 -26t19 -23
l28 33q8 10 12 10.5t11 -3.5l-21.5 -27.5t-30.5 -32.5q-13 -7 -14 8q2 0 5 3q-3 3 -19.5 23.5t-27.5 26.5z" />
    <glyph glyph-name="scaron" unicode="&#x161;" horiz-adv-x="197" 
d="M52 300q32 30 11 45q-17 12 -38 1q-23 -13 -12 -41q11 -29 48 -69t44 -50q17 22 50.5 60l47.5 55q5 -2 4 -11t-8 -16q-56 -63 -84 -104q23 -37 21 -65q-1 -19 -14 -28q-13 -10 -27 -1q-17 9 -17 35q0 31 18 59q-6 9 -46.5 54.5t-52.5 74.5q-12 34 8 53t45.5 15t33.5 -23
t-8 -45q-14 -16 -24 1zM119 106q2 20 -14 47q-10 -20 -10 -41q1 -17 8 -22q5 -3 9 0q6 6 7 16zM35 473q1 15 14 8q10 -8 24 -26t19 -23l28 33q8 10 12 10.5t11 -3.5l-21.5 -27.5t-30.5 -32.5q-13 -7 -14 8q2 0 5 3q-3 3 -19.5 23.5t-27.5 26.5z" />
    <glyph glyph-name="Ydieresis" unicode="&#x178;" horiz-adv-x="460" 
d="M73 923q15 -62 -14 -337q-33 -311 -21 -415q13 -105 65 -98q59 7 123 134q68 134 125 371q3 14 13 11q13 -3 10 -196q-2 -127 -11 -287q20 8 31 10q29 6 29 -13q-31 -1 -61 -18q0 -12 -2 -36.5l-3 -36.5q-26 -368 -75 -364q-28 3 -43 74q-9 54 -6 109q2 64 18 122
q29 101 94 143q9 166 11 297q1 35 2 84t1 61q-52 -207 -117 -339q-69 -136 -137 -144q-37 -4 -57 25.5t-27 88.5q-12 98 17 386l3 32q9 81 13 124t7 99t0 86.5t-13 42.5q9 6 15 3.5t10 -19.5zM339 13l5 60q-50 -38 -76 -124q-15 -52 -18 -119q-3 -56 7 -104q10 -58 26 -60
q32 -3 56 347zM191 905q13 0 16 -24q1 -11 -3.5 -18.5t-10.5 -7.5q-7 -1 -12 6t-6 17q2 25 16 27zM266 906q13 0 16 -24q1 -11 -3.5 -18.5t-10.5 -7.5q-7 -1 -12 6t-6 17q2 25 16 27z" />
    <glyph glyph-name="Zcaron" unicode="&#x17d;" horiz-adv-x="489" 
d="M246 456q40 -2 81 -6q56 161 95.5 292.5t41.5 163.5q-96 -34 -226 -34q-113 0 -182 20q-18 5 -24 11t-3 18q67 -32 209 -32q138 2 228 36q10 3 13 -6q6 -16 -34 -157t-101 -313q94 -9 126 -9q0 -17 -24 -17q-16 0 -104 8h-4q-4 -9 -7 -20q-97 -269 -171 -416
q82 -25 147 -136q13 -25 -2 -35q-66 130 -153 156q-56 -110 -96 -145q-38 -35 -66 -6q-38 43 -5 100q20 35 52 53q38 21 79 20q18 0 27 -2q73 146 172 416l6 17q-84 7 -108 7q2 11 8 14t25 2zM45 -152q36 32 90 135q-4 1 -11 2t-8 1q-38 0 -70 -19q-29 -18 -46 -46
q-26 -48 3 -80q15 -17 42 7zM192 963q1 15 14 8q10 -8 24 -26t19 -23l28 33q8 10 12 10.5t11 -3.5l-21.5 -27.5t-30.5 -32.5q-13 -7 -14 8q2 0 5 3q-3 3 -19.5 23.5t-27.5 26.5z" />
    <glyph glyph-name="zcaron" unicode="&#x17e;" horiz-adv-x="220" 
d="M-3 301q3 33 34 57q9 7 20.5 11.5t24 6t22 -5t11.5 -21.5q2 -19 -7 -38t-38 -58q21 6 39 2.5t29.5 -14.5t20.5 -27.5t14 -37t8.5 -42t4 -43t1.5 -40t0 -33.5v-11q25 3 59 -2q6 -1 9.5 -3t5 -5t2 -4.5t-0.5 -5.5v-4q-39 13 -76 6q-8 -77 -28 -147q-45 -150 -107 -167
q-31 -7 -47 17q-20 30 -8 93q12 64 47 119q52 79 126 99q8 109 -17 181q-32 91 -109 36q-7 -6 -13 -2q-5 7 2 16q74 74 66 113q-5 23 -35 8q-31 -17 -41 -48q-5 -15 0 -28q-8 -3 -14 2t-5 20zM135 -154q19 62 27 138q-67 -20 -110 -90q-35 -55 -45 -112q-11 -56 6 -81
q9 -15 27 -9q54 14 95 154zM32 476q1 15 14 8q10 -8 24 -26t19 -23l28 33q8 10 12 10.5t11 -3.5l-21.5 -27.5t-30.5 -32.5q-13 -7 -14 8q2 0 5 3q-3 3 -19.5 23.5t-27.5 26.5z" />
    <glyph glyph-name="florin" unicode="&#x192;" horiz-adv-x="218" 
d="M-156 462v16q67 5 163 16q20 182 69.5 299t127.5 130q46 6 68.5 -31.5t10.5 -77.5q-15 -51 -59 -68q-28 -12 -30 9q29 4 47.5 21.5t25.5 42.5q9 36 -8 64.5t-52 22.5q-71 -11 -116.5 -122.5t-64.5 -286.5q124 14 187 24l2 -19q-18 -2 -84 -10.5t-107 -12.5
q-17 -166 -6 -352q3 -71 12 -135q81 -4 133 -58q36 -39 50.5 -91.5t3.5 -101.5q-13 -67 -59 -69q-70 -3 -114 157q-16 58 -29 148q-60 -2 -132 -27q-4 18 18 25q63 18 112 18q-10 83 -12 133q-11 175 4 351q-109 -12 -161 -15zM32 -24q13 -89 29 -142q20 -71 43.5 -108.5
t52.5 -36.5q30 0 44 55q17 108 -50 179q-46 47 -119 53z" />
    <glyph glyph-name="circumflex" unicode="&#x2c6;" horiz-adv-x="111" 
d="M-1 895q11 5 47 50l-5 3q1 15 14 8q12 -10 28.5 -31.5t23.5 -28.5q-8 -12 -23 7q-16 20 -28 32q-6 -5 -20 -23t-23 -25q-13 -7 -14 8z" />
    <glyph glyph-name="caron" unicode="&#x2c7;" horiz-adv-x="124" 
d="M-1 948q1 15 14 8q10 -8 24 -26t19 -23l28 33q8 10 12 10.5t11 -3.5l-21.5 -27.5t-30.5 -32.5q-13 -7 -14 8q2 0 5 3q-3 3 -19.5 23.5t-27.5 26.5z" />
    <glyph glyph-name="dotaccent" unicode="&#x2d9;" 
d="M47 956q13 0 16 -24q1 -11 -3.5 -18.5t-10.5 -7.5q-7 -1 -12 6t-6 17q2 25 16 27z" />
    <glyph glyph-name="ring" unicode="&#x2da;" horiz-adv-x="95" 
d="M59 939q6 6 13 6q13 -1 13.5 -23t-11 -44t-28.5 -24q-27 0 -31 29t6 45q13 26 36 30q7 2 10.5 0t4 -3.5t0.5 -6.5q-10 6 -24 -3.5t-19 -21.5q-9 -17 -4.5 -39.5t20.5 -22.5q10 0 21 19t10.5 38.5t-17.5 20.5z" />
    <glyph glyph-name="ogonek" unicode="&#x2db;" horiz-adv-x="163" 
d="M7 -91q2 16 0 25q14 5 18.5 -2t3.5 -20t-2.5 -27.5t2 -27t15.5 -15.5q10 -2 39 8.5t40 17.5q8 -21 -24.5 -32t-60.5 -9q-27 1 -32 26t1 56z" />
    <glyph glyph-name="tilde" unicode="&#x2dc;" horiz-adv-x="273" 
d="M13 526q-8 -5 -8 7q-1 17 8.5 32.5t25.5 22.5q28 11 98 -24q1 -1 8.5 -5t9.5 -5l9 -4.5t10 -4.5l9 -3t10 -2.5t9 -1t9.5 0t8.5 2.5q21 9 25.5 29.5t-5.5 38.5q9 4 12 -8q12 -46 -28 -66q-9 -5 -18.5 -5.5t-20.5 3t-18 6.5t-19 9.5t-16 8.5q-3 1 -11 5l-11 5.5l-10.5 5
t-11 5t-10 3.5t-10.5 2.5t-9 1t-9 -0.5t-8 -3q-16 -7 -24.5 -23t-4.5 -32z" />
    <glyph glyph-name="hungarumlaut" unicode="&#x2dd;" horiz-adv-x="130" 
d="M59 878q-8 -20 -17 -13l2.5 7.5t3 8.5l3.5 9t2.5 8.5t1 6.5t-1 5t-3.5 2q-11 -4 -13 13q-4 23 12 31q3 2 7 2q9 0 12.5 -10.5t1 -25.5t-5 -25.5t-5.5 -18.5zM113 878q-8 -20 -17 -13l2.5 7.5t3 8.5l3.5 9t2.5 8.5t1 6.5t-1 5t-3.5 2q-11 -4 -13 13q-4 23 12 31q3 2 7 2
q9 0 12.5 -10.5t1 -25.5t-5 -25.5t-5.5 -18.5z" />
    <glyph glyph-name="endash" unicode="&#x2013;" horiz-adv-x="423" 
d="M76 345q-12 12 5 21q41 21 182 7q51 -7 95.5 -6t54.5 17q9 -5 7 -11.5t-8 -9.5q-31 -17 -151 -5q-53 8 -108.5 7t-76.5 -20z" />
    <glyph glyph-name="emdash" unicode="&#x2014;" horiz-adv-x="569" 
d="M75 267q-16 14 7 25q62 26 259 8q73 -8 136.5 -7t77.5 20q13 -6 10 -13.5t-11 -11.5q-44 -20 -215 -6q-76 10 -154.5 8.5t-109.5 -23.5z" />
    <glyph glyph-name="quoteleft" unicode="&#x2018;" horiz-adv-x="73" 
d="M49 941q8 20 17 13l-2.5 -7.5t-3 -8.5l-3.5 -9t-2.5 -8.5t-1 -6.5t1 -5t3.5 -2q11 4 13 -13q4 -23 -12 -31q-3 -2 -7 -2q-9 0 -12.5 10.5t-1 25.5t5 26t5.5 18z" />
    <glyph glyph-name="quoteright" unicode="&#x2019;" horiz-adv-x="68" 
d="M53 878q-8 -20 -17 -13l2.5 7.5t3 8.5l3.5 9t2.5 8.5t1 6.5t-1 5t-3.5 2q-11 -4 -13 13q-4 23 12 31q3 2 7 2q9 0 12.5 -10.5t1 -25.5t-5 -25.5t-5.5 -18.5z" />
    <glyph glyph-name="quotesinglbase" unicode="&#x201a;" horiz-adv-x="86" 
d="M64 76q-8 -20 -17 -13l2.5 7.5t3 8.5l3.5 9t2.5 8.5t1 6.5t-1 5t-3.5 2q-11 -4 -13 13q-4 23 12 31q3 2 7 2q9 0 12.5 -10.5t1 -25.5t-5.5 -25.5t-5 -18.5z" />
    <glyph glyph-name="quotedblleft" unicode="&#x201c;" horiz-adv-x="131" 
d="M49 941q8 20 17 13l-2.5 -7.5t-3 -8.5l-3.5 -9t-2.5 -8.5t-1 -6.5t1 -5t3.5 -2q11 4 13 -13q4 -23 -12 -31q-3 -2 -7 -2q-9 0 -12.5 10.5t-1 25.5t5 26t5.5 18zM106 941q8 20 17 13l-2.5 -7.5t-3 -8.5l-3.5 -9t-2.5 -8.5t-1 -6.5t1 -5t3.5 -2q11 4 13 -13q4 -23 -12 -31
q-3 -2 -7 -2q-9 0 -12.5 10.5t-1 25.5t5.5 26z" />
    <glyph glyph-name="quotedblright" unicode="&#x201d;" horiz-adv-x="126" 
d="M110 880q-8 -20 -17 -13l2.5 7.5t3 8.5l3.5 9t2.5 8.5t1 6.5t-1 5t-3.5 2q-11 -4 -13 13q-4 23 12 31q3 2 7 2q9 0 12.5 -10.5t1 -25.5t-5.5 -25.5t-5 -18.5zM53 880q-8 -20 -17 -13l2.5 7.5t3 8.5l3.5 9t2.5 8.5t1 6.5t-1 5t-3.5 2q-11 -4 -13 13q-4 23 12 31q3 2 7 2
q9 0 12.5 -10.5t1 -25.5t-5 -25.5t-5.5 -18.5z" />
    <glyph glyph-name="quotedblbase" unicode="&#x201e;" horiz-adv-x="142" 
d="M64 76q-8 -20 -17 -13l2.5 7.5t3 8.5l3.5 9t2.5 8.5t1 6.5t-1 5t-3.5 2q-11 -4 -13 13q-4 23 12 31q3 2 7 2q9 0 12.5 -10.5t1 -25.5t-5.5 -25.5t-5 -18.5zM127 76q-8 -20 -17 -13l2.5 7.5t3 8.5l3.5 9t2.5 8.5t1 6.5t-1 5t-3.5 2q-11 -4 -13 13q-4 23 12 31q3 2 7 2
q9 0 12.5 -10.5t1 -25.5t-5 -25.5t-5.5 -18.5z" />
    <glyph glyph-name="daggerdbl" unicode="&#x2021;" horiz-adv-x="364" 
d="M13 -44q-12 12 5 21q39 21 159 9q1 87 -7 281q-12 289 -5 411q-128 12 -159 -16q-12 12 5 21q40 21 155 9q12 168 59 229q21 21 31 5q-59 -47 -72 -235q3 -1 9 -1q51 -7 95.5 -6t54.5 17q9 -5 7 -11.5t-8 -9.5q-31 -17 -151 -5q-5 0 -7 1q-8 -130 4 -407q8 -196 8 -284
l2 -1h2q51 -7 95.5 -6t54.5 17q9 -5 7 -11.5t-8 -9.5q-31 -17 -151 -5h-2q-2 -188 -32 -270q-10 -16 -25 -10q36 78 38 283q-131 14 -164 -16z" />
    <glyph glyph-name="ellipsis" unicode="&#x2026;" horiz-adv-x="189" 
d="M46 159q13 0 16 -24q1 -11 -3.5 -18.5t-10.5 -7.5q-7 -1 -12 6t-6 17q2 25 16 27zM109 159q13 0 16 -24q1 -11 -3.5 -18.5t-10.5 -7.5q-7 -1 -12 6t-6 17q2 25 16 27zM172 159q13 0 16 -24q1 -11 -3.5 -18.5t-10.5 -7.5q-7 -1 -12 6t-6 17q2 25 16 27z" />
    <glyph glyph-name="perthousand" unicode="&#x2030;" horiz-adv-x="689" 
d="M129 374q-31 0 -53.5 19t-32.5 50t-14.5 57.5t-5.5 55.5q0 29 4.5 64t15 73.5t32 65.5t49.5 29q27 0 46 -21.5t28 -54.5t12.5 -61t3.5 -53q1 -24 -2.5 -58t-11.5 -73t-26.5 -66t-44.5 -27zM129 388q24 1 40 26t22.5 62.5t9 67t1.5 53.5q0 22 -3.5 50t-11.5 59.5t-24 51.5
t-38 17q-27 -4 -46 -29.5t-27.5 -63t-12 -68t-3.5 -58.5t5 -56t15 -54.5t29 -42.5t44 -15zM332 -175q-31 0 -53.5 19t-32.5 50t-14.5 57.5t-5.5 55.5q0 29 4.5 64t15 73.5t32 65.5t49.5 29q27 0 46 -21.5t28 -54.5t12.5 -61t3.5 -53q1 -24 -2.5 -58t-11.5 -73t-26.5 -66
t-44.5 -27zM332 -161q24 1 40 26t22.5 62.5t9 67t1.5 53.5q0 22 -3.5 50t-11.5 59.5t-24 51.5t-38 17q-27 -4 -46 -29.5t-27.5 -63t-12 -68t-3.5 -58.5t5 -56t15 -54.5t29 -42.5t44 -15zM595 -175q-31 0 -53.5 19t-32.5 50t-14.5 57.5t-5.5 55.5q0 29 4.5 64t15 73.5
t32 65.5t49.5 29q27 0 46 -21.5t28 -54.5t12.5 -61t3.5 -53q1 -24 -2.5 -58t-11.5 -73t-26.5 -66t-44.5 -27zM595 -161q24 1 40 26t22.5 62.5t9 67t1.5 53.5q0 22 -3.5 50t-11.5 59.5t-24 51.5t-38 17q-27 -4 -46 -29.5t-27.5 -63t-12 -68t-3.5 -58.5t5 -56t15 -54.5
t29 -42.5t44 -15zM468 942q-24 -13 -47 -45.5t-45.5 -88t-40 -107.5t-40 -136.5t-36 -141l-36.5 -153.5q-52 -228 -94 -372.5t-89 -218.5q-10 -17 -23 -4q34 46 70 150.5t59 195l61 252.5q34 146 53.5 221.5t51.5 184.5t63 172t65 93q23 19 28 -2z" />
    <glyph glyph-name="guilsinglleft" unicode="&#x2039;" horiz-adv-x="354" 
d="M330 73q-5 28 -40.5 58.5t-94.5 68.5q-93 63 -111 94q-5 -9 -7 -20q-19 2 -10 20q9 20 33 42.5t45 37.5t59 40l46.5 32.5t38 29t32.5 32t8 23.5q9 3 12 -4t1 -13q-16 -36 -130 -113q-89 -56 -118 -92q5 -25 77 -74q7 -5 21 -14l11 -8q38 -25 59 -40t45 -37.5t33 -42.5
q9 -17 -10 -20z" />
    <glyph glyph-name="guilsinglright" unicode="&#x203a;" horiz-adv-x="349" 
d="M77 535q5 -28 40.5 -58.5t94.5 -68.5q93 -63 111 -94q5 9 7 20q19 -2 10 -20q-9 -20 -33 -42.5t-45 -37.5t-59 -40l-46.5 -32.5t-38 -29t-32.5 -32t-8 -23.5q-9 -3 -12 4t-1 13q16 36 130 113q89 56 118 92q-5 25 -77 74q-7 5 -21 14l-11 8q-38 25 -59 40t-45 37.5
t-33 42.5q-9 17 10 20z" />
    <glyph glyph-name="fraction" unicode="&#x2044;" horiz-adv-x="446" 
d="M448 942q-24 -13 -47 -45.5t-45.5 -88t-40 -107.5t-40 -136.5t-36 -141l-36.5 -153.5q-52 -228 -94 -372.5t-89 -218.5q-10 -17 -23 -4q34 46 70 150.5t59 195l61 252.5q34 146 53.5 221.5t51.5 184.5t63 172t65 93q23 19 28 -2z" />
    <glyph glyph-name="Euro" unicode="&#x20ac;" horiz-adv-x="398" 
d="M-33 216q-12 12 5 21q16 8 35 11q0 64 4 113q-30 -5 -45 -17q-12 12 5 21q15 8 41 11q7 117 31 217q54 211 153 211q34 0 58.5 -67.5t34.5 -176.5q3 -23 -12 -22q-8 111 -29.5 181t-51.5 70q-29 0 -54 -21.5t-41.5 -57.5t-26 -63.5t-16.5 -57.5q-21 -88 -31 -211
q32 3 126 -6q51 -7 95.5 -6t54.5 17q9 -5 7 -11.5t-8 -9.5q-31 -17 -151 -5q-94 9 -125 6q-4 -49 -4 -114q34 4 132 -5q51 -7 95.5 -6t54.5 17q9 -5 7 -11.5t-8 -9.5q-31 -17 -151 -5q-88 10 -130 5v-1q0 -178 28 -315q80 -40 135 35q36 48 60 143q17 0 11 -20
q-24 -83 -59 -132q-59 -80 -144 -45q2 -10 7.5 -27.5t8.5 -29.5l3 -11q-3 -3 -6.5 -2.5t-7.5 7.5t-9 20q-9 23 -13 52l-14 8q-11 8 -4 22l14 -10q-25 136 -25 304q-26 -5 -40 -16z" />
    <glyph glyph-name="trademark" unicode="&#x2122;" horiz-adv-x="622" 
d="M-9 935q73 5 157 3v17q8 -4 8 -6q-1 -4 -1 -11h61q31 -1 95 -1q13 0 14 -7h-109q-20 1 -61 1q0 -45 -8 -179q-1 -12 -10 -187q30 -26 36 -67q4 -21 4 -46q-1 -18 -7 -39q-7 -28 -18 -30q-7 -1 -11.5 5t-7.5 20q-9 43 -4 154q-17 11 -32 16q3 8 13 2q13 -4 19 -10
q1 21 4.5 85l5.5 98q1 25 4.5 87.5t4.5 90.5q-98 0 -142 -2q-15 -1 -15 6zM137 554q-3 -109 3 -145q2 -10 4.5 -14.5t5.5 -3.5q7 1 13 24q6 20 6 37q0 30 -4 44q-7 37 -28 58zM283 460q6 -1 10.5 3.5t6.5 13.5q10 31 10 171q-2 82 1 142q9 125 52 121q55 -4 60 -254
q7 82 28 177q28 112 65 115q49 0 54 -114q1 -25 -6 -192q-7 -73 -8 -126q26 -13 42 -43q13 -23 16 -46q5 -23 -2 -39q-7 -18 -26 -15q-39 5 -37 138q-17 6 -35 3q0 6 6 8h3q5 1 26 -2q1 37 7 123q9 154 7 191q-5 108 -46 105q-32 0 -59 -108q-25 -105 -37 -275v-18
q-1 -7 -9 -7q0 2 2 26q3 32 1.5 89.5t-4.5 114t-15.5 99t-32.5 43.5q-35 3 -44 -115q-4 -55 -2 -141q0 -140 -10 -173q-7 -20 -17 -23q-6 -1 -7 0.5t0 7.5zM556 508q-3 -123 32 -127q12 -2 17 11q7 13 2 35q-2 17 -15 44q-17 27 -36 37z" />
    <glyph glyph-name="minus" unicode="&#x2212;" horiz-adv-x="417" 
d="M67 283q-12 12 5 21q41 21 182 7q51 -7 95.5 -6t54.5 17q9 -5 7 -11.5t-8 -9.5q-31 -17 -151 -5q-53 8 -108.5 7t-76.5 -20z" />
    <glyph glyph-name="a.calt" unicode="&#xe019;" horiz-adv-x="171" 
d="M80 321q-25 27 -54 -18q-26 -39 -22 -71q1 -16 13 -16q30 0 55 51t25 84q14 -2 16 -9q0 -5 -1 -12v-22.5t1 -38.5t2.5 -39.5t6.5 -33.5t13 -13q15 0 22.5 37.5t-9.5 53.5q1 2 3.5 4t7 0t7.5 -8q11 -18 0.5 -59.5t-32.5 -41.5q-35 0 -40 108q-38 -71 -78 -71
q-37 0 -32 44.5t40 77.5q23 22 46 19q13 -2 15 -10.5t-5 -15.5z" />
    <glyph glyph-name="b.calt" unicode="&#xe01a;" horiz-adv-x="157" 
d="M156 304q-2 -25 -23.5 -37t-41.5 0q-7 -50 -24 -60q-17 -9 -31 1t-22.5 33.5t-12 39.5t-6.5 32q-11 72 -11 161q0 63 4 114q-16 -6 -36 -9q-62 -14 -137 -8q-6 1 -9.5 2t-5 3.5t-2.5 4.5t-1 5v4q80 -10 151 5q20 4 41 11q4 60 13.5 118t25 113.5t40.5 90t55 34.5
q47 0 62 -41.5t6 -88.5q-9 -54 -38.5 -109.5t-72.5 -89.5q-29 -24 -75 -39q-3 -41 -3 -120q0 -95 10 -158q1 -10 4 -24.5t9 -35t15 -31.5t19 -6q12 8 16 57q-6 6 -14 18t-16 27t-9 25.5t9 14.5q21 5 32 -8q16 -17 16 -70q21 -15 37.5 -1t11.5 37q5 2 10 -1t4 -14zM6 612
q38 14 63 34q40 32 68.5 84.5t37.5 104.5q13 109 -51 109q-45 -2 -77 -106.5t-41 -225.5zM76 302q3 29 -15 44q-7 5 -7 -1q1 -1 1 -2q7 -27 21 -41z" />
    <glyph glyph-name="c.calt" unicode="&#xe01b;" horiz-adv-x="95" 
d="M93 286q-6 -25 -34 -42t-50 -5q-24 19 -8 66t42 58q20 8 31 -4q8 -9 -3 -20q-11 12 -22 9q-17 -7 -30.5 -46.5t0.5 -51.5q19 -11 43 10t22 42q13 0 9 -16z" />
    <glyph glyph-name="d.calt" unicode="&#xe01c;" horiz-adv-x="269" 
d="M-30 581q75 -10 142 -1q40 292 135 366q59 40 103 20q55 -26 39 -133q-15 -93 -76 -169q-79 -82 -186 -99q-18 -177 1 -349q15 -149 46 -191q10 -13 19 1q11 15 25 48.5t26 74t9 79t-26 55.5q7 13 19 2q28 -27 22 -83.5t-25.5 -109.5t-37.5 -77q-12 -13 -24.5 -12.5
t-20.5 12.5q-21 33 -36 107.5t-17 132.5q-57 -115 -106 -87q-24 16 -19 67q4 40 25 75t54 41q21 4 41 -16q1 0 1 -1q-3 126 6 229q-52 -7 -110 -1q-17 1 -24 5.5t-5 13.5zM129 582q119 29 171 93q56 69 73 160q13 95 -31 116q-34 19 -85 -19q-88 -69 -128 -350zM103 278
q-2 30 -14 46q-29 29 -61 -20q-28 -45 -26 -93q1 -24 12 -32q16 -12 49 32t40 67z" />
    <glyph glyph-name="e.calt" unicode="&#xe01d;" horiz-adv-x="120" 
d="M25 235q9 -25 26 -37q13 -10 28 14q12 18 20 40t6 46t-18 37q9 13 19 0q13 -16 13 -41.5t-8 -47t-19 -40.5q-23 -39 -50 -20q-44 34 -42.5 99t38.5 87q15 7 23.5 -2t11.5 -24q5 -31 -8.5 -62.5t-39.5 -48.5zM21 253q19 13 28.5 38.5t6.5 51.5q-4 25 -21 2
q-25 -39 -14 -92z" />
    <glyph glyph-name="f.calt" unicode="&#xe01e;" horiz-adv-x="218" 
d="M5 477q-70 -8 -101 -11q-6 -3 -15 -0.5t-7 15.5q40 3 125 13q20 182 69.5 299t127.5 130q46 6 68.5 -31.5t10.5 -77.5q-15 -51 -59 -68q-28 -12 -30 9q29 4 47.5 21.5t25.5 42.5q9 36 -8 64.5t-52 22.5q-71 -11 -116.5 -122.5t-64.5 -286.5q118 14 162 20q28 3 27 -15
q-18 -2 -84 -10.5t-107 -12.5q-17 -166 -6 -352q3 -71 12 -135q81 -4 133 -58q36 -39 50.5 -91.5t3.5 -101.5q-13 -67 -59 -69q-70 -3 -114 157q-16 58 -29 148q-34 -2 -61 -16t-29 -40q-3 -2 -7.5 0.5t-7 7.5t2.5 15q22 43 100 49q-10 83 -12 133q-11 175 4 351zM32 -24
q13 -89 29 -142q20 -71 43.5 -108.5t52.5 -36.5q30 0 44 55q17 108 -50 179q-46 47 -119 53z" />
    <glyph glyph-name="g.calt" unicode="&#xe01f;" horiz-adv-x="194" 
d="M98 344v6q3 1 7.5 5t7 3.5t4.5 -7.5v-1q4 -78 1 -141q-6 -119 -17 -210q31 -1 59.5 -14t41.5 -37q11 -23 -12 -26q-2 29 -30 44t-61 17q-40 -299 -126 -317q-40 -10 -60 29q-24 45 -8 123q19 81 71 132q46 46 109 50q11 98 16 210q2 40 2 99q-29 -55 -69 -64
q-21 -4 -33 7t-7 32q5 22 24.5 43.5t40.5 29.5q24 7 39 -13zM-31 -318q77 17 114 301q-53 -5 -96 -45q-48 -48 -65 -124q-16 -71 6 -111q14 -27 41 -21zM88 317q-3 20 -15.5 23t-25.5 -11q-12 -12 -26.5 -38t-4.5 -32q19 -11 40 11.5t32 46.5z" />
    <glyph glyph-name="h.calt" unicode="&#xe020;" horiz-adv-x="204" 
d="M-178 597q83 -13 179 18q7 107 22 174q20 93 52 133q35 45 77.5 36.5t52.5 -64.5q6 -43 -3 -88q-14 -69 -64.5 -120.5t-120.5 -82.5q-7 -115 -1 -337v-41l1 -21q2 7 15 47l7 22t11.5 32t13.5 29t18 24.5t20 7.5q28 -2 24 -99q-2 -148 8 -149q6 -1 26 40t29 83t-13 65
q10 10 19 -1q15 -31 4 -76.5t-33 -87.5t-33 -40q-29 3 -24 167q1 13 1 23.5t-1 27t-4.5 24.5t-10.5 5q-16 -8 -46 -102q-22 -66 -34 -66q-4 0 -7.5 7.5t-4.5 19.5t-1.5 23l-1 22.5t-0.5 13.5q-6 207 1 330q-67 -24 -154 -19q-30 4 -24 20zM18 623q141 64 168 187q9 35 3 78
q-6 49 -41.5 53.5t-61.5 -33.5q-29 -39 -47 -123q-15 -72 -21 -162z" />
    <glyph glyph-name="i.calt" unicode="&#xe021;" horiz-adv-x="85" 
d="M84 314q1 -25 -15 -48q-33 -41 -51 -36q-8 3 -12.5 13.5t-5.5 29.5t-0.5 33t2.5 36.5t2 26.5q14 -1 15 -6q1 -4 1 -11q-6 -100 4 -106q7 -4 25 16q33 35 19 63q1 2 4.5 2.5t7.5 -3t4 -10.5zM16 429q8 -2 8 -20q-1 -8 -3.5 -13.5t-6.5 -4.5q-10 0 -8 19t10 19z" />
    <glyph glyph-name="j.calt" unicode="&#xe022;" horiz-adv-x="86" 
d="M16 349q-2 -60 -4 -175t-5 -172q76 2 103 -36q14 -20 -9 -26q-5 26 -34 36.5t-62 9.5q-10 -114 -23 -171q-30 -131 -99 -146q-47 -10 -59 48q-17 81 39 183q51 87 127 101q3 70 5 193.5t4 168.5q2 0 6 0.5t5 0t3 -2t2.5 -4.5t0.5 -8zM-121 -314q91 18 109 297
q-67 -16 -110 -91q-55 -98 -37 -172q7 -40 38 -34zM7 434q9 0 9 -18q0 -8 -2.5 -14.5t-6.5 -5.5q-9 0 -9 19q2 19 9 19z" />
    <glyph glyph-name="k.calt" unicode="&#xe023;" horiz-adv-x="171" 
d="M148 244q11 8 18 -6q12 -26 -5.5 -70.5t-43.5 -46.5q-8 -1 -16 6.5t-14.5 22t-11 25.5t-10 28t-6.5 18q-10 26 41 112q-48 -10 -68 -147q-11 -96 -7 -244q8 -108 8 -128q-17 -1 -17 -2q-10 108 -15.5 283t0.5 424q0 12 2 42q-63 -16 -135 -6q-29 4 -20 20q92 -17 156 4
q15 232 64 314q20 33 46 51t49 17t42 -14t25 -42.5t-2 -68.5q-36 -160 -138 -234q-32 -24 -70 -36q0 -8 -1 -24t-1 -23q-8 -169 -3 -337q10 81 34.5 128t66.5 41q9 -1 9.5 -5t-4.5 -11q-54 -84 -45 -108q1 -2 5 -14.5l8 -24.5t9 -25t10 -21t9 -7q13 0 25.5 22.5t15 46.5
t-9.5 40zM21 584q32 12 59 31q96 69 131 224q11 60 -10 87.5t-56.5 14.5t-62.5 -58q-44 -71 -61 -299z" />
    <glyph glyph-name="l.calt" unicode="&#xe024;" horiz-adv-x="153" 
d="M-120 568q73 -19 121 -4q7 159 30.5 268t65.5 126q24 9 46 -2t32 -35q20 -40 14.5 -97.5t-25 -112t-59.5 -100t-89 -60.5q-4 -103 -1 -217q0 -116 12 -217q11 -103 23 -115q11 -11 25 13q10 18 21 42.5t21 58t7 63.5t-22 46q9 13 20 0q22 -22 16 -67.5t-19.5 -83.5
t-29.5 -65q-27 -46 -55 -15q-13 15 -24 121q-10 89 -12 218q-2 69 0 213q-37 -9 -98 -1q-24 4 -20 23zM17 569q45 16 81 58t52.5 92t21.5 103.5t-12 91.5q-8 19 -23.5 27.5t-33.5 1.5q-69 -28 -86 -374z" />
    <glyph glyph-name="m.calt" unicode="&#xe025;" horiz-adv-x="250" 
d="M217 265q0 3 2.5 5.5t7.5 1t10 -7.5q25 -30 2 -96q-17 -49 -38 -55q-7 -2 -12 4q-14 16 -10 138q4 88 0 96q-9 -14 -26 -59t-33.5 -82t-28.5 -40q-11 -3 -15 12q-2 22 -2 71q0 71 -9 87q-12 -21 -23 -65t-13 -49q-8 -25 -14 -32q-4 -7 -12 -2q-12 27 -2 123h5q6 1 8 0.5
t4 -4t2 -10.5q-2 -19 -2 -55q2 7 7 27t8.5 30.5l8.5 25t11 22.5q7 9 16 6.5t12 -10.5q8 -19 10 -48.5t0.5 -54.5t0.5 -50q10 18 39 90q22 52 29 67q14 23 27 17q13 -8 9 -113q-4 -116 6 -127q25 23 33.5 71.5t-18.5 65.5z" />
    <glyph glyph-name="n.calt" unicode="&#xe026;" horiz-adv-x="149" 
d="M19 287q0 -5 -0.5 -16.5t-0.5 -18.5q39 109 65 113q14 3 17 -37q1 -19 -2.5 -74t-3 -93t11.5 -38q10 0 21 28t9.5 58.5t-21.5 36.5q10 10 19 1q13 -11 13.5 -41t-6.5 -48q-17 -47 -34 -49q-14 -1 -21.5 14.5t-8.5 42.5q-1 31 2 88.5t2 87.5q-16 -15 -40.5 -77.5
t-25.5 -77.5q-1 -8 -10 -8q-6 0 -6.5 29t1 60t0.5 34q19 0 19 -15z" />
    <glyph glyph-name="o.calt" unicode="&#xe027;" horiz-adv-x="148" 
d="M142 306q-16 -17 -49 -19q-5 -27 -18.5 -46t-32.5 -18q-27 0 -38 21.5t-9 44.5t10 41q18 36 52 42q14 3 18 -2t3 -14q-35 4 -54 -33q-11 -17 -8 -50t26 -33q28 0 36 48q-26 6 -32 24.5t15 34.5q9 7 17 7q23 -3 17 -55q35 2 46 26q14 -7 1 -19zM79 301q2 34 -3 36
q-18 -13 -15 -23t18 -13z" />
    <glyph glyph-name="p.calt" unicode="&#xe028;" horiz-adv-x="212" 
d="M17 344q0 -14 -1 -45.5t-1 -48.5q16 77 60 106q20 15 36.5 8.5t27 -21.5t13.5 -34q5 -28 -1 -58q-14 -74 -63 -104q-20 -13 -43.5 0t-29.5 35q-2 -125 -5 -184q32 1 60 -11.5t39 -37.5q11 -23 -10 -26q-2 28 -33 44.5t-58 12.5q-18 -296 -120 -318q-24 -6 -39 8.5t-19 39
t-3.5 47t4.5 39.5q11 53 36 97q50 88 126 102q5 116 7 363h5.5h4.5t3 -0.5t2.5 -2t1 -4.5t0.5 -7zM-116 -321q92 19 108 299q-67 -17 -109 -93q-26 -44 -35 -92q-3 -13 -4 -31.5t0.5 -39.5t11.5 -33.5t28 -9.5zM24 213v-1q-2 -11 11 -32q30 -52 72 11q23 34 28 63q4 26 1 53
q-3 23 -18 35t-34 1q-23 -17 -45 -73q-18 -50 -15 -57z" />
    <glyph glyph-name="q.calt" unicode="&#xe029;" horiz-adv-x="227" 
d="M107 261l30.5 31.5t30.5 30.5q2 0 5 -3t5 -6t1 -3q-35 -34 -62 -119.5t-39 -186.5q45 1 80 -40q56 -72 48 -183q-3 -49 -21 -79.5t-49 -28.5q-60 4 -77 119q-14 94 0 193q-28 -3 -52.5 -19t-25.5 -41q-23 3 -13 25q10 23 36.5 37t56.5 16q18 150 62 250q-95 -87 -129 -46
q-21 29 -9 63.5t40 49.5q32 16 54.5 -5t27.5 -55zM76 -12q-13 -104 0 -193q18 -102 61 -104q23 -1 36.5 24.5t15.5 67.5q7 106 -45 171q-28 34 -68 34zM92 250q-11 51 -31 59q-26 11 -46 -29t-6 -61q16 -24 83 31z" />
    <glyph glyph-name="r.calt.001" unicode="&#xe02a;" horiz-adv-x="135" 
d="M42 373q12 1 33 6q14 4 19 -13q4 -18 -11 -103q-23 -127 -9 -136q4 -3 16 14q11 16 19.5 39t8.5 47t-14 33q11 13 19 -2q12 -29 4.5 -61.5t-25.5 -60.5q-21 -33 -36 -24q-25 15 0 154q15 81 11 96q-52 -12 -69 2q-10 13 -6.5 39t21.5 48t36 13q8 -9 -17 -91zM25 374
q22 71 22 77q-15 -8 -27 -44q-11 -33 5 -33z" />
    <glyph glyph-name="s.calt" unicode="&#xe02b;" horiz-adv-x="197" 
d="M52 300q32 30 11 45q-17 12 -38 1q-23 -13 -12 -41q11 -29 48.5 -70.5t44.5 -50.5q4 6 13.5 16l17.5 19t17.5 21t15.5 23.5t10 23.5t3 24.5t-7 23.5q13 10 18 -7q6 -13 3 -30t-8 -29t-16 -27.5t-20 -26l-20.5 -24t-17.5 -21.5q23 -37 21 -65q-1 -19 -14 -28
q-13 -10 -27 -1q-17 9 -17 35q0 27 19 57q-6 8 -47 54.5t-53 76.5q-12 34 8 53t45.5 15t33.5 -23t-8 -45q-14 -16 -24 1zM119 106q2 20 -14 47q-10 -20 -10 -41q1 -17 8 -22q5 -3 9 0q6 6 7 16z" />
    <glyph glyph-name="t.calt" unicode="&#xe02c;" horiz-adv-x="128" 
d="M83 638q-19 -17 -60 -27q0 -6 -5 -194q-7 -132 -3.5 -249t26.5 -149q7 -8 11 -5q25 18 38 94.5t-19 95.5q7 9 9 9q5 1 11 -4q18 -16 18.5 -61.5t-14 -89.5t-33.5 -57q-20 -13 -35 9q-25 35 -29.5 154.5t3.5 252.5q1 45 2 80.5l1.5 53.5t0.5 30t0.5 17t0.5 9
q-28 -5 -63 -6q-5 15 12 17h3q34 2 49 5q2 66 4 99q8 171 36 217q6 10 13.5 14.5t13.5 1t6 -15.5q-43 -11 -52 -213l-5 -99q48 13 64 38q15 -13 -4 -27z" />
    <glyph glyph-name="u.calt" unicode="&#xe02d;" horiz-adv-x="160" 
d="M26 347q-5 -45 -5 -78q0 -42 8 -44q34 0 66 134q4 11 12 8q7 -1 5 -39q-4 -72 -4.5 -118t2.5 -67.5t9 -20.5q16 1 23 51.5t-13 64.5q10 13 20 -1q16 -20 4.5 -75t-37.5 -53q-33 3 -25 175l-7.5 -20.5t-9 -20.5t-13 -20.5t-16.5 -11.5t-21 -2q-23 7 -25 60q0 50 7 98
q10 3 16 -1.5t4 -18.5z" />
    <glyph glyph-name="v.calt" unicode="&#xe02e;" horiz-adv-x="179" 
d="M24 339q-16 -121 -5 -144q3 -3 18.5 14.5t20.5 27.5q21 33 41 85q22 59 22 107q-57 10 -74 60q-10 22 -2.5 41t29.5 11q60 -21 63 -98q23 0 45.5 12t24.5 33q15 -3 8 -19q-9 -19 -31 -29t-46 -11q-1 -50 -23 -113q-19 -51 -42 -87q-26 -40 -43 -49q-18 -9 -27 7
q-16 35 -1 154q0 7 1.5 17t1.5 12q14 -1 17.5 -7t1.5 -24zM121 445q0 29 -19 55t-39 26q-4 0 -4.5 -10.5t3.5 -20.5q14 -41 59 -50z" />
    <glyph glyph-name="w.calt" unicode="&#xe02f;" horiz-adv-x="295" 
d="M22 336q0 -1 -3 -25.5t-3.5 -34t-1 -28.5t2 -32t7.5 -23q20 2 52 120q8 31 16 31q6 0 8 -5t2 -15v-9q0 -191 28 -195q33 11 58.5 81.5t36.5 128.5q7 51 7 91q-34 8 -57 37.5t-12 60.5q4 15 18 22q24 10 41 -6t21 -41q5 -29 7 -61q63 -7 75 28q5 3 8 -5q3 -9 -5 -17
q-24 -29 -78 -21q-1 -44 -9 -91q-11 -66 -40 -141.5t-68 -81.5q-9 -2 -16.5 2.5t-12 16.5t-8 24t-5.5 33.5t-2.5 34t-2 36t-1.5 31.5q-30 -104 -61 -106q-26 0 -29 56q-1 48 6 106q2 28 2 33q23 0 19 -35zM232 438q-1 15 -2 25.5t-5 30t-13 28.5t-23 4q-8 -6 -10 -12
q-7 -23 11.5 -46t41.5 -30z" />
    <glyph glyph-name="x.calt" unicode="&#xe030;" horiz-adv-x="244" 
d="M223 144q20 46 -4 68q1 2 4 4t7.5 0t7.5 -9q14 -28 -4 -68q-24 -53 -68 -9q-29 29 -77 103q-36 -40 -82 -65q-19 -10 -26 6q60 27 99 74q-62 110 -69 119q8 6 13 4.5t13 -13.5q5 -8 23.5 -41.5l30.5 -53.5q47 66 50 148q-32 7 -54 32t-22 56q0 26 20.5 36.5t39.5 -6.5
q28 -28 33 -103q38 -3 83 24q1 -7 1 -11.5t-4.5 -8.5t-15.5 -9q-35 -13 -65 -12q-4 -92 -57 -162q41 -71 78 -110q29 -29 45 7zM141 428q-6 69 -28 88q-12 10 -21.5 3t-9.5 -20q0 -25 17.5 -45t41.5 -26z" />
    <glyph glyph-name="y.calt" unicode="&#xe031;" horiz-adv-x="183" 
d="M23 344q0 -18 -4 -56t-2 -59q12 10 46 86q26 59 37 59q5 0 8 -5.5t4 -13.5t1 -17t-0.5 -16t0.5 -11q1 -35 1 -304q60 5 86 -23q13 -16 -4 -26q-6 22 -31 29t-53 3q-4 -66 -13 -119.5t-24.5 -99t-41 -69.5t-59.5 -23q-40 1 -52 55q-14 80 36 165q50 79 139 105
q3 157 0 306l-2 35q-1 -4 -4 -9.5t-6.5 -14t-6.5 -14.5q-39 -82 -55 -95q-5 -4 -10 -5q-12 -3 -15 14q-8 10 -2 74.5t6 73.5q13 1 17.5 -4t3.5 -21zM-26 -304q103 -3 120 289q-77 -23 -121 -96q-49 -80 -34 -151q8 -42 35 -42z" />
    <glyph glyph-name="z.calt" unicode="&#xe032;" horiz-adv-x="220" 
d="M-3 301q3 33 34 57q9 7 20.5 11.5t24 6t22 -5t11.5 -21.5q2 -19 -7 -38t-38 -58q21 6 39 2.5t29.5 -14.5t20.5 -27.5t14 -37t8.5 -42t4 -43t1.5 -40t0 -33.5v-11q75 4 102 -35q14 -19 -6 -28q-6 27 -36 37.5t-61 7.5q-8 -77 -28 -147q-45 -150 -107 -167q-31 -7 -47 17
q-18 26 -12.5 69t20 80t31.5 63q52 79 126 99q8 109 -17 181q-32 91 -109 36q-7 -6 -13 -2q-5 7 2 16q74 74 66 113q-5 23 -35 8q-31 -17 -41 -48q-5 -15 0 -28q-8 -3 -14 2t-5 20zM135 -154q19 62 27 138q-67 -20 -110 -90q-16 -25 -30 -61.5t-19 -73.5t10 -58
q11 -14 27 -9q54 14 95 154z" />
    <glyph glyph-name="a.salt" unicode="&#xe033;" horiz-adv-x="200" 
d="M91 329q-27 33 -60 -16q-31 -44 -31 -90q0 -28 17 -30q20 -2 40 23.5t36 60.5q18 45 18 91q5 1 8 -0.5t5 -8.5t2 -20q-3 -41 2.5 -129.5t23.5 -88.5q10 0 50 179q12 0 7 -26q0 -2 -6 -31l-10 -47t-11 -42.5t-15 -37t-16 -11.5q-37 4 -43 167q-45 -93 -92 -93
q-41 0 -37 53q3 53 41 99q30 36 60 31q15 -2 17 -12.5t-6 -20.5z" />
    <glyph glyph-name="b.salt" unicode="&#xe034;" horiz-adv-x="199" 
d="M-202 590q80 -10 151 5q20 4 41 11q4 60 13.5 118t25 113.5t40.5 90t55 34.5q47 0 62 -41.5t6 -88.5q-9 -54 -38.5 -109.5t-72.5 -89.5q-29 -24 -75 -39q-12 -193 17 -377q6 -48 24 -81q12 -22 23 -13q12 10 24.5 66.5t14.5 86.5q-6 6 -14 18t-16 27t-9 25.5t9 14.5
q21 5 32 -8q16 -17 16 -70q11 -9 37.5 -5.5t40.5 22.5q9 -10 -2 -21q-13 -14 -39 -17t-39 5q-2 -40 -15 -93.5t-32 -65.5q-16 -10 -30 -0.5t-22.5 33t-13 41t-6.5 32.5q-30 201 -17 374q-17 -6 -36 -9q-62 -14 -137 -8q-6 1 -9.5 2t-5 3.5t-2.5 4.5t-1 5v4zM7 612
q38 14 63 34q40 32 68.5 84.5t37.5 104.5q13 109 -51 109q-45 -2 -77 -106.5t-41 -225.5zM110 302q3 29 -15 44q-7 5 -7 -1q1 -1 1 -2q7 -27 21 -41z" />
    <glyph glyph-name="c.salt" unicode="&#xe035;" horiz-adv-x="139" 
d="M70 339q-11 12 -22 9q-23 -7 -45.5 -102.5t-8.5 -120.5q5 -5 23.5 13t44 51.5l44.5 59l37 51.5q13 -5 -4 -27q-1 -1 -18 -26t-35 -48.5l-39 -49t-38 -36t-25 -0.5q-16 18 -8 81t30 118q18 45 36 51q13 5 25.5 -1.5t2.5 -22.5z" />
    <glyph glyph-name="d.salt" unicode="&#xe036;" horiz-adv-x="257" 
d="M-30 581q75 -10 142 -1q40 292 135 366q59 40 103 20q55 -26 39 -133q-15 -93 -76 -169q-79 -82 -186 -99q-14 -145 -2 -305q1 -14 3 -34.5t6.5 -49t13 -44.5t18.5 -8q20 15 48 68.5t45 107.5q7 -1 8.5 -3.5t-3.5 -20.5q-47 -122 -89 -161q-11 -10 -24 -8
q-14 2 -24.5 35.5t-14 61.5t-5.5 51q-57 -115 -106 -87q-24 16 -19 67q4 40 25 75t54 41q21 4 41 -16q1 0 1 -1q-3 126 6 229q-52 -7 -110 -1q-17 1 -24 5.5t-5 13.5zM129 582q119 29 171 93q56 69 73 160q13 95 -31 116q-34 19 -85 -19q-88 -69 -128 -350zM103 278
q-2 30 -14 46q-29 29 -61 -20q-28 -45 -26 -93q1 -24 12 -32q16 -12 49 32t40 67z" />
    <glyph glyph-name="e.salt" unicode="&#xe037;" horiz-adv-x="115" 
d="M25 235q13 -34 31 -38q2 -9 -1 -12t-13 2q-48 31 -44 101q3 62 40 84q15 7 23.5 -2t11.5 -24q5 -31 -8.5 -62.5t-39.5 -48.5zM21 253q19 13 28.5 38.5t6.5 51.5q-4 25 -21 2q-25 -39 -14 -92z" />
    <glyph glyph-name="f.salt" unicode="&#xe038;" horiz-adv-x="218" 
d="M5 477q-113 -12 -147 -15q-4 9 3.5 13.5t17.5 5.5q75 6 128 13q20 182 69.5 299t127.5 130q46 6 68.5 -31.5t10.5 -77.5q-15 -51 -59 -68q-28 -12 -30 9q29 4 47.5 21.5t25.5 42.5q9 36 -8 64.5t-52 22.5q-71 -11 -116.5 -122.5t-64.5 -286.5q124 14 187 24
q3 -9 -2.5 -14.5t-10 -6l-13.5 -1.5l-72 -9.5t-91 -10.5q-16 -138 -6 -326.5t43 -318.5q17 -66 43.5 -105t52.5 -40q16 0 28 17q10 -12 -0.5 -22.5t-26.5 -11.5q-70 -3 -114 157q-32 113 -43 297q-11 175 4 351z" />
    <glyph glyph-name="g.salt" unicode="&#xe039;" horiz-adv-x="194" 
d="M98 344v6q3 1 7.5 5t7 3.5t4.5 -7.5v-1q4 -78 1 -141q-6 -112 -16 -208q33 -1 72 -15q18 -7 21.5 -11.5t-0.5 -16.5q-52 24 -95 26q-40 -300 -127 -318q-40 -10 -60 29q-24 45 -8 123q19 81 71 132q46 46 109 50q11 98 16 210q2 40 2 99q-29 -55 -69 -64q-21 -4 -33 7
t-7 32q5 22 24.5 43.5t40.5 29.5q24 7 39 -13zM-31 -318q77 17 114 301q-53 -5 -96 -45q-48 -48 -65 -124q-16 -71 6 -111q14 -27 41 -21zM88 317q-3 20 -15.5 23t-25.5 -11q-12 -12 -26.5 -38t-4.5 -32q19 -11 40 11.5t32 46.5z" />
    <glyph glyph-name="h.salt" unicode="&#xe03a;" horiz-adv-x="208" 
d="M-178 597q83 -13 179 18q7 107 22 174q20 93 52 133q35 45 77.5 36.5t52.5 -64.5q6 -43 -3 -88q-14 -69 -64.5 -120.5t-120.5 -82.5q-7 -115 -1 -337v-41l1 -21q2 7 15 47q2 5 7.5 23.5t11 35t13.5 34t18 27.5t20 9q29 -2 24 -113q-1 -80 15 -81q29 -4 71 114
q13 -3 1 -36q-17 -47 -36 -72t-37 -23q-21 3 -27 24.5t-4 74.5q4 94 -10 95q-2 0 -3 -1q-5 -3 -11.5 -13.5t-12.5 -26.5t-10 -29l-9 -29t-5 -18q-22 -66 -34 -66q-4 0 -7.5 7.5t-4.5 19.5t-1.5 23l-1 22.5t-0.5 13.5q-6 207 1 330q-67 -24 -154 -19q-30 4 -24 20zM18 623
q141 64 168 187q9 35 3 78q-6 49 -41.5 53.5t-61.5 -33.5q-29 -39 -47 -123q-15 -72 -21 -162z" />
    <glyph glyph-name="i.salt" unicode="&#xe03b;" 
d="M20 352q-1 -17 -2 -41t-2 -55t0 -52t4 -20t9.5 11.5t14 27l14 32l12 29.5t6.5 16q7 -7 0 -24q-1 -3 -5.5 -14t-8.5 -19.5t-9 -21t-10 -21.5l-9.5 -17t-9 -11.5t-7.5 -2.5q-24 9 -13 200q14 -1 15 -6q1 -4 1 -11zM16 429q8 -2 8 -20q-1 -8 -3.5 -13.5t-6.5 -4.5
q-10 0 -8 19t10 19z" />
    <glyph glyph-name="j.salt" unicode="&#xe03c;" horiz-adv-x="86" 
d="M16 349q-2 -60 -4 -175t-5 -172q17 1 44.5 -3t40.5 -13q24 -13 14 -26q-52 29 -100 26q0 -1 -1.5 -13.5t-3.5 -31.5t-4.5 -40.5t-6.5 -45t-8 -40.5q-30 -131 -99 -146q-47 -10 -59 48q-17 81 39 183q51 87 127 101q3 70 5 193.5t4 168.5q2 0 6 0.5t5 0t3 -2t2.5 -4.5
t0.5 -8zM-121 -314q91 18 109 297q-67 -16 -110 -91q-55 -98 -37 -172q7 -40 38 -34zM7 434q9 0 9 -18q0 -8 -2.5 -14.5t-6.5 -5.5q-9 0 -9 19q2 19 9 19z" />
    <glyph glyph-name="k.salt" unicode="&#xe03d;" horiz-adv-x="195" 
d="M-152 575q92 -17 156 4q15 232 64 314q20 33 46 51t49 17t42 -14t25 -42.5t-2 -68.5q-36 -160 -138 -234q-32 -24 -70 -36q0 -8 -1 -24t-1 -23q-8 -169 -3 -337q10 81 34.5 128t66.5 41q9 -1 9.5 -5t-4.5 -11q-55 -85 -45 -108q26 -91 40 -89q12 1 34 43q20 41 49 119
q7 1 9 -3t-3 -18q0 -1 -9.5 -27.5t-16 -42.5t-17.5 -39t-22.5 -35.5t-22.5 -13.5q-8 -1 -16 6.5t-14.5 22t-11 25.5t-10 28t-6.5 18q-10 26 41 112q-48 -10 -68 -147q-11 -85 -12 -130l-18 -11q-10 275 -1 474q0 12 2 42q-63 -16 -135 -6q-29 4 -20 20zM21 584q32 12 59 31
q96 69 131 224q11 60 -10 87.5t-56.5 14.5t-62.5 -58q-44 -71 -61 -299z" />
    <glyph glyph-name="l.salt" unicode="&#xe03e;" horiz-adv-x="153" 
d="M19 118q-9 10 -14.5 48t-6.5 99.5t-1 106t1.5 108.5t1.5 66q-37 -9 -100 -1q-24 4 -20 23q73 -19 121 -4q7 159 30.5 268t65.5 126q24 9 46 -2t32 -35q20 -40 14.5 -97.5t-25 -112t-59.5 -100t-89 -60.5q-10 -400 19 -426q24 -22 67 50q33 55 53 125q12 -3 7 -21
q-30 -90 -69.5 -143t-73.5 -18zM17 569q45 16 81 58t52.5 92t21.5 103.5t-12 91.5q-8 19 -23.5 27.5t-33.5 1.5q-69 -28 -86 -374z" />
    <glyph glyph-name="m.salt" unicode="&#xe03f;" horiz-adv-x="278" 
d="M20 301q-2 -19 -2 -55q2 7 7 27t8.5 30.5l8.5 25t11 22.5q7 9 16 6.5t12 -10.5q8 -19 10 -48.5t0.5 -54.5t0.5 -50q10 18 39 90q22 52 29 67q14 23 27 17q13 -8 9 -113q0 -14 -2.5 -45.5t-4.5 -62t-3 -61t-0.5 -49.5t4.5 -20q7 -1 16.5 17.5t19 48.5t19 63.5t17.5 67.5
t12.5 55l6.5 30q11 0 7 -22q-1 -2 -10 -43t-17.5 -74.5t-21 -74t-26 -63t-26.5 -21.5q-7 -1 -11.5 9.5t-6 29.5t-1 41.5t2 49t3 49t3.5 44t2 31.5q4 88 0 96q-9 -14 -26 -59t-33.5 -82t-28.5 -40q-11 -3 -15 12q-2 22 -2 71q0 71 -9 87q-12 -21 -23 -65t-13 -49
q-8 -25 -14 -32q-4 -7 -12 -2q-12 27 -2 123h5q6 1 8 0.5t4 -4t2 -10.5z" />
    <glyph glyph-name="n.salt" unicode="&#xe040;" horiz-adv-x="172" 
d="M19 287q0 -5 -0.5 -16.5t-0.5 -18.5q39 108 65 113q6 1 9.5 -5t5.5 -20q2 -18 1 -53.5t-3 -81.5t-3 -87t1 -69t8 -28q10 1 34 99.5t38 178.5q9 -2 6 -22q-48 -280 -81 -276q-10 1 -15.5 15t-7.5 36.5t-2.5 41t0.5 42t1 25.5q0 35 3 99t3 82q-16 -15 -40.5 -77.5
t-25.5 -77.5q-1 -8 -10 -8q-6 0 -6.5 29t1 60t0.5 34q19 0 19 -15z" />
    <glyph glyph-name="o.salt" unicode="&#xe041;" horiz-adv-x="141" 
d="M78 356q-37 15 -55.5 -30t-12.5 -96.5t27 -51.5t41 112q-26 6 -32 23.5t15 33.5q9 7 17 7q19 -2 15 -54q8 0 27.5 0.5t28.5 -0.5q-2 -7 -5.5 -9t-14.5 -2h-37q-21 -127 -55 -126q-31 0 -41.5 51.5t7 103.5t54.5 54q14 1 18 -3.5t3 -12.5zM79 301q2 34 -3 36
q-18 -13 -15 -23t18 -13z" />
    <glyph glyph-name="p.salt" unicode="&#xe042;" horiz-adv-x="212" 
d="M17 344q0 -14 -1 -45.5t-1 -48.5q16 77 60 106q20 15 36.5 8.5t27 -21.5t13.5 -34q5 -28 -1 -58q-14 -74 -63 -104q-20 -13 -43.5 0t-29.5 35q-2 -125 -5 -184q42 2 87 -18q21 -10 13 -25q-50 28 -102 25q-18 -296 -120 -318q-24 -6 -39 8.5t-19 39t-3.5 47t4.5 39.5
q11 53 36 97q50 88 126 102q5 116 7 363h5.5h4.5t3 -0.5t2.5 -2t1 -4.5t0.5 -7zM-116 -321q92 19 108 299q-67 -17 -109 -93q-26 -44 -35 -92q-3 -13 -4 -31.5t0.5 -39.5t11.5 -33.5t28 -9.5zM24 213v-1q-2 -11 11 -32q30 -52 72 11q23 34 28 63q4 26 1 53q-3 23 -18 35
t-34 1q-23 -17 -45 -73q-18 -50 -15 -57z" />
    <glyph glyph-name="q.salt" unicode="&#xe043;" horiz-adv-x="227" 
d="M107 261l30.5 31.5t30.5 30.5q2 0 5 -3t5 -6t1 -3q-35 -34 -62 -119.5t-39 -186.5q45 1 80 -40q26 -33 39 -85q12 -49 9 -98t-21 -79.5t-49 -28.5q-60 4 -77 119q-9 57 -4 152q2 28 4 41q-39 -10 -78 -41q-2 1 -3.5 5t0.5 10t8 11q36 26 75 33q18 150 62 250
q-95 -87 -129 -46q-21 29 -9 63.5t40 49.5q32 16 54.5 -5t27.5 -55zM76 -12q-2 -14 -4 -44q-5 -87 4 -149q18 -102 61 -104q23 -1 36.5 24.5t15.5 67.5q3 44 -8 93q-14 49 -37 78q-28 34 -68 34zM92 250q-11 51 -31 59q-26 11 -46 -29t-6 -61q16 -24 83 31z" />
    <glyph glyph-name="r.salt" unicode="&#xe044;" horiz-adv-x="158" 
d="M42 373q12 1 33 6q14 4 19 -13q4 -18 -11 -103q-2 -13 -17.5 -84t-22.5 -116t-1 -49q10 -5 54.5 106.5t67.5 179.5q5 0 6.5 -3.5t0 -9.5t-4 -12.5l-6.5 -16.5q-5 -18 -18.5 -55.5l-34 -91.5t-41.5 -88t-32 -26q-8 4 -8.5 26t5 56.5t11.5 66t14 69.5t10 51q15 81 11 96
q-52 -12 -69 2q-10 13 -6.5 39t21.5 48t36 13q8 -9 -17 -91zM25 374q22 71 22 77q-15 -8 -27 -44q-11 -33 5 -33z" />
    <glyph glyph-name="s.salt" unicode="&#xe045;" horiz-adv-x="207" 
d="M52 300q22 21 18 36t-21.5 14.5t-29.5 -9.5q-9 -8 -9 -27t6 -41t17 -49t20.5 -47l19.5 -40t11 -23q64 101 126 185q11 -6 -4 -27q-19 -26 -43.5 -63.5l-45.5 -70.5l-25 -39q24 -39 22 -67q-1 -19 -14 -28q-13 -10 -27 -1q-14 8 -15.5 27.5t3.5 37t13 29.5
q-2 5 -13.5 27.5t-21.5 44t-21.5 51t-18 53t-5.5 45.5t11 34q20 19 45.5 15t33.5 -23t-8 -45q-14 -16 -24 1zM97 33q2 21 -14 49q-22 -50 -2 -65q5 -3 9 0q6 6 7 16z" />
    </font>
</defs>
</svg>
