<?xml version="1.0" standalone="no"?>
<!DOCTYPE svg PUBLIC "-//W3C//DTD SVG 1.1//EN" "http://www.w3.org/Graphics/SVG/1.1/DTD/svg11.dtd" >
<svg xmlns="http://www.w3.org/2000/svg" xmlns:xlink="http://www.w3.org/1999/xlink" version="1.1">
<metadata></metadata>
<defs>
<font id="sliceregular" horiz-adv-x="864" >
<font-face units-per-em="2048" ascent="1536" descent="-512" />
<missing-glyph horiz-adv-x="206" />
<glyph horiz-adv-x="0" />
<glyph unicode="&#xd;" horiz-adv-x="206" />
<glyph horiz-adv-x="0" />
<glyph horiz-adv-x="0" />
<glyph unicode=" "  horiz-adv-x="206" />
<glyph unicode="&#x09;" horiz-adv-x="206" />
<glyph unicode="&#xa0;" horiz-adv-x="206" />
<glyph unicode="!" horiz-adv-x="397" d="M-110.5 214.5q-6.5 21.5 10.5 51.5q4 10 12 20.5t18 20.5q16 16 31.5 20.5t34.5 4.5q16 -2 36.5 -10.5t24.5 -24.5q2 -2 4 -2q20 -4 37 -17.5t15 -35.5q0 -41 -36 -65.5t-71 -24.5q-25 0 -50.5 6t-42.5 20.5t-23.5 36zM-8 221l2 2h-2v-2zM23 379q-2 33 7 68.5t21 71.5 t23.5 72t13.5 71q6 72 22.5 143.5t39.5 146.5q41 125 79.5 250t83.5 250q12 35 44 45t67 4t63.5 -23.5t32.5 -35.5q8 -35 1 -71t-20.5 -72.5t-28.5 -74.5t-28 -75q-20 -59 -41.5 -119.5t-50.5 -120.5q-29 -72 -58.5 -146.5t-74.5 -146.5q-41 -63 -94 -119.5t-88 -119.5 q-6 -4 -9 -2t-5 4z" />
<glyph unicode="&#x22;" horiz-adv-x="309" d="M0 1421.5q-2 16.5 6 32.5q6 14 23.5 18.5t37 0t37 -13.5t23.5 -19q20 -35 14 -78t-16 -78q-4 -20 -9 -38.5t-14 -37.5q-4 -4 -6 -10t-8 -8q-4 -4 -12 -2t-13 0q-2 -2 -5 -1t-1 3q-4 -6 -9 -1t-9 14t-7 19l-3 9l-13 74q-2 23 -2 43t-6 41q-6 16 -8 32.5zM166 1421.5 q-2 16.5 6 32.5q6 14 23.5 18.5t37 0t37 -13.5t23.5 -19q23 -35 15.5 -78t-15.5 -78q-8 -37 -25 -76q-4 -4 -6 -10t-8 -8q-4 -4 -12.5 -2t-12.5 0q0 -2 -3 -1t-3 3q-4 -6 -8 -1t-9 14t-8 19l-3 9q-4 18 -6.5 37t-4.5 37q-4 23 -4 43t-6 41q-6 16 -8 32.5z" />
<glyph unicode="#" horiz-adv-x="1193" d="M2 389q-4 4 2 10q47 35 96.5 66t102.5 57q23 63 43 127t49 125q2 2 6 10q-53 -2 -104.5 10.5t-73.5 53.5q-14 27 -11 50.5t17 38.5t37.5 21.5t50.5 -0.5q4 -2 9 -5t-1 -7q-10 -8 -23.5 -16t-17.5 -25q-2 -10 0 -27.5t13 -15.5q23 4 44 12.5t44 18.5t42 18.5t40 18.5 q37 82 64.5 167t33.5 173q0 4 5 3t7 -5q27 -70 33 -139.5t2 -141.5q72 29 144.5 59.5t146.5 57.5q4 10 7 18t7 19q6 18 15.5 38.5t21.5 41t27.5 37t33.5 22.5q4 2 12.5 0t10.5 -8q4 -18 -3 -36.5t-11 -37.5q-4 -16 -6.5 -31.5t-6.5 -31.5q55 16 113 18q41 4 88 -13.5 t72 -52.5q16 -27 1.5 -46t-40.5 -23q-53 -10 -103.5 -21.5t-99.5 -31.5l-43 -19v-59.5t-2 -59.5v-65q23 6 47.5 9t48.5 7q20 2 44 -2t46.5 -13t41 -22.5t30.5 -29.5q23 -35 -1 -51.5t-52 -20.5q-4 0 -8 -2q-4 0 -8.5 -1t-8.5 -1q-10 -4 -21.5 -5t-21.5 -5 q-31 -8 -61.5 -16.5t-61.5 -18.5q-6 -2 -13 -4t-13 -4q-14 -84 -29.5 -165t-28.5 -165q-2 -23 -27.5 -29t-41.5 -6q-35 -2 -62.5 6t-56.5 25q-16 10 -32.5 26.5t-12.5 38.5q8 49 19.5 96.5t23.5 94.5q-12 -4 -23.5 -7t-23.5 -8q-76 -27 -158 -45q-10 -59 -28.5 -113.5 t-49.5 -105.5q0 -6 -10 -16q-18 -14 -49 -18.5t-47 -2.5q-10 2 -38 10.5t-54.5 21.5t-43 30.5t-3.5 38.5q12 25 23 49t22 49q-27 -4 -52.5 -7t-54.5 -7q-2 0 -12 2t-19.5 6t-13.5 8zM457 627q59 18 115.5 37.5t115.5 37.5q10 45 20.5 89.5t22.5 89.5q-59 -20 -120.5 -39 t-123.5 -33q-4 -25 -9 -50.5t-9 -51.5z" />
<glyph unicode="$" horiz-adv-x="917" d="M4 59q-8 41 7.5 84t42 85t61.5 81t65 74q10 12 21.5 24.5t19.5 22.5q10 10 23 10q18 0 30 -14q8 -8 5 -25q-10 -43 -35 -81.5t-49 -73.5q-23 -29 -40.5 -57.5t-29.5 -59.5q-23 -57 -10 -74q6 -10 28 -6q74 6 125 60q55 59 91 149t40 191q4 84 -20.5 166.5t-54.5 164.5 q-14 37 -27.5 75t-24.5 75q-104 358 31 520q72 90 186 131q2 39 6.5 77t14.5 71q10 29 17.5 46t19.5 40q6 12 20.5 4.5t12.5 -27.5q-4 -47 8 -89t12 -91v-8q10 0 19.5 1t19.5 1q12 0 24.5 -1t24.5 -1q59 -8 106 -36t78 -75q35 -51 43.5 -117.5t-12.5 -132.5 q-16 -57 -44 -110.5t-56 -104.5l-27 -47l-33 -66q-23 -49 -48 -96t-70 -82q-10 -6 -23 -6h-8l-6 -115q16 -57 24.5 -114.5t5.5 -116.5q-2 -47 -13 -95t-30 -95l-6 -293q0 -27 -17 -33t-37.5 3t-36 31.5t-15.5 55.5v30.5t2 28.5q-49 -51 -106.5 -78.5t-116.5 -27.5 q-61 0 -133 33q-88 43 -105 114zM434 1169.5q2 -53.5 13.5 -107.5t27.5 -106q0 10 1 18.5t1 18.5q2 96 1 190.5t3 188.5q-29 -47 -39 -98t-8 -104.5zM600 1057q16 59 29.5 117.5t27.5 119.5l9 37l4 15q2 10 6 29.5t7 39t3 37.5t-6 27q-4 4 -10 4h-8q-16 -4 -30 -7t-26 -8 q2 -47 0 -92q-6 -160 -6 -319z" />
<glyph unicode="%" horiz-adv-x="1243" d="M6 1007q-12 42 0 87q10 41 25.5 89t44.5 79q6 8 24.5 3t20.5 -16q4 -29 -2 -61.5t-11.5 -65t-1 -64.5t26.5 -59l4 -4q4 4 6 9q29 29 47 67q20 43 31.5 93t3.5 98q-4 16 -7 29.5t-7 23.5q-16 6 -23 6q-8 4 -22 12t-27.5 18.5t-20.5 24t-1 27.5q14 33 49 42t76 4 t79.5 -19.5t61.5 -28.5q37 -23 65.5 -55.5t36.5 -77.5q8 -37 7.5 -79t-11 -83t-28.5 -78.5t-45 -64.5q-35 -37 -79 -56.5t-91.5 -22.5t-95.5 9t-87 43q-37 29 -49 71zM242 1307q14 -4 19 -6t-7 2zM283 98q0 4 8 4t14 -4q-2 98 21.5 188.5t56.5 182.5q31 92 62.5 179 t60.5 179q23 68 43 136.5t45 136.5q16 45 31.5 89t31.5 89t32 93t46 85q14 16 46 18.5t65 -5t58.5 -25t25.5 -39.5q2 -53 -19.5 -105.5t-44.5 -101.5q-16 -43 -34.5 -86t-36.5 -86q-29 -66 -62 -130.5t-61 -129.5q-41 -92 -76 -186.5t-71 -188.5t-76.5 -186t-92.5 -178 q-2 -4 -6 -4h-8q-37 2 -48 22.5t-11 52.5zM703 405.5q6 51.5 28.5 95.5t59 73.5t88.5 31.5q45 10 96 5t86 -15q53 -18 100.5 -52t67.5 -89q14 -41 12 -85t-18.5 -85t-45 -76t-65.5 -55q-53 -31 -116.5 -34t-123 18.5t-105.5 65.5t-60 105q-10 45 -4 96.5zM848.5 413.5 q1.5 -53.5 17.5 -100.5q10 -41 35 -71q6 -6 12.5 -8.5t1.5 -4.5q33 4 60 33q35 35 56.5 87t8.5 106q-4 27 -16 41l-8 8q-33 6 -70 6t-72 4h-4q-23 -47 -21.5 -100.5z" />
<glyph unicode="&#x26;" horiz-adv-x="1128" d="M-74 486q-4 89 22.5 177.5t82.5 165.5q35 51 80 95.5t98 76.5q23 12 44 22.5t44 18.5q-35 35 -43 82q-6 47 0 93.5t29 87.5q47 80 111.5 147.5t156.5 89.5q33 8 70.5 9t72.5 -8t64.5 -30.5t46.5 -56.5q14 -29 14 -61.5t-10 -64.5t-28.5 -59.5t-43.5 -45.5q-4 -4 -14 -1 t-6 7q23 47 28 100t-18 101q-4 8 -8 17t-10 17q-23 -12 -38.5 -29.5t-31.5 -33.5q-45 -45 -83 -95.5t-67 -107.5q-12 -27 -23 -54.5t-13 -55.5q27 6 62.5 13t70.5 7t62.5 -11.5t33.5 -41.5q2 -4 -3 -3t-7 3q-31 16 -65 5t-65.5 -34.5t-60 -51.5t-49.5 -46 q-66 -53 -125 -112.5t-94 -137.5q-29 -59 -42 -121.5t-24 -128.5q-10 -59 -3.5 -120.5t40.5 -114.5q47 -72 125 -98.5t163 -18.5t164 46t130 95q39 45 67.5 101.5t41 117t6 120.5t-36.5 114q-23 0 -43.5 -1t-40.5 -1q-39 0 -77 -1t-73 -24q-51 -35 -55 -83t45 -87q2 -4 0 -6 q-25 -6 -53.5 -1t-53 19.5t-43 35t-20.5 48.5q-6 59 21.5 111.5t78.5 81.5q43 25 90.5 33t94.5 12t95 13t91 34q14 8 35.5 22.5t41 32t36 35t22.5 35.5q10 33 -8 48t-37 36q-16 16 1.5 21.5t29.5 0.5q33 -8 70.5 -21t69.5 -32.5t52.5 -49.5t18.5 -71q-4 -47 -27.5 -83.5 t-60.5 -64.5t-81 -46.5t-87 -28.5q-12 -4 -25.5 -5t-27.5 -5q82 -96 59 -240q-12 -86 -54 -166.5t-114 -134.5q-78 -59 -178 -92t-203.5 -34t-202 33t-168.5 110q-66 72 -99.5 156.5t-37.5 173.5z" />
<glyph unicode="'" horiz-adv-x="141" d="M0 1421.5q-2 16.5 6 32.5q6 14 23.5 18.5t37 0t37 -13.5t23.5 -19q20 -35 14 -78t-16 -78q-4 -20 -9 -38.5t-14 -37.5q-4 -4 -6 -10t-8 -8q-4 -4 -12 -2t-13 0q-2 -2 -5 -1t-1 3q-4 -6 -9 -1t-9 14t-7 19l-3 9l-13 74q-2 23 -2 43t-6 41q-6 16 -8 32.5z" />
<glyph unicode="(" horiz-adv-x="653" d="M2 548q-4 120 18 236q27 145 84.5 278.5t143.5 252.5q68 98 159 158.5t214 54.5q2 0 8 -2t12 -5t9 -6.5t-1 -7.5q-27 -27 -36 -66.5t-27 -70.5q-25 -39 -55.5 -74.5t-57.5 -74.5q-72 -111 -126 -233t-79 -253q-18 -104 -19 -208.5t25 -209.5q23 -88 53.5 -177t86.5 -160 q6 -10 1 -14.5t-15.5 -5.5t-20.5 0t-14 3q-113 49 -203 138t-125 212q-31 115 -35 235z" />
<glyph unicode=")" horiz-adv-x="632" d="M1 3q1 7 9 13q37 27 77 46.5t71 52.5q35 35 61.5 73.5t46.5 83.5q45 104 75 215t38 222q8 106 0 219.5t-37 223.5t-78 211t-123 183q-4 4 -1 6t9.5 2t12.5 -1t8 -1q115 -61 211 -148t156 -206q68 -135 86 -294t-2 -306q-16 -123 -53.5 -248t-102.5 -231q-29 -49 -68 -90 t-90 -70q-29 -16 -60.5 -25.5t-66.5 -11.5q-31 -2 -63 0q-8 2 -16.5 3t-16.5 5q-16 4 -31.5 11.5t-29.5 19.5q-4 4 -10.5 11.5t-9.5 15.5t-2 15z" />
<glyph unicode="*" horiz-adv-x="364" d="M0 1155q16 53 54 95t75 81q4 4 9 9.5t9 11.5v6q-23 31 -45 60.5t-45 60.5q-4 4 4.5 5t10.5 -1q20 -12 38.5 -24.5t34.5 -26.5q0 16 2.5 31.5t10.5 31.5q0 4 1 5t1 5q0 6 8 22.5t18 8.5q4 -2 5.5 -5t3.5 -3q14 -4 16 -15.5t2 -21.5q0 -16 1 -33.5t1 -34.5l31 35 q10 10 17 20.5t22 14.5q14 6 38.5 1t28.5 -24q4 -16 -6 -25t-20 -20q-23 -23 -50 -43l-20 -20t-20 -21q29 -35 60.5 -67.5t68.5 -61.5q12 -10 9 -19t-16 -13q-18 -4 -34.5 1t-28.5 15q-43 31 -80 74q2 -35 2 -72t-10 -68q-4 -8 -10.5 -12t-10.5 6q-8 39 -22 73t-17 75 q-37 -29 -71.5 -56.5t-63.5 -62.5q-4 -4 -9 -3t-3 5z" />
<glyph unicode="+" horiz-adv-x="995" d="M2 834v2q4 10 14.5 13t20.5 5h2h8q154 27 318 37q4 55 10 109.5t14 109.5q8 57 18.5 117.5t28.5 113.5q4 10 20.5 6t20.5 -12q61 -100 86 -212.5t31 -229.5q131 -6 258 -25q18 -2 39.5 -8t43 -15t37 -24.5t21.5 -36.5q4 -20 -7 -31.5t-29.5 -15.5t-38 -5t-31.5 1 q-72 10 -144.5 13.5t-144.5 5.5q2 -109 4 -214.5t19 -205.5q6 -37 -30 -48.5t-82 -4t-87 30t-47 52.5q-16 98 -20.5 196.5t-0.5 197.5q-72 4 -143.5 9t-142.5 19q-6 2 -18.5 5.5t-25 9.5t-19.5 14t-3 21z" />
<glyph unicode="," horiz-adv-x="245" d="M1 52q-5 7 11 9q37 2 69 37t48 78q-29 4 -55.5 24.5t-38.5 45.5q-14 31 -12 53.5t17 36.5t39.5 19t55.5 -3q78 -20 100.5 -74.5t-14.5 -123.5q-14 -27 -35.5 -50.5t-48 -40t-57.5 -23.5t-64 1q-10 4 -15 11zM131 281q6 0 8 -2q-2 4 -3 5t-3 5q0 -4 -2 -8z" />
<glyph unicode="-" d="M3.5 783.5q-9.5 15.5 12.5 19.5q80 14 153 45t157 35q59 4 116.5 3t116.5 -3h110.5t104.5 -23q4 0 10.5 -1t10.5 -1q6 -2 20 -6t27.5 -12.5t19.5 -17.5t-4 -21q-4 -4 -9 -9.5t-7 -9.5q-6 -23 -31 -30t-45 -7q-106 -4 -211.5 0.5t-212.5 -2.5q-74 -4 -159 -5t-156 26 q-14 4 -23.5 19.5z" />
<glyph unicode="." horiz-adv-x="227" d="M2 291q4 23 12 41q10 18 24.5 22t35.5 2q16 0 40.5 -9t35.5 -25h2q23 -4 43 -18.5t28 -37.5q12 -39 -14.5 -63.5t-63.5 -24.5q-25 0 -52 5t-48.5 19.5t-35 36t-7.5 52.5zM106 246q0 2 1.5 2t1.5 2h-3v-4z" />
<glyph unicode="/" horiz-adv-x="724" d="M2 109q0 8 8 7t13 -5v2q2 16 2 25t4 26q4 29 7 58.5t11 56.5q20 59 43 115.5t45 115.5q29 78 61.5 152.5t61.5 152.5q37 94 72 187.5t71 187.5q20 47 39 96t39 96q16 35 30.5 80t43.5 70q16 12 44 14t54.5 -4t47 -20.5t24.5 -36.5q4 -18 -2 -41t-15.5 -46.5t-20.5 -45 t-19 -39.5l-80 -172q-41 -90 -87 -176t-87 -174q-35 -74 -64 -150t-63 -149q-27 -55 -53.5 -111.5t-53.5 -114.5q-27 -53 -60.5 -104t-56.5 -107q-4 -6 -12 -6q-29 2 -39 17.5t-8 42.5z" />
<glyph unicode="0" horiz-adv-x="729" d="M-39 725q2 37 6 74q8 68 35 136.5t68 130.5t94.5 112.5t114.5 81.5q72 35 159.5 46t163.5 -30q86 -43 128 -128t50 -177q10 -123 -23.5 -241t-88.5 -224q-31 -59 -70 -115.5t-87 -98.5t-108.5 -63.5t-136.5 -11.5q-61 8 -115.5 31.5t-93.5 62.5t-57 92.5t-8 118.5 q8 63 29.5 120.5t48.5 115.5q14 29 26.5 57.5t28.5 56.5q18 33 47 54.5t51 50.5q8 8 27.5 14t39 5t36 -8t18.5 -21q4 -33 14.5 -56.5t-0.5 -58.5q-8 -25 -19 -48.5t-24 -47.5q-20 -45 -41.5 -91.5t-31.5 -95.5q-10 -41 -10.5 -91t26.5 -87q20 -33 47 -45q14 12 27 27 q66 76 113 175t71 195q23 90 23 190.5t-47 182.5q-10 20 -30 44t-30 30h-2h-2h-6q4 0 -12.5 -6t-20.5 -10q-25 -10 -49 -29q-49 -37 -92 -80q-39 -41 -83 -88t-81 -99.5t-62.5 -108.5t-29.5 -116q0 -6 -9.5 -6t-11.5 4q-12 37 -10 74z" />
<glyph unicode="1" horiz-adv-x="481" d="M-115 724q-4 7 2 15q10 14 16.5 29.5t18.5 26.5q16 14 33.5 26.5t34.5 24.5q41 29 78.5 56.5t72.5 64.5q70 70 120 147.5t91 167.5q12 25 49 30t76 -5.5t65.5 -33t18.5 -48.5q-14 -53 -41.5 -105.5t-64.5 -103.5q0 -8 -2 -12q-12 -70 -31 -137.5t-33 -137.5 q-14 -72 -24.5 -143.5t-12.5 -143.5q-2 -29 -1 -57.5t5 -56.5q4 -20 9.5 -41t11.5 -31l-12 6q10 -10 16 -23.5t-8 -27.5q-18 -18 -50 -17t-55 7q-41 12 -66.5 34.5t-38.5 53t-18.5 67.5t-5.5 74q0 80 8.5 160t22.5 160q2 4 2 6t2 6q-41 -23 -80 -37q-25 -10 -51.5 -20.5 t-54.5 -10.5q-10 0 -21.5 1t-21.5 1q-2 0 -5.5 1t-7.5 1q-6 0 -15 3.5t-18.5 9.5t-13.5 13z" />
<glyph unicode="2" horiz-adv-x="696" d="M-144.5 292.5q-15.5 26.5 19.5 51.5q68 45 145 72q20 45 48 71q78 86 158.5 169t156.5 173q25 29 56.5 64t56 74t34 81t-9.5 85q-2 0 -2 2h-6q-33 -4 -63.5 -15.5t-59.5 -27.5q-66 -43 -122 -95.5t-122 -93.5q-10 -16 -32.5 -20t-47 -2t-48 8t-31.5 10q-14 6 -33 18.5 t-30 28t-10 31.5t24 29q49 27 91 62.5t85 71.5t89 65.5t101 43.5q96 27 202.5 16.5t186.5 -75.5q59 -49 69.5 -105.5t-8 -114t-56.5 -110.5t-74 -96q-92 -111 -195 -213q-23 -20 -44.5 -41t-43.5 -43h20.5t20.5 -2q113 -10 202 -59.5t160 -135.5q4 -8 -2 -10 q-31 -10 -68.5 -2t-68.5 16q-25 6 -49.5 14.5t-46.5 18.5q-14 6 -29.5 14.5t-29.5 10.5q-47 6 -98.5 1t-102.5 -19.5t-99.5 -36t-85.5 -48.5q-25 -16 -69.5 -9t-83.5 26.5t-54.5 46z" />
<glyph unicode="3" horiz-adv-x="663" d="M-117 440q0 27 14.5 45.5t26.5 40.5q6 12 21.5 14.5t31 -0.5t29.5 -10.5t21 -17.5q14 -23 30.5 -43t26.5 -45q6 -16 8 -33.5t6 -34.5q2 -8 5 -18t8 -19q4 0 7 -1t9 -1q51 2 100 18.5t95.5 43.5t85 61.5t69.5 75.5q14 20 30.5 50t28 61.5t10.5 63.5t-20 57q0 2 -2 2h-2 q-20 4 -39.5 -0.5t-40.5 -10.5q-35 -29 -72.5 -52t-78.5 -40q-18 -6 -43 -11t-50.5 -5t-48 7t-36.5 24q-12 14 -2 18t22 4l2 2q2 0 6 4q14 8 19 17q12 16 27.5 30.5t29.5 28.5q35 39 71 78t68 80q20 27 42 56.5t39.5 60t26.5 64.5t7 69q-29 -16 -53.5 -35t-48.5 -39 q-57 -47 -116.5 -103.5t-129.5 -87.5q-35 -14 -75 -6t-71 27q-10 6 -21 16t-15 21.5t-1 22.5t19 20q33 16 63.5 42.5t65.5 55.5q43 37 86 71.5t90 67.5q41 29 89 52.5t100 21.5q63 -2 124.5 -28.5t86.5 -92.5q18 -49 14 -95t-20.5 -90t-45 -85t-59.5 -78q43 -10 81 -29.5 t66 -48.5q35 -37 44.5 -83t0 -93t-32 -91t-50.5 -79q-100 -119 -243.5 -182.5t-299.5 -38.5q-66 10 -126.5 43t-88.5 96q-20 41 -21 94zM137 684h2h-2zM530 750q10 -2 7 -2t-7 2z" />
<glyph unicode="4" horiz-adv-x="579" d="M-174.5 567.5q-20.5 22.5 2.5 53.5q37 53 76 107t74.5 109.5t65.5 115t48 122.5q10 35 18.5 73t12.5 75q2 16 3 32.5t1 32.5q-2 8 -2 15.5t-2 15.5q-16 20 -8 40.5t39 26.5q41 8 84 -4t73 -39q33 -29 37 -67.5t0 -79.5q-6 -88 -31 -174q-23 -80 -62.5 -152.5 t-86.5 -142.5q23 4 42 5t42 3q20 2 43.5 3t46.5 -1q8 29 18.5 56.5t20.5 54.5q16 39 39.5 79t66.5 50q25 6 44.5 -4t34 -29.5t22.5 -43t8 -42.5q2 -53 -12.5 -101t-26.5 -100q-14 -53 -19.5 -107t-9.5 -108q-4 -33 -4 -64.5t4 -66.5q4 -27 13.5 -52.5t11.5 -51.5 q6 -23 -21 -37q-18 -8 -40.5 -9t-45 3t-43 14t-34.5 25q-47 47 -57.5 108.5t-10.5 124.5l4 86t8 86q-76 -14 -148.5 -35.5t-144.5 -50.5q-18 -6 -59 -4t-78 14.5t-57.5 35z" />
<glyph unicode="5" horiz-adv-x="704" d="M-80 387q2 31 19.5 51.5t37.5 42.5q10 12 30 14.5t41.5 -3t38.5 -15.5t24 -22q12 -23 28.5 -48.5t18.5 -52.5q2 -10 2 -22.5t2 -22.5l12 4t10 4q49 20 98.5 52t92.5 72t75.5 88.5t49.5 101.5q10 35 13 76t-19 71q-12 18 -34 18.5t-54 -5.5q-49 -10 -97.5 -28t-95.5 -38 q-18 -18 -37 -31q-35 -23 -78 -42t-84 -17q-16 2 -22 8t-6 12h-4q-2 18 9 23.5t17 21.5t11.5 34t9.5 34q12 41 24.5 84t22.5 84q23 80 32 165t-2 169q-4 33 21 43t58.5 7t67.5 -13.5t46 -16.5q45 -25 105.5 -18.5t107.5 33.5q18 10 39.5 11t45.5 -3t45.5 -12.5t37.5 -18.5 q6 -4 17.5 -14.5t19.5 -21.5t9 -23.5t-11 -22.5q-72 -57 -169 -65.5t-196 12.5q2 -55 -4 -112.5t-22 -110.5q47 6 95 2t95 -17q35 -10 69.5 -24.5t65.5 -36t54.5 -50t35.5 -65.5q18 -53 10 -111.5t-34 -107.5q-37 -68 -92.5 -131.5t-123 -112.5t-145 -78.5t-159.5 -27.5 q-35 0 -72 5t-72 19.5t-63.5 36t-44.5 56.5q-27 51 -23 106z" />
<glyph unicode="6" horiz-adv-x="761" d="M-61.5 473q-8.5 92 18.5 180q29 100 80 191.5t113 175.5q27 35 54 70.5t62 64.5q23 20 47.5 37.5t48.5 34.5q29 23 61 35t62 28q12 8 39 7t52.5 -8t43 -22.5t11.5 -35.5q-6 -25 -12.5 -54.5t-28.5 -46.5q-20 -14 -41 -27t-39 -30q-27 -23 -50.5 -48.5t-45.5 -51.5 q-43 -53 -81 -109.5t-69 -118.5q51 47 111.5 75t138.5 34q45 2 99.5 -4t106.5 -24.5t95 -49.5t66 -76q31 -63 24.5 -124.5t-38 -118t-83 -105.5t-112 -87t-123 -62.5t-115.5 -32.5q-117 -16 -232.5 13.5t-193.5 123.5q-61 74 -69.5 166zM181 438.5q3 -30.5 14 -59.5 q4 -16 13 -32.5t21 -29.5q4 -2 13.5 -7t9.5 -9q6 0 11 -1t7 -1q16 4 34 7t34 7q72 27 142.5 72.5t117.5 108.5q23 33 46.5 76.5t17.5 86.5q-6 47 -31 66q-2 0 -10.5 4t4.5 0q-6 2 -8.5 3t-4.5 1q-4 0 -14 2q-33 4 -63 -2q-47 -6 -90.5 -20.5t-84.5 -40.5q-102 -66 -178 -172 q-4 -29 -1 -59.5z" />
<glyph unicode="7" horiz-adv-x="636" d="M-157 1119q5 11 16.5 17.5t27 8.5t27.5 2q86 -2 167 3t159 44q70 33 141.5 66.5t148.5 39.5q4 4 8.5 9.5t8.5 9.5q18 20 59 15t77 -23.5t55.5 -45t-3.5 -51.5q-96 -104 -162.5 -227t-117.5 -254q10 4 20 5t21 5q20 8 51 -4t39 -32q8 -16 16 -34t-10 -34 q-12 -10 -25.5 -18.5t-27.5 -12.5q-63 -23 -140 -26q-16 -51 -34.5 -101.5t-34.5 -101.5q-23 -68 -43.5 -135.5t-48.5 -132.5q-4 -10 -22.5 -3t-20.5 17q-16 117 -12.5 237.5t26.5 239.5q-33 8 -62.5 20.5t-56.5 32.5q-10 8 -16 21.5t12 19.5q16 6 32.5 2t28.5 -12 q-10 6 0.5 3t14.5 -5q10 0 21.5 -1t21.5 -1h20q8 45 25 92q23 72 50.5 143.5t61.5 139.5q-2 0 -3 -1t-5 -1q-61 -23 -126.5 -31t-131.5 -8q-37 -2 -58.5 -1t-55.5 1q-35 0 -76 21.5t-58 52.5q-10 18 -5 29z" />
<glyph unicode="8" horiz-adv-x="679" d="M-78 360q-6 45 5.5 84t34 73t52 62.5t62.5 55.5q43 35 86 69.5t88 69.5q-27 29 -54.5 60.5t-49 65.5t-36 70t-14.5 72q-2 59 24.5 107.5t69.5 85.5t96.5 61.5t104.5 34.5q35 8 76 9t81 -8t74.5 -28.5t57.5 -52.5q25 -35 25.5 -75.5t-15.5 -81.5q31 -16 41 -35 q14 -31 17.5 -61.5t-13.5 -61.5q-16 -29 -41.5 -52.5t-52.5 -41.5q-41 -29 -81 -56.5t-79 -56.5q27 -31 59.5 -66.5t58.5 -75.5t39 -83t3 -88q-10 -49 -45 -84t-76 -62q-66 -43 -151.5 -70.5t-165.5 -27.5q-41 0 -88 12.5t-88 35t-70 58t-35 82.5zM102.5 364.5 q-4.5 -30.5 8.5 -59.5q10 -23 30 -37l2 -2h2h21q37 2 90 17.5t102.5 42t81 65.5t25.5 88q-6 47 -32.5 89t-61.5 81q-66 -49 -136.5 -103t-111.5 -124q-16 -27 -20.5 -57.5zM296 1051.5q-11 -35.5 1 -76.5q10 -29 25.5 -56.5t35.5 -54.5q61 63 113 142q12 20 26.5 47.5 t22.5 56.5t10 58.5t-10 54.5q0 2 -2 4q-12 -4 -27.5 -8.5t-29.5 -10.5q-35 -16 -70 -38.5t-59.5 -52.5t-35.5 -65.5z" />
<glyph unicode="9" horiz-adv-x="563" d="M-57 354q0 86 45 164t127 113q8 4 23.5 3t30.5 -5t25.5 -13.5t10.5 -23.5q-2 -29 -14.5 -60.5t-18.5 -60.5q-8 -33 -21.5 -62.5t-17.5 -64.5q-4 -29 6 -57q4 -8 6 -11q2 -2 5 -2h2q6 0 10 2q14 2 31 13q33 20 57 47q66 78 92.5 179t38.5 200v2q-84 -25 -171 -5.5 t-151 85.5q-39 41 -65.5 97t-16.5 114q8 49 38 85.5t69 65.5q43 31 90 56.5t90 58.5q18 16 32.5 31.5t31.5 31.5q16 18 39.5 23.5t44.5 17.5q6 4 18 1t19 -7q18 -18 32.5 -34.5t24.5 -41.5q4 -8 1 -18t-9 -19.5t-14.5 -17.5t-14.5 -14q-33 -31 -71 -55.5t-76 -47.5 q-35 -20 -70 -45.5t-57.5 -56.5t-28.5 -69t18 -83q20 -39 45 -59h2q2 -2 5 -2q10 0 30 10q35 12 62 39q78 68 121 162q23 55 42 119.5t15 124.5q-2 6 7 4t11 -6q14 -41 31.5 -82t26.5 -82q4 -35 5 -69t-3 -68q-4 -29 -13 -56q2 -18 2 -36.5t2 -37.5q4 -72 -3 -142.5 t-21 -139.5q-10 -53 -28.5 -110.5t-47.5 -107.5t-69.5 -90t-98.5 -59q-45 -16 -107.5 -14t-119.5 23.5t-97 61.5t-40 101z" />
<glyph unicode=":" horiz-adv-x="227" d="M2 291q4 23 12 41q10 18 24.5 22t35.5 2q16 0 40.5 -9t35.5 -25h2q23 -4 43 -18.5t28 -37.5q12 -39 -14.5 -63.5t-63.5 -24.5q-25 0 -52 5t-48.5 19.5t-35 36t-7.5 52.5zM2 1008q-4 18 0 38.5t21 30.5q23 16 49 21.5t51 1.5q18 -4 38.5 -12.5t37 -21.5t23.5 -31.5 t1 -41.5q-14 -41 -65 -41q-2 -2 -3 -4t-5 -4q-12 -18 -38 -21t-46 3q-29 8 -44.5 30.5t-19.5 51.5zM106 246q0 2 1.5 2t1.5 2h-3v-4zM113 1024q0 2 2 2v2q-2 0 -2 -2v-2z" />
<glyph unicode=";" horiz-adv-x="251" d="M2 1008q-2 18 2 38.5t21 30.5q23 16 48 21.5t52 1.5q18 -4 38.5 -12.5t37 -21.5t23.5 -31.5t1 -41.5q-14 -41 -65 -41q-2 -2 -3 -4t-5 -4h-2q-10 -18 -36 -21t-46 3q-29 8 -45.5 30.5t-20.5 51.5zM7.5 52q-5.5 7 10.5 9q37 2 69 37t48 78q-29 4 -55.5 24.5t-38.5 45.5 q-14 31 -12 53.5t17 36.5t40 19t55 -3q78 -20 100.5 -74t-14.5 -124q-14 -27 -35.5 -50.5t-48 -40t-57.5 -23.5t-63 1q-10 4 -15.5 11zM113 1026q2 0 2 -2v2v2zM137 281q6 0 8 -2q-2 4 -3 5t-3 5q0 -2 -1 -3t-1 -5z" />
<glyph unicode="&#x3c;" horiz-adv-x="970" d="M3 720.5q-9 18.5 11 35.5q111 88 212.5 185t209.5 189q59 49 120.5 98.5t131.5 84.5q61 33 121 41q16 4 34.5 6t35.5 0q4 -2 16.5 -4t22.5 -4q16 -4 35.5 -17.5t15.5 -31.5q-4 -16 -20.5 -33t-36 -32t-40 -28.5t-32.5 -23.5q-57 -43 -109.5 -88t-105.5 -92 q-80 -72 -158 -147t-162 -144q82 -35 158 -81t147 -93q8 -6 38 -31t68 -58.5t76.5 -72.5t67.5 -74t40 -61.5t-7 -34.5q-18 -10 -41 -1t-44.5 26.5t-40.5 35t-34 27.5q-57 39 -114.5 74t-116.5 71q-59 35 -117.5 72t-120.5 70q-23 10 -45 22t-51 23q-2 0 -7 2t-11.5 4 t-10.5 4t-2 2q-6 2 -13 3t-13 3q-10 2 -34 13.5t-44.5 26.5t-29.5 33.5z" />
<glyph unicode="=" d="M3.5 945.5q-9.5 15.5 12.5 19.5q39 6 77 18t76 25.5t77 23.5t80 12q59 4 116.5 3.5t116.5 -3.5q55 -2 110.5 -1t104.5 -21q4 0 10.5 -1t10.5 -1q6 -2 20 -6t27.5 -12.5t19.5 -17.5t-4 -21q-4 -6 -9 -10.5t-7 -10.5q-6 -23 -31 -29t-45 -8q-106 -4 -211.5 1t-212.5 -1 q-74 -4 -158.5 -6t-156.5 25q-14 6 -23.5 21.5zM58.5 644q-9.5 7 4.5 11q86 18 180.5 51t191.5 55.5t191.5 21.5t180.5 -48q12 -6 24.5 -18t17.5 -26.5t0.5 -28t-22.5 -21.5q-29 -14 -64.5 -11t-66.5 13h-8q-2 0 -2 2h-34.5t-35.5 -2q-53 -2 -106 -5t-107 -5q-53 -2 -104 -3 t-104 -1q-29 0 -61 -2t-60 8q-6 2 -15.5 9z" />
<glyph unicode="&#x3e;" horiz-adv-x="966" d="M6 1319q-12 20 8 33q27 14 63 11t72.5 -16.5t70.5 -31t54 -29.5q66 -41 126.5 -87t119.5 -95q109 -92 210 -189.5t212 -185.5q33 -27 22.5 -52.5t-44.5 -35.5q-57 -12 -113.5 -39t-113 -59.5t-111 -67.5t-107.5 -63q-63 -35 -125.5 -70t-122.5 -74q-14 -10 -32.5 -24.5 t-38 -25.5t-40 -14t-38.5 13q-16 14 -12 34.5t16 43t27.5 42t25.5 32.5q45 51 90 96t99 86q76 59 166 110.5t186 86.5q-80 70 -157 142.5t-157 141.5q-53 47 -106 93t-109 87q-18 12 -43.5 32t-35.5 26q-16 10 -32 19t-30 30z" />
<glyph unicode="?" horiz-adv-x="749" d="M2 1339q14 86 75.5 132.5t143.5 56.5q84 12 176 -4.5t169 -60.5t128 -114.5t54 -166.5q2 -68 -24 -127.5t-66 -111.5t-87 -99l-90 -90q-41 -41 -84 -77t-88 -73q-18 -16 -20 -33.5t4 -35t18.5 -35t24.5 -29.5q6 -6 2 -9t-11.5 -4t-15.5 0t-10 1q-45 16 -84 44.5t-57 74.5 q-10 29 -13.5 72.5t11.5 72.5q23 47 55.5 86t68 75t72.5 71.5t68 76.5q27 37 48.5 85t27.5 97.5t-7.5 95.5t-56.5 76q-10 8 -27.5 14.5t-39.5 10.5q-29 4 -57.5 3t-57.5 -11t-54.5 -27.5t-41.5 -44.5q-12 -23 -16.5 -48.5t1.5 -49t24.5 -38.5t49.5 -15q4 0 11 -3t1 -8 q-37 -14 -80 -4.5t-77.5 34t-54 61t-13.5 79.5zM193 266q2 18 12 41q10 16 24.5 20.5t32.5 4.5q18 -2 43 -10.5t35 -24.5q0 -2 2 -2q23 -4 43.5 -17.5t28.5 -35.5q10 -41 -16.5 -65.5t-61.5 -24.5q-25 0 -52.5 6t-49 20.5t-35 36t-6.5 51.5zM297 221l2 2h-2v-2z" />
<glyph unicode="@" horiz-adv-x="1558" d="M2 506q-2 131 34 253t100.5 229.5t154.5 199.5t194 164q109 74 239 119t261 45t251 -53.5t208 -174.5q61 -86 89 -195.5t23.5 -222t-42 -219t-107.5 -186.5q-68 -78 -159 -118t-191 -15q-16 -4 -30.5 -7t-31.5 -1q-39 4 -87 29.5t-66 66.5q-25 -31 -54.5 -53.5 t-72.5 -28.5q-20 -4 -51 -2t-61 11t-52.5 26.5t-28.5 44.5q-12 55 9.5 116.5t43.5 112.5q49 109 132 187q43 39 96 77.5t111.5 63t120 29t118.5 -28.5q10 -6 23.5 -19.5t9.5 -29.5q-10 -31 -17.5 -48.5t-33.5 -39.5q-4 -4 -17.5 -2t-11.5 12q2 8 2 14t2 15 q-37 -16 -71.5 -40t-67.5 -52.5t-59.5 -59.5t-45.5 -59q-16 -25 -25.5 -50.5t-17.5 -52.5q20 18 34.5 33.5t25.5 24.5q57 47 115.5 91t119.5 85q8 6 26.5 4t35 -8.5t24.5 -16.5t0 -22q-41 -55 -60.5 -120t-47.5 -128q-14 -29 -20.5 -54.5t-10.5 -54.5q8 6 14 11.5t15 11.5 q6 6 22.5 4t26.5 -10q33 18 59.5 45.5t44.5 54.5q61 92 82 204.5t6 221.5q-6 51 -17 105.5t-31.5 106.5t-50.5 97t-73 76q-29 23 -52.5 30t-57.5 1q-109 -18 -211 -74q-104 -55 -196.5 -134t-164 -176.5t-118 -209t-58.5 -232.5q-4 -53 0 -117.5t37 -111.5t84 -73.5 t100 -53.5q47 -23 100.5 -41t106.5 4q63 25 114.5 67t102.5 85q8 6 24.5 6t32 -5t23.5 -14.5t0 -19.5q-47 -61 -99 -118.5t-128 -86.5q-74 -29 -154 -18.5t-153 28.5q-84 23 -171 57t-159 86t-117 125.5t-47 176.5z" />
<glyph unicode="A" horiz-adv-x="696" d="M-233 309q16 29 32.5 53.5t48.5 34.5q31 12 65 16.5t67 4.5q6 10 11 22.5l9 22.5q35 86 77 166t83 164q72 147 147.5 286.5t181.5 263.5q4 14 5.5 26.5t3.5 27.5q2 12 2 24.5t2 22.5q-23 6 -51 16q-12 4 -14.5 13.5t14.5 7.5q4 0 15 1t23.5 4t22.5 6t16 5q22 9 45 9 q19 0 40 -6q46 -13 73 -46q31 -37 31 -83v-11q-4 -53 -17 -100q-14 -53 -25 -106.5t-18 -106.5q-14 -115 -26.5 -226.5t-28.5 -224.5q-12 -82 -24.5 -162t-16.5 -162q-1 -18 -1 -37t1 -39q2 -38 12 -75q8 -27 19.5 -46.5t9.5 -45.5q0 -14 -13.5 -19.5t-30.5 -6.5t-33.5 1 t-22.5 4q-49 12 -80 38t-48.5 60.5t-24.5 76.5t-7 85q-57 4 -114.5 11.5t-114.5 13.5q-16 2 -34 3t-34 1q-18 -37 -32.5 -76t-18.5 -80q0 -10 -10.5 -11t-22.5 2t-22.5 8t-12.5 10q-8 14 -20 21t-23 17q-2 2 -2 7q10 10 37 4q-2 27 2 51t12 51q-35 2 -69.5 2t-71.5 -8 q-4 -2 -16.5 2t-7.5 12zM106 410q59 -6 120 -14q48 -6 96 -5h26q4 55 12.5 110.5t16.5 110.5q18 113 30.5 224.5t26.5 224.5q0 4 1 8t1 8q-47 -84 -87 -167t-81 -169q-41 -82 -81 -163.5t-81 -165.5v-2z" />
<glyph unicode="B" horiz-adv-x="1036" d="M-60 241q-1 14 -1 28q0 23 3 47q5 38 16.5 76t21.5 71q29 76 66.5 145.5t72.5 141.5q41 78 75.5 158.5t75.5 158.5l-18 -12q-23 -16 -50.5 -35t-45.5 -39q-4 -4 -18.5 -2t-14.5 10q-3 27 -3 48q0 11 1 19q2 26 22 62q18 35 45 60.5t60 48.5q35 25 73.5 45t79.5 37 q29 35 76 61q18 8 43 1t35 -23q2 0 2 -2q55 8 115 10q13 0 25 1q47 -1 93 -7q58 -8 111 -26.5t96 -53.5q47 -40 57 -90q3 -12 3 -24q0 -38 -25 -77q-33 -51 -72.5 -106t-89.5 -92q-53 -37 -106 -73t-111 -65q121 -4 215 -79q23 -18 46.5 -41t42 -48.5t29.5 -54t11 -59.5 q0 -29 -13 -53.5t-32.5 -46t-43 -39t-44.5 -31.5q-100 -70 -223 -111q-107 -36 -213 -36q-15 0 -31 1q-72 4 -142.5 17.5t-133.5 48.5q-2 -8 -3 -15.5t-5 -17.5q12 -4 23 -15t-11 -16l-37 -12q-16 -6 -36 -6q-16 0 -34 4q-41 8 -57 37q-18 33 -21 71zM186 373 q10 -14 19.5 -25.5t13.5 -13.5q10 -8 21.5 -15.5t21.5 -17.5q4 0 6 -2q-10 4 6.5 1t18.5 -3h37.5t31.5 2q78 10 151.5 43t139.5 76q25 16 54.5 42.5t49 57.5t19.5 62.5t-35 58.5q-27 19 -59 25q-18 3 -37 4q-13 0 -27 -2q-34 -4 -67 -12.5t-64 -12.5q-80 -12 -159 -18 q-29 -55 -60.5 -108.5t-62.5 -106.5q-4 -10 -9.5 -17.5t-9.5 -17.5zM255 305q1 0 5 -2q-6 2 -5 2zM467 887q47 25 91 52.5t87 55.5q45 31 92 56.5t88 64.5q6 8 18.5 23.5t20.5 33t8 34t-16 26.5q-24 14 -56 17q-16 2 -33 2t-34 -2q-35 -3 -69.5 -10t-61.5 -13h-6 q0 -59 -24.5 -116.5t-51.5 -111.5q-25 -55 -53 -112z" />
<glyph unicode="C" horiz-adv-x="731" d="M-115 254q-1 16 -1 31q0 68 14 133q18 80 51 155q33 72 67.5 138.5t71.5 136.5q35 66 64.5 135.5t66.5 134.5q35 68 80 150t103 150q58 69 132 111q57 33 125 33q19 0 39 -3q10 -2 25.5 -6.5t30 -10.5t26 -16t11.5 -23q0 -23 2 -47t0 -51q2 4 4 5t4 5q25 35 50.5 75 t57.5 69q29 23 57.5 41t59.5 38q4 2 12.5 2t16.5 -3t13 -7t1 -8q-16 -33 -27.5 -67.5t-31.5 -63.5q-20 -37 -40 -73t-36 -75q-57 -131 -131 -256q-35 -63 -69 -127.5t-72 -123.5q-18 -35 -38 -71t-36 -73q-16 -29 -17.5 -47t13.5 -47q4 -10 -3.5 -12t-17.5 0t-20.5 5 t-12.5 7q-16 10 -36.5 32.5t-24.5 39.5q-4 16 -4 33q0 19 5 41q9 42 17 75q18 86 55.5 163t80.5 155q25 43 51 86t55 86q-2 20 -2 39.5t-4 35.5l-37.5 -37.5t-30.5 -33.5q-86 -117 -155 -250q-55 -104 -106.5 -211t-106.5 -211q-29 -55 -58.5 -115.5t-54 -124t-36.5 -127.5 q-8 -43 -9 -86q0 -21 2 -41q2 -25 14 -38q8 -8 13 -11q2 -2 6 -4q16 0 47 8.5t67.5 23.5t77.5 39.5t78 61.5q29 29 49.5 60.5t38.5 66.5q2 6 11.5 3t9.5 -9q0 -18 -7.5 -51t-24.5 -72t-45 -79t-69 -74q-61 -54 -144 -64q-23 -3 -46 -2q-59 0 -117 19q-33 10 -68.5 32.5 t-65.5 53t-50.5 67.5t-20.5 76z" />
<glyph unicode="D" horiz-adv-x="1011" d="M-165 389q3 14 28 25q25 10 48 17t48 15q2 4 3 7.5t3 7.5q31 68 64.5 133t68.5 131q45 82 84 166t82 168q16 31 32.5 63.5t37.5 63.5q-23 -6 -49.5 -13.5t-51 -15.5t-41 -18.5t-16.5 -22.5q0 -10 -14.5 -6t-18.5 8q-20 20 -17 40t18.5 38t37 33.5t37.5 25.5 q53 35 108.5 52.5t116.5 23.5q16 4 27 4q25 20 48.5 41t39.5 49q0 -2 2 -2q4 6 18.5 10.5t29 3.5t26.5 -8.5t14 -21.5q0 -10 1 -22.5t1 -22.5h32.5t33.5 -2q78 -10 158.5 -35t140.5 -78q48 -41 64 -90q11 -34 11 -68q-1 -16 -3 -32q-8 -51 -31 -102.5t-56.5 -99.5t-71.5 -90 t-71 -73q-78 -72 -166 -143.5t-182 -122.5q-70 -37 -143.5 -59.5t-147.5 -44.5q-4 -14 -9 -27.5t-9 -30.5q-6 -23 -5 -44t-10 -38q-16 -35 -53 -42q-16 -3 -32 -3q-22 -1 -45 5q-40 10 -76.5 30.5t-55.5 42.5q-19 25 -19 63q0 8 1 17q-10 2 -17 10q-12 8 -27.5 22.5 t-22.5 31t-4 30.5zM356 608q41 27 79 56.5t75 60.5q66 55 127 116.5t108 133.5q12 20 27.5 46t27 53.5t15.5 56t-6 53.5q-4 8 -6 10l-4 4l-8 4q-4 0 -9 2q-6 2 -11 2t-9 2q-2 0 -4 1t-4 1q-31 4 -56.5 9.5t-52.5 9.5q-2 -4 -3 -10.5t-5 -12.5q-18 -51 -38.5 -100t-45.5 -98 q-41 -86 -81 -173t-87 -173q-8 -14 -14 -27.5t-15 -26.5z" />
<glyph unicode="E" horiz-adv-x="952" d="M-305 2q-10 18 0 37.5t28.5 36t41 31t36.5 22.5q49 29 99.5 51.5t103.5 44.5q0 2 6 8q14 16 27.5 56.5l23.5 70.5q16 51 29.5 101.5t28.5 103.5q16 66 33.5 131.5t40.5 130.5q-23 -4 -41.5 -8t-38.5 -6q-2 0 -8.5 2t-12.5 5t-9 7t1 9q20 18 50 29.5t54 27.5q6 4 13.5 7 l17.5 7q47 150 105 287q-61 -10 -124 -11h-10q-58 0 -110 11q-4 2 -8 5t0 7q37 23 86 31t90 25q31 8 61.5 17t61.5 15q10 23 22.5 42.5t22.5 39.5q8 16 17 31.5t26 15.5q12 0 14 -6q8 -43 12 -90q4 0 7 2q59 14 121.5 31.5t126.5 31.5q64 13 128 20q41 4 81 4q23 0 46 -1 q27 -2 61 -17t52 -42q16 -23 2 -40.5t-39 -21.5q-63 -12 -128.5 -12t-131.5 -10q-72 -8 -141.5 -19.5t-139.5 -21.5q-10 -4 -23 -5t-24 -3q-4 -23 -5 -42.5t-3 -39.5q-4 -33 -8 -68t-8 -69q66 18 132 22q15 1 29 1q51 0 101 -11q12 -4 31.5 -11.5t36 -18.5t26.5 -25.5 t4 -32.5q-4 -12 -15 -19.5t-26.5 -10.5t-31 -3h-25.5q-4 2 -12.5 2t-6.5 0h-14q-16 -2 -28.5 -4t-32.5 -8q-47 -4 -95.5 -11.5t-95.5 -13.5q-6 -27 -18 -59q-27 -84 -44.5 -169t-39.5 -171q-8 -27 -14.5 -56.5t-14.5 -60.5q12 4 22.5 8t22.5 8q113 49 227.5 101.5 t233.5 87.5q16 5 34 5q27 0 59 -12q52 -18 79 -55q16 -23 7 -35t-25 -20h2l2 -2q-55 -29 -114.5 -49.5t-119.5 -42.5q-53 -20 -105 -41t-106 -43q-74 -31 -147.5 -60.5t-149.5 -46.5q-4 -2 -4 -4q-2 0 -2 -2t-2 -2q-16 -16 -42.5 -18t-55.5 4q-49 -10 -99.5 -20.5 t-99.5 -24.5q-35 -8 -69.5 -17.5t-67.5 -25.5q-20 -10 -36.5 -21.5t-37.5 -21.5q-4 0 -9 1t-7 7z" />
<glyph unicode="F" horiz-adv-x="747" d="M-92 1364q12 57 63 78q71 30 155 30h18q94 -4 175 -24q45 -10 89.5 -23.5t89.5 -29.5q16 -4 29.5 -9.5t29.5 -9.5q2 -2 4 -2h2q12 -4 25.5 -8t27.5 -8q59 -18 117 -35.5t117 -28.5q46 -9 91 -10q4 0 9 1q49 1 99 1q4 10 9 17.5t9 17.5q2 8 14.5 10t24.5 0t22.5 -8 t10.5 -14v-7q0 -34 37 -57q16 -16 15 -30.5t-12.5 -25.5t-27.5 -18.5t-31 -11.5q-52 -14 -108 -16q-16 -1 -32 -1q-40 0 -81 4q-57 5 -113.5 16.5t-107.5 25.5q-72 20 -139.5 40.5t-137.5 43.5q2 -10 2 -19.5v-19.5q-4 -53 -14 -102.5t-27 -98.5q-8 -27 -14 -51.5t-12 -50.5 q41 -4 81 -14.5t70 -20.5q4 23 12.5 45.5t24.5 40.5q2 4 11 12h-3q4 4 13 8q8 4 20 9q20 4 33 2q-2 0 -3 -1t-5 -1q33 -2 58.5 -14.5t10.5 -30.5q-29 -37 -39 -80t-24 -88q-10 -41 -20.5 -81t-22.5 -81q-2 -6 -12.5 -6t-14.5 6q-12 41 -26.5 85t-18.5 89q-10 0 -21 2t-22 6 q-31 12 -60.5 23.5t-58.5 17.5q-14 -63 -24 -126.5t-14 -127.5q-7 -56 -9 -114q-1 -17 0 -34q0 -40 4 -81q4 -29 8.5 -56.5t12.5 -56.5q6 -27 17.5 -51.5t17.5 -48.5q8 -31 -6.5 -50.5t-39 -26.5t-53 -6t-51.5 9q-57 25 -80.5 62.5t-40.5 97.5q-27 112 -27 222q0 4 -1 8 q0 106 12 212q14 106 37.5 212t64.5 204q20 47 42 94t38 96q2 4 5.5 11.5t7.5 17.5q-31 10 -60.5 17.5t-60.5 15.5q-23 6 -46.5 8t-47.5 -2q-25 -6 -45.5 -20.5t-45.5 -18.5q-18 -4 -23 11.5t-3 27.5z" />
<glyph unicode="G" horiz-adv-x="894" d="M-12 817q22 127 60 224.5t78 160t56 78.5q37 39 77 68.5t83 43.5q35 11 73 11q8 0 17 -1q47 -3 100 -30q16 76 34 148.5t46 148.5q6 14 21.5 18.5t34 3.5t35 -7.5t26.5 -12.5l6 -6q16 -10 25.5 -25.5t-12.5 -27.5q0 -2 -3 -2q-41 -78 -77.5 -164t-53.5 -170 q-31 -170 -49 -338q4 6 17 14q66 53 133 103.5t133 103.5q12 12 41 14.5t57.5 -5t48 -24t15.5 -40.5q-27 -137 -63 -270.5t-99 -255.5q-10 -43 -23.5 -85t-23.5 -73q-27 -92 -54.5 -177t-31.5 -182q0 -4 -6.5 -2t-8.5 4q-23 63 -30 129q-5 43 -5 86q0 23 1 46 q-47 -47 -104.5 -83t-129.5 -48q-30 -5 -62 -5q-49 0 -102 12q-86 19 -147 72q-59 51 -89 123t-40 148q-13 79 -13 152q0 63 9 122zM100 565v-12q0 -70 21 -133q23 -70 80 -119q46 -38 94 -38q15 0 29 3q65 15 124.5 62t107.5 109.5t75 105.5q55 92 93 189t67 198 q-29 -23 -52 -45q-33 -33 -63.5 -66t-61.5 -67q-29 -35 -58.5 -66t-70.5 -49q-10 -4 -31.5 -4t-41 6t-33.5 17.5t-10 29.5q8 41 36.5 70.5t53.5 60.5q14 16 26.5 32.5t26.5 33.5q-23 4 -41 15t-18 28q0 8 -1 11t5 19v2q8 72 19 141.5t28 139.5q-12 -8 -19 -14 q-27 -25 -49 -50.5t-47 -52.5q-59 -63 -119.5 -129.5t-99.5 -144.5q-29 -57 -48.5 -132t-21.5 -151z" />
<glyph unicode="H" horiz-adv-x="854" d="M-51 831q16 51 58 71t95 22q12 49 25.5 97t30.5 97q2 12 15 49t27.5 78t23.5 75t5 38q-12 12 -4 23.5t21 15.5q22 7 45 7q26 0 53 -9q14 -4 38 -16.5t19 -32.5q-29 -113 -64.5 -222.5t-62.5 -224.5q8 -4 14.5 -5t10.5 -3q53 -16 103.5 -33.5t101.5 -32.5h2l6 31 q23 88 52.5 174t58.5 174q35 96 70.5 188.5t70.5 188.5q6 16 20.5 24.5t32 10.5t35.5 0t33 -6q8 -2 21.5 -9.5t23.5 -16.5t14 -20.5t-6 -21.5q-20 -47 -40.5 -91t-39.5 -91q-16 -43 -33.5 -85t-36.5 -83q-41 -88 -63.5 -181t-44.5 -188q0 -4 11 -5t28 -5q16 -2 42.5 -12 t24.5 -33q-2 -27 -16 -43t-36.5 -27.5t-49.5 -15.5t-51 -6q-2 -31 -5 -70t-7.5 -78t-7.5 -75.5t-5 -63.5q-10 -111 -12 -219v-19q0 -98 18 -196q6 -31 -18.5 -42t-58 -11t-65.5 11t-44 28q-2 4 -4 6t-4 6v2q-6 12 -6 25q-23 90 -26 179q-1 20 -1 40q1 69 9 137q10 88 29 175 t42 173q-29 6 -55.5 12t-55.5 17q-27 10 -53.5 18t-52.5 19q-8 -70 -12.5 -139.5t-12.5 -139.5q-6 -72 -16 -141.5t-12 -141.5q0 -16 -14.5 -21t-33 -5t-37 4t-24.5 6q-20 8 -34.5 18.5t-24.5 28.5q-4 8 4 10t18 4q-16 65 -21 129q-2 29 -2 60q0 37 3 76q6 78 19 152.5 t28 152.5q-23 6 -44.5 10t-43.5 0q-4 0 -11.5 1t-14.5 2t-12 5t-3 10z" />
<glyph unicode="I" horiz-adv-x="505" d="M-18 337q-1 15 -1 29q0 30 3 60q4 45 11 90t13 86q14 92 34.5 181t43.5 182q12 51 26.5 116.5t43.5 124.5q-49 12 -84 44q-31 29 -31 74v11q2 20 21.5 29.5t47 9.5t58.5 -8t55 -23q23 6 42.5 11.5t41.5 9.5q23 2 57.5 2t70.5 -6t64 -22.5t38 -43.5q4 -6 -2.5 -8t-10.5 -2 q-35 -4 -67.5 -11t-61.5 -24q-8 -4 -15 -8t-15 -8q1 -26 1 -51.5t-1 -51.5q-4 -66 -16.5 -128t-29.5 -125q-18 -86 -37.5 -170t-31.5 -170q-12 -82 -19 -158h5q25 3 49 3q33 0 65 -6q56 -11 103 -50q4 -4 1 -5.5t-5 -1.5q-10 2 -19.5 -5t-17.5 -15q-14 -12 -35 -18.5 t-37 -16.5q-33 -18 -66.5 -38.5t-70.5 -35.5q-17 -20 -52 -20h-11q-44 4 -83 23q-25 12 -42 27.5t-21 31.5q-10 41 -12 85z" />
<glyph unicode="J" horiz-adv-x="606" d="M-39 1423v26.5t2 25.5q6 27 46 27q1 1 2 1q39 0 73 -16q53 -4 108.5 -24.5t104.5 -32.5q18 -4 53 -12.5t73 -14.5t77 -8h13q30 0 53 8q26 10 37 33q4 9 4 21q0 19 -9 44q-2 6 7 5t13 -3q37 -25 50 -57q7 -19 7 -38q0 -13 -4 -26q-9 -30 -37 -53.5t-69 -30.5 q-31 -4 -59 -4h-19q16 -25 22.5 -59.5t10.5 -63.5q10 -86 10 -165.5t-12 -163.5q-6 -45 -7 -89t-1 -89v-37t-2 -39q0 -6 -2 -41t-7 -87t-14.5 -112.5t-26 -118t-39 -102.5t-54.5 -66q-35 -23 -75 -23h-8q-44 3 -86 22.5t-79 50t-58 63.5q-59 92 -67 198q-4 48 -4 95 q0 59 6 117q16 141 42.5 277t49.5 276q2 20 29.5 25t59.5 -3t56.5 -26t22.5 -41q-14 -129 -42 -253t-40 -253q-8 -88 -13 -182q-1 -16 -1 -31q0 -78 22 -150q8 -23 17.5 -44t25.5 -38q4 -2 4 -3t2 -3q25 16 39.5 45t24.5 56q8 25 12 86t7 128.5t4 126t1 74.5q-2 74 -6 145.5 t-18 143.5t-17.5 143.5t-13.5 143.5q-4 23 -5 53.5t5 52.5q2 4 3 7t3 8q-35 10 -68.5 20t-68.5 18q-2 -2 -2 -3t-2 -3q-12 -12 -40 -15t-55.5 3t-48 20.5t-22.5 34.5z" />
<glyph unicode="K" horiz-adv-x="704" d="M-16 178q10 96 16 190.5t14 190.5q10 96 14 196.5t27 192.5q10 45 25.5 87t32.5 83q6 12 11 25.5t13 25.5q-6 14 -11 28.5t-9 27.5q-4 8 2 11t15 3t18.5 -2t11.5 -2q55 -16 31 -18q9 1 19 1q22 0 46 -6q34 -10 51 -38q25 -35 29 -68q2 -16 2 -32q0 -18 -2 -34 q-4 -32 -15.5 -66t-17.5 -69q53 39 107.5 77t103.5 83q70 66 144.5 123t142.5 123q16 16 57 13t80 -15.5t62.5 -32t9.5 -33.5q-70 -70 -148 -128t-164 -105q-74 -43 -149.5 -79t-146.5 -83q-23 -16 -48.5 -32.5t-50.5 -33.5l6 -6q20 -16 38 -36.5t38 -39.5 q31 -27 52.5 -61.5t43.5 -67.5q66 -92 130.5 -182t142.5 -174q53 -57 114.5 -118.5t133.5 -92.5q25 -10 46 -13t50 1q31 4 64.5 12t54.5 39q10 16 18 32.5t18 33.5q4 8 16.5 2.5t16.5 -9.5q31 -36 31 -86q0 -7 -1 -15q-5 -60 -40 -101q-18 -20 -44 -32.5t-54.5 -19t-57 -7.5 t-53.5 1q-135 16 -250.5 89t-210.5 165q-195 193 -346 420q-6 -86 -12 -173t-16 -175q-4 -33 -10 -69q-3 -17 -2 -34q0 -18 3 -34q4 -23 7.5 -44.5t-13.5 -37.5q-16 -18 -49 -18.5t-55 8.5q-92 31 -117 90q-18 43 -18 104q0 21 2 45z" />
<glyph unicode="L" horiz-adv-x="794" d="M-301 195q2 29 12 61.5t41 42.5q6 4 15.5 3t13.5 -9q10 -14 19.5 -52t23.5 -63q4 4 7 9.5t7 9.5q16 29 28.5 59.5t24.5 62.5q35 92 78 181.5t88 179.5q49 98 97.5 192.5t101.5 190.5q23 37 45.5 74t38.5 77q12 33 23.5 65.5t27.5 63.5q39 76 113 107q36 15 74 15 q41 0 84 -17q37 -14 56 -44q18 -30 24 -67q3 -20 4 -41q0 -16 -2 -34q-4 -38 -13 -72q-23 -88 -69 -165t-84 -157q-41 -88 -81 -175t-87 -173q-4 -6 -20.5 -4t-12.5 12q41 109 80 222.5t59 226.5q6 31 6 59q-53 -117 -106.5 -231.5t-112.5 -229.5q-29 -57 -56.5 -113 t-51.5 -116q-12 -29 -23.5 -60.5t-24.5 -60.5q84 16 165 26.5t167 12.5q41 0 87 -2t91 -11t86 -26.5t74 -48.5q47 -44 55 -108q3 -29 3 -58q0 -34 -5 -67q-2 -12 -23.5 -10.5t-25.5 12.5q-10 41 -25.5 83t-50.5 72q-33 29 -55 30t-61 5q-27 1 -54 1q-87 0 -173 -14 q-112 -20 -222 -36q-35 -6 -73.5 -11t-77.5 -7q-12 -8 -24.5 -11.5t-27.5 -7.5q-35 -4 -64.5 -6t-62.5 8q-20 4 -34 12q-14 4 -26.5 13.5t-16.5 21.5q-29 12 -53 38q-22 24 -21 54v5z" />
<glyph unicode="M" horiz-adv-x="1052" d="M-14 315q-6 85 -6 170q0 127 14 252q24 209 47 420q8 82 17.5 163t37.5 159q10 29 22.5 57.5t22.5 56.5q4 6 4 9.5t2 7.5q-10 -4 -20 -8.5t-16 -8.5q-4 -4 -11.5 0t-5.5 9q6 20 23.5 33.5t34.5 23.5q14 12 35.5 8t42 -15.5t38 -26.5t25.5 -28q23 -35 31 -71.5t8 -75.5 t-7.5 -78t-13.5 -76q-10 -55 -13 -111.5t-7 -111.5q23 45 50.5 93t62 86t76.5 63.5t93 25.5h5q44 1 73 -33q31 -36 39 -77q2 -8 3 -16.5t3 -16.5q44 46 102 70q34 14 75 14q27 0 57 -6q14 -4 27.5 -13.5t17.5 -25.5q4 -37 18.5 -72t20.5 -69q4 -21 4 -42q0 -14 -2 -27 q-4 -34 -10 -69q-12 -74 -19.5 -147.5t-11.5 -148.5q-8 -117 -22.5 -230t-24.5 -229q-4 -49 -4 -97.5v-99.5q0 -14 2 -28.5t-2 -28.5q16 20 27.5 50t17.5 60.5t8 59t0 49.5q0 10 18.5 3t20.5 -17q2 -27 4 -71q0 -11 1 -22q0 -33 -5 -67q-6 -45 -22.5 -81t-51.5 -46 q-13 -4 -27 -4q-25 1 -52 13q-42 18 -66 44q12 -12 8 -9t-13.5 10t-19.5 17l-10 9q-14 12 -26.5 25.5t-22.5 29.5q-16 23 -23.5 55.5t-11.5 61.5q-3 42 -3 85q0 85 11 169q16 127 31 252q10 92 25.5 186t43.5 184q10 35 20.5 71t27.5 69q12 25 32.5 49t30.5 51h-7 q-62 0 -106 -36q-47 -38 -77 -95q4 -41 4 -80t-2 -78q-4 -90 -18.5 -175t-33.5 -171q-16 -78 -29.5 -161t-41.5 -156q-4 -31 -41 -31t-79 18.5t-77 49t-35 61.5v14q0 65 16 133q18 74 36 144q16 68 33.5 136.5t35.5 137.5q16 63 30.5 131t39.5 129q4 6 12 27q-2 -2 -4 -3 t-4 -3q-49 -35 -90 -83t-75 -103.5t-60.5 -114t-47.5 -113.5q-10 -27 -16 -47v-4q-8 -68 -14 -135.5t-15 -137.5q-6 -63 -8 -124.5t-14 -124.5v-13q2 -16 -7 -23t-22.5 -9t-29 -1t-23.5 1q-2 2 -4 2q-20 2 -44 13t-43.5 26.5t-33.5 36t-16 42.5z" />
<glyph unicode="N" horiz-adv-x="813" d="M-192 334q-1 14 -1 27q-1 21 3 43q6 36 14 71q39 170 110 334q31 76 68 139.5t90 126.5q39 49 82 96.5t96 81.5q4 57 8.5 113.5t8.5 114.5q0 16 4 54t5 84v23q0 34 -2 68q-3 45 -15.5 79t-36.5 48q-11 6 -25 6q-18 0 -41 -10q-4 0 -10 2t-2 6q28 39 62 39h4 q36 -2 73 -26.5t67.5 -60.5t45.5 -62q82 -143 108 -309q22 -143 21 -281v-43q-4 -123 -4 -244t6 -244q4 20 10 41t12 41q14 47 25.5 92t26.5 93q12 47 24 97t39 91q16 27 44 42t60 21q23 5 48 5q9 -1 19 -1q34 -2 63 -8q2 -2 5 -3t3 -5q0 -16 -12.5 -32.5t-24.5 -26.5 q-23 -20 -39 -52t-31 -59q-39 -80 -61.5 -169t-44.5 -175q-29 -111 -52.5 -223.5t-33.5 -228.5q-3 -44 -3 -88v-21.5v-21.5q0 -44 -3 -89q-1 -14 -1 -30t1 -34q2 -38 -19 -56q-16 -12 -37.5 -3t-34.5 17q-37 31 -51 81t-16 109q-33 49 -66 107q-35 59 -61.5 120.5 t-38.5 129.5q-27 135 -32 272t-5 275v6q-29 -53 -50.5 -107.5t-43.5 -109.5q-55 -160 -105 -320q-6 -25 -12 -55.5t-15 -59t-25.5 -53t-43.5 -35.5q-23 -10 -50.5 2.5t-43.5 26.5q-31 25 -45 55.5t-18 65.5z" />
<glyph unicode="O" horiz-adv-x="681" d="M-12 459q-7 65 -7 130q0 75 9 151q16 142 61 276q23 66 51.5 128t69.5 120q23 31 43.5 56.5t44.5 45.5q10 35 24.5 68.5t37.5 62.5q35 45 94 63q37 11 74 10q22 0 46 -4q60 -10 106 -47.5t56 -101.5q3 -20 3 -41q0 -27 -5 -55q-8 -49 -18 -96q-10 -58 -10 -116v-19 q1 -22 0 -46q0 -45 -2 -90q-4 -86 -8.5 -178t-17.5 -182t-37.5 -177t-67.5 -165q-25 -45 -59 -97.5t-77 -92t-94 -56.5q-20 -7 -41 -7q-34 0 -71 17q-59 25 -96.5 77t-59 114.5t-32.5 129t-17 122.5zM143 418q-1 -22 -2 -43q1 -45 7 -89q8 -64 36 -128q6 -16 11.5 -31.5 t11.5 -25t15 -8.5t28 16q20 18 36.5 38.5t26.5 47.5q27 72 34 146.5t13 150.5q8 80 21.5 159.5t17.5 159.5q6 104 7.5 208.5t11.5 209.5q-29 -63 -50.5 -130t-31.5 -134q-8 -49 -14.5 -97.5t-6.5 -97.5q0 -16 -2 -37.5t0 -45t7.5 -43t17.5 -32.5q12 -12 0 -13t-21 3 q-25 14 -37 39t-19 52.5t-9 57t-4 54.5q-2 23 -3 44t-1 44q-41 -117 -69 -234.5t-32 -240.5z" />
<glyph unicode="P" horiz-adv-x="655" d="M-17.5 1204.5q-5.5 18.5 5.5 34.5q29 43 69.5 73.5t83.5 59.5q90 59 185.5 108.5t201.5 78.5q55 14 130 16h15q67 -1 125 -17q64 -18 101 -64q24 -29 24 -74q0 -25 -8 -56q-33 -133 -94 -244t-153 -211q-72 -78 -162 -137t-182 -106q-10 -4 -18.5 -8.5t-18.5 -8.5 q-16 -100 -32.5 -198.5t-33.5 -196.5q-14 -80 -36.5 -157t-41.5 -154q-2 -10 -11 -10.5t-20.5 3t-21.5 9.5t-12 10q-20 39 -26.5 80t-6.5 82t5 83t9 83q10 86 22.5 170t29.5 170q-51 8 -101 49q-23 18 -17.5 30.5t24 17.5t40 5t33.5 -4q-29 8 -17.5 8t31.5 8l31 13 q16 84 34.5 164.5t43.5 162.5q12 41 24.5 83t34.5 81q16 29 28.5 57.5t16.5 59.5q2 14 19.5 6t21.5 -14q25 -33 34 -71t9 -77t-7 -79t-15 -76q-10 -43 -21.5 -85t-21.5 -85q45 39 86 80.5t80 84.5q66 72 138.5 136.5t135.5 138.5q12 14 26.5 33.5t24 41t10.5 44t-10 43.5 q-14 27 -49 38t-75.5 11t-80.5 -6t-65 -13q-86 -18 -170 -62t-149 -104q-29 -25 -57.5 -49t-53.5 -53q-14 -14 -23.5 -29.5t-21.5 -29.5q-16 -16 -15 -28.5t1 -33.5q0 -2 -7 -2q-12 6 -29.5 19.5t-30.5 31t-18.5 36z" />
<glyph unicode="Q" horiz-adv-x="995" d="M-18 544q6 66 27.5 131.5t54 127t67.5 115.5q49 78 99.5 153.5t103.5 151.5q41 59 85 113.5t103 97.5q39 27 98.5 48t121.5 26q15 1 30 1q45 0 88 -11q58 -15 92 -60q29 -39 38 -102q5 -37 5 -68q0 -21 -2 -39q-6 -47 -23.5 -110.5t-40 -134.5t-48 -141.5t-48 -132 t-41 -106.5t-24.5 -63q-25 -61 -53.5 -131t-79.5 -115q-35 -29 -69 -58.5t-70 -58.5q68 -45 133 -92t131 -90q96 -61 196.5 -113.5t210.5 -83.5q51 -14 113 -19q17 -1 33 -1q45 0 87 10q58 14 102 50t57 104q2 4 6 3t6 -5q5 -20 5 -39q0 -23 -8 -44q-14 -38 -43.5 -66 t-70.5 -46t-80 -22q-45 -5 -90 -5q-55 0 -108 8q-97 15 -193 50q-123 47 -238.5 109.5t-226.5 136.5q-31 20 -61.5 41.5t-59.5 46.5q-59 -35 -123 -49q-23 -4 -48 -4q-42 0 -87 14q-47 14 -74.5 40.5t-40 60.5t-12.5 73t11 80q-10 23 -16.5 46t-12.5 40q-14 50 -14 99 q0 17 2 33zM78 215q0 -4 4 -20q12 -47 41 -61q23 -12 48 -12q7 0 15 1q33 4 68 22.5t61 40.5l2 2q-29 29 -61 52q-23 16 -50 16q-10 0 -20 -2q-2 -20 0 -37.5t10.5 -28t24 -10.5t41.5 12q4 2 10.5 0t1.5 -6q-23 -29 -41 -41t-59 -4q-29 6 -52.5 26.5t-43.5 49.5zM193 297 q16 3 32 3q32 0 66 -12q51 -20 90 -40q41 43 61 112q16 51 40 98.5t44 96.5q23 57 44.5 113.5t50.5 111.5q31 66 69.5 125.5t63.5 124.5q12 33 32.5 92.5t36 121t19.5 111.5q1 8 1 15q0 37 -18 49q-9 6 -23 6q-16 0 -40 -9q-43 -17 -92 -54t-97.5 -84t-78.5 -92 q-78 -111 -126.5 -225.5t-78.5 -245.5l-80 -344q-4 -14 -8 -33t-8 -41z" />
<glyph unicode="R" horiz-adv-x="1101" d="M-58 260q7 51 22.5 101.5t38 99.5t46.5 98q-6 8 -6 25q4 35 26.5 64.5t53.5 58.5q10 20 18.5 40.5t14.5 40.5q39 109 74.5 213.5t88.5 202.5q-53 -16 -107 -37.5t-95 -52.5h-2q8 33 28.5 56.5t48 39t58.5 27.5t59 25q14 6 28.5 13t31.5 13q39 59 82 105q8 8 21 9t26.5 -2 t23.5 -11.5t15 -18.5q2 -2 2 -6q27 10 52 19.5t52 15.5q25 6 67 13t89 10q20 1 40 1q27 0 55 -2q48 -4 87 -18t63.5 -42t24.5 -73v-9q-1 -50 -21 -93q-22 -47 -57 -88t-77 -77t-80 -69q-43 -35 -89.5 -64.5t-93.5 -56.5q10 -6 20.5 -11t18.5 -11q63 -41 107.5 -92t78 -109.5 t62.5 -122t63 -125.5q31 -55 67 -105t79 -95q10 -10 20.5 -19.5t20.5 -19.5q6 -4 19.5 -11.5t2.5 -5.5q29 -4 59.5 -1t55.5 14q59 25 95 67.5t54.5 96t21.5 113.5q2 36 2 70q0 23 -1 46q0 14 21.5 9t25.5 -15q14 -46 22 -104q5 -41 5 -82q0 -16 -1 -32q-3 -56 -20.5 -109.5 t-52.5 -94.5q-41 -47 -101 -70q-62 -22 -128 -24h-16l-116 12q-66 14 -118 39q-139 70 -222 182.5t-145 251.5q-27 59 -51.5 119.5t-60.5 114.5q-23 29 -47 43q-35 -16 -68 -34t-68 -38q-23 -72 -49 -142.5t-55 -142.5q-29 -70 -52.5 -139.5t-56.5 -134.5q-13 -23 -43 -29 q-14 -3 -28 -3q-17 0 -36 4q-34 7 -61.5 24.5t-31.5 42.5q-4 27 -4 54q0 24 3 48zM446 942q6 4 12.5 8t12.5 8q94 61 181 130t179 137q6 6 27 19t40.5 30.5t33.5 36t8 30.5q-8 21 -49 23q-14 1 -28 0q-29 0 -62 -3q-49 -5 -94.5 -14.5t-59.5 -13.5q-20 -6 -39.5 -12 t-38.5 -14q2 -4 2 -8.5t2 -8.5t-5 -4t-9 2q-12 4 -18 8q-2 -2 -4 -2t-5 -2q-10 -92 -33.5 -178t-52.5 -172z" />
<glyph unicode="S" horiz-adv-x="595" d="M-156 59q-3 14 -3 28q1 27 11 56q16 43 42 85t61 81t65 74q10 12 21.5 24.5t19.5 22.5q10 10 23 10q18 0 31 -14q8 -8 4 -25q-10 -43 -35 -81.5t-49 -73.5q-23 -29 -40.5 -57.5t-29.5 -59.5q-15 -36 -15 -57q0 -11 5 -17q6 -10 29 -6q74 6 125 60q55 59 91 149t40 191 q1 12 1 24q1 73 -21 143q-24 82 -56 164q-14 37 -27.5 75t-23.5 75q-45 156 -45 275q0 153 75 245q59 74 147.5 115t188.5 41q12 0 24.5 -1t24.5 -1q59 -8 106.5 -36t78.5 -75q35 -51 43 -117q2 -18 2 -37q0 -48 -15 -96q-16 -57 -43.5 -110.5t-56.5 -104.5 q-6 -12 -13 -23.5t-14 -23.5q-8 -16 -15 -32.5t-17 -33.5q-23 -49 -48.5 -96t-70.5 -82q-10 -6 -23 -6q-35 0 -39 29q-5 33 -5 66q0 46 10 92q16 80 32 139t29.5 117.5t28.5 119.5l8 37q2 4 2 7t2 8q2 10 6 29.5t7 39t3 37.5t-6 27q-4 4 -10 4h-8q-129 -25 -176 -103 q-36 -60 -46 -126q-5 -33 -5 -67q1 -35 5 -69q10 -70 30 -137.5t40 -124.5l25 -74q35 -96 61 -194q23 -86 24 -176q0 -14 -1 -27q-4 -78 -32 -161t-75 -148q-55 -78 -124.5 -121t-145.5 -43q-61 0 -133 33q-88 43 -105 114z" />
<glyph unicode="T" horiz-adv-x="530" d="M-390 1458q-2 11 -2 22q0 24 8 47q11 34 34.5 63.5t52.5 45.5q117 66 248 69q9 0 18 1q122 0 240 -39l37 -12q10 4 27.5 4t21.5 -2q33 -10 57.5 -28.5t42.5 -43.5q66 -35 130.5 -64.5t127.5 -43.5q33 -7 67 -9q3 0 6 1q31 0 67 22q51 31 93 72.5t95 72.5q14 8 37.5 10.5 t47.5 -3t43 -17.5t26 -31q13 -35 13 -66q0 -27 -10 -49q-22 -50 -67 -86t-104.5 -56.5t-114.5 -24.5q-29 -2 -58 -2q-74 1 -144 15q-98 20 -197 56q-2 -47 -11.5 -91t-21.5 -88t-24.5 -88t-18.5 -89q-4 -29 -13.5 -80t-21.5 -111.5t-25.5 -128t-25.5 -128t-21.5 -111.5 t-11.5 -80q-6 -51 -8 -100t-4 -101q0 -27 3 -60.5t17 -55.5q8 -12 3 -18.5t-15 -9.5t-24.5 -2t-26.5 5v-2q-20 8 -43 20q-8 4 -16.5 7.5t-18.5 7.5q-12 4 -16.5 11t6.5 11q-51 53 -65 163q-9 72 -8 154q0 43 2 88q7 132 30.5 268t46.5 243q16 78 34.5 155.5t37.5 155.5 q10 41 18 81t20 79q-23 10 -43 20.5t-43 18.5q-12 4 -43.5 14t-79.5 16q-27 3 -57 3q-25 -1 -52 -3q-60 -4 -128 -26q-16 -6 -38.5 -16.5t-41 -25.5t-27 -36.5t2.5 -48.5q4 -10 -13.5 -9t-21.5 5q-31 25 -36 59z" />
<glyph unicode="U" horiz-adv-x="968" d="M-18 424q2 47 7 92t5 82q4 131 11 262t42 258q8 35 37 87t69 93q40 40 86 56q13 4 26 5q33 0 65 -28q18 -16 25 -47t7 -64.5t-4 -67.5t-8 -56q-12 -66 -29.5 -128.5t-29.5 -127.5q-6 -61 -10.5 -124t-6.5 -126q-2 -66 -7 -134q-3 -38 -2 -76q0 -30 1 -58q16 4 31.5 11 t32.5 17q49 33 90 80t74.5 101.5t58.5 112.5t41 114q18 57 31 116q4 45 12 89.5t20 87.5q0 4 2.5 9l4.5 9q0 10 4 27q16 70 41.5 123t78.5 100q8 8 24.5 9t34 -2t31 -12t13.5 -22q2 -25 1 -52.5t5 -51.5q4 -18 10 -33.5t6 -36.5v-39.5t2 -38.5v-31q0 -70 -7 -138 q-9 -83 -13 -166q-2 -38 -2 -76t2 -76q4 -76 31 -147q10 -29 19 -54.5t18 -54.5q4 -18 12 -23.5t35 -11.5q4 0 14 -8t0 -12q-38 -12 -78 -12q-41 0 -84 12q-86 26 -143 80q-49 47 -71.5 113.5t-29.5 133.5q-6 -10 -11 -19t-11 -20q-20 -31 -38.5 -63.5t-41.5 -60.5 q-16 -20 -48 -61.5t-72 -82.5t-83 -72.5t-80 -33.5q-8 -1 -16 -1q-51 -1 -107 23q-64 26 -98 78q-20 33 -26 77q-4 33 -4 68v23z" />
<glyph unicode="V" horiz-adv-x="679" d="M-143 1339q6 45 34.5 62.5t64.5 17.5t73 -12t63 -29q45 -27 75 -70.5t50.5 -96t34.5 -106.5t27 -99q57 -205 90 -412q23 70 47 139.5t47 138.5q33 98 64.5 193.5t58.5 194.5q16 61 35.5 145t52.5 160.5t85 132t134 63.5q10 0 33.5 -8t42 -20.5t24.5 -25.5t-16 -21 q-37 -12 -63.5 -36t-47 -53.5t-37 -63.5t-30.5 -65q-35 -72 -57.5 -146.5t-45.5 -152.5q-29 -102 -63.5 -200.5t-69.5 -198.5q-23 -70 -46 -139.5t-48 -138.5q-14 -41 -30.5 -83t-30.5 -83l6 -50q4 -20 9 -45.5t-7 -42.5q-10 -25 -37 -27.5t-60 7.5q-90 8 -138 73.5 t-60 147.5q-14 80 -23.5 160t-25.5 158q-20 109 -46 215t-30 217q-2 59 -10 119q-4 29 -5 57q0 30 5 61q-12 6 -30.5 3t-36 -10t-32 -16.5t-20.5 -17.5q-2 -4 -6 -2t-4 6z" />
<glyph unicode="W" horiz-adv-x="1347" d="M-20.5 1363q-2.5 15 9 28.5t40.5 21.5q41 12 93 12q20 0 41 -2q77 -6 130 -30q12 -6 30.5 -17.5t31 -26t13.5 -28.5t-22 -27q-2 -2 -10 -2q-12 -4 -19 -4q-16 -4 -24 -4q18 -23 26 -43q23 -59 24 -117.5t9 -119.5q10 -74 12.5 -148t2.5 -147.5t1 -146.5t9 -146 q2 -14 3 -28.5t5 -31.5q41 29 67.5 70t45.5 90q4 14 9 28.5t11 30.5q-10 45 -17 90.5t-14 92.5q-8 74 -13 152q-2 26 -2 51q0 51 7 100q6 41 21.5 98.5t42 110.5t63.5 91t90 42q10 0 31 -7t18 -24q-6 -40 -15 -72q-5 -19 -6 -46q0 -18 3 -40q6 -51 18.5 -105t16.5 -103 q10 -133 20.5 -265.5t46.5 -261.5q10 -35 21.5 -69.5t34.5 -65.5l2 -2q8 4 12 8q59 37 101 92.5t71 118.5q57 129 90 262q16 61 18.5 125t4.5 129q-16 -2 -31 -2q-30 0 -57 8q-43 14 -90.5 39t-63.5 72q-7 18 -7 33q1 19 11 37q20 30 45 59q4 4 11.5 2t7.5 -6q2 -16 8 -44 t16 -50.5t27.5 -34.5t42.5 2q20 12 38.5 28.5t41.5 26.5q27 10 51 22.5t51 24.5q6 4 20.5 4t29 -5t23.5 -12t7 -19q-12 -49 -23.5 -85t-56.5 -65q-16 -10 -39 -20q14 -89 14 -182q-1 -2 -1 -6q0 -96 -5 -189q-6 -88 -25.5 -171t-49.5 -167q-12 -37 -33 -75t-48.5 -69.5 t-62.5 -51t-80 -19.5q-98 0 -190 41t-150 123q-16 -43 -39.5 -85t-54.5 -59q-36 -18 -76 -23q-20 -2 -40 -2.5t-40 2.5q-40 5 -79 19.5t-72 34.5q-70 43 -101.5 112.5t-41.5 151.5q-6 56 -6 112q0 27 2 54q4 84 6 152q4 84 10 165.5t20 165.5q2 12 6.5 31t6.5 39.5t-1 37.5 t-14 28q-2 2 -3 2t-3 2q4 0 5 -1t5 -1q-4 0 -6 1t-4 1q-8 4 -12 5t0 -1q-29 10 -57 30q-18 14 -31.5 31t-16 32z" />
<glyph unicode="X" horiz-adv-x="1359" d="M-152 297q6 61 28 120.5t52 98.5q51 63 116 109.5t126 95.5q41 35 85 65.5t89 59.5q-4 6 -7 12t-7 12q-49 84 -80 174q-10 31 -31.5 36t-44 -6t-41 -31.5t-22.5 -43.5q0 -4 -4.5 -2t-6.5 4q-8 23 -8 41q0 16 6 29q14 27 43 41t66 18q20 2 38 1q15 0 29 -1 q84 -10 148.5 -57t118.5 -110q76 43 153.5 85t153.5 86t149.5 93t139.5 106q61 53 118.5 113.5t100.5 128.5q18 31 44.5 67.5t49.5 77.5t35 83q7 25 7 49q0 16 -3 30q-4 16 9 20.5t30.5 1.5t35 -9.5t23.5 -10.5q68 -63 82 -141q6 -32 5 -64q0 -47 -12 -94q-20 -80 -66 -156 t-101 -131q-119 -123 -260 -211t-289 -169q-139 -78 -276 -160q49 -88 103 -174t132 -146q12 -8 30.5 -14t40 -9t41 -3t34.5 4q47 14 83.5 58t73.5 75q12 10 37 11t50.5 -5t43 -20.5t13.5 -34.5q-10 -55 -27.5 -100.5t-47.5 -77t-72 -50t-103 -18.5q-135 0 -264 43t-222 145 q-43 47 -78.5 96.5t-70.5 102.5q-53 -29 -104.5 -55.5t-102.5 -55.5q-35 -20 -74 -39.5t-76.5 -42t-72.5 -48t-62 -56.5q-18 -23 -31.5 -54.5t-17.5 -65.5q-2 -17 -2 -34q0 -18 2 -34q4 -34 21 -58q2 -2 -2 -2h-6q-55 32 -76 86q-17 43 -17 90q1 12 2 25z" />
<glyph unicode="Y" horiz-adv-x="878" d="M-82 -4q10 37 13 71.5t20 69.5q16 35 34.5 69t37.5 68q4 8 21 4t13 -14q-10 -33 -25.5 -69.5t-23.5 -75.5q-5 -26 -5 -51q0 -12 1 -24q4 -36 31 -64q4 -4 5 -6.5t5 -4.5q10 0 27 4q35 8 75 29q55 31 96.5 74t75 94t60.5 107.5t53 109.5q53 117 97 237.5t79 243.5 q-23 -45 -51.5 -89t-63 -79.5t-77.5 -57t-94 -21.5h-7q-66 0 -129 35q-65 38 -92 104q-19 49 -19 100q0 10 1 20q4 62 16 121q16 88 40 176.5t63 170.5q20 51 57 100q10 16 22.5 29.5t22.5 29.5q-37 -20 -64 -41q-2 -2 -5 -1t-3 3q10 39 38 65t67 36q10 4 30.5 -2t24.5 -21 q11 -66 11 -130q0 -58 -9 -116q-18 -120 -43 -241q-12 -63 -24 -128q-7 -43 -7 -85q0 -21 2 -43q2 -23 4.5 -43.5t12.5 -40.5q0 -4 1 -5t1 -5q53 31 93 81t70.5 108t54 119.5t44.5 117.5q41 113 84 229.5t119 210.5q6 8 20.5 9t28.5 -3t25.5 -11.5t11.5 -17.5q6 -94 11 -183 q2 -34 2 -69q0 -57 -5 -116q-10 -100 -21.5 -197.5t-37.5 -195.5q-45 -174 -108.5 -348.5t-174.5 -321.5q-39 -51 -90 -101.5t-110.5 -88t-126.5 -55.5q-41 -10 -81 -10q-29 0 -57 5q-18 2 -50 11t-60.5 24.5t-47 38t-10.5 51.5zM313 698z" />
<glyph unicode="Z" horiz-adv-x="1310" d="M-101 224q-1 15 -1 30q0 36 5 74q7 54 17 98.5t19.5 74t11.5 31.5q18 39 42.5 82t55.5 83t63.5 75t65.5 59q25 20 49.5 38t51.5 36q-16 16 -32 31.5t-30 34.5q-6 6 -15 14t-16 16q-10 10 -33.5 3t-46.5 -11q-4 0 -20 5.5t-6 13.5q20 20 59 35.5t64 19.5q21 3 42 3 q37 0 71 -9q54 -14 106 -35q16 -8 24 -10q43 27 87.5 51.5t89.5 46.5q35 18 67.5 34.5t67.5 35.5q-14 0 -27.5 -1t-25.5 1q-68 2 -133.5 8t-131.5 25q-53 14 -111.5 41.5t-101.5 67.5t-61 94q-8 23 -8 47q0 34 14 73q4 8 17.5 5t15.5 -11q14 -59 39.5 -115.5t85.5 -83.5 q43 -18 85 -20q21 -1 43 -1t46 1q63 2 129.5 15t133.5 28.5t134.5 30t134.5 18.5q8 1 16 1q42 0 90 -18q58 -20 87 -61q16 -25 9 -42t-26 -27q-2 -43 -31.5 -82t-71.5 -71t-87 -56.5t-78 -42.5q-72 -39 -140.5 -76t-137.5 -78q4 -4 6 -5t6 -5l8 -8q4 -4 8 -7.5t8 -7.5 q25 -10 47.5 -27.5t30.5 -34t-3 -30.5t-52 -16q-19 -1 -38 -1q-43 0 -81 6q-56 9 -108 32q-76 -45 -156 -92.5t-135 -112.5q-6 -8 -39 -44t-66.5 -90.5t-58.5 -122.5q-17 -48 -17 -96q0 -21 3 -42q0 6 24.5 12t77.5 32.5t137 85t203 171.5q125 119 284.5 194.5t338.5 85.5 q11 1 23 1q29 0 60 -4q44 -5 87 -17.5t81.5 -31.5t69.5 -50q27 -29 41 -53q12 -21 12 -56v-10q0 -12 -13 -29.5t-29.5 -34t-33 -32t-22.5 -25.5q-8 -16 -31.5 -9t-27.5 21q-18 45 -52 77t-69 63q-80 -16 -152.5 -52t-140.5 -81q-76 -49 -149.5 -99.5t-149.5 -95.5t-157 -83 t-171 -60q-68 -16 -144 -20q-10 -1 -19 -1q-65 0 -127 27q-41 18 -59.5 58t-21.5 90zM678 844l2 -2z" />
<glyph unicode="[" horiz-adv-x="589" d="M2 2q12 137 17.5 272.5t0.5 270.5q-4 135 1.5 270t9.5 272q2 66 3 133.5t3 133.5q0 53 1 102t34 94q14 20 41.5 27.5t58.5 7.5t60.5 -5t52.5 -5q61 -4 125.5 -13.5t126.5 -2.5q4 0 16 -2.5t21.5 -7.5t13.5 -11t-6 -12q-35 -18 -69 -35.5t-73 -22.5q-41 -4 -82 -6l-82 -4 q-4 -25 -3 -49.5t-1 -52.5q-4 -49 -5 -99.5t-5 -101.5l-12 -393q-2 -104 -15.5 -206.5t-17.5 -207.5q-4 -78 -7 -154.5t-7 -154.5q16 4 26 6q99 21 197 -10q10 -4 26.5 -10.5t30 -15.5t22.5 -22.5t3 -27.5q-6 -16 -20.5 -22.5t-32 -8.5t-35 1t-27.5 5q-31 6 -59.5 -4 t-57.5 -14q-96 -12 -192 10q-12 2 -27.5 9.5t-28 16.5t-20.5 21.5t-6 28.5z" />
<glyph unicode="\" horiz-adv-x="583" d="M1 1482.5q-3 20.5 3 37.5q6 20 28.5 26t49.5 1t50.5 -15t31.5 -21q29 -35 42 -78.5t27 -89.5q14 -47 28.5 -95t29.5 -95q29 -88 53.5 -176t48.5 -176q23 -76 44 -149.5t44 -149.5q31 -98 57.5 -192.5t34.5 -196.5q10 -29 9.5 -49.5t-31.5 -24.5q-14 -2 -32.5 5t-22.5 24 q-35 115 -78 226.5t-78 225.5q-25 76 -47.5 150.5t-50.5 148.5q-35 90 -70 178t-68 181q-16 47 -32.5 95t-32.5 95q-6 16 -14.5 35.5t-14.5 39t-9 40z" />
<glyph unicode="]" horiz-adv-x="583" d="M1 -2.5q3 8.5 10 13.5t18.5 8.5t19.5 3.5q41 4 79 -1.5t75 -13.5q14 -4 32.5 -10t39 -11t40 -6t35.5 7q-16 43 -15 90t5 94q2 47 4 96t6 97q8 104 10 204.5t5 202.5q4 92 6 182t6 183q4 86 6 175t14 177q-76 4 -152.5 7t-152.5 -3q-6 0 -19.5 7t-0.5 11q92 33 185 40.5 t187 25.5q12 2 36 0t47.5 -8t40 -19.5t16.5 -31.5q-2 -106 -14.5 -212t-16.5 -212q-4 -92 -4 -181.5v-181.5q-2 -100 -5 -198.5t-9 -196.5q-4 -53 -5.5 -104.5t-3.5 -104.5q0 -20 1 -45t1 -48.5t-4 -46t-14 -40.5q-14 -25 -49 -25q-47 2 -91 4t-91 8q-37 4 -77 7.5t-79 -4.5 q-29 -6 -64.5 4t-52.5 36q-8 12 -5 20.5z" />
<glyph unicode="^" horiz-adv-x="466" d="M4 1221q-8 27 7.5 56.5t27.5 51.5q16 33 32.5 63.5t32.5 63.5q18 37 45 71t44 70q12 27 41.5 29t58.5 -4q6 0 11 -1t11 -3q8 -2 22.5 -8t28 -14.5t21.5 -19.5t4 -26q-4 -14 -2 -33.5t6 -39t11.5 -38t11.5 -30.5q10 -33 23.5 -63.5t23.5 -63.5q2 -4 -2 -5t-10.5 -1 t-11.5 2t-7 4q-41 35 -76.5 76t-66.5 86q-4 8 -10 14q-16 -16 -35 -28q-18 -14 -35.5 -30t-34.5 -32q-23 -23 -45 -45.5t-45 -44.5q-6 -6 -13 -15.5t-15.5 -18.5t-16.5 -17t-14 -8q2 0 6 -1t2 -4q-8 -6 -17.5 -5t-13.5 12z" />
<glyph unicode="_" horiz-adv-x="1150" d="M3.5 46q-9.5 15 12.5 20q80 14 153 44.5t157 34.5q59 4 116.5 3t116.5 -3h58t90.5 1t105.5 0t104.5 -4t88 -7t55.5 -12q4 0 10 -1t10 -1q6 -2 20.5 -6t28 -12.5t19.5 -17.5t-4 -22q-4 -4 -9.5 -9t-7.5 -9q-6 -23 -30.5 -30t-44.5 -7q-53 -2 -150.5 -2t-205 1t-205 1 t-150.5 -2q-74 -4 -159 -5t-156 26q-14 4 -23.5 19z" />
<glyph unicode="`" horiz-adv-x="184" d="M2 1413q0 16 15.5 26.5t35 13.5t39 1t29.5 -8q31 -25 41 -68t14 -78q4 -20 6 -39.5t2 -39.5q-2 -4 -2 -11.5t-4 -11.5t-11 -5t-11 -5q-2 -2 -5.5 -3t-0.5 3q-2 -8 -8.5 -5t-14.5 10t-15 14l-6 7q-10 16 -19 32t-19 32q-10 20 -17.5 39.5t-21.5 36.5q-29 29 -27 59z" />
<glyph unicode="a" horiz-adv-x="882" d="M-31 408q-1 14 -1 29q0 32 6 66q8 50 23 100t35.5 96t41.5 87q49 96 122.5 172t159.5 136q39 27 87.5 57.5t100.5 53t105 31.5q23 4 45 4q30 0 58 -7q43 -12 67.5 -35.5t30.5 -52.5t-7.5 -60.5t-45.5 -60.5q-4 -4 -18.5 -2t-10.5 10q2 8 9 34t9 48q-12 -4 -25 -9t-24 -9 q-27 -14 -52.5 -27.5t-49.5 -30.5q-66 -41 -124 -89t-105 -107q-43 -55 -71 -113.5t-50 -126.5q-6 -18 -11.5 -37.5t-9.5 -40.5q12 12 19 17q41 37 83 72.5t83 72.5q84 72 170 138.5t180 125.5q8 6 25.5 4t33.5 -8t25.5 -16t1.5 -23q-29 -37 -56.5 -76.5t-40.5 -85.5 q-16 -55 -43.5 -103t-50.5 -101q-10 -23 -20 -46.5t-15 -45.5q-4 -20 -4 -41t-4 -39q-2 -4 -4 -11.5t-2 -13.5q6 2 12.5 4t12.5 4q25 10 45 25.5t41 34.5q4 4 15 4t22.5 -3t17.5 -10.5t0 -15.5q-33 -43 -93 -73q-48 -24 -94 -25q-12 0 -24 2q-33 6 -67.5 21.5t-62.5 39.5 q-28 26 -42 58q-9 21 -9 43q0 13 3 28q4 14 7 26.5t9 24.5q-33 -39 -63.5 -75.5t-64.5 -65.5t-76 -47t-97 -20q-16 0 -43.5 4t-54.5 14t-47.5 26.5t-22.5 39.5z" />
<glyph unicode="b" horiz-adv-x="847" d="M-23 432q33 160 65 323t87 318q41 106 90 207.5t96 206.5q18 39 39 86t46.5 90t58.5 77t80 50q34 12 63 12q37 0 69 -19q56 -34 74 -110q2 -6 -3 -7t-12 0t-13 4t-8 5q-8 10 -14.5 15.5t-10.5 9.5q0 -8 -2 -12q-10 -33 -24.5 -64t-28.5 -61q-29 -66 -52.5 -133.5 t-54.5 -133.5q-53 -109 -93 -218t-75 -222q76 86 159 148.5t192 105.5q23 10 56.5 1t43.5 -36q43 -110 43 -215q0 -40 -6 -80q-22 -143 -103 -280q-33 -57 -78 -88t-97 -48.5t-110.5 -28.5t-115.5 -26q-6 -2 -25.5 3t-13.5 16q18 39 45 72.5t55.5 67.5t56 67.5t48.5 72.5 q51 96 99 197.5t75 208.5q-78 -41 -144.5 -109.5t-119.5 -132.5q-39 -49 -71 -103.5t-60 -107.5q-4 -6 -8.5 -13t-8.5 -16q-10 -37 -17 -73.5t-18 -73.5q4 -23 -9 -36t-38 -17q-20 -4 -32 -4q-18 0 -50 6t-61 18.5t-49.5 31.5t-14.5 48z" />
<glyph unicode="c" horiz-adv-x="827" d="M-23 399q-2 23 -2 47q-1 44 7 92q12 72 36.5 141t60.5 132t81 115q39 43 81 85t87 79q47 37 103 77.5t116 51.5q27 6 78 7h10q46 0 90 -8q49 -10 80 -36q22 -19 22 -49q0 -13 -4 -27q-16 -68 -64 -136.5t-95 -117.5q-4 -4 -14.5 -1t-10.5 9q0 29 8 56.5t19.5 56 t22.5 56.5t16 56q2 4 2 10.5t2 10.5q-23 -16 -43.5 -33.5t-42.5 -36.5q-70 -59 -138.5 -125.5t-117.5 -144.5q-49 -76 -79 -159t-40 -171q10 4 21.5 9.5t21.5 11.5q35 16 68.5 35.5t68.5 35.5q66 33 135.5 61.5t134.5 65.5q4 2 14.5 -2t6.5 -10q-27 -37 -59.5 -66.5 t-69.5 -54t-75 -48t-75 -50.5q-70 -49 -148 -87q-60 -29 -124 -29q-20 0 -41 3q-16 2 -41 8.5t-48.5 16.5t-41 26.5t-19.5 36.5zM702 1157q-1 -4 5 -12q-4 16 -5 12z" />
<glyph unicode="d" horiz-adv-x="952" d="M-56 640q10 80 36 146q25 68 59.5 143t82.5 137t110.5 104t146.5 47q8 1 16 1q51 0 97 -23q54 -26 79 -79q12 -25 14.5 -53.5t-4 -58t-16.5 -57t-20 -52.5q-4 -6 -15.5 -3t-13.5 9q-2 53 -14.5 105.5t-44.5 95.5l-2 2q-14 -8 -25 -23q-31 -37 -54.5 -82t-45.5 -88 q-27 -47 -50.5 -95t-41.5 -99q-16 -49 -28 -103q-6 -29 -5 -58q0 -24 4 -48q29 6 57.5 13t50.5 18q55 25 97.5 63.5t89.5 77.5q4 4 11 4h15q8 23 11 39q31 147 61.5 292.5t67.5 291.5q16 63 36.5 125.5t34.5 126.5q10 41 25.5 77.5t44.5 67.5q18 18 54 24q14 2 28 2 q21 0 39 -6q31 -8 44 -26.5t-13 -46.5q-4 -4 -11 2q-10 23 -8 20.5t-2 -26.5q-2 -14 -2 -27.5t-2 -28.5q-2 -27 -1 -53.5t-1 -52.5q-2 -104 -23.5 -210t-38.5 -210q-16 -111 -38.5 -218.5t-42.5 -217.5q-6 -23 -11.5 -47.5t-9.5 -49.5q8 -8 6 -14q-4 -8 -8 -15t-8 -16 q-2 -12 -4 -23t-4 -24q-4 -29 -17.5 -40t-34.5 -21q-8 -8 -20 -10t-23 -4q-18 0 -44.5 6t-52 19t-45 31.5t-21.5 41.5q-4 25 0 55q-12 -23 -24.5 -45t-25.5 -45q-16 -29 -44.5 -45t-61.5 -24.5t-67.5 -10.5t-63.5 0q-74 4 -143.5 40t-100.5 106q-23 49 -23 107q-1 19 2 39z M467 1110h2h2h-4z" />
<glyph unicode="e" horiz-adv-x="761" d="M-30 626q5 56 21.5 109t41 104.5t51.5 98.5q27 49 62.5 100.5t78.5 95.5t93.5 75.5t109.5 37.5q31 20 62.5 32.5t66.5 16.5q10 1 22 1q31 0 67 -8q50 -11 90 -37.5t58 -66.5q7 -16 6 -33q0 -27 -16 -58q-27 -53 -67.5 -98.5t-81.5 -91.5t-73 -95t-40 -111q-2 -12 -15 -16 t-24 -4q-53 4 -103 11t-104 13q-17 2 -32 2q-22 0 -37 -4q-23 -59 -39 -131q-6 -27 -11 -63q-1 -9 -1 -17q0 -26 12 -47q18 -29 38.5 -30.5t51.5 8.5q92 29 175 93.5t124 150.5q2 4 6 3t4 -5q8 -23 4 -45.5t-15 -44t-27.5 -42t-30.5 -34.5q-39 -43 -86 -80t-103 -60 q-40 -15 -85 -15h-15q-53 3 -100.5 24.5t-83.5 59.5t-48 91q-8 39 -8 78q0 16 1 32zM225 750q27 3 56 3q14 0 28 -1q43 -2 80 -2q-2 15 -2 31q-1 29 7 57q12 43 33.5 81.5t50 75.5t57.5 72q12 14 33.5 39.5t31.5 52.5q-86 -53 -160.5 -125.5t-146.5 -142.5q-37 -72 -68 -141 z" />
<glyph unicode="f" horiz-adv-x="1044" d="M-230 13q-2 9 -2 19q0 28 19 60q4 8 17.5 4t13.5 -12v-6q0 -35 24 -64q25 -30 62 -48q33 -15 68 -15h8q40 2 67 29q61 63 93 146t53 169q29 117 44 234.5t33 238.5q4 16 5 33.5t6 34.5q-41 10 -83 14q-12 1 -23 1q-28 0 -52 -7q-33 -10 -53 -37q-19 -25 -19 -69v-9 q0 -10 -14 -7t-17 11q-15 40 -15 70q0 22 8 40q18 42 59 65.5t96 31.5t108 8h25q18 92 46 179t69 167q27 53 61.5 103.5t87.5 79.5q37 19 82 19h5q48 -1 89 -13q-10 2 -6 2t12.5 -2t17.5 -4t13 -2q25 -6 49 -19q0 8 -2 12q-6 20 8.5 31.5t40 16t57.5 1.5t60.5 -12.5t47 -26 t20.5 -38.5v-9q0 -55 -21 -107q-24 -58 -45 -114q-10 -27 -23.5 -54.5t-26.5 -56t-21.5 -57t-8.5 -57.5q0 -6 -6 -5t-10 3q-51 35 -79 99q-22 52 -22 102q0 11 1 22q4 31 11 64t15 67q-47 -39 -81.5 -89t-59.5 -106.5t-43 -115.5t-35 -117q35 -6 69 -11t68 -9h2h19h8 q4 2 14 2h24.5t22.5 -2q16 -2 53.5 -14.5t69 -31t48 -44t-10.5 -51.5q-23 -25 -59 -32q-31 -6 -65 -6h-10q-40 1 -80 7t-66 12q-37 6 -73 13.5t-73 15.5q-18 -84 -37.5 -166t-46.5 -162q-23 -70 -52.5 -156t-70.5 -165.5t-98 -143t-135 -90.5q-29 -10 -72 -10t-89 10 t-88 28.5t-69.5 45t-36.5 62.5z" />
<glyph unicode="g" horiz-adv-x="886" d="M-194 139q-4 21 -4 41q0 28 8 56q2 4 12 2t10 -9q2 -37 19.5 -81t44 -87t62.5 -78.5t76 -54.5q36 -18 74 -18h8q42 2 83 37q57 47 96 106.5t64.5 126t45 136t37.5 139.5q2 6 7 22q-45 -33 -98.5 -33t-103.5 24t-89 65.5t-54 91.5q-14 46 -14 94q0 14 1 27 q5 63 24.5 123.5t49.5 117.5t60 107q33 51 74 96t89 71.5t106 29.5h10q53 0 112 -27q12 -6 34 -17.5t37 -28t21.5 -35t-12.5 -36.5q-14 -16 -34.5 -21.5t-43.5 -5.5q-2 -4 -4 -5t-2 1q-12 -10 -24.5 -22.5l-24.5 -24.5q-33 -35 -61.5 -74t-52.5 -80q-18 -33 -41 -73.5 t-40.5 -84.5t-25.5 -88q-5 -25 -5 -49q0 -17 3 -34q0 -4 1 -6t1 -7q41 23 75 54.5t66 64.5q14 12 28.5 26.5l31.5 31.5q25 59 52.5 115.5t43.5 115.5q10 33 17.5 61.5t27.5 57.5q20 27 64 28h7q40 0 64 -6q84 -23 111 -82q13 -31 13 -67q0 -33 -11 -70q-23 -68 -54.5 -130 t-60.5 -128t-51.5 -131t-44.5 -135q-20 -68 -45 -136.5t-57.5 -132t-75.5 -121t-103 -102.5q-51 -37 -114.5 -59.5t-129.5 -23.5h-7q-63 0 -123 18q-64 20 -113 65q-33 31 -63.5 71t-52 86t-31.5 95z" />
<glyph unicode="h" horiz-adv-x="829" d="M-62 426q14 90 37 172q25 94 51.5 187.5t55.5 187.5q16 61 40.5 121.5t43.5 122.5q16 59 34.5 116.5t37.5 114.5q14 41 28.5 85t36 84t50 72.5t69.5 53.5q18 8 62 5t84 -17.5t61.5 -38t-0.5 -54.5q-23 -31 -37.5 -71.5t-28.5 -75.5q-18 -49 -36.5 -96t-43.5 -95 q-16 -35 -34.5 -69.5t-36.5 -69.5q45 22 94 22h4q51 -1 104 -40q51 -37 74 -93t30 -120q4 -37 4 -75q0 -27 -2 -55q-5 -66 -9 -118q-9 -82 -23 -164q-11 -64 -11 -127q0 -17 1 -35q2 -18 4 -44.5t7 -55.5t14.5 -52.5t25.5 -35.5q-6 4 -1 8t13.5 8t17.5 7.5t13 5.5 q12 6 23.5 14t21.5 18q16 16 29.5 34t30.5 34q6 8 24.5 3t16.5 -15q-4 -45 -22.5 -83t-47.5 -66q-29 -26 -68 -40q-30 -10 -63 -11q-10 0 -19 1q-55 6 -101 31.5t-82 63.5t-59.5 86t-31.5 100q-9 67 -9 135v14q1 74 10 148.5t23.5 149.5t26.5 147q6 29 9 58.5t8 59.5v11 q-23 -14 -43.5 -33t-34.5 -33q-80 -78 -142 -166q-57 -80 -108 -166t-92 -178q-18 -37 -35 -80t-41 -80q-8 -25 -12 -51.5t-9 -52.5q-2 -6 -11 -3t-11 7q-19 55 -19 113q-1 29 4 59z" />
<glyph unicode="i" horiz-adv-x="432" d="M3 528q5 45 17 86q23 74 50.5 145.5t60.5 143.5q23 51 54 95.5t51 95.5q4 8 7 16t3 18q-6 -4 -13.5 -6t-13.5 -6q-20 -10 -39.5 -21.5t-38.5 -23.5q-10 -6 -26.5 -13t-24.5 -18q2 -6 -11 -6t-18 2q-23 12 -15.5 34t28 44.5t45 41t35.5 24.5q41 22 85 22q19 0 39 -4 q64 -14 109 -63q37 -41 42 -86q1 -12 1 -25q0 -32 -9 -66q-13 -46 -36 -91.5t-39 -86.5q-35 -90 -63.5 -180t-55.5 -182l-13 -39t-13 -49q25 6 47 30q23 27 41 47.5t51 32.5q8 4 26.5 -1t14.5 -17q-18 -53 -48 -96t-85 -62q-23 -7 -47 -7l-35 4q-41 9 -76 32 q-39 27 -59.5 64.5t-26.5 81.5q-3 24 -3 48q0 21 2 41zM171 326q-1 -2 5 0q-4 2 -5 0zM248 1479q4 23 12 41q10 18 24.5 22t34.5 2q16 0 41 -9t35 -26h2q23 -4 43.5 -18t28.5 -37q4 -12 4 -23q-1 -25 -19 -41q-26 -24 -63 -24q-25 0 -52.5 5t-49 19.5t-34.5 36t-7 52.5z M352 1434q0 2 1 2t1 2h-2v-4z" />
<glyph unicode="j" horiz-adv-x="544" d="M-412 -321.5q4 4.5 12.5 5.5t16.5 0t12 -3q31 -15 59 -15q11 0 21 2q37 8 67.5 33t57.5 59.5t47 67.5q78 121 140.5 248t115.5 262q55 145 102.5 291t96.5 293q18 53 34.5 108t30.5 111q6 23 12.5 46t8.5 46q-55 -2 -107.5 -21.5t-72.5 -70.5q-2 -4 -5.5 -3t-3.5 3v7 q0 38 19 64q22 29 56 46.5t73 25.5t74 8q20 0 43.5 -8t31.5 -31q14 -36 14 -76q0 -34 -3 -83q-2 -133 -35 -271q-76 -340 -215 -651q-31 -68 -63.5 -136.5t-72.5 -133t-88.5 -121.5t-109.5 -103q-39 -31 -87 -52t-98 -26q-14 -2 -27 -2q-36 0 -71 12q-47 15 -84 58 q-6 6 -2 10.5zM371 1520q4 23 12 41q12 25 44 35q18 6 37 6q14 0 28 -4q34 -7 63 -32.5t37 -70.5q1 -8 1 -16q0 -30 -19 -49q-23 -23 -60 -23q-25 0 -52.5 5t-49 19.5t-34.5 36t-7 52.5z" />
<glyph unicode="k" horiz-adv-x="987" d="M-66 242q0 8 15 8q-13 78 -13 157q0 31 2 61q7 110 29.5 219.5t55 216t63.5 210.5q29 94 58.5 186.5t76.5 178.5q18 35 42 75.5t52.5 77.5t63.5 63.5t78 35.5q16 2 49 0t63.5 -13.5t51 -30t14.5 -45.5q-8 -35 -45 -63.5t-60 -56.5q-27 -35 -50 -70t-46 -74 q-45 -82 -86 -166t-76 -170q-23 -51 -40 -103t-33 -105q35 10 70.5 15t64.5 11q20 4 50 7t60.5 8.5t57 14.5t43.5 25q18 20 29.5 52t14.5 68q1 15 1 31q0 21 -2 41q-4 36 -17 64q-10 -2 -18 -4t-18 -4q-4 -4 -14.5 -4t-19.5 2t-16.5 7.5t-3.5 13.5q21 49 69 62q26 7 54 7 q24 0 48 -5q54 -11 100.5 -41.5t64.5 -69.5q15 -28 15 -58q0 -17 -4 -33q-12 -48 -43 -89.5t-74 -73t-82 -45.5q-51 -16 -102.5 -23.5t-104.5 -11.5q14 -10 27.5 -20.5t25.5 -24.5q98 -100 155.5 -215t108.5 -244q23 -55 47.5 -113.5t55 -114t69.5 -105.5t88 -87 q33 -26 76 -26q2 1 5 1q46 2 89 25q86 45 126 111.5t67 156.5q4 10 18.5 5t16.5 -13q17 -51 17 -105q0 -24 -4 -50q-12 -82 -50 -148q-16 -29 -44 -49.5t-60.5 -32.5t-68.5 -16t-67 -4q-147 4 -268 76.5t-201 195.5q-72 111 -126 236t-93 252q-8 25 -14 49t-8 51 q0 33 -2 71.5t-19 67.5q-29 47 -65 51q-7 1 -16 1q-31 0 -68 -13q-37 -10 -66 -20q-39 -145 -72.5 -291t-87.5 -287q-2 -8 -16 -8q-39 2 -51.5 22.5t-12.5 55.5z" />
<glyph unicode="l" horiz-adv-x="630" d="M-162 272q31 92 55.5 161t48 128.5t48 114.5t54.5 122.5t66.5 154.5t86.5 206q37 86 81 168t91 160q12 23 27.5 50.5t35 54t42 48t48.5 29.5q23 8 49.5 7t50 -11t40 -29.5t16.5 -48.5v-8q0 -73 -33 -147q-35 -78 -72 -144t-77.5 -131t-87.5 -127q-55 -129 -88 -216 t-61 -160.5t-58.5 -148.5t-79.5 -179q16 10 45 28.5t59.5 40t58 41t42.5 29.5q4 2 14 3t20.5 -2t17.5 -8t3 -14q-27 -53 -62.5 -97t-85.5 -79q-41 -29 -83 -62.5t-91 -43.5q-18 -4 -59 0t-81 17.5t-65.5 37t-15.5 55.5zM434 1182q16 29 30.5 56.5t29.5 55.5q14 31 32.5 68 t33.5 76q16 40 24 78q6 26 5 51q0 12 -1 24q0 10 -2 17q-26 -31 -51 -78q-37 -82 -60.5 -169t-40.5 -179z" />
<glyph unicode="m" horiz-adv-x="1132" d="M-106 272q43 168 102 336t147 322q27 47 57.5 91t53.5 93q6 12 11 29.5t4 32t-11 22.5t-35 2q-29 -8 -57.5 -20.5t-52.5 -30.5h-7.5t-3.5 4q32 47 86 69q26 10 51 10q28 0 56 -13q29 -14 41 -38t14 -52.5t-5 -58.5t-15 -54q-16 -51 -31.5 -102.5t-32.5 -102.5q2 4 8 10 q66 86 139.5 153.5t172.5 112.5q16 8 39.5 1t31.5 -25q23 -55 23 -112.5t-12 -114.5q10 14 20 27.5t21 27.5q61 80 130.5 148.5t168.5 105.5q14 4 39.5 0t29.5 -25q11 -72 17 -144q3 -32 3 -66q0 -40 -5 -81q-6 -70 -16.5 -137t-20.5 -137q-4 -35 -6 -69.5t-7 -69.5 q12 10 23.5 21.5l21.5 21.5q6 8 27.5 1.5t15.5 -16.5q-12 -25 -24 -49t-29.5 -43.5t-40 -31t-53.5 -7.5q-25 2 -51.5 15.5t-49 34t-38 45t-17.5 51.5q-4 34 -4 68q-1 45 7 89q14 78 36 154q25 80 57.5 157t59.5 154q-29 -16 -53.5 -36.5t-46.5 -40.5q-78 -72 -146 -162 q-29 -37 -56.5 -76t-53.5 -78q-23 -68 -37 -125q-14 -55 -28.5 -110.5t-24.5 -112.5q-4 -16 -8.5 -37.5t-16.5 -34.5q-23 -23 -60 -23l-2 1q-38 0 -65 6q-12 4 -31.5 12t-37 20.5t-27.5 28t-4 33.5q4 16 8 34.5t8 37.5q23 106 59 207q25 63 55.5 121.5t63.5 117.5 q23 43 45.5 83t38.5 85q-41 -16 -80 -45t-73.5 -64.5t-64.5 -73.5t-54 -71q-16 -23 -30.5 -44t-31.5 -44q-35 -117 -67.5 -234.5t-67.5 -236.5q-8 -27 -43 -31q-10 -1 -21 -1q-26 1 -52 7q-38 10 -65.5 31t-18.5 47z" />
<glyph unicode="n" horiz-adv-x="1001" d="M-39 346v14q-1 77 19 153q22 83 56 165t74 159.5t76 149.5q12 27 32 52.5t37 53t29.5 56.5t14.5 59q0 25 -7 35t-20.5 11t-31 -3t-33.5 -8q-25 -6 -48.5 -13t-45.5 -16q-4 0 -9.5 1.5t-3.5 5.5q14 20 39 37.5t54.5 29.5t58.5 16.5t53 -4.5q79 -27 103 -86q15 -36 14 -78 q0 -27 -6 -57l-25 -98q33 35 65.5 65.5t67.5 59.5t69 56.5t71 54.5q23 16 52 41.5t58 31.5q25 4 54.5 -14.5t43.5 -36.5q23 -31 42.5 -66.5t21.5 -72.5v-20q0 -40 -6 -75q-8 -44 -20.5 -84t-26 -79t-23.5 -80q-20 -82 -49 -163t-39 -165q-4 -18 -4 -36.5t4 -35.5 q4 -10 6 -13t4 -7q41 6 80 28.5t72 51.5q6 4 18.5 4t23.5 -3t19.5 -9t3.5 -15q-16 -47 -39.5 -91t-70.5 -70q-29 -16 -61 -20q-10 -1 -21 -1q-22 0 -44 5q-34 7 -65.5 20.5t-56.5 27.5q-51 29 -73.5 72t-25.5 92q-1 9 -1 18q0 40 11 84q13 52 34 99q25 53 52.5 104.5 t51.5 104.5q29 59 63.5 112.5t61.5 112.5q8 20 14.5 46t6.5 50.5t-8.5 46t-26.5 37.5q-104 -66 -198.5 -144.5t-182.5 -166.5q-16 -16 -31.5 -32.5t-32.5 -33.5l-98 -282t-59 -291q-2 -29 -39 -35q-15 -2 -31 -2q-24 0 -50 5q-44 9 -81 29.5t-37 49.5z" />
<glyph unicode="o" horiz-adv-x="784" d="M-28 574q12 67 24 128q14 70 35.5 135.5t46 131t48.5 132t40 134.5q6 25 34.5 29t59.5 -5.5t56.5 -29t25.5 -41.5q-2 -51 -24.5 -101.5t-43.5 -95.5q-29 -59 -57.5 -117.5t-56.5 -115.5q-29 -59 -52.5 -117.5t-25.5 -124.5q0 -35 13.5 -76t45.5 -59q10 2 27 2 q37 0 69.5 15.5t62.5 39t54.5 51t44.5 56.5q47 63 86 134t70 144q17 43 33 105q14 55 14 110v14q-2 62 -27.5 110t-89.5 65q-16 4 -37.5 7t-41 11t-29.5 21.5t-4 36.5q2 10 19.5 6t19.5 -13q0 -16 15 -23t35.5 -10t42 -4.5t34.5 -3.5q47 -10 93 -45.5t75 -76.5 q77 -103 76 -228q0 -122 -46 -233q-37 -92 -91 -179t-134 -149q-41 -31 -87 -53.5t-95 -31.5q-28 -5 -55 -5q-21 0 -43 3q-50 7 -95 36q-53 23 -101 57.5t-61 93.5q-8 35 -8 70q0 30 5 60z" />
<glyph unicode="p" horiz-adv-x="856" d="M-98 -232q-1 8 -1 16q0 54 9 108q10 63 27.5 124.5t33.5 118.5q35 123 73 243t75 243q37 117 79 228.5t83 227.5q6 18 17 47t18.5 59.5t8.5 59.5t-14 47q-6 6 -26.5 -1t-43 -19.5t-42 -25.5l-25.5 -17q-4 -4 -14 0t-6 10q18 29 44.5 52.5t57.5 34.5t62.5 6t62.5 -34 q33 -31 46 -73.5t13 -91t-9 -99.5t-21 -98q47 92 97 180t120 162q14 25 41 39q4 4 7 6t7 6q12 10 39 3t37 -19q39 -16 66.5 -51t29.5 -78v-31q0 -114 -26 -229q-29 -131 -70 -250q-29 -84 -71 -171t-107 -151q-53 -53 -118 -59q-8 -1 -17 -1l-113 36q-31 23 -47 47 q-12 -47 -24.5 -95.5t-27.5 -95.5q-18 -68 -35.5 -144.5t-41 -151t-58.5 -143.5t-86 -120q-16 -16 -47 -6t-39 31q-23 57 -24 120zM319 516q4 -10 9.5 -21.5t9.5 -23.5q4 -16 14 -45t24.5 -50.5t31 -24.5t30.5 32q16 37 22.5 75t10.5 77q6 51 22.5 100t28.5 98 q23 88 33.5 176t24.5 176q-39 -59 -72 -122.5t-64 -122.5q-27 -47 -49 -96.5t-47 -98.5q-6 -33 -13 -64.5t-16 -64.5z" />
<glyph unicode="q" horiz-adv-x="671" d="M-28 605q-2 21 -2 42q0 56 12 113q18 78 51 152.5t63 136.5q37 70 85 142.5t126 106.5q35 14 78 22q27 6 54 6q15 0 31 -2q42 -5 77 -25.5t53 -59.5q8 -16 -2 -22.5t-25 -6.5q-16 -10 -34.5 -16t-34.5 -16q-23 -14 -42.5 -33t-35.5 -39q-39 -45 -66.5 -94t-58.5 -99 q-31 -51 -59.5 -103t-48.5 -108q-18 -49 -33 -112q-5 -22 -5 -43q0 -37 17 -70q2 0 2 -2q23 10 39 21q35 20 63.5 44.5t55.5 53.5q25 84 47 168t57 162q14 33 31.5 69.5t42.5 68.5t55.5 54.5t71.5 26.5q10 2 21.5 -1t15.5 -14q9 -23 9 -50q0 -9 -1 -18q-4 -38 -8 -69 q-6 -41 -11.5 -81t-11.5 -81q-14 -98 -40.5 -191t-53.5 -187q-35 -115 -70.5 -227.5t-60.5 -229.5q-4 -10 -5 -18.5t-3 -18.5q27 12 56 12q9 0 18 -1q40 -5 75 -40q12 -14 -4 -16t-22 2q-26 11 -49 11q-17 0 -33 -7q-35 -16 -58 -55q-16 -86 -30.5 -169t-36.5 -165 q-4 -12 -19.5 -15t-35 1t-36 13t-18.5 21q-25 104 -31 215q-2 43 -2 86q0 69 6 138q9 112 31.5 223t51.5 215q-35 -27 -70 -33q-15 -2 -31 -2q-36 0 -74 13q-55 18 -83 61q-45 63 -51 140z" />
<glyph unicode="r" horiz-adv-x="722" d="M-16 366.5q0 28.5 2 61.5q6 82 25.5 164t41.5 160q23 78 53.5 150.5t59.5 146.5q18 51 33.5 102t31.5 104q-37 -14 -55 -47q-4 -6 -17.5 -4t-13.5 10q-2 29 9.5 51.5t32 38t45 23.5t51.5 12h10q23 0 53 -7q36 -9 47 -40q16 -46 16 -92q0 -10 -1 -22q-5 -58 -21 -115 q29 35 62.5 62.5t72.5 48.5v2q8 35 15.5 72.5t25.5 68.5q8 12 23.5 16t34 4t36 -3t27.5 -5q29 -10 58.5 -26.5t39.5 -45.5q8 -20 4 -40.5t-14 -40t-21.5 -38t-19.5 -34.5q-10 -18 -16 -40t0 -42q6 8 37 0q6 4 20 0t8 -14q-10 -12 -10 -26.5t-14 -25.5q-20 -12 -56 -12 q-41 4 -78.5 19.5t-64.5 50.5q-10 12 -17.5 24.5t-11.5 28.5q-74 -61 -132 -138t-111 -159l-6 -12q-13 -31 -19 -62q-20 -78 -37.5 -160.5t-21.5 -164.5q-2 -25 0 -51.5t-8 -49.5q-14 -29 -51.5 -30.5t-63.5 4.5q-37 10 -56.5 27.5t-28.5 42t-9 53z" />
<glyph unicode="s" horiz-adv-x="876" d="M-186 543q2 4 6 3t4 -5q6 -29 25.5 -57.5t41.5 -49.5q47 -39 107 -51q45 -9 91 -9q15 0 31 1q64 4 125.5 18.5t114.5 30.5q47 14 97.5 34.5t92.5 51.5t70.5 72t32.5 94v9t-2 9q-4 0 -10 2t-12 2q-47 -4 -90 -12q-41 -8 -79 -19.5t-79 -15.5q-17 -2 -35 -2q-22 0 -46 3 q-42 5 -81 20.5t-71.5 41t-53.5 62.5q-16 30 -16 61q0 8 1 16q5 40 23.5 78t45 73.5t49.5 62.5q67 78 153 128q83 48 187 48h8q39 0 69 -14q4 4 7 4q14 12 30 18h-2q8 4 17 4q16 4 28 5q29 0 60 -7q16 -4 18 -6t-10 -2q23 -6 43 -16t33.5 -22.5t15.5 -26t-12 -27.5 q-18 -18 -41 -31.5t-41 -34.5q-18 -18 -31.5 -39.5t-30.5 -43.5q-23 -35 -45 -76t-55 -72q-4 -4 -14 0q-48 27 -66 81q-15 44 -15 90q0 10 1 20q-41 -41 -75 -84t-58 -84q-20 -31 -33.5 -65t-30.5 -64q-4 -8 -5 -12.5t-3 -8.5q10 0 19.5 1t19.5 1q45 2 89 8t87 10.5t86 4.5 t90 -9q31 -6 67 -24.5t65 -46.5q28 -28 44 -62q10 -22 9 -44q0 -13 -3 -27q-14 -57 -59 -96t-92 -66q-68 -37 -145 -61q-76 -24 -156 -34q-65 -8 -129 -8h-31q-80 2 -156 17q-61 12 -122.5 32.5t-112.5 59.5q-43 33 -51 70q-5 25 -5 56q0 15 1 32z" />
<glyph unicode="t" horiz-adv-x="638" d="M6 1143q-6 22 -6 40q0 19 7 35q13 30 41 48t66 24t74 6q8 25 15.5 49.5t13.5 49.5q9 41 23 85q12 38 12 74v11q0 23 17.5 30t40 3.5t44 -12.5t31.5 -17q31 -29 45 -68t16 -82q1 -12 1 -24q-1 -31 -5 -62q-6 -43 -16 -82q34 -7 65 -7q13 0 25 1q57 4 109.5 35.5t99.5 60.5 q8 4 27.5 3t39 -6t32 -15t5.5 -25q-23 -45 -50 -91t-72 -70q-55 -32 -120 -32h-4q-67 1 -128 11q-16 4 -31.5 6t-32.5 6q-29 -86 -56.5 -173t-55.5 -173q-23 -59 -42.5 -120.5t-35.5 -120.5q-6 -27 -12.5 -53.5t-6.5 -55.5q0 -10 2 -27.5t7.5 -35t13.5 -30.5t22 -15 q6 0 12 -1q45 -1 89 27q48 30 88 66q31 29 69.5 65.5t55.5 77.5h2v-7q-1 -41 -21 -82q-22 -44 -58 -81t-80 -64.5t-83 -39.5q-33 -10 -62 -10q-31 0 -57 11q-51 21 -86 67t-52 105.5t-19 116.5q-1 21 -1 41q0 130 33 248q23 82 51.5 160t51.5 160q-22 3 -45 3l-37 -2 q-41 -5 -60 -44q-2 -4 -7 -3t-5 5z" />
<glyph unicode="u" horiz-adv-x="804" d="M-45 449q-2 19 -2 39q0 36 7 72q11 56 33.5 109.5t49.5 105.5t51 102q25 53 54.5 102t58.5 100q14 25 27.5 53.5t17.5 57.5q2 12 -14.5 13t-38 -3t-42 -10t-28.5 -8q-2 0 -7 1t-3 5q8 23 26.5 36t42 20t47 8t44.5 -3q27 -6 45 -22.5t28 -39t13.5 -48t-0.5 -49.5 q-8 -57 -25.5 -110.5t-39 -106t-45.5 -103.5t-44 -102q-23 -50 -45 -108q-19 -50 -19 -97v-17q2 -10 4.5 -25t6.5 -28q4 0 17 -3t24 1q20 4 37.5 9.5t35.5 15.5q66 35 116 84t95 104q8 94 27.5 196.5t67.5 182.5q18 31 41.5 58.5t47 56t45 57.5t33.5 64q2 6 11.5 8t18.5 -1 t17.5 -8.5t8.5 -11.5q5 -24 5 -47t-5 -47q-10 -47 -19 -94q-12 -63 -29.5 -123.5t-27.5 -126.5q-10 -68 -20.5 -135t-20.5 -137q-4 -14 -4 -26.5t-2 -29.5q2 -4 2 -12q25 12 45 32.5t39 43.5q6 6 23.5 1t15.5 -16q-11 -61 -59 -98q-40 -30 -88 -30q-10 0 -21 1q-63 8 -98 42 t-48 83q-31 -31 -63.5 -57.5t-67.5 -48.5q-52 -35 -110 -53q-43 -14 -92 -14q-15 0 -31 1q-27 2 -54.5 12.5t-52 28t-42 41t-21.5 52.5z" />
<glyph unicode="v" horiz-adv-x="704" d="M0 407v18q0 37 6 76q8 48 20.5 95t20.5 88q18 86 37.5 169t36.5 169q6 35 12 74q3 17 3 33q0 21 -5 40q-6 35 -17.5 45.5t-45.5 -0.5q-4 0 -11.5 2.5t-7.5 6.5q-2 23 13.5 32t36 11t43 -2t34.5 -11q66 -25 102.5 -81t40.5 -125q2 -41 3 -83q0 -31 -2 -62q-3 -73 -11 -144 q6 8 13.5 16t13.5 17q57 63 125.5 113t132.5 106q29 27 52.5 62.5t27.5 76.5q1 9 1 17q-1 28 -11 46q-14 24 -31 58q-6 10 9 8t20 -6q29 -25 55 -49.5t45 -55.5q14 -25 13 -58.5t-5 -61.5q-6 -47 -23.5 -82t-42 -66t-56.5 -58.5t-64 -56.5q-61 -53 -118.5 -108t-113.5 -115 q-23 -20 -43 -41.5t-39 -44.5q-4 -29 -8 -54.5t-8 -53.5q-4 -45 -24.5 -71t-67.5 -30q-16 -2 -36 1t-40 11.5t-36.5 19.5t-24.5 26q-23 37 -25 83z" />
<glyph unicode="w" horiz-adv-x="1126" d="M-43 1092q18 48 72 77q63 35 131 54q23 6 45 11t47 1q6 0 23.5 -2t9.5 -2q8 0 22.5 -2t28.5 -7t24.5 -13.5t10.5 -20.5q2 -29 -15.5 -43.5t-46.5 -24.5q70 -61 76 -168q2 -14 2 -28q0 -22 -4 -44q-6 -36 -16 -71q49 86 102 171t119 161q8 10 26.5 11t37 -4t32.5 -15.5 t18 -22.5q29 -106 36 -206q2 -30 2 -61q0 -72 -11 -149q-2 -16 -4 -29.5t-4 -29.5q41 45 84 89t86 85q47 47 102.5 95t91.5 106q12 20 16.5 47.5t-1.5 52.5t-24.5 43t-49.5 23q-12 1 -23 1q-23 1 -47 -5q-34 -8 -69 -17q-2 0 -8.5 1t-12.5 3t-9 5t1 7q60 49 134 48q1 1 2 1 q75 0 136 -46q31 -23 49.5 -58t23.5 -75q2 -15 2 -31q0 -24 -5 -48q-8 -38 -29 -69q-63 -92 -141 -172t-160 -154q-39 -35 -73.5 -70.5t-65.5 -76.5q-10 -12 -23.5 -26.5t-23.5 -31.5q-6 -39 -27 -63q-13 -21 -43 -23q-7 -1 -14 0q-24 0 -50 6q-34 8 -62.5 24t-36.5 34 q-20 42 -20 86q0 8 1 16q4 52 12 105q6 47 13.5 95t15.5 95q8 41 17.5 80t19.5 76q-49 -66 -92 -129q-29 -41 -55.5 -83t-59.5 -81l-43 -154q-10 -35 -23.5 -75.5t-43.5 -63.5q-16 -12 -39 -14t-45.5 4t-42 19.5t-25.5 31.5q-10 27 -7 58.5t11 65.5t19.5 65.5t17.5 58.5 q16 59 28.5 118.5t28.5 119.5q17 60 31 120q6 25 6 50q0 35 -12 69q-8 20 -12 29q-35 -4 -65 -9.5t-51.5 -17.5t-31.5 -31.5t-4 -50.5q2 -6 -6 -4t-10 4q-32 36 -32 71q0 14 5 28z" />
<glyph unicode="x" horiz-adv-x="821" d="M-299 264q0 10 13.5 5t15.5 -11q10 -31 34.5 -38t53 -1t55.5 20.5t41 26.5q33 31 56.5 67t45.5 75q47 86 99.5 164.5t107.5 156.5q16 23 31.5 45.5t32.5 44.5q-8 43 -14.5 86t-12.5 86q-8 43 -12 88t-15 88q-15 47 -37 61q-14 9 -41 10q-15 0 -34 -3q-2 0 -9.5 3t-2.5 7 q37 21 73 23h11q29 0 58 -10q34 -12 63.5 -36t54.5 -55q27 -33 43 -67.5t28 -73.5q14 18 27.5 37.5t30.5 38.5q53 76 136 110q74 30 155 29h20q2 0 7 -2t11.5 -5t8.5 -7t-2 -6q-45 -29 -71 -69t-52 -85q-33 -53 -71 -100t-73 -97q-20 -27 -38.5 -52t-39.5 -54 q14 -61 30 -122.5t34 -121.5q12 -41 24.5 -82t28.5 -82q16 -37 40 -44t61 -3q4 0 15 -3t20.5 -8t14.5 -12t-3 -14q-33 -26 -69 -26h-4q-38 2 -75 17.5t-70.5 41t-58.5 49.5q-47 45 -77.5 102.5t-53.5 118.5l-129 -147q-31 -37 -64.5 -77t-71.5 -73.5t-82 -59t-93 -34.5 q-23 -4 -56.5 -4t-67.5 8.5t-57.5 25.5t-23.5 50z" />
<glyph unicode="y" horiz-adv-x="712" d="M2 640q-1 9 -1 18q0 41 15 84q19 51 52.5 100t62.5 88q37 47 72 98t51 111q6 18 5 35.5t-26 21.5q-15 2 -30 2q-41 0 -82 -12q-4 0 -12.5 3t-2.5 7q29 14 63 25.5t67 12.5h5q31 0 60 -12q31 -12 55 -40q30 -36 30 -83q0 -49 -18 -103q-16 -50 -41.5 -98t-43.5 -83 q-29 -53 -42.5 -105.5t-35.5 -105.5q-4 -8 -10.5 -21.5t-9.5 -23.5t2.5 -15t27.5 5q41 18 76 47q59 55 112.5 117.5t108.5 122.5q14 51 25 104q8 35 20 74.5t41 66.5q4 4 14.5 2t14.5 -8q59 -106 77 -225q7 -49 7 -99q0 -71 -15 -143q-27 -125 -49 -250t-57 -247 q-27 -98 -57.5 -192.5t-61.5 -192.5q-16 -57 -40.5 -124t-72.5 -110q-33 -29 -72.5 -43t-80.5 -14t-82 13t-74 42q-10 8 -24.5 26.5t-16.5 43.5t2 47t13 45q25 61 47 124.5t49 125.5q18 41 38.5 77.5t39.5 77.5q2 6 10 6t15 -2t13.5 -6t4.5 -10q-10 -35 -23.5 -68.5 t-26.5 -68.5q-10 -25 -21 -54.5t-21.5 -59.5t-16.5 -59.5t-4 -56.5q2 -23 4 -43t8 -43q16 25 30.5 54.5t23.5 50.5q59 150 105 306.5t87 311.5q23 86 42 172t42 175q-29 -29 -55.5 -56.5t-55.5 -52.5q-72 -59 -152 -65q-8 -1 -15 -1q-72 0 -138 60q-47 43 -51 93z" />
<glyph unicode="z" horiz-adv-x="927" d="M-104 521.5q6 27.5 23.5 54t39 48t39.5 38.5q59 53 127 97t133 85l8 6q72 43 137.5 94t131.5 105q16 12 32.5 25t32.5 28q2 0 2 2q-66 12 -129 31l-8 2q-6 0 -19 4q-20 6 -44.5 11t-47.5 5q-43 0 -59 -22q-16 -23 -20.5 -35.5t-6.5 -40.5v-8q0 -10 -1 -21.5t-7 -21.5 q-2 -2 -6 -5.5t-12 -3.5q-6 0 -12.5 2.5t-10.5 4.5q-102 68 -104 165q-2 33 18.5 53.5t47 33t50 18.5t29.5 6q14 4 27.5 4h29.5q53 0 106.5 -11t104.5 -28q52 -17 104 -29q44 -11 90 -10h15q48 28 93 28q15 0 30 -3q29 -6 38 -19.5t7 -23.5q0 -10 -9 -18.5t-26 -12.5 q-49 -49 -108 -63l-31 -25q-29 -23 -55.5 -44t-52.5 -44q-12 -10 -24.5 -19.5t-25.5 -19.5q-115 -94 -235 -168q-63 -39 -123.5 -76.5t-120.5 -78.5q35 -10 72 -26.5t69.5 -35t60.5 -37t46 -33.5q10 -12 27 -20q49 -41 101 -76t114 -35q35 0 61 9q41 14 78 46.5t39 67.5v5 q0 33 -49 55q-20 10 -23.5 19t-1.5 15q4 23 37 23q8 0 12 -2q47 -10 102.5 -43t84.5 -84q19 -34 19 -70q0 -22 -7 -45q-16 -49 -51 -77.5t-76 -45t-84 -21.5t-76 -5q-41 0 -80 6q-123 14 -223 71.5t-192 168.5q-27 31 -52.5 53t-48.5 39q-27 16 -53 8q-47 -43 -59 -84 q-4 -12 -19 -12q-4 0 -10 2t-10 8q-12 29 -6 56.5z" />
<glyph unicode="{" horiz-adv-x="630" d="M0 735q-2 8 6 17q27 29 55.5 55.5t53 55t42 61t21.5 75.5q4 45 -1 87t-11 85t-7 86t15 91q23 61 64 122.5t100 96.5q70 37 136 28.5t134 -24.5q8 -2 19.5 -12.5t-6.5 -14.5t-35 -25.5t-29 -33.5q-20 -20 -40.5 -40t-37.5 -42q-39 -51 -63.5 -113.5t-36.5 -126.5 q-12 -63 -27.5 -125.5t-40 -121t-60.5 -109.5t-91 -90q20 -10 38.5 -18.5t37.5 -18.5q12 -8 22 -19.5t10 -27.5q2 -29 -5 -61.5t-7 -63.5q0 -90 -6 -182q-2 -33 -5 -69t-3 -73t5 -71.5t23 -63.5q16 -29 43 -44t57.5 -20t62.5 3t56 30q8 6 23.5 2t13.5 -14q-6 -33 -17 -59.5 t-46 -40.5q-39 -16 -84 -12t-82 16t-75 29.5t-68.5 42t-52 57.5t-29.5 76q-16 86 -2 177t36 177q12 43 36 87t28 89v4q-4 0 -10 2l-31 13q-23 10 -44.5 17t-43.5 15q-6 2 -15.5 8.5t-16.5 14.5t-9 16z" />
<glyph unicode="|" horiz-adv-x="276" d="M2 -76q8 117 16.5 232.5t12.5 232.5q2 61 -1 122.5t-7 123.5q-4 55 0 110.5t6 110.5q6 115 4 227.5t14 227.5q8 49 11 105.5t32 101.5q16 27 31.5 42t38.5 35q6 6 17 7.5t21.5 -2t17.5 -10.5t5 -15q-4 -43 16.5 -81t24.5 -81q4 -53 10.5 -106.5t1.5 -106.5 q-12 -227 -18 -446q-4 -117 -17.5 -230.5t-17.5 -230.5q-6 -106 -9 -212t-9 -210q-2 -25 -34 -30t-70 3.5t-68.5 30t-28.5 49.5z" />
<glyph unicode="}" horiz-adv-x="653" d="M3 -58.5q-11 11.5 7 13.5q16 2 36 13.5t36 17.5q25 12 51.5 18t50.5 21q33 16 51.5 40.5t29.5 54.5t16.5 61.5t11.5 62.5q16 80 35.5 161.5t42.5 159.5q35 115 131 183q-16 16 -33.5 31.5t-40.5 25.5q-18 8 -34.5 16t-26.5 25q-10 16 -6 41.5t4 44.5q4 49 6 98l4 98 q4 76 12 156t-20 152q-12 33 -40 52t-61 25.5t-66.5 -2t-60.5 -30.5q-6 -6 -22.5 -2t-12.5 14q6 37 21.5 65.5t56.5 38.5t84 4t84 -18q80 -23 142.5 -81t70.5 -148q8 -98 -8 -208t-57 -202q-10 -20 -19.5 -39.5t-13.5 -42.5q-4 -16 -2 -14t20 -6q37 -14 64.5 -39t62.5 -43 q12 -6 32 -20.5t3 -32.5q-29 -31 -59.5 -56.5t-48.5 -64.5q-16 -35 -23.5 -71t-9.5 -77q-4 -45 1 -90t10 -89t7 -89t-8 -90q-16 -72 -66.5 -122t-121.5 -69q-90 -23 -170 -4q-37 6 -69 19.5t-67 23.5q-6 2 -17 13.5z" />
<glyph unicode="~" d="M14.5 812q-10.5 7 12.5 26q78 66 147.5 96.5t151.5 7.5q55 -16 110.5 -38.5t114.5 -43.5q53 -16 106.5 -18t102.5 -8q4 4 16 4q6 0 20.5 4t27 5t18.5 -3t-4 -23q-4 -10 -9.5 -17t-5.5 -13q-6 -27 -29.5 -45.5t-43.5 -24.5q-51 -18 -102.5 -13t-102.5 21t-101.5 37.5 t-101.5 36.5q-72 23 -155 25.5t-152 -19.5q-10 -4 -20.5 3z" />
<glyph unicode="&#xa1;" horiz-adv-x="372" d="M-25 -156q23 129 51.5 257t53.5 257q8 35 16 68t19 68q10 37 26.5 71.5t30.5 71.5q10 29 17.5 59.5t13.5 61t15 60.5t26 59q2 4 8 2t6 -7q2 -37 10 -70.5t17.5 -67.5t16.5 -69.5t7 -72.5q0 -78 -7 -154t-15 -153q-6 -59 -15.5 -121t-25.5 -123q-8 -35 -11.5 -69.5 t-7.5 -68.5t-15 -68t-38 -64q-20 -25 -55 -26t-69 12.5t-57.5 37t-17.5 49.5zM184 1008q2 18 9.5 38.5t25.5 30.5q23 16 51.5 21.5t53.5 1.5q16 -4 35.5 -12.5t33 -21.5t18.5 -31.5t-5 -41.5q-12 -23 -32 -32t-42 -9l-4 -4t-6 -4q-14 -18 -42.5 -21t-46.5 3q-27 8 -39 30.5 t-10 51.5zM299 1026l2 -2v2v2z" />
<glyph unicode="&#xa6;" horiz-adv-x="266" d="M2 141q4 47 10 91t-4 90q-10 39 -6 75.5t4 75.5t2 69.5t17 67.5q10 33 30.5 45.5t55.5 20.5q29 6 53 -15.5t43 -37.5q31 -29 33 -80t-2 -92q-4 -27 -4.5 -53.5t-2.5 -53.5q0 -25 -8 -44t-12 -42q-6 -43 -5 -86t-3 -86q-2 -25 -34 -30t-70 4.5t-68.5 30t-28.5 50.5z M27 1167q0 18 2 37t2 37v81t12 79q14 43 31.5 57.5t60.5 28.5q12 4 25.5 -1t26 -14.5t23.5 -19.5t19 -16q31 -27 34 -79t-1 -89q-4 -47 -1 -97.5t-13 -95.5q-16 -51 -13 -101t1 -104q-2 -31 -34 -40t-70 -2.5t-68.5 25.5t-30.5 44q2 41 9 85t1 85q-4 27 -10 50.5t-6 49.5z " />
<glyph unicode="&#xa7;" horiz-adv-x="1210" d="M4 334q0 4 5 3t5 -5q4 -29 22.5 -55.5t41.5 -45.5q45 -37 102.5 -49t116.5 -9t118.5 16.5t110.5 29.5q45 12 93.5 32.5t88.5 50.5t67.5 69t31.5 90v2q-119 -33 -225 -35q-59 0 -124 6t-120 39q-45 29 -57 70q-2 4 -4.5 7t-4.5 7q-18 33 -14 72t22.5 75.5t43 70.5t47.5 59 q33 37 69.5 68.5t77.5 53.5q-33 27 -49 60q-18 37 -14 74.5t20.5 72.5t40 68t47.5 61q63 76 145.5 123t184.5 45q33 0 68 -12q18 12 34 20q2 0 3 1t6 1q2 2 4 2.5t6 2.5q25 2 49 0q27 -4 32 -6.5t-8 -2.5q25 -6 46.5 -15t36 -21.5t17.5 -25.5t-11 -28q-18 -18 -40 -30.5 t-38 -32.5q-18 -18 -30.5 -38t-27.5 -40q-23 -35 -44 -75t-52 -68q-6 -2 -14 2q-45 23 -61.5 75t-12.5 105q-16 -16 -30.5 -33.5t-28.5 -34.5q-27 -31 -51.5 -62.5t-40.5 -68.5q-8 -16 -21.5 -35.5t-24.5 -40.5q10 0 20.5 1t20.5 1q20 -2 41 -5t39 -13q35 4 71 8t71 6 q39 0 82 -5t81.5 -20.5t69.5 -43t47 -68.5q20 -57 -6.5 -111.5t-65.5 -95.5q-45 -47 -102 -85t-121 -66q47 -27 83 -72t22 -98q-12 -53 -54.5 -91t-89.5 -63q-127 -70 -281.5 -91t-295.5 7q-61 12 -121.5 30.5t-112.5 57.5q-41 33 -49 69t-4 83zM465 512q10 -2 19.5 -1 t19.5 1l61 6q45 16 86 36.5t76 41.5q55 33 109.5 71t95.5 91q16 23 27.5 44t17.5 48q4 14 11 44t1 42l-2 4q-4 0 -6 1t-6 1q-45 -2 -88 -12q-23 -4 -43.5 -9.5t-42.5 -11.5q-41 -12 -79 -40.5t-73 -64.5t-63.5 -76t-50.5 -75q-18 -29 -32 -60.5t-30 -62.5q-4 -8 -5 -12 t-3 -6zM983 944q2 0 4 -2q-2 0 -2 1t-2 1z" />
<glyph unicode="&#xa8;" horiz-adv-x="372" d="M18 1561q4 20 9 28q10 20 41 17q12 0 28.5 -6.5t22.5 -16.5h2q16 -4 30.5 -13t18.5 -26q10 -27 -8 -44t-45 -17q-16 0 -36 4t-35 13t-23.5 24.5t-4.5 36.5zM90 1530v2h2q-2 0 -2 -2zM203 1561q4 20 8 28q10 20 41 17q12 0 28.5 -6.5t22.5 -16.5h2q16 -4 30.5 -13 t18.5 -26q10 -27 -8 -44t-45 -17q-16 0 -35.5 4t-35 13t-23.5 24.5t-4 36.5zM274 1530v2h2q-2 0 -2 -2z" />
<glyph unicode="&#xa9;" horiz-adv-x="1316" d="M2 544.5q0 55.5 12.5 110t34 107.5t45.5 102q8 12 14.5 25.5t14.5 25.5q-8 8 -6 19q2 104 58 181t141 127t185.5 72.5t192.5 18.5q61 -4 126 -12t127.5 -27.5t118.5 -50.5t99 -80q39 -43 73 -93t53.5 -106.5t23.5 -116t-17 -118.5q-33 -94 -89 -181t-129.5 -160 t-163 -129t-183.5 -87q-98 -33 -201.5 -38t-205.5 26q-49 14 -97.5 39.5t-90.5 60.5t-73.5 79t-46.5 95q-16 55 -16 110.5zM143.5 486.5q8.5 -58.5 42.5 -109.5q66 -96 153 -120t177 -2.5t177 76t155 115.5q72 66 131 147t88 177q14 51 13 114.5t-19.5 122t-55 105.5 t-94.5 70q-43 16 -91 22t-96 3t-95 -14t-90 -28q-18 -6 -37 -14t-37 -18q-92 -53 -151.5 -128t-98.5 -174q-23 -51 -42 -109t-28.5 -117.5t-1 -118zM289 537q-4 100 30.5 197t104.5 171q29 31 60.5 61.5t68.5 57.5t77 44.5t83 21.5q18 2 52 1t66.5 -10.5t54 -28t13.5 -51.5 q-12 -45 -47 -93t-70 -77q-4 -4 -14 -2t-10 9q-4 29 6 56.5t20 55.5q-4 -4 -4 -6q-82 -72 -150.5 -158t-90.5 -194q4 4 16 8q25 12 49.5 21.5t48.5 19.5q53 20 107.5 34.5t105.5 39.5q4 2 14.5 -1t6.5 -9q-35 -55 -93.5 -83t-111.5 -61q-23 -14 -55.5 -33.5t-42.5 -44.5 t-35 -33t-53.5 -8t-56 6.5t-46.5 12.5q-12 2 -29.5 9t-34 16.5t-28.5 21.5t-12 29z" />
<glyph unicode="&#xad;" d="M3.5 783.5q-9.5 15.5 12.5 19.5q80 14 153 45t157 35q59 4 116.5 3t116.5 -3h110.5t104.5 -23q4 0 10.5 -1t10.5 -1q6 -2 20 -6t27.5 -12.5t19.5 -17.5t-4 -21q-4 -4 -9 -9.5t-7 -9.5q-6 -23 -31 -30t-45 -7q-106 -4 -211.5 0.5t-212.5 -2.5q-74 -4 -159 -5t-156 26 q-14 4 -23.5 19.5z" />
<glyph unicode="&#xae;" horiz-adv-x="405" d="M1 1265q1 48 18.5 89t50 69.5t84.5 26.5q4 0 9 -3t-1 -5q-6 -4 -12.5 -5t-12.5 -5q37 8 76 7t75 -14.5t64.5 -37t40.5 -60.5q12 -35 10 -70.5t-15 -70.5t-36.5 -63.5t-54.5 -47.5q-37 -23 -81 -25.5t-85 11.5t-72.5 44t-46.5 73q-12 39 -11 87zM67 1322q-6 -44 3 -85 q4 10 10 18.5t10 16.5q23 37 52.5 65.5t76.5 22.5q25 -4 46.5 -17.5t31.5 -35.5q8 -14 8 -36t-14 -32q-20 -14 -44 -22.5t-46 -16.5q16 -10 33.5 -22.5t33.5 -22.5q27 33 40.5 76t2.5 86q-8 35 -27.5 50t-46 20.5t-56 3.5t-58.5 -2q-9 0 -25 8q-25 -31 -31 -75zM92 1169 q23 -47 60.5 -65.5t85.5 20.5q-10 4 -23 15q-10 6 -21.5 13t-21.5 13q-16 12 -25 17h-4q-14 -4 -39 6zM139 1235q25 6 49 18q10 6 24.5 14.5t10.5 24.5q-4 18 -6 18.5t-16 -12.5q-37 -32 -62 -63z" />
<glyph unicode="&#xb0;" horiz-adv-x="282" d="M18 1468q-4 37 6.5 72t28.5 66q16 35 44 62.5t73 21.5q37 -4 61.5 -27t20.5 -61q-4 -20 -10 -37t-13 -33q-6 -10 -9 -18.5t-9 -16.5q-4 -10 -12.5 -16t-16.5 -15q-4 -4 -19.5 -5t-15.5 9q-2 10 -5 16.5t1 16.5q2 12 13 29q6 14 12 26.5t8 26.5q4 12 4 27.5t-6 25.5 q-4 4 -7 7.5t-7 7.5q-6 -6 -10 -8q-18 -23 -32 -51.5t-22 -57.5q-6 -27 -7 -56.5t13 -52.5q8 -16 19 -24h2h2q-2 0 2 3t6 3q12 4 14 8q8 6 14.5 11.5t12.5 13.5q25 23 49.5 54.5t28.5 66.5q0 2 2 2t2 -2q4 -10 4 -21.5t-2 -21.5q-4 -41 -29.5 -79.5t-62.5 -58.5 q-23 -10 -47.5 -12t-46.5 8q-27 14 -38 38t-16 52z" />
<glyph unicode="&#xb4;" horiz-adv-x="223" d="M41 1391q0 18 2 35.5t6 35.5q4 31 12.5 69t36.5 60q8 6 25.5 8.5t35 -1t31 -12.5t13.5 -23q2 -29 -23 -54q-12 -16 -19.5 -32.5t-15.5 -34.5q-10 -14 -18 -28.5t-16 -27.5l-7 -7q-6 -7 -12 -13t-12 -8t-8 4q2 -4 -1 -3t-5 3q-2 4 -9.5 4t-9.5 4q-4 4 -4 10t-2 11z" />
<glyph unicode="&#xba;" horiz-adv-x="323" d="M25 1315q-4 45 7 87t34 81q23 43 56.5 76.5t86.5 25.5q45 -4 75.5 -32.5t24.5 -75.5q-4 -23 -12 -44.5t-16 -39.5q-6 -10 -10.5 -21.5t-10.5 -21.5t-16.5 -18.5t-18.5 -18.5q-6 -6 -24.5 -6t-20.5 10t-5 19.5t1 21.5q2 14 17 35q6 16 13 32.5t11 32.5t5 34.5t-9 31.5 l-8 8l-8 8q-4 -4 -6.5 -5t-6.5 -5q-23 -29 -39 -63.5t-26 -69.5q-8 -33 -8 -69t16 -64q10 -20 23 -29h2h2q-2 0 3 3t7 3q16 8 18 10q10 8 17.5 14.5t15.5 16.5q29 29 59.5 66.5t34.5 81.5q0 4 2 4t4 -4q4 -12 4 -25.5t-2 -26.5q-6 -51 -36.5 -98t-75.5 -70 q-27 -14 -58.5 -17t-58.5 11q-31 16 -45 46t-18 65z" />
<glyph unicode="&#xbf;" horiz-adv-x="749" d="M2 102q-2 68 23.5 127.5t64.5 111.5t87 99t91 90q41 41 84 77t86 73q18 14 20.5 32.5t-3.5 36t-18.5 35t-22.5 29.5q-6 6 -2 9t11 4t15 0t11 -1q43 -16 82.5 -44.5t58.5 -73.5q10 -29 13 -73t-11 -73q-23 -47 -55.5 -86t-69.5 -74.5t-74 -71.5t-67 -77q-29 -37 -49.5 -85 t-25.5 -97.5t8 -95.5t56 -76q10 -8 27.5 -14.5t40.5 -10.5q29 -4 56.5 -3t56.5 11t55.5 27.5t42.5 44.5q12 20 16 47t-2 49.5t-24.5 38.5t-51.5 16q-2 0 -9 3.5t-1 7.5q37 14 79 5t77 -34t55.5 -61.5t14.5 -79.5q-14 -86 -76 -132t-144 -57q-84 -12 -176 4.5t-169 60.5 t-128 114.5t-53 166.5zM336 1042q-12 41 14.5 66t63.5 25q25 0 52.5 -6.5t49 -20.5t34.5 -35.5t7 -52.5q-2 -18 -12 -41q-10 -16 -25.5 -20.5t-34.5 -4.5q-16 2 -40.5 10.5t-34.5 24.5l-2 2q-23 4 -43.5 17.5t-28.5 35.5zM451 1061h2v2q-2 0 -2 -2z" />
<glyph unicode="&#xc0;" horiz-adv-x="696" d="M-233 309q16 29 32.5 53.5t48.5 34.5q31 12 65 16.5t67 4.5q6 10 11 22.5l9 22.5q35 86 77 166t83 164q72 147 147.5 286.5t181.5 263.5q4 14 5.5 26.5t3.5 27.5q2 12 2 24.5t2 22.5q-23 6 -51 16q-12 4 -14.5 13.5t14.5 7.5q4 0 15 1t23.5 4t22.5 6t16 5q39 16 85 3 t73 -46q35 -41 31 -94t-17 -100q-14 -53 -25 -106.5t-18 -106.5q-14 -115 -26.5 -226.5t-28.5 -224.5q-12 -82 -24.5 -162t-16.5 -162q-2 -37 0 -75.5t12 -75.5q8 -27 19.5 -46.5t9.5 -45.5q0 -14 -13.5 -19.5t-30.5 -6.5t-33.5 1t-22.5 4q-49 12 -80 38t-48.5 60.5 t-24.5 76.5t-7 85q-57 4 -114.5 11.5t-114.5 13.5q-16 2 -34 3t-34 1q-18 -37 -32.5 -76t-18.5 -80q0 -10 -10.5 -11t-22.5 2t-22.5 8t-12.5 10q-8 14 -20 21t-23 17q-2 2 -2 7q10 10 37 4q-2 27 2 51t12 51q-35 2 -69.5 2t-71.5 -8q-4 -2 -16.5 2t-7.5 12zM106 410 q59 -6 120 -13.5t122 -5.5q4 55 12.5 110.5t16.5 110.5q18 113 30.5 224.5t26.5 224.5q0 4 1 8t1 8q-47 -84 -87 -167t-81 -169q-41 -82 -81 -163.5t-81 -165.5v-2zM166 1501q0 14 13.5 23.5t30.5 12.5t33.5 1t26.5 -8q29 -23 37 -60.5t12 -68.5q4 -18 6.5 -35.5t2.5 -36.5 q-2 -4 -2 -10t-4 -10q-2 -4 -9.5 -4t-9.5 -5q-2 -2 -5 -3t-1 3q-2 -6 -8 -4t-12.5 8.5t-12.5 13.5l-6 7q-8 12 -16.5 26.5t-18.5 28.5q-8 18 -15 35t-20 33q-25 25 -22 53z" />
<glyph unicode="&#xc1;" horiz-adv-x="696" d="M-233 309q16 29 32.5 53.5t48.5 34.5q31 12 65 16.5t67 4.5q6 10 11 22.5l9 22.5q35 86 77 166t83 164q72 147 147.5 286.5t181.5 263.5q4 14 5.5 26.5t3.5 27.5q2 12 2 24.5t2 22.5q-23 6 -51 16q-12 4 -14.5 13.5t14.5 7.5q4 0 15 1t23.5 4t22.5 6t16 5q39 16 85 3 t73 -46q35 -41 31 -94t-17 -100q-14 -53 -25 -106.5t-18 -106.5q-14 -115 -26.5 -226.5t-28.5 -224.5q-12 -82 -24.5 -162t-16.5 -162q-2 -37 0 -75.5t12 -75.5q8 -27 19.5 -46.5t9.5 -45.5q0 -14 -13.5 -19.5t-30.5 -6.5t-33.5 1t-22.5 4q-49 12 -80 38t-48.5 60.5 t-24.5 76.5t-7 85q-57 4 -114.5 11.5t-114.5 13.5q-16 2 -34 3t-34 1q-18 -37 -32.5 -76t-18.5 -80q0 -10 -10.5 -11t-22.5 2t-22.5 8t-12.5 10q-8 14 -20 21t-23 17q-2 2 -2 7q10 10 37 4q-2 27 2 51t12 51q-35 2 -69.5 2t-71.5 -8q-4 -2 -16.5 2t-7.5 12zM106 410 q59 -6 120 -13.5t122 -5.5q4 55 12.5 110.5t16.5 110.5q18 113 30.5 224.5t26.5 224.5q0 4 1 8t1 8q-47 -84 -87 -167t-81 -169q-41 -82 -81 -163.5t-81 -165.5v-2zM205 1329q0 18 2 35.5t6 36.5q4 31 12 68.5t37 60.5q8 6 25.5 8t35 -1t31 -12t13.5 -24q2 -29 -23 -53 q-12 -16 -19.5 -33t-15.5 -35q-10 -14 -18 -28.5t-17 -26.5l-6 -7t-12 -13.5t-12 -8.5t-8 4q2 -4 -1.5 -3t-5.5 3q-2 4 -9 4.5t-9 4.5q-4 4 -4 10t-2 10z" />
<glyph unicode="&#xc2;" horiz-adv-x="696" d="M-233 309q16 29 32.5 53.5t48.5 34.5q31 12 65 16.5t67 4.5q6 10 11 22.5l9 22.5q35 86 77 166t83 164q72 147 147.5 286.5t181.5 263.5q4 14 5.5 26.5t3.5 27.5q2 12 2 24.5t2 22.5q-23 6 -51 16q-12 4 -14.5 13.5t14.5 7.5q4 0 15 1t23.5 4t22.5 6t16 5q39 16 85 3 t73 -46q35 -41 31 -94t-17 -100q-14 -53 -25 -106.5t-18 -106.5q-14 -115 -26.5 -226.5t-28.5 -224.5q-12 -82 -24.5 -162t-16.5 -162q-2 -37 0 -75.5t12 -75.5q8 -27 19.5 -46.5t9.5 -45.5q0 -14 -13.5 -19.5t-30.5 -6.5t-33.5 1t-22.5 4q-49 12 -80 38t-48.5 60.5 t-24.5 76.5t-7 85q-57 4 -114.5 11.5t-114.5 13.5q-16 2 -34 3t-34 1q-18 -37 -32.5 -76t-18.5 -80q0 -10 -10.5 -11t-22.5 2t-22.5 8t-12.5 10q-8 14 -20 21t-23 17q-2 2 -2 7q10 10 37 4q-2 27 2 51t12 51q-35 2 -69.5 2t-71.5 -8q-4 -2 -16.5 2t-7.5 12zM106 410 q59 -6 120 -13.5t122 -5.5q4 55 12.5 110.5t16.5 110.5q18 113 30.5 224.5t26.5 224.5q0 4 1 8t1 8q-47 -84 -87 -167t-81 -169q-41 -82 -81 -163.5t-81 -165.5v-2zM111 1348q-4 16 4 33.5t16 29.5q20 43 39 76q10 23 25.5 42t25.5 42q10 16 26.5 17t33.5 -3q4 0 7 -1t7 -1 q10 -4 29.5 -14t15.5 -27q-6 -16 2 -42t14 -42q6 -18 13.5 -36.5t13.5 -37.5q2 -6 -7 -5t-11 5q-25 20 -45.5 44t-38.5 51q0 4 -2.5 5t-4.5 5q-4 -4 -10 -9t-10 -10q-23 -16 -41 -34q-14 -14 -27.5 -26.5t-25.5 -29.5q-8 -6 -17.5 -19t-19.5 -15h6q-4 -6 -10 -5.5t-8 7.5z " />
<glyph unicode="&#xc3;" horiz-adv-x="696" d="M-233 309q16 29 32.5 53.5t48.5 34.5q31 12 65 16.5t67 4.5q6 10 11 22.5l9 22.5q35 86 77 166t83 164q72 147 147.5 286.5t181.5 263.5q4 14 5.5 26.5t3.5 27.5q2 12 2 24.5t2 22.5q-23 6 -51 16q-12 4 -14.5 13.5t14.5 7.5q4 0 15 1t23.5 4t22.5 6t16 5q39 16 85 3 t73 -46q35 -41 31 -94t-17 -100q-14 -53 -25 -106.5t-18 -106.5q-14 -115 -26.5 -226.5t-28.5 -224.5q-12 -82 -24.5 -162t-16.5 -162q-2 -37 0 -75.5t12 -75.5q8 -27 19.5 -46.5t9.5 -45.5q0 -14 -13.5 -19.5t-30.5 -6.5t-33.5 1t-22.5 4q-49 12 -80 38t-48.5 60.5 t-24.5 76.5t-7 85q-57 4 -114.5 11.5t-114.5 13.5q-16 2 -34 3t-34 1q-18 -37 -32.5 -76t-18.5 -80q0 -10 -10.5 -11t-22.5 2t-22.5 8t-12.5 10q-8 14 -20 21t-23 17q-2 2 -2 7q10 10 37 4q-2 27 2 51t12 51q-35 2 -69.5 2t-71.5 -8q-4 -2 -16.5 2t-7.5 12zM1 1387.5 q-5 3.5 5 13.5q37 31 70 45t71 4q27 -8 52.5 -18.5t54.5 -20.5q25 -8 50.5 -8t47.5 -4q2 2 8 2q2 0 9.5 2t13.5 2t8 -2t-2 -10q-2 -4 -4 -7.5t-2 -7.5q-4 -12 -14.5 -20t-20.5 -12q-49 -16 -97 4t-95 34q-35 10 -74 11.5t-72 -9.5q-4 -2 -9 1.5zM106 410q59 -6 120 -13.5 t122 -5.5q4 55 12.5 110.5t16.5 110.5q18 113 30.5 224.5t26.5 224.5q0 4 1 8t1 8q-47 -84 -87 -167t-81 -169q-41 -82 -81 -163.5t-81 -165.5v-2z" />
<glyph unicode="&#xc4;" horiz-adv-x="696" d="M-233 309q16 29 32.5 53.5t48.5 34.5q31 12 65 16.5t67 4.5q6 10 11 22.5l9 22.5q35 86 77 166t83 164q72 147 147.5 286.5t181.5 263.5q4 14 5.5 26.5t3.5 27.5q2 12 2 24.5t2 22.5q-23 6 -51 16q-12 4 -14.5 13.5t14.5 7.5q4 0 15 1t23.5 4t22.5 6t16 5q39 16 85 3 t73 -46q35 -41 31 -94t-17 -100q-14 -53 -25 -106.5t-18 -106.5q-14 -115 -26.5 -226.5t-28.5 -224.5q-12 -82 -24.5 -162t-16.5 -162q-2 -37 0 -75.5t12 -75.5q8 -27 19.5 -46.5t9.5 -45.5q0 -14 -13.5 -19.5t-30.5 -6.5t-33.5 1t-22.5 4q-49 12 -80 38t-48.5 60.5 t-24.5 76.5t-7 85q-57 4 -114.5 11.5t-114.5 13.5q-16 2 -34 3t-34 1q-18 -37 -32.5 -76t-18.5 -80q0 -10 -10.5 -11t-22.5 2t-22.5 8t-12.5 10q-8 14 -20 21t-23 17q-2 2 -2 7q10 10 37 4q-2 27 2 51t12 51q-35 2 -69.5 2t-71.5 -8q-4 -2 -16.5 2t-7.5 12zM80 1397 q4 20 8 28q10 20 41 17q12 0 28.5 -6t22.5 -17h2q16 -4 30.5 -13t18.5 -26q10 -27 -8 -44t-45 -17q-16 0 -35.5 4t-35 13.5t-23.5 24.5t-4 36zM106 410q59 -6 120 -13.5t122 -5.5q4 55 12.5 110.5t16.5 110.5q18 113 30.5 224.5t26.5 224.5q0 4 1 8t1 8q-47 -84 -87 -167 t-81 -169q-41 -82 -81 -163.5t-81 -165.5v-2zM152 1366v2h2q-2 0 -2 -2zM264 1397q4 20 8 28q10 20 41 17q12 0 28.5 -6t23.5 -17h2q16 -4 30.5 -13t18.5 -26q10 -27 -8.5 -44t-45.5 -17q-16 0 -35.5 4t-35 13.5t-23.5 24.5t-4 36zM336 1366v2h2q-2 0 -2 -2z" />
<glyph unicode="&#xc5;" horiz-adv-x="696" d="M-233 309q16 29 32.5 53.5t48.5 34.5q31 12 65 16.5t67 4.5q6 10 11 22.5l9 22.5q35 86 77 166t83 164q51 104 103 206.5t118 198.5q-23 -6 -46.5 -5t-41.5 11q-31 16 -45.5 46t-18.5 65q-4 45 7.5 87t33.5 81q23 43 56.5 76.5t87.5 25.5q41 -4 70.5 -28.5t29.5 -65.5 l14 6q39 16 85 3t73 -46q35 -41 31 -94t-17 -100q-14 -53 -25 -106.5t-18 -106.5q-14 -115 -26.5 -226.5t-28.5 -224.5q-12 -82 -24.5 -162t-16.5 -162q-2 -37 0 -75.5t12 -75.5q8 -27 19.5 -46.5t9.5 -45.5q0 -14 -13.5 -19.5t-30.5 -6.5t-33.5 1t-22.5 4q-49 12 -80 38 t-48.5 60.5t-24.5 76.5t-7 85q-57 4 -114.5 11.5t-114.5 13.5q-16 2 -34 3t-34 1q-18 -37 -32.5 -76t-18.5 -80q0 -10 -10.5 -11t-22.5 2t-22.5 8t-12.5 10q-8 14 -20 21t-23 17q-2 2 -2 7q10 10 37 4q-2 27 2 51t12 51q-35 2 -69.5 2t-71.5 -8q-4 -2 -16.5 2t-7.5 12z M106 410q59 -6 120 -13.5t122 -5.5q4 55 12.5 110.5t16.5 110.5q18 113 30.5 224.5t26.5 224.5q0 4 1 8t1 8q-47 -84 -87 -167t-81 -169l-162 -329v-2zM315.5 1328q-0.5 -36 16.5 -64q10 -20 22 -29h4q-2 0 3.5 3t7.5 3q16 8 18 10q10 8 17.5 14.5t15.5 16.5 q18 16 38.5 38.5t35.5 49.5l4 27v13t2 15l-15 -32q-6 -10 -10 -21.5t-10 -21.5t-16.5 -18.5t-18.5 -18.5q-6 -6 -24.5 -6t-20.5 10t-5 19.5t1 21.5q2 14 16 35q6 16 13.5 32.5t11.5 32.5t5 34.5t-9 31.5l-8 8t-9 8l-12 -10q-23 -29 -39 -63.5t-26 -69.5q-8 -33 -8.5 -69z " />
<glyph unicode="&#xc6;" horiz-adv-x="1267" d="M-233 309q16 29 32.5 53.5t48.5 34.5q31 12 65 16.5t67 4.5q6 10 11 22.5l9 22.5q35 86 77 166t83 164q72 147 147.5 286.5t181.5 263.5q4 14 5.5 26.5t3.5 27.5l4 47q-23 6 -51 16q-12 4 -14.5 13.5t14.5 7.5q4 0 15 1t23.5 4t22.5 6t16 5q39 16 85 3t73 -46 q35 -41 31 -94t-17 -100q-14 -49 -24 -98.5t-17 -98.5q23 39 52.5 73.5t58.5 65.5q31 33 65.5 67t74.5 64.5t83 54t88 35.5q51 12 107.5 6t105.5 -28q4 -8 17 -10q18 14 41.5 23t52.5 18q33 4 68.5 -6t60.5 -33q23 -16 16.5 -38t-37.5 -26q-47 -8 -88 -45t-71 -74 q-35 -41 -67 -82t-77 -69q-8 -8 -31.5 -2t-23.5 20q0 53 19.5 109.5t46.5 105.5q4 8 12 17q-72 -33 -131.5 -88.5t-116.5 -110.5q-61 -63 -115.5 -131t-95.5 -145q2 0 3 1t3 1q10 4 20.5 6t24.5 6q43 10 77 -3.5t52.5 -40t18.5 -59t-21 -61.5q-20 -23 -36.5 -46.5 t-32.5 -45.5q-33 -49 -72 -91t-76 -89q-41 -51 -66.5 -101.5t-47.5 -111.5q-8 -16 -15.5 -38t-5.5 -42q2 -6 4 -13.5t2 -15.5h4q16 4 30.5 7t29.5 7q33 10 62.5 20.5t58.5 27.5q102 45 194 116q37 31 66.5 66t57.5 71.5t55.5 72.5t58.5 69q10 8 34.5 9t49 -5t40 -18.5 t9.5 -30.5q-20 -53 -55 -100.5t-78 -89.5t-90.5 -77.5t-92.5 -64.5q-117 -76 -258 -113q-45 -12 -90 -23t-92 -11q-4 -10 -18.5 -14.5t-29.5 -5.5t-29.5 1t-20.5 4q-49 12 -80 38t-48.5 60.5t-24.5 76.5t-7 85q-57 4 -114.5 11.5t-114.5 13.5q-16 2 -34 3t-34 1 q-18 -37 -32.5 -76t-18.5 -80q0 -10 -10.5 -11t-22.5 2t-22.5 8t-12.5 10q-8 14 -20 21t-23 17q-2 2 -2 7q10 10 37 4q-2 27 2 51t12 51q-35 2 -69.5 2t-71.5 -8q-4 -2 -16.5 2t-7.5 12zM106 410q59 -6 120 -13.5t122 -5.5q4 55 12.5 110.5t16.5 110.5q18 113 30.5 224.5 t26.5 224.5q0 4 1 8t1 8q-47 -84 -87 -167t-81 -169l-162 -329v-2zM606 637l4 4q0 2 -1 2t-1 2q0 -2 -1 -4t-1 -4z" />
<glyph unicode="&#xc7;" horiz-adv-x="731" d="M-115 254q-4 84 13.5 164t50.5 155q33 72 67.5 138.5t71.5 136.5q35 66 64.5 135.5t66.5 134.5q35 68 80 150t103.5 150.5t132 110.5t163.5 30q10 -2 25.5 -6.5t30 -10.5t26 -16t11.5 -23q0 -23 2 -47t0 -51l8 10q25 35 50.5 75t57.5 69q29 23 57.5 41t59.5 38 q4 2 12.5 2t16.5 -3t13 -7t1 -8q-16 -33 -27.5 -67.5t-31.5 -63.5q-20 -37 -40 -73t-36 -75q-57 -131 -131 -256q-35 -63 -69 -127.5t-72 -123.5q-18 -35 -38 -71t-36 -73q-16 -29 -17.5 -47t13.5 -47q4 -10 -3.5 -12t-17.5 0t-20.5 5t-12.5 7q-16 10 -36.5 32.5t-24.5 39.5 q-8 33 1 74.5t17 74.5q18 86 55.5 163t80.5 155q25 43 51 86t55 86q-2 20 -2 39.5t-4 35.5l-37.5 -37.5t-30.5 -33.5q-86 -117 -155 -250q-55 -104 -106.5 -211t-106.5 -211q-29 -55 -58.5 -115.5t-54 -124t-37 -127t-6.5 -127.5q2 -25 14 -38q8 -8 13 -11l6 -4q16 0 47 8.5 t67.5 23.5t77.5 39.5t78 61.5q29 29 49.5 60.5t38.5 66.5q2 6 11.5 3t9.5 -9q0 -18 -7.5 -51t-24.5 -72t-45 -79t-69 -74q-61 -53 -144 -63.5t-163 16.5q-6 0 -14 4q0 -4 -1 -7.5t-1 -7.5q-4 -31 -12.5 -68.5t-36.5 -60.5q-10 -6 -26.5 -8t-34 1t-31 12.5t-13.5 23.5 q-2 29 23 53q12 16 19 33t15 35q8 10 13.5 18t9.5 19q-45 35 -79 82t-36 100z" />
<glyph unicode="&#xc8;" horiz-adv-x="952" d="M-305 2q-10 18 0 37.5t28.5 36t41 31t36.5 22.5q49 29 99.5 51.5t103.5 44.5q0 2 6 8q14 16 27.5 56.5l23.5 70.5q16 51 29.5 101.5t28.5 103.5q16 66 33.5 131.5t40.5 130.5q-23 -4 -41.5 -8t-38.5 -6q-2 0 -8.5 2t-12.5 5t-9 7t1 9q20 18 50 29.5t54 27.5q6 4 13.5 7 l17.5 7q47 150 105 287q-61 -10 -124 -11t-120 11q-4 2 -8 5t0 7q37 23 86 31t90 25q31 8 61.5 17t61.5 15q10 23 22.5 42.5t22.5 39.5q8 16 17 31.5t26 15.5q12 0 14 -6q8 -43 12 -90q4 0 7 2q59 14 121.5 31.5t126 31t128 20.5t127.5 3q27 -2 61 -17t52 -42 q16 -23 2 -40.5t-39 -21.5q-63 -12 -128.5 -12t-131.5 -10q-72 -8 -141.5 -19.5t-139.5 -21.5q-10 -4 -23 -5t-24 -3q-4 -23 -5 -42.5t-3 -39.5q-4 -33 -8 -68t-8 -69q66 18 132 22t130 -10q12 -4 31.5 -11.5t36 -18.5t26.5 -25.5t4 -32.5q-4 -12 -15 -19.5t-26.5 -10.5 t-31 -3h-25.5q-4 2 -12.5 2t-6.5 0h-14q-16 -2 -28.5 -4t-32.5 -8q-47 -4 -95.5 -11.5t-95.5 -13.5q-6 -27 -18 -59q-27 -84 -44.5 -169t-39.5 -171q-8 -27 -14.5 -56.5t-14.5 -60.5q12 4 22.5 8t22.5 8q113 49 227.5 101.5t233.5 87.5q41 12 93 -6.5t79 -55.5q16 -23 7 -35 t-25 -20h2l2 -2q-55 -29 -114.5 -49.5t-119.5 -42.5q-53 -20 -105 -41t-106 -43q-74 -31 -147.5 -60.5t-149.5 -46.5q-4 -2 -4 -4q-2 0 -2 -2t-2 -2q-16 -16 -42.5 -18t-55.5 4q-49 -10 -99.5 -20.5t-99.5 -24.5q-35 -8 -69.5 -17.5t-67.5 -25.5q-20 -10 -36.5 -21.5 t-37.5 -21.5q-4 0 -9 1t-7 7zM434 1624q0 14 13.5 23.5t31 12.5t33.5 1t27 -8q29 -23 37 -61t12 -68q4 -18 6 -36t2 -36q-2 -4 -2 -10t-4 -10q-2 -4 -9.5 -4.5t-9.5 -4.5q-2 -2 -5 -3t-1 3q-2 -6 -8 -4t-12 8.5t-13 13.5l-6 7q-8 12 -16 26.5t-18 28.5q-8 18 -15.5 34.5 t-19.5 33.5q-25 25 -23 53z" />
<glyph unicode="&#xc9;" horiz-adv-x="952" d="M-305 2q-10 18 0 37.5t28.5 36t41 31t36.5 22.5q49 29 99.5 51.5t103.5 44.5q0 2 6 8q14 16 27.5 56.5l23.5 70.5q16 51 29.5 101.5t28.5 103.5q16 66 33.5 131.5t40.5 130.5q-23 -4 -41.5 -8t-38.5 -6q-2 0 -8.5 2t-12.5 5t-9 7t1 9q20 18 50 29.5t54 27.5q6 4 13.5 7 l17.5 7q47 150 105 287q-61 -10 -124 -11t-120 11q-4 2 -8 5t0 7q37 23 86 31t90 25q31 8 61.5 17t61.5 15q10 23 22.5 42.5t22.5 39.5q8 16 17 31.5t26 15.5q12 0 14 -6q8 -43 12 -90q4 0 7 2q59 14 121.5 31.5t126 31t128 20.5t127.5 3q27 -2 61 -17t52 -42 q16 -23 2 -40.5t-39 -21.5q-63 -12 -128.5 -12t-131.5 -10q-72 -8 -141.5 -19.5t-139.5 -21.5q-10 -4 -23 -5t-24 -3q-4 -23 -5 -42.5t-3 -39.5q-4 -33 -8 -68t-8 -69q66 18 132 22t130 -10q12 -4 31.5 -11.5t36 -18.5t26.5 -25.5t4 -32.5q-4 -12 -15 -19.5t-26.5 -10.5 t-31 -3h-25.5q-4 2 -12.5 2t-6.5 0h-14q-16 -2 -28.5 -4t-32.5 -8q-47 -4 -95.5 -11.5t-95.5 -13.5q-6 -27 -18 -59q-27 -84 -44.5 -169t-39.5 -171q-8 -27 -14.5 -56.5t-14.5 -60.5q12 4 22.5 8t22.5 8q113 49 227.5 101.5t233.5 87.5q41 12 93 -6.5t79 -55.5q16 -23 7 -35 t-25 -20h2l2 -2q-55 -29 -114.5 -49.5t-119.5 -42.5q-53 -20 -105 -41t-106 -43q-74 -31 -147.5 -60.5t-149.5 -46.5q-4 -2 -4 -4q-2 0 -2 -2t-2 -2q-16 -16 -42.5 -18t-55.5 4q-49 -10 -99.5 -20.5t-99.5 -24.5q-35 -8 -69.5 -17.5t-67.5 -25.5q-20 -10 -36.5 -21.5 t-37.5 -21.5q-4 0 -9 1t-7 7zM535 1452q0 18 2 35.5t6 36.5q4 31 12 68.5t37 60.5q8 6 25.5 8t35 -1t30.5 -12.5t13 -23.5q2 -29 -22 -53q-12 -16 -19.5 -33t-15.5 -35q-10 -14 -18.5 -28.5t-16.5 -26.5l-6 -7t-12 -13.5t-12.5 -8.5t-8.5 4q2 -4 -1 -3t-5 3q-2 4 -9 4t-9 5 q-4 4 -4 10t-2 10z" />
<glyph unicode="&#xca;" horiz-adv-x="952" d="M-305 2q-10 18 0 37.5t28.5 36t41 31t36.5 22.5q49 29 99.5 51.5t103.5 44.5q0 2 6 8q14 16 27.5 56.5l23.5 70.5q16 51 29.5 101.5t28.5 103.5q16 66 33.5 131.5t40.5 130.5q-23 -4 -41.5 -8t-38.5 -6q-2 0 -8.5 2t-12.5 5t-9 7t1 9q20 18 50 29.5t54 27.5q6 4 13.5 7 l17.5 7q47 150 105 287q-61 -10 -124 -11t-120 11q-4 2 -8 5t0 7q37 23 86 31t90 25q31 8 61.5 17t61.5 15q10 23 22.5 42.5t22.5 39.5q8 16 17 31.5t26 15.5q12 0 14 -6q8 -43 12 -90q4 0 7 2q59 14 121.5 31.5t126 31t128 20.5t127.5 3q27 -2 61 -17t52 -42 q16 -23 2 -40.5t-39 -21.5q-63 -12 -128.5 -12t-131.5 -10q-72 -8 -141.5 -19.5t-139.5 -21.5q-10 -4 -23 -5t-24 -3q-4 -23 -5 -42.5t-3 -39.5q-4 -33 -8 -68t-8 -69q66 18 132 22t130 -10q12 -4 31.5 -11.5t36 -18.5t26.5 -25.5t4 -32.5q-4 -12 -15 -19.5t-26.5 -10.5 t-31 -3h-25.5q-4 2 -12.5 2t-6.5 0h-14q-16 -2 -28.5 -4t-32.5 -8q-47 -4 -95.5 -11.5t-95.5 -13.5q-6 -27 -18 -59q-27 -84 -44.5 -169t-39.5 -171q-8 -27 -14.5 -56.5t-14.5 -60.5q12 4 22.5 8t22.5 8q113 49 227.5 101.5t233.5 87.5q41 12 93 -6.5t79 -55.5q16 -23 7 -35 t-25 -20h2l2 -2q-55 -29 -114.5 -49.5t-119.5 -42.5q-53 -20 -105 -41t-106 -43q-74 -31 -147.5 -60.5t-149.5 -46.5q-4 -2 -4 -4q-2 0 -2 -2t-2 -2q-16 -16 -42.5 -18t-55.5 4q-49 -10 -99.5 -20.5t-99.5 -24.5q-35 -8 -69.5 -17.5t-67.5 -25.5q-20 -10 -36.5 -21.5 t-37.5 -21.5q-4 0 -9 1t-7 7zM303 1348q-4 16 4 33.5t17 29.5q20 43 38 76q10 23 25.5 42t26.5 42q10 16 26.5 17t32.5 -3q4 0 7 -1t7 -1q10 -4 30 -14t15 -27q-6 -16 2.5 -42t14.5 -42q6 -18 13 -36.5t13 -37.5q2 -6 -7 -5t-11 5q-25 20 -45 44t-39 51q0 4 -2 5t-4 5 q-4 -4 -10 -9t-11 -10q-23 -16 -40 -34q-14 -14 -27.5 -26.5t-26.5 -29.5q-8 -6 -17 -19t-20 -15h7q-4 -6 -10.5 -5.5t-8.5 7.5z" />
<glyph unicode="&#xcb;" horiz-adv-x="952" d="M-305 2q-10 18 0 37.5t28.5 36t41 31t36.5 22.5q49 29 99.5 51.5t103.5 44.5q0 2 6 8q14 16 27.5 56.5l23.5 70.5q16 51 29.5 101.5t28.5 103.5q16 66 33.5 131.5t40.5 130.5q-23 -4 -41.5 -8t-38.5 -6q-2 0 -8.5 2t-12.5 5t-9 7t1 9q20 18 50 29.5t54 27.5q6 4 13.5 7 l17.5 7q47 150 105 287q-61 -10 -124 -11t-120 11q-4 2 -8 5t0 7q37 23 86 31t90 25q31 8 61.5 17t61.5 15q10 23 22.5 42.5t22.5 39.5q8 16 17 31.5t26 15.5q12 0 14 -6q8 -43 12 -90q4 0 7 2q59 14 121.5 31.5t126 31t128 20.5t127.5 3q27 -2 61 -17t52 -42 q16 -23 2 -40.5t-39 -21.5q-63 -12 -128.5 -12t-131.5 -10q-72 -8 -141.5 -19.5t-139.5 -21.5q-10 -4 -23 -5t-24 -3q-4 -23 -5 -42.5t-3 -39.5q-4 -33 -8 -68t-8 -69q66 18 132 22t130 -10q12 -4 31.5 -11.5t36 -18.5t26.5 -25.5t4 -32.5q-4 -12 -15 -19.5t-26.5 -10.5 t-31 -3h-25.5q-4 2 -12.5 2t-6.5 0h-14q-16 -2 -28.5 -4t-32.5 -8q-47 -4 -95.5 -11.5t-95.5 -13.5q-6 -27 -18 -59q-27 -84 -44.5 -169t-39.5 -171q-8 -27 -14.5 -56.5t-14.5 -60.5q12 4 22.5 8t22.5 8q113 49 227.5 101.5t233.5 87.5q41 12 93 -6.5t79 -55.5q16 -23 7 -35 t-25 -20h2l2 -2q-55 -29 -114.5 -49.5t-119.5 -42.5q-53 -20 -105 -41t-106 -43q-74 -31 -147.5 -60.5t-149.5 -46.5q-4 -2 -4 -4q-2 0 -2 -2t-2 -2q-16 -16 -42.5 -18t-55.5 4q-49 -10 -99.5 -20.5t-99.5 -24.5q-35 -8 -69.5 -17.5t-67.5 -25.5q-20 -10 -36.5 -21.5 t-37.5 -21.5q-4 0 -9 1t-7 7zM283 1518q4 20 8 28q10 20 41 17q12 0 28.5 -6.5t22.5 -16.5h2q16 -4 30.5 -13t18.5 -26q10 -27 -8 -44t-45 -17q-16 0 -35.5 4t-35 13t-23.5 24.5t-4 36.5zM354 1487v2h2q-2 0 -2 -2zM467 1518q4 20 8 28q10 20 41 17q12 0 28.5 -6.5 t22.5 -16.5h2q16 -4 30.5 -13t18.5 -26q10 -27 -8 -44t-45 -17q-16 0 -35.5 4t-35 13t-23.5 24.5t-4 36.5zM539 1487v2h2q-2 0 -2 -2z" />
<glyph unicode="&#xcc;" horiz-adv-x="505" d="M-18 337q-2 44 2 89t11 90t13 86q14 92 34.5 181t43.5 182q12 51 26.5 116.5t43.5 124.5q-49 12 -84 44t-31 85q2 20 21.5 29.5t47 9.5t58.5 -8t55 -23q23 6 42.5 11.5t41.5 9.5q23 2 57.5 2t70.5 -6t64 -22.5t38 -43.5q4 -6 -2.5 -8t-10.5 -2q-35 -4 -67.5 -11 t-61.5 -24q-8 -4 -15 -8t-15 -8q2 -51 0 -103q-4 -66 -16.5 -128t-29.5 -125q-18 -86 -37.5 -170t-31.5 -170q-12 -82 -19 -158h5q59 8 114.5 -3t102.5 -50q4 -4 1 -5.5t-5 -1.5q-10 2 -19.5 -5t-17.5 -15q-14 -12 -35 -18.5t-37 -16.5q-33 -18 -66.5 -38.5t-70.5 -35.5 q-20 -23 -63.5 -19.5t-82.5 22.5q-25 12 -42 27.5t-21 31.5q-10 41 -12 85zM104 1645q0 14 13.5 23t31 12t34 1t26.5 -8q29 -23 37 -60.5t12 -68.5q4 -18 6 -35.5t2 -35.5q-2 -4 -2 -10.5t-4 -10.5q-2 -4 -9 -4t-9 -4q-2 -2 -5.5 -3t-0.5 3q-2 -6 -8.5 -4t-12.5 8t-12 13 l-6 7q-8 12 -16.5 27t-18.5 29q-8 18 -15.5 34.5t-19.5 32.5q-25 25 -23 54z" />
<glyph unicode="&#xcd;" horiz-adv-x="505" d="M-18 337q-2 44 2 89t11 90t13 86q14 92 34.5 181t43.5 182q12 51 26.5 116.5t43.5 124.5q-49 12 -84 44t-31 85q2 20 21.5 29.5t47 9.5t58.5 -8t55 -23q23 6 42.5 11.5t41.5 9.5q23 2 57.5 2t70.5 -6t64 -22.5t38 -43.5q4 -6 -2.5 -8t-10.5 -2q-35 -4 -67.5 -11 t-61.5 -24q-8 -4 -15 -8t-15 -8q2 -51 0 -103q-4 -66 -16.5 -128t-29.5 -125q-18 -86 -37.5 -170t-31.5 -170q-12 -82 -19 -158h5q59 8 114.5 -3t102.5 -50q4 -4 1 -5.5t-5 -1.5q-10 2 -19.5 -5t-17.5 -15q-14 -12 -35 -18.5t-37 -16.5q-33 -18 -66.5 -38.5t-70.5 -35.5 q-20 -23 -63.5 -19.5t-82.5 22.5q-25 12 -42 27.5t-21 31.5q-10 41 -12 85zM205 1473q0 18 2 35.5t6 35.5q4 31 12 69t37 60q8 6 25.5 8t35 -1t31 -12t13.5 -23q2 -29 -23 -54q-12 -16 -19.5 -32.5t-15.5 -34.5q-10 -14 -18 -28.5t-17 -27.5l-6 -7t-12 -13t-12 -8t-8 4 q2 -4 -1.5 -3t-5.5 3q-2 4 -9 4t-9 4q-4 4 -4 10t-2 11z" />
<glyph unicode="&#xce;" horiz-adv-x="505" d="M-18 337q-2 44 2 89t11 90t13 86q14 92 34.5 181t43.5 182q12 51 26.5 116.5t43.5 124.5q-49 12 -84 44t-31 85q2 20 21.5 29.5t47 9.5t58.5 -8t55 -23q23 6 42.5 11.5t41.5 9.5q23 2 57.5 2t70.5 -6t64 -22.5t38 -43.5q4 -6 -2.5 -8t-10.5 -2q-35 -4 -67.5 -11 t-61.5 -24q-8 -4 -15 -8t-15 -8q2 -51 0 -103q-4 -66 -16.5 -128t-29.5 -125q-18 -86 -37.5 -170t-31.5 -170q-12 -82 -19 -158h5q59 8 114.5 -3t102.5 -50q4 -4 1 -5.5t-5 -1.5q-10 2 -19.5 -5t-17.5 -15q-14 -12 -35 -18.5t-37 -16.5q-33 -18 -66.5 -38.5t-70.5 -35.5 q-20 -23 -63.5 -19.5t-82.5 22.5q-25 12 -42 27.5t-21 31.5q-10 41 -12 85zM131 1430q-4 16 4 33.5t17 29.5q20 43 38 76q10 23 25.5 42t26.5 42q10 16 26.5 17t32.5 -3q4 0 7 -1t7 -1q10 -4 30 -14.5t15 -26.5q-6 -16 2.5 -42t14.5 -42q6 -18 13 -36.5t13 -37.5q2 -6 -7 -5 t-11 5q-25 20 -45.5 44t-38.5 51q0 4 -2 5t-4 5q-4 -4 -10 -9.5t-11 -9.5q-23 -16 -41 -34q-14 -14 -27 -26.5t-26 -29.5q-8 -6 -17 -19t-20 -16h7q-4 -6 -10.5 -5t-8.5 8z" />
<glyph unicode="&#xcf;" horiz-adv-x="505" d="M-18 337q-2 44 2 89t11 90t13 86q14 92 34.5 181t43.5 182q12 51 26.5 116.5t43.5 124.5q-49 12 -84 44t-31 85q2 20 21.5 29.5t47 9.5t58.5 -8t55 -23q23 6 42.5 11.5t41.5 9.5q23 2 57.5 2t70.5 -6t64 -22.5t38 -43.5q4 -6 -2.5 -8t-10.5 -2q-35 -4 -67.5 -11 t-61.5 -24q-8 -4 -15 -8t-15 -8q2 -51 0 -103q-4 -66 -16.5 -128t-29.5 -125q-18 -86 -37.5 -170t-31.5 -170q-12 -82 -19 -158h5q59 8 114.5 -3t102.5 -50q4 -4 1 -5.5t-5 -1.5q-10 2 -19.5 -5t-17.5 -15q-14 -12 -35 -18.5t-37 -16.5q-33 -18 -66.5 -38.5t-70.5 -35.5 q-20 -23 -63.5 -19.5t-82.5 22.5q-25 12 -42 27.5t-21 31.5q-10 41 -12 85zM80 1520q4 20 8 28q10 20 41 17q12 0 28.5 -6.5t22.5 -16.5h2q16 -4 30.5 -13t18.5 -26q10 -27 -8 -44t-45 -17q-16 0 -35.5 4t-35 13t-23.5 24.5t-4 36.5zM152 1489v2h2q-2 0 -2 -2zM264 1520 q4 20 8 28q10 20 41 17q12 0 28.5 -6.5t23.5 -16.5h2q16 -4 30.5 -13t18.5 -26q10 -27 -8.5 -44t-45.5 -17q-16 0 -35.5 4t-35 13t-23.5 24.5t-4 36.5zM336 1489v2h2q-2 0 -2 -2z" />
<glyph unicode="&#xd0;" horiz-adv-x="1011" d="M-165 389q3 14 28 25q25 10 48 17t48 15l6 15q31 68 64.5 133t68.5 131q18 35 36 67.5t34 67.5q-53 0 -105.5 5t-97.5 22q-14 4 -23.5 19.5t13.5 19.5q72 12 139.5 39.5t141.5 38.5q6 14 13 27t15 28q16 31 32.5 63.5t37.5 63.5q-23 -6 -49.5 -13.5t-51 -15.5t-41 -18.5 t-16.5 -22.5q0 -10 -14.5 -6t-18.5 8q-20 20 -17 40t18.5 38t37 33.5t37.5 25.5q53 35 108.5 52.5t116.5 23.5q16 4 27 4q25 20 48.5 41t39.5 49q0 -2 2 -2q4 6 18.5 10.5t29 3.5t26.5 -8.5t14 -21.5q0 -10 1 -22.5t1 -22.5h32.5t33.5 -2q78 -10 158.5 -35t140.5 -78 q47 -41 63.5 -90t9 -100t-31 -102.5t-57 -99.5t-71.5 -90t-71 -73q-78 -72 -166 -143.5t-182 -122.5q-70 -37 -143.5 -59.5t-147.5 -44.5q-4 -14 -9 -27.5t-9 -30.5q-6 -23 -5 -44t-10 -38q-16 -35 -53 -42t-77 2.5t-76.5 30t-55.5 42.5q-23 31 -18 80q-10 2 -17 10 q-12 8 -27.5 22.5t-22.5 31t-4 30.5zM356 608q41 27 79 56.5t75 60.5q39 33 77 67.5t72 73.5q-43 -2 -86 -1t-86 3q-25 -53 -49 -104t-53 -102q-8 -14 -14 -27.5t-15 -26.5zM551 1006q41 2 83 -2.5t79 -20.5q4 0 10 -1t10 -1l12 -4q12 20 27.5 45t27 52.5t15.5 56t-6 53.5 q-4 8 -6 10l-4 4l-8 4q-4 0 -9 2l-20 4q-2 0 -4 1t-4 1q-31 4 -56.5 9.5t-52.5 9.5q-2 -4 -3 -10.5t-5 -12.5q-18 -51 -38.5 -100t-45.5 -98z" />
<glyph unicode="&#xd1;" horiz-adv-x="813" d="M-191.5 334q-3.5 35 2 70.5t13.5 70.5q39 170 110 334q31 76 68 139.5t90 126.5q39 49 82 96.5t96 81.5q4 57 8.5 113.5t8.5 114.5q0 16 4 54t5 84t-2 91t-15.5 79t-37 48t-65.5 -4q-4 0 -10 2t-2 6q29 41 65.5 39t73.5 -26.5t67.5 -60.5t45.5 -62q43 -76 68.5 -158 t39.5 -168q37 12 74 4q27 -8 52.5 -18.5t54.5 -20.5q25 -8 50 -8t48 -4q2 2 8 2q2 0 9 2t13.5 2t8.5 -2t-2 -10q-2 -4 -4 -7.5t-2 -7.5q-4 -12 -14.5 -20t-20.5 -12q-49 -16 -97.5 4t-95.5 34q-33 8 -74 13q16 -129 13 -258q-4 -123 -4 -244t6 -244q4 20 10 41t12 41 q14 47 25.5 92t26.5 93q12 47 24 97t39 91q16 27 44 42t60.5 21.5t66.5 4t63 -8.5q2 -2 5 -3t3 -5q0 -16 -12.5 -32.5t-24.5 -26.5q-23 -20 -39 -52t-31 -59q-39 -80 -61.5 -169t-44.5 -175q-29 -111 -52.5 -223.5t-33.5 -228.5q-4 -55 -3 -109.5t-3 -110.5q-2 -27 0 -64.5 t-19 -55.5q-16 -12 -37.5 -3t-34.5 17q-37 31 -51 81t-16 109l-66 107q-35 59 -61.5 120.5t-38.5 129.5q-27 135 -32 272t-5 275v6q-29 -53 -50.5 -107.5t-43.5 -109.5q-55 -160 -105 -320q-6 -25 -12 -55.5t-15 -59t-25.5 -53t-43.5 -35.5q-23 -10 -50.5 2.5t-43.5 26.5 q-31 25 -45 55.5t-17.5 65.5z" />
<glyph unicode="&#xd2;" horiz-adv-x="681" d="M-12 459q-14 139 2 281.5t61 275.5q23 66 51.5 128t69.5 120q23 31 43.5 56.5t44.5 45.5q2 8 3 16.5t5 16.5q-8 4 -19 15t-11 13q-8 12 -16.5 27t-18.5 29q-8 18 -15.5 34.5t-19.5 32.5q-25 25 -23 54q0 14 13.5 23t31 12t34 1t26.5 -8q29 -23 37 -60.5t12 -68.5 q4 -20 4 -30l19 24q35 45 94 62.5t119.5 7t106.5 -48t56 -101.5q6 -47 -2 -96t-18 -96q-12 -68 -10 -135.5t-2 -135.5q-4 -86 -8.5 -178t-17.5 -182t-37.5 -177t-67.5 -165q-25 -45 -59 -97.5t-77 -92t-94 -56t-112 9.5q-59 25 -96.5 77t-59 114.5t-32.5 129t-17 122.5z M143 418q-4 -68 4.5 -132.5t36.5 -127.5q6 -16 11.5 -31.5t11.5 -25t15 -8.5t28 16q20 18 36.5 38.5t26.5 47.5q27 72 34 146.5t13 150.5q8 80 21.5 159.5t17.5 159.5q6 104 7.5 208.5t11.5 209.5q-29 -63 -50.5 -130t-31.5 -134q-8 -49 -14.5 -97.5t-6.5 -97.5 q0 -16 -2 -37.5t0 -45t7.5 -43t17.5 -32.5q12 -12 0 -13t-21 3q-25 14 -37 39t-19 52.5t-9 57t-4 54.5q-2 23 -3 44t-1 44q-41 -117 -69 -234.5t-32 -240.5z" />
<glyph unicode="&#xd3;" horiz-adv-x="681" d="M-12 459q-14 139 2 281.5t61 275.5q23 66 51.5 128t69.5 120q23 31 43.5 56.5t44.5 45.5q10 35 24.5 68.5t37.5 62.5q35 45 94 62.5t119.5 7t106.5 -48t56 -101.5q6 -47 -2 -96t-18 -96q-12 -68 -10 -135.5t-2 -135.5q-4 -86 -8.5 -178t-17.5 -182t-37.5 -177t-67.5 -165 q-25 -45 -59 -97.5t-77 -92t-94 -56.5t-112 10q-59 25 -96.5 77t-59 114.5t-32.5 129t-17 122.5zM82 1329q0 18 2 35.5t6 36.5q4 31 12.5 68.5t36.5 60.5q8 6 25.5 8t35 -1t31 -12t13.5 -24q2 -29 -23 -53q-12 -16 -19.5 -33t-15.5 -35q-10 -14 -18 -28.5t-16 -26.5l-6 -7 q-7 -7 -13 -13.5t-12 -8.5t-8 4q2 -4 -1 -3t-6 3q-2 4 -9 4.5t-9 4.5q-4 4 -4 10t-2 10zM143 418q-4 -68 4.5 -132.5t36.5 -127.5q6 -16 11.5 -31.5t11.5 -25t15 -8.5t28 16q20 18 36.5 38.5t26.5 47.5q27 72 34 146.5t13 150.5q8 80 21.5 159.5t17.5 159.5q6 104 7.5 208.5 t11.5 209.5q-29 -63 -50.5 -130t-31.5 -134q-8 -49 -14.5 -97.5t-6.5 -97.5q0 -16 -2 -37.5t0 -45t7.5 -43t17.5 -32.5q12 -12 0 -13t-21 3q-25 14 -37 39t-19 52.5t-9 57t-4 54.5q-2 23 -3 44t-1 44q-41 -117 -69 -234.5t-32 -240.5z" />
<glyph unicode="&#xd4;" horiz-adv-x="681" d="M-12 459q-14 139 2 281.5t61 275.5q23 66 51.5 128t69.5 120q23 31 43.5 56.5t44.5 45.5q4 12 7 24.5t7 22.5q-14 16 -26 32.5t-25 33.5q0 4 -2 5t-4 5l-20 -19q-23 -16 -41 -34q-14 -14 -27.5 -26.5t-26.5 -29.5q-8 -6 -17 -18t-19 -16h6q-4 -6 -10.5 -5.5t-8.5 7.5 q-4 16 4.5 33.5t16.5 29.5q20 43 39 76q10 23 25.5 42t25.5 42q10 16 26.5 17t32.5 -3q4 0 7 -1t8 -1q10 -4 29.5 -14t15.5 -27q-6 -16 1 -40.5t13 -41.5q8 18 25 37q35 45 94 62.5t119.5 7t106.5 -48t56 -101.5q6 -47 -2 -96t-18 -96q-12 -68 -10 -135.5t-2 -135.5 q-4 -86 -8.5 -178t-17.5 -182t-37.5 -177t-67.5 -165q-25 -45 -59 -97.5t-77 -92t-94 -56.5t-112 10q-59 25 -96.5 77t-59 114.5t-32.5 129t-17 122.5zM143 418q-4 -68 4.5 -132.5t36.5 -127.5q6 -16 11.5 -31.5t11.5 -25t15 -8.5t28 16q20 18 36.5 38.5t26.5 47.5 q27 72 34 146.5t13 150.5q8 80 21.5 159.5t17.5 159.5q6 104 7.5 208.5t11.5 209.5q-29 -63 -50.5 -130t-31.5 -134q-8 -49 -14.5 -97.5t-6.5 -97.5q0 -16 -2 -37.5t0 -45t7.5 -43t17.5 -32.5q12 -12 0 -13t-21 3q-25 14 -37 39t-19 52.5t-9 57t-4 54.5q-2 23 -3 44t-1 44 q-41 -117 -69 -234.5t-32 -240.5z" />
<glyph unicode="&#xd5;" horiz-adv-x="681" d="M-12 459q-14 139 2 281.5t61 275.5q23 66 51.5 128t69.5 120q23 31 43.5 56.5t44.5 45.5q10 41 27 76q-33 4 -66 19.5t-65 25.5q-35 10 -74 11t-72 -9q-4 -2 -9 1t5 13q37 31 70 45.5t71 3.5q27 -8 52.5 -18t54.5 -21q16 -6 35.5 -7t36.5 -3q37 43 96 58.5t117.5 4 t103.5 -49t55 -99.5q6 -47 -2 -96t-18 -96q-12 -68 -10 -135.5t-2 -135.5q-4 -86 -8.5 -178t-17.5 -182t-37.5 -177t-67.5 -165q-25 -45 -59 -97.5t-77 -92t-94 -56.5t-112 10q-59 25 -96.5 77t-59 114.5t-32.5 129t-17 122.5zM143 418q-4 -68 4.5 -132.5t36.5 -127.5 q6 -16 11.5 -31.5t11.5 -25t15 -8.5t28 16q20 18 36.5 38.5t26.5 47.5q27 72 34 146.5t13 150.5q8 80 21.5 159.5t17.5 159.5q6 104 7.5 208.5t11.5 209.5q-29 -63 -50.5 -130t-31.5 -134q-8 -49 -14.5 -97.5t-6.5 -97.5q0 -16 -2 -37.5t0 -45t7.5 -43t17.5 -32.5 q12 -12 0 -13t-21 3q-25 14 -37 39t-19 52.5t-9 57t-4 54.5q-2 23 -3 44t-1 44q-41 -117 -69 -234.5t-32 -240.5z" />
<glyph unicode="&#xd6;" horiz-adv-x="681" d="M-12 459q-14 139 2 281.5t61 275.5q23 66 51.5 128t69.5 120q23 31 43.5 56.5t44.5 45.5q6 33 19 59q-25 8 -43.5 26.5t-12.5 47.5q4 20 8 29q10 20 41 16q12 0 28.5 -6t23.5 -16h2l14 -4q39 37 96.5 48t112.5 -2.5t97 -50t52 -96.5q6 -47 -2 -96t-18 -96 q-12 -68 -10 -135.5t-2 -135.5q-4 -86 -8.5 -178t-17.5 -182t-37.5 -177t-67.5 -165q-25 -45 -59 -97.5t-77 -92t-94 -56.5t-112 10q-59 25 -96.5 77t-59 114.5t-32.5 129t-17 122.5zM39 1499q4 20 8 29q10 20 41 16q12 0 28.5 -6t22.5 -16h2q16 -4 30.5 -13.5t18.5 -25.5 q10 -27 -8 -44.5t-45 -17.5q-16 0 -35.5 4.5t-35 13.5t-23.5 24.5t-4 35.5zM111 1468v2v-2zM143 418q-4 -68 4.5 -132.5t36.5 -127.5q6 -16 11.5 -31.5t11.5 -25t15 -8.5t28 16q20 18 36.5 38.5t26.5 47.5q27 72 34 146.5t13 150.5q8 80 21.5 159.5t17.5 159.5 q6 104 7.5 208.5t11.5 209.5q-29 -63 -50.5 -130t-31.5 -134q-8 -49 -14.5 -97.5t-6.5 -97.5q0 -16 -2 -37.5t0 -45t7.5 -43t17.5 -32.5q12 -12 0 -13t-21 3q-25 14 -37 39t-19 52.5t-9 57t-4 54.5q-2 23 -3 44t-1 44q-41 -117 -69 -234.5t-32 -240.5zM295 1468v2v-2z" />
<glyph unicode="&#xd7;" horiz-adv-x="1038" d="M2 342q23 70 62.5 134.5t88 125t101.5 116.5t102 109q16 16 30.5 33t31.5 33l-126 172t-128 168q-6 6 -2 9t11 4t15.5 0t10.5 -3q94 -47 170.5 -108.5t148.5 -133.5q12 14 25.5 26.5t25.5 27.5l58.5 58.5t56.5 62.5q25 29 46.5 57.5t57.5 42.5q18 8 49 8t61 -7 t52.5 -23.5t26.5 -41.5q8 -43 -19.5 -71.5t-56.5 -57.5q-31 -29 -62.5 -57.5t-66.5 -56.5q-31 -29 -60.5 -55.5t-60.5 -53.5q86 -98 172 -191.5t191 -170.5q33 -25 22.5 -52.5t-45.5 -35.5q-47 -10 -93 4t-81 43q-86 63 -157.5 138t-137.5 159q-129 -100 -256 -198.5 t-233 -223.5q-4 -6 -19.5 -3t-11.5 13z" />
<glyph unicode="&#xd8;" horiz-adv-x="681" d="M-12 459q-14 139 2 281.5t61 275.5q23 66 51.5 128t69.5 120q23 31 43.5 56.5t44.5 45.5q10 35 24.5 68.5t37.5 62.5q35 45 94 62.5t119.5 7t106.5 -48t56 -101.5q6 -47 -2 -96t-18 -96q-12 -68 -10 -135.5t-2 -135.5q-4 -86 -8.5 -178t-17.5 -182t-37.5 -177t-67.5 -165 q-25 -45 -59 -97.5t-77 -92t-94 -56.5t-112 10q-31 10 -62 39v-2q-4 -4 -12 -4q-23 2 -30 15.5t-5 35.5q0 4 4 4q-25 37 -42 83t-28.5 93.5t-18.5 93.5t-11 85zM143 317l43 113q20 55 42 110.5t44 112.5q-16 35 -18 76t-6 76q-2 23 -3 44t-1 44q-41 -117 -69 -234.5 t-32 -240.5q-2 -51 0 -101zM182 158h2q6 -16 11.5 -31.5t11.5 -25t15 -8.5t28 16q20 18 36.5 38.5t26.5 47.5q27 72 34 146.5t13 150.5q4 51 13 102q-18 -45 -34.5 -90t-35.5 -90q-23 -47 -42 -93.5t-42 -91.5q-8 -18 -17 -35.5t-20 -35.5zM315 772q18 55 38 109.5t40 107.5 l13 33q2 51 4 102.5t8 104.5q-29 -63 -50.5 -129.5t-31.5 -134.5q-8 -49 -14.5 -96.5t-6.5 -96.5z" />
<glyph unicode="&#xd9;" horiz-adv-x="968" d="M-18 424q2 47 7 92t5 82q4 131 11 262t42 258q8 35 37 87t69 93t86 56.5t91 -23.5q18 -16 25 -47t7 -64.5t-4 -67.5t-8 -56q-12 -66 -29.5 -128.5t-29.5 -127.5q-6 -61 -10.5 -124t-6.5 -126q-2 -66 -7 -134.5t-1 -133.5q16 4 31.5 11t32.5 17q49 33 90 80t74.5 101.5 t58.5 112.5t41 114q18 57 31 116q4 45 12 89.5t20 87.5q0 4 2.5 9l4.5 9q0 10 4 27q16 70 41.5 123t78.5 100q8 8 24.5 9t34 -2t31 -12t13.5 -22q2 -25 1 -52.5t5 -51.5q4 -18 10 -33.5t6 -36.5v-39.5t2 -38.5q2 -86 -7 -169t-13 -166q-4 -76 0 -152t31 -147 q10 -29 19 -54.5t18 -54.5q4 -18 12 -23.5t35 -11.5q4 0 14 -8t0 -12q-76 -25 -162 0.5t-143 79.5q-49 47 -71.5 113.5t-29.5 133.5q-6 -10 -11 -19t-11 -20q-20 -31 -38.5 -63.5t-41.5 -60.5q-16 -20 -48 -61.5t-72 -82.5t-83 -72.5t-80 -33.5q-59 -4 -123.5 22.5 t-97.5 77.5q-20 33 -26 77t-4 91zM391 1501q0 14 13.5 23.5t31 12.5t33.5 1t27 -8q29 -23 37 -60.5t12 -68.5q4 -18 6 -35.5t2 -36.5q-2 -4 -2 -10t-4 -10q-2 -4 -9.5 -4t-9.5 -5q-2 -2 -5 -3t-1 3q-2 -6 -8 -4t-12 8.5t-12 13.5l-7 7q-8 12 -16 26.5t-18 28.5 q-8 18 -15.5 35t-19.5 33q-25 25 -23 53z" />
<glyph unicode="&#xda;" horiz-adv-x="968" d="M-18 424q2 47 7 92t5 82q4 131 11 262t42 258q8 35 37 87t69 93t86 56.5t91 -23.5q18 -16 25 -47t7 -64.5t-4 -67.5t-8 -56q-12 -66 -29.5 -128.5t-29.5 -127.5q-6 -61 -10.5 -124t-6.5 -126q-2 -66 -7 -134.5t-1 -133.5q16 4 31.5 11t32.5 17q49 33 90 80t74.5 101.5 t58.5 112.5t41 114q18 57 31 116q4 45 12 89.5t20 87.5q0 4 2.5 9l4.5 9q0 10 4 27q16 70 41.5 123t78.5 100q8 8 24.5 9t34 -2t31 -12t13.5 -22q2 -25 1 -52.5t5 -51.5q4 -18 10 -33.5t6 -36.5v-39.5t2 -38.5q2 -86 -7 -169t-13 -166q-4 -76 0 -152t31 -147 q10 -29 19 -54.5t18 -54.5q4 -18 12 -23.5t35 -11.5q4 0 14 -8t0 -12q-76 -25 -162 0.5t-143 79.5q-49 47 -71.5 113.5t-29.5 133.5q-6 -10 -11 -19t-11 -20q-20 -31 -38.5 -63.5t-41.5 -60.5q-16 -20 -48 -61.5t-72 -82.5t-83 -72.5t-80 -33.5q-59 -4 -123.5 22.5 t-97.5 77.5q-20 33 -26 77t-4 91zM492 1329q0 18 2 35.5t6 36.5q4 31 12 68.5t37 60.5q8 6 25.5 8t35 -1t30.5 -12t13 -24q2 -29 -22 -53q-12 -16 -19.5 -33t-15.5 -35q-10 -14 -18.5 -28.5t-16.5 -26.5l-6 -7t-12 -13.5t-12.5 -8.5t-8.5 4q2 -4 -1 -3t-5 3q-2 4 -9 4.5 t-9 4.5q-4 4 -4 10t-2 10z" />
<glyph unicode="&#xdb;" horiz-adv-x="968" d="M-18 424q2 47 7 92t5 82q4 131 11 262t42 258q8 35 37 87t69 93t86 56.5t91 -23.5q18 -16 25 -47t7 -64.5t-4 -67.5t-8 -56q-12 -66 -29.5 -128.5t-29.5 -127.5q-6 -61 -10.5 -124t-6.5 -126q-2 -66 -7 -134.5t-1 -133.5q16 4 31.5 11t32.5 17q49 33 90 80t74.5 101.5 t58.5 112.5t41 114q18 57 31 116q4 45 12 89.5t20 87.5q0 4 2.5 9l4.5 9q0 10 4 27q16 70 41.5 123t78.5 100q8 8 24.5 9t34 -2t31 -12t13.5 -22q2 -25 1 -52.5t5 -51.5q4 -18 10 -33.5t6 -36.5v-39.5t2 -38.5q2 -86 -7 -169t-13 -166q-4 -76 0 -152t31 -147 q10 -29 19 -54.5t18 -54.5q4 -18 12 -23.5t35 -11.5q4 0 14 -8t0 -12q-76 -25 -162 0.5t-143 79.5q-49 47 -71.5 113.5t-29.5 133.5q-6 -10 -11 -19t-11 -20q-20 -31 -38.5 -63.5t-41.5 -60.5q-16 -20 -48 -61.5t-72 -82.5t-83 -72.5t-80 -33.5q-59 -4 -123.5 22.5 t-97.5 77.5q-20 33 -26 77t-4 91zM418 1348q-4 16 4 33.5t16 29.5q20 43 39 76q10 23 25.5 42t25.5 42q10 16 26.5 17t33.5 -3q4 0 7 -1t7 -1q10 -4 29.5 -14t15.5 -27q-6 -16 2.5 -42t14.5 -42q6 -18 13 -36.5t13 -37.5q2 -6 -7 -5t-11 5q-25 20 -45.5 44t-38.5 51 q0 4 -2 5t-4 5q-4 -4 -10.5 -9t-10.5 -10q-23 -16 -41 -34q-14 -14 -27.5 -26.5t-25.5 -29.5q-8 -6 -17.5 -19t-19.5 -15h6q-4 -6 -10 -5.5t-8 7.5z" />
<glyph unicode="&#xdc;" horiz-adv-x="968" d="M-18 424q2 47 7 92t5 82q4 131 11 262t42 258q8 35 37 87t69 93t86 56.5t91 -23.5q18 -16 25 -47t7 -64.5t-4 -67.5t-8 -56q-12 -66 -29.5 -128.5t-29.5 -127.5q-6 -61 -10.5 -124t-6.5 -126q-2 -66 -7 -134.5t-1 -133.5q16 4 31.5 11t32.5 17q49 33 90 80t74.5 101.5 t58.5 112.5t41 114q18 57 31 116q4 45 12 89.5t20 87.5q0 4 2.5 9l4.5 9q0 10 4 27q16 70 41.5 123t78.5 100q8 8 24.5 9t34 -2t31 -12t13.5 -22q2 -25 1 -52.5t5 -51.5q4 -18 10 -33.5t6 -36.5v-39.5t2 -38.5q2 -86 -7 -169t-13 -166q-4 -76 0 -152t31 -147 q10 -29 19 -54.5t18 -54.5q4 -18 12 -23.5t35 -11.5q4 0 14 -8t0 -12q-76 -25 -162 0.5t-143 79.5q-49 47 -71.5 113.5t-29.5 133.5q-6 -10 -11 -19t-11 -20q-20 -31 -38.5 -63.5t-41.5 -60.5q-16 -20 -48 -61.5t-72 -82.5t-83 -72.5t-80 -33.5q-59 -4 -123.5 22.5 t-97.5 77.5q-20 33 -26 77t-4 91zM387 1397q4 20 8 28q10 20 41 17q12 0 28.5 -6t22.5 -17h2q16 -4 31 -13t19 -26q10 -27 -8.5 -44t-45.5 -17q-16 0 -35.5 4t-35 13.5t-23.5 24.5t-4 36zM459 1366v2h2q-2 0 -2 -2zM571 1397q4 20 9 28q10 20 41 17q12 0 28.5 -6t22.5 -17h2 q16 -4 30.5 -13t18.5 -26q10 -27 -8 -44t-45 -17q-16 0 -36 4t-35 13.5t-23.5 24.5t-4.5 36zM643 1366v2h2q-2 0 -2 -2z" />
<glyph unicode="&#xdd;" horiz-adv-x="878" d="M-82 -4q10 37 13 71.5t20 69.5q16 35 34.5 69t37.5 68q4 8 21 4t13 -14q-10 -33 -25.5 -69.5t-23.5 -75.5t-4 -75t31 -64q4 -4 5 -6.5t5 -4.5q10 0 27 4q35 8 75 29q55 31 96.5 74t75 94t60.5 107.5t53 109.5q53 117 97 237.5t79 243.5q-23 -45 -51.5 -89t-63 -79.5 t-77.5 -57t-94 -21.5q-70 -2 -135.5 35.5t-92.5 103.5q-23 59 -18.5 120.5t16.5 120.5q16 88 40 176.5t63 170.5q20 51 57 100q10 16 22.5 29.5t22.5 29.5q-37 -20 -64 -41q-2 -2 -5 -1t-3 3q10 39 38 65t67 36q10 4 30.5 -2t24.5 -21q20 -125 2 -245.5t-43 -241.5 q-12 -63 -23.5 -128t-5.5 -128q2 -23 4.5 -43.5t12.5 -40.5q0 -4 1 -5t1 -5q53 31 93 81t70.5 108t54 119.5t44.5 117.5q41 113 84 229.5t119 210.5q6 8 20.5 9t28.5 -3t25.5 -11.5t11.5 -17.5q6 -94 11 -183t-3 -185q-10 -100 -21.5 -197.5t-37.5 -195.5 q-45 -174 -108.5 -348.5t-174.5 -321.5q-39 -51 -90 -101.5t-110.5 -88t-127 -55t-137.5 -5.5q-18 2 -50 11t-60.5 24.5t-47 38t-10.5 51.5zM532 1516q0 18 2.5 35.5t6.5 35.5q4 31 12 69t37 60q8 6 25.5 8t35 -1t30.5 -12t13 -23q2 -29 -22 -54q-12 -16 -19.5 -32.5 t-15.5 -34.5q-10 -14 -18.5 -28.5t-16.5 -27.5l-6 -7t-12 -13t-12.5 -8t-8.5 4q2 -4 -1 -3t-5 3q-2 4 -9 4t-9 4q-4 4 -4 10t-3 11z" />
<glyph unicode="&#xe0;" horiz-adv-x="882" d="M-31 408q-4 45 4.5 95t23.5 100t35.5 96t41.5 87q49 96 122.5 172t159.5 136q39 27 87.5 57.5t100.5 53t105 31.5t103 -3q43 -12 67.5 -35.5t30.5 -52.5t-7.5 -60.5t-45.5 -60.5q-4 -4 -18.5 -2t-10.5 10q2 8 9 34t9 48q-12 -4 -25 -9t-24 -9q-27 -14 -52.5 -27.5 t-49.5 -30.5q-66 -41 -124 -89t-105 -107q-43 -55 -71 -113.5t-50 -126.5q-6 -18 -11.5 -37.5t-9.5 -40.5q12 12 19 17q41 37 83 72.5t83 72.5q84 72 170 138.5t180 125.5q8 6 25.5 4t33.5 -8t25.5 -16t1.5 -23q-29 -37 -56.5 -76.5t-40.5 -85.5q-16 -55 -43.5 -103 t-50.5 -101q-10 -23 -20 -46.5t-15 -45.5q-4 -20 -4 -41t-4 -39q-2 -4 -4 -11.5t-2 -13.5q6 2 12.5 4t12.5 4q25 10 45 25.5t41 34.5q4 4 15 4t22.5 -3t17.5 -10.5t0 -15.5q-33 -43 -93.5 -73.5t-117.5 -22.5q-33 6 -67.5 21.5t-62.5 40t-42 57t-6 71.5q4 14 7 26.5t9 24.5 q-33 -39 -63.5 -75.5t-64.5 -65.5t-76 -47t-97 -20q-16 0 -43.5 4t-54.5 14t-47.5 26.5t-22.5 39.5zM227 1440q0 14 13.5 23.5t31 12.5t34 1t26.5 -9q29 -23 37 -60.5t12 -68.5q4 -18 6 -35.5t2 -35.5q-2 -4 -2 -10.5t-4 -10.5q-2 -4 -9 -4t-9 -4q-2 -2 -5.5 -3t-1.5 3 q-2 -6 -8 -4t-12 8t-12 13l-7 8q-8 12 -16 26.5t-18 28.5q-8 18 -15.5 34.5t-19.5 32.5q-25 25 -23 54z" />
<glyph unicode="&#xe1;" horiz-adv-x="882" d="M-31 408q-4 45 4.5 95t23.5 100t35.5 96t41.5 87q49 96 122.5 172t159.5 136q39 27 87.5 57.5t100.5 53t105 31.5t103 -3q43 -12 67.5 -35.5t30.5 -52.5t-7.5 -60.5t-45.5 -60.5q-4 -4 -18.5 -2t-10.5 10q2 8 9 34t9 48q-12 -4 -25 -9t-24 -9q-27 -14 -52.5 -27.5 t-49.5 -30.5q-66 -41 -124 -89t-105 -107q-43 -55 -71 -113.5t-50 -126.5q-6 -18 -11.5 -37.5t-9.5 -40.5q12 12 19 17q41 37 83 72.5t83 72.5q84 72 170 138.5t180 125.5q8 6 25.5 4t33.5 -8t25.5 -16t1.5 -23q-29 -37 -56.5 -76.5t-40.5 -85.5q-16 -55 -43.5 -103 t-50.5 -101q-10 -23 -20 -46.5t-15 -45.5q-4 -20 -4 -41t-4 -39q-2 -4 -4 -11.5t-2 -13.5q6 2 12.5 4t12.5 4q25 10 45 25.5t41 34.5q4 4 15 4t22.5 -3t17.5 -10.5t0 -15.5q-33 -43 -93.5 -73.5t-117.5 -22.5q-33 6 -67.5 21.5t-62.5 40t-42 57t-6 71.5q4 14 7 26.5t9 24.5 q-33 -39 -63.5 -75.5t-64.5 -65.5t-76 -47t-97 -20q-16 0 -43.5 4t-54.5 14t-47.5 26.5t-22.5 39.5zM287 1268q0 18 2 35.5t6 35.5q4 31 12 69t37 60q8 6 25.5 8.5t35 -0.5t31 -12.5t13.5 -23.5q2 -29 -23 -54q-12 -16 -19.5 -32.5t-15.5 -34.5q-10 -14 -18 -28.5t-17 -26.5 l-6 -8q-6 -7 -12 -13t-12.5 -8t-8.5 4q2 -4 -1 -3t-5 3q-2 4 -9 4t-9 4q-4 4 -4 10.5t-2 10.5z" />
<glyph unicode="&#xe2;" horiz-adv-x="882" d="M-31 408q-4 45 4.5 95t23.5 100t35.5 96t41.5 87q49 96 122.5 172t159.5 136q39 27 87.5 57.5t100.5 53t105 31.5t103 -3q43 -12 67.5 -35.5t30.5 -52.5t-7.5 -60.5t-45.5 -60.5q-4 -4 -18.5 -2t-10.5 10q2 8 9 34t9 48q-12 -4 -25 -9t-24 -9q-27 -14 -52.5 -27.5 t-49.5 -30.5q-66 -41 -124 -89t-105 -107q-43 -55 -71 -113.5t-50 -126.5q-6 -18 -11.5 -37.5t-9.5 -40.5q12 12 19 17q41 37 83 72.5t83 72.5q84 72 170 138.5t180 125.5q8 6 25.5 4t33.5 -8t25.5 -16t1.5 -23q-29 -37 -56.5 -76.5t-40.5 -85.5q-16 -55 -43.5 -103 t-50.5 -101q-10 -23 -20 -46.5t-15 -45.5q-4 -20 -4 -41t-4 -39q-2 -4 -4 -11.5t-2 -13.5q6 2 12.5 4t12.5 4q25 10 45 25.5t41 34.5q4 4 15 4t22.5 -3t17.5 -10.5t0 -15.5q-33 -43 -93.5 -73.5t-117.5 -22.5q-33 6 -67.5 21.5t-62.5 40t-42 57t-6 71.5q4 14 7 26.5t9 24.5 q-33 -39 -63.5 -75.5t-64.5 -65.5t-76 -47t-97 -20q-16 0 -43.5 4t-54.5 14t-47.5 26.5t-22.5 39.5zM233 1225q-4 16 4.5 33.5t16.5 29.5q20 43 39 76q10 23 25.5 42t25.5 42q10 16 26.5 17t32.5 -3q4 0 7.5 -1t7.5 -1q10 -4 29.5 -14t15.5 -27q-6 -16 2 -42t14 -42 q6 -18 13.5 -36.5t13.5 -36.5q2 -6 -7.5 -5.5t-11.5 5.5q-25 20 -45 43.5t-39 50.5q0 4 -2 5t-4 5q-4 -4 -10 -9t-10 -9q-23 -16 -41 -35q-14 -14 -27.5 -26.5t-25.5 -29.5q-8 -6 -17.5 -19t-19.5 -15h6q-4 -6 -10 -5t-9 7z" />
<glyph unicode="&#xe3;" horiz-adv-x="882" d="M-31 408q-4 45 4.5 95t23.5 100t35.5 96t41.5 87q49 96 122.5 172t159.5 136q39 27 87.5 57.5t100.5 53t105 31.5t103 -3q43 -12 67.5 -35.5t30.5 -52.5t-7.5 -60.5t-45.5 -60.5q-4 -4 -18.5 -2t-10.5 10q2 8 9 34t9 48q-12 -4 -25 -9t-24 -9q-27 -14 -52.5 -27.5 t-49.5 -30.5q-66 -41 -124 -89t-105 -107q-43 -55 -71 -113.5t-50 -126.5q-6 -18 -11.5 -37.5t-9.5 -40.5q12 12 19 17q41 37 83 72.5t83 72.5q84 72 170 138.5t180 125.5q8 6 25.5 4t33.5 -8t25.5 -16t1.5 -23q-29 -37 -56.5 -76.5t-40.5 -85.5q-16 -55 -43.5 -103 t-50.5 -101q-10 -23 -20 -46.5t-15 -45.5q-4 -20 -4 -41t-4 -39q-2 -4 -4 -11.5t-2 -13.5q6 2 12.5 4t12.5 4q25 10 45 25.5t41 34.5q4 4 15 4t22.5 -3t17.5 -10.5t0 -15.5q-33 -43 -93.5 -73.5t-117.5 -22.5q-33 6 -67.5 21.5t-62.5 40t-42 57t-6 71.5q4 14 7 26.5t9 24.5 q-33 -39 -63.5 -75.5t-64.5 -65.5t-76 -47t-97 -20q-16 0 -43.5 4t-54.5 14t-47.5 26.5t-22.5 39.5zM226.5 1347q-5.5 3 4.5 13q37 31 70 45t72 4q27 -8 52.5 -18.5t53.5 -20.5q25 -8 50.5 -8t48.5 -4q2 2 8 2q2 0 9 2t13 2t8 -2t-2 -10q-2 -4 -4 -7.5t-2 -7.5 q-4 -12 -14.5 -20t-20.5 -12q-49 -16 -97 4t-95 34q-35 10 -74 11.5t-71 -8.5q-4 -2 -9.5 1z" />
<glyph unicode="&#xe4;" horiz-adv-x="882" d="M-31 408q-4 45 4.5 95t23.5 100t35.5 96t41.5 87q49 96 122.5 172t159.5 136q39 27 87.5 57.5t100.5 53t105 31.5t103 -3q43 -12 67.5 -35.5t30.5 -52.5t-7.5 -60.5t-45.5 -60.5q-4 -4 -18.5 -2t-10.5 10q2 8 9 34t9 48q-12 -4 -25 -9t-24 -9q-27 -14 -52.5 -27.5 t-49.5 -30.5q-66 -41 -124 -89t-105 -107q-43 -55 -71 -113.5t-50 -126.5q-6 -18 -11.5 -37.5t-9.5 -40.5q12 12 19 17q41 37 83 72.5t83 72.5q84 72 170 138.5t180 125.5q8 6 25.5 4t33.5 -8t25.5 -16t1.5 -23q-29 -37 -56.5 -76.5t-40.5 -85.5q-16 -55 -43.5 -103 t-50.5 -101q-10 -23 -20 -46.5t-15 -45.5q-4 -20 -4 -41t-4 -39q-2 -4 -4 -11.5t-2 -13.5q6 2 12.5 4t12.5 4q25 10 45 25.5t41 34.5q4 4 15 4t22.5 -3t17.5 -10.5t0 -15.5q-33 -43 -93.5 -73.5t-117.5 -22.5q-33 6 -67.5 21.5t-62.5 40t-42 57t-6 71.5q4 14 7 26.5t9 24.5 q-33 -39 -63.5 -75.5t-64.5 -65.5t-76 -47t-97 -20q-16 0 -43.5 4t-54.5 14t-47.5 26.5t-22.5 39.5zM264 1397q4 20 8 28q10 20 41 17q12 0 28.5 -6t23.5 -17h2q16 -4 30.5 -13t18.5 -26q10 -27 -8.5 -44t-45.5 -17q-16 0 -35.5 4t-35 13.5t-23.5 24.5t-4 36zM336 1366v2h2 q-2 0 -2 -2zM449 1397q4 20 8 28q10 20 41 17q12 0 28.5 -6t22.5 -17h2q16 -4 30.5 -13t18.5 -26q10 -27 -8 -44t-45 -17q-16 0 -35.5 4t-35 13.5t-24 24.5t-3.5 36zM520 1366v2h2q-2 0 -2 -2z" />
<glyph unicode="&#xe5;" horiz-adv-x="882" d="M-31 408q-4 45 4.5 95t23.5 100t35.5 96t41.5 87q49 96 122.5 172t159.5 136q8 4 15.5 10t15.5 12l-12 6q-31 16 -45.5 46t-18.5 65q-4 45 7.5 87t33.5 81q23 43 56.5 76.5t87.5 25.5q45 -4 75.5 -32.5t24.5 -75.5q-4 -23 -12.5 -44.5t-16.5 -39.5q-6 -10 -10 -21.5 t-10 -21.5t-16.5 -18.5t-18.5 -18.5q-6 -6 -24.5 -6t-20.5 10t-5 19.5t1 21.5q2 14 16 35q6 16 13.5 32.5t11.5 32.5t5 35t-9 31q-4 4 -8.5 8t-8.5 8l-12 -10q-23 -29 -39 -63.5t-26 -69.5q-8 -33 -8.5 -69t16.5 -64q10 -20 22 -29h4q-2 0 3.5 3t7.5 3q16 8 18 10 q10 8 17.5 14.5t15.5 16.5q29 29 59.5 67t34.5 81q0 4 2 4t4 -4q4 -12 4 -25.5t-2 -26.5q-6 -41 -24 -77q43 16 87 20t85 -6q43 -12 67.5 -35.5t30.5 -52.5t-7.5 -60.5t-45.5 -60.5q-4 -4 -18.5 -2t-10.5 10q2 8 9 34t9 48l-49 -18q-27 -14 -52.5 -27.5t-49.5 -30.5 q-66 -41 -124 -89t-105 -107q-43 -55 -71 -113.5t-50 -126.5q-6 -18 -11.5 -37.5t-9.5 -40.5l19 17l166 145q84 72 170 138.5t180 125.5q8 6 25.5 4t33.5 -8t25.5 -16t1.5 -23q-29 -37 -56.5 -76.5t-40.5 -85.5q-16 -55 -43.5 -103t-50.5 -101q-10 -23 -20 -46.5t-15 -45.5 q-4 -20 -4 -41t-4 -39q-2 -4 -4 -11.5t-2 -13.5l25 8q25 10 45 25.5t41 34.5q4 4 15 4t22.5 -3t17.5 -10.5t0 -15.5q-33 -43 -93.5 -73.5t-117.5 -22.5q-33 6 -67.5 21.5t-62.5 40t-42 57t-6 71.5q4 14 7 26.5t9 24.5q-33 -39 -63.5 -75.5t-64.5 -65.5t-76 -47t-97 -20 q-16 0 -43.5 4t-54.5 14t-47.5 26.5t-22.5 39.5z" />
<glyph unicode="&#xe6;" horiz-adv-x="1325" d="M-31 408q-4 45 4.5 95t23.5 100t35.5 96t41.5 87q49 96 122.5 172t159.5 136q39 27 87.5 57.5t100.5 53t105 31.5t103 -3q59 -16 82.5 -53t13.5 -78q41 41 89 69.5t105 34.5q31 20 63 32.5t66 16.5q39 4 89.5 -7t90.5 -37.5t57 -66.5t-9 -91q-27 -53 -68 -98.5t-82 -91.5 t-72.5 -95t-39.5 -111q-2 -12 -15.5 -16t-23.5 -4q-53 4 -103.5 11t-103.5 14q-43 4 -70 -3q-23 -59 -39 -131q-6 -23 -12 -54.5t4 -57.5q16 -2 30.5 -9.5t6.5 -19.5l-8 -10q14 -10 30.5 -8t38.5 10q92 29 175 93.5t124 150.5q2 4 6.5 3t4.5 -5q8 -23 4 -45.5t-15.5 -44 t-28 -42t-30.5 -34.5q-39 -43 -86 -80t-102 -60q-47 -18 -96.5 -16t-96.5 20q-31 -16 -64.5 -24t-66.5 -4q-33 6 -67.5 21.5t-62.5 40t-42 57t-6 71.5q4 14 7 26.5t9 24.5q-33 -39 -63.5 -75.5t-64.5 -65.5t-76 -47t-97 -20q-16 0 -43.5 4t-54.5 14t-47.5 26.5t-22.5 39.5z M264 524l19 17l166 145q57 49 116.5 97t120.5 91l12 23q16 29 37 61.5t43 63.5q-12 4 -10 10q2 8 9 34t9 48l-49 -18q-27 -14 -52.5 -27.5t-49.5 -30.5q-66 -41 -124 -89t-105 -107q-43 -55 -71 -113.5t-50 -126.5q-6 -18 -11.5 -37.5t-9.5 -40.5zM645 344l25 8l4 2l-23 19 v-4q-2 -4 -4 -11.5t-2 -13.5zM840 709q41 4 84 2t80 -2q-6 45 5 88t32.5 82t50 75.5t57.5 71.5q12 14 33.5 39.5t31.5 52.5q-86 -53 -160.5 -125.5t-146.5 -142.5q-37 -72 -67 -141z" />
<glyph unicode="&#xe7;" horiz-adv-x="827" d="M-23 399q-6 68 5.5 139.5t36 140.5t60.5 132t81 115q39 43 81 85t87 79q47 37 103 77.5t116 51.5q27 6 78 7t100 -8.5t80 -36t18 -75.5q-16 -68 -64 -136.5t-95 -117.5q-4 -4 -14.5 -1t-10.5 9q0 29 8 56.5t19.5 56t22.5 56.5t16 56l4 21q-23 -16 -43.5 -33.5 t-42.5 -36.5q-70 -59 -138.5 -125.5t-117.5 -144.5q-49 -76 -79 -159t-40 -171q10 4 21.5 9.5t21.5 11.5q35 16 68.5 35.5t68.5 35.5q66 33 135.5 61.5t134.5 65.5q4 2 14.5 -2t6.5 -10q-27 -37 -59.5 -66.5t-69.5 -54t-75 -48t-75 -50.5q-59 -41 -123.5 -76t-136.5 -39 q0 -8 -1 -14t-3 -14q-4 -31 -12 -69t-37 -60q-10 -6 -26.5 -8.5t-34 0.5t-30.5 12.5t-13 23.5q-2 29 22 53q12 16 19.5 33t15.5 35q6 6 10 16q-18 4 -36.5 11.5t-35 17.5t-27.5 23.5t-14 29.5z" />
<glyph unicode="&#xe8;" horiz-adv-x="761" d="M-30 626.5q5 55.5 21.5 108.5t41 104.5t51.5 98.5q27 49 62.5 100.5t78.5 95.5t93.5 75.5t109.5 37.5q31 20 62.5 32.5t66.5 16.5q39 4 89 -7t90 -37.5t57.5 -66.5t-9.5 -91q-27 -53 -67.5 -98.5t-81.5 -91.5t-73 -95t-40 -111q-2 -12 -15 -16t-24 -4q-53 4 -103 11 t-104 13q-43 4 -69 -2q-23 -59 -39 -131q-6 -27 -11 -63.5t11 -63.5q18 -29 38.5 -30.5t51.5 8.5q92 29 175 93.5t124 150.5q2 4 6 3t4 -5q8 -23 4 -45.5t-15 -44t-27.5 -42t-30.5 -34.5q-39 -43 -86 -80t-103 -60q-47 -18 -100 -15t-100.5 24.5t-83.5 59.5t-48 91 q-12 55 -7 110.5zM166 1501q0 14 13.5 23.5t30.5 12.5t33.5 1t26.5 -8q29 -23 37 -60.5t12 -68.5q4 -18 6.5 -35.5t2.5 -36.5q-2 -4 -2 -10t-4 -10q-2 -4 -9.5 -4t-9.5 -5q-2 -2 -5 -3t-1 3q-2 -6 -8 -4t-12.5 8.5t-12.5 13.5l-6 7q-8 12 -16.5 26.5t-18.5 28.5 q-8 18 -15 35t-20 33q-25 25 -22 53zM225 750q41 4 84 2t80 -2q-6 45 5.5 88t33 81.5t50 75.5t57.5 72q12 14 33.5 39.5t31.5 52.5q-86 -53 -160.5 -125.5t-146.5 -142.5q-37 -72 -68 -141z" />
<glyph unicode="&#xe9;" horiz-adv-x="761" d="M-30 626.5q5 55.5 21.5 108.5t41 104.5t51.5 98.5q27 49 62.5 100.5t78.5 95.5t93.5 75.5t109.5 37.5q31 20 62.5 32.5t66.5 16.5q39 4 89 -7t90 -37.5t57.5 -66.5t-9.5 -91q-27 -53 -67.5 -98.5t-81.5 -91.5t-73 -95t-40 -111q-2 -12 -15 -16t-24 -4q-53 4 -103 11 t-104 13q-43 4 -69 -2q-23 -59 -39 -131q-6 -27 -11 -63.5t11 -63.5q18 -29 38.5 -30.5t51.5 8.5q92 29 175 93.5t124 150.5q2 4 6 3t4 -5q8 -23 4 -45.5t-15 -44t-27.5 -42t-30.5 -34.5q-39 -43 -86 -80t-103 -60q-47 -18 -100 -15t-100.5 24.5t-83.5 59.5t-48 91 q-12 55 -7 110.5zM225 750q41 4 84 2t80 -2q-6 45 5.5 88t33 81.5t50 75.5t57.5 72q12 14 33.5 39.5t31.5 52.5q-86 -53 -160.5 -125.5t-146.5 -142.5q-37 -72 -68 -141zM246 1329q0 18 2 35.5t6 36.5q4 31 12 68.5t37 60.5q8 6 25.5 8t35 -1t31 -12t13.5 -24q2 -29 -23 -53 q-12 -16 -19.5 -33t-15.5 -35q-10 -14 -18 -28.5t-17 -26.5l-6 -7t-12 -13.5t-12 -8.5t-9 4q2 -4 -1 -3t-5 3q-2 4 -9 4.5t-9 4.5q-4 4 -4 10t-2 10z" />
<glyph unicode="&#xea;" horiz-adv-x="761" d="M-30 626.5q5 55.5 21.5 108.5t41 104.5t51.5 98.5q27 49 62.5 100.5t78.5 95.5t93.5 75.5t109.5 37.5q31 20 62.5 32.5t66.5 16.5q39 4 89 -7t90 -37.5t57.5 -66.5t-9.5 -91q-27 -53 -67.5 -98.5t-81.5 -91.5t-73 -95t-40 -111q-2 -12 -15 -16t-24 -4q-53 4 -103 11 t-104 13q-43 4 -69 -2q-23 -59 -39 -131q-6 -27 -11 -63.5t11 -63.5q18 -29 38.5 -30.5t51.5 8.5q92 29 175 93.5t124 150.5q2 4 6 3t4 -5q8 -23 4 -45.5t-15 -44t-27.5 -42t-30.5 -34.5q-39 -43 -86 -80t-103 -60q-47 -18 -100 -15t-100.5 24.5t-83.5 59.5t-48 91 q-12 55 -7 110.5zM193 1286q-4 16 4 33.5t16 30.5q20 43 39 75q10 23 25.5 42.5t25.5 41.5q10 16 26.5 17.5t32.5 -2.5q4 0 7.5 -1t7.5 -1q10 -4 29.5 -14.5t15.5 -26.5q-6 -16 2 -42t14 -42q6 -18 13.5 -37t13.5 -37q2 -6 -7 -5t-12 5q-25 20 -45 44t-39 50q0 4 -2 5t-4 5 q-4 -4 -10 -9t-10 -9q-23 -16 -41 -35q-14 -14 -27.5 -26.5t-25.5 -28.5q-8 -6 -17.5 -19.5t-19.5 -15.5h6q-4 -6 -10 -5t-8 7zM225 750q41 4 84 2t80 -2q-6 45 5.5 88t33 81.5t50 75.5t57.5 72q12 14 33.5 39.5t31.5 52.5q-86 -53 -160.5 -125.5t-146.5 -142.5 q-37 -72 -68 -141z" />
<glyph unicode="&#xeb;" horiz-adv-x="761" d="M-30 626.5q5 55.5 21.5 108.5t41 104.5t51.5 98.5q27 49 62.5 100.5t78.5 95.5t93.5 75.5t109.5 37.5q31 20 62.5 32.5t66.5 16.5q39 4 89 -7t90 -37.5t57.5 -66.5t-9.5 -91q-27 -53 -67.5 -98.5t-81.5 -91.5t-73 -95t-40 -111q-2 -12 -15 -16t-24 -4q-53 4 -103 11 t-104 13q-43 4 -69 -2q-23 -59 -39 -131q-6 -27 -11 -63.5t11 -63.5q18 -29 38.5 -30.5t51.5 8.5q92 29 175 93.5t124 150.5q2 4 6 3t4 -5q8 -23 4 -45.5t-15 -44t-27.5 -42t-30.5 -34.5q-39 -43 -86 -80t-103 -60q-47 -18 -100 -15t-100.5 24.5t-83.5 59.5t-48 91 q-12 55 -7 110.5zM182 1397q4 20 8 28q10 20 41 17q12 0 28.5 -6t23.5 -17h2q16 -4 30.5 -13t18.5 -26q10 -27 -8 -44t-45 -17q-16 0 -36 4t-35 13.5t-23.5 24.5t-4.5 36zM225 750q41 4 84 2t80 -2q-6 45 5.5 88t33 81.5t50 75.5t57.5 72q12 14 33.5 39.5t31.5 52.5 q-86 -53 -160.5 -125.5t-146.5 -142.5q-37 -72 -68 -141zM254 1366v2h2q-2 0 -2 -2zM367 1397q4 20 8 28q10 20 41 17q12 0 28.5 -6t22.5 -17h2q16 -4 30.5 -13t18.5 -26q10 -27 -8 -44t-45 -17q-16 0 -35.5 4t-35 13.5t-24 24.5t-3.5 36zM438 1366v2h2q-2 0 -2 -2z" />
<glyph unicode="&#xec;" horiz-adv-x="432" d="M3 528q5 45 17 86q23 74 50.5 145.5t60.5 143.5q23 51 54 95.5t51 95.5q4 8 7 16t3 18q-6 -4 -13.5 -6t-13.5 -6q-20 -10 -39.5 -21.5t-38.5 -23.5q-10 -6 -26.5 -13t-24.5 -18q2 -6 -11 -6t-18 2q-23 12 -15.5 34t28 44.5t45 41t35.5 24.5q59 31 123.5 17.5t109.5 -62.5 q37 -41 42 -86t-8 -91.5t-36 -91.5t-39 -86q-35 -90 -63.5 -180t-55.5 -182l-13 -39t-13 -49q25 6 47 30q23 27 41 47.5t51 32.5q8 4 26.5 -1t14.5 -17q-18 -53 -48 -96t-85 -62q-41 -12 -82 -3t-76 32q-39 27 -59.5 64.5t-26.5 81.5t-1 89zM171 326q-1 -2 5 0q-4 2 -5 0z M227 1440q0 14 13.5 23.5t31 12.5t34 1t26.5 -9q29 -23 37 -60.5t12 -68.5q4 -18 6 -35.5t2 -35.5q-2 -4 -2 -10.5t-4 -10.5q-2 -4 -9 -4t-9 -4q-2 -2 -5.5 -3t-1.5 3q-2 -6 -8 -4t-12 8t-12 13l-7 8q-8 12 -16 26.5t-18 28.5q-8 18 -15.5 34.5t-19.5 32.5q-25 25 -23 54z " />
<glyph unicode="&#xed;" horiz-adv-x="432" d="M3 528q5 45 17 86q23 74 50.5 145.5t60.5 143.5q23 51 54 95.5t51 95.5q4 8 7 16t3 18q-6 -4 -13.5 -6t-13.5 -6q-20 -10 -39.5 -21.5t-38.5 -23.5q-10 -6 -26.5 -13t-24.5 -18q2 -6 -11 -6t-18 2q-23 12 -15.5 34t28 44.5t45 41t35.5 24.5q59 31 123.5 17.5t109.5 -62.5 q37 -41 42 -86t-8 -91.5t-36 -91.5t-39 -86q-35 -90 -63.5 -180t-55.5 -182l-13 -39t-13 -49q25 6 47 30q23 27 41 47.5t51 32.5q8 4 26.5 -1t14.5 -17q-18 -53 -48 -96t-85 -62q-41 -12 -82 -3t-76 32q-39 27 -59.5 64.5t-26.5 81.5t-1 89zM171 326q-1 -2 5 0q-4 2 -5 0z M307 1268q0 18 2 35.5t6 35.5q4 31 12.5 69t37.5 60q8 6 25.5 8.5t34.5 -0.5t30.5 -12.5t13.5 -23.5q2 -29 -23 -54q-12 -16 -19 -32.5t-15 -34.5q-10 -14 -18.5 -28.5t-16.5 -26.5l-6 -8q-6 -7 -12.5 -13t-12.5 -8t-8 4q2 -4 -1 -3t-5 3q-2 4 -9.5 4t-9.5 4q-4 4 -4 10.5 t-2 10.5z" />
<glyph unicode="&#xee;" horiz-adv-x="432" d="M3 528q5 45 17 86q23 74 50.5 145.5t60.5 143.5q23 51 54 95.5t51 95.5q4 8 7 16t3 18q-6 -4 -13.5 -6t-13.5 -6q-20 -10 -39.5 -21.5t-38.5 -23.5q-10 -6 -26.5 -13t-24.5 -18q2 -6 -11 -6t-18 2q-23 12 -15.5 34t28 44.5t45 41t35.5 24.5q59 31 123.5 17.5t109.5 -62.5 q37 -41 42 -86t-8 -91.5t-36 -91.5t-39 -86q-35 -90 -63.5 -180t-55.5 -182l-13 -39t-13 -49q25 6 47 30q23 27 41 47.5t51 32.5q8 4 26.5 -1t14.5 -17q-18 -53 -48 -96t-85 -62q-41 -12 -82 -3t-76 32q-39 27 -59.5 64.5t-26.5 81.5t-1 89zM131 1266q-4 16 4 33.5t17 29.5 q20 43 38 76q10 23 25.5 42t26.5 42q10 16 26.5 17t32.5 -3q4 0 7 -1t7 -1q10 -4 30 -14t15 -27q-6 -16 2.5 -42t14.5 -42q6 -18 13 -36.5t13 -36.5q2 -6 -7 -5.5t-11 5.5q-25 20 -45.5 43.5t-38.5 50.5q0 4 -2 5t-4 5q-4 -4 -10 -9t-11 -9q-23 -16 -41 -35 q-14 -14 -27 -26.5t-26 -29.5q-8 -6 -17 -19t-20 -15h7q-4 -6 -10.5 -5t-8.5 7zM171 326q-1 -2 5 0q-4 2 -5 0z" />
<glyph unicode="&#xef;" horiz-adv-x="432" d="M3 528q5 45 17 86q23 74 50.5 145.5t60.5 143.5q23 51 54 95.5t51 95.5q4 8 7 16t3 18q-6 -4 -13.5 -6t-13.5 -6q-20 -10 -39.5 -21.5t-38.5 -23.5q-10 -6 -26.5 -13t-24.5 -18q2 -6 -11 -6t-18 2q-23 12 -15.5 34t28 44.5t45 41t35.5 24.5q59 31 123.5 17.5t109.5 -62.5 q37 -41 42 -86t-8 -91.5t-36 -91.5t-39 -86q-35 -90 -63.5 -180t-55.5 -182l-13 -39t-13 -49q25 6 47 30q23 27 41 47.5t51 32.5q8 4 26.5 -1t14.5 -17q-18 -53 -48 -96t-85 -62q-41 -12 -82 -3t-76 32q-39 27 -59.5 64.5t-26.5 81.5t-1 89zM80 1376q4 20 8 29q10 20 41 16 q12 0 28.5 -6t22.5 -16h2q16 -4 30.5 -13.5t18.5 -25.5q10 -27 -8 -44.5t-45 -17.5q-16 0 -35.5 4.5t-35 13.5t-23.5 24.5t-4 35.5zM152 1346v2h2q-2 0 -2 -2zM171 326q-1 -2 5 0q-4 2 -5 0zM264 1376q4 20 8 29q10 20 41 16q12 0 28.5 -6t23.5 -16h2q16 -4 30.5 -13.5 t18.5 -25.5q10 -27 -8.5 -44.5t-45.5 -17.5q-16 0 -35.5 4.5t-35 13.5t-23.5 24.5t-4 35.5zM336 1346v2h2q-2 0 -2 -2z" />
<glyph unicode="&#xf0;" horiz-adv-x="784" d="M-27.5 574q11.5 67 23.5 128q14 70 35.5 135.5t46 131t48.5 132t40 134.5q6 25 34.5 29t59.5 -5.5t56.5 -29t25.5 -41.5q-2 -51 -24.5 -101.5t-43.5 -95.5q-29 -59 -57.5 -117.5t-56.5 -115.5q-29 -59 -52.5 -117.5t-25.5 -124.5q0 -35 13.5 -76t45.5 -59q10 2 27 2 q37 0 69.5 15.5t62.5 39t54.5 51t44.5 56.5q47 63 86 134t70 144q18 43 33.5 105.5t13.5 124t-27.5 109.5t-89.5 65q-16 4 -37.5 7t-41 11t-29.5 21.5t-4 36.5q2 10 19.5 6t19.5 -13q0 -16 15 -23t35.5 -10t42 -4.5t34.5 -3.5q47 -10 93 -45.5t75 -76.5q76 -102 76.5 -225 t-46.5 -236q-37 -92 -91 -179t-134 -149q-41 -31 -87 -53.5t-95 -31.5t-98.5 -2t-94.5 36q-53 23 -101 57.5t-61 93.5q-14 63 -2.5 130zM246 1272q12 41 41.5 75.5t58.5 63.5l19 21q-18 23 -36 48t-38 48q-2 4 3 4h7q29 -14 50.5 -31.5t41.5 -38.5l15 15l32 34 q6 8 12.5 16.5t16.5 14.5q12 4 31.5 0t23.5 -20q2 -12 -5 -20.5t-17 -16.5l-35 -33l-37 -31q25 -29 50.5 -55.5t54.5 -48.5q10 -6 5.5 -14.5t-14.5 -10.5q-25 -6 -49 13q-23 20 -44 41.5t-40 46.5q-35 -31 -71.5 -59.5t-67.5 -63.5q-2 -2 -6 -1t-2 3z" />
<glyph unicode="&#xf1;" horiz-adv-x="1001" d="M-39 346q-2 84 19.5 167t55.5 165t74 159.5t76 149.5q12 27 32 52.5t37 53t29.5 56.5t14.5 59q0 25 -7 35t-20.5 11t-31 -3t-33.5 -8q-25 -6 -48.5 -13t-45.5 -16q-4 0 -9.5 1.5t-3.5 5.5q14 20 39 37.5t54.5 29.5t58.5 16.5t53 -4.5q78 -27 102.5 -86t8.5 -135l-25 -98 q33 35 65.5 65.5t67.5 59.5t69 56.5t71 54.5q23 16 52 41.5t58 31.5q25 4 54.5 -14.5t43.5 -36.5q23 -31 42.5 -66.5t21.5 -72.5q2 -51 -6 -95t-20.5 -84t-26 -79t-23.5 -80q-20 -82 -49 -163t-39 -165q-4 -18 -4 -36.5t4 -35.5q4 -10 6 -13t4 -7q41 6 80 28.5t72 51.5 q6 4 18.5 4t23.5 -3t19.5 -9t3.5 -15q-16 -47 -39.5 -91t-70.5 -70q-29 -16 -60.5 -19.5t-65.5 3.5t-65.5 20.5t-56.5 27.5q-51 29 -73.5 72t-25.5 92t10 101.5t34 99.5q25 53 52.5 104.5t51.5 104.5q29 59 63.5 112.5t61.5 112.5q8 20 14.5 46t6.5 50.5t-8.5 46t-26.5 37.5 q-104 -66 -198.5 -144.5t-182.5 -166.5q-16 -16 -31.5 -32.5t-32.5 -33.5l-98 -282t-59 -291q-2 -29 -39 -35t-81 3t-81 29.5t-37 49.5zM329 1387.5q-5 3.5 5 13.5q37 31 69.5 45t71.5 4q27 -8 52.5 -18.5t54.5 -20.5q25 -8 50 -8t48 -4q2 2 8 2q2 0 9.5 2t13.5 2t8 -2 t-2 -10q-2 -4 -4 -7.5t-2 -7.5q-4 -12 -14.5 -20t-20.5 -12q-49 -16 -97.5 4t-95.5 34q-35 10 -73.5 11.5t-71.5 -9.5q-4 -2 -9 1.5z" />
<glyph unicode="&#xf2;" horiz-adv-x="784" d="M-27.5 574q11.5 67 23.5 128q14 70 35.5 135.5t46 131t48.5 132t40 134.5q6 25 34.5 29t59.5 -5.5t56.5 -29t25.5 -41.5q-2 -51 -24.5 -101.5t-43.5 -95.5q-29 -59 -57.5 -117.5t-56.5 -115.5q-29 -59 -52.5 -117.5t-25.5 -124.5q0 -35 13.5 -76t45.5 -59q10 2 27 2 q37 0 69.5 15.5t62.5 39t54.5 51t44.5 56.5q47 63 86 134t70 144q18 43 33.5 105.5t13.5 124t-27.5 109.5t-89.5 65q-16 4 -37.5 7t-41 11t-29.5 21.5t-4 36.5q2 10 19.5 6t19.5 -13q0 -16 15 -23t35.5 -10t42 -4.5t34.5 -3.5q47 -10 93 -45.5t75 -76.5q76 -102 76.5 -225 t-46.5 -236q-37 -92 -91 -179t-134 -149q-41 -31 -87 -53.5t-95 -31.5t-98.5 -2t-94.5 36q-53 23 -101 57.5t-61 93.5q-14 63 -2.5 130zM166 1501q0 14 13.5 23.5t30.5 12.5t33.5 1t26.5 -8q29 -23 37 -60.5t12 -68.5q4 -18 6.5 -35.5t2.5 -36.5q-2 -4 -2 -10t-4 -10 q-2 -4 -9.5 -4t-9.5 -5q-2 -2 -5 -3t-1 3q-2 -6 -8 -4t-12.5 8.5t-12.5 13.5l-6 7q-8 12 -16.5 26.5t-18.5 28.5q-8 18 -15 35t-20 33q-25 25 -22 53z" />
<glyph unicode="&#xf3;" horiz-adv-x="784" d="M-27.5 574q11.5 67 23.5 128q14 70 35.5 135.5t46 131t48.5 132t40 134.5q6 25 34.5 29t59.5 -5.5t56.5 -29t25.5 -41.5q-2 -51 -24.5 -101.5t-43.5 -95.5q-29 -59 -57.5 -117.5t-56.5 -115.5q-29 -59 -52.5 -117.5t-25.5 -124.5q0 -35 13.5 -76t45.5 -59q10 2 27 2 q37 0 69.5 15.5t62.5 39t54.5 51t44.5 56.5q47 63 86 134t70 144q18 43 33.5 105.5t13.5 124t-27.5 109.5t-89.5 65q-16 4 -37.5 7t-41 11t-29.5 21.5t-4 36.5q2 10 19.5 6t19.5 -13q0 -16 15 -23t35.5 -10t42 -4.5t34.5 -3.5q47 -10 93 -45.5t75 -76.5q76 -102 76.5 -225 t-46.5 -236q-37 -92 -91 -179t-134 -149q-41 -31 -87 -53.5t-95 -31.5t-98.5 -2t-94.5 36q-53 23 -101 57.5t-61 93.5q-14 63 -2.5 130zM246 1329q0 18 2 35.5t6 36.5q4 31 12 68.5t37 60.5q8 6 25.5 8t35 -1t31 -12t13.5 -24q2 -29 -23 -53q-12 -16 -19.5 -33t-15.5 -35 q-10 -14 -18 -28.5t-17 -26.5l-6 -7t-12 -13.5t-12 -8.5t-9 4q2 -4 -1 -3t-5 3q-2 4 -9 4.5t-9 4.5q-4 4 -4 10t-2 10z" />
<glyph unicode="&#xf4;" horiz-adv-x="784" d="M-27.5 574q11.5 67 23.5 128q14 70 35.5 135.5t46 131t48.5 132t40 134.5q6 25 34.5 29t59.5 -5.5t56.5 -29t25.5 -41.5q-2 -51 -24.5 -101.5t-43.5 -95.5q-29 -59 -57.5 -117.5t-56.5 -115.5q-29 -59 -52.5 -117.5t-25.5 -124.5q0 -35 13.5 -76t45.5 -59q10 2 27 2 q37 0 69.5 15.5t62.5 39t54.5 51t44.5 56.5q47 63 86 134t70 144q18 43 33.5 105.5t13.5 124t-27.5 109.5t-89.5 65q-16 4 -37.5 7t-41 11t-29.5 21.5t-4 36.5q2 10 19.5 6t19.5 -13q0 -16 15 -23t35.5 -10t42 -4.5t34.5 -3.5q47 -10 93 -45.5t75 -76.5q76 -102 76.5 -225 t-46.5 -236q-37 -92 -91 -179t-134 -149q-41 -31 -87 -53.5t-95 -31.5t-98.5 -2t-94.5 36q-53 23 -101 57.5t-61 93.5q-14 63 -2.5 130zM193 1327q-4 16 4 33.5t16 30.5q20 43 39 75q10 23 25.5 42.5t25.5 41.5q10 16 26.5 17.5t32.5 -2.5q4 0 7.5 -1t7.5 -1 q10 -4 29.5 -14.5t15.5 -26.5q-6 -16 2 -42t14 -42q6 -18 13.5 -37t13.5 -37q2 -6 -7 -5t-12 5q-25 20 -45 44t-39 50q0 4 -2 5t-4 5q-4 -4 -10 -9t-10 -9q-23 -16 -41 -35q-14 -14 -27.5 -26.5t-25.5 -28.5q-8 -6 -17.5 -19.5t-19.5 -15.5h6q-4 -6 -10 -5t-8 7z" />
<glyph unicode="&#xf5;" horiz-adv-x="784" d="M-27.5 574q11.5 67 23.5 128q14 70 35.5 135.5t46 131t48.5 132t40 134.5q6 25 34.5 29t59.5 -5.5t56.5 -29t25.5 -41.5q-2 -51 -24.5 -101.5t-43.5 -95.5q-29 -59 -57.5 -117.5t-56.5 -115.5q-29 -59 -52.5 -117.5t-25.5 -124.5q0 -35 13.5 -76t45.5 -59q10 2 27 2 q37 0 69.5 15.5t62.5 39t54.5 51t44.5 56.5q47 63 86 134t70 144q18 43 33.5 105.5t13.5 124t-27.5 109.5t-89.5 65q-16 4 -37.5 7t-41 11t-29.5 21.5t-4 36.5q2 10 19.5 6t19.5 -13q0 -16 15 -23t35.5 -10t42 -4.5t34.5 -3.5q47 -10 93 -45.5t75 -76.5q76 -102 76.5 -225 t-46.5 -236q-37 -92 -91 -179t-134 -149q-41 -31 -87 -53.5t-95 -31.5t-98.5 -2t-94.5 36q-53 23 -101 57.5t-61 93.5q-14 63 -2.5 130zM165 1387.5q-5 3.5 5 13.5q37 31 69.5 45t71.5 4q27 -8 52.5 -18.5t54.5 -20.5q25 -8 50.5 -8t47.5 -4q2 2 8 2q2 0 9.5 2t13.5 2t8 -2 t-2 -10q-2 -4 -4 -7.5t-2 -7.5q-4 -12 -14.5 -20t-20.5 -12q-49 -16 -97 4t-96 34q-35 10 -73.5 11.5t-71.5 -9.5q-4 -2 -9 1.5z" />
<glyph unicode="&#xf6;" horiz-adv-x="784" d="M-27.5 574q11.5 67 23.5 128q14 70 35.5 135.5t46 131t48.5 132t40 134.5q6 25 34.5 29t59.5 -5.5t56.5 -29t25.5 -41.5q-2 -51 -24.5 -101.5t-43.5 -95.5q-29 -59 -57.5 -117.5t-56.5 -115.5q-29 -59 -52.5 -117.5t-25.5 -124.5q0 -35 13.5 -76t45.5 -59q10 2 27 2 q37 0 69.5 15.5t62.5 39t54.5 51t44.5 56.5q47 63 86 134t70 144q18 43 33.5 105.5t13.5 124t-27.5 109.5t-89.5 65q-16 4 -37.5 7t-41 11t-29.5 21.5t-4 36.5q2 10 19.5 6t19.5 -13q0 -16 15 -23t35.5 -10t42 -4.5t34.5 -3.5q47 -10 93 -45.5t75 -76.5q76 -102 76.5 -225 t-46.5 -236q-37 -92 -91 -179t-134 -149q-41 -31 -87 -53.5t-95 -31.5t-98.5 -2t-94.5 36q-53 23 -101 57.5t-61 93.5q-14 63 -2.5 130zM203 1397q4 20 8 28q10 20 41 17q12 0 28.5 -6t22.5 -17h2q16 -4 30.5 -13t18.5 -26q10 -27 -8 -44t-45 -17q-16 0 -35.5 4t-35 13.5 t-23.5 24.5t-4 36zM274 1366v2h2q-2 0 -2 -2zM387 1397q4 20 8 28q10 20 41 17q12 0 28.5 -6t22.5 -17h2q16 -4 31 -13t19 -26q10 -27 -8.5 -44t-45.5 -17q-16 0 -35.5 4t-35 13.5t-23.5 24.5t-4 36zM459 1366v2h2q-2 0 -2 -2z" />
<glyph unicode="&#xf7;" d="M3.5 783.5q-9.5 15.5 12.5 19.5q80 14 153 45t157 35q59 4 116.5 3t116.5 -3h110.5t104.5 -23q4 0 10.5 -1t10.5 -1q6 -2 20 -6t27.5 -12.5t19.5 -17.5t-4 -21q-4 -4 -9 -9.5t-7 -9.5q-6 -23 -31 -30t-45 -7q-106 -4 -211.5 0.5t-212.5 -2.5q-74 -4 -158.5 -5t-156.5 26 q-14 4 -23.5 19.5zM328 467q6 23 14 41q10 16 24.5 20t32.5 4q16 -2 41 -10t35 -24q2 -2 4 -2q23 -4 43.5 -17.5t26.5 -36.5q12 -41 -14.5 -65.5t-61.5 -24.5q-25 0 -52.5 6.5t-50 20.5t-34.5 35.5t-8 52.5zM328 1182q-2 18 2 38.5t20 32.5q43 31 101 21q18 -4 38.5 -12.5 t36 -21.5t23.5 -31.5t2 -41.5q-8 -23 -25.5 -32t-40.5 -7q-2 -6 -8 -8h-2q-10 -20 -35.5 -22t-48.5 2q-29 8 -44 30.5t-19 51.5zM434 422l2 2h-2v-2zM438 1200h2v4q0 -2 -2 -4z" />
<glyph unicode="&#xf8;" horiz-adv-x="784" d="M-27.5 574q11.5 67 23.5 128q14 70 35.5 135.5t46 131t48.5 132t40 134.5q6 25 34.5 29t59.5 -5.5t56.5 -29t25.5 -41.5q-2 -51 -24.5 -101.5t-43.5 -95.5q-29 -59 -57.5 -117.5t-56.5 -115.5q-29 -59 -52.5 -117.5t-25.5 -124.5q0 -23 5 -49.5t17 -48.5l58 135 q27 66 55.5 128t54.5 128q35 80 65 159t64 156l48 109q-31 6 -59 20.5t-17 49.5q2 10 19.5 6t19.5 -13q0 -16 14 -23t35 -11l10 24q14 29 27.5 67t40.5 58q14 10 38.5 13t49 -2t42 -18t21.5 -32q4 -16 -1 -34.5t-14 -38t-19.5 -38t-16.5 -34.5l-8 -17q23 -16 42 -36.5 t34 -40.5q76 -102 76.5 -225.5t-46.5 -235.5q-37 -92 -91 -179t-134 -149q-37 -29 -81 -50.5t-90 -31.5t-92 -7t-89 26q-18 -27 -34.5 -53.5t-29.5 -55.5q-4 -6 -10 -6q-47 2 -43 51q0 4 7 4t11 -2v21.5t5 21.5q4 14 5 28.5t3 31.5q-35 23 -61.5 51t-37.5 71 q-14 63 -2.5 130zM221 391q55 18 99.5 63.5t78.5 90.5q47 63 86 133.5t70 144.5q12 29 23.5 67t17.5 79t6 83t-12 76l-23 -45q-37 -76 -77.5 -147.5t-77.5 -147.5q-33 -61 -58.5 -124.5t-56.5 -126.5z" />
<glyph unicode="&#xf9;" horiz-adv-x="804" d="M-45 449q-6 55 5 111t33.5 109.5t49.5 105.5t51 102q25 53 54.5 102t58.5 100q14 25 27.5 53.5t17.5 57.5q2 12 -14.5 13t-38 -3t-42 -10t-28.5 -8q-2 0 -7 1t-3 5q8 23 26.5 36t42 20t47 8t44.5 -3q27 -6 45 -22.5t28 -39t13.5 -48t-0.5 -49.5q-8 -57 -25.5 -110.5 t-39 -106t-45.5 -103.5t-44 -102q-23 -49 -45.5 -107.5t-18.5 -114.5q2 -10 4.5 -25t6.5 -28q4 0 17 -3t24 1q20 4 37.5 9.5t35.5 15.5q66 35 116 84t95 104q8 94 27.5 196.5t67.5 182.5q18 31 41.5 58.5t47 56t45 57.5t33.5 64q2 6 11.5 8t18.5 -1t17.5 -8.5t8.5 -11.5 q10 -47 0 -94t-19 -94q-12 -63 -29.5 -123.5t-27.5 -126.5q-10 -68 -20.5 -135t-20.5 -137q-4 -14 -4 -26.5t-2 -29.5q2 -4 2 -12q25 12 45 32.5t39 43.5q6 6 23.5 1t15.5 -16q-10 -61 -58.5 -98t-109.5 -29q-63 8 -98 42t-48 83q-31 -31 -63.5 -57.5t-67.5 -48.5 q-53 -35 -110.5 -53.5t-122.5 -12.5q-27 2 -54.5 12.5t-52 28t-42 41t-21.5 52.5zM371 1440q0 14 13 23.5t30.5 12.5t34 1t26.5 -9q29 -23 37 -60.5t12 -68.5q4 -18 6 -35.5t2 -35.5q-2 -4 -2 -10.5t-4 -10.5q-2 -4 -9 -4t-9 -4q-2 -2 -5 -3t-1 3q-2 -6 -8.5 -4t-12.5 8 t-12 13l-6 8q-8 12 -16.5 26.5t-18.5 28.5q-8 18 -15 34.5t-20 32.5q-25 25 -22 54z" />
<glyph unicode="&#xfa;" horiz-adv-x="804" d="M-45 449q-6 55 5 111t33.5 109.5t49.5 105.5t51 102q25 53 54.5 102t58.5 100q14 25 27.5 53.5t17.5 57.5q2 12 -14.5 13t-38 -3t-42 -10t-28.5 -8q-2 0 -7 1t-3 5q8 23 26.5 36t42 20t47 8t44.5 -3q27 -6 45 -22.5t28 -39t13.5 -48t-0.5 -49.5q-8 -57 -25.5 -110.5 t-39 -106t-45.5 -103.5t-44 -102q-23 -49 -45.5 -107.5t-18.5 -114.5q2 -10 4.5 -25t6.5 -28q4 0 17 -3t24 1q20 4 37.5 9.5t35.5 15.5q66 35 116 84t95 104q8 94 27.5 196.5t67.5 182.5q18 31 41.5 58.5t47 56t45 57.5t33.5 64q2 6 11.5 8t18.5 -1t17.5 -8.5t8.5 -11.5 q10 -47 0 -94t-19 -94q-12 -63 -29.5 -123.5t-27.5 -126.5q-10 -68 -20.5 -135t-20.5 -137q-4 -14 -4 -26.5t-2 -29.5q2 -4 2 -12q25 12 45 32.5t39 43.5q6 6 23.5 1t15.5 -16q-10 -61 -58.5 -98t-109.5 -29q-63 8 -98 42t-48 83q-31 -31 -63.5 -57.5t-67.5 -48.5 q-53 -35 -110.5 -53.5t-122.5 -12.5q-27 2 -54.5 12.5t-52 28t-42 41t-21.5 52.5zM471 1268q0 18 2 35.5t6 35.5q4 31 12.5 69t36.5 60q8 6 25.5 8.5t35 -0.5t31 -12.5t13.5 -23.5q2 -29 -23 -54q-12 -16 -19.5 -32.5t-15.5 -34.5q-10 -14 -18 -28.5t-16 -26.5l-7 -8 q-6 -7 -12 -13t-12 -8t-8 4q2 -4 -1 -3t-5 3q-2 4 -9.5 4t-9.5 4q-4 4 -4 10.5t-2 10.5z" />
<glyph unicode="&#xfb;" horiz-adv-x="804" d="M-45 449q-6 55 5 111t33.5 109.5t49.5 105.5t51 102q25 53 54.5 102t58.5 100q14 25 27.5 53.5t17.5 57.5q2 12 -14.5 13t-38 -3t-42 -10t-28.5 -8q-2 0 -7 1t-3 5q8 23 26.5 36t42 20t47 8t44.5 -3q27 -6 45 -22.5t28 -39t13.5 -48t-0.5 -49.5q-8 -57 -25.5 -110.5 t-39 -106t-45.5 -103.5t-44 -102q-23 -49 -45.5 -107.5t-18.5 -114.5q2 -10 4.5 -25t6.5 -28q4 0 17 -3t24 1q20 4 37.5 9.5t35.5 15.5q66 35 116 84t95 104q8 94 27.5 196.5t67.5 182.5q18 31 41.5 58.5t47 56t45 57.5t33.5 64q2 6 11.5 8t18.5 -1t17.5 -8.5t8.5 -11.5 q10 -47 0 -94t-19 -94q-12 -63 -29.5 -123.5t-27.5 -126.5q-10 -68 -20.5 -135t-20.5 -137q-4 -14 -4 -26.5t-2 -29.5q2 -4 2 -12q25 12 45 32.5t39 43.5q6 6 23.5 1t15.5 -16q-10 -61 -58.5 -98t-109.5 -29q-63 8 -98 42t-48 83q-31 -31 -63.5 -57.5t-67.5 -48.5 q-53 -35 -110.5 -53.5t-122.5 -12.5q-27 2 -54.5 12.5t-52 28t-42 41t-21.5 52.5zM418 1245q-4 16 4 33.5t16 30.5q20 43 39 75q10 23 25.5 42.5t25.5 41.5q10 16 26.5 17.5t33.5 -2.5q4 0 7 -1t7 -1q10 -4 29.5 -14.5t15.5 -26.5q-6 -16 2.5 -42t14.5 -42q6 -18 13 -37 t13 -37q2 -6 -7 -5t-11 5q-25 20 -45.5 44t-38.5 50q0 4 -2 5t-4 5q-4 -4 -10.5 -9t-10.5 -9q-23 -16 -41 -35q-14 -14 -27.5 -26.5t-25.5 -28.5q-8 -6 -17.5 -19.5t-19.5 -15.5h6q-4 -6 -10 -5t-8 7z" />
<glyph unicode="&#xfc;" horiz-adv-x="804" d="M-45 449q-6 55 5 111t33.5 109.5t49.5 105.5t51 102q25 53 54.5 102t58.5 100q14 25 27.5 53.5t17.5 57.5q2 12 -14.5 13t-38 -3t-42 -10t-28.5 -8q-2 0 -7 1t-3 5q8 23 26.5 36t42 20t47 8t44.5 -3q27 -6 45 -22.5t28 -39t13.5 -48t-0.5 -49.5q-8 -57 -25.5 -110.5 t-39 -106t-45.5 -103.5t-44 -102q-23 -49 -45.5 -107.5t-18.5 -114.5q2 -10 4.5 -25t6.5 -28q4 0 17 -3t24 1q20 4 37.5 9.5t35.5 15.5q66 35 116 84t95 104q8 94 27.5 196.5t67.5 182.5q18 31 41.5 58.5t47 56t45 57.5t33.5 64q2 6 11.5 8t18.5 -1t17.5 -8.5t8.5 -11.5 q10 -47 0 -94t-19 -94q-12 -63 -29.5 -123.5t-27.5 -126.5q-10 -68 -20.5 -135t-20.5 -137q-4 -14 -4 -26.5t-2 -29.5q2 -4 2 -12q25 12 45 32.5t39 43.5q6 6 23.5 1t15.5 -16q-10 -61 -58.5 -98t-109.5 -29q-63 8 -98 42t-48 83q-31 -31 -63.5 -57.5t-67.5 -48.5 q-53 -35 -110.5 -53.5t-122.5 -12.5q-27 2 -54.5 12.5t-52 28t-42 41t-21.5 52.5zM346 1356q4 20 8 28q10 20 41 17q12 0 28.5 -6t22.5 -17h3q16 -4 30.5 -13t18.5 -26q10 -27 -8.5 -44t-45.5 -17q-16 0 -35.5 4t-35 13.5t-23.5 24.5t-4 36zM418 1325v2h2q-2 0 -2 -2z M530 1356q4 20 9 28q10 20 41 17q12 0 28.5 -6t22.5 -17h2q16 -4 30.5 -13t18.5 -26q10 -27 -8 -44t-45 -17q-16 0 -36 4t-35 13.5t-23.5 24.5t-4.5 36zM602 1325v2h2q-2 0 -2 -2z" />
<glyph unicode="&#xfd;" horiz-adv-x="712" d="M2 640q-4 50 14.5 101.5t52 100.5t62.5 88q37 47 72 98t51 111q6 18 5 35.5t-26 21.5q-55 6 -112 -10q-4 0 -12.5 3t-2.5 7q29 14 63 25.5t67.5 12.5t64.5 -11.5t55 -40.5q31 -37 30 -86t-17.5 -99.5t-42 -98.5t-43.5 -83q-29 -53 -42.5 -105.5t-35.5 -105.5 q-4 -8 -10.5 -21.5t-9.5 -23.5t2.5 -15t27.5 5q41 18 76 47q59 55 112.5 117.5t108.5 122.5q14 51 25 104q8 35 20 74.5t41 66.5q4 4 14.5 2t14.5 -8q59 -106 76.5 -225t-7.5 -242q-27 -125 -49 -250t-57 -247q-27 -98 -57.5 -192.5t-61.5 -192.5q-16 -57 -40.5 -124 t-72.5 -110q-33 -29 -72.5 -43t-80.5 -14t-82 13t-74 42q-10 8 -24.5 26.5t-16.5 43.5t2 47t13 45q25 61 47 124.5t49 125.5q18 41 38.5 77.5t39.5 77.5q2 6 10 6t15 -2t13.5 -6t4.5 -10q-10 -35 -23.5 -68.5t-26.5 -68.5q-10 -25 -21 -54.5t-21.5 -59.5t-16.5 -59.5 t-4 -56.5q2 -23 4 -43t8 -43q16 25 30.5 54.5t23.5 50.5q59 150 105 306.5t87 311.5q23 86 42 172t42 175q-29 -29 -55.5 -56.5t-55.5 -52.5q-72 -59 -152.5 -65.5t-152.5 59.5q-47 43 -51 93zM471 1227q0 18 2 35.5t6 35.5q4 31 12.5 69t36.5 60q8 6 25.5 8.5t35 -0.5 t31 -12.5t13.5 -23.5q2 -29 -23 -53q-12 -16 -19.5 -33t-15.5 -35q-10 -14 -18 -28.5t-16 -26.5l-7 -7q-6 -8 -12 -14t-12 -8t-8 4q2 -4 -1 -3t-5 3q-2 4 -9.5 4t-9.5 4q-4 4 -4 10.5t-2 10.5z" />
<glyph unicode="&#xff;" horiz-adv-x="712" d="M2 640q-4 50 14.5 101.5t52 100.5t62.5 88q37 47 72 98t51 111q6 18 5 35.5t-26 21.5q-55 6 -112 -10q-4 0 -12.5 3t-2.5 7q29 14 63 25.5t67.5 12.5t64.5 -11.5t55 -40.5q31 -37 30 -86t-17.5 -99.5t-42 -98.5t-43.5 -83q-29 -53 -42.5 -105.5t-35.5 -105.5 q-4 -8 -10.5 -21.5t-9.5 -23.5t2.5 -15t27.5 5q41 18 76 47q59 55 112.5 117.5t108.5 122.5q14 51 25 104q8 35 20 74.5t41 66.5q4 4 14.5 2t14.5 -8q59 -106 76.5 -225t-7.5 -242q-27 -125 -49 -250t-57 -247q-27 -98 -57.5 -192.5t-61.5 -192.5q-16 -57 -40.5 -124 t-72.5 -110q-33 -29 -72.5 -43t-80.5 -14t-82 13t-74 42q-10 8 -24.5 26.5t-16.5 43.5t2 47t13 45q25 61 47 124.5t49 125.5q18 41 38.5 77.5t39.5 77.5q2 6 10 6t15 -2t13.5 -6t4.5 -10q-10 -35 -23.5 -68.5t-26.5 -68.5q-10 -25 -21 -54.5t-21.5 -59.5t-16.5 -59.5 t-4 -56.5q2 -23 4 -43t8 -43q16 25 30.5 54.5t23.5 50.5q59 150 105 306.5t87 311.5q23 86 42 172t42 175q-29 -29 -55.5 -56.5t-55.5 -52.5q-72 -59 -152.5 -65.5t-152.5 59.5q-47 43 -51 93zM326 1333q4 20 8 29q10 20 41 16q12 0 28.5 -6t22.5 -16h2q16 -4 30.5 -13.5 t18.5 -25.5q10 -27 -8 -44.5t-45 -17.5q-16 0 -35.5 4.5t-35 13.5t-23.5 24.5t-4 35.5zM397 1303v2h2q-2 0 -2 -2zM510 1333q4 20 8 29q10 20 41 16q12 0 28.5 -6t22.5 -16h2q16 -4 30.5 -13.5t19.5 -25.5q10 -27 -8.5 -44.5t-45.5 -17.5q-16 0 -35.5 4.5t-35 13.5 t-23.5 24.5t-4 35.5zM582 1303v2h2q-2 0 -2 -2z" />
<glyph unicode="&#x152;" horiz-adv-x="1316" d="M-12 459q-14 139 2 281.5t61 275.5q23 66 51.5 128t69.5 120q23 31 43.5 56.5t44.5 45.5q10 35 24.5 68.5t37.5 62.5q35 45 94 62.5t119.5 7t106.5 -48t56 -101.5q6 -47 -2 -96t-18 -96l-6 -35q23 33 47 61.5t49 57.5q33 35 69.5 71.5t77.5 69.5t86.5 58.5t92.5 37.5 q53 14 112.5 7t110.5 -31q6 -8 16 -11q20 14 45 25.5t56 17.5q35 6 71.5 -5t63.5 -36q23 -20 17.5 -42.5t-38.5 -28.5q-51 -6 -93 -45t-77 -80q-37 -45 -68.5 -90t-78.5 -76q-8 -8 -32.5 -1t-24.5 21q0 57 19 119t46 115l12 16q-74 -35 -136 -94t-120 -119 q-66 -68 -124 -141.5t-99 -157.5q2 0 6 4l47 13q45 10 81 -4.5t54.5 -43t19.5 -64.5t-22 -66q-20 -25 -37.5 -50.5t-33.5 -50.5q-35 -53 -76 -98t-78 -94q-43 -55 -70.5 -110.5t-50.5 -123.5q-8 -14 -16 -37.5t-6 -44.5q2 -10 4 -17t2 -18h6q16 4 30.5 8.5t31.5 8.5 q35 12 66.5 23.5t62.5 27.5q53 27 104 56.5t98 68.5q37 33 68 71t59.5 77.5t57 77.5t63.5 73q10 12 36 13t50.5 -6t40.5 -20.5t10 -31.5q-20 -57 -56 -109.5t-80 -97.5t-94 -83t-99 -68q-127 -80 -271 -123q-63 -18 -131.5 -34t-134.5 7q-25 10 -25 8l-14 6q-10 6 -18 10.5 t-19 8.5l-16 8q-47 -49 -104.5 -72.5t-124.5 4.5q-59 25 -96.5 77t-59 114.5t-32.5 129t-17 122.5zM143 418q-4 -68 4.5 -132.5t36.5 -127.5q6 -16 11.5 -31.5t11.5 -25t15 -8.5t28 16q20 18 36.5 38.5t26.5 47.5q27 72 34 146.5t13 150.5q8 80 21.5 159.5t17.5 159.5 q6 104 7.5 208.5t11.5 209.5q-29 -63 -50.5 -130t-31.5 -134q-8 -49 -14.5 -97.5t-6.5 -97.5q0 -16 -2 -37.5t0 -45t7.5 -43t17.5 -32.5q12 -12 0 -13t-21 3q-25 14 -37 39t-19 52.5t-9 57t-4 54.5q-2 23 -3 44t-1 44q-41 -117 -69 -234.5t-32 -240.5z" />
<glyph unicode="&#x153;" horiz-adv-x="1251" d="M-27.5 574q11.5 67 23.5 128q14 70 35.5 135.5t46 131t48.5 132t40 134.5q6 25 34.5 29t59.5 -5.5t56.5 -29t25.5 -41.5q-2 -51 -24.5 -101.5t-43.5 -95.5q-29 -59 -57.5 -117.5t-56.5 -115.5q-29 -59 -52.5 -117.5t-25.5 -124.5q0 -35 13.5 -76t45.5 -59q10 2 27 2 q37 0 69.5 15.5t62.5 39t54.5 51t44.5 56.5q47 63 86 134t70 144q18 43 33.5 105.5t13.5 124t-27.5 109.5t-89.5 65q-16 4 -37.5 7t-41 11t-29.5 21.5t-4 36.5q2 10 19.5 6t19.5 -13q0 -16 15 -23t35.5 -10t42 -4.5t34.5 -3.5q47 -10 93 -45.5t75 -76.5q10 -14 18 -27.5 t14 -28.5q43 41 92.5 71t108.5 38q31 20 62.5 32.5t66.5 16.5q39 4 89 -7t90 -38t57.5 -67t-9.5 -91q-27 -53 -67.5 -98t-81.5 -91t-73 -95.5t-40 -110.5q-2 -12 -15 -16.5t-24 -4.5q-53 4 -103 11.5t-104 13.5q-39 4 -65 -2l-18 -43q-14 -41 -25 -88q-6 -27 -11 -63.5 t11 -63.5q18 -29 38.5 -31t51.5 8q92 29 175 93.5t124 150.5q2 4 6 3t4 -5q8 -23 4 -45.5t-15 -44t-27.5 -41.5t-30.5 -35q-39 -43 -86 -80t-103 -59q-37 -14 -75.5 -16.5t-76.5 7t-72 30t-60 49.5q-8 -8 -25 -21q-41 -31 -87 -53.5t-95 -31.5t-98.5 -2t-94.5 36 q-53 23 -101 57.5t-61 93.5q-14 63 -2.5 130zM743 688q41 4 82 2t76 -2q-6 45 5.5 88t33 82t50 76t57.5 72q12 14 33.5 39.5t31.5 52.5q-86 -53 -160.5 -126t-146.5 -143q-10 -23 -20.5 -42t-20.5 -42q-4 -14 -9 -28.5t-12 -28.5z" />
<glyph unicode="&#x178;" horiz-adv-x="878" d="M-82 -4q10 37 13 71.5t20 69.5q16 35 34.5 69t37.5 68q4 8 21 4t13 -14q-10 -33 -25.5 -69.5t-23.5 -75.5t-4 -75t31 -64q4 -4 5 -6.5t5 -4.5q10 0 27 4q35 8 75 29q55 31 96.5 74t75 94t60.5 107.5t53 109.5q53 117 97 237.5t79 243.5q-23 -45 -51.5 -89t-63 -79.5 t-77.5 -57t-94 -21.5q-70 -2 -135.5 35.5t-92.5 103.5q-23 59 -18.5 120.5t16.5 120.5q16 88 40 176.5t63 170.5q20 51 57 100q10 16 22.5 29.5t22.5 29.5q-37 -20 -64 -41q-2 -2 -5 -1t-3 3q10 39 38 65t67 36q10 4 30.5 -2t24.5 -21q20 -125 2 -245.5t-43 -241.5 q-12 -63 -23.5 -128t-5.5 -128q2 -23 4.5 -43.5t12.5 -40.5q0 -4 1 -5t1 -5q53 31 93 81t70.5 108t54 119.5t44.5 117.5q41 113 84 229.5t119 210.5q6 8 20.5 9t28.5 -3t25.5 -11.5t11.5 -17.5q6 -94 11 -183t-3 -185q-10 -100 -21.5 -197.5t-37.5 -195.5 q-45 -174 -108.5 -348.5t-174.5 -321.5q-39 -51 -90 -101.5t-110.5 -88t-127 -55t-137.5 -5.5q-18 2 -50 11t-60.5 24.5t-47 38t-10.5 51.5zM313 698zM397 1626q-4 -20 4.5 -35.5t23.5 -25t35 -13.5t36 -4q27 0 45 17.5t8 44.5q-4 16 -18.5 25.5t-30.5 13.5h-2 q-6 10 -22.5 16t-29.5 6q-31 4 -40 -16q-4 -8 -9 -29zM469 1595q0 2 2 2h-2v-2zM582 1626q-4 -20 4 -35.5t23.5 -25t35 -13.5t35.5 -4q27 0 45 17.5t8 44.5q-4 16 -18.5 25.5t-30.5 13.5h-2q-6 10 -22.5 16t-28.5 6q-31 4 -41 -16q-4 -8 -8 -29zM653 1595v2h2q-2 0 -2 -2z " />
<glyph unicode="&#x2c6;" horiz-adv-x="466" d="M4 1221q-8 27 7.5 56.5t27.5 51.5q16 33 32.5 63.5t32.5 63.5q18 37 45 71t44 70q12 27 41.5 29t58.5 -4q6 0 11 -1t11 -3q8 -2 22.5 -8t28 -14.5t21.5 -19.5t4 -26q-4 -14 -2 -33.5t6 -39t11.5 -38t11.5 -30.5q10 -33 23.5 -63.5t23.5 -63.5q2 -4 -2 -5t-10.5 -1 t-11.5 2t-7 4q-41 35 -76.5 76t-66.5 86q-4 8 -10 14q-16 -16 -35 -28q-18 -14 -35.5 -30t-34.5 -32q-23 -23 -45 -45.5t-45 -44.5q-6 -6 -13 -15.5t-15.5 -18.5t-16.5 -17t-14 -8q2 0 6 -1t2 -4q-8 -6 -17.5 -5t-13.5 12z" />
<glyph unicode="&#x2dc;" horiz-adv-x="389" d="M1 1531q-5 3 5 13q37 31 70 45.5t71 3.5q27 -8 52.5 -18t54.5 -21q25 -8 50.5 -8t47.5 -4q2 2 8 2q2 0 9.5 2t13.5 2t8 -2t-2 -10q-2 -4 -4 -7t-2 -7q-4 -12 -14.5 -20.5t-20.5 -12.5q-49 -16 -97 4t-95 35q-35 10 -74 11t-72 -9q-4 -2 -9 1z" />
<glyph unicode="&#x2000;" horiz-adv-x="952" />
<glyph unicode="&#x2001;" horiz-adv-x="1905" />
<glyph unicode="&#x2002;" horiz-adv-x="952" />
<glyph unicode="&#x2003;" horiz-adv-x="1905" />
<glyph unicode="&#x2004;" horiz-adv-x="635" />
<glyph unicode="&#x2005;" horiz-adv-x="476" />
<glyph unicode="&#x2006;" horiz-adv-x="317" />
<glyph unicode="&#x2007;" horiz-adv-x="317" />
<glyph unicode="&#x2008;" horiz-adv-x="238" />
<glyph unicode="&#x2009;" horiz-adv-x="381" />
<glyph unicode="&#x200a;" horiz-adv-x="105" />
<glyph unicode="&#x2010;" d="M3.5 783.5q-9.5 15.5 12.5 19.5q80 14 153 45t157 35q59 4 116.5 3t116.5 -3h110.5t104.5 -23q4 0 10.5 -1t10.5 -1q6 -2 20 -6t27.5 -12.5t19.5 -17.5t-4 -21q-4 -4 -9 -9.5t-7 -9.5q-6 -23 -31 -30t-45 -7q-106 -4 -211.5 0.5t-212.5 -2.5q-74 -4 -159 -5t-156 26 q-14 4 -23.5 19.5z" />
<glyph unicode="&#x2011;" d="M3.5 783.5q-9.5 15.5 12.5 19.5q80 14 153 45t157 35q59 4 116.5 3t116.5 -3h110.5t104.5 -23q4 0 10.5 -1t10.5 -1q6 -2 20 -6t27.5 -12.5t19.5 -17.5t-4 -21q-4 -4 -9 -9.5t-7 -9.5q-6 -23 -31 -30t-45 -7q-106 -4 -211.5 0.5t-212.5 -2.5q-74 -4 -159 -5t-156 26 q-14 4 -23.5 19.5z" />
<glyph unicode="&#x2012;" d="M3.5 783.5q-9.5 15.5 12.5 19.5q80 14 153 45t157 35q59 4 116.5 3t116.5 -3h110.5t104.5 -23q4 0 10.5 -1t10.5 -1q6 -2 20 -6t27.5 -12.5t19.5 -17.5t-4 -21q-4 -4 -9 -9.5t-7 -9.5q-6 -23 -31 -30t-45 -7q-106 -4 -211.5 0.5t-212.5 -2.5q-74 -4 -159 -5t-156 26 q-14 4 -23.5 19.5z" />
<glyph unicode="&#x2013;" d="M3.5 783.5q-9.5 15.5 12.5 19.5q80 14 153 45t157 35q59 4 116.5 3t116.5 -3h110.5t104.5 -23q4 0 10.5 -1t10.5 -1q6 -2 20 -6t27.5 -12.5t19.5 -17.5t-4 -21q-4 -4 -9 -9.5t-7 -9.5q-6 -23 -31 -30t-45 -7q-106 -4 -211.5 0.5t-212.5 -2.5q-74 -4 -159 -5t-156 26 q-14 4 -23.5 19.5z" />
<glyph unicode="&#x2014;" horiz-adv-x="1089" d="M3.5 783.5q-9.5 15.5 12.5 19.5q80 14 153 45t157 35q29 2 93 2h136t136.5 -1t92.5 -1h110.5t104.5 -23q4 0 10.5 -1t10.5 -1q6 -2 20.5 -6t27.5 -12.5t19.5 -17.5t-4.5 -21q-4 -4 -9 -9.5t-7 -9.5q-6 -23 -31 -30t-45 -7q-53 -2 -141 -2t-183.5 1t-183.5 1t-141 -2 q-74 -4 -159 -5t-156 26q-14 4 -23.5 19.5z" />
<glyph unicode="&#x2018;" horiz-adv-x="223" d="M9 1204q-21 49 14 113q29 49 79 82t107 16q10 -4 14 -11t-10 -7q-31 -4 -56.5 -33t-39.5 -66q25 -6 48 -23.5t34 -39.5q14 -29 11 -49.5t-17.5 -33.5t-39 -17.5t-51.5 4.5q-72 16 -93 65z" />
<glyph unicode="&#x2019;" horiz-adv-x="245" d="M1 1137.5q-5 7.5 11 9.5q37 2 69 37t48 78q-29 4 -55.5 24.5t-38.5 44.5q-14 31 -12 53.5t17 37t39.5 19.5t55.5 -3q78 -20 100.5 -74.5t-14.5 -124.5q-14 -27 -35.5 -50.5t-48 -39.5t-57.5 -23.5t-64 0.5q-10 4 -15 11.5zM131 1366q6 0 8 -2q-2 4 -3 5t-3 5q0 -4 -2 -8z " />
<glyph unicode="&#x201a;" horiz-adv-x="245" d="M1 52q-5 7 11 9q37 2 69 37t48 78q-29 4 -55.5 24.5t-38.5 45.5q-14 31 -12 53.5t17 36.5t39.5 19t55.5 -3q78 -20 100.5 -74.5t-14.5 -123.5q-14 -27 -35.5 -50.5t-48 -40t-57.5 -23.5t-64 1q-10 4 -15 11zM131 281q6 0 8 -2q-2 4 -3 5t-3 5q0 -4 -2 -8z" />
<glyph unicode="&#x201c;" horiz-adv-x="448" d="M9 1204q-21 49 14 113q29 49 79 82t107 16q10 -4 14 -11t-10 -7q-31 -4 -56.5 -33t-39.5 -66q25 -6 48 -23.5t34 -39.5q14 -29 11 -49.5t-17.5 -33.5t-39 -17.5t-51.5 4.5q-72 16 -93 65zM234.5 1204q-21.5 49 13.5 113q29 49 79 82t107 16q10 -4 14 -11t-10 -7 q-31 -4 -56.5 -33t-39.5 -66q25 -6 48.5 -23.5t33.5 -39.5q14 -29 11 -49.5t-17.5 -33.5t-39 -17.5t-50.5 4.5q-72 16 -93.5 65z" />
<glyph unicode="&#x201d;" horiz-adv-x="491" d="M1 1137.5q-5 7.5 11 9.5q37 2 69 37t48 78q-29 4 -55.5 24.5t-38.5 44.5q-14 31 -12 53.5t17 37t39.5 19.5t55.5 -3q78 -20 100.5 -74.5t-14.5 -124.5q-14 -27 -35.5 -50.5t-48 -39.5t-57.5 -23.5t-64 0.5q-10 4 -15 11.5zM131 1366q6 0 8 -2q-2 4 -3 5t-3 5q0 -4 -2 -8z M247 1137.5q-5 7.5 11 9.5q37 2 68.5 37t48.5 78q-29 4 -55.5 24.5t-38.5 44.5q-14 31 -12.5 53.5t17 37t40 19.5t55.5 -3q78 -20 100.5 -74.5t-14.5 -124.5q-14 -27 -35.5 -50.5t-48.5 -39.5t-57.5 -23.5t-63.5 0.5q-10 4 -15 11.5zM377 1366q6 0 8 -2q-2 4 -3 5t-3 5 q0 -4 -2 -8z" />
<glyph unicode="&#x201e;" horiz-adv-x="471" d="M1 52q-5 7 11 9q37 2 69 37t48 78q-29 4 -55.5 24.5t-38.5 45.5q-14 31 -12 53.5t17 36.5t39.5 19t55.5 -3q78 -20 100.5 -74.5t-14.5 -123.5q-14 -27 -35.5 -50.5t-48 -40t-57.5 -23.5t-64 1q-10 4 -15 11zM131 281q6 0 8 -2q-2 4 -3 5t-3 5q0 -4 -2 -8zM226.5 52 q-5.5 7 11.5 9q37 2 68.5 37t47.5 78q-29 4 -55.5 24.5t-38.5 45.5q-14 31 -12 53.5t17.5 36.5t40 19t54.5 -3q78 -20 100.5 -74.5t-14.5 -123.5q-14 -27 -35.5 -50.5t-48 -40t-57 -23.5t-63.5 1q-10 4 -15.5 11zM356 281q7 0 9 -2q-2 4 -3.5 5t-3.5 5q0 -4 -2 -8z" />
<glyph unicode="&#x2026;" horiz-adv-x="759" d="M2 291q4 23 12 41q10 18 24.5 22t35.5 2q16 0 40.5 -9t35.5 -25h2q23 -4 43 -18.5t28 -37.5q12 -39 -14.5 -63.5t-63.5 -24.5q-25 0 -52 5t-48.5 19.5t-35 36t-7.5 52.5zM106 246q0 2 1.5 2t1.5 2h-3v-4zM268 291q4 23 13 41q10 18 24 22t35 2q16 0 41 -9t35 -25h2 q23 -4 43 -18.5t28 -37.5q12 -39 -14 -63.5t-63 -24.5q-25 0 -52.5 5t-49 19.5t-35 36t-7.5 52.5zM373 246q0 2 1 2t1 2h-2v-4zM535 291q4 23 12 41q10 18 24.5 22t34.5 2q16 0 41 -9t35 -25h2q23 -4 43.5 -18.5t28.5 -37.5q12 -39 -14.5 -63.5t-63.5 -24.5q-25 0 -52.5 5 t-49 19.5t-35 36t-6.5 52.5zM639 246q0 2 1 2t1 2h-2v-4z" />
<glyph unicode="&#x202f;" horiz-adv-x="381" />
<glyph unicode="&#x2039;" horiz-adv-x="591" d="M12 819q16 16 36 25.5t36 21.5q20 12 37.5 26.5t36.5 29.5q43 35 87 67.5t89 63.5q23 14 53.5 37.5t64 42t68.5 26.5t66 -6q4 -2 5 -5t-5 -5q-10 0 -23.5 -11.5t-26 -25.5t-22.5 -28.5t-16 -20.5q-29 -39 -55.5 -79t-55.5 -79q-27 -33 -55.5 -62.5t-61.5 -56.5 q29 -16 56.5 -31.5t56.5 -31.5q43 -23 81 -52.5t36 -80.5q0 -4 -7.5 -2t-9.5 4q-18 23 -56 25.5t-65 9.5q-27 6 -53 13t-51 17q-43 18 -84 39q-14 6 -26.5 12.5t-26.5 12.5l-6 2t-11 3l-6 1l11 -2q-16 4 -43 16.5t-43 30.5q-35 25 -11 53z" />
<glyph unicode="&#x203a;" horiz-adv-x="591" d="M4 1155q27 14 61.5 4t68.5 -32.5t64.5 -48t47.5 -38.5q49 -37 95 -73.5t93 -75.5q33 -27 66.5 -48t68.5 -46q20 -16 21.5 -27.5t-8.5 -21.5q-6 -23 -43 -33q-39 -10 -84 -35t-88 -39q-31 -12 -64 -18.5t-65 -10.5q-25 -2 -67 -6t-60 -22q-4 -4 -10.5 -2t-6.5 6 q-4 53 23.5 86t75.5 61q35 20 66.5 40t66.5 36q-35 29 -64 59.5t-55 63.5q-29 33 -52.5 66.5t-52.5 66.5q-6 6 -16 19.5t-22.5 25.5t-24.5 21.5t-23 9.5q-4 2 -11 5t-1 7z" />
<glyph unicode="&#x205f;" horiz-adv-x="476" />
<glyph unicode="&#x2122;" horiz-adv-x="671" d="M6 1358q-10 14 0 28.5t26.5 26.5t36 19.5t27.5 9.5t15.5 3t17.5 -1l6 12q4 8 14.5 5t14.5 -11q0 -2 4 -10q27 -6 47 -15q31 -10 52.5 -5t54.5 7q12 2 30.5 -4t24.5 -18l6 -12q8 -20 -8 -31q-43 -27 -92.5 -18.5t-92.5 24.5q10 -31 16.5 -62.5t10.5 -64.5q2 -20 8 -40.5 t10.5 -42t2.5 -41t-15 -36.5q-6 -8 -19.5 -9t-26.5 3t-24.5 10.5t-15.5 14.5q-37 59 -44 139t16 152q-33 0 -56 -21q-4 -4 -10 -8t-10 -6t-8 -2q-2 -4 -9.5 -2t-9.5 6zM283 1126q0 49 5 98.5t1 98.5q-2 6 6 5t10 -5q6 -14 13.5 -27.5t13.5 -25.5q4 4 6 9t6 9q16 27 39 43.5 t55 5.5l13 -6q2 10 4 15.5t4 9.5q4 14 11 31.5t18.5 31t26 21.5t32.5 2t35.5 -20.5t31 -35t23.5 -41t14 -38.5t10.5 -48t8.5 -63t-2 -59.5t-23 -38.5q-12 -8 -27.5 -8t-31 6t-27.5 15t-18 22q-4 12 -1 29.5t3 31.5q2 20 0 39.5t-2 42.5q0 31 5 64.5t1 64.5q-2 12 -7 10 t-10.5 -9t-10.5 -16.5t-7 -11.5q-8 -14 -14 -28.5t-13 -28.5q-4 -8 -6 -14q16 -18 24.5 -42t10.5 -44q4 -39 2 -76t-2 -76q0 -18 -21.5 -20t-46 5t-43 20t-12.5 28q2 25 2 49.5t2 48.5q2 29 8.5 55.5t10.5 55.5q4 18 -6.5 11t-18.5 -15q-23 -20 -35 -43q-4 -6 -6 -11.5 t-4 -9.5q14 -33 24.5 -66.5t12.5 -70.5q0 -16 -15.5 -20.5t-34 0t-33.5 14.5t-15 26z" />
<glyph unicode="&#x25fc;" horiz-adv-x="1269" d="M0 0v1270h1270v-1270h-1270z" />
</font>
</defs>
</svg>
