<?xml version="1.0" standalone="no"?>
<!DOCTYPE svg PUBLIC "-//W3C//DTD SVG 1.1//EN" "http://www.w3.org/Graphics/SVG/1.1/DTD/svg11.dtd" >
<svg xmlns="http://www.w3.org/2000/svg">
<metadata></metadata>
<defs>
<font id="sherlybold" horiz-adv-x="286" >
<font-face units-per-em="2048" ascent="1536" descent="-512" />
<missing-glyph horiz-adv-x="614" />
<glyph horiz-adv-x="0" />
<glyph horiz-adv-x="682" />
<glyph horiz-adv-x="0" />
<glyph horiz-adv-x="0" />
<glyph unicode="&#xd;" horiz-adv-x="614" />
<glyph unicode=" "  horiz-adv-x="614" />
<glyph unicode="&#x09;" horiz-adv-x="614" />
<glyph unicode="&#xa0;" horiz-adv-x="614" />
<glyph unicode="!" horiz-adv-x="247" d="M20 104q7 29 31 55t64 17q29 -5 43.5 -27.5t12.5 -44t-3 -34.5l2 2q-6 -37 -36 -59.5t-60 -14.5h2q-32 8 -48.5 38t-7.5 68zM33 614v111q0 300 30 858q7 119 7 129q0 8 -1.5 22t6 38.5t23.5 42.5q24 28 55 31t52.5 -10t30.5 -30q41 -62 -11 -145v2q-5 -7 -19.5 -101.5 t-30 -322t-15.5 -496.5v-118q3 -26 -15.5 -46.5t-46.5 -23.5q-27 0 -44.5 17t-20.5 42z" />
<glyph unicode="&#x22;" horiz-adv-x="276" d="M10 1683q0 26 20 45t46 19q32 0 53 -31q15 31 55 31q25 0 43.5 -18t18.5 -43l2 -328q0 -71 -70 -66q-29 3 -47 25q-17 -28 -61 -25q-24 3 -41 21t-17 43z" />
<glyph unicode="#" horiz-adv-x="1048" d="M33 727q-13 39 18 70q9 9 38 31.5t98.5 62.5t140.5 65q-28 299 -37 310q-7 15 -10 39q-1 17 2 36t18.5 39t42.5 23q30 3 51 -14.5t28.5 -35.5t8.5 -32q0 -18 23 -330q43 7 114 4q1 -1 4 -2t5 -2q3 260 6 324v18q0 16 5.5 34.5t25.5 37t51 16.5q39 -3 55 -31.5t16 -60.5 q0 -13 -10 -43q-5 -11 -16 -330q86 -41 149 -118h-2q15 -19 13 -45t-19 -43q-24 -15 -50.5 -13.5t-41.5 21.5l2 -2q-15 19 -53 53v-141v-58q130 24 221 35q27 1 49 -15t25 -40v-2q1 -28 -14 -47.5t-38 -24.5q-153 -16 -237 -35l2 -133q1 -25 3.5 -83.5t2.5 -82.5 q0 -25 -16.5 -43.5t-42.5 -19.5q-29 0 -48.5 18.5t-19.5 44.5q0 84 -8 240v33q-30 -5 -86 -25l22 -258q-2 -25 -19 -45t-44 -23q-26 0 -44.5 16.5t-21.5 41.5l-18 213q-38 -20 -49 -41q-1 -21 -21 -41t-41 -25q-37 -7 -61.5 19t-24.5 53q0 33 24.5 66.5t96.5 76.5 q24 14 68 31l-31 307q-46 -23 -137 -80q23 -13 37 -30q22 -35 16 -65t-33.5 -49.5t-58.5 -14.5q-27 4 -75.5 65.5t-53.5 79.5zM467 862q14 -219 22 -303q55 18 91 27v84q-2 63 -2 192q-18 6 -27 6q-54 0 -84 -6z" />
<glyph unicode="$" horiz-adv-x="790" d="M10 283q6 27 28 40.5t48 8.5q145 -35 209 -43l-12 203q-121 200 -121 368q0 38 6 72q15 91 84 170q-12 255 -12 450q0 151 14 197h-2q29 110 104 117q41 3 77.5 -34.5t49.5 -66.5q11 -25 2 -49.5t-34 -34.5l2 2q-35 -18 -68 5q-4 -31 -4 -183q0 -170 4 -311q69 35 143 35 q42 0 76 -12q55 -23 100.5 -91.5t45.5 -124.5q0 -94 -70 -100q-53 -8 -75.5 48t-6.5 89q-3 6 -21.5 26.5t-33.5 29.5q-60 19 -154 -45q2 -93 9.5 -274t9.5 -243q7 -13 49 -71q27 -37 41 -60t29.5 -58.5t13.5 -67t-21 -60.5q-30 -44 -94 -53l10 -219q0 -64 -65 -64 q-27 0 -44.5 17t-17.5 41l-6 159l-4 66q-105 9 -242 45h2q-27 6 -41 28.5t-8 47.5z" />
<glyph unicode="%" horiz-adv-x="909" d="M25 1290q-3 15 6 58h45q31 60 76.5 92.5t99.5 32.5t103.5 -43t72.5 -111l2 -2q10 -35 10 -72q0 -139 -139 -235q-62 -43 -115 -43q-52 0 -84 32q-48 44 -67 128t-10 163zM164 1169q3 -57 24 -75q5 -5 37 18q63 45 77.5 90t2.5 78q-8 29 -24.5 47.5t-28.5 18.5 q-36 0 -43 -17q-9 -15 27 -61q15 -20 11.5 -46.5t-24.5 -41.5q-26 -18 -59 -11zM295 76q45 435 160 1012.5t209 719.5q14 21 32 34.5t41.5 16.5t44.5 -18q40 -40 28 -89t-56 -73q-53 -28 -132.5 -378.5t-135.5 -719.5t-64 -518q-3 -25 -22.5 -41t-45.5 -16q-25 3 -41 24 t-18 46zM483 420q0 50 6 102q8 51 27 107q-5 32 8 65q9 24 30 37t42 12.5t39 -6.5h-2q15 -6 20 -14q81 -1 135.5 -38.5t73.5 -102.5q23 -81 -30.5 -175t-147.5 -149q-40 -22 -80 -22q-43 0 -67 24q-54 45 -54 160zM618 365l9 4q63 33 92 85t18 93q-12 43 -84 49l-22 -96 q-13 -64 -13 -107v-28z" />
<glyph unicode="&#x26;" horiz-adv-x="565" d="M16 956q0 99 86 211q68 80 148 129q-14 118 -14 254q0 108 8.5 200t17.5 114v-2q27 77 92 77q32 0 55.5 -19.5t28.5 -49.5q5 -44 -13.5 -79.5t-41.5 -51.5l2 2q-2 -2 -7 -28t-10.5 -85.5t-5.5 -126.5q0 -58 11 -166q38 3 80 -10h-2q49 -16 65 -59l-2 2q4 -12 5 -33.5 t-16.5 -48t-49.5 -37.5q-31 -4 -62 7.5t-45 23.5q-18 0 -63.5 -25t-77.5 -65q-62 -79 -62 -134q0 -21 13 -34q12 -13 33 -11t42 17h-2q18 12 40.5 12.5t41.5 -12.5q15 -15 20 -36t-5 -44l2 2q-43 -110 -43 -172q0 -27 4 -31q19 -13 73 4q22 7 93 41q21 10 47.5 2.5 t38.5 -28.5q12 -23 3.5 -49t-30.5 -37q-61 -31 -72 -35q-4 -43 -4 -123q0 -221 60 -455l-4 6l6 -16q5 -24 -6 -46.5t-35 -29.5q-4 -2 -21 -2q-49 0 -61 45v-4q-5 10 -19 70t-30.5 185.5t-16.5 248.5q0 8 -1.5 42.5t1.5 43.5q-64 -5 -108 39q-47 47 -47 131q0 44 12 102 q-66 7 -105 49q-47 44 -47 125z" />
<glyph unicode="'" horiz-adv-x="161" d="M10 1683q0 26 19 45t45 19t44.5 -18t18.5 -43l2 -328q0 -71 -71 -66q-24 3 -40 20.5t-16 43.5z" />
<glyph unicode="(" horiz-adv-x="669" d="M16 928v57q0 142 24 282.5t60 244.5t76.5 189t74 131t52.5 54h-2q50 18 118 -13.5t105 -70.5q13 -19 17.5 -47.5t-9.5 -58.5q-13 -23 -39 -26t-47.5 6.5t-33.5 21.5q-44 51 -72 63q-14 -18 -41.5 -81.5t-63 -169.5t-60 -263t-23.5 -317q1 -156 15 -289.5t34.5 -223 t48 -162.5t51 -114t49 -71t38 -39t20.5 -13q29 -14 57.5 -5t49 23t20.5 17q26 19 55.5 18t44.5 -20q18 -20 16.5 -46.5t-22.5 -43.5q-88 -74 -201 -74q-61 0 -84 19q-72 60 -108 105q-195 245 -220 917z" />
<glyph unicode=")" horiz-adv-x="706" d="M4 4.5q-2 26.5 14 46.5q17 19 47 19t56 -19q0 -3 20.5 -16.5t49 -22t57.5 5.5q8 4 20.5 13t38 39t49 71t51 114t48 162.5t34.5 223t15 289.5q1 160 -24 317t-60.5 262t-63 168.5t-41.5 81.5q-24 -10 -71 -61q-12 -12 -33.5 -21.5t-48 -6.5t-39.5 26q-15 30 -10 59t20 47 q35 39 103.5 70.5t117.5 13.5h-2q19 -8 52.5 -54t74 -131t76.5 -189t60 -244.5t24 -282.5v-57q-6 -161 -21.5 -297t-34.5 -229.5t-48.5 -173.5t-53 -125.5t-59 -88.5t-54.5 -60.5t-52 -43.5q-3 -3 -5 -4q-23 -19 -82 -19q-114 0 -202 74q-21 17 -23 43.5z" />
<glyph unicode="*" horiz-adv-x="610" d="M20 1542q0 25 18.5 43.5t43.5 18.5h111l8 16q17 29 26 33q1 15 5.5 45t5.5 45q3 27 22.5 43.5t46.5 13.5q26 -3 44 -23t16 -44l-13 -121q0 -1 0.5 -1.5t1.5 -2t2 -4.5h160q27 0 46.5 -18.5t19.5 -43.5q0 -28 -19 -46.5t-47 -18.5h-110q9 -25 28.5 -69.5t26.5 -61.5v2 q9 -25 -1 -49.5t-36 -34.5q-22 -9 -47 2t-35 34l-70 166l-67 -166q-10 -24 -36.5 -33.5t-51.5 -0.5q-23 8 -32 32t1 50v-2q8 21 18.5 44.5t18 42.5t16.5 44h-59q-25 0 -43.5 19t-18.5 46z" />
<glyph unicode="+" horiz-adv-x="899" d="M17 506.5q-5 28.5 2 51.5t18 34q85 82 252 123q4 110 18 219l2 10q0 24 10 39q17 37 49.5 54t63.5 5q10 -6 19.5 -16t18.5 -27t7 -42t-18 -52q-21 -47 -35 -168q45 4 131 4q62 0 123.5 -3.5t93 -7t37.5 -5.5h-2q25 -6 41 -29t12 -47q-6 -24 -27 -39t-47 -12 q-154 16 -243 16q-67 0 -125 -6q0 -177 61 -352q6 -26 -4.5 -49.5t-34.5 -32.5q-29 -10 -51.5 2t-30.5 35q-62 145 -69 371q-43 -15 -71.5 -32t-35.5 -26q-18 -43 -60.5 -64.5t-78.5 1.5h2q-23 17 -28 45.5z" />
<glyph unicode="," horiz-adv-x="223" d="M2 -62q-4 22 29 70q13 12 26 8q-13 5 -26.5 21.5t-20.5 46.5t13 68q21 40 56.5 57t67.5 0l-2 2q37 -17 46.5 -59t1.5 -74q-15 -42 -47.5 -79t-79.5 -56h2q-62 -27 -66 -5z" />
<glyph unicode="-" horiz-adv-x="901" d="M10 623q27 67 166 90q86 14 203 14q240 0 444 -55q26 -9 39 -29.5t8 -44.5q-4 -26 -27 -40t-48 -9q-247 43 -426 43q-75 0 -129 -5t-71 -9.5t-17 -6.5q-8 -20 -35.5 -34.5t-50.5 -10.5h2q-38 4 -52 36.5t-6 60.5z" />
<glyph unicode="." horiz-adv-x="188" d="M1.5 122q2.5 19 10.5 36q17 38 50 53t65 0l-2 2q27 -10 39.5 -42.5t-2.5 -80.5q-10 -24 -45 -48t-72 -5q-27 15 -36.5 40.5t-7 44.5z" />
<glyph unicode="/" horiz-adv-x="884" d="M23 -66q0 49 20 144q26 123 504 1569l115 342l-3 -4q7 47 42.5 68.5t70.5 8.5q27 -9 39.5 -33t11.5 -46.5t-8 -40.5q-11 -30 -37 -48l6 2q-3 -3 -147.5 -423.5t-298 -880t-170.5 -539.5q-12 -43 -16 -86q54 16 81 -20q13 -27 6.5 -52.5t-30.5 -44.5q-48 -32 -94 -32 q-27 0 -52 14q-40 30 -40 102z" />
<glyph unicode="0" horiz-adv-x="940" d="M14 815q0 73 4 164.5t7.5 146t5.5 66.5q8 42 31 65t40.5 27t32.5 2q38 -7 59 -43t13 -80q0 -44 -37 -71q-3 -8 -10.5 -68.5t-13.5 -146.5t-3 -144q8 -177 48 -335t98 -226h-2q25 -25 61 -25q94 0 207 177q60 99 109.5 237.5t74.5 274.5q25 125 25 217q0 147 -43 223 q-55 100 -129 158t-156 67q-150 12 -276 -139q-17 -19 -42.5 -22t-47.5 12q-21 15 -24.5 40.5t13.5 49.5q78 98 179 146.5t208 39.5q114 -12 213.5 -87t171.5 -204q62 -110 62 -288q0 -186 -64.5 -406.5t-164.5 -384.5q-65 -106 -154 -174t-170 -68q-84 0 -147 72 q-73 87 -122 270.5t-55 374.5q-2 23 -2 82z" />
<glyph unicode="1" horiz-adv-x="319" d="M25 78q0 12 2 24q1 10 12.5 106t20.5 176t19.5 196.5t14.5 205.5q6 166 6 447q0 59 0.5 109.5t1.5 77.5t2 26q-11 11 -18.5 39.5t-3.5 52.5q8 42 30 65.5t40 27.5t36 1h2q36 -7 56 -42.5t14 -80.5q-7 -33 -39 -731q-10 -212 -67 -694l-2 -21q-13 -53 -70 -53 q-28 3 -44 22.5t-13 45.5z" />
<glyph unicode="2" horiz-adv-x="1161" d="M35 61q-9 44 24 70q101 72 208.5 166t215.5 209.5t194 232t144 239t66 224.5q12 148 -90 250h2q-54 51 -146 51q-94 0 -190 -47q-38 -20 -69.5 -44.5t-50 -45.5t-31 -40t-16.5 -30.5t-3 -13.5q16 -31 12.5 -60.5t-15 -51t-28.5 -35.5q-41 -27 -72 -16.5t-49 41.5t-16 65 q3 35 17 75.5t43 89.5t84.5 98.5t129.5 86.5q118 59 242 59q68 0 133.5 -24t112.5 -66q70 -67 102.5 -159t24.5 -193q-13 -128 -83 -275t-175.5 -284t-221 -257.5t-237.5 -221.5q327 30 729 114q28 6 49 -8t27 -43q6 -23 -10 -44.5t-41 -29.5q-250 -54 -479 -85 t-319.5 -36.5t-146.5 -5.5h-8q-21 0 -39 12t-24 33z" />
<glyph unicode="3" horiz-adv-x="1138" d="M10 1182q0 76 64 173t186 181q152 96 320 96q106 0 198 -43q230 -124 230 -336q0 -38 -7 -73q-22 -100 -90.5 -195.5t-165.5 -159.5q109 -29 194 -90t122 -137q24 -70 24 -115q0 -144 -143 -276q-120 -114 -293 -170q-79 -20 -149 -14q-101 6 -199 88q-13 12 -12 35.5 t16 43.5q19 19 45.5 20.5t46.5 -13.5v2q61 -52 138 -52q82 0 168.5 45t150.5 107q104 96 104 186q0 26 -14 58q-38 78 -152 129t-249 51q-49 0 -74 -4q-27 -3 -47 14t-23 45q-2 24 14 44t42 24q142 22 267.5 128.5t154.5 231.5q13 82 -28 151.5t-132 119.5q-47 28 -127 28 q-124 0 -254 -75q-59 -33 -102 -78t-58 -73.5t-12 -31.5q31 -31 31 -80q0 -32 -17 -63q-26 -47 -72 -47q-34 0 -61 24q-35 35 -35 101z" />
<glyph unicode="4" horiz-adv-x="1167" d="M31 393q-10 32 10 62q78 80 200.5 226t229.5 294q78 107 133.5 196.5t88 160t44.5 102.5t29 84l12 38q14 40 51 65t74 3q24 10 49 8q37 -6 57.5 -40.5t14.5 -80.5q-10 -43 -39 -69q0 -1 -7.5 -31t-14.5 -60.5t-18 -81t-21 -107.5t-21 -124.5t-21 -147.5t-18 -161 q-2 -28 -4 -77t-4 -77q88 2 205 -20q26 -5 41.5 -27t9.5 -49q-6 -23 -29.5 -38t-48.5 -11q-102 22 -188 19q-21 -389 -21 -762q0 -36 -23 -51t-42 -15q-25 0 -44.5 19t-19.5 45v96q0 296 21 653q-97 -16 -195 -47q-154 -47 -307 -47q-34 0 -61 2t-48.5 5t-25.5 3 q-39 8 -49 45v-2zM223 467q145 4 264 41t238 55q30 436 68 668q-151 -242 -220 -336q-148 -202 -350 -428z" />
<glyph unicode="5" horiz-adv-x="1130" d="M23 1244.5q0 40.5 28 78.5q36 36 107 80l2 22v39q9 50 45 78q26 17 61 14q52 -6 66 -53q252 125 446 125q168 0 277 -98q19 -19 20.5 -46t-16.5 -46v2q-18 -21 -44 -22.5t-46 16.5q-80 69 -195 69t-243.5 -60.5t-235.5 -139.5q-16 -106 -16 -199q0 -218 73 -313 q36 -45 101 -48q48 0 200 5q21 0 59.5 1t55.5 1q97 0 151.5 -16t79.5 -60q38 -76 -45 -203q-222 -331 -485 -483q-16 -8 -29 -8q-34 0 -59 38q-11 18 -3.5 43.5t30.5 38.5q239 134 442 443h-2q39 61 39 67q-16 13 -131 13q-14 0 -42 -1t-42 -1h-19q-137 -5 -202 -5 q-122 3 -199 95q-109 137 -109 460q-54 -15 -94 11q-26 22 -26 62.5z" />
<glyph unicode="6" horiz-adv-x="1032" d="M13.5 332.5q-2.5 26.5 17.5 52.5q4 4 8 10l14 19q-14 74 -14 174q0 61 4 92v-2q42 498 336 774q126 111 297 170q35 6 57 -16q12 -14 7 -55.5t-17.5 -85.5t-36.5 -79t-49 -36q-41 0 -62 16h3q-38 27 -31 84q-6 -11 -35 -43t-49 -51q-113 -117 -194 -302t-101 -386 q-4 -46 -4 -74q0 -39 2 -55q216 198 481 198q22 0 68 -4q101 -13 174 -62t102 -122q15 -38 15 -86q0 -98 -91 -211q-95 -112 -208 -173t-222 -61q-80 0 -153 31q-73 32 -134 91.5t-98 140.5l2 -2l-2 4q-34 -17 -61 6q-23 17 -25.5 43.5zM195 387q53 -162 186 -219 q61 -23 104 -23q84 0 170 48.5t162 140.5h2q81 96 53 168q-15 40 -62 68t-110 36q-72 8 -152.5 -9t-176 -70.5t-176.5 -139.5z" />
<glyph unicode="7" horiz-adv-x="1138" d="M0 1536q7 28 37 49q36 20 86 17q39 -7 61 -29l-4 2q7 -5 46 -15.5t128 -22t189 -11.5q127 0 309 28q4 21 12.5 35.5t15.5 19.5t23 15h-4q27 22 74 14q38 -9 51 -47q41 -3 57 -43q7 -23 -1 -44.5t-27 -33.5l-35 -12q-3 0 -10 -2.5t-13 -3.5q-8 -8 -12 -10l6 2 q-4 -4 -84 -259.5t-200.5 -698t-196.5 -812.5q-5 -22 -22 -35.5t-42 -13.5h-12q-24 6 -39 29t-10 47q82 381 426 1671l12 45q-174 -20 -317 -18q-73 1 -231 11t-179 13q-44 6 -71.5 39.5t-22.5 73.5z" />
<glyph unicode="8" horiz-adv-x="1005" d="M16 1075q32 153 111 285q86 139 216 208.5t282 57.5q198 -15 264 -160q24 -58 24 -133q0 -126 -60.5 -273t-123.5 -237l53 -35q43 -30 66.5 -47.5t58 -48.5t52.5 -62t22 -63v2q5 -37 -29.5 -90.5t-75 -96t-114.5 -112.5q-246 -238 -385 -245q-54 -3 -90 34.5t-37 102.5 q-11 150 309 633l-24 16q-50 35 -84.5 62.5t-91 80.5t-99 119t-67.5 139q-16 -38 -29 -79t-18 -62.5t-5 -23.5q-5 -25 -27 -41.5t-46 -10.5q-26 6 -40 28t-12 52zM299 1376q0 -2 2 -2q25 -25 25 -67q-6 -45 38.5 -136.5t139.5 -173.5l33 -24l92 -72q58 92 107.5 214 t49.5 218q0 42 -16 82q-31 75 -156 84q-87 7 -170 -26.5t-145 -96.5zM373 154q39 -12 122 42t161 129t137.5 145t58.5 89q0 7 -13.5 21.5t-40 35.5t-46.5 36.5t-53 39.5t-40 29q-110 -167 -197.5 -329t-84.5 -226q0 -13 -4 -12z" />
<glyph unicode="9" horiz-adv-x="1120" d="M10 969q0 159 91 335t206 269q108 85 187 45q33 -13 57 -43q33 -6 56.5 -31.5t31.5 -44.5l14 -14q147 -155 203 -230q30 -43 59 -94q34 34 54 58q15 19 41.5 20.5t48.5 -18.5q21 -15 22.5 -42t-18.5 -49l2 7q-18 -27 -92 -101q51 -118 51 -266q0 -153 -61 -293 q-92 -193 -253.5 -325t-306.5 -132q-56 0 -100 17q-45 17 -70.5 53t-25.5 82q0 40 12 70q10 25 36.5 34.5t53.5 -0.5q23 -9 32 -32t-1 -49v2q-10 -29 10 -41q29 -11 49 -11q109 0 239 106t206 277q55 126 55 242q0 73 -25 168q-48 -46 -100 -89t-132.5 -100t-169 -91.5 t-165.5 -34.5q-88 0 -157 49q-137 104 -140 297zM137 971q3 -131 90 -197q36 -26 78 -26q99 0 238 92.5t280 226.5q-45 78 -69 111q-57 77 -133 149l-11 -12v2q-11 -14 -33 -23.5t-51.5 -3.5t-50.5 35q-30 38 -16 100q0 3 -4 23q-7 14 -11 43q-4 8 -4 10q-24 -4 -53 -28 q-97 -78 -173.5 -226.5t-76.5 -275.5z" />
<glyph unicode=":" horiz-adv-x="235" d="M12 369q7 30 30.5 55.5t63.5 17.5q31 -6 46.5 -29t13.5 -43.5t-2 -33.5q-6 -35 -36.5 -56.5t-59.5 -15.5l2 -2q-34 8 -50.5 38t-7.5 69zM59 858q6 29 31.5 55.5t65.5 18.5q64 -11 55 -101v-4q-6 -37 -36 -59t-60 -14q-31 9 -46.5 37.5t-9.5 66.5z" />
<glyph unicode=";" horiz-adv-x="296" d="M13.5 -22.5q3.5 11.5 9 22.5t16.5 29q5 10 18 4q-12 7 -22 20.5t-17.5 41.5t11.5 61l-2 -2q18 36 50 52t64 1l-2 2q31 -13 40 -52t3 -69q-13 -37 -41.5 -70t-68.5 -49q-24 -8 -38 -9t-19 2.5t-1.5 15zM74 673q-1 18 1.5 33.5t8.5 28.5q18 34 50.5 50t62.5 3h2 q17 -9 28 -23.5t14.5 -39.5t-10.5 -57q-7 -24 -42 -48.5t-72 -5.5l2 -2q-21 10 -32.5 26.5t-12.5 34.5z" />
<glyph unicode="&#x3c;" horiz-adv-x="864" d="M2 444q-7 65 188 318q68 89 144.5 178t120.5 127q77 61 133 61q33 0 54.5 -16.5t27.5 -34.5q1 -17 1 -39t-20.5 -44t-58.5 -27q-31 -4 -49 2q-14 -12 -30.5 -27.5t-63 -64.5t-90.5 -102t-104 -137t-112 -173q80 -47 269 -129q277 -114 381 -141l2 -2q25 -7 37.5 -24.5 t9.5 -37.5q-9 -30 -31 -49.5t-53 -11.5q-117 29 -418 155q-115 49 -188 87t-103 63.5t-38 39t-9 29.5z" />
<glyph unicode="=" horiz-adv-x="716" d="M30.5 799.5q14.5 40.5 55.5 52.5h-2q24 11 78.5 20t116.5 9q272 0 395 -172q15 -22 10.5 -49t-27.5 -42l2 3q-26 -16 -52.5 -9t-37.5 25l2 -2q-85 110 -249 110q-33 0 -65 -3.5t-49 -7t-22 -5.5q-10 -12 -34 -24q-83 -33 -121 30q-15 24 -0.5 64.5zM34.5 365.5 q-1.5 11.5 0.5 27t16.5 33.5t40.5 33q17 11 91.5 25t154.5 14q101 0 178 -27q23 -8 35 -29.5t6 -46.5q-9 -27 -32.5 -39t-47.5 -4h2q-73 17 -129 17q-41 0 -77.5 -6.5t-53.5 -13t-18 -9.5q-19 -19 -41 -29q-16 -5 -33 -8t-44.5 6t-41.5 37q-5 8 -6.5 19.5z" />
<glyph unicode="&#x3e;" horiz-adv-x="765" d="M3 1051q-4 22 5 55q9 24 26 34t37 6.5t31.5 -7.5t22.5 -9q21 -11 295 -236t309 -269q31 -46 25 -90q-12 -66 -89.5 -137.5t-205.5 -159.5l-19 -15h2q-137 -97 -149 -119l2 2q-6 -25 -26.5 -38t-51.5 -7q-26 7 -39.5 32t-5.5 50q12 38 60 80t155 117q221 152 240 207 q-35 39 -211 178.5t-334 257.5q-10 2 -23.5 8.5t-32.5 22t-23 37.5z" />
<glyph unicode="?" horiz-adv-x="950" d="M-2 1274q0 92 63.5 199t169.5 176q153 95 310 98q172 6 278 -92h2q78 -78 78 -199q0 -147 -115 -326q-196 -308 -200 -489q-2 -31 1 -54t7 -31l4 -7l-2 4q18 -18 18 -43.5t-18 -46.5q-5 -6 -11 -10t-11.5 -6.5t-11.5 -3t-11 -0.5t-11 2t-10 3t-9.5 4.5t-8 4.5t-7 4.5 t-5.5 3.5q-45 60 -45 160q0 95 51.5 241t171.5 334q96 159 96 258q0 65 -43 105q-52 55 -168 55q-137 0 -262 -78q-75 -53 -119.5 -114.5t-44.5 -102.5q0 -22 12 -25q22 -9 31 -18q36 -28 46 -67t-11 -72q-18 -24 -46 -29.5t-56 4.5t-56 31q-57 39 -57 127zM532 104 q7 29 31 55t64 17q29 -5 43.5 -28t13 -45t-1.5 -35q-7 -36 -37 -57t-59 -13q-32 8 -47.5 38t-6.5 68z" />
<glyph unicode="@" horiz-adv-x="1509" d="M8 860q0 174 60 316q60 134 136.5 238t151 166t156 101.5t148.5 53.5t133 14q83 0 141 -14q149 -37 267.5 -132.5t183.5 -234.5t57 -293q-6 -94 -22.5 -171t-38.5 -129t-51 -91.5t-57 -61.5t-59.5 -35t-56 -17t-49.5 -3q-68 3 -136 48t-112 108q-100 -205 -192 -217 q-68 -6 -116 29.5t-65 105.5q-6 27 -6 70q0 75 28 157t87 154t135 100q44 17 82 17q55 0 92.5 -24.5t48.5 -53.5q9 -23 3 -59.5t-31 -49.5q-16 -8 -33 -8q43 -17 43 -72q-3 -53 55.5 -114t122.5 -64q76 -3 132.5 101t66.5 286q12 186 -105 334.5t-299 192.5q-65 14 -114 14 q-83 0 -164 -26.5t-162.5 -83t-154.5 -155t-126 -231.5q-55 -140 -55 -274q0 -182 98.5 -342.5t239.5 -241.5q103 -49 203 -49q119 0 235.5 73t212.5 228q14 22 39 29.5t45 -4.5q57 -43 23 -92h2q-28 -46 -62 -90t-87 -95t-111.5 -88.5t-135.5 -62.5t-157 -25 q-133 0 -264 64q-133 63 -227 179t-136.5 249.5t-42.5 275.5zM614 670q7 -22 15 -28.5t20 -6.5q27 20 53 63q36 55 86 176v-2l11 21q8 16 13 24.5t20 19.5t34 11q-30 11 -43 43q0 3 -5 5.5t-15.5 4t-26.5 -3.5q-56 -22 -99 -83t-59.5 -127.5t-3.5 -114.5v-2z" />
<glyph unicode="A" horiz-adv-x="1122" d="M-12 485q0 43 32 76q13 15 66 54t102 71q47 339 195 629q45 85 108 180.5t95 136.5q22 34 51 45q5 13 22 19q14 7 29 7q11 0 22 -4q26 -9 35 -34l-2 2q5 -10 18 -43t40.5 -115.5t57 -185.5t68.5 -265.5t74 -342.5q1 0 2.5 -1t2.5 -1l49 -15q21 -9 29 -32t-1 -48 q-13 -40 -59 -43q34 -176 78 -503q2 -7 2 -13q0 -17 -12 -33q-16 -22 -43 -26h-8q-23 0 -41 14q-22 17 -25 41q-41 318 -88 561q-157 43 -307 43q-163 0 -275 -53q-10 -123 -10 -235q0 -100 8 -181q0 -24 -21.5 -46.5t-48.5 -22.5q-23 3 -39.5 19.5t-19.5 39.5q-8 84 -8 185 q0 63 2 94q-17 -23 -39.5 -37.5t-52.5 -19t-58 15.5q-30 24 -30 67zM328 750q116 38 258 38q143 0 274 -32q-93 472 -182 727q-4 -2 -8 -2q-25 -21 -86.5 -101t-96.5 -149q-112 -222 -159 -481z" />
<glyph unicode="B" horiz-adv-x="901" d="M2 1200q0 72 40.5 190t104.5 205q-12 12 -24 52q-3 15 -3 29q0 29 12 53q18 36 58 45h-2q12 3 24 3q24 1 42 -13q28 -20 41 -54q70 31 147 31q44 0 121 -15q123 -28 206 -95t118 -167q20 -56 20 -121q0 -156 -108 -292q-82 -100 -236 -195q104 -24 162 -68 q54 -38 90 -98.5t43 -130.5q4 -50 4 -74q0 -128 -41 -230.5t-108 -164.5q-70 -59 -143 -59h-7q-9 -15 -23 -25q-13 -10 -31 -10h-2q-20 0 -40 18q-203 158 -266 715q-18 12 -22 31t14 47q-13 135 -13 295v82q-17 -78 -76 -86h-9q-41 0 -65 32q-28 36 -28 70zM182 1219 q0 6 6 75q2 20 2 60v47q-12 -30 -20.5 -59t-10.5 -44q-1 -10 -1 -14zM307 1096q0 -130 8 -224q285 131 383 256q82 102 82 215q0 43 -12 80q-50 131 -231 176q-68 11 -93 11q-81 0 -131 -31q9 -106 9 -170q0 -59 -7 -127q-8 -94 -8 -186zM334 678q51 -385 170 -516 q16 4 26 4q19 -5 35 -5q37 0 64 23q47 43 75.5 122t28.5 181q0 42 -2 62q-8 80 -82 139q-48 37 -157 37q-84 0 -95 -14h2q-18 -18 -65 -33z" />
<glyph unicode="C" horiz-adv-x="1191" d="M-7 1414q0 18 7 38q8 22 31 42.5t57 31.5l74 24l-2 -2l24 8q1 16 3 29t8 30t16.5 29t28.5 20q16 7 38 7h5q64 -3 79 -65q66 14 144 14q258 0 510 -252q19 -19 17.5 -47t-21.5 -45h2q-7 -6 -21 -10.5t-34 -2t-35 16.5q-95 98 -205 154.5t-223 56.5q-70 0 -144 -18 q-12 -204 -12 -521v-57q2 -168 14.5 -301t30 -211t41 -132t42.5 -75t38 -31q8 -5 26 -6t53.5 10t69.5 39q98 86 173 162.5t114 126t63.5 88.5t31 56t5.5 24q-2 12 -2 22q0 33 19 52l4 2q24 17 45 17q18 0 34 -12q30 -24 30 -69q0 -7 -1 -14q-6 -85 -114.5 -228t-317.5 -321 q-49 -40 -111 -61q-56 -19 -100 -19h-8q-35 3 -71 19q-101 60 -166 282.5t-84 575.5q-11 203 -15 502q-12 -21 -37 -35q-26 -18 -52 -22t-44 4t-29.5 16t-17.5 16q-11 18 -11 42z" />
<glyph unicode="D" horiz-adv-x="1269" d="M0 1380q0 203 92 324q95 130 319 129h33q356 -25 566 -267t227 -648v-3q0 -10 1 -28.5t1 -28.5q0 -209 -68 -394t-190 -308q-176 -185 -438 -185h-17q-144 5 -229 54q-19 -27 -53 -27q-7 0 -13 2q-25 6 -39.5 28.5t-9.5 45.5l8 41v2q0 5 5 20q-13 43 -13 70q0 69 41 119 q23 167 23 399q0 175 -17 333.5t-32.5 230t-22.5 83.5q-12 6 -14 8q3 -39 6 -39v2q22 -28 22 -65v-8q0 -43 -28 -82q-19 -22 -51 -25h-8q-37 0 -63 27q-29 30 -32 80q-6 48 -6 110zM174 1569q33 11 59.5 0t44.5 -44t31 -70.5t21.5 -94.5t13 -98t8.5 -99l6 -73 q19 -182 19 -355q0 -157 -15 -329q10 1 21 1q21 0 43 -4h-2q26 -6 40.5 -26.5t8.5 -46.5q-9 -28 -32 -43.5t-48 -10.5q-24 8 -47 -6l-16 -98q0 -8 -2 -10q43 -58 202 -64h15q196 0 346 150v-2q101 102 159 287t60 378q-20 342 -201.5 556t-472.5 237h-20q-150 0 -219 -86 q-14 -20 -23 -49z" />
<glyph unicode="E" horiz-adv-x="1183" d="M-6 809q0 55 63 92q5 5 179 29q-1 31 -2 76.5t-2 167.5v74q0 65 1 95q-49 16 -49 76q0 27 15.5 53.5t42.5 43.5q1 27 2.5 44.5t8.5 45t19 42.5q10 14 34 24q14 6 32 5q11 0 24 -2q48 -10 64 -69q81 21 145 24q63 -5 127 -30.5t110 -56.5t87 -66t59.5 -55.5t24.5 -28.5 q10 -23 5 -50t-26 -38q-16 -11 -33 -11q-30 0 -61 35q0 2 -15 18.5t-44 41.5t-64.5 49.5t-83.5 43t-94 21.5h-8q-60 0 -156 -67q-34 -273 -39 -480q64 5 162 5q247 0 455 -60q25 -9 36.5 -30.5t4.5 -47.5l2 2q-6 -26 -30 -39t-50 -4q-167 49 -354 49q-109 0 -228 -18 q1 -178 15 -309t36 -200.5t43 -103.5t44 -48q17 -12 40 -12q44 0 107 44h-2q321 228 371 269q8 19 26 34q24 12 38.5 18t39 1.5t39.5 -29.5l-2 2q14 -19 14 -38q0 -13 -7 -25q-8 -14 -14 -20.5t-18 -16.5l-41 -33l3 2q10 9 0 2q-9 -7 -25 -20q-20 -14 -80.5 -57.5t-129 -92 t-140.5 -98.5q-100 -70 -185 -70q-56 0 -102 29q-125 79 -174 354q-28 175 -31 393l-35 -8l5 8q-13 -23 -48 -46q-26 -17 -61 -17q-12 0 -25 2q-23 5 -44 28.5t-21 53.5z" />
<glyph unicode="F" horiz-adv-x="1228" d="M-4 1333q0 77 45 166q36 67 97.5 122t135.5 83q103 43 238 43q100 0 203 -23q124 -30 221.5 -76t157 -94.5t100 -105.5t58 -105.5t24.5 -99.5v-2v-7q0 -24 -16 -42q-19 -22 -52 -21q-23 2 -39.5 17t-19.5 39q-35 268 -463 372q-107 21 -176 21q-40 0 -78 -6 q12 -12 25 -47q13 -41 55 -379q22 -173 27 -266q186 28 342 28q154 0 254 -32h-2q26 -9 38.5 -33t4.5 -49q-9 -25 -32.5 -36t-49.5 -3q-83 28 -203 28q-146 0 -342 -45q16 -300 16 -540q0 -131 -2 -201q-2 -27 -20.5 -45.5t-44.5 -18.5q-7 4 -17.5 10.5t-28 24t-16.5 33.5 q6 120 6 244q0 238 -18 463q-15 -4 -27.5 -6t-17.5 -2t-6 1q-9 -14 -25 -29.5t-48 -29.5q-21 -9 -42 -8l-22 2q-30 8 -49 30.5t-19 51.5q0 27 17.5 52.5t50.5 39.5q34 20 174 45q-14 148 -33.5 284.5t-32 200.5t-14.5 66l6 -2q-29 15 -51 65q-9 28 -6 50q-31 -20 -57 -47.5 t-41.5 -52t-25.5 -47t-13 -36t-1 -14.5q9 -5 19.5 -15.5t23 -37t11.5 -58.5q0 -34 -25.5 -62t-60.5 -28q-42 0 -78 47q-35 47 -35 123z" />
<glyph unicode="G" horiz-adv-x="1386" d="M-10 83q0 24 22 44v-2q73 84 181 192q-116 209 -125 426q-1 24 -1 48q0 231 103 454q43 93 113.5 205.5t119.5 180t60 77.5q42 38 81 38q27 0 52 -17q48 28 86 40q26 7 57 7q47 0 107 -16q101 -27 168 -85q72 -67 127.5 -136t83.5 -117.5t46.5 -95t23 -65t5.5 -30.5 q3 -25 -8.5 -45t-34.5 -27q-30 -10 -53.5 4.5t-29.5 42.5q-1 13 -12.5 44t-36.5 81t-77 118t-120 132q-76 64 -137 64q-35 0 -70.5 -18.5t-53.5 -36.5l-18 -19q0 -19 -6 -37q-11 -31 -45 -59q-23 -19 -51 -19q-13 0 -27 4q-30 15 -45 37q-120 -159 -190 -305 q-92 -211 -92 -397q0 -210 94 -383q256 247 463.5 378.5t343.5 131.5q49 0 92 -19h2q71 -29 108 -102q33 -67 33 -162v-16q-4 -125 -68 -267.5t-172 -262t-229 -167.5q-61 -22 -127 -22q-229 0 -430 254l-18 22q-5 8 -10 13t-11 16q-61 -61 -143 -150v4l-21 -26 q-15 -17 -40.5 -17t-45.5 17q-24 19 -24 46zM356 299q20 -36 47 -63q158 -205 330 -205q37 0 88 14h-2q100 34 188.5 132.5t139.5 219.5t55 230v13q0 42 -12 82q-13 47 -51 64q-35 7 -45 7q-93 0 -273.5 -110t-464.5 -384z" />
<glyph unicode="H" horiz-adv-x="1271" d="M-5 606.5q0 26.5 1 44.5q7 35 24 58v-2q9 18 13 34q21 69 44 99q36 47 103 71q-1 111 -6 217t-10 158.5t-6 52.5q-22 11 -40 43t-18 64q0 74 74 96q11 3 21 3q31 -1 55 -25q32 -32 37 -72q20 -200 20 -504q52 6 129 6q67 0 477 -10q-2 4 -2 18q-43 587 -43 612 q0 44 33 77q26 26 59 26h7q44 -3 64 -32t20 -70q0 -46 -29 -86q8 8 9 -9q1 -6 1 -26q0 -236 17 -512q6 0 19 -1t19 -1q60 0 84 6q30 6 52 -7t26 -42q2 -7 2 -13q0 -16 -11 -32q-15 -22 -40 -31q-36 -8 -106 -8q-11 0 -17.5 1t-19.5 1q30 -484 94 -645q6 -21 6 -38 q0 -32 -22 -48q-18 -12 -37.5 -12t-31.5 7.5t-19 16.5q-77 89 -125 723h-13q-360 8 -473 8q-69 0 -131 -10v-92q0 -218 33.5 -369t99.5 -192q34 -25 34 -61q0 -14 -5 -29q-9 -18 -30 -28q-9 -4 -21 -4q-14 0 -31 7q-71 36 -118 135.5t-66 211t-23 243.5q0 -2 -1 -8t-1 -9 q-10 -47 -40 -72q-25 -21 -57 -21q-6 0 -13 1h2q-35 3 -54 28.5t-19 52zM164 692q10 -16 14 -41v58q0 16 -1 28.5t1 24.5l-2 -2q-14 -16 -14 -44q0 -11 2 -24zM922 926q2 -2 4 -2q-2 2 -4 2z" />
<glyph unicode="I" d="M-2 1530q-8 23 -8 43q0 24 11 44q20 37 52 46q15 4 28 4q29 1 49 -17q30 -26 42 -67v2q9 -25 57 -381q54 -434 54 -954q0 -129 -2 -195q-2 -24 -23 -43.5t-49 -19.5q-22 3 -38.5 23t-18.5 44q4 76 4 234q0 297 -26 584t-48.5 422t-32.5 161q-34 20 -51 70z" />
<glyph unicode="J" horiz-adv-x="1155" d="M-3 1488q-2 6 -2 14q0 12 5 28q7 28 33.5 52.5t94.5 50.5t171 42q136 21 303 21q64 0 128.5 -3.5t113 -8.5t96.5 -11.5t75.5 -11t52.5 -9.5t26 -5h-2l10 -2q24 -8 36 -32q7 -14 7 -28q0 -11 -4 -22q-9 -24 -31 -36.5t-45 -6.5q-44 12 -72 12q-49 0 -102 -37 q-94 -85 -94 -317q0 -70 9.5 -147.5t18.5 -120.5l9 -42q27 -172 40 -261.5t24 -197t11 -180.5q0 -203 -94 -276h2q-56 -47 -149 -47q-110 0 -310 78q-160 63 -226 121q-60 54 -60 116v10q3 38 38 71t81 52.5t95.5 33t79.5 19t35 5.5q23 1 43 -13.5t25 -36.5 q3 -29 -13.5 -50.5t-41.5 -26.5q-79 -11 -146 -31.5t-71 -38.5q2 -6 12.5 -16t61 -36.5t132.5 -58.5q177 -71 265 -71q46 0 67 18q45 34 45 178q0 66 -12 175t-23.5 186.5t-39.5 257.5v-2q-35 154 -35 328q0 112 27.5 217.5t84.5 173.5q-88 6 -170 6q-119 0 -220.5 -11.5 t-145 -22t-43.5 -13.5q-6 -28 -29.5 -51.5t-52.5 -35.5t-60 -7t-51 30q-8 12 -13 28z" />
<glyph unicode="K" horiz-adv-x="1081" d="M0 1624v8q0 36 16 69q18 37 66 40h5q23 -1 41 -9q20 -10 30.5 -28t15.5 -32.5t8 -31.5v-30q8 -328 8 -594q105 112 211.5 220.5t232.5 228.5q126 119 224 191q93 68 134 68h5q38 -3 52 -18.5t14 -40.5v-8q0 -23 -10 -48q-12 -30 -29.5 -54t-36 -44.5t-31.5 -31.5t-14 -11 l23 9q-22 -20 -48 -20t-45 22l-4 6q-244 -194 -649 -631l-2 -2q107 -35 223 -113q353 -245 416 -708q3 -23 -11 -43.5t-36 -26.5q-6 -2 -18 -2q-22 0 -41 16t-23 39q-31 201 -122 362t-234 259q-85 58 -181 92q-4 -506 -30 -772q-3 -24 -21.5 -40.5t-48.5 -16.5 q-23 3 -39 23.5t-18 45.5q22 217 22 592q0 135 -2 211q-11 9 -18 25q-5 14 -5 26q0 24 19 43l4 4l-18 678h2q-34 26 -37 78z" />
<glyph unicode="L" horiz-adv-x="1054" d="M2 1614q0 44 24 77t70 33t67 -35.5t23 -74.5v-12.5t1.5 -31.5t2.5 -44q36 -1014 37 -1057q2 -80 3.5 -111t7.5 -81t19 -74t34 -37q21 -16 69 -16q172 0 592 204q21 9 48.5 1.5t37.5 -31.5q6 -13 6 -26q0 -12 -4 -22q-9 -24 -32 -36q-244 -118 -404 -170 q-143 -47 -240 -48q-11 0 -22 1q-38 2 -69.5 11t-54.5 21t-41.5 34t-30 40.5t-20.5 50.5t-13.5 54.5t-7.5 61.5t-3.5 61.5t-1.5 64.5q0 8 -1 23t-1 22q-6 201 -22.5 461.5t-32 434t-20.5 177.5q-21 18 -21 74z" />
<glyph unicode="M" horiz-adv-x="1529" d="M2 1266q0 416 6 434q8 44 40 72q26 24 55 23q6 0 12 -1q33 -6 51.5 -32.5t22 -51t-0.5 -43.5q155 -309 303 -583t189 -310q17 -17 41 -17q10 0 22 3q122 39 285 259t260 462q0 15 6.5 90t10.5 82l-5 -8q6 44 36 72q27 25 60 25q5 0 9 -1q33 -6 53.5 -34t20.5 -67t-23 -81 q-7 -11 -28.5 -223t-41.5 -521.5t-20 -523.5q0 -144 4 -197q19 16 43 19q27 3 46.5 -16.5t21.5 -45.5q1 -16 1 -30q0 -49 -8 -85q-10 -48 -27.5 -68.5t-32.5 -28t-30 -7.5q-58 0 -98 76v-2q-53 89 -59 397q0 112 41 854q-116 -202 -247 -347.5t-249 -174.5h2q-27 -8 -53 -8 q-68 0 -127 51q-92 80 -440 776q-21 -304 -21 -625q0 -459 43 -823v2q6 -28 -12.5 -52t-48.5 -24q-25 0 -43 17.5t-21 40.5q-49 461 -49 1276z" />
<glyph unicode="N" horiz-adv-x="907" d="M0 1278q4 22 18 37q18 14 39 14t45 -14q140 -112 248 -262q155 -212 266 -492q1 266 28.5 548.5t51.5 425t31 161.5v-2q12 44 46 66q23 15 47 16q12 0 24 -4q29 -8 45 -34q15 -25 15 -50q0 -24 -5 -48l2 5q-9 -41 -33 -62q-8 -21 -26.5 -115t-41 -239t-39 -349.5 t-16.5 -398.5q0 -163 15 -327q0 -15 -4 -31q0 -2 1 -6t1 -6q5 -27 -8.5 -49.5t-40.5 -28.5q-23 -6 -46.5 9.5t-29.5 39.5q-73 294 -177.5 525t-203.5 366q-60 78 -86 106q18 -188 18 -461q0 -278 -16 -630v-21q-3 -24 -19 -40t-40 -19q-28 0 -48 21t-20 46q14 334 14 635 q0 541 -47 625q-9 16 -9 33q0 5 1 10z" />
<glyph unicode="O" horiz-adv-x="1175" d="M-8 842q0 285 164 565q25 42 63 58q16 7 32 7q23 0 46 -14q11 -7 25 -31q130 125 305 125q111 0 213.5 -52t173.5 -134q137 -155 137 -399q0 -170 -64 -355q-52 -154 -134 -277.5t-191.5 -200.5t-224.5 -77q-196 0 -355 213q-190 265 -190 572zM125 815 q0 -117 43.5 -239.5t118.5 -229.5q65 -84 137 -126q61 -35 120 -35q12 0 23 1q115 23 227.5 153t174.5 316q51 162 51 308q0 214 -113 333q-53 55 -131 92t-160 37q-66 0 -123 -26.5t-111 -95t-87 -175.5l2 5q-6 -26 -28 -41t-50 -9q-29 7 -41 31q-5 -14 -12 -40.5 t-10 -35.5q-31 -115 -31 -223z" />
<glyph unicode="P" horiz-adv-x="964" d="M0 1450q-1 5 -1 11q0 29 21 67q25 46 73 92.5t130 85.5t178 53q36 4 70 4q286 0 422 -280q49 -92 49 -205q0 -107 -49 -207t-145 -182q-88 -75 -232 -127q-141 -51 -254 -51h-4q-4 -70 -4 -207q0 -348 47 -508v2q8 -28 -8 -56t-51 -28q-52 0 -64 45l2 -2q-53 151 -53 594 q0 116 2 186q-29 11 -49 25h2q-23 15 -27 41.5t13 48.5q17 28 45 28q9 0 18 -3q10 272 31 540q-21 -21 -41 -31q-25 -11 -46 -11q-22 0 -38 13q-31 25 -37 62zM264 838h9q91 0 197 37q112 39 194 108q32 27 63.5 66t59.5 104.5t28 130.5q0 61 -35 139h2q-59 117 -156 171 q-76 42 -161 41q-24 0 -49 -3q-34 -3 -70 -22q10 -20 10 -47q0 -60 -41 -101q-1 -1 -9.5 -83.5t-21 -236.5t-20.5 -304z" />
<glyph unicode="Q" horiz-adv-x="1228" d="M-2 913q0 282 147 527l2 2q0 29 35 69q40 45 88 45q41 0 62 -24q120 82 282 82q50 0 70 -4h-2q52 -8 87.5 -15.5t86.5 -25.5t85.5 -42t72.5 -66.5t61 -97.5t38 -135.5t15 -180.5q0 -124 -57 -295t-149 -318q127 -205 209 -205h4q25 3 44.5 -15t22.5 -44v-8q0 -23 -16 -40 q-18 -20 -56 -20q-119 0 -290 215q-137 -166 -277 -204q-44 -11 -80 -11q-185 0 -317 230v-2q-168 284 -168 583zM125 897q0 -243 151 -502q56 -94 122 -136q45 -29 89 -29q21 0 41 6q108 28 234 190q-67 98 -78 145q-4 17 -5 33.5t2 39t20 38.5t47 20h10q38 0 66 -27 q32 -31 36 -57l4 -24q52 100 93.5 223.5t41.5 229.5q0 38 -1.5 65t-8 71t-19 76.5t-37.5 71.5t-59 66.5t-87.5 51t-120.5 34.5q-24 3 -47 3q-100 0 -195 -52q-117 -64 -172 -179q-35 -81 -35 -159q0 -104 69 -225.5t185 -227.5q20 -18 21.5 -44t-17.5 -48v4 q-17 -20 -43.5 -21t-46.5 15q-190 163 -260 350v-2z" />
<glyph unicode="R" horiz-adv-x="1005" d="M-4 569q6 26 29.5 41t50.5 6h-2q10 -3 23 -3q28 0 70 15q61 22 126 62q-26 257 -53 404q-6 37 -26.5 105.5t-37.5 76.5q-42 22 -56 62q-10 28 -11 52q0 10 2 19q8 44 37.5 62.5t59.5 13t48 -24.5h-2q20 -12 33 -45q26 59 58 112.5t88.5 113.5t117.5 85q24 7 49 6 q44 0 92 -20q76 -32 142 -139q63 -103 63 -232q0 -207 -168 -430q-130 -172 -301 -288q6 -39 8 -66q74 -11 158.5 -25t187.5 -31t158 -26h2q26 -5 40 -27q12 -18 12 -40q0 -5 -1 -9q-3 -24 -23.5 -39t-49.5 -12l-474 78l7 -68l22 -313q-2 -26 -19 -47t-40 -21h-3 q-25 0 -43 17q-20 18 -22 41q-1 11 -31 414q-27 4 -96 15t-125.5 20.5t-54.5 9.5q-23 8 -37 30q-10 16 -9 33q0 6 1 12zM362 1133q35 -193 54 -361q125 100 211 215q143 182 143 352q0 89 -47 166q-33 53 -69 79q-29 21 -55 21q-6 0 -11 -1q-34 -11 -69 -57t-58.5 -100 t-38.5 -101t-16 -66q7 -14 7 -35q1 -19 -5 -41q-12 -48 -46 -71z" />
<glyph unicode="S" horiz-adv-x="958" d="M6 403q50 89 238 101q27 0 46 -18.5t19 -43.5q0 -28 -17 -46.5t-44 -18.5q-36 -2 -78 -12t-53 -23q2 -2 10 -14q59 -96 203 -152q120 -46 231 -47q22 0 43 2q52 4 88 23t47 43q3 10 3 22q0 34 -27 85q-37 69 -113 149q-136 144 -233.5 285t-146 256.5t-68.5 206.5 q-15 70 -14 129q0 18 1 36q21 233 203 371q88 65 180 65q77 0 140 -39q61 -35 111 -101.5t78 -138t46.5 -145.5t24.5 -125q4 -38 4 -61v-14q-6 -44 -34 -70q-25 -23 -60 -24q-5 0 -11 1q-30 2 -52.5 32t-22.5 71q0 42 28 80q2 3 -1 33.5t-14.5 78.5t-30 99t-54 100t-80.5 76 h2q-33 20 -70 20q-47 0 -108 -41q-64 -53 -104.5 -125.5t-47.5 -150.5q-1 -13 0 -26q0 -160 101 -358q110 -214 325 -435v2q176 -179 176 -320q0 -45 -12 -69v2q-24 -67 -98.5 -109.5t-200.5 -42.5q-98 0 -202.5 30.5t-197 91t-141.5 138.5q-26 42 -26 82q0 30 14 59z" />
<glyph unicode="T" horiz-adv-x="1538" d="M-6 1444q0 93 78 194q110 144 420 144q57 0 77 -2q3 6 15 14q12 12 32 18q17 6 29 5h4q44 0 72 -54q114 -15 217.5 -46.5t178 -68.5t140 -82t106 -83t72.5 -75t44 -55t16 -26v2q8 -14 8 -30q0 -9 -3 -19q-7 -27 -30 -37l3 2q-18 -12 -33 -12t-31 9.5t-25 23.5 q-4 7 -18.5 26.5t-52 58t-82.5 74.5q-85 68 -219.5 127t-302.5 84l-13 -14q-1 -1 -6 -140.5t-9.5 -382.5t-4.5 -460q0 -367 20 -596q-2 -25 -18.5 -46t-42.5 -22q-27 0 -45 16t-21 40q-28 299 -28 968q0 276 8 652q-25 2 -64 2q-232 0 -299 -92q-9 -11 -15.5 -34t-4.5 -30 q24 -31 24 -73v-13q-1 -46 -29 -74t-69 -28q-40 3 -69 39.5t-29 95.5z" />
<glyph unicode="U" horiz-adv-x="1089" d="M2 838q0 140 17 300.5t30.5 239.5t20.5 109q22 52 58 71q19 10 36 10q15 0 29 -7q24 -13 38.5 -31.5t17 -37t1.5 -31.5t-4 -23q-16 -43 -35 -62q-3 -3 -18 -88.5t-31.5 -239t-16.5 -286.5q0 -356 123 -453q72 -61 193 -61q138 0 346 88v61q0 246 -30 515t-57 411.5 t-38 169.5q-33 17 -49 66q-6 23 -6 44q1 21 7 39q14 36 48 52q19 8 36 8q20 0 38 -12q32 -24 49 -76q10 -34 36.5 -176t60.5 -439t34 -561v-41l49 27q25 14 50.5 6t35.5 -33q8 -15 8 -31q0 -8 -2 -16q-7 -24 -30 -39q-76 -41 -115 -57q-2 -73 -14 -199q-3 -24 -23 -41 q-17 -14 -39 -14h-8q-27 3 -43.5 24t-13.5 48q8 77 10 123q-195 -74 -348 -74h-23q-143 10 -240 88q-100 80 -144 249t-44 380zM1071 397h2l-2 4v-4z" />
<glyph unicode="V" horiz-adv-x="1048" d="M0 1520v12q0 44 20 70q23 28 48 36q11 2 21 2q31 0 53 -22q28 -30 40 -66q15 -47 221 -1155l46 -241q3 -13 3 -26t-0.5 -18.5t2 -10t9.5 -5.5q32 19 119 234q52 127 97.5 286t74.5 293t50.5 254t30.5 185t9 71q3 24 20 40t41 16h4q41 0 64 -56l49 -172v-2q2 -7 2 -14 q0 -17 -10 -33q-14 -24 -41 -31q-17 -5 -37 2q-85 -520 -234 -890q-40 -97 -77 -163t-68 -97t-53.5 -42.5t-46.5 -11.5q-90 7 -127 146q-6 9 -6 18l-29 135q-222 1157 -248 1172q-17 10 -30.5 34.5t-16.5 49.5z" />
<glyph unicode="W" horiz-adv-x="1087" d="M4 1458q0 121 10 144q32 76 88 76q16 0 35 -7q31 -11 45 -37t13 -52t-11 -48q-8 -14 -15 -149.5t-7 -309.5q0 -191 11.5 -364t43 -327t78.5 -206q17 -13 41 -10q55 8 125 37q10 257 10 407q0 310 -29 521q-5 34 -13 72t-14.5 61t-8.5 24q-39 22 -55 58q-11 25 -11 49 q0 11 2 21q7 32 29 50q27 21 56 16.5t50 -17.5t33 -29q8 -12 15.5 -29t13.5 -35t11.5 -42t9 -44t7 -46.5t6 -45t4.5 -43t3 -36.5t2.5 -31t1.5 -21v-6q14 -205 14 -434q0 -131 -6 -351q139 91 237 201q9 150 9 268q0 359 -52 576q-7 38 -19.5 82.5t-21.5 71t-10 26.5 q-21 2 -45 23.5t-40 49.5q-14 25 -14 54v8q2 34 32 56h-2q23 17 48 17q42 0 91 -48q63 -64 112.5 -308t49.5 -622q0 -67 -2 -100q15 15 38.5 18t45.5 -8l4 -4q15 -15 17 -41v-10q0 -21 -7 -37q-59 -74 -107 -125q-12 -222 -28 -367q-3 -24 -24 -41t-48 -14q-26 3 -42 22.5 t-13 47.5q17 172 20 219q-118 -99 -235 -166l-4 -133q-2 -23 -22 -42q-19 -18 -42 -18h-2q-27 0 -45 20t-18 48l2 68q-81 -26 -129 -29q-61 0 -119 49q-82 76 -133.5 300.5t-57.5 561.5l-4 211v-2q-8 212 -8 301z" />
<glyph unicode="X" horiz-adv-x="1376" d="M-4 10q196 636 447 1026q56 87 112 156q-38 52 -125 143v-2q-42 42 -97.5 85.5t-91.5 67.5t-38 23q-18 -5 -38 -5q-24 0 -50 7q-35 13 -61 51q-16 23 -16 48q0 15 7 30q28 54 84 54q70 0 178.5 -82.5t208.5 -184.5v3q58 -55 125 -142q130 130 266 170q67 21 140 21 q46 0 88.5 -9t75.5 -24t60.5 -34.5t45 -41.5t27.5 -44q9 -20 8 -39q0 -23 -13 -40q-29 -34 -64 -34h-7q-39 4 -72 27.5t-43 49.5q-4 14 -50.5 35t-101.5 21q-19 0 -59 -9q-109 -38 -223 -155q277 -389 500 -1045q6 -26 -5 -48.5t-36 -31.5q-30 -8 -52.5 5t-27.5 34 q-105 301 -230 562.5t-233 422.5q-84 -112 -168 -267t-143 -292.5t-107 -266t-71 -199t-25 -79.5q-10 -25 -33 -39q-16 -10 -33 -10q-9 0 -18 2q-24 8 -37 30q-8 13 -8 29q0 10 4 21z" />
<glyph unicode="Y" horiz-adv-x="1130" d="M-4 1605q0 20 10 40q12 22 37 34q17 8 34 8q23 0 47 -16q41 -28 54 -72l2 -8l4 -24q10 -64 21.5 -122.5t35 -151.5t49 -161.5t64 -124.5t80.5 -67q9 -2 20 -2q37 0 93 28q72 35 137 97q86 91 147.5 173.5t89 130.5t42 92.5t15.5 54.5t1 22q0 58 47 70h-2q28 11 48.5 -2 t27.5 -32l6 -18l-2 2q3 -13 0.5 -39.5t-20.5 -80t-50.5 -116.5t-99.5 -154.5t-158 -188.5q-99 -104 -211 -146q0 -32 -28 -69q-2 -2 -2 -213q0 -246 14 -588q0 -25 -18 -45t-44 -20q-25 0 -43.5 17.5t-19.5 43.5q-7 95 -22 398t-15 427q0 9 -0.5 16.5t-1 11t-1 6t-0.5 3.5 t1 2q-43 14 -82 48.5t-69 86.5t-53.5 104t-44 119t-32.5 111.5t-26 101.5q-5 23 -8 33q-9 58 -4 58q-40 22 -58 59q-3 6 -7 22q-5 19 -5 41z" />
<glyph unicode="Z" horiz-adv-x="1392" d="M0 1172q1 33 21 74.5t48.5 84t72.5 86.5t93 82.5t110 71.5t124 53q185 55 324 55q78 0 142 -17.5t103.5 -46t63 -56.5t35.5 -58q28 -70 28 -153q0 -181 -116 -416q96 -10 221 -47q24 -8 38 -31.5t5 -50.5q-8 -24 -32 -36t-48 -3q-117 36 -246 45l-53 -84 q-206 -311 -557 -537q159 -5 332.5 -26t353.5 -64t274 -100q23 -15 29 -41q2 -9 2 -17q0 -16 -8 -30v2q-7 -14 -18.5 -23.5t-29.5 -12.5q-3 -1 -6 -1q-15 0 -34 12q-73 44 -217.5 78t-288.5 51t-298.5 27.5t-229 13t-97.5 2.5q-23 -1 -39.5 12t-21.5 35l2 -2q-9 21 0.5 43 t30.5 31q206 102 392 258t320 357l4.5 6t2.5 2t1.5 0.5t2 3t4.5 8.5q-90 -3 -177.5 -14t-132 -20.5t-45.5 -12.5q-40 -60 -105 -60q-14 0 -28 3q-23 5 -44 28.5t-21 53.5q0 53 63 94q16 8 76.5 20.5t172.5 24.5t224 12q4 0 45 1t45 -1q125 238 125 408q0 52 -18 102 q-46 109 -211 109q-119 0 -299 -58q-60 -20 -116.5 -53.5t-94.5 -67t-68 -67t-43.5 -53t-15.5 -25.5q7 -15 9 -38.5t-6.5 -54.5t-31.5 -52q-24 -22 -48.5 -26t-42 6t-28.5 21.5t-16 22.5l2 -2q-10 23 -10 53v5z" />
<glyph unicode="[" horiz-adv-x="489" d="M14 799q-2 197 33 843q6 114 6 158v25.5t3.5 31t10 38t21 29.5t35.5 24q48 18 114 -11.5t101 -66.5v2q17 -20 23 -51t-9 -60v2q-14 -25 -41 -28.5t-48.5 5.5t-33.5 21q-47 54 -67 64q-4 -47 -12.5 -479.5t-6.5 -546.5q1 -148 8.5 -269t17.5 -191.5t22 -120.5t20.5 -69 t15.5 -24q29 -9 57.5 -0.5t49 20t20.5 13.5q23 20 53 20t48 -18q17 -22 16 -47.5t-20 -42.5l-2 -2q-78 -68 -199 -68q-40 0 -82 12q-70 29 -109 203.5t-45 583.5z" />
<glyph unicode="\" horiz-adv-x="884" d="M18.5 2019.5q17.5 36.5 53.5 46.5h-2q41 12 69.5 -15.5t34.5 -59.5l-2 2q10 -30 0 -60q-1 -4 114 -425t246.5 -886t165.5 -556q18 -47 35 -78q13 20 36 26.5t46 -2.5q24 -15 33 -39t0 -47q-30 -63 -60 -86q-28 -16 -53 -16q-77 3 -155 192q-63 175 -494 1702 q-58 211 -66 219q-19 46 -1.5 82.5z" />
<glyph unicode="]" horiz-adv-x="526" d="M15 112.5q-1 25.5 16 47.5q18 18 47.5 18t52.5 -20q0 -2 20.5 -14.5t49 -21t57.5 2.5q7 5 15.5 24t20.5 69t22 120.5t17.5 191.5t8.5 269q2 119 -6 559.5t-12 464.5q-33 -20 -78 -72q-10 -10 -29.5 -17t-44.5 -1.5t-39 30.5v-2q-15 29 -9 60t23 51v-2q35 37 101 66.5 t114 11.5q25 -9 40.5 -27t21 -43t7 -40t1.5 -38v-6q0 -38 6 -152q35 -646 33 -843q-4 -280 -25.5 -454t-53 -244t-77.5 -89q-42 -12 -79 -12q-121 0 -199 68l-2 2q-19 17 -20 42.5z" />
<glyph unicode="^" horiz-adv-x="1028" d="M31 1232.5q5 20.5 12 33.5q11 21 171.5 209.5t205.5 222.5q40 32 90 26q35 -6 73 -32t79 -72t72 -86.5t75 -101.5q108 -161 131 -168q23 -9 37 -29.5t6 -48.5v2q-6 -27 -31.5 -40.5t-50.5 -4.5q-38 13 -80 60.5t-116 154.5q-156 217 -205 241l-2 -2q-58 -51 -310 -374 q-8 -34 -38 -64t-82 -10q-28 10 -35 36.5t-2 47z" />
<glyph unicode="_" horiz-adv-x="1228" d="M10 -49q-6 28 8.5 57.5t53.5 32.5q22 5 48.5 -10t33.5 -37q1 -3 67.5 -10.5t201.5 -15t279 -7.5q196 0 424 27h-2q26 6 48 -8.5t26 -42.5q3 -22 -11.5 -44.5t-37.5 -29.5q-160 -37 -524 -37q-357 0 -451 24h2q-84 18 -117.5 41.5t-46.5 55.5z" />
<glyph unicode="`" horiz-adv-x="315" d="M-3.5 1675.5q6.5 25.5 28.5 40.5q22 14 48.5 8t39.5 -28l170 -283q12 -22 7 -45t-24 -41q-30 -20 -54.5 -13t-39.5 32l-170 282q-12 22 -5.5 47.5z" />
<glyph unicode="a" horiz-adv-x="720" d="M-8 313q0 133 38 266.5t99 200.5q75 75 158 75q9 0 18 -1q88 -14 146 -59q28 37 68 37q12 0 24 -3q36 -11 55 -30t20 -39t-3.5 -35.5t-12.5 -24.5q-7 -8 -13.5 -64t-6.5 -126q0 -120 25 -229.5t83 -174.5v3q19 -20 19 -43q0 -28 -23 -48h2q-20 -16 -45 -16q-26 0 -45 23 q-98 106 -129 297q-93 -243 -238 -306l2 2q-40 -16 -69 -16q-69 0 -115 64q-57 80 -57 247zM117 309q0 -120 35 -170q6 -9 16 -9q6 0 14 3q50 22 91.5 78t66 117t41.5 123.5t23 98.5t6 42v4q-20 10 -28 31.5t1 52.5q2 5 -12 15t-35.5 20t-40.5 14h-10q-29 0 -64 -35v2 q-46 -51 -75 -163.5t-29 -223.5z" />
<glyph unicode="b" horiz-adv-x="638" d="M14 268h-2q10 10 19 13v860q0 441 -13 467q-7 17 -8.5 38.5t4 44.5t27.5 41.5t57 24.5q6 1 11 1q19 0 34 -8q19 -10 28 -25.5t13.5 -39.5t5 -35.5t0.5 -27.5v-4q-5 -23 -16 -707q0 -17 -2 -49t-2 -47q40 16 92 21q18 2 34 2q32 0 60 -7v3q113 -29 183 -146v-2 q75 -137 75 -305v-21q-15 -287 -176 -348q-32 -12 -78 -12q-94 0 -206 68v-50q0 -20 -16 -38q-14 -15 -44 -15h-10q-18 3 -32 17t-15 34q-4 78 -4 142l-23 22q-17 19 -17 44q0 28 21 44zM158 217q62 -49 126 -77q40 -17 73 -17q20 0 38 6q79 29 92 240q1 17 1 33 q0 99 -36 177q-42 90 -102 115q-16 7 -33 7q-21 0 -45 -11q-42 -20 -61 -39q-14 -17 -43 -24q0 -10 -1 -29t-1 -29z" />
<glyph unicode="c" horiz-adv-x="661" d="M-4 356q-1 15 -1 31q0 159 77 293q65 111 180 147q25 6 54 6q23 0 50 -4q59 -8 101 -26q30 0 63.5 -29t43.5 -66q2 -8 2 -17q0 -28 -25 -54h2q-22 -22 -57 -22q-6 0 -12 1q-44 4 -75 33q-8 7 -19 14t-34 19t-42.5 13t-45.5 -5q-59 -29 -101 -119q-37 -79 -37 -180 q0 -14 1 -29q13 -202 92 -237q15 -4 31 -4q52 0 118 36q88 47 146 103q15 19 40.5 20t45.5 -16h2q20 -20 20 -48q0 -24 -18 -42v2q-54 -59 -154.5 -120.5t-195.5 -61.5q-38 0 -76 14q-164 59 -176 348z" />
<glyph unicode="d" horiz-adv-x="794" d="M0 313q0 134 38 267t101 200q78 80 164 80h12q63 -9 146 -65q4 174 28 442q2 40 6 106t6.5 111t2.5 80q0 94 -15 121q-8 16 -8 33q0 27 21 57q35 49 86 49q37 0 59 -26.5t26 -51.5t3 -45q-3 -24 -15 -154t-30 -376t-27 -453q0 -65 5.5 -131.5t19.5 -153.5t46 -166 t79 -131v3q19 -20 19 -43q0 -28 -23 -48h2q-20 -16 -45 -16q-27 0 -45 18q-73 83 -121 177h2q-32 60 -51 125q-42 -98 -112 -188.5t-138 -117.5q-54 -14 -68 -14q-71 0 -117 64q-57 80 -57 247zM125 309q0 -120 35 -170q6 -9 16 -9q6 0 14 3q50 22 92 78t66.5 117 t41.5 123.5t23.5 99t6.5 41.5v24q-22 35 -54 69.5t-63 43.5h-10q-29 0 -64 -35v2q-46 -51 -75 -163.5t-29 -223.5zM426 627q11 11 29 14q-15 1 -23 -3q-6 -3 -7 -8q0 -1 1 -3z" />
<glyph unicode="e" horiz-adv-x="677" d="M8 618q3 18 20 35t40 23q19 39 63 90q35 35 81 58t81 28q35 4 67 8q15 2 23 2q10 0 14 -2q82 -7 130 -78.5t51 -165.5v-12q0 -58 -18 -112q-20 -60 -70 -106.5t-121 -51.5h-15q-101 0 -196 61l4 -20q27 -215 112 -242q16 -6 35 -6q43 0 99 33q78 46 141 108 q15 17 40.5 18t45.5 -14h2q21 -20 21 -47q0 -24 -19 -43v2q-10 -13 -38.5 -38.5t-73.5 -60t-105 -59t-115 -24.5q-33 0 -71 12q-168 57 -205 344q-6 53 -6 97q0 40 2 63q-23 40 -23 73q0 14 4 27zM188 588l5 -23q0 -2 7.5 -13.5t22.5 -28t34 -32t47 -24.5q21 -7 40 -6h14 q27 3 47 20t30 41q11 22 15 46q4 19 3 37v7q-2 47 -21.5 84.5t-50.5 38.5q-86 -11 -137 -65q-25 -23 -56 -82z" />
<glyph unicode="f" horiz-adv-x="1026" d="M37 223q37 75 148 169t196 136q-6 111 -6 226q0 236 43 364q28 81 63.5 136.5t72 80t68.5 32.5q20 5 39 5l25 -2h-2q118 -20 219 -180h-2q46 -69 60 -111v2l6 -26q2 -12 2 -23q0 -23 -7 -41q-11 -27 -30.5 -39.5t-37.5 -17.5t-32 -4q-45 0 -74 32q-20 21 -20 52 q0 14 4 30q1 3 1 8q0 18 -13 60v-2q-49 130 -92 135h-6q-38 0 -70 -49q-35 -54 -55 -119q-37 -115 -37 -321q0 -111 6 -189q36 4 65 4q184 0 379 -137q21 -15 26 -38q2 -7 2 -13q0 -16 -9 -31q-18 -24 -43 -30t-47 10h2q-169 114 -314 114q-33 0 -53 -4q25 -263 83 -592 t100 -519t48 -205q5 -22 -10.5 -42.5t-42.5 -27.5h-10q-52 0 -64 45h3q-11 44 -23 96t-45 205t-59.5 295.5t-56 334.5t-44.5 355q-58 -47 -114.5 -119t-61.5 -104q-8 -52 -41 -70q-20 -12 -46 -12q-14 0 -30 4q-33 7 -60 43q-14 19 -14 45q0 22 11 49z" />
<glyph unicode="g" horiz-adv-x="669" d="M8 313q0 126 40 261t99 206q36 38 86 62q40 19 74 19q9 0 17 -1q41 -5 96 -35v31q8 38 34 64q22 23 61 23q7 0 15 -1q44 -4 58 -48q10 -31 10 -55q0 -12 -2 -22q-3 -13 -18 -43q2 -65 18.5 -297t28.5 -319q2 -13 9.5 -76t9.5 -80t7.5 -65.5t7 -72t3.5 -58t2 -62.5 q0 -44 -7 -102q-17 -116 -75.5 -190t-165.5 -114q-34 -12 -84 -12q-88 0 -170 43q-99 57 -127 162q-4 23 11 45.5t38 28.5q27 4 48 -10t26 -39q9 -44 65 -76q38 -21 79 -28q15 -2 29 -2q23 0 42 7q91 33 127.5 99t36.5 188q0 141 -39 397q-2 17 -7.5 53.5t-13.5 102.5 q-92 -220 -227 -281l2 2q-43 -16 -70 -16q-73 0 -116 66v-2q-58 82 -58 247zM133 309q0 -123 33 -170q6 -9 17 -9q6 0 14 3q50 22 92.5 78t67 117t41.5 123.5t23.5 98.5t6.5 42q0 16 2 22q-70 101 -119 115h-12q-28 0 -61 -33q-47 -49 -76 -161.5t-29 -225.5z" />
<glyph unicode="h" horiz-adv-x="694" d="M43 1680v7q1 19 5 39q6 24 27 42t56 24q9 2 18 2q21 0 37 -12q22 -16 28.5 -44t8 -48t0.5 -35q-2 -18 -11.5 -175t-19.5 -424t-10 -476q0 -36 -0.5 -89.5t-0.5 -77.5t1 -58.5t3.5 -61.5t7.5 -57q124 214 237 487q10 22 31.5 41t50.5 16q31 -1 49.5 -29t18.5 -51l-1 -7 q-1 -7 -2 -20t-2.5 -29.5t-2.5 -39t-1 -45.5q0 -293 111 -463q8 -15 8 -29q0 -9 -4 -19q-8 -24 -29 -38q-25 -13 -48.5 -7t-35.5 28q-91 146 -127 415q-39 -83 -78 -156t-67 -119t-50 -79.5t-35 -50.5t-13 -18q-20 -23 -49 -23q-53 0 -64 49q-37 175 -37 746q0 268 2 389 q4 218 4 284q0 154 -8 174q-7 16 -8 38z" />
<glyph unicode="i" d="M57 748q0 18 6.5 43t30.5 51q20 21 49 21q6 0 11 -1q39 -6 60.5 -36.5t21.5 -71.5t-13 -62q-2 -3 -5 -37.5t-5 -98.5t-2 -134q0 -228 25 -424v2q6 -28 -10 -48t-48 -26q-26 0 -44 15.5t-21 40.5q-20 148 -34 339.5t-18 294.5t-4 132zM76 1085q3 44 37 78h-2q26 23 58 23 h7q48 -7 68 -51l-2 2q14 -25 14 -64q-3 -51 -37 -82q-21 -19 -52 -19q-6 0 -11 1q-36 3 -60 36q-20 28 -21 64q0 6 1 12z" />
<glyph unicode="j" horiz-adv-x="208" d="M-406 -463q-2 8 -2 15q0 18 11 33q15 21 41 26q26 6 46.5 -8t28.5 -41q10 -48 64 -76q47 -27 106 -27q27 0 45 6q89 32 126.5 98.5t37.5 186.5q0 115 -39 400q-80 606 -80 701q0 9 1 13q18 87 95 87q7 0 15 -1q32 -5 49.5 -32t17.5 -52.5t-1 -40.5q-1 -9 -15 -41 q0 -29 15.5 -278.5t25.5 -341.5q41 -289 41 -414q0 -56 -6 -102q-30 -218 -242 -301q-37 -15 -81 -15q-85 0 -170 45q-112 61 -130 160zM-18 1085q3 46 32 78q27 24 56 24q6 0 12 -1q50 -8 68 -51l-3 2q13 -23 13 -54v-12q-3 -48 -35 -80q-22 -20 -49 -20q-7 0 -15 2 q-38 1 -61 34q-19 27 -19 62q0 8 1 16z" />
<glyph unicode="k" horiz-adv-x="843" d="M-12 432q-1 5 -1 10q-1 16 7 30q10 18 24 24l29 10q36 18 41 20v289q0 63 1 181.5t1 172.5q0 403 -12 433l2 -3q-8 16 -10 37.5t3 45t26.5 42.5t56.5 25q9 2 17 2q21 0 37 -11q22 -15 29 -41t9.5 -46t1.5 -35q0 -1 -0.5 -20t-1.5 -58t-2 -80q-20 -700 -23 -876 q311 140 402 209q39 34 80 34q41 -1 61 -37q14 -25 15 -49q0 -10 -3 -20q-4 -13 -11.5 -27t-20.5 -31t-34 -27t-46 -9h-1q-35 0 -419 -172l-17 -9q288 -115 545 -337q19 -17 19 -44.5t-17 -50.5q-16 -16 -43 -16q-29 0 -43 18h2q-212 183 -475 299q-2 -152 -2 -303 q0 -18 -17 -37q-15 -16 -40 -16h-8q-21 1 -36.5 16.5t-17.5 36.5q-8 112 -8 353l-51 12q-43 12 -49 55z" />
<glyph unicode="l" horiz-adv-x="206" d="M-6 1665q-1 7 0 12q0 12 3 20q5 12 14.5 26.5t31.5 22.5t53 9h4q26 1 46 -13q22 -14 31 -36.5t13 -40.5t3 -29q0 -10 -3 -51q-28 -588 -28 -1022q0 -469 39 -616q2 -8 2 -16q1 -17 -7 -31q-10 -21 -36 -27q-8 -4 -21 -4q-51 0 -63 45q-22 91 -36.5 267t-20.5 428.5 t-8 395.5t-3 381q0 183 -2 220v4q-5 17 -7.5 26t-4.5 29z" />
<glyph unicode="m" horiz-adv-x="1015" d="M2 878q2 30 19 54t42 39q26 12 50 12q30 0 57 -18q24 -16 36.5 -44t12.5 -53q1 -12 0 -26q0 -48 -8 -105v4q-4 -114 -4 -213q0 -172 10 -262q27 76 50.5 199t31.5 199l4 24q7 42 37 68q27 23 58 22h8q37 -4 57 -29t19.5 -51t-1.5 -43q-18 -126 -18 -203q0 -23 2 -42 q11 -202 47 -271q15 22 55 111q44 100 99 266l-2 -2q1 4 3 7t3 7l30 90q11 37 17 54t17 48t19.5 46.5t20.5 34t25 27.5t28 10q11 1 20 1q27 0 45 -10q25 -14 31 -36t8.5 -44t-1.5 -34v-4q-3 -14 -9 -54t-13 -122t-7 -162q0 -244 60 -424q3 -10 3 -20q0 -15 -6 -27 q-10 -22 -32 -31q-12 -6 -25 -6q-19 0 -36 11.5t-23 31.5q-80 230 -94 459q-61 -168 -109 -256t-100 -107q-17 -5 -32 -5q-24 0 -44 13q-83 53 -113 273q-59 -163 -102 -217q-22 -29 -55 -23q-34 0 -50 29q-39 68 -63.5 267t-34.5 404q-6 53 -20 76q-23 25 -23 51v6z" />
<glyph unicode="n" horiz-adv-x="794" d="M33 610q0 154 16 234q24 86 103 86q35 0 54 -27.5t19 -66.5q0 -60 -35 -95q-1 -1 -5.5 -32.5t-8.5 -92t-4 -120.5q0 -126 31 -228q175 301 270 506q9 27 36 49q22 18 49 18q6 0 13 -1q28 -5 43.5 -29t15.5 -47t-1 -37v2q-2 -10 -6.5 -47t-9.5 -109.5t-5 -138.5 q0 -313 99 -366q23 -12 31 -36q4 -10 4 -21q0 -14 -7 -27l2 2q-15 -37 -57 -37q-18 0 -27 6l2 -2q-144 60 -174 461q-2 18 -3 30t-1.5 13.5t-1 6.5t-0.5 10v24q-165 -308 -217 -383v-2q-19 -31 -51 -35q-6 -1 -11 -1q-27 0 -49 25q-114 162 -114 508z" />
<glyph unicode="o" horiz-adv-x="686" d="M16 381q0 51 10 104t24.5 93.5t32.5 79t32.5 62t26.5 42.5l12 18q26 40 68 52q13 4 26 3q28 0 53 -18q40 4 55 4q88 0 153 -35t101 -98q31 -64 31 -135q0 -89 -38 -188t-87 -177q-122 -184 -260 -184q-53 0 -97 30t-69 70q-74 139 -74 277zM152 373q0 -108 55 -207 q21 -31 49 -31q67 0 152 125h-2q45 70 74.5 149t29.5 144q0 47 -16 74q-17 33 -58.5 53t-74.5 25q-21 3 -28 3q-5 0 -5 -1q-12 -29 -19 -37q-33 -48 -80 -54q-77 -113 -77 -243z" />
<glyph unicode="p" horiz-adv-x="714" d="M17 174q0 17 5 40q6 24 28 49.5t59 45.5q12 6 18 6l-2 60q-9 126 -16.5 204.5t-28.5 192.5t-49 158q-15 30 -15 57q0 16 5 31q14 39 53 61q12 6 32 9q8 1 18 1q12 0 25 -1q24 -4 46 -23.5t34 -54.5q5 -16 9 -49q30 12 84 12q87 0 172 -62q91 -67 135.5 -180t44.5 -244 q0 -107 -37 -237q-44 -132 -130.5 -209.5t-189.5 -77.5h-16q49 -666 49 -926q0 -14 -1 -38t-1 -33q0 -25 -19 -43.5t-46 -18.5q-26 3 -43 21.5t-17 44.5q0 8 1 30t1 35q0 298 -65 967q-53 27 -92 63t-48 74h3q-6 17 -6 35zM141 172l2 -2v6zM240 756q2 -30 8 -92.5t8 -92.5 q6 -93 20 -253t19 -230h22q63 0 116.5 53.5t84.5 149.5q27 89 27 172q0 103 -35.5 193t-106.5 143q-49 38 -86 38q-7 0 -14 -1q-27 -14 -63 -80z" />
<glyph unicode="q" horiz-adv-x="864" d="M61 283q0 92 34 186.5t100 167.5q155 172 356 172q48 0 88 -10l23 -11q1 12 5.5 26.5t15 32t31.5 27.5q18 9 41 9h9q37 -3 60 -37q19 -28 19 -63q0 -7 -1 -15q-3 -32 -23 -66q-6 -6 -33.5 -247.5t-54 -552t-26.5 -459.5q0 -50 2 -70v2q12 -117 34 -215.5t38 -137.5 l16 -40q11 -25 1.5 -49.5t-34.5 -34.5l2 2q-12 -8 -27 -8q-37 0 -59 39q-67 167 -105 430v-2q-8 44 -8 145q0 213 39 689q-82 -86 -158 -140q-38 -24 -94 -38.5t-90 -14.5q-77 0 -135 63q-66 78 -66 220zM186 276q0 -90 35 -131q15 -18 53 -18q53 0 103 31v2 q117 79 177 164.5t77 156.5l8 62l8 78q-7 -1 -14 -1q-55 0 -103 37q-2 2 -10 2q-11 0 -33 -3q-39 -5 -99.5 -30.5t-100.5 -70.5q-49 -56 -75 -132t-26 -147z" />
<glyph unicode="r" horiz-adv-x="712" d="M22 776q8 34 44 55q16 9 36 13q7 2 16 1q14 0 32 -5q28 -8 45 -37q20 -34 24 -55l-4 8q0 -9 2 -17q50 47 115 64q46 14 88 14q55 0 111.5 -19.5t82 -35t31.5 -21.5l-4 2q21 -15 25 -41q1 -5 1 -10q0 -19 -12 -35q-14 -18 -42 -21t-46 7l-5 3q-5 4 -12 8t-17 9t-23 10 t-26.5 9.5t-30.5 7t-33 2.5q-29 0 -53 -6q-56 -21 -134 -137q13 -240 13 -406v-69q0 -26 -18.5 -45t-43.5 -19q-26 0 -44.5 19t-18.5 45v27q0 232 -64 579l-12 22q-25 31 -25 59q0 8 2 15z" />
<glyph unicode="s" horiz-adv-x="768" d="M26 172q-4 10 -3 21q0 14 6 28q10 25 34 34t48 -1q195 -94 282 -117q-4 6 -49 58q-244 256 -244 442q0 127 113 240q49 45 113 67q47 16 94 16q18 0 35 -2q73 -12 163 -70t105 -83q17 -32 17 -55q0 -20 -12 -38q-14 -18 -26.5 -27.5t-23.5 -14.5q-23 -8 -51 -4 q-27 2 -45.5 19t-22.5 48q-2 6 -17 23.5t-45 38t-61 24.5q-14 1 -26 1q-72 0 -111 -34h2q-76 -76 -76 -149q0 -136 209 -356q81 -87 104 -143q10 -24 10 -45q0 -29 -18 -52v2q-23 -39 -77 -39h-6q-24 0 -85 12q-157 54 -303 123q-25 9 -33 33z" />
<glyph unicode="t" horiz-adv-x="704" d="M-17 646q6 42 42 73q29 16 99.5 44.5t145.5 47.5q11 422 35 754q2 24 3.5 47.5t2 31.5t0.5 9q-10 18 -10 57q4 43 31.5 71.5t62.5 28.5q36 0 63 -34q24 -29 24 -70q0 -6 -1 -12q-3 -21 -12.5 -127t-26 -320t-26.5 -411q29 4 92 4q78 0 145 -15h-2q23 -6 37 -29 q11 -18 11 -37q0 -5 -1 -11q-9 -27 -29.5 -40t-47.5 -8q-53 15 -99 15q-56 0 -114 -15q-11 -233 -11 -383q0 -223 23 -329q4 -23 -11 -45.5t-38 -28.5l2 2q-8 -2 -15 -2q-23 0 -40.5 13.5t-22.5 33.5q-29 154 -29 518v178q-86 -37 -116 -67q-22 -24 -68 -32q-11 -2 -21 -3 q-32 0 -57 20q-22 23 -22 56q0 7 1 15z" />
<glyph unicode="u" horiz-adv-x="653" d="M47 377q0 8 1 27t1 28l8 170l9 111q-11 21 -11 44q-1 31 19 67q33 60 76 59h4q81 -7 81 -92q0 -14 -2 -29q0 -3 -1.5 -12l-4 -24t-4.5 -26q-47 -192 -49 -274q-1 -33 -1 -63q0 -217 77 -236h-2q15 -3 29 -3q46 0 85 30q40 31 66.5 80t34.5 85q-5 74 -8.5 161t-4 130.5 t0.5 59.5t5.5 32.5t14.5 36.5t30.5 30.5t49.5 6.5q42 -7 62 -38.5t19 -71.5q0 -24 -8.5 -45.5t-21.5 -30.5q-6 -6 -6 -268q0 -200 25 -232v2q14 -15 14 -37q-1 -5 -1 -11q-4 -29 -26 -44q-15 -12 -37 -12q-30 0 -45 18q-26 37 -37 94q-39 -39 -49 -47q-70 -55 -159 -55 q-33 0 -60 6q-174 41 -174 373z" />
<glyph unicode="v" horiz-adv-x="749" d="M10 758q0 52 58 96q18 14 35.5 15.5t31.5 -7t25.5 -21t20.5 -27t15 -24.5l3 -6v-2q2 -3 39.5 -95t92.5 -229t93 -237q47 236 102 537q17 77 17 82q16 84 102 86h2q32 0 53 -25.5t21 -62.5q0 -59 -41 -105q-12 -35 -78 -320.5t-96 -439.5q-11 -49 -62 -49q-34 0 -61 45 q-34 107 -162.5 390.5t-146.5 306.5q-29 15 -46.5 40t-17.5 52z" />
<glyph unicode="w" horiz-adv-x="1019" d="M23 811q0 54 57 70q11 3 23 3q25 0 52 -14q40 -21 54 -47q35 -62 35 -233q0 -94 -2 -135q-2 -43 -2 -109q0 -73 11 -129t22 -79t22 -32q18 18 63 140q37 96 64 205q-28 90 -28 139q0 21 5 35q23 59 80 59q45 0 74 -42q20 -29 20 -73q0 -19 -4 -41l-10 -49l-4 -24 q5 -11 10 -29l6 -18q66 -146 109 -160l18 39q41 96 62.5 204.5t21.5 190.5q-48 2 -86 31t-52 75q-7 23 -7 44q0 23 8 45v-3q10 39 38.5 62t64.5 25h9q54 0 95 -58v2q24 -34 33 -63q19 5 38 -3.5t29 -25.5q10 -15 10 -32q0 -7 -2 -15q-6 -26 -30 -39q-1 0 -9 -5.5t-12 -6.5 v-49q0 -221 -96 -433q-22 -44 -48 -70.5t-51.5 -33.5t-45.5 -5.5t-39 9.5q-62 25 -129 137l-25 -67q-81 -224 -186 -224q-7 0 -13 1q-35 4 -71 50t-63.5 129.5t-32.5 180.5q-16 346 -39 369v-2q-47 54 -47 104z" />
<glyph unicode="x" horiz-adv-x="815" d="M4 710q-3 12 -3 23q0 28 17 49q25 29 55 34.5t51 -3.5t40 -25h-2q33 -25 114 -124q76 92 164 143q90 49 181 49q78 0 122 -35h2q35 -27 43 -63q3 -11 3 -21q0 -23 -13 -43q-30 -38 -72 -38q-32 0 -71 22q-36 18 -78 18q-32 0 -59 -12q-72 -38 -142 -121 q149 -194 252 -397q11 -23 4 -46.5t-30 -35.5q-16 -8 -29 -8q-40 0 -55 35q-93 179 -222 333q-3 -6 -13 -22t-13 -25q-51 -99 -76 -197q-18 -72 -19 -126q0 -19 3 -37q3 -24 -12.5 -45t-45.5 -27q-27 0 -44.5 14t-22.5 37q-3 23 -3 48q0 90 34 204q44 146 122 271 q-87 81 -135 106q-37 23 -47 65z" />
<glyph unicode="y" horiz-adv-x="602" d="M-10 680q0 20 1 46t1 32v10q-6 21 -6 40q0 36 20 69q28 43 72 43q9 0 18 -2h-2q34 -5 53 -30.5t19.5 -50t-0.5 -40.5q-12 -49 -25 -62q-1 -1 -3 -24.5t-3.5 -69.5t-1.5 -96q0 -295 88 -381q11 -13 37 -6q48 15 90.5 110.5t68.5 210t42 240.5l8 86q3 26 22 43t46 14 q25 -3 42 -22.5t17 -42.5l-4 -15q0 -19 -2 -37q0 -4 -1 -12t-1 -12q-12 -126 -19 -363q-2 -43 -2 -151q0 -342 19 -657.5t55 -323.5v-2q28 -9 41 -30q8 -15 8 -32q0 -8 -2 -16q-6 -23 -26 -36q-16 -10 -37 -10q-6 0 -13 1h2q-36 5 -63 54t-43.5 132t-28 181.5t-16.5 217 t-7.5 223t-4.5 214.5v18v47q-71 -126 -156 -149q-29 -8 -56 -8q-55 0 -98 35q-46 39 -78 116.5t-46 172t-19.5 171.5t-5.5 154z" />
<glyph unicode="z" horiz-adv-x="841" d="M16 552q-6 12 -6 27q0 19 10 42q30 53 118 120q87 66 167 66h2q88 -1 156.5 -59t105.5 -144q92 -4 140 -20q24 -9 36 -29.5t3 -44.5l2 2q-6 -22 -27 -35.5t-45 -7.5q-43 12 -72 16q5 -27 5 -64q0 -16 -1 -34q33 -13 78.5 -38t74 -42.5t30.5 -19.5h-2q17 -17 19 -45v-6 q0 -23 -13 -41q-18 -18 -43 -19t-49 19q-58 39 -121 65q-13 -34 -45 -74q-66 -84 -165 -132t-184 -48q-141 0 -141 98q0 45 34 100.5t81 92.5q139 112 295 112q14 0 28 -1q0 32 -6 67l-39 -12q-23 -18 -30 -23q-13 -5 -31 -7.5t-44.5 5.5t-39.5 33q-3 12 -3 23q0 46 50 77 q27 14 88 23q-49 85 -127 88q-35 0 -75 -38t-40 -77q0 -46 -36 -66q-22 -12 -43 -12q-14 0 -29 5l2 -2q-17 3 -36 17.5t-32 42.5zM170 133q11 -2 23 -2q46 0 111 28q82 35 136 103l15 23q-100 -3 -209 -84q-3 -3 -15.5 -12.5t-22 -17t-20 -16.5t-15.5 -15q-4 -4 -4 -6z" />
<glyph unicode="{" horiz-adv-x="548" d="M16 872q0 27 16 44t40 20q42 4 85.5 16.5t55.5 30.5v-2q8 16 8 80q0 126 -39 360q-16 103 -43 241.5t-28 147.5l-2 13q-13 44 24 67q29 18 111.5 -2t120.5 -43q44 -26 55.5 -60.5t-12.5 -68.5h2q-24 -41 -76 -41q-35 0 -72 21q42 -223 47 -254q41 -243 41 -379 q0 -105 -41 -166q-8 -11 -65 -45q136 -136 141 -461q2 -212 41 -272q34 14 68 -10q21 -21 22.5 -47.5t-18.5 -45.5v2q-28 -36 -76 -36l-25 4q-66 26 -102.5 132t-38.5 273q-1 111 -20 195t-43 124.5t-54 65t-44.5 29t-22.5 4.5q-24 3 -40 20t-16 43z" />
<glyph unicode="|" horiz-adv-x="362" d="M47 420q0 465 8 1149q4 432 2 438q-6 47 21 79t63 32q42 0 61 -37t17 -68q-1 -5 -2.5 -14.5t-2.5 -15t-4 -12.5t-7 -13q-1 -22 -7.5 -331t-13 -730.5t-6.5 -654.5q0 -191 4 -222q4 -45 13 -88q14 14 40.5 13.5t53.5 -17.5q30 -39 -2 -86q-43 -54 -84 -63h4q-21 -10 -55 0 q-40 12 -63.5 64.5t-33.5 160.5q-6 74 -6 416z" />
<glyph unicode="}" horiz-adv-x="684" d="M15.5 1733q4.5 28 19.5 51q35 37 102 66.5t115 11.5q74 -28 67 -156q0 -6 1.5 -21t1.5 -24q11 -207 18 -285q26 -187 57 -213q12 0 31 16t43.5 62t34.5 111q11 57 65 57q24 0 42.5 -18t19.5 -45q16 -212 16 -515v-83q-3 -206 -18 -350.5t-39.5 -218t-47 -106.5t-50.5 -48 h2q-30 -17 -84 -17q-114 0 -199 68l-2 2q-17 19 -18 44.5t14 45.5q15 19 44.5 19t55.5 -19q0 -2 21 -14.5t49.5 -20.5t56.5 2q8 5 15.5 17.5t20.5 53.5t23 102.5t18.5 176.5t10.5 263v86q0 180 -4 272q-31 -27 -76 -53q-50 -24 -106 -2q-28 12 -50.5 50t-37 100.5 t-24.5 118.5t-16.5 138t-9 123.5t-5.5 108.5q0 28 2 36l-50 -47q-11 -15 -33.5 -25.5t-49 -6t-39.5 29.5v-2q-12 30 -7.5 58z" />
<glyph unicode="~" horiz-adv-x="1820" d="M16 633q-8 26 7 51v-2q113 224 313 270q69 15 117 15q267 0 643 -262q153 -107 313 -107q118 0 182 55q49 41 49 97q0 33 -14 65q-12 22 -2.5 49t33.5 37l-2 -2q22 10 47 1t37 -30q30 -56 30 -122q0 -117 -94 -193v2q-109 -88 -266 -88h-2q-210 9 -387 133h2 q-340 236 -567 236q-45 0 -88 -11q-149 -39 -232 -204q-12 -22 -37 -30t-49 5q-25 9 -33 35z" />
<glyph unicode="&#xa1;" horiz-adv-x="247" d="M20 150q3 12 3 139q0 601 28 956q3 26 25 44.5t53 15.5q21 -4 36 -25t15 -45q-24 -300 -24 -578q0 -137 5 -251.5t9.5 -163.5t7.5 -52v5q8 -11 15.5 -33t6.5 -56t-20 -59q-11 -16 -33 -27t-51.5 -6t-52.5 33q-34 47 -23 103zM72 1755q-5 40 13 71.5t48 35.5 q31 5 58.5 -18t31.5 -60l-2 4q1 -14 2 -35.5t-15 -44t-46 -27.5q-28 -5 -49 10t-29 31t-12 33z" />
<glyph unicode="&#xa2;" horiz-adv-x="1069" d="M16 825q12 260 120 439t298 252q21 99 46 184.5t37.5 117t17.5 42.5q23 42 61 56.5t72 -5.5q41 -25 41 -76q0 -67 -60 -109q-12 -4 -67 -167q27 4 80 8q205 12 294 -109q76 -94 76 -264q0 -50 -6 -88q-2 -11 -5 -22t-12 -31t-28 -32.5t-45 -12.5q-25 0 -42.5 11 t-25.5 28.5t-10.5 33t-1.5 31.5q0 20 14 53q7 21 7 80q0 95 -27 131v-2q-60 75 -180 66q-68 -6 -123 -21q-80 -446 -80 -1022q0 -120 2 -194q65 -21 127 -21q62 3 104 18.5t54 39.5q10 20 -9 49q-19 14 -28 14q-2 0 -8 -1t-9 -1h-10q-23 0 -40 12t-23 35q-3 6 0 19.5 t8.5 27.5t26.5 24.5t53 10.5q80 0 131 -63q39 -48 39 -109q0 -36 -15 -70q-8 -21 -24 -40.5t-46.5 -41t-83 -35.5t-120.5 -16q-61 0 -123 13q4 -104 8 -158q0 -21 -16.5 -41.5t-40.5 -24.5q-25 -3 -47 16t-25 42q0 4 -1 13t-1 13q-4 62 -8 191q-69 37 -117 88 q-105 108 -160.5 271.5t-48.5 346.5zM145 819q-7 -158 38.5 -295t133.5 -225q4 -4 11 -12t10 -11v125q0 536 68 957q-121 -74 -188 -211.5t-73 -327.5z" />
<glyph unicode="&#xa3;" horiz-adv-x="1273" d="M16 186q8 24 28 39t38 11q37 -13 82 -13q81 0 131 45q92 80 92 299q0 40 -5 92.5t-10 85.5l-5 33q-149 -17 -197 -41q-14 -35 -53 -35q-34 0 -51 25t-13 47q10 52 80.5 83t210.5 46q-76 419 -76 582q0 190 88 264v-2q56 53 166 53q128 0 330 -74q165 -61 235.5 -116 t67.5 -123q-1 -32 -27 -62.5t-68 -53.5t-74 -36.5t-66 -25.5h2q-4 -3 -8.5 -5t-7 -2t-3.5 1q-14 -11 -37 -20t-57 -8t-61 21q-9 8 -17 20t-14.5 31t3 41t36.5 42h-2q16 14 44 21t72 -3q150 34 158 51q-23 35 -219 107q-195 69 -287 69q-57 0 -82 -22q-45 -39 -45 -168 q0 -61 12.5 -161t24.5 -170t41 -239q91 3 201 3h96q27 0 44 -19.5t17 -46.5q0 -25 -18.5 -44.5t-44.5 -19.5h-96h-178q20 -120 20 -231q0 -245 -119 -364q100 -7 187 -7q153 0 315 23q171 19 211 53q-14 14 -33 25h2q-22 9 -29 34.5t5 47.5q10 25 37 33t51 -5h2 q105 -70 94 -155q-12 -78 -166 -128.5t-489 -54.5q-282 -4 -529 56l10 -4q-25 6 -39 28t-8 47z" />
<glyph unicode="&#xa4;" horiz-adv-x="919" d="M4 1124q-7 19 2.5 44t24.5 38q18 12 40 12.5t40 -12.5h-2q2 -2 21.5 -18.5t54.5 -47.5t69 -63q22 42 51 80q32 34 72.5 45t77.5 -12q20 2 55 2q75 0 135 -25q27 28 44.5 43.5t48.5 35t59 16.5t53 -29v2q24 -22 24 -82q0 -53 -12 -74v2q-12 -23 -37.5 -31t-48.5 5 q-8 4 -10 8q37 -67 37 -150q0 -126 -86 -290q122 -128 170 -217q13 -22 7.5 -48t-26.5 -41q-21 -16 -40 -13t-31 13t-19 23q-32 65 -131 172q-109 -152 -237 -152q-77 0 -131 54q-16 -53 -13 -72q3 -31 -11.5 -54t-45.5 -26q-24 -3 -44 12t-26 39q-16 85 62 242 q-37 93 -37 190q0 108 37 209q-36 28 -47 41q0 -33 -27 -41q-30 -11 -56 7t-36 47zM301 731q0 -100 37 -171t80 -62q36 6 65 33.5t78 93.5q34 45 69.5 136.5t35.5 166.5q0 37 -15 67q-21 32 -63 52.5t-73.5 26.5t-31.5 3q-5 -13 -13 -28t-32.5 -37.5t-52.5 -26.5 q-84 -116 -84 -254z" />
<glyph unicode="&#xa5;" horiz-adv-x="1150" d="M4.5 1628q-1.5 22 10 44t36.5 34q40 22 81 -6.5t54 -73.5l2 -8l5 -23q10 -61 22 -123.5t35.5 -152.5t49.5 -159t64.5 -124t79.5 -65q44 -12 114 20t134 99q83 88 143 166.5t88.5 126.5t45 90.5t18.5 57.5t2 28q0 59 43 75q27 9 47.5 -4t27.5 -30l7 -17l-2 2q2 -9 2.5 -23 t-4 -42.5t-15 -62t-34.5 -82t-58.5 -102t-90 -124t-126.5 -145.5q-103 -103 -213 -142q0 -43 -24 -67q-6 -9 -6 -181q98 -3 212 -10.5t138 -11.5q25 -3 40.5 -23.5t12.5 -46.5t-22.5 -43.5t-42.5 -15.5h-13q-166 19 -325 24v-24q97 -3 211 -11t139 -12q26 -3 41 -22t12 -47 q-3 -27 -23.5 -44.5t-45.5 -15.5h-9q-179 20 -321 25q4 -224 12 -350q0 -24 -16.5 -42.5t-42.5 -19.5q-29 -3 -48.5 15t-19.5 45q-10 153 -20 352q-164 -3 -217 -8q-32 -12 -56 -6l4 -3q-73 10 -73 78q0 59 69 72q-69 13 -69 80q0 39 30 56.5t62 17.5q1 0 19 -1t30 -1 q27 -1 89.5 -1.5t100.5 -1.5q-10 182 -10 230q-37 13 -72 45t-61 69.5t-51.5 93.5t-42 99.5t-35 106.5t-27 96t-20.5 84q-16 66 -19 69q-25 15 -47 58q-4 7 -7 22t-4.5 37zM168 471q6 0 21 -1t24 -1l193 -4v22q-166 -4 -211 -8q-5 -3 -27 -8z" />
<glyph unicode="&#xa6;" horiz-adv-x="186" d="M-6 692q10 62 65 78h9q33 0 52.5 -19.5t23.5 -39t3 -37.5q-2 -12 -2 -363q0 -130 -14 -336q-2 -16 -2 -28q-3 -25 -23 -43t-47 -15t-43.5 24.5t-13.5 51.5q14 259 14 346q0 116 -12 326q-14 24 -10 55zM-6 1700q4 32 21 51t30 23t23 4q33 0 52.5 -20t23.5 -39.5t3 -37.5 q-2 -12 -2 -364q0 -123 -14 -336q-2 -14 -2 -27q-3 -22 -23.5 -41t-46.5 -16q-27 3 -43.5 24.5t-13.5 51.5q14 259 14 344q0 118 -12 328q-14 24 -10 55z" />
<glyph unicode="&#xa7;" horiz-adv-x="811" d="M27 150q41 69 174 77q26 0 44 -16t21 -41q0 -26 -18 -49q-19 -19 -45 -19q-33 0 -60 -10q42 -50 120.5 -82.5t148.5 -32.5q5 0 20 3q70 6 80 30q12 38 -88 150q-175 186 -247.5 349t-63.5 273q16 162 143 260q37 27 90 43q-105 175 -92 330q16 156 133 244q62 47 127 47 q38 0 94 -27q50 -29 88 -88.5t56 -120.5t26 -109.5t4 -66.5q-14 -72 -84 -75q-43 0 -63 45q-22 48 6 94q0 24 -6.5 60t-30 85t-59.5 70q-43 24 -84 -12q-76 -58 -86 -152q-9 -161 164 -383q139 -185 139 -346q0 -41 -14 -66q-8 -19 -23 -34v2q-44 -50 -123 -50q-35 0 -69 11 l2 -2q-105 21 -201 110q50 -184 264 -407q158 -161 115 -277q-19 -51 -79 -81.5t-138 -30.5q-110 0 -219 48t-160 132q-36 58 -6 115zM131 84l2 2v2zM260 854q0 -36 51 -90q95 -109 199 -109q1 0 1 -1t1 -1q2 0 2 2q0 38 16 64q-18 181 -106 235q-45 29 -94 -12 q-48 -34 -70 -88z" />
<glyph unicode="&#xa8;" horiz-adv-x="401" d="M8.5 1385.5q2.5 18.5 9.5 35.5q19 39 51.5 54.5t65.5 -0.5l-2 2q40 -14 43 -68l6 12q19 39 51.5 54.5t65.5 -0.5l-2 2q26 -10 38 -42t-3 -79q-10 -25 -45 -49t-72 -4q-39 19 -43 61q-4 -4 -4 -8q-10 -25 -44 -49t-71 -4q-27 14 -37 39t-7.5 43.5z" />
<glyph unicode="&#xa9;" horiz-adv-x="1431" d="M4 780q0 172 64 348q32 85 78.5 168.5t115 168.5t146.5 148t178.5 101t206.5 33q107 -3 197.5 -35t154 -81.5t112 -116t75.5 -135.5t40 -144v-2q12 -73 12 -176q0 -92 -13 -182.5t-47 -194t-86.5 -194t-138 -177.5t-194.5 -149q-145 -80 -299 -80q-138 -1 -252.5 55 t-190.5 152t-117.5 223.5t-41.5 269.5zM137 784q0 -114 28.5 -214.5t84.5 -181t147.5 -128.5t208.5 -51q116 -4 222 47.5t183.5 140.5t135 202t86.5 234t29 234q0 67 -17 143q-20 67 -59.5 134t-96.5 126.5t-135.5 100.5t-165.5 49q-105 -2 -207.5 -56.5t-179 -137 t-131.5 -170.5t-84 -169q-49 -146 -49 -303zM418 788q-6 146 59 261v-2q52 95 150 122q54 7 96 0.5t72 -20.5q25 -3 51.5 -22.5t36.5 -43.5q4 -18 3 -41.5t-21.5 -44t-55.5 -20.5q-41 0 -78 29q-12 12 -39.5 24.5t-50.5 3.5h2q-43 -20 -73.5 -85.5t-26.5 -153.5 q2 -31 6 -57.5t12.5 -56.5t25.5 -47t40 -16q46 1 102 37t88 70v2q8 8 20 13.5t31.5 3.5t36.5 -17q19 -19 19 -45t-19 -43q-53 -51 -129.5 -97t-148.5 -46q-194 0 -209 292z" />
<glyph unicode="&#xaa;" horiz-adv-x="720" d="M25 1020q0 118 116 237q76 76 172 76q132 0 267 -135q-20 277 -166 336q-36 16 -60 16h-6v-2q27 -30 27 -71q0 -30 -14 -60t-31 -45q-25 -17 -47.5 -19t-38 8.5t-26 22.5t-15.5 25q-21 35 -3 116.5t60 119.5q46 34 94 34q52 0 111 -26q73 -31 124 -93.5t75.5 -144 t34.5 -156t10 -155.5q0 -85 -13 -189q-6 -23 -27 -38.5t-46 -12.5q-24 5 -39.5 23.5t-14.5 44.5q-56 -15 -190 -64q-76 -32 -154 -32q-64 0 -107.5 26t-64.5 60h2q-30 44 -30 98zM157.5 1058.5q-17.5 -49.5 2.5 -69.5v2q16 -26 67 -26q44 0 105 22h2q102 41 201 70 q-120 147 -220 147q-45 0 -84 -39q-56 -57 -73.5 -106.5z" />
<glyph unicode="&#xab;" horiz-adv-x="1282" d="M-4 383q-7 65 186 317q172 226 264 306q79 63 134 63q33 0 54.5 -16.5t27.5 -34.5q2 -18 2.5 -40t-20.5 -44.5t-60 -28.5q-30 -4 -49 2q-14 -13 -30.5 -27.5t-63 -63.5t-90.5 -101.5t-104 -136.5t-112 -172q77 -49 268 -132q272 -112 381 -141l2 -2q25 -7 38 -23.5 t10 -35.5q-9 -31 -31 -51.5t-53 -12.5q-130 33 -416 158q-93 40 -159 73t-99.5 54t-52.5 40.5t-22.5 28.5t-4.5 21zM397 383q-6 64 187 317q180 232 266 306q79 63 133 63q33 0 53.5 -16.5t26.5 -34.5q2 -18 2.5 -40t-19.5 -44.5t-59 -28.5q-31 -4 -49 2q-10 -7 -31 -26.5 t-64.5 -65.5t-89.5 -100.5t-105 -137t-111 -171.5q86 -52 270 -132q277 -114 381 -141l2 -2q24 -7 37 -23.5t10 -35.5q-9 -31 -31.5 -51.5t-54.5 -12.5q-121 31 -416 158q-93 40 -159 73t-99.5 54t-52.5 40.5t-22.5 28.5t-4.5 21z" />
<glyph unicode="&#xac;" horiz-adv-x="997" d="M1 897q7 19 27.5 30.5t29.5 15.5t26 9q16 4 457 4q277 0 321 -8q56 -13 78 -55q33 -53 33 -107q0 -39 -17 -112v4q-4 -12 -4 -16q-6 -16 -10.5 -41t-1.5 -35q21 -58 -35 -84q-23 -11 -49.5 -0.5t-36.5 35.5q-4 9 -6 20t-3 19.5t0 21t1.5 19.5t3 20t3.5 17.5t4 17.5t3 14 t1 5q3 9 3 1q15 52 15 90q0 24 -6 39h2q-30 6 -125 6q-189 0 -584 -20q-12 -5 -26.5 -8t-35 -3t-39 14.5t-28.5 43.5q-8 24 -1 43z" />
<glyph unicode="&#xad;" horiz-adv-x="901" d="M10 623q27 67 166 90q86 14 203 14q240 0 444 -55q26 -9 39 -29.5t8 -44.5q-4 -26 -27 -40t-48 -9q-247 43 -426 43q-75 0 -129 -5t-71 -9.5t-17 -6.5q-8 -20 -35.5 -34.5t-50.5 -10.5h2q-38 4 -52 36.5t-6 60.5z" />
<glyph unicode="&#xae;" horiz-adv-x="1056" d="M16 987q0 132 45 248q29 73 72.5 143.5t107.5 141.5t153 115t188 44q92 0 169 -33.5t126.5 -89t81 -118.5t45.5 -131q12 -55 12 -131q0 -85 -17.5 -171.5t-60 -176.5t-104.5 -162t-159.5 -122.5t-217.5 -62.5q-118 -12 -220 53t-161.5 186t-59.5 267zM147 987 q0 -103 32 -187t103.5 -138t172.5 -54q157 0 280 140q-15 0 -28 10q-140 95 -250 123q12 -79 41 -152q12 -50 -37 -72q-22 -8 -44 4t-32 31q-38 115 -49 201h-45q-23 3 -36 17.5t-15 35.5q0 53 49 64h2q12 4 39 4v26q0 57 2 88q-4 -2 -8 -2q-6 -2 -16 -0.5t-24.5 7.5 t-25 20.5t-16.5 39.5t2 64q8 41 27.5 81t51.5 79t84 63t115 25q64 1 119 -32.5t88 -92.5q35 -63 35 -133q0 -78 -47 -145h2q-49 -79 -150 -137q98 -40 199 -109h-2q19 -13 22 -35q103 156 103 346q0 55 -12 113q-14 65 -56 126.5t-106 103t-133 42.5q-82 -10 -152.5 -47.5 t-118.5 -91t-80.5 -108.5t-50.5 -111q-35 -100 -35 -207zM444 1032q121 47 177 133q30 41 30 84q0 36 -22 78v-2q-12 25 -41 45.5t-64 20.5q-18 0 -39 -7l11 -22q0 -47 -25 -74q-27 -111 -27 -256z" />
<glyph unicode="&#xb0;" horiz-adv-x="421" d="M-2 1542q-3 14 6 53q2 -2 41 -2q31 59 76.5 91t97.5 32t100.5 -43t67.5 -106v2q12 -27 12 -76q0 -129 -133 -227q-66 -41 -110 -41q-40 0 -80 30l-2 2q-46 41 -64.5 122.5t-11.5 162.5zM135 1419q3 -49 23 -69q5 0 35 18q106 76 75 162q-7 27 -22.5 44t-26.5 17 q-34 0 -37 -6q-14 -27 21 -65q34 -50 -8 -86q-30 -27 -60 -15z" />
<glyph unicode="&#xb1;" horiz-adv-x="925" d="M14 113q12 32 47 54t119 38q70 12 195 12q257 0 454 -55l-2 2q26 -6 40.5 -29.5t6.5 -48.5q-6 -23 -28.5 -38t-46.5 -11q-232 43 -424 43q-75 0 -128 -4.5t-71.5 -9.5t-21.5 -9q-10 -18 -34.5 -30.5t-45.5 -10.5q-41 5 -54.5 37t-5.5 60zM33 557q-4 27 3.5 49.5 t18.5 36.5q93 96 250 127q3 77 21 217l2 10q0 20 10 47q15 35 46 49.5t65 2.5q10 -5 20.5 -16.5t19 -28.5t5.5 -43t-19 -54q-3 -4 -8.5 -23.5t-12.5 -59t-12 -83.5q54 5 123 5q162 0 260 -17q26 -5 40.5 -26.5t11.5 -53.5q-4 -23 -26.5 -37.5t-47.5 -9.5h2q-152 19 -246 19 q-67 0 -125 -6q4 -183 62 -353q8 -26 -3 -49.5t-36 -32.5h2q-26 -10 -49 2t-33 33q-65 155 -72 371q-37 -11 -62.5 -24.5t-32.5 -21t-9 -12.5q-22 -40 -64.5 -61.5t-77.5 0.5q-22 16 -26 43z" />
<glyph unicode="&#xb2;" horiz-adv-x="634" d="M4 881q-9 40 25 67q63 46 128.5 106.5t126 130t101.5 143.5t45 132q6 63 -35 101q-16 16 -49 16q-38 0 -82 -23q-42 -16 -63 -53q7 -29 -4 -59.5t-31 -44.5q-20 -13 -41 -13q-24 0 -57 25q-9 10 -15 31.5t-4 36.5q2 16 8 34t21.5 48.5t48 61t78.5 54.5q67 31 135 31 q89 0 145 -53q35 -35 54.5 -91.5t19.5 -109.5q-12 -105 -100 -237.5t-195 -237.5q88 10 268 47q25 0 46 -15.5t24 -37.5v2q4 -26 -10 -48t-39 -28q-296 -63 -485 -63q-45 0 -64 47z" />
<glyph unicode="&#xb3;" horiz-adv-x="638" d="M16 1452q1 21 10.5 46t43 66t86.5 76q87 54 176 54q62 0 114 -27q38 -19 65 -45t40 -51.5t20.5 -52.5t6.5 -49t-3 -42q-12 -89 -94 -161q87 -40 123 -111q14 -37 14 -70q0 -85 -81 -161q-78 -74 -160 -93q-31 -10 -68 -10h-22q-66 10 -111 49q-17 17 -20 39q0 36 16 52 q18 18 49 18q29 0 43 -14h-2q20 -17 47 -17q35 0 74 20.5t66 47.5q54 50 36 84q-13 32 -62.5 53t-107.5 21q-3 0 -10 -1.5t-10 -1.5h-12q-23 -3 -45.5 13t-26.5 41q-3 28 14 49q12 20 41 24q63 7 117 53.5t68 102.5q9 61 -64 100q-18 11 -49 11q-61 0 -111 -33 q-44 -26 -63 -68q8 -16 8 -37q0 -28 -12 -49v2q-22 -39 -66 -39q-33 0 -51 21q-34 29 -27 90z" />
<glyph unicode="&#xb4;" horiz-adv-x="315" d="M-1.5 1368.5q-2.5 26.5 9.5 52.5l166 275q14 22 37.5 27.5t48.5 -7.5q23 -15 30 -40.5t-5 -47.5l-172 -282q-15 -25 -39 -32t-56 13q-17 15 -19.5 41.5z" />
<glyph unicode="&#xb6;" horiz-adv-x="991" d="M-8 1241q0 189 127 428q37 68 80.5 112.5t77 61.5t69 21t51 1.5t30.5 -6.5q2 -1 3 -1l-4 2q7 0 13 -2t11.5 -6t8.5 -5q2 0 7.5 1t8.5 1q13 0 19 -2q53 9 145 6q61 0 86 -6q6 2 14 2q29 0 47 -18q101 -41 123 -121q5 -31 -9.5 -55.5t-41.5 -30.5q-6 -2 -18 -2 q-23 0 -41 12q-4 -376 -4 -1310q0 -478 8 -574q5 -48 12 -82q38 33 84 2l2 -2q44 -44 2 -96q-42 -49 -74 -59q-33 -11 -55 -2q-40 14 -63 66t-35 161q-19 170 -19 1710v266h-24q-30 2 -86 -2q-5 -15 -10 -18q-1 -17 -2.5 -235t-3 -544t-1.5 -591q0 -466 9 -574q8 -70 10 -82 q37 32 86 0q45 -45 4 -96q-42 -48 -76 -59q-31 -10 -55 -2q-40 14 -62.5 65.5t-35.5 161.5q-12 121 -17 1366v4l-37 -37q-87 -84 -172 -84q-49 0 -90.5 25.5t-66.5 68.5v-2q-35 65 -35 162zM119 1235q0 -60 18 -92q13 -24 45 -27q38 -3 88 47h-2q71 71 125 176v330 q-14 7 -37 31v-2q-2 4 -7.5 7.5t-17 3.5t-25.5 -7.5t-34 -31t-41 -62.5q-53 -96 -82.5 -196t-29.5 -177z" />
<glyph unicode="&#xb7;" horiz-adv-x="188" d="M7 527.5q3 19.5 11 35.5q17 39 50 54.5t65 -1.5l-2 2q28 -10 39.5 -41.5t-4.5 -78.5q-7 -24 -42.5 -49t-72.5 -5q-27 14 -37 39t-7 44.5z" />
<glyph unicode="&#xb8;" horiz-adv-x="421" d="M-14 -125l75 72l39 2q38 -27 103 -27q37 0 67 6q10 3 15 -2q-16 32 -121 111l106 96q153 -130 144 -223q-8 -39 -37 -66h2q-24 -24 -74 -39q-50 -12 -100 -12q-110 0 -219 82z" />
<glyph unicode="&#xb9;" horiz-adv-x="206" d="M14 895q2 4 2 6q26 184 33 340q4 114 4 223q0 31 -1 66t-1 37q-15 29 -8 55q16 74 88 74q30 -3 49 -31v-2q20 -27 17 -64q-2 -10 -10 -150.5t-11 -215.5q-4 -93 -16.5 -208.5t-18.5 -154.5q-6 -51 -71 -51q-26 3 -42.5 25.5t-13.5 50.5z" />
<glyph unicode="&#xba;" horiz-adv-x="653" d="M10 1229q0 52 10 106t24.5 95t33 80.5t33.5 63.5t27 43l12 19q28 38 69.5 50.5t79.5 -11.5q40 4 57 4q89 0 155.5 -35.5t102.5 -99.5q31 -64 31 -139q0 -94 -37.5 -193t-87.5 -178q-125 -188 -266 -188q-54 0 -98.5 30.5t-69.5 71.5q-76 140 -76 281zM145 1223 q0 -106 58 -211q18 -31 51 -31q67 0 154 127h-2q46 69 76 150.5t30 146.5q0 47 -16 74q-18 34 -60 55t-75 26.5t-33 2.5q-4 -10 -14.5 -27t-35.5 -40t-51 -28q-82 -124 -82 -245z" />
<glyph unicode="&#xbb;" horiz-adv-x="1130" d="M6 994.5q-4 21.5 6 54.5q4 11 10 19.5t13 13t14.5 7t16.5 2t16 -1t15.5 -3t13 -4t11 -4.5t7.5 -3q25 -15 297.5 -240t306.5 -268q31 -43 25 -90q-9 -46 -58 -101.5t-102 -97t-135 -98.5l-19 -12h2q-141 -104 -149 -121l2 2q-6 -23 -27.5 -37t-52.5 -8q-25 8 -38.5 33 t-4.5 49q13 39 61.5 81.5t153.5 115.5q67 47 105.5 75.5t83 68.5t51.5 62q-61 70 -545 439q-11 2 -25 8.5t-32.5 21.5t-22.5 36.5zM346 994.5q-4 21.5 6 54.5q5 14 13 23.5t18 13t19.5 5t21 -1t18.5 -4.5t16.5 -6t10.5 -4q26 -15 297.5 -240t304.5 -268q33 -42 27 -90 q-9 -46 -58 -101.5t-102 -97t-135 -98.5l-21 -12h2q-14 -11 -38 -29.5t-39.5 -30.5t-32.5 -25.5t-26 -22t-11 -13.5l2 2q-6 -23 -27.5 -37t-52.5 -8q-25 8 -38.5 33t-4.5 49q13 39 61.5 81.5t153.5 115.5q67 47 105.5 75.5t83 68.5t51.5 62q-49 57 -545 439q-11 2 -25 8.5 t-32.5 21.5t-22.5 36.5z" />
<glyph unicode="&#xbc;" horiz-adv-x="937" d="M20 1548q-10 34 2.5 68t38.5 43h-2q60 27 99 -39q47 -79 47 -285q0 -174 -27 -401q-3 -24 -21.5 -39.5t-47.5 -15.5q-27 3 -44 23.5t-14 45.5q21 190 21 312q0 78 -5.5 139t-10.5 83.5t-7 24.5l-7 12q0 1 -2 3q-7 10 -9 14l2 -6q-12 12 -13 18zM129 119q0 86 35 291 q40 198 141 575l182 625q8 32 17.5 64.5t13.5 47.5t4 17q8 22 28.5 41.5t39.5 19.5q28 0 49 -26t23 -50l34 -161q0 -32 -16.5 -59.5t-58.5 -30.5q-21 -3 -35 4q-127 -396 -228.5 -789.5t-101.5 -568.5q0 -42 6 -60q9 -28 -2.5 -54.5t-36.5 -37.5q-1 0 -8 -1t-10 -1 q-20 0 -37 12t-23 33v-4q-16 33 -16 113zM323.5 393q-0.5 21 14.5 39v-2q229 319 231 354q1 6 9 19.5t24 31t38 21.5t52 -8q5 28 25 49.5t45 24.5q32 3 55.5 -19t28.5 -59q5 -27 -2 -47q0 -2 -0.5 -9t-1 -19.5t-0.5 -27.5q0 -100 4 -202q33 -22 33 -56q0 -35 -27 -55 q2 -44 9.5 -156t10.5 -170q0 -25 -16.5 -45.5t-40.5 -23.5q-27 0 -47 17.5t-23 41.5q-1 28 -18 316q-39 -6 -90 -17.5t-87.5 -21.5t-78.5 -21.5t-51 -13.5l-19 -4l-7 -1q-8 -1 -13 -1q-33 7 -43 26q-14 18 -14.5 39zM543 500q23 5 84.5 18t91.5 19l-14 180z" />
<glyph unicode="&#xbd;" horiz-adv-x="1036" d="M23 934q2 4 2 8q21 142 30 340q4 114 4 225q0 32 -1 66t-1 35q-15 33 -6 61v-2q13 72 88 72q33 -7 47 -29q19 -26 15 -70q1 1 1 -2v-10t-0.5 -16t-1.5 -22.5t-1.5 -26t-2 -29.5t-2.5 -30.5t-2 -31.5t-2 -30q-2 -27 -3.5 -58t-2.5 -63t-2 -45q-4 -156 -35 -363 q-3 -23 -22 -38t-49 -15q-28 6 -43.5 26.5t-9.5 47.5zM84 119q0 113 35 291q40 208 141 575q93 329 215 707v-2l17 53q9 22 30 35t47 10q20 -4 32.5 -22.5t12.5 -43.5v-172q0 -26 -18 -44.5t-43 -18.5h-12q-128 -403 -229 -798t-101 -570q0 -42 6 -60q9 -28 -2.5 -54.5 t-36.5 -37.5l-8 -1q-7 -1 -12 -1q-19 0 -36.5 12t-23.5 33v-4q-14 29 -14 113zM375 156h2q-5 19 2 38t24 29h-2q129 91 255.5 244.5t146.5 269.5q-4 70 -37 99q-14 18 -49 18q-28 0 -82 -20l2 2q-44 -21 -66 -60q7 -27 -3 -58t-31 -46q-19 -13 -41 -13q-29 0 -56 27 q-21 24 -18 66q0 12 5.5 31t19 49.5t47 62.5t81.5 55q68 33 136 33q94 0 147 -53q34 -34 53 -90.5t19 -110.5q-12 -107 -99.5 -239t-195.5 -238q133 19 262 47q1 0 5.5 1t6.5 1q22 0 40.5 -15.5t23.5 -35.5q6 -27 -9 -49.5t-40 -28.5q-306 -63 -486 -63q-23 0 -40 12t-23 35 z" />
<glyph unicode="&#xbe;" horiz-adv-x="1226" d="M16 1464q12 103 140 187v-2q80 57 176 57q59 0 114 -25q82 -48 110.5 -116t18.5 -123q-12 -92 -94 -164q86 -37 123 -109l-2 2q16 -29 16 -73q0 -89 -81 -164q-67 -61 -160 -90q-25 -8 -68 -8h-22q-55 3 -117 51q-10 10 -14 33q0 34 20 59q17 14 45 14q26 0 43 -14h-4 q22 -16 49 -16q37 0 75.5 19.5t66.5 45.5q50 50 34 88q-13 30 -62 50t-108 20q-16 0 -26 -2q-31 -3 -53 14t-25 45q0 31 16 47l-2 -4q12 20 41 27q62 6 116.5 51.5t68.5 99.5q5 31 -12 58.5t-52 46.5q-17 10 -49 10q-50 0 -111 -33h2q-47 -29 -65 -69q8 -16 8 -35 q0 -31 -14 -51q-21 -37 -64 -37q-34 0 -51 20q-33 33 -27 90zM438 119q0 86 35 291q44 218 143 575q49 174 106.5 363t90.5 291t35 106q10 18 31.5 32t40.5 11q23 -6 37 -24.5t14 -41.5v-172q0 -26 -19 -44.5t-45 -18.5h-10q-127 -397 -229.5 -796t-102.5 -572q0 -26 6 -68 v2q12 -24 0 -49.5t-39 -36.5l-7 -1q-7 -1 -11 -1q-20 0 -36.5 12t-22.5 33v-4q-17 35 -17 113zM635 379q-21 41 6 76l309 362q17 18 41.5 19.5t44.5 -11.5v11q3 28 22.5 46t45.5 15q26 -1 42.5 -19t16.5 -42q0 -53 -2 -159.5t-2 -158.5q29 -22 29 -53t-29 -53l-6 -330 q-2 -24 -22 -43t-50 -19q-26 3 -40.5 21t-14.5 43l4 315q-60 -6 -138.5 -18.5t-128.5 -22t-50 -10.5h-33q-29 7 -45 31zM856 504q101 17 176 22q0 35 1 98.5t1 94.5z" />
<glyph unicode="&#xbf;" horiz-adv-x="950" d="M8 -8q0 143 113 323q194 304 203 492q2 31 -2 53.5t-8 29.5l-5 7l2 -4q-17 19 -16.5 45t16.5 45q41 46 97 -2q7 -5 15.5 -18.5t19 -52t10.5 -87.5q0 -95 -51.5 -240.5t-170.5 -334.5q-96 -154 -96 -258q0 -63 41 -107q53 -53 170 -53q138 0 260 78q76 51 121 112.5 t45 102.5q0 24 -12 27q-23 8 -31 18q-36 28 -46.5 66.5t9.5 72.5q51 67 160 -6q57 -45 57 -129q0 -91 -63.5 -197.5t-169.5 -175.5q-147 -94 -311 -100q-168 -6 -277 92h-2q-78 82 -78 201zM221.5 1345q1.5 22 1.5 35q9 36 39 56t60 14h-3q32 -8 48.5 -38.5t7.5 -68.5 q-7 -30 -30.5 -55.5t-63.5 -17.5q-30 5 -45.5 29t-14 46z" />
<glyph unicode="&#xc0;" horiz-adv-x="1122" d="M-12 485q0 43 32 76q13 15 66 54t102 71q47 339 195 629q45 85 108 180.5t95 136.5q22 34 51 45q5 13 22 19q25 12 51 3t35 -34l-2 2q13 -25 42.5 -107.5t94 -320.5t119.5 -524l58 -19q20 -9 27.5 -32t-1.5 -46q-13 -40 -59 -43q34 -176 78 -503q6 -24 -10 -45.5 t-43 -26.5q-26 -3 -48.5 14t-25.5 41q-41 318 -88 561q-157 43 -307 43q-163 0 -275 -53q-10 -123 -10 -235q0 -100 8 -181q0 -24 -21.5 -46.5t-48.5 -22.5q-23 3 -39.5 19.5t-19.5 39.5q-8 84 -8 185q0 63 2 94q-17 -23 -39.5 -37.5t-52.5 -19t-58 15.5q-30 24 -30 67z M328 750q116 38 258 38q143 0 274 -32q-93 472 -182 727q-4 -2 -8 -2q-25 -21 -86.5 -101t-96.5 -149q-112 -222 -159 -481zM403 2068q6 26 29 41q21 13 47 7t41 -29l168 -281q13 -22 9 -45t-23 -41q-30 -20 -55.5 -13t-38.5 32l-170 282q-13 21 -7 47z" />
<glyph unicode="&#xc1;" horiz-adv-x="1122" d="M-12 485q0 43 32 76q13 15 66 54t102 71q47 339 195 629q45 85 108 180.5t95 136.5q22 34 51 45q5 13 22 19q25 12 51 3t35 -34l-2 2q13 -25 42.5 -107.5t94 -320.5t119.5 -524l58 -19q20 -9 27.5 -32t-1.5 -46q-13 -40 -59 -43q34 -176 78 -503q6 -24 -10 -45.5 t-43 -26.5q-26 -3 -48.5 14t-25.5 41q-41 318 -88 561q-157 43 -307 43q-163 0 -275 -53q-10 -123 -10 -235q0 -100 8 -181q0 -24 -21.5 -46.5t-48.5 -22.5q-23 3 -39.5 19.5t-19.5 39.5q-8 84 -8 185q0 63 2 94q-17 -23 -39.5 -37.5t-52.5 -19t-58 15.5q-30 24 -30 67z M328 750q116 38 258 38q143 0 274 -32q-93 472 -182 727q-4 -2 -8 -2q-25 -21 -86.5 -101t-96.5 -149q-112 -222 -159 -481zM403.5 1762q-2.5 27 10.5 53l166 272q12 23 37 28.5t49 -6.5q23 -15 29.5 -40.5t-7.5 -47.5l-170 -282q-38 -59 -94 -19q-18 15 -20.5 42z" />
<glyph unicode="&#xc2;" horiz-adv-x="1122" d="M-12 485q0 43 32 76q13 15 66 54t102 71q47 339 195 629q45 85 108 180.5t95 136.5q22 34 51 45q5 13 22 19q25 12 51 3t35 -34l-2 2q13 -25 42.5 -107.5t94 -320.5t119.5 -524l58 -19q20 -9 27.5 -32t-1.5 -46q-13 -40 -59 -43q34 -176 78 -503q6 -24 -10 -45.5 t-43 -26.5q-26 -3 -48.5 14t-25.5 41q-41 318 -88 561q-157 43 -307 43q-163 0 -275 -53q-10 -123 -10 -235q0 -100 8 -181q0 -24 -21.5 -46.5t-48.5 -22.5q-23 3 -39.5 19.5t-19.5 39.5q-8 84 -8 185q0 63 2 94q-17 -23 -39.5 -37.5t-52.5 -19t-58 15.5q-30 24 -30 67z M328 750q116 38 258 38q143 0 274 -32q-93 472 -182 727q-4 -2 -8 -2q-25 -21 -86.5 -101t-96.5 -149q-112 -222 -159 -481zM439 1660.5q-4 25.5 10 45.5l167 231q7 16 27 31q18 6 25 6h20l19 -8q26 -19 28 -33l150 -239q14 -23 8 -49t-29 -41q-25 -12 -49 -6.5t-39 28.5 l-106 170l-117 -162q-13 -23 -40 -27t-50 11q-20 17 -24 42.5z" />
<glyph unicode="&#xc3;" horiz-adv-x="1122" d="M-12 485q0 43 32 76q13 15 66 54t102 71q47 339 195 629q45 85 108 180.5t95 136.5q22 34 51 45q5 13 22 19q-141 90 -213 69q-49 -11 -75 -65l2 2q-10 -24 -36.5 -33t-51.5 2q-22 11 -29.5 39t2.5 49q58 109 154 131q69 15 160 -12t190 -96q51 -37 110 -37q37 0 52 12 q10 10 2 27l2 -2q-12 21 -3.5 48.5t33.5 37.5q24 10 47 1.5t37 -30.5q22 -49 13 -98.5t-47 -81.5q-54 -43 -131 -43q-60 0 -123 29q138 -374 245 -930l58 -19q20 -9 27.5 -32t-1.5 -46q-13 -40 -59 -43q34 -176 78 -503q6 -24 -10 -45.5t-43 -26.5q-26 -3 -48.5 14t-25.5 41 q-41 318 -88 561q-157 43 -307 43q-163 0 -275 -53q-10 -123 -10 -235q0 -100 8 -181q0 -24 -21.5 -46.5t-48.5 -22.5q-23 3 -39.5 19.5t-19.5 39.5q-8 84 -8 185q0 63 2 94q-17 -23 -39.5 -37.5t-52.5 -19t-58 15.5q-30 24 -30 67zM328 750q116 38 258 38q143 0 274 -32 q-93 472 -182 727q-4 -2 -8 -2q-25 -21 -86.5 -101t-96.5 -149q-112 -222 -159 -481z" />
<glyph unicode="&#xc4;" horiz-adv-x="1122" d="M-12 485q0 43 32 76q13 15 66 54t102 71q47 339 195 629q45 85 108 180.5t95 136.5q22 34 51 45q5 13 22 19q25 12 51 3t35 -34l-2 2q13 -25 42.5 -107.5t94 -320.5t119.5 -524l58 -19q20 -9 27.5 -32t-1.5 -46q-13 -40 -59 -43q34 -176 78 -503q6 -24 -10 -45.5 t-43 -26.5q-26 -3 -48.5 14t-25.5 41q-41 318 -88 561q-157 43 -307 43q-163 0 -275 -53q-10 -123 -10 -235q0 -100 8 -181q0 -24 -21.5 -46.5t-48.5 -22.5q-23 3 -39.5 19.5t-19.5 39.5q-8 84 -8 185q0 63 2 94q-17 -23 -39.5 -37.5t-52.5 -19t-58 15.5q-30 24 -30 67z M328 750q116 38 258 38q143 0 274 -32q-93 472 -182 727q-4 -2 -8 -2q-25 -21 -86.5 -101t-96.5 -149q-112 -222 -159 -481zM519 1779.5q3 19.5 11 35.5q17 38 50 53t65 0l-2 2q40 -14 43 -70l6 15q19 38 52 53t65 0l-2 2q26 -10 38.5 -42.5t-3.5 -80.5q-11 -24 -45 -47.5 t-70 -3.5q-43 19 -43 61q-4 -8 -4 -10q-11 -24 -45.5 -47.5t-71.5 -3.5q-27 14 -37 39t-7 44.5z" />
<glyph unicode="&#xc5;" horiz-adv-x="1122" d="M-12 485q0 43 32 76q13 15 66 54t102 71q47 339 195 629q45 85 108 180.5t95 136.5q0 2 4 6q-29 47 -29 125q0 57 8 101q10 54 25 100q-5 33 8 68q11 23 32 34t41.5 10.5t37.5 -8.5l-6 5q11 -2 24 -15q74 -3 128 -40t71 -99q23 -81 -23.5 -168.5t-138.5 -140.5 q128 -352 231 -895l58 -19q20 -9 27.5 -32t-1.5 -46q-13 -40 -59 -43q34 -176 78 -503q6 -24 -10 -45.5t-43 -26.5q-26 -3 -48.5 14t-25.5 41q-41 318 -88 561q-157 43 -307 43q-163 0 -275 -53q-10 -123 -10 -235q0 -100 8 -181q0 -24 -21.5 -46.5t-48.5 -22.5 q-23 3 -39.5 19.5t-19.5 39.5q-8 84 -8 185q0 63 2 94q-17 -23 -39.5 -37.5t-52.5 -19t-58 15.5q-30 24 -30 67zM328 750q116 38 258 38q143 0 274 -32q-93 472 -182 727q-4 -2 -8 -2q-25 -21 -86.5 -101t-96.5 -149q-112 -222 -159 -481zM694 1712l8 4q59 30 89 81t22 89 q-18 44 -84 47l-22 -94q-13 -61 -13 -98v-29z" />
<glyph unicode="&#xc6;" horiz-adv-x="1882" d="M-3 485q0 43 32 76q13 15 66 54t102 71q48 342 194 629q79 150 201 317q27 34 51 45q8 13 25 19q25 12 50.5 3t35.5 -34q1 -2 4.5 -6t10.5 -16t17 -35t26 -72.5t34 -118.5v2q0 27 15 53.5t42 43.5q1 27 2.5 44.5t8.5 44.5t18.5 42.5t34.5 24.5t55 3q49 -9 65 -69 q81 21 146 24q62 -5 126 -30.5t110.5 -57t86 -65.5t59 -55.5t23.5 -28.5q11 -23 6.5 -49.5t-24.5 -38.5q-18 -14 -38.5 -9.5t-33.5 13.5t-22 20q0 2 -15 18.5t-44 41.5t-64.5 49.5t-83.5 43t-94 21.5q-61 5 -164 -67q-36 -293 -41 -480q64 5 164 5q247 0 452 -60 q26 -9 37.5 -30t5.5 -48l2 2q-6 -26 -30 -39t-52 -4h3q-167 49 -355 49q-107 0 -229 -18q0 -4 -1 -50t1 -50q31 -10 35 -11q26 -10 37 -34.5t2 -49.5q-8 -19 -26 -30t-40 -10q33 -377 129 -426q52 -34 148 32h-3q318 224 373 269q9 21 27 34q19 10 28 13.5t28 7.5t34 -4 t27 -27l-2 2q35 -52 -27 -100l-39 -33l2 2q7 6 4 5q-13 -7 -29 -23q-20 -14 -80.5 -57.5t-129 -92t-140.5 -98.5q-103 -70 -184 -70q-56 0 -102 29q-126 81 -175 354q-16 77 -26 221q-162 43 -305 43q-159 0 -271 -53q-12 -111 -12 -235q0 -100 8 -181q0 -24 -20 -46.5 t-47 -22.5q-24 3 -40.5 19t-19.5 40q-8 84 -8 185q0 63 2 94q-17 -23 -39 -37.5t-52 -19t-58 15.5q-30 24 -30 67zM336 750q112 38 256 38q9 0 31.5 -1t35.5 -1q-4 12 -4 23q0 54 64 92q28 17 110 31q-67 308 -145 551q-4 -2 -6 -2q-25 -22 -87 -102t-97 -148 q-112 -231 -158 -481zM836 764l30 -6l-4 24l-12 -2l4 8zM858 1366l33 -133q0 48 4 110q-18 4 -37 23z" />
<glyph unicode="&#xc7;" horiz-adv-x="1191" d="M-6.5 1409.5q-0.5 21.5 8 43.5t31 42t55.5 31q34 13 96 33q1 20 4.5 36.5t13 35.5t30.5 30t51 10q64 -3 79 -65q66 14 144 14q258 0 510 -252q19 -19 17.5 -47t-21.5 -45h2q-7 -6 -21 -10.5t-34 -2t-35 16.5q-95 98 -205 154.5t-223 56.5q-70 0 -144 -18 q-12 -204 -12 -521v-57q2 -168 14.5 -301t30 -211t41 -132t42.5 -75t38 -31q8 -5 26 -6t53.5 10t69.5 39q98 86 173 162.5t114 126t63.5 88.5t31 56t5.5 24q-8 49 17 74l4 2q44 32 78.5 5t29.5 -83q-6 -85 -114.5 -228t-317.5 -321l-6.5 -6.5l-3 -3l-1.5 -1.5t-3.5 -2.5 l-7.5 -4.5q75 -85 69 -154q-8 -39 -34 -65q-20 -23 -74 -39q-50 -13 -100 -13q-114 0 -218 80l93 90q62 -43 122 -43q35 0 70 9q9 2 12 -4q0 21 -79 81q-36 -4 -56 -4q-26 0 -73 19q-101 60 -166 282.5t-84 575.5q-11 203 -15 502q-12 -21 -37 -35q-26 -18 -52 -22t-44 4 t-29.5 16t-17.5 16q-10 16 -10.5 37.5z" />
<glyph unicode="&#xc8;" horiz-adv-x="1183" d="M-6 809q0 55 63 92q5 5 179 29q-1 31 -2 76.5t-2 168t1 168.5q-49 16 -49 76q0 27 15.5 53.5t42.5 43.5q1 27 2.5 44.5t8.5 45t18.5 42t35 24t55.5 3.5q48 -10 64 -69q81 21 145 24q63 -5 127 -30.5t110 -56.5t87 -66t59.5 -55.5t24.5 -28.5q10 -23 5 -50t-26 -38 q-45 -31 -94 24q0 2 -15 18.5t-44 41.5t-64.5 49.5t-83.5 43t-94 21.5q-61 5 -164 -67q-34 -273 -39 -480q64 5 162 5q247 0 455 -60q25 -9 36.5 -30.5t4.5 -47.5l2 2q-6 -26 -30 -39t-50 -4q-167 49 -354 49q-109 0 -228 -18q1 -178 15 -309t36 -200.5t43 -103.5t44 -48 q51 -34 147 32h-2q321 228 371 269q8 19 26 34q24 12 38.5 18t39 1.5t39.5 -29.5l-2 2q12 -17 13.5 -33t-6.5 -29.5t-14 -20.5t-18 -17l-41 -33l3 2q10 9 0 2q-9 -7 -25 -20q-20 -14 -80.5 -57.5t-129 -92t-140.5 -98.5q-100 -70 -185 -70q-56 0 -102 29q-125 79 -174 354 q-28 175 -31 393l-35 -8l5 8q-13 -23 -48 -46t-86 -15q-23 5 -44 28.5t-21 53.5zM433 2068.5q7 25.5 30 40.5q21 13 47 7t41 -29l168 -281q13 -22 8.5 -45.5t-25.5 -40.5q-30 -20 -54.5 -13t-39.5 32l-168 282q-14 22 -7 47.5z" />
<glyph unicode="&#xc9;" horiz-adv-x="1183" d="M-6 809q0 55 63 92q5 5 179 29q-1 31 -2 76.5t-2 168t1 168.5q-49 16 -49 76q0 27 15.5 53.5t42.5 43.5q1 27 2.5 44.5t8.5 45t18.5 42t35 24t55.5 3.5q48 -10 64 -69q81 21 145 24q63 -5 127 -30.5t110 -56.5t87 -66t59.5 -55.5t24.5 -28.5q10 -23 5 -50t-26 -38 q-45 -31 -94 24q0 2 -15 18.5t-44 41.5t-64.5 49.5t-83.5 43t-94 21.5q-61 5 -164 -67q-34 -273 -39 -480q64 5 162 5q247 0 455 -60q25 -9 36.5 -30.5t4.5 -47.5l2 2q-6 -26 -30 -39t-50 -4q-167 49 -354 49q-109 0 -228 -18q1 -178 15 -309t36 -200.5t43 -103.5t44 -48 q51 -34 147 32h-2q321 228 371 269q8 19 26 34q24 12 38.5 18t39 1.5t39.5 -29.5l-2 2q12 -17 13.5 -33t-6.5 -29.5t-14 -20.5t-18 -17l-41 -33l3 2q10 9 0 2q-9 -7 -25 -20q-20 -14 -80.5 -57.5t-129 -92t-140.5 -98.5q-100 -70 -185 -70q-56 0 -102 29q-125 79 -174 354 q-28 175 -31 393l-35 -8l5 8q-13 -23 -48 -46t-86 -15q-23 5 -44 28.5t-21 53.5zM433 1762q-3 27 11 53l164 272q13 23 37.5 28.5t50.5 -6.5q23 -15 30 -40.5t-7 -47.5l-170 -282q-38 -59 -94 -19q-19 15 -22 42z" />
<glyph unicode="&#xca;" horiz-adv-x="1183" d="M-6 809q0 55 63 92q5 5 179 29q-1 31 -2 76.5t-2 168t1 168.5q-49 16 -49 76q0 27 15.5 53.5t42.5 43.5q1 27 2.5 44.5t8.5 45t18.5 42t35 24t55.5 3.5q48 -10 64 -69q81 21 145 24q63 -5 127 -30.5t110 -56.5t87 -66t59.5 -55.5t24.5 -28.5q10 -23 5 -50t-26 -38 q-45 -31 -94 24q0 2 -15 18.5t-44 41.5t-64.5 49.5t-83.5 43t-94 21.5q-61 5 -164 -67q-34 -273 -39 -480q64 5 162 5q247 0 455 -60q25 -9 36.5 -30.5t4.5 -47.5l2 2q-6 -26 -30 -39t-50 -4q-167 49 -354 49q-109 0 -228 -18q1 -178 15 -309t36 -200.5t43 -103.5t44 -48 q51 -34 147 32h-2q321 228 371 269q8 19 26 34q24 12 38.5 18t39 1.5t39.5 -29.5l-2 2q12 -17 13.5 -33t-6.5 -29.5t-14 -20.5t-18 -17l-41 -33l3 2q10 9 0 2q-9 -7 -25 -20q-20 -14 -80.5 -57.5t-129 -92t-140.5 -98.5q-100 -70 -185 -70q-56 0 -102 29q-125 79 -174 354 q-28 175 -31 393l-35 -8l5 8q-13 -23 -48 -46t-86 -15q-23 5 -44 28.5t-21 53.5zM353.5 1765.5q-3.5 26.5 11.5 46.5l165 232q7 17 29 31q8 4 29 4h16l17 -6q25 -19 30 -35l148 -240q14 -22 8 -47.5t-29 -40.5q-23 -13 -48 -7t-40 30l-106 170l-117 -162 q-14 -23 -40.5 -28.5t-49.5 11.5q-20 15 -23.5 41.5z" />
<glyph unicode="&#xcb;" horiz-adv-x="1183" d="M-6 809q0 55 63 92q5 5 179 29q-1 31 -2 76.5t-2 168t1 168.5q-49 16 -49 76q0 27 15.5 53.5t42.5 43.5q1 27 2.5 44.5t8.5 45t18.5 42t35 24t55.5 3.5q48 -10 64 -69q81 21 145 24q63 -5 127 -30.5t110 -56.5t87 -66t59.5 -55.5t24.5 -28.5q10 -23 5 -50t-26 -38 q-45 -31 -94 24q0 2 -15 18.5t-44 41.5t-64.5 49.5t-83.5 43t-94 21.5q-61 5 -164 -67q-34 -273 -39 -480q64 5 162 5q247 0 455 -60q25 -9 36.5 -30.5t4.5 -47.5l2 2q-6 -26 -30 -39t-50 -4q-167 49 -354 49q-109 0 -228 -18q1 -178 15 -309t36 -200.5t43 -103.5t44 -48 q51 -34 147 32h-2q321 228 371 269q8 19 26 34q24 12 38.5 18t39 1.5t39.5 -29.5l-2 2q12 -17 13.5 -33t-6.5 -29.5t-14 -20.5t-18 -17l-41 -33l3 2q10 9 0 2q-9 -7 -25 -20q-20 -14 -80.5 -57.5t-129 -92t-140.5 -98.5q-100 -70 -185 -70q-56 0 -102 29q-125 79 -174 354 q-28 175 -31 393l-35 -8l5 8q-13 -23 -48 -46t-86 -15q-23 5 -44 28.5t-21 53.5zM412.5 1779.5q2.5 18.5 9.5 35.5q19 38 52 53t65 0l-2 2q40 -14 43 -70l6 15q17 38 49.5 53t66.5 0l-2 2q26 -10 37.5 -42.5t-2.5 -80.5q-11 -24 -45.5 -47.5t-71.5 -3.5q-39 19 -43 61 q-4 -8 -4 -10q-11 -24 -44.5 -47.5t-69.5 -3.5q-27 14 -37 39.5t-7.5 44z" />
<glyph unicode="&#xcc;" d="M-5.5 2068.5q6.5 25.5 28.5 40.5q21 13 48 7t40 -29l170 -281q12 -22 7 -45t-24 -41q-30 -20 -54.5 -13t-39.5 32l-170 282q-12 22 -5.5 47.5zM0 1530q-18 50 1.5 87t51.5 46q47 12 76.5 -13.5t42.5 -66.5v2q9 -25 57 -381q54 -434 54 -954q0 -129 -2 -195 q-2 -24 -23 -43.5t-49 -19.5q-22 3 -38.5 23t-18.5 44q4 76 4 234q0 297 -26 584t-48.5 422t-32.5 161q-15 9 -29 29t-20 41z" />
<glyph unicode="&#xcd;" d="M-5.5 1762q-2.5 27 9.5 53l166 272q13 23 37 28.5t49 -6.5q23 -15 30 -40.5t-5 -47.5l-172 -282q-15 -25 -39 -32t-56 13q-17 15 -19.5 42zM0 1530q-18 50 1.5 87t51.5 46q47 12 76.5 -13.5t42.5 -66.5v2q9 -25 57 -381q54 -434 54 -954q0 -129 -2 -195q-2 -24 -23 -43.5 t-49 -19.5q-22 3 -38.5 23t-18.5 44q4 76 4 234q0 297 -26 584t-48.5 422t-32.5 161q-15 9 -29 29t-20 41z" />
<glyph unicode="&#xce;" d="M-87 1676.5q-4 25.5 11 47.5l168 232q8 19 27 29q18 6 28 6h17l18 -9q25 -18 29 -32l149 -240q14 -21 8 -47t-30 -41q-23 -14 -47 -8t-41 31l-107 170l-114 -164q-2 -2 -4 -2q4 3 9 5.5t10.5 5t8.5 3.5q47 12 76.5 -13.5t42.5 -66.5v2q9 -25 57 -381q54 -434 54 -954 q0 -129 -2 -195q-2 -24 -23 -43.5t-49 -19.5q-22 3 -38.5 23t-18.5 44q4 76 4 234q0 297 -26 584t-48.5 422t-32.5 161q-15 9 -29 29t-20 41q-19 55 12 104q-16 -11 -36 -11t-37 13q-22 15 -26 40.5z" />
<glyph unicode="&#xcf;" d="M-27 1779.5q3 19.5 11 35.5q17 38 49.5 53t64.5 0l-2 2q42 -15 45 -70l4 15q19 38 52 53t65 0l-2 2q26 -10 38.5 -42.5t-3.5 -80.5q-11 -24 -44.5 -47.5t-70.5 -3.5q-39 18 -43 61q-4 -8 -4 -10q-11 -24 -45.5 -47.5t-71.5 -3.5q-27 14 -36.5 39t-6.5 44.5zM-2 1530 q-17 50 3 87t52 46q47 12 76.5 -13.5t42.5 -66.5v2q9 -25 57 -381q54 -434 54 -954q0 -129 -2 -195q-2 -24 -23 -43.5t-49 -19.5q-22 3 -38.5 23t-18.5 44q4 76 4 234q0 297 -26 584t-48.5 422t-32.5 161q-34 20 -51 70z" />
<glyph unicode="&#xd0;" horiz-adv-x="1445" d="M9 865q-9 27 1 50q60 111 156 134v-2q60 16 123 2q2 36 10 108v14q-15 -6 -31 -6q-37 -3 -65.5 26t-32.5 75l-1 4q-1 4 -1 8q-6 60 -6 100q0 202 92 326q53 69 145.5 101.5t210.5 27.5q351 -31 563.5 -272.5t227.5 -640.5v-2q0 -10 1 -29t1 -29q0 -210 -67.5 -395.5 t-188.5 -306.5v2q-183 -189 -438 -189h-21q-180 5 -287 99q-18 3 -31.5 16t-17.5 33q-67 336 -67 698v103q-45 13 -86 4q-46 -11 -74 -66l2 2q-10 -24 -37 -32.5t-49 3.5l2 -2q-25 9 -34 36zM326 1409q11 77 28.5 130.5t50.5 84t78 14.5q24 -9 37.5 -28t15.5 -40t1 -37.5 t-5 -27.5q-14 -46 -47 -63q-4 -10 -14.5 -57t-26.5 -156.5t-24 -229.5q51 -29 96 -61q55 -37 109 -37q37 0 51 14q13 10 6 23q-9 23 -0.5 49.5t29.5 36.5q25 9 50.5 0.5t35.5 -31.5q16 -37 16 -65q0 -66 -51 -111q-57 -43 -133 -43q-95 0 -189 62q-6 4 -9.5 7t-4 3.5t-1 1.5 t-1 1.5t-3 2l-7.5 4.5v-68q0 -186 24 -411q67 45 144 29q29 -8 44.5 -31.5t6.5 -50.5l2 2q-6 -23 -28 -36t-48 -11q-50 7 -71.5 -30t-8.5 -71q19 -34 74.5 -55.5t138.5 -24.5q211 -6 361 150q113 114 171.5 289.5t49.5 373.5q-14 353 -192.5 564.5t-479.5 228.5 q-159 11 -240 -86v2q-36 -48 -36 -172v-39z" />
<glyph unicode="&#xd1;" horiz-adv-x="907" d="M-0.5 1278q3.5 22 18.5 37q36 28 84 0q140 -112 248 -262q155 -212 266 -492q1 264 28.5 544.5t50.5 419.5t32 169q-43 -15 -86 -15q-48 0 -99 19.5t-87 44.5h-2q-156 108 -242 86q-46 -11 -74 -66l2 2q-10 -24 -36.5 -32.5t-51.5 2.5q-22 10 -29 37.5t3 50.5 q58 107 153 131q144 32 350 -111q55 -37 109 -37q36 0 51 15q13 10 4 24l2 -2q-11 23 -2.5 50.5t33.5 37.5q23 9 47 1.5t37 -29.5q27 -68 2 -129q10 2 33 -2q29 -8 45 -34.5t15 -52.5t-5 -45l2 5q-9 -41 -33 -62q-8 -21 -26.5 -115t-41 -239t-39 -349.5t-16.5 -398.5 q0 -163 15 -327q0 -15 -4 -31q0 -2 1 -6t1 -6q5 -27 -8.5 -49.5t-40.5 -28.5q-23 -6 -46.5 9.5t-29.5 39.5q-73 294 -177.5 525t-203.5 366q-60 78 -86 106q18 -188 18 -461q0 -278 -16 -630v-21q-3 -24 -19 -40t-40 -19q-28 0 -48 21t-20 46q14 334 14 635q0 541 -47 625 q-12 21 -8.5 43z" />
<glyph unicode="&#xd2;" horiz-adv-x="1175" d="M-8 842q0 285 164 565q25 42 63 58t78 -7q11 -7 25 -31q130 125 305 125q111 0 213.5 -52t173.5 -134q137 -155 137 -399q0 -170 -64 -355q-52 -154 -134 -277.5t-191.5 -200.5t-224.5 -77q-196 0 -355 213q-190 265 -190 572zM125 815q0 -117 43.5 -239.5t118.5 -229.5 q64 -85 136.5 -126.5t143.5 -33.5q115 23 227.5 153t174.5 316q51 162 51 308q0 214 -113 333q-53 55 -131 92t-160 37q-66 0 -123 -26.5t-111 -95t-87 -175.5l2 5q-6 -26 -28 -41t-50 -9q-29 7 -41 31q-5 -14 -12 -40.5t-10 -35.5q-31 -115 -31 -223zM429 1952q7 26 30 39 q22 13 47.5 7t40.5 -28l168 -280q13 -24 8.5 -47t-25.5 -41q-31 -19 -55 -12.5t-39 30.5l-168 283q-14 23 -7 49z" />
<glyph unicode="&#xd3;" horiz-adv-x="1175" d="M-8 842q0 285 164 565q25 42 63 58t78 -7q11 -7 25 -31q130 125 305 125q111 0 213.5 -52t173.5 -134q137 -155 137 -399q0 -170 -64 -355q-52 -154 -134 -277.5t-191.5 -200.5t-224.5 -77q-196 0 -355 213q-190 265 -190 572zM125 815q0 -117 43.5 -239.5t118.5 -229.5 q64 -85 136.5 -126.5t143.5 -33.5q115 23 227.5 153t174.5 316q51 162 51 308q0 214 -113 333q-53 55 -131 92t-160 37q-66 0 -123 -26.5t-111 -95t-87 -175.5l2 5q-6 -26 -28 -41t-50 -9q-29 7 -41 31q-5 -14 -12 -40.5t-10 -35.5q-31 -115 -31 -223zM429 1649.5 q-3 26.5 11 52.5l164 274q14 22 38 28t50 -7q23 -13 30 -39.5t-7 -48.5l-170 -283q-39 -57 -94 -18q-19 15 -22 41.5z" />
<glyph unicode="&#xd4;" horiz-adv-x="1175" d="M-8 842q0 285 164 565q25 42 63 58t78 -7q11 -7 25 -31q130 125 305 125q111 0 213.5 -52t173.5 -134q137 -155 137 -399q0 -170 -64 -355q-52 -154 -134 -277.5t-191.5 -200.5t-224.5 -77q-196 0 -355 213q-190 265 -190 572zM125 815q0 -117 43.5 -239.5t118.5 -229.5 q64 -85 136.5 -126.5t143.5 -33.5q115 23 227.5 153t174.5 316q51 162 51 308q0 214 -113 333q-53 55 -131 92t-160 37q-66 0 -123 -26.5t-111 -95t-87 -175.5l2 5q-6 -26 -28 -41t-50 -9q-29 7 -41 31q-5 -14 -12 -40.5t-10 -35.5q-31 -115 -31 -223zM349 1650.5 q-4 25.5 11 45.5l166 233q8 16 29 29q12 6 29 6h16l16 -8q27 -20 31 -33l148 -240q14 -23 8 -49t-29 -39q-23 -14 -48 -8t-40 29l-106 172l-117 -164q-13 -22 -40 -26.5t-50 10.5q-20 17 -24 42.5z" />
<glyph unicode="&#xd5;" horiz-adv-x="1175" d="M-8 842q0 285 164 565q25 42 63 58t78 -7q11 -7 25 -31q130 125 305 125q111 0 213.5 -52t173.5 -134q137 -155 137 -399q0 -170 -64 -355q-52 -154 -134 -277.5t-191.5 -200.5t-224.5 -77q-196 0 -355 213q-190 265 -190 572zM125 815q0 -117 43.5 -239.5t118.5 -229.5 q64 -85 136.5 -126.5t143.5 -33.5q115 23 227.5 153t174.5 316q51 162 51 308q0 214 -113 333q-53 55 -131 92t-160 37q-66 0 -123 -26.5t-111 -95t-87 -175.5l2 5q-6 -26 -28 -41t-50 -9q-29 7 -41 31q-5 -14 -12 -40.5t-10 -35.5q-31 -115 -31 -223zM173.5 1632.5 q-7.5 27.5 2.5 50.5q58 107 154 132q144 32 350 -111q55 -37 111 -37q34 0 51 14q11 11 2 25l2 -2q-11 23 -2.5 50.5t33.5 37.5q23 9 47 1t37 -30q22 -51 12.5 -99.5t-47.5 -80.5q-54 -43 -133 -43q-88 0 -187 62h-2q-155 110 -242 88q-45 -11 -73 -66l2 2 q-10 -24 -36.5 -33t-51.5 2q-22 10 -29.5 37.5z" />
<glyph unicode="&#xd6;" horiz-adv-x="1175" d="M-8 842q0 285 164 565q25 42 63 58t78 -7q11 -7 25 -31q130 125 305 125q111 0 213.5 -52t173.5 -134q137 -155 137 -399q0 -170 -64 -355q-52 -154 -134 -277.5t-191.5 -200.5t-224.5 -77q-196 0 -355 213q-190 265 -190 572zM125 815q0 -117 43.5 -239.5t118.5 -229.5 q64 -85 136.5 -126.5t143.5 -33.5q115 23 227.5 153t174.5 316q51 162 51 308q0 214 -113 333q-53 55 -131 92t-160 37q-66 0 -123 -26.5t-111 -95t-87 -175.5l2 5q-6 -26 -28 -41t-50 -9q-29 7 -41 31q-5 -14 -12 -40.5t-10 -35.5q-31 -115 -31 -223zM408.5 1670.5 q2.5 18.5 9.5 35.5q19 39 51.5 54.5t65.5 -1.5l-3 2q40 -14 43 -67l7 12q18 39 50 54.5t66 -1.5l-2 2q26 -10 38 -42t-3 -79q-10 -25 -45 -49t-72 -4q-39 19 -43 62q-4 -4 -4 -9q-10 -25 -44 -49t-70 -4q-27 14 -37 39.5t-7.5 44z" />
<glyph unicode="&#xd7;" horiz-adv-x="763" d="M1.5 856.5q4.5 20.5 14.5 28.5q25 15 51.5 18.5t41.5 -6.5l28 -20q15 -13 66 -56t94 -80q238 295 293 324q81 40 123 -2q24 -24 24 -82q0 -43 -8 -63q-17 -28 -42 -38t-48 1q-8 4 -18 14q-109 -91 -228 -240q207 -199 287 -317q13 -22 7.5 -47.5t-25.5 -40.5 q-17 -12 -31.5 -14t-27 5.5t-19 13t-15.5 15.5q-69 107 -260 279q-80 -110 -121 -197.5t-32 -132.5q3 -31 -12 -53.5t-46 -26.5q-24 -3 -44.5 13.5t-26.5 40.5q-22 152 186 442l-43 35l-6 6q-6 -22 -37 -31q-31 -12 -56.5 5.5t-35.5 47.5l-31 119q-7 19 -2.5 39.5z" />
<glyph unicode="&#xd8;" horiz-adv-x="1175" d="M-8 842q0 285 164 565q25 42 63 58t78 -7q11 -7 25 -31q130 125 305 125q7 0 21.5 1.5t19.5 -1.5q36 105 37 109l106 324q8 47 44 67.5t71 9.5q24 -12 36.5 -36t12 -45.5t-5.5 -38.5q-10 -20 -29 -39l-133 -385q60 -26 115 -66.5t92 -85.5q137 -155 137 -399 q0 -170 -64 -355q-52 -154 -134 -277.5t-191.5 -200.5t-224.5 -77q-104 0 -199 62l-12 -43h2l-9 -25v2q-10 -46 -14 -86q53 17 80 -20q14 -27 7.5 -52.5t-30.5 -44.5q-52 -32 -94 -32q-29 0 -51 14q-43 30 -43 102q0 31 19 132l22 77q6 35 16 66q-29 33 -49 61 q-190 266 -190 572zM125 815q0 -246 154 -459q118 378 350 1069q-105 3 -193.5 -66.5t-140.5 -230.5l2 5q-6 -26 -28 -41t-50 -9q-29 7 -41 31q-5 -14 -12 -40.5t-10 -35.5q-31 -115 -31 -223zM377 248q97 -74 190 -62q115 23 227.5 153t174.5 316q51 162 51 308 q0 214 -113 333q-54 60 -143 101q-345 -1020 -387 -1149z" />
<glyph unicode="&#xd9;" horiz-adv-x="1089" d="M2 838q0 140 17 300.5t30.5 239.5t20.5 109q22 52 57.5 71t65.5 3q24 -13 38.5 -31.5t17 -37t1.5 -31.5t-4 -23q-16 -43 -35 -62q-3 -3 -18 -88.5t-31.5 -239t-16.5 -286.5q0 -356 123 -453q72 -61 193 -61q138 0 346 88v61q0 246 -30 515t-57 411.5t-38 169.5 q-33 17 -49 66q-13 47 0.5 83.5t48.5 51.5q42 19 74.5 -4.5t48.5 -75.5q10 -34 36.5 -176t60.5 -439t34 -561v-41l49 27q25 14 50.5 6t35.5 -33q13 -23 6 -47.5t-30 -38.5q-76 -41 -115 -57q-2 -73 -14 -199q-3 -24 -23 -41t-47 -14t-43.5 24t-13.5 48q8 77 10 123 q-210 -80 -371 -74q-143 10 -240 88q-100 80 -144 249t-44 380zM388 2068.5q6 25.5 28 40.5q21 13 48 7t40 -29l170 -281q12 -22 7 -45t-24 -41q-30 -20 -54.5 -13t-39.5 32l-168 282q-13 22 -7 47.5zM1071 397h2l-2 4v-4z" />
<glyph unicode="&#xda;" horiz-adv-x="1089" d="M2 838q0 140 17 300.5t30.5 239.5t20.5 109q22 52 57.5 71t65.5 3q24 -13 38.5 -31.5t17 -37t1.5 -31.5t-4 -23q-16 -43 -35 -62q-3 -3 -18 -88.5t-31.5 -239t-16.5 -286.5q0 -356 123 -453q72 -61 193 -61q138 0 346 88v61q0 246 -30 515t-57 411.5t-38 169.5 q-33 17 -49 66q-13 47 0.5 83.5t48.5 51.5q42 19 74.5 -4.5t48.5 -75.5q10 -34 36.5 -176t60.5 -439t34 -561v-41l49 27q25 14 51.5 6t36.5 -33l-2 4q15 -23 8 -49t-32 -41q-76 -41 -115 -57q-2 -73 -14 -199q-3 -24 -23 -41t-47 -14t-43.5 24t-13.5 48q8 77 10 123 q-210 -80 -371 -74q-143 10 -240 88q-100 80 -144 249t-44 380zM388 1762q-3 27 9 53l166 272q13 23 37 28.5t49 -6.5q24 -15 31 -41t-6 -47l-172 -282q-15 -25 -38.5 -32t-55.5 13q-17 15 -20 42z" />
<glyph unicode="&#xdb;" horiz-adv-x="1089" d="M2 838q0 140 17 300.5t30.5 239.5t20.5 109q22 52 57.5 71t65.5 3q24 -13 38.5 -31.5t17 -37t1.5 -31.5t-4 -23q-16 -43 -35 -62q-3 -3 -18 -88.5t-31.5 -239t-16.5 -286.5q0 -356 123 -453q72 -61 193 -61q138 0 346 88v61q0 246 -30 515t-57 411.5t-38 169.5 q-33 17 -49 66q-9 31 -6 57q-3 -5 -17 -14q-23 -12 -48 -6.5t-40 28.5l-106 170l-115 -162q-15 -23 -42 -27t-50 11q-20 17 -23.5 42.5t11.5 45.5l165 231q7 17 29 31q12 6 29 6h16l17 -8q25 -19 30 -33l150 -239q6 -18 6 -37q17 28 43 39q42 19 74.5 -4.5t48.5 -75.5 q10 -34 36.5 -176t60.5 -439t34 -561v-41l49 27q25 14 51.5 6t36.5 -33l-2 4q15 -23 8 -49t-32 -41q-76 -41 -115 -57q-2 -73 -14 -199q-3 -24 -23 -41t-47 -14t-43.5 24t-13.5 48q8 77 10 123q-210 -80 -371 -74q-143 10 -240 88q-100 80 -144 249t-44 380z" />
<glyph unicode="&#xdc;" horiz-adv-x="1089" d="M2 838q0 140 17 300.5t30.5 239.5t20.5 109q22 52 57.5 71t65.5 3q24 -13 38.5 -31.5t17 -37t1.5 -31.5t-4 -23q-16 -43 -35 -62q-3 -3 -18 -88.5t-31.5 -239t-16.5 -286.5q0 -356 123 -453q72 -61 193 -61q138 0 346 88v61q0 246 -30 515t-57 411.5t-38 169.5 q-33 17 -49 66q-13 47 0.5 83.5t48.5 51.5q42 19 74.5 -4.5t48.5 -75.5q10 -34 36.5 -176t60.5 -439t34 -561v-41l49 27q25 14 50.5 6t35.5 -33q13 -23 6 -47.5t-30 -38.5q-76 -41 -115 -57q-2 -73 -14 -199q-3 -24 -23 -41t-47 -14t-43.5 24t-13.5 48q8 77 10 123 q-210 -80 -371 -74q-143 10 -240 88q-100 80 -144 249t-44 380zM291.5 1678.5q2.5 18.5 9.5 35.5q19 39 51.5 54.5t65.5 -1.5l-2 2q40 -14 43 -69l6 14q19 39 51.5 54.5t65.5 -1.5l-2 2q26 -10 37.5 -41.5t-3.5 -78.5q-10 -25 -44.5 -49.5t-71.5 -4.5q-39 19 -43 62l-4 -8 q-7 -24 -42.5 -49t-72.5 -5q-27 14 -37 39.5t-7.5 44zM1071 397h2l-2 4v-4z" />
<glyph unicode="&#xdd;" horiz-adv-x="1130" d="M-4 1601q-1 22 10.5 44t36.5 34q40 20 81 -8t54 -72l2 -8l4 -24q10 -64 21.5 -122.5t35 -151.5t49 -161.5t64 -124.5t80.5 -67q41 -10 113 25.5t137 97.5q86 91 147.5 173.5t89 130.5t42 92.5t15.5 54.5t1 22q0 58 47 70h-2q28 11 48.5 -2t27.5 -32l6 -18l-2 2 q3 -13 0.5 -39.5t-20.5 -80t-50.5 -116.5t-99.5 -154.5t-158 -188.5q-99 -104 -211 -146q0 -32 -28 -69q-2 -2 -2 -213q0 -246 14 -588q0 -25 -18 -45t-44 -20q-25 0 -43.5 17.5t-19.5 43.5q-7 95 -22 398t-15 427q0 9 -0.5 16.5t-1 11t-1 6t-0.5 3.5t1 2q-43 14 -82 48.5 t-69 86.5t-53.5 104t-44 119t-32.5 111.5t-26 101.5q-5 23 -8 33q-9 58 -4 58q-40 22 -58 59q-3 6 -7 21.5t-5 37.5zM406.5 1612.5q-2.5 26.5 11.5 52.5l166 272q12 23 36.5 29.5t49.5 -6.5q23 -15 29.5 -40.5t-7.5 -47.5l-170 -283q-37 -58 -94 -18q-19 15 -21.5 41.5z" />
<glyph unicode="&#xde;" horiz-adv-x="737" d="M8 -23q2 4 15.5 113t30.5 283.5t22 306.5q8 148 8 446q0 60 0.5 110.5t1.5 78t2 26.5q-12 12 -18.5 40.5t-3.5 54.5q17 48 50.5 71t57.5 19q35 -8 56 -44t14 -77q0 -3 -0.5 -11t-1.5 -22t-2 -26q-9 -84 -11 -160q88 40 170 33q121 -22 199 -129q102 -146 113 -322 q15 -296 -142 -373q-41 -18 -75 -20q-72 -6 -155 23t-149 71q-26 -326 -53 -496l-2 -12q-5 -24 -22.5 -40.5t-40.5 -16.5q-13 0 -17 2q-23 6 -36.5 26.5t-10.5 44.5zM203 621q1 0 2 -2t2 -3h-2q46 -40 122 -78t138 -38q31 0 47 8q85 43 72 252q-7 123 -59 209t-117 106 q-26 9 -59 -4.5t-49.5 -26.5t-27.5 -24q-26 -29 -53 -37q-10 -138 -14 -309q0 -37 -2 -53z" />
<glyph unicode="&#xdf;" horiz-adv-x="929" d="M16 864q0 182 23 314q16 92 42.5 168t55.5 128t63.5 91.5t66.5 62t65 35.5h-2q53 23 114 23q101 0 201.5 -65t165.5 -171q72 -123 72 -248q0 -114 -60 -211q-116 -185 -350 -223q313 -203 320 -412q3 -248 -394 -448q-23 -10 -46.5 -1.5t-35.5 30.5q-11 24 -6 46t23 33 q163 80 246.5 167.5t85.5 170.5q-5 42 -31 86t-60.5 80t-83 74t-86.5 63t-84.5 51t-64.5 35.5t-37 18.5q-21 7 -30.5 27.5t-4.5 44.5v-3q6 24 24.5 37t41.5 13q50 -4 67 -4q133 0 240 47.5t160 132.5q43 70 43 145q0 88 -58 182q-45 75 -115.5 126t-140.5 51q-15 0 -69 -13 q-76 -31 -132 -133t-81 -256q-21 -129 -21 -289q0 -318 95 -809q38 -43 38 -92q0 -51 -45 -80q-12 -9 -35.5 -5.5t-47 13t-41.5 40.5t-19 75q0 8 -4 31q-1 10 -9.5 76t-14.5 115t-15 135.5t-14.5 159.5t-10 164t-4.5 171z" />
<glyph unicode="&#xe0;" horiz-adv-x="720" d="M-8 313q0 133 38 266.5t99 200.5q83 83 176 74q88 -14 146 -59q36 48 92 34q36 -11 55 -30t20 -39t-3.5 -35.5t-12.5 -24.5q-7 -8 -13.5 -64t-6.5 -126q0 -120 25 -229.5t83 -174.5v3q20 -21 18.5 -47t-22.5 -44h2q-20 -16 -45 -16q-26 0 -45 23q-98 106 -129 297 q-93 -243 -238 -306l2 2q-40 -16 -69 -16q-69 0 -115 64q-57 80 -57 247zM117 309q0 -120 35 -170q9 -14 30 -6q50 22 91.5 78t66 117t41.5 123.5t23 98.5t6 42v4q-20 10 -28 31.5t1 52.5q2 5 -12 15t-35.5 20t-40.5 14h-10q-29 0 -64 -35v2q-46 -51 -75 -163.5t-29 -223.5z M316.5 1191.5q5.5 25.5 27.5 39.5q22 12 47.5 6t40.5 -27l166 -276q12 -22 7.5 -45.5t-23.5 -40.5q-30 -20 -55 -13.5t-38 31.5l-165 277q-13 23 -7.5 48.5z" />
<glyph unicode="&#xe1;" horiz-adv-x="720" d="M-8 313q0 133 38 266.5t99 200.5q83 83 176 74q88 -14 146 -59q36 48 92 34q36 -11 55 -30t20 -39t-3.5 -35.5t-12.5 -24.5q-7 -8 -13.5 -64t-6.5 -126q0 -120 25 -229.5t83 -174.5v3q20 -21 18.5 -47t-22.5 -44h2q-20 -16 -45 -16q-26 0 -45 23q-98 106 -129 297 q-93 -243 -238 -306l2 2q-40 -16 -69 -16q-69 0 -115 64q-57 80 -57 247zM117 309q0 -120 35 -170q9 -14 30 -6q50 22 91.5 78t66 117t41.5 123.5t23 98.5t6 42v4q-20 10 -28 31.5t1 52.5q2 5 -12 15t-35.5 20t-40.5 14h-10q-29 0 -64 -35v2q-46 -51 -75 -163.5t-29 -223.5z M326.5 916q-2.5 27 9.5 53l164 268q12 22 35.5 27.5t48.5 -7.5q23 -13 29.5 -38.5t-7.5 -47.5l-168 -278q-15 -25 -37.5 -31.5t-54.5 12.5q-17 15 -19.5 42z" />
<glyph unicode="&#xe2;" horiz-adv-x="720" d="M-8 313q0 133 38 266.5t99 200.5q83 83 176 74q88 -14 146 -59q36 48 92 34q36 -11 55 -30t20 -39t-3.5 -35.5t-12.5 -24.5q-7 -8 -13.5 -64t-6.5 -126q0 -120 25 -229.5t83 -174.5v3q20 -21 18.5 -47t-22.5 -44h2q-20 -16 -45 -16q-26 0 -45 23q-98 106 -129 297 q-93 -243 -238 -306l2 2q-40 -16 -69 -16q-69 0 -115 64q-57 80 -57 247zM117 309q0 -120 35 -170q9 -14 30 -6q50 22 91.5 78t66 117t41.5 123.5t23 98.5t6 42v4q-20 10 -28 31.5t1 52.5q2 5 -12 15t-35.5 20t-40.5 14h-10q-29 0 -64 -35v2q-46 -51 -75 -163.5t-29 -223.5z M181.5 951.5q-3.5 25.5 11.5 45.5l163 228q7 16 27 28q21 7 23 7h22l16 -9q27 -17 29 -32l148 -236q14 -22 8 -47.5t-29 -38.5q-23 -14 -47 -8t-41 29l-104 167l-113 -159q-15 -22 -41.5 -27t-48.5 10q-20 17 -23.5 42.5z" />
<glyph unicode="&#xe3;" horiz-adv-x="720" d="M-45 1063.5q-8 27.5 2 48.5q54 105 152 131q68 14 157 -13.5t187 -94.5q55 -37 108 -37q33 0 49 12q13 10 4 27l2 -2q-11 21 -3 48t32 36q24 10 47 2t37 -29q21 -50 11.5 -97.5t-46.5 -80.5q-52 -41 -129 -41q-91 0 -184 61h-2q-157 109 -238 84q-46 -11 -73 -63l2 2 q-9 -24 -35 -33t-51 2q-21 10 -29 37.5zM-10 313q0 132 38.5 266t100.5 201q83 83 176 74q88 -14 146 -59q14 21 38.5 31t53.5 3q36 -11 55 -30t20 -39t-3.5 -35.5t-12.5 -24.5q-7 -8 -13.5 -64t-6.5 -126q0 -286 108 -404v3q20 -21 18.5 -47t-22.5 -44h2q-20 -16 -45 -16 q-26 0 -45 23q-98 106 -129 297q-93 -243 -238 -306l2 2q-40 -16 -69 -16q-69 0 -115 64q-59 83 -59 247zM117 309q0 -124 35 -170q9 -14 30 -6q50 22 91.5 78t66 117t41.5 123.5t23 98.5t6 42v4q-21 10 -29 31t2 53q2 5 -12.5 15t-36 20t-39.5 14h-10q-29 0 -64 -35v2 q-46 -51 -75 -163.5t-29 -223.5z" />
<glyph unicode="&#xe4;" horiz-adv-x="720" d="M-8 313q0 133 38 266.5t99 200.5q83 83 176 74q88 -14 146 -59q36 48 92 34q36 -11 55 -30t20 -39t-3.5 -35.5t-12.5 -24.5q-7 -8 -13.5 -64t-6.5 -126q0 -120 25 -229.5t83 -174.5v3q20 -21 18.5 -47t-22.5 -44h2q-20 -16 -45 -16q-26 0 -45 23q-98 106 -129 297 q-93 -243 -238 -306l2 2q-40 -16 -69 -16q-69 0 -115 64q-57 80 -57 247zM117 309q0 -120 35 -170q9 -14 30 -6q50 22 91.5 78t66 117t41.5 123.5t23 98.5t6 42v4q-20 10 -28 31.5t1 52.5q2 5 -12 15t-35.5 20t-40.5 14h-10q-29 0 -64 -35v2q-46 -51 -75 -163.5t-29 -223.5z M291.5 992.5q2.5 18.5 9.5 35.5q19 38 50.5 52.5t64.5 -1.5l-2 2q18 -5 30 -23t13 -44l6 14q18 37 49.5 52.5t62.5 -1.5l-2 2q27 -8 39 -39.5t-4 -78.5q-7 -23 -41.5 -48t-70.5 -6q-40 22 -43 64q-4 -8 -4 -10q-10 -25 -44 -49t-71 -5q-26 14 -35.5 39.5t-7 44z" />
<glyph unicode="&#xe5;" horiz-adv-x="720" d="M-8 313q0 133 38 266.5t99 200.5q83 83 176 74q88 -14 146 -59q36 48 92 34q36 -11 55 -30t20 -39t-3.5 -35.5t-12.5 -24.5q-7 -8 -13.5 -64t-6.5 -126q0 -120 25 -229.5t83 -174.5v3q20 -21 18.5 -47t-22.5 -44h2q-20 -16 -45 -16q-26 0 -45 23q-98 106 -129 297 q-93 -243 -238 -306l2 2q-40 -16 -69 -16q-69 0 -115 64q-57 80 -57 247zM117 309q0 -120 35 -170q9 -14 30 -6q50 22 91.5 78t66 117t41.5 123.5t23 98.5t6 42v4q-20 10 -28 31.5t1 52.5q2 5 -12 15t-35.5 20t-40.5 14h-10q-29 0 -64 -35v2q-46 -51 -75 -163.5t-29 -223.5z M225 1040q0 50 6 99q7 38 27 98q-5 32 8 66q9 23 29.5 34t40.5 10.5t37 -8.5l-4 4q10 -2 22 -14q74 -5 126 -41t71 -96q19 -78 -30.5 -167t-137.5 -140q-36 -20 -70 -20.5t-50 7t-26 17.5l5 -2q-54 42 -54 153zM356 989l9 4q58 30 86 79t20 87q-14 44 -82 47l-20 -92 q-13 -61 -13 -98v-27z" />
<glyph unicode="&#xe6;" horiz-adv-x="1122" d="M-4 313q0 132 38.5 266t100.5 201q83 83 176 74q88 -14 146 -59q14 21 38.5 31t53.5 3q41 -11 55 -28q99 70 225 59q82 -7 130 -78.5t51 -165.5q3 -102 -52 -188.5t-157 -93.5q-113 -5 -211 61l4 -20q9 -87 36.5 -156.5t76.5 -85.5q55 -19 132.5 27t139.5 108 q17 17 42.5 18t45.5 -14h2q19 -19 20 -45t-18 -45v2q-13 -15 -39.5 -39t-73 -59.5t-105.5 -59.5t-114 -24q-33 0 -71 12q-153 52 -199 295q-86 -228 -231 -293l2 2q-40 -16 -70 -16q-69 0 -115 64q-59 83 -59 247zM123 309q0 -124 35 -170q7 -15 30 -6q49 22 90.5 78t66 117 t41.5 123.5t23.5 99t6.5 41.5v4q-21 10 -29 31t2 53q3 8 -29 25.5t-61 23.5h-8q-29 0 -64 -35v2q-47 -50 -75.5 -162t-28.5 -225zM621 588l4 -23q0 -5 20 -31t61 -52t85 -21q35 4 57.5 32.5t29 59t5.5 59.5q-2 47 -21.5 84.5t-50.5 38.5q-86 -12 -137 -65q-22 -22 -53 -82z " />
<glyph unicode="&#xe7;" horiz-adv-x="622" d="M-4 356q-8 177 76 324q65 111 180 147q45 10 104 2t101 -26q30 0 63.5 -29t43 -66t-22.5 -71h2q-25 -25 -68.5 -21t-75.5 33q-8 7 -19 14t-34 19t-42.5 13t-45.5 -5q-59 -29 -101 -119t-36 -209q13 -202 92 -237q60 -15 148.5 32t146.5 103q15 19 40.5 20t45.5 -16h2 q19 -19 20 -45t-18 -45v2q-56 -65 -156 -123q69 -78 60 -141q-8 -39 -35 -66h2q-29 -25 -74 -36q-50 -13 -98 -13q-111 0 -215 80l92 88q59 -43 121 -43q40 0 67 8q12 3 15 -4q0 19 -78 74q-24 -6 -51 -6q-38 0 -76 14q-164 59 -176 348z" />
<glyph unicode="&#xe8;" horiz-adv-x="677" d="M8 618q3 18 20 35t40 23q19 39 63 90q35 35 81 58t81 28t66.5 8.5t37.5 -0.5q82 -7 130 -78.5t51 -165.5q2 -64 -18 -124.5t-70 -106.5t-121 -51q-109 -5 -211 61l4 -20q27 -215 112 -242q56 -19 134.5 27t140.5 108q15 17 40.5 18t45.5 -14h2q20 -19 21 -45t-19 -45v2 q-10 -13 -38.5 -38.5t-73.5 -60t-105 -59t-115 -24.5q-33 0 -71 12q-168 57 -205 344q-6 53 -6 97q0 40 2 63q-33 57 -19 100zM188 588l5 -23q0 -2 7.5 -13.5t22.5 -28t34 -32t46.5 -24.5t54.5 -6t47 20t30 40.5t14.5 47t3.5 43.5q-2 47 -21.5 84.5t-50.5 38.5 q-86 -11 -137 -65q-25 -23 -56 -82zM260 1225q6 26 29 39q22 12 47.5 6t38.5 -27l166 -276q13 -22 8.5 -45t-23.5 -41q-31 -19 -55 -12.5t-39 30.5l-166 279q-12 21 -6 47z" />
<glyph unicode="&#xe9;" horiz-adv-x="677" d="M8 618q3 18 20 35t40 23q19 39 63 90q35 35 81 58t81 28t66.5 8.5t37.5 -0.5q82 -7 130 -78.5t51 -165.5q2 -64 -18 -124.5t-70 -106.5t-121 -51q-109 -5 -211 61l4 -20q27 -215 112 -242q56 -19 134.5 27t140.5 108q15 17 40.5 18t45.5 -14h2q20 -19 21 -45t-19 -45v2 q-10 -13 -38.5 -38.5t-73.5 -60t-105 -59t-115 -24.5q-33 0 -71 12q-168 57 -205 344q-6 53 -6 97q0 40 2 63q-33 57 -19 100zM188 588l5 -23q0 -2 7.5 -13.5t22.5 -28t34 -32t46.5 -24.5t54.5 -6t47 20t30 40.5t14.5 47t3.5 43.5q-2 47 -21.5 84.5t-50.5 38.5 q-86 -11 -137 -65q-25 -23 -56 -82zM254.5 916q-2.5 27 9.5 53l162 268q14 22 37.5 27.5t48.5 -7.5q23 -13 30 -38.5t-7 -47.5l-168 -278q-15 -24 -38 -31t-55 12q-17 15 -19.5 42z" />
<glyph unicode="&#xea;" horiz-adv-x="677" d="M8 618q3 18 20 35t40 23q19 39 63 90q35 35 81 58t81 28t66.5 8.5t37.5 -0.5q82 -7 130 -78.5t51 -165.5q2 -64 -18 -124.5t-70 -106.5t-121 -51q-109 -5 -211 61l4 -20q27 -215 112 -242q56 -19 134.5 27t140.5 108q15 17 40.5 18t45.5 -14h2q20 -19 21 -45t-19 -45v2 q-10 -13 -38.5 -38.5t-73.5 -60t-105 -59t-115 -24.5q-33 0 -71 12q-168 57 -205 344q-6 53 -6 97q0 40 2 63q-33 57 -19 100zM144 954.5q-4 24.5 10 46.5l165 228q6 15 27 28q21 7 23 7h22l17 -9q23 -14 28 -32l148 -236q13 -21 7.5 -47t-28.5 -39q-25 -14 -49 -8t-39 29 l-104 168l-115 -160q-14 -22 -40 -27t-48 10q-20 17 -24 41.5zM188 588l5 -23q0 -2 7.5 -13.5t22.5 -28t34 -32t46.5 -24.5t54.5 -6t47 20t30 40.5t14.5 47t3.5 43.5q-2 47 -21.5 84.5t-50.5 38.5q-86 -11 -137 -65q-25 -23 -56 -82z" />
<glyph unicode="&#xeb;" horiz-adv-x="677" d="M8 618q3 18 20 35t40 23q19 39 63 90q35 35 81 58t81 28t66.5 8.5t37.5 -0.5q82 -7 130 -78.5t51 -165.5q2 -64 -18 -124.5t-70 -106.5t-121 -51q-109 -5 -211 61l4 -20q27 -215 112 -242q56 -19 134.5 27t140.5 108q15 17 40.5 18t45.5 -14h2q20 -19 21 -45t-19 -45v2 q-10 -13 -38.5 -38.5t-73.5 -60t-105 -59t-115 -24.5q-33 0 -71 12q-168 57 -205 344q-6 53 -6 97q0 40 2 63q-33 57 -19 100zM188 588l5 -23q0 -2 7.5 -13.5t22.5 -28t34 -32t46.5 -24.5t54.5 -6t47 20t30 40.5t14.5 47t3.5 43.5q-2 47 -21.5 84.5t-50.5 38.5 q-86 -11 -137 -65q-25 -23 -56 -82zM201 981q3 19 10 35q17 38 49.5 53t63.5 0v2q16 -6 28 -24t13 -43l6 12q17 38 49.5 53t64.5 0l-2 2q26 -10 38 -42t-3 -79q-10 -23 -44 -46.5t-71 -4.5q-39 19 -43 62q-2 -4 -2 -11q-10 -23 -44 -46.5t-70 -4.5q-26 14 -36 38.5t-7 43.5z " />
<glyph unicode="&#xec;" d="M-4 1247.5q6 25.5 27 38.5q23 13 48 7.5t40 -27.5l165 -277q12 -21 8 -45t-24 -39q-29 -21 -53 -14t-39 31l-166 278q-12 22 -6 47.5zM55 748q0 17 7 42.5t31.5 51t60.5 20.5q39 -6 60.5 -36.5t21.5 -71.5q0 -36 -13 -62q-2 -3 -5 -37.5t-5 -98.5t-2 -134q0 -228 25 -424 v2q6 -28 -10 -48t-48 -26q-26 0 -44 15.5t-21 40.5q-20 148 -34.5 339t-19 296t-4.5 131z" />
<glyph unicode="&#xed;" d="M-5.5 934.5q-2.5 26.5 11.5 52.5l162 268q14 22 37.5 28.5t48.5 -5.5q23 -15 29 -41t-7 -47l-167 -279q-17 -24 -39.5 -30t-53.5 14q-19 13 -21.5 39.5zM55 748q0 17 7 42.5t31.5 51t60.5 20.5q39 -6 60.5 -36.5t21.5 -71.5q0 -36 -13 -62q-2 -3 -5 -37.5t-5 -98.5 t-2 -134q0 -228 25 -424v2q6 -28 -10 -48t-48 -26q-26 0 -44 15.5t-21 40.5q-20 148 -34.5 339t-19 296t-4.5 131z" />
<glyph unicode="&#xee;" d="M-83.5 941.5q-4.5 25.5 9.5 45.5l164 227q7 17 29 31q1 0 8 2t14 2h21l18 -6q25 -22 29 -33l147 -237q13 -21 7 -47t-29 -39t-47 -8t-39 28l-105 168l-114 -160q-14 -22 -40 -26.5t-48 12.5q-20 15 -24.5 40.5zM55 748q0 17 7 42.5t31.5 51t60.5 20.5q39 -6 60.5 -36.5 t21.5 -71.5q0 -36 -13 -62q-2 -3 -5 -37.5t-5 -98.5t-2 -134q0 -228 25 -424v2q6 -28 -10 -48t-48 -26q-26 0 -44 15.5t-21 40.5q-20 148 -34.5 339t-19 296t-4.5 131z" />
<glyph unicode="&#xef;" d="M-25 1001.5q3 18.5 11 36.5q17 37 48.5 52t63.5 0l-2 2q40 -14 43 -68l6 14q17 37 49.5 52t63.5 0v2q26 -10 37.5 -41t-2.5 -78q-10 -24 -44.5 -48t-70.5 -5q-40 22 -43 61l-4 -8q-10 -24 -43.5 -48t-69.5 -5q-27 14 -36.5 38.5t-6.5 43zM55 748q0 17 7 42.5t31.5 51 t60.5 20.5q39 -6 60.5 -36.5t21.5 -71.5q0 -36 -13 -62q-2 -3 -5 -37.5t-5 -98.5t-2 -134q0 -228 25 -424v2q6 -28 -10 -48t-48 -26q-26 0 -44 15.5t-21 40.5q-20 148 -34.5 339t-19 296t-4.5 131z" />
<glyph unicode="&#xf0;" horiz-adv-x="667" d="M10 379q0 61 14 124t31.5 107.5t40 85.5t34 57.5t17.5 24.5q17 26 44 42t55 16q-21 21 -35 53q-25 -19 -37 -49l2 2q-10 -24 -37.5 -32t-48.5 3q-23 13 -31.5 37t2.5 47q49 94 127 123q0 2 5 12q14 50 51.5 77.5t91.5 27.5q25 0 43 -18.5t18 -43.5q0 -30 -24 -51 q45 -16 92 -49q22 -16 28.5 -36t-1 -36t-22 -28.5t-35 -13.5t-40.5 9l-20 11l26 -17q106 -64 156 -114h-2q28 -25 47 -64q33 -59 33 -137q0 -92 -38 -191t-87 -172q-121 -186 -260 -186q-55 0 -98 29.5t-68 70.5q-74 142 -74 279zM143 371q0 -106 56 -207q21 -31 51 -31 q31 0 70 32t77 91h2q45 70 74 149t29 144q0 46 -15 76q-12 22 -34 38t-44 22.5t-43.5 9.5t-34.5 2.5t-14 -1.5l-6 -14l-2 -6q-37 -52 -86 -62q-80 -117 -80 -243z" />
<glyph unicode="&#xf1;" horiz-adv-x="794" d="M-10 1047.5q-7 27.5 4 48.5q55 108 151 129q142 32 342 -109q55 -37 109 -37q32 0 51 15q13 10 4 24l2 -2q-12 22 -3.5 49t32.5 37q23 9 46.5 1.5t35.5 -27.5q23 -50 13.5 -98.5t-48.5 -80.5q-51 -43 -129 -43q-92 0 -182 62h-2q-156 108 -238 86q-50 -12 -74 -64l2 2 q-10 -24 -37 -33t-51 1q-21 12 -28 39.5zM33 610q0 154 16 234q24 86 103 86q35 0 54 -27.5t19 -66.5q0 -57 -35 -95q-1 -1 -5.5 -32.5t-8.5 -92t-4 -120.5q0 -139 31 -228q175 301 270 506q9 27 36 49t62 17q28 -5 43.5 -29t15.5 -47t-1 -37v2q-2 -10 -6.5 -47t-9.5 -109.5 t-5 -138.5q0 -313 99 -366q23 -12 31.5 -36.5t-3.5 -47.5l2 2q-18 -37 -57 -37q-18 0 -27 6l2 -2q-144 60 -174 461q-2 18 -3 30t-1.5 13.5t-1 6.5t-0.5 10v24q-145 -271 -217 -383v-2q-19 -31 -51 -35q-34 -6 -60 24q-114 162 -114 508z" />
<glyph unicode="&#xf2;" horiz-adv-x="706" d="M16 381q0 51 10 104t24.5 93.5t32.5 79t32.5 62t26.5 42.5l12 18q26 39 68 51.5t79 -14.5q40 4 55 4q88 0 153 -35t101 -98q31 -64 31 -135q0 -89 -38 -188t-87 -177q-122 -184 -260 -184q-53 0 -97 30t-69 70q-74 139 -74 277zM152 373q0 -108 55 -207q21 -31 49 -31 q67 0 152 125h-2q45 70 74.5 149t29.5 144q0 47 -16 74q-17 33 -58.5 53t-74.5 25t-33 2q-12 -29 -19 -37q-33 -48 -80 -54q-77 -113 -77 -243zM252.5 1193q6.5 25 28.5 40q22 12 47.5 6t38.5 -27l165 -276q13 -23 9 -47t-23 -39q-30 -20 -54.5 -13.5t-39.5 31.5l-166 277 q-12 23 -5.5 48z" />
<glyph unicode="&#xf3;" horiz-adv-x="706" d="M16 381q0 51 10 104t24.5 93.5t32.5 79t32.5 62t26.5 42.5l12 18q26 39 68 51.5t79 -14.5q40 4 55 4q88 0 153 -35t101 -98q31 -64 31 -135q0 -89 -38 -188t-87 -177q-122 -184 -260 -184q-53 0 -97 30t-69 70q-74 139 -74 277zM152 373q0 -108 55 -207q21 -31 49 -31 q67 0 152 125h-2q45 70 74.5 149t29.5 144q0 47 -16 74q-17 33 -58.5 53t-74.5 25t-33 2q-12 -29 -19 -37q-33 -48 -80 -54q-77 -113 -77 -243zM252.5 887q-2.5 26 9.5 51l162 270q13 22 37 27.5t49 -6.5q23 -13 29.5 -38.5t-7.5 -47.5l-167 -279q-15 -24 -38 -30.5 t-55 12.5q-17 15 -19.5 41z" />
<glyph unicode="&#xf4;" horiz-adv-x="706" d="M16 381q0 51 10 104t24.5 93.5t32.5 79t32.5 62t26.5 42.5l12 18q26 39 68 51.5t79 -14.5q40 4 55 4q88 0 153 -35t101 -98q31 -64 31 -135q0 -89 -38 -188t-87 -177q-122 -184 -260 -184q-53 0 -97 30t-69 70q-74 139 -74 277zM119 945.5q-4 25.5 10 45.5l164 228 q7 17 29 28q12 6 22 6h21l18 -8q25 -18 29 -33l147 -235q13 -21 7 -47t-29 -39q-23 -14 -47 -8.5t-39 28.5l-105 168l-115 -159q-14 -22 -40 -27t-48 12q-20 15 -24 40.5zM152 373q0 -108 55 -207q21 -31 49 -31q67 0 152 125h-2q45 70 74.5 149t29.5 144q0 47 -16 74 q-17 33 -58.5 53t-74.5 25t-33 2q-12 -29 -19 -37q-33 -48 -80 -54q-77 -113 -77 -243z" />
<glyph unicode="&#xf5;" horiz-adv-x="706" d="M-51 1053.5q-7 27.5 4 48.5q54 104 149 129q145 29 344 -109q55 -37 109 -37q34 0 49 15q12 9 4 24l2 -2q-11 21 -3 48.5t32 37.5q23 9 47 1.5t37 -29.5q21 -50 11.5 -97.5t-46.5 -78.5q-54 -43 -129 -43q-91 0 -184 61h-2q-155 107 -238 86q-46 -11 -74 -66l2 2 q-9 -24 -35.5 -32t-50.5 2q-21 12 -28 39.5zM18 381q0 71 17 141.5t45 126t42.5 80t31.5 48.5q2 2 2 3q26 39 67 51.5t78 -14.5q40 4 57 4q87 0 152.5 -35.5t99.5 -97.5q31 -55 31 -135q0 -89 -38 -188t-87 -177q-122 -184 -258 -184q-54 0 -97.5 29.5t-70.5 70.5 q-72 135 -72 277zM152 373q0 -108 55 -207q21 -31 51 -31q31 0 70.5 33t79.5 92h-2q46 68 75 148t29 145q0 46 -14 74q-18 33 -60 53t-75 25t-33 2q-6 -21 -19 -37q-33 -48 -80 -54q-77 -119 -77 -243z" />
<glyph unicode="&#xf6;" horiz-adv-x="706" d="M16 381q0 51 10 104t24.5 93.5t32.5 79t32.5 62t26.5 42.5l12 18q26 39 68 51.5t79 -14.5q40 4 55 4q88 0 153 -35t101 -98q31 -64 31 -135q0 -89 -38 -188t-87 -177q-122 -184 -260 -184q-53 0 -97 30t-69 70q-74 139 -74 277zM152 373q0 -108 55 -207q21 -31 49 -31 q67 0 152 125h-2q45 70 74.5 149t29.5 144q0 47 -16 74q-17 33 -58.5 53t-74.5 25t-33 2q-12 -29 -19 -37q-33 -48 -80 -54q-77 -113 -77 -243zM219.5 992.5q2.5 18.5 9.5 35.5q19 38 50.5 52.5t64.5 -1.5l-2 2q16 -5 29 -23.5t14 -43.5l6 14q18 38 49 52.5t64 -1.5l-2 2 q26 -8 38.5 -39.5t-3.5 -78.5q-10 -25 -43.5 -49t-69.5 -5q-40 20 -43 64q-4 -8 -4 -10q-10 -25 -44 -49t-71 -5q-26 14 -35.5 39.5t-7 44z" />
<glyph unicode="&#xf7;" horiz-adv-x="901" d="M14 545q12 32 47 54t119 38q71 12 195 12q257 0 454 -55l-2 2q26 -6 40.5 -29.5t6.5 -48.5q-6 -23 -28.5 -38t-46.5 -11q-232 43 -424 43q-75 0 -128 -4.5t-71.5 -9.5t-21.5 -9q-10 -18 -34.5 -30t-45.5 -10q-41 5 -54.5 36.5t-5.5 59.5zM346 369q4 28 29 54.5t65 18.5 q30 -6 45 -29t13 -43.5t-2 -33.5q-4 -35 -35 -56.5t-62 -15.5l2 -2q-31 8 -47.5 38.5t-7.5 68.5zM393 858q9 31 32.5 56.5t63.5 17.5q28 -5 42.5 -27.5t13.5 -43.5t-2 -36q-6 -36 -36 -57.5t-61 -13.5v2q-30 9 -44.5 37t-8.5 65z" />
<glyph unicode="&#xf8;" horiz-adv-x="706" d="M16 381q0 51 10 104t24.5 93.5t32.5 79t32.5 62t26.5 42.5l12 18q29 42 68 55.5t77 -16.5h12q8 24 30 84t32 94l45 138q9 42 44 63.5t66 11.5q24 -12 36.5 -36t12 -45t-5.5 -37q-18 -35 -36 -48l6 3q1 1 -9 -26.5t-34 -94t-43 -119.5q100 -26 155 -119q31 -64 31 -135 q0 -89 -38 -188t-87 -177q-122 -184 -260 -184q-22 0 -68 12q-9 -49 -12 -77q53 17 78 -21q14 -27 7.5 -51.5t-30.5 -42.5q-56 -33 -92 -33q-27 0 -51 16q-39 26 -39 101q0 46 19 143q6 29 16 66q-68 128 -68 264zM150 371q0 -25 2 -37q39 129 92 284q-4 -2 -13 -2 q-81 -113 -81 -245zM223 145q13 -10 33 -10q67 0 152 125h-2q45 70 74.5 149t29.5 144q0 47 -16 74q-21 40 -86 55q-85 -229 -185 -537z" />
<glyph unicode="&#xf9;" horiz-adv-x="653" d="M47 377q0 8 1 27t1 28l8 170l9 111q-26 48 8.5 110.5t79.5 59.5q94 -8 79 -121q0 -3 -1.5 -12l-4 -24t-4.5 -26q-47 -192 -49 -274q-12 -277 76 -299h-2q63 -12 114 27q40 31 66.5 80t34.5 85q-5 74 -8.5 161t-4 130.5t0.5 59.5t5.5 32.5t14.5 36.5t30.5 30.5t49.5 6.5 q42 -7 62 -38.5t20 -71.5q0 -24 -9 -45.5t-22 -30.5q-6 -6 -6 -268q0 -200 25 -232v2q18 -19 13.5 -48t-26.5 -44q-15 -12 -37 -12q-30 0 -45 18q-26 37 -37 94q-39 -39 -49 -47q-70 -55 -159 -55q-33 0 -60 6q-174 41 -174 373zM216 1226q6 25 28 40q22 12 47.5 6t38.5 -27 l168 -276q25 -48 -17 -86q-30 -20 -54.5 -13.5t-37.5 31.5l-166 277q-13 23 -7 48z" />
<glyph unicode="&#xfa;" horiz-adv-x="653" d="M47 377q0 8 1 27t1 28l8 170l9 111q-26 48 8.5 110.5t79.5 59.5q94 -8 79 -121q0 -3 -1.5 -12l-4 -24t-4.5 -26q-47 -192 -49 -274q-12 -277 76 -299h-2q63 -12 114 27q40 31 66.5 80t34.5 85q-5 74 -8.5 161t-4 130.5t0.5 59.5t5.5 32.5t14.5 36.5t30.5 30.5t49.5 6.5 q42 -7 62 -38.5t20 -71.5q0 -24 -9 -45.5t-22 -30.5q-6 -6 -6 -268q0 -200 25 -232v2q18 -19 13.5 -48t-26.5 -44q-15 -12 -37 -12q-30 0 -45 18q-26 37 -37 94q-39 -39 -49 -47q-70 -55 -159 -55q-33 0 -60 6q-174 41 -174 373zM228.5 930.5q-2.5 26.5 9.5 52.5l161 268 q14 22 37.5 28.5t48.5 -5.5q23 -15 30 -40.5t-7 -47.5l-168 -279q-15 -24 -37.5 -30t-54.5 14q-17 13 -19.5 39.5z" />
<glyph unicode="&#xfb;" horiz-adv-x="653" d="M47 377q0 8 1 27t1 28l8 170l9 111q-26 48 8.5 110.5t79.5 59.5q94 -8 79 -121q0 -3 -1.5 -12l-4 -24t-4.5 -26q-47 -192 -49 -274q-12 -277 76 -299h-2q63 -12 114 27q40 31 66.5 80t34.5 85q-5 74 -8.5 161t-4 130.5t0.5 59.5t5.5 32.5t14.5 36.5t30.5 30.5t49.5 6.5 q42 -7 62 -38.5t20 -71.5q0 -24 -9 -45.5t-22 -30.5q-6 -6 -6 -268q0 -200 25 -232v2q18 -19 13.5 -48t-26.5 -44q-15 -12 -37 -12q-30 0 -45 18q-26 37 -37 94q-39 -39 -49 -47q-70 -55 -159 -55q-33 0 -60 6q-174 41 -174 373zM148 939.5q-4 25.5 10 45.5l166 227 q8 20 26 31q12 4 23 4h22l17 -6q23 -17 28 -33l148 -235q13 -23 7.5 -48t-28.5 -40q-24 -13 -48.5 -8t-39.5 28l-104 170l-115 -162q-14 -22 -40 -26.5t-48 12.5q-20 15 -24 40.5z" />
<glyph unicode="&#xfc;" horiz-adv-x="653" d="M47 377q0 8 1 27t1 28l8 170l9 111q-26 48 8.5 110.5t79.5 59.5q94 -8 79 -121q0 -3 -1.5 -12l-4 -24t-4.5 -26q-47 -192 -49 -274q-12 -277 76 -299h-2q63 -12 114 27q40 31 66.5 80t34.5 85q-5 74 -8.5 161t-4 130.5t0.5 59.5t5.5 32.5t14.5 36.5t30.5 30.5t49.5 6.5 q42 -7 62 -38.5t20 -71.5q0 -24 -9 -45.5t-22 -30.5q-6 -6 -6 -268q0 -200 25 -232v2q18 -19 13.5 -48t-26.5 -44q-15 -12 -37 -12q-30 0 -45 18q-26 37 -37 94q-39 -39 -49 -47q-70 -55 -159 -55q-33 0 -60 6q-174 41 -174 373zM208.5 998q2.5 19 10.5 36q18 37 50 52.5 t63 -1.5l-2 2q40 -14 43 -67l6 14q18 37 50 52.5t65 -1.5l-2 2q26 -10 37 -40.5t-3 -77.5q-10 -24 -44 -48.5t-70 -5.5q-40 22 -43 62q-1 -1 -2 -3l-1.5 -3t-0.5 -2q-7 -23 -42 -48t-71 -6q-27 14 -36.5 39t-7 44z" />
<glyph unicode="&#xfd;" horiz-adv-x="886" d="M16 776q-23 44 15 90q37 37 98 21q11 -3 72.5 -42.5t176 -116t169.5 -112.5l16 -12q35 110 74 224.5t45 123.5q22 40 57 56.5t68 1.5q41 -19 53.5 -63.5t-24.5 -84.5q-47 -51 -154 -338l27 -16q23 -17 28.5 -41.5t-8.5 -46.5q-7 -13 -24.5 -21t-32.5 -8q-14 3 -31 12 q-59 -197 -59 -366q0 -158 61 -289q10 -23 1.5 -49t-32.5 -35l4 4q-16 -10 -38 -10q-37 7 -50 39q-73 146 -73 346q0 197 69 432l-12 8q-19 11 -84.5 51.5t-109 66.5t-98.5 58.5t-89 49.5t-43 18q-49 5 -72 49zM398.5 996q-2.5 27 11.5 53l161 268q12 23 35.5 28.5 t48.5 -6.5q23 -15 30 -40.5t-5 -47.5l-168 -278q-39 -56 -94 -17q-17 13 -19.5 40z" />
<glyph unicode="&#xfe;" horiz-adv-x="743" d="M12 57q2 3 15 111t30 279.5t23 300.5q8 148 8 440q0 59 0.5 108.5t1.5 76.5t2 26q-12 12 -18.5 39t-3.5 53q17 49 49.5 71.5t56.5 18.5q34 -8 54.5 -43.5t13.5 -77.5q0 -3 -0.5 -10.5t-1.5 -20.5l-2 -26q-6 -56 -9 -158q37 17 84 26.5t84 6.5q120 -23 195 -127 q98 -141 111 -315q12 -293 -140 -369q-46 -16 -73 -18q-134 -10 -299 92q-25 -306 -54 -490l-2 -10q-3 -22 -21.5 -39.5t-39.5 -17.5q-13 0 -17 2q-22 6 -36 27t-11 44zM203 690l4 -4h-2q46 -40 121.5 -78.5t136.5 -38.5q27 0 45 11q79 36 70 247q-7 119 -58.5 204.5 t-113.5 107.5q-26 8 -58 -5.5t-49.5 -28.5t-26.5 -26q-27 -27 -51 -35q0 -3 -16 -303q0 -37 -2 -51z" />
<glyph unicode="&#xff;" horiz-adv-x="886" d="M16 776q-23 44 15 90q37 37 98 21q11 -3 72.5 -42.5t176 -116t169.5 -112.5l16 -12q35 110 74 224.5t45 123.5q22 40 57 56.5t68 1.5q41 -19 53.5 -63.5t-24.5 -84.5q-47 -51 -154 -338l27 -16q23 -17 28.5 -41.5t-8.5 -46.5q-7 -13 -24.5 -21t-32.5 -8q-14 3 -31 12 q-59 -197 -59 -366q0 -158 61 -289q10 -23 1.5 -49t-32.5 -35l4 4q-16 -10 -38 -10q-37 7 -50 39q-73 146 -73 346q0 197 69 432l-12 8q-19 11 -84.5 51.5t-109 66.5t-98.5 58.5t-89 49.5t-43 18q-49 5 -72 49zM385 1130q3 19 10 35q18 38 50 53t65 -1l-2 2q16 -5 28 -24 t13 -44l6 14q19 38 50.5 53t64.5 -1l-2 2q26 -8 37.5 -40t-3.5 -79q-10 -25 -43.5 -48.5t-70.5 -4.5q-41 23 -41 63q-4 -8 -4 -10q-10 -24 -44.5 -48t-70.5 -5q-26 14 -36 39t-7 44z" />
<glyph unicode="&#x152;" horiz-adv-x="2021" d="M0 842q0 285 164 565q25 42 63 58t78 -7q14 -9 27 -31q130 125 303 125q97 0 189 -40.5t163 -108.5v16q0 63 57 97q1 27 2.5 44.5t8.5 44.5t18.5 42.5t34.5 24.5t55 3q50 -10 66 -69q81 21 145 24q62 -5 126 -30.5t110 -56.5t86.5 -66t59 -55.5t24.5 -28.5 q11 -23 6 -49.5t-25 -38.5q-19 -15 -39.5 -10t-33 14t-21.5 20q0 2 -15 18.5t-44 41.5t-64.5 49.5t-83.5 43t-94 21.5q-58 4 -166 -67q-35 -333 -39 -480q64 5 164 5q248 0 453 -60q26 -9 37.5 -30.5t3.5 -47.5l2 2q-4 -26 -29 -39t-51 -4h2q-167 49 -357 49 q-105 0 -227 -18q1 -178 15 -308.5t36 -200.5t42.5 -104t43.5 -48q55 -34 148 32h-2q336 238 373 269q6 19 26 34q22 12 37 18t39.5 1.5t40.5 -29.5l-2 2q35 -52 -27 -100l-39 -33l2 2q8 8 3 4q-9 -6 -29 -22q-100 -73 -348 -248q-103 -70 -185 -70q-61 0 -102 29 q-124 78 -176 354q-2 12 -3 19.5t-1.5 10l-1 5t-1 4t-1 6.5t-1.5 14t-2 25q-90 -189 -222 -305.5t-277 -116.5q-195 0 -352 213q-193 265 -193 572zM135 815q0 -118 42.5 -240.5t117.5 -228.5q136 -175 280 -160q115 23 227.5 153t174.5 316q27 84 33 127q-18 -6 -19 -2l4 8 q-13 -24 -48 -46.5t-87 -14.5q-23 5 -43 28.5t-20 53.5q0 55 63 92q0 5 178 29l-3 6t-5 19.5t-2 35.5q-10 197 -113 305q-51 55 -129.5 92t-160.5 37q-102 0 -186.5 -70t-135.5 -227l2 5q-6 -26 -27.5 -41t-48.5 -9q-32 7 -41 31q-6 -14 -24 -76q-29 -107 -29 -223z" />
<glyph unicode="&#x153;" horiz-adv-x="1189" d="M25 381q0 71 17 141.5t45 126.5t42.5 80.5t30.5 47.5q2 2 2 3q26 39 67.5 51.5t79.5 -14.5q36 4 56 4q140 0 223 -90q9 16 30 37q35 35 80.5 57t81 27t67 8.5t38.5 -0.5q82 -7 129.5 -78t50.5 -166q3 -102 -52 -188.5t-157 -93.5q-113 -5 -211 61l4 -20 q9 -87 36.5 -156.5t76.5 -85.5q55 -19 132.5 27t139.5 108q17 17 42.5 18t45.5 -14h2q19 -19 20 -45t-18 -45v2q-14 -16 -40 -39.5t-72 -59t-105 -59.5t-114 -24q-35 0 -72 12q-62 21 -105.5 70.5t-70.5 136.5q-3 -4 -7.5 -10.5t-10 -13t-7.5 -9.5q-122 -184 -258 -184 q-54 0 -97.5 29.5t-68.5 70.5q-73 132 -73 277zM158 373q0 -104 57 -207q5 -11 19 -21t30 -10q64 0 152 125q78 125 96 246q0 8 2 12q-31 53 -20 100q0 9 4 13q-19 31 -59.5 50t-71.5 24t-31 2q-8 -19 -19 -37q-39 -49 -79 -54q-80 -117 -80 -243zM676 588l4 -23 q0 -5 20 -31t61 -52t85 -21q35 4 57.5 32.5t29 59t5.5 59.5q-2 47 -21.5 84.5t-50.5 38.5q-86 -12 -137 -65q-22 -22 -53 -82z" />
<glyph unicode="&#x178;" horiz-adv-x="1130" d="M-4 1601q-1 22 10.5 44t36.5 34q40 20 81 -8t54 -72l2 -8l4 -24q10 -64 21.5 -122.5t35 -151.5t49 -161.5t64 -124.5t80.5 -67q41 -10 113 25.5t137 97.5q86 91 147.5 173.5t89 130.5t42 92.5t15.5 54.5t1 22q0 58 47 70h-2q28 11 48.5 -2t27.5 -32l6 -18l-2 2 q3 -13 0.5 -39.5t-20.5 -80t-50.5 -116.5t-99.5 -154.5t-158 -188.5q-99 -104 -211 -146q0 -32 -28 -69q-2 -2 -2 -213q0 -246 14 -588q0 -25 -18 -45t-44 -20q-25 0 -43.5 17.5t-19.5 43.5q-7 95 -22 398t-15 427q0 9 -0.5 16.5t-1 11t-1 6t-0.5 3.5t1 2q-43 14 -82 48.5 t-69 86.5t-53.5 104t-44 119t-32.5 111.5t-26 101.5q-5 23 -8 33q-9 58 -4 58q-40 22 -58 59q-3 6 -7 21.5t-5 37.5zM386 1779.5q3 19.5 11 35.5q17 38 50 53t65 0l-2 2q40 -14 43 -70l6 15q19 38 52 53t65 0l-2 2q26 -10 38.5 -42.5t-3.5 -80.5q-11 -24 -45.5 -47.5 t-71.5 -3.5q-39 19 -43 61q-4 -8 -4 -10q-8 -23 -43 -47t-72 -4q-27 14 -37 39t-7 44.5z" />
<glyph unicode="&#x2c6;" horiz-adv-x="454" d="M-6 1373.5q-4 25.5 10 45.5l168 232q6 15 27 30q21 7 30 7h15l18 -9q24 -18 29 -32l149 -240q14 -23 8.5 -49t-28.5 -41q-54 -26 -90 22l-105 170l-116 -161q-15 -23 -42 -27.5t-49 10.5q-20 17 -24 42.5z" />
<glyph unicode="&#x2dc;" horiz-adv-x="827" d="M19 1291.5q-7 28.5 4 49.5q27 52 66.5 87t86.5 45q146 32 348 -111q58 -37 111 -37q33 0 51 14q13 10 4 25l2 -2q-12 23 -3.5 50.5t32.5 37.5q25 9 48.5 1t37.5 -30q22 -50 11.5 -99t-48.5 -81q-54 -43 -131 -43q-48 0 -99 19.5t-87 44.5h-2q-158 107 -242 86 q-49 -12 -74 -66l2 2q-10 -24 -37 -33t-53 2q-21 10 -28 38.5z" />
<glyph unicode="&#x2000;" horiz-adv-x="1059" />
<glyph unicode="&#x2001;" horiz-adv-x="2118" />
<glyph unicode="&#x2002;" horiz-adv-x="1059" />
<glyph unicode="&#x2003;" horiz-adv-x="2118" />
<glyph unicode="&#x2004;" horiz-adv-x="706" />
<glyph unicode="&#x2005;" horiz-adv-x="529" />
<glyph unicode="&#x2006;" horiz-adv-x="353" />
<glyph unicode="&#x2007;" horiz-adv-x="353" />
<glyph unicode="&#x2008;" horiz-adv-x="264" />
<glyph unicode="&#x2009;" horiz-adv-x="423" />
<glyph unicode="&#x200a;" horiz-adv-x="117" />
<glyph unicode="&#x2010;" horiz-adv-x="901" d="M10 623q27 67 166 90q86 14 203 14q240 0 444 -55q26 -9 39 -29.5t8 -44.5q-4 -26 -27 -40t-48 -9q-247 43 -426 43q-75 0 -129 -5t-71 -9.5t-17 -6.5q-8 -20 -35.5 -34.5t-50.5 -10.5h2q-38 4 -52 36.5t-6 60.5z" />
<glyph unicode="&#x2011;" horiz-adv-x="901" d="M10 623q27 67 166 90q86 14 203 14q240 0 444 -55q26 -9 39 -29.5t8 -44.5q-4 -26 -27 -40t-48 -9q-247 43 -426 43q-75 0 -129 -5t-71 -9.5t-17 -6.5q-8 -20 -35.5 -34.5t-50.5 -10.5h2q-38 4 -52 36.5t-6 60.5z" />
<glyph unicode="&#x2012;" horiz-adv-x="901" d="M10 623q27 67 166 90q86 14 203 14q240 0 444 -55q26 -9 39 -29.5t8 -44.5q-4 -26 -27 -40t-48 -9q-247 43 -426 43q-75 0 -129 -5t-71 -9.5t-17 -6.5q-8 -20 -35.5 -34.5t-50.5 -10.5h2q-38 4 -52 36.5t-6 60.5z" />
<glyph unicode="&#x2013;" horiz-adv-x="890" d="M8 575v5q-6 28 7.5 57.5t52.5 32.5q23 4 49.5 -11t34.5 -36q0 -3 21.5 -9.5t89.5 -14t165 -7.5q172 0 369 29h-2q25 6 47.5 -9.5t25.5 -42.5q3 -22 -11 -44.5t-36 -28.5q-181 -41 -379 -41q-162 0 -270 24q-137 29 -164 96z" />
<glyph unicode="&#x2014;" horiz-adv-x="1228" d="M10 580q-6 27 8.5 57t53.5 33q21 4 47.5 -11t34.5 -36q1 -3 67.5 -10.5t201.5 -15t279 -7.5q204 0 424 26h-2q25 6 47.5 -9t26.5 -42q3 -22 -11.5 -44t-37.5 -29q-160 -37 -524 -37q-357 0 -451 24h2q-83 17 -117 40.5t-47 55.5z" />
<glyph unicode="&#x2018;" horiz-adv-x="206" d="M31 1679q-3 24 13.5 45.5t43.5 22.5q25 2 46 -14.5t24 -42.5l30 -328q3 -29 -12.5 -49.5t-50.5 -20.5q-26 0 -43.5 16.5t-20.5 41.5z" />
<glyph unicode="&#x2019;" horiz-adv-x="215" d="M31 1395l30 295q3 26 23 42.5t45 14.5q27 -1 44.5 -22t14.5 -48l-30 -297q-3 -24 -26 -41t-50 -14q-24 3 -39 23t-12 47z" />
<glyph unicode="&#x201a;" horiz-adv-x="223" d="M2 -62q-4 22 29 70q13 12 26 8q-13 5 -26.5 21.5t-20.5 46.5t13 68q21 40 56.5 57t67.5 0l-2 2q37 -17 46.5 -59t1.5 -74q-15 -42 -47.5 -79t-79.5 -56h2q-62 -27 -66 -5z" />
<glyph unicode="&#x201c;" horiz-adv-x="397" d="M23 1677q-3 25 13 46t42 24q25 3 46.5 -13t25.5 -42l30 -297q3 -27 -12.5 -47t-40.5 -23q-26 -3 -48.5 14t-25.5 41zM195 1362l30 328q3 27 24 43.5t48 13.5q24 -3 41.5 -24.5t15.5 -43.5l-32 -329q-3 -25 -20.5 -41.5t-41.5 -16.5q-36 0 -52 20.5t-13 49.5z" />
<glyph unicode="&#x201d;" horiz-adv-x="407" d="M31 1679q-2 24 15 45.5t44 22.5q25 2 46 -14.5t24 -42.5l30 -328q3 -29 -13 -49.5t-52 -20.5q-24 0 -41.5 16.5t-20.5 41.5zM205 1395l31 295q3 27 23.5 43.5t47.5 13.5q25 -3 41.5 -24t13.5 -46l-30 -297q-3 -23 -26 -40.5t-46 -14.5q-26 3 -42 22.5t-13 47.5z" />
<glyph unicode="&#x201e;" horiz-adv-x="366" d="M4 -52q3 12 10 25.5t19 34.5q13 12 26 8q-13 5 -26.5 21.5t-21 46.5t11.5 68q22 40 58.5 57t68.5 0l-3 2q22 -11 37 -41q22 31 54 41.5t61 -2.5l-2 2q25 -11 38.5 -38.5t12.5 -52t-4 -42.5q-15 -42 -48 -79t-81 -56h2q-26 -11 -41.5 -13.5t-20.5 2t-2 16.5t10 25.5 t19 34.5q13 13 27 8q-17 9 -31 25q-41 -70 -112 -98h2q-26 -11 -41.5 -13.5t-20.5 2t-2 16.5z" />
<glyph unicode="&#x2022;" horiz-adv-x="235" d="M20 629q0 39 17 82l14 10q25 31 74 31q26 0 50.5 -21.5t33.5 -52.5v4q5 -12 6.5 -28t-2 -36t-19 -41.5t-40.5 -39.5q-33 -23 -58 -23q-14 0 -37 14l-10 4q-29 29 -29 97z" />
<glyph unicode="&#x2026;" horiz-adv-x="565" d="M5.5 122q2.5 19 10.5 36q17 38 50 53t65 0l-2 2q28 -10 39.5 -42.5t-4.5 -80.5q-7 -22 -42.5 -47t-72.5 -6q-27 15 -36.5 40.5t-7 44.5zM186 121.5q3 18.5 11 36.5q17 38 49.5 53t64.5 0l-2 2q27 -10 39.5 -42.5t-2.5 -80.5q-10 -24 -45 -48t-72 -5q-27 15 -36.5 40.5 t-6.5 44zM366.5 121.5q2.5 19.5 10.5 36.5q17 38 50 53t67 0l-2 2q26 -10 37.5 -42.5t-3.5 -80.5q-11 -24 -45 -48t-71 -5q-26 15 -36 40t-7.5 44.5z" />
<glyph unicode="&#x202f;" horiz-adv-x="423" />
<glyph unicode="&#x2039;" horiz-adv-x="843" d="M-8 383q-7 67 186 317q172 226 264 306q79 63 133 63q33 0 54.5 -16.5t27.5 -34.5q1 -18 1.5 -40t-20 -44.5t-58.5 -28.5q-31 -4 -50 2q-14 -12 -30.5 -27.5t-63 -64t-90 -101.5t-103.5 -136.5t-112 -171.5q77 -49 268 -132q272 -112 381 -141l2 -2q24 -7 37 -23.5 t10 -35.5q-9 -31 -31 -51.5t-53 -12.5q-119 30 -417 158q-92 40 -158 73t-99.5 54t-52 40.5t-22 28.5t-4.5 21z" />
<glyph unicode="&#x203a;" horiz-adv-x="765" d="M3 994.5q-4 21.5 5 54.5q4 11 10 19.5t13 13t14.5 7t16.5 2t16 -1t15.5 -3t13 -4t11 -4.5t7.5 -3q25 -15 297.5 -240t306.5 -268q31 -43 25 -90q-12 -66 -89.5 -137.5t-205.5 -159.5l-19 -12h2q-141 -104 -149 -121l2 2q-7 -24 -27.5 -37.5t-50.5 -7.5q-26 7 -39.5 32 t-5.5 50q12 38 60 80t155 117q67 47 105.5 75.5t83 68.5t51.5 62q-61 70 -545 439q-11 2 -24 8.5t-32 21.5t-23 36.5z" />
<glyph unicode="&#x205f;" horiz-adv-x="529" />
<glyph unicode="&#x20ac;" horiz-adv-x="1447" d="M31 750q3 67 125 102v37q0 43 2 59v31l-6 -2q-6 -15 -21 -24t-24.5 -11t-14.5 -2q-28 3 -46 23t-15 47q3 73 145 108q54 331 257 527.5t517 218.5q252 13 355 -127q90 -122 90 -324q0 -55 -6 -115q-2 -46 -32 -76.5t-71 -27.5q-30 3 -55 31h2q-30 35 -27 84q0 44 23 67 v-4q6 6 6 107q0 122 -37 172v-2q-82 99 -240 88q-262 -19 -428.5 -170.5t-220.5 -425.5q117 16 324 16q19 0 57 -1t58 -1q25 0 44 -19.5t19 -45.5q0 -25 -20 -43.5t-46 -18.5h-92q-224 0 -364 -18q-2 -23 -2 -68q-2 -20 -2 -61q144 16 358 16q16 0 51.5 -1t53.5 -1 q25 0 44 -19t19 -45q0 -28 -19.5 -45.5t-46.5 -17.5h-92q-216 0 -360 -18q42 -297 213 -471q153 -156 360 -150q85 3 140.5 24.5t72.5 57.5q16 40 -14 74q-10 16 -33.5 21.5t-46.5 -1.5q-19 -3 -37.5 12.5t-27.5 42.5q-4 27 10 47.5t41 26.5h-2q55 13 107 -5t89 -64v2 q47 -53 47 -131q0 -41 -14 -76q-79 -149 -330 -158h-16q-260 0 -438 184q-202 205 -246 539l-16 -8q-13 -35 -60 -35q-29 3 -46.5 22t-14.5 46z" />
<glyph unicode="&#x2122;" horiz-adv-x="1634" d="M44 1587.5q7 45.5 38 85.5q60 79 242 76q22 22 53 20q25 -2 49 -26q72 -12 137 -39.5t103 -53.5t72 -59.5t42 -44.5t15 -22q21 -50 -23 -76v2q-16 -13 -34.5 -9.5t-30 11t-19.5 16.5q-18 35 -61 66q-34 26 -83 48t-82 31l-32 9q-12 -234 -12 -451q0 -163 8 -251 q0 -23 -14 -44.5t-45 -21.5q-22 0 -39.5 15.5t-20.5 37.5q-14 155 -14 434q0 80 2 178t2 115q-92 0 -113 -30q-4 -4 -4 -5q16 -28 13 -51q-4 -32 -27.5 -53.5t-52.5 -21.5q-17 3 -35 16.5t-27 30.5q-14 22 -7 67.5zM827 1522v64.5t0.5 56t1 42.5t0.5 29.5v11.5q5 32 28 52.5 t54 17.5q62 -4 62 -82q184 -371 219 -399h4q46 15 115 112.5t114 202.5l5 68q5 35 28.5 56.5t52.5 17.5q32 -6 48 -28.5t15 -48t-13 -46.5q-9 -53 -25 -247t-16 -327v-59q21 -2 36.5 -16t16.5 -39q7 -117 -55 -132l6 5q-7 -4 -21 -5t-37 9t-39 36q-29 53 -32 201 q0 46 10 213q1 14 1.5 22t1 10l1 4t1 4.5t1 10.5t0.5 23q-120 -163 -219 -166q-47 0 -80 29q-40 35 -162 276q-4 -110 -4 -182q0 -185 21 -379q2 -19 -11.5 -42.5t-46.5 -23.5q-24 0 -40 14.5t-19 37.5q-23 202 -23 596z" />
<glyph unicode="&#x25fc;" horiz-adv-x="860" d="M0 0v860h860v-860h-860z" />
<glyph unicode="&#xfb01;" horiz-adv-x="1232" d="M39 223q36 75 148.5 168.5t197.5 136.5q-8 148 -8 226q0 230 45 364q27 81 62 136t72 80t69.5 33t64.5 3h-2q116 -20 217 -180h-2q39 -56 62 -111v2l6 -26q4 -37 -6.5 -64t-30 -39.5t-37 -17.5t-31.5 -4q-46 0 -75.5 31.5t-16.5 82.5q3 13 -10 68v-2q-53 130 -94 135 q-22 2 -43 -13.5t-38 -44.5t-28 -54.5t-22 -55.5q-37 -115 -37 -321q0 -111 6 -189q40 4 65 4q184 0 379 -137q18 -12 25 -37q-14 263 -14 351q0 12 4 29.5t13.5 39.5t30 35t48.5 10q39 -6 61.5 -37t22.5 -71q0 -38 -15 -62q-2 -3 -5 -37.5t-5 -98.5t-2 -134q0 -234 27 -424 v2q5 -28 -11.5 -48t-48.5 -26q-26 0 -44 15.5t-21 40.5q-21 165 -39 389q0 -7 -8 -19q-18 -24 -43 -30t-47 10h2q-169 114 -314 114q-33 0 -51 -4q25 -263 82.5 -592t99.5 -519t48 -205q5 -22 -10 -42.5t-42 -27.5h-12q-49 0 -61 45h2q-13 45 -52 218t-95.5 491t-82.5 577 q-58 -48 -114.5 -119.5t-59.5 -103.5q-10 -52 -42.5 -70t-76.5 -8q-32 7 -59 43.5t-4 93.5zM981 1085q3 44 37 78h-2q29 26 65 23q48 -7 68 -51l-2 2q14 -25 14 -64q-3 -51 -37 -82q-25 -22 -63 -18q-37 3 -60.5 36t-19.5 76z" />
<glyph unicode="&#xfb02;" horiz-adv-x="1216" d="M39 223q36 75 148.5 168.5t197.5 136.5q-8 148 -8 226q0 230 45 364q27 81 62 136t72 80t69.5 33t64.5 3h-2q116 -20 217 -180q38 -57 60 -111v2l6 -26q4 -37 -6.5 -64t-30 -39.5t-37 -17.5t-31.5 -4q-46 0 -75.5 31.5t-16.5 82.5q3 13 -10 68v-2q-53 130 -94 135 q-22 2 -43 -13.5t-38 -44.5t-28 -54.5t-22 -55.5q-37 -115 -37 -321q0 -111 6 -189q40 4 65 4q184 0 379 -137q20 -15 26.5 -38.5t-5.5 -43.5q-19 -24 -44.5 -30t-47.5 10h2q-169 114 -314 114q-33 0 -51 -4q25 -263 82.5 -592t99.5 -519t48 -205q5 -22 -10 -42.5t-42 -27.5 h-12q-49 0 -61 45h2q-13 45 -52 218t-95.5 491t-82.5 577q-58 -48 -114.5 -119.5t-59.5 -103.5q-10 -52 -42.5 -70t-76.5 -8q-32 7 -59 43.5t-4 93.5zM961.5 1665q-2.5 20 2.5 32t14.5 26.5t31.5 22.5t53 9q38 2 62 -24.5t29.5 -52t4.5 -42.5q0 -24 -2 -51 q-29 -609 -29 -1022q0 -459 39 -616q6 -26 -5 -47t-36 -27q-8 -4 -18 -4q-54 0 -66 45q-29 119 -45 432.5t-18 508.5t-4 531q0 183 -2 220v4q-5 17 -7 26t-4.5 29z" />
</font>
</defs>
</svg>
