<?xml version="1.0" standalone="no"?>
<!DOCTYPE svg PUBLIC "-//W3C//DTD SVG 1.1//EN" "http://www.w3.org/Graphics/SVG/1.1/DTD/svg11.dtd" >
<svg xmlns="http://www.w3.org/2000/svg" xmlns:xlink="http://www.w3.org/1999/xlink" version="1.1">
<metadata></metadata>
<defs>
<font id="sherlyregular" horiz-adv-x="286" >
<font-face units-per-em="2048" ascent="1536" descent="-512" />
<missing-glyph horiz-adv-x="614" />
<glyph horiz-adv-x="0" />
<glyph horiz-adv-x="682" />
<glyph horiz-adv-x="0" />
<glyph horiz-adv-x="0" />
<glyph unicode="&#xd;" horiz-adv-x="614" />
<glyph unicode=" "  horiz-adv-x="614" />
<glyph unicode="&#x09;" horiz-adv-x="614" />
<glyph unicode="&#xa0;" horiz-adv-x="614" />
<glyph unicode="!" horiz-adv-x="247" d="M49 72q4 20 20 38t42 13q19 -4 27.5 -20t7 -30.5t-2.5 -23.5q-4 -26 -23 -41t-38 -10q-20 5 -29.5 25.5t-3.5 48.5zM61 614q-4 221 7 503t22 460.5t10 185.5q-3 11 1.5 34.5t21.5 43.5t38 22t35 -6t21 -20q15 -21 12.5 -47t-9 -43t-13.5 -25q-3 -3 -11 -47.5t-20.5 -141 t-23 -220t-16.5 -310t-3 -387.5q1 -13 -9.5 -23.5t-25.5 -12.5q-15 0 -25 10t-12 24z" />
<glyph unicode="&#x22;" horiz-adv-x="276" d="M39 1724q0 15 11 26t26 11q14 0 24.5 -10.5t10.5 -24.5l2 -342q0 -39 -39 -36q-14 2 -23.5 11.5t-9.5 22.5zM152 1724q0 15 10.5 26t25.5 11q14 0 24.5 -10.5t10.5 -24.5l2 -342q0 -39 -39 -36q-14 2 -23 11.5t-9 22.5z" />
<glyph unicode="#" horiz-adv-x="1048" d="M51 735q-6 22 15 43q10 10 42 34.5t106.5 67t147.5 66.5q-32 342 -40 354q-9 18 -11 33q-2 20 6.5 42.5t34.5 25.5q19 3 33 -9.5t18.5 -25t6.5 -23.5q0 -10 26 -376q71 13 135 10q8 -1 26 -3t26 -3q1 65 1.5 128t1.5 107.5t1.5 79t1 53.5t0.5 21q0 19 11.5 40.5 t39.5 20.5q26 -1 36.5 -22t10.5 -43q0 -13 -8 -33q-11 -25 -21 -377q93 -39 162 -123q9 -11 8 -25.5t-12 -23.5q-12 -10 -27 -9t-24 13q-45 54 -107 90q-2 -66 -2 -202q0 -66 2 -97q145 26 265 41q15 1 27 -7.5t14 -22.5q1 -15 -8 -26.5t-23 -14.5q-144 -16 -273 -43 q2 -58 7.5 -175t5.5 -161q0 -14 -10 -25t-23 -12h-2q-15 0 -26 11t-11 26q0 66 -10 321q-80 -18 -152 -43q2 -21 11 -126.5t14 -164.5q1 -15 -8.5 -25.5t-24.5 -12.5h-4q-13 0 -23 9t-12 23q-10 110 -22 269q-88 -41 -111 -86q0 -13 -12.5 -27t-26.5 -16q-24 -5 -38.5 10.5 t-14.5 32.5q0 26 22.5 54t89.5 68q43 24 84 39q-15 185 -34 385q-115 -46 -226 -131q52 -27 70 -47q24 -32 3.5 -61.5t-54.5 -24.5q-22 1 -64 56.5t-47 72.5zM442 893q9 -122 31 -381q85 27 154 41q-2 39 -2 115q-2 82 -2 229q-18 4 -58 8q-61 3 -123 -12z" />
<glyph unicode="$" horiz-adv-x="790" d="M33 258q3 15 16 22.5t27 4.5q167 -41 254 -47q-1 15 -6 109t-7 147q-154 256 -120 440q18 100 90 172q-25 593 -2 680q24 93 80 98q32 3 61.5 -29t40.5 -57q6 -13 0.5 -27t-18.5 -20q-12 -6 -27 -1.5t-21 17.5q-7 18 -16 27q-9 -13 -16 -43q-18 -60 -4 -588 q142 87 245 45q49 -20 91 -82t42 -112q0 -68 -47 -74q-38 -5 -52.5 35t-2.5 63q1 3 -9 24t-28 45.5t-35 31.5q-71 29 -190 -52q-2 -1 -6 -4t-6 -4q4 -174 20 -561q21 -38 55 -84l2 -2q21 -30 30.5 -44t25.5 -43t20.5 -47.5t3 -42t-13.5 -42.5q-27 -41 -107 -47 q2 -50 6.5 -137.5t6.5 -118.5q0 -37 -37 -37q-15 0 -25 9.5t-10 23.5q-1 18 -10 260q-104 6 -275 49q-14 3 -21.5 16t-4.5 27zM266 922q-19 -108 43 -252q-12 216 -16 325q-19 -36 -27 -73zM393 379l6 -141q45 2 52 16q16 23 -58 125z" />
<glyph unicode="%" horiz-adv-x="909" d="M46 1331q-1 16 5 35q4 12 8.5 20.5t9.5 13.5t10.5 8t10 4t9.5 0.5t8.5 -1.5t6.5 -2.5t4 -2.5l1 -1q36 70 135 70q46 0 90 -40t64 -100q7 -25 8.5 -51.5t-5 -67.5t-38 -85.5t-86.5 -83.5t-103 -39q-37 0 -67 26q-44 40 -61 122.5t-9 158.5zM131 1266q-5 -56 3.5 -107.5 t31.5 -71.5q23 -23 78 17q41 29 65 60.5t30.5 60.5t5.5 50t-7 40q-12 39 -38 63.5t-46 24.5q-56 0 -72 -33q-18 -35 29 -96q9 -10 7.5 -25t-13.5 -24q-11 -9 -25.5 -8t-23.5 12q-16 19 -25 37zM328 47q23 261 82.5 632t143 717.5t153.5 440.5q16 24 37 34t44 -5 q30 -30 19 -65t-45 -54q-59 -31 -145.5 -401.5t-148 -760.5t-69.5 -546q-1 -13 -12 -23t-25 -10q-17 1 -26.5 13t-7.5 28zM532 510q8 57 27 113q1 2 -0.5 9.5t-0.5 21.5t7 30q10 23 35 28.5t41 -3.5q6 -2 7.5 -9t2.5 -8q81 3 136.5 -30t72.5 -95q23 -79 -25.5 -165.5 t-144.5 -137.5q-35 -18 -69 -18q-30 0 -52 18q-66 56 -37 246zM616 317q10 -5 41 11q76 41 112 105t22 114q-9 38 -46.5 57.5t-97.5 16.5q-26 -102 -31 -125q-29 -150 0 -179z" />
<glyph unicode="&#x26;" horiz-adv-x="565" d="M43 929.5q-10 42.5 9 106.5t73 131q75 94 162 138q-22 207 -15 381.5t23 214.5q17 44 46 56t52 -3.5t27 -40.5q7 -38 -10.5 -67t-36.5 -40q-4 -4 -14 -61t-16.5 -166t13.5 -252q57 10 99 -4q35 -9 49 -45q5 -9 6 -24t-11 -33t-40 -23q-42 -8 -86 27q-5 4 -36.5 -3.5 t-77.5 -33t-77 -64.5q-41 -52 -57.5 -97.5t-12.5 -73.5t21 -46q22 -22 56 -20.5t65 24.5q9 7 21.5 7t21.5 -7q23 -20 10 -43q-19 -44 -32 -93t-16 -94.5t17 -62.5q21 -27 105 3h2q30 9 100 43q12 6 26.5 1.5t20.5 -16.5q7 -14 2.5 -28.5t-16.5 -20.5q-67 -32 -90 -41 q-6 -69 -6.5 -141.5t4 -133t11.5 -118t15.5 -101.5t15.5 -77t12 -52l5 -18q5 -14 -2 -27t-22 -16q-2 -2 -8 -2q-12 0 -22 7t-13 18q-3 10 -10.5 38.5t-21 94.5t-22 139t-14 173t3.5 196q-82 -17 -125 26q-75 70 -14 252q-77 -13 -131 41q-29 29 -39 71.5z" />
<glyph unicode="'" horiz-adv-x="161" d="M39 1724q0 15 11 26t26 11q14 0 24.5 -10.5t10.5 -24.5l2 -342q0 -39 -39 -36q-14 2 -23.5 11.5t-9.5 22.5z" />
<glyph unicode="(" horiz-adv-x="669" d="M41 938q-6 188 27.5 373t83 307.5t96 200.5t71.5 88q41 17 101.5 -11t91.5 -63q11 -14 15 -36.5t-5 -43.5q-8 -15 -25 -15.5t-31.5 7.5t-21.5 16q-26 29 -55.5 52t-42.5 24q-5 -1 -28.5 -42.5t-57 -125t-65.5 -188t-53.5 -250.5t-20.5 -293q1 -166 16.5 -308.5t37.5 -238 t52.5 -174t56.5 -122.5t54.5 -76.5t41.5 -42.5t23 -15q41 -19 81 -6.5t69 31.5t29 22q12 9 27 8t24 -12q9 -12 8.5 -27.5t-12.5 -25.5q-47 -39 -106 -55.5t-98.5 -13.5t-53.5 14q-35 28 -52 43t-55 60t-60.5 89.5t-54 126.5t-50.5 177.5t-35.5 236.5t-22.5 309z" />
<glyph unicode=")" horiz-adv-x="706" d="M28.5 -23.5q-0.5 15.5 8.5 27.5q9 11 24 12t27 -8q0 -3 29 -22t68.5 -31.5t80.5 6.5q10 5 23 15t41.5 42.5t55 76.5t56.5 122.5t52.5 174t38 238t16.5 308.5q1 147 -20.5 293t-53.5 250.5t-65.5 188t-57 125t-28.5 42.5q-14 -2 -43.5 -24.5t-55.5 -51.5q-7 -8 -21.5 -16 t-31.5 -7.5t-25 15.5q-9 21 -4.5 43.5t15.5 36.5q31 35 91 63t101 11q19 -7 53.5 -56.5t75.5 -140.5t76.5 -203.5t57 -264t16.5 -304.5q-6 -168 -22.5 -309t-35.5 -236.5t-50.5 -177.5t-54 -126.5t-60.5 -89.5t-55 -60t-52 -43q-14 -11 -53.5 -14t-98.5 13.5t-106 55.5 q-12 10 -12.5 25.5z" />
<glyph unicode="*" horiz-adv-x="610" d="M45 1577q0 13 10.5 24t24.5 11h135l16 37q6 18 31 22l10 113q2 15 13 24.5t26 8.5t25 -13t8 -26l-12 -129l14 -37h189q15 0 25.5 -10.5t10.5 -24.5q0 -15 -10.5 -26t-25.5 -11h-160l71 -178q6 -13 0.5 -27t-18.5 -20q-14 -5 -28.5 1t-18.5 19l-82 203q-4 -2 -12 -2 q-14 -3 -21 4h-2l-84 -205q-4 -13 -17.5 -19t-27.5 -1q-14 6 -20 20t0 27l71 178h-106q-14 0 -24.5 11t-10.5 26z" />
<glyph unicode="+" horiz-adv-x="899" d="M34 522q3 27 17 41q93 93 271 127q1 41 3.5 82.5t6 72t6 54.5t4.5 37t2 14q0 19 8 35q10 28 32 40t44 3q9 -3 17.5 -13.5t12 -32.5t-15.5 -52q-34 -85 -45 -228q90 14 200.5 9.5t157 -9t70.5 -8.5q15 -3 24.5 -15.5t6.5 -25.5q-1 -15 -13.5 -23.5t-27.5 -6.5 q-244 33 -420 8q-4 -206 66 -406q5 -14 -1.5 -27.5t-19.5 -17.5q-16 -6 -29 1.5t-18 19.5q-67 164 -71 415q-58 -15 -100 -37.5t-54.5 -34.5t-15.5 -18q-9 -33 -41.5 -51t-57.5 0q-22 20 -19 47z" />
<glyph unicode="," horiz-adv-x="223" d="M37 63q-5 22 10 50q15 31 41 45t49 2q26 -11 33.5 -47t-0.5 -52q-13 -38 -43 -72t-72 -50q-9 -3 -8 2q0 4 11 21q26 44 12 52q-9 4 -18.5 15.5t-14.5 33.5z" />
<glyph unicode="-" horiz-adv-x="901" d="M31 608q9 24 40.5 42t108.5 32q72 13 178.5 15t239 -12t244.5 -44q14 -5 21.5 -17.5t4.5 -25.5q-3 -15 -16 -22.5t-27 -4.5q-155 27 -283.5 37.5t-203 8t-127 -12t-71.5 -17.5t-21 -12q-4 -12 -21.5 -20.5t-31.5 -5.5q-24 3 -32.5 22.5t-2.5 36.5z" />
<glyph unicode="." horiz-adv-x="188" d="M31.5 95q2.5 14 7.5 26q12 28 34 39.5t44 1.5q18 -7 25 -28.5t-5 -57.5q-7 -17 -30.5 -35t-47.5 -6q-18 9 -24 27.5t-3.5 32.5z" />
<glyph unicode="/" horiz-adv-x="884" d="M46 -109q-2 51 20 154q19 87 179 578.5t311.5 948t152.5 462.5q6 33 30 49t47 8q26 -8 31 -39t-4 -45q-11 -27 -27 -37q-3 -3 -156 -445.5t-315 -926t-180 -567.5q-22 -108 -16 -150q1 0 14 7.5t25 15.5q31 17 51 -10q7 -14 3.5 -28.5t-15.5 -23.5q-54 -32 -86 -32 q-20 0 -35 10q-28 20 -30 71z" />
<glyph unicode="0" horiz-adv-x="940" d="M37 735q-4 75 0 191.5t9 189.5t7 92q5 32 21.5 49.5t29.5 20.5t23 2q28 -4 41.5 -30.5t7.5 -61.5q-3 -37 -31 -58q-3 -3 -12.5 -70.5t-18 -166t-5.5 -162.5q8 -189 51.5 -358.5t105.5 -243.5q13 -14 32 -24t51.5 -11t68.5 14t83.5 61.5t94.5 121.5q135 218 197 543 q30 154 23.5 279.5t-48.5 201.5q-61 112 -144.5 176.5t-177.5 73.5q-176 15 -315 -156q-9 -12 -24 -13.5t-25 7.5q-12 9 -13.5 24t7.5 27q78 97 176 144t201 38q113 -11 210.5 -84t167.5 -202q66 -132 58.5 -324.5t-72 -402.5t-162.5 -369q-61 -100 -139 -163.5 t-158.5 -72.5t-144.5 64q-74 86 -122 270.5t-54 382.5z" />
<glyph unicode="1" horiz-adv-x="319" d="M53 51l6 47q6 47 15.5 125t19 169.5t18.5 199t13 194.5q5 100 6.5 275.5t0.5 305.5t-3 132q-8 8 -13.5 29.5t-2.5 40.5q16 78 75 71q26 -4 40.5 -30t9.5 -60q-9 -46 -41 -768q-4 -88 -13 -196t-18.5 -200t-19 -171t-15.5 -127l-6 -47q-7 -31 -37 -31h-4q-15 1 -24 13.5 t-7 27.5z" />
<glyph unicode="2" horiz-adv-x="1161" d="M55 41q-6 24 15 41q107 76 220 175.5t226.5 222t204.5 246t151.5 254.5t69.5 241q15 169 -100 284q-44 43 -112.5 55t-137.5 -1.5t-135 -45.5q-44 -22 -80.5 -52.5t-56.5 -57t-33.5 -51.5t-18 -40t-2.5 -18q16 -41 7 -70.5t-31 -45.5q-37 -27 -66 0t-26 67 q3 33 16.5 72.5t42 87t83 95.5t126.5 85q76 38 162 51.5t171.5 -6t141.5 -74.5q139 -136 121 -342q-11 -139 -92 -301t-203 -311.5t-252.5 -277.5t-263.5 -232q352 19 860 127q15 3 27.5 -5.5t15.5 -23.5q3 -14 -5.5 -25.5t-23.5 -14.5q-267 -57 -504.5 -90t-327 -38.5 t-147.5 -5.5h-8q-12 0 -22 7t-13 18z" />
<glyph unicode="3" horiz-adv-x="1138" d="M29.5 1190.5q-2.5 45.5 17.5 102.5t79.5 124.5t149.5 126.5q77 50 158.5 74t148.5 22.5t117 -12.5t84 -29q66 -35 112.5 -79t69 -84.5t33 -85.5t9.5 -78t-7 -66q-21 -116 -108 -221.5t-209 -169.5q134 -22 237 -84.5t144 -150.5q15 -30 20.5 -65t0 -83.5t-40 -107 t-95.5 -117.5q-133 -127 -293 -170q-74 -20 -145 -14q-102 9 -178 73q-11 11 -12 25.5t8 25.5q11 11 25.5 12.5t25.5 -7.5q56 -48 129.5 -57t144.5 15.5t133 62.5t111 85q164 156 102 291q-50 103 -204 162t-322 39q-15 -1 -26 8t-13 24q-2 14 7 26t24 13q163 19 300 137 t165 263q38 198 -182 315q-60 33 -136 34.5t-147.5 -20.5t-142.5 -63q-44 -25 -80 -58.5t-56 -63.5t-33 -56.5t-16.5 -43t-1.5 -18.5q23 -23 23 -61q0 -28 -13 -51q-17 -33 -49 -33q-23 0 -41 18q-25 25 -27.5 70.5z" />
<glyph unicode="4" horiz-adv-x="1167" d="M49 389q-6 19 6 35q81 83 209.5 236t239.5 307q63 88 113.5 168t80 134t54.5 110.5t35 83.5t23 68.5t17 51.5q10 33 40.5 50t62.5 -5q21 16 45 12q26 -3 40 -28.5t9 -61.5q-6 -37 -33 -57q-5 -11 -26 -89t-55 -269.5t-52 -403.5q-5 -84 -12 -194q115 7 241 -19 q14 -3 23 -15.5t6 -27.5q-3 -13 -16 -21t-27 -5q-118 22 -231 16q-25 -453 -25 -823q0 -20 -13 -28.5t-24 -8.5q-14 0 -24.5 10.5t-10.5 24.5q0 413 23 817q-109 -11 -244 -56q-154 -47 -313 -47q-22 0 -44 1t-37.5 3t-27 3.5t-18.5 2.5t-8 1q-21 4 -27 24zM156 428 q181 -10 348 43q138 42 268 59q35 570 107 895q-171 -301 -318 -503q-34 -47 -69.5 -94t-71 -90.5t-64 -78t-63 -75t-52.5 -61t-49 -55t-36 -40.5z" />
<glyph unicode="5" horiz-adv-x="1130" d="M38.5 1267.5q0.5 27.5 20.5 55.5q31 31 123 90l4 45q-3 16 0 33q6 38 31 59q22 16 45 13q23 -4 36 -25t13 -49q74 40 147 70t159.5 52t163 25.5t153 -19.5t133.5 -75q11 -9 11.5 -24.5t-9.5 -26.5q-9 -10 -24 -10.5t-27 8.5q-65 55 -150.5 70.5t-165 -0.5t-166.5 -54 t-149.5 -76.5t-120.5 -82.5q-9 -61 -13.5 -127.5t-3 -152t22.5 -163t60 -127.5q44 -58 129 -61q83 0 209 4q69 2 125 1.5t97.5 -5t70 -19t41.5 -39.5q35 -60 -46 -180q-224 -334 -495 -493q-8 -4 -17 -4q-20 0 -32 18q-7 12 -3 27t17 22q254 146 471 471q53 81 41 105 q-11 20 -96.5 24t-173.5 0q-122 -4 -211 -4q-115 3 -185 88q-118 150 -104 529q-5 -10 -12 -17q-9 -10 -25 -18.5t-37 -10.5t-39 13q-19 13 -18.5 40.5z" />
<glyph unicode="6" horiz-adv-x="1032" d="M32.5 318q-2.5 14 6.5 26q2 2 17.5 23t23.5 30q-32 133 -17 277q44 509 343 786q31 28 63 52t60 40.5t53.5 30t46 22t35.5 14t24 8.5l10 3q22 3 39 -14q11 -12 5.5 -45.5t-17 -69.5t-32 -64.5t-40.5 -29.5q-29 0 -43 12q-25 18 -18 56q1 7 -22 0t-58 -26.5t-61 -43.5 q-134 -125 -215 -312.5t-103 -424.5q-9 -110 6 -203q96 97 206.5 156t205 76t180.5 5q97 -12 166.5 -57.5t95.5 -114.5q54 -132 -71 -278q-96 -114 -206 -174t-220 -60q-75 0 -148 31q-148 60 -225 225q-16 32 -19 39q-2 -4 -8 -10q-8 -12 -22.5 -14.5t-26.5 6.5t-14.5 23z M160 381q28 -96 83.5 -165t131.5 -101q117 -49 247 -1t244 183q97 114 62 207q-20 51 -74 84.5t-131 44.5q-130 15 -281 -44.5t-282 -207.5z" />
<glyph unicode="7" horiz-adv-x="1138" d="M18 1559q6 23 27 38q26 16 64 13q33 -7 49 -23q5 -4 38.5 -14t103 -22t154.5 -18t206 1t245 31q2 23 9 38.5t13.5 21t18.5 13.5q18 15 43 11q39 -9 45 -56q1 0 4 1t4 1q14 5 27.5 -2t17.5 -20q5 -14 -1 -27.5t-19 -17.5q-5 -3 -53 -15q-6 -8 -17 -16q-1 -1 -36 -107.5 t-93.5 -299t-124 -419.5t-136 -508t-120.5 -525q-3 -12 -12.5 -20.5t-21.5 -8.5h-9q-13 3 -21 16t-5 27q74 351 467 1835q-185 -31 -371 -29q-74 1 -234 12.5t-190 14.5q-34 4 -54.5 26t-17.5 48z" />
<glyph unicode="8" horiz-adv-x="1005" d="M35 1079l2 10q2 10 6 25.5t10 37t15 47t19.5 53t26 58.5t33.5 60q88 143 213 210t279 54q190 -15 248 -147q30 -61 24 -142.5t-27.5 -159.5t-57.5 -154.5t-65.5 -128t-51.5 -79.5q16 -16 65 -49t90.5 -62t77.5 -71t39 -82q5 -46 -51 -113.5t-166 -171.5 q-247 -240 -383 -247q-42 -3 -70.5 28t-29.5 84q-9 156 329 666q-8 7 -55 40t-96.5 74t-104.5 98.5t-97 136.5t-56 165q-32 -56 -55.5 -119.5t-31.5 -95.5t-8 -37q-3 -14 -15 -23t-25 -6q-15 3 -24 15t-7 26zM256 1399q12 0 23 -15q21 -21 18 -49q-3 -24 4 -59t26 -82.5 t62.5 -103t106.5 -105.5q124 -98 155 -121q25 35 53 85.5t60 120.5t51 137t24.5 135.5t-18.5 115.5q-44 93 -188 105q-233 21 -377 -164zM352 141q0 -35 17 -41q44 -12 137.5 48.5t181.5 144.5t155 162.5t66 99.5q-1 14 -23.5 39t-57.5 52.5t-67.5 51.5t-61.5 44t-31 22 q-120 -180 -220 -364t-96 -259z" />
<glyph unicode="9" horiz-adv-x="1120" d="M29 979q0 159 91.5 335t207.5 271q92 74 164 43q24 -11 55 -45q29 -3 50.5 -24t29.5 -39l41 -42q40 -43 97 -107t91 -111q36 -50 80 -132q44 44 84 91q9 11 24 11.5t27 -9.5q11 -9 11.5 -24t-9.5 -26q-6 -12 -106 -112q124 -294 -4 -580q-68 -154 -182 -270.5 t-240 -163.5t-226 -8q-55 20 -73.5 67.5t4.5 104.5q6 15 19.5 21t27.5 1q14 -6 20 -20t0 -27q-21 -62 29 -82q72 -29 176 11.5t209.5 146t169.5 248.5q110 243 14 498l-30.5 -30.5t-53 -49.5t-75.5 -65.5t-87.5 -66t-100 -65t-103 -48.5t-106.5 -30t-99.5 3.5t-93.5 39.5 q-130 97 -133 285zM100 981q3 -150 107 -229q37 -30 88.5 -33t109.5 18t119.5 55t126 83t120.5 97.5t112 102.5q-36 74 -84 142q-56 77 -181 192q-3 -29 -18 -47q-7 -10 -21.5 -16.5t-34.5 -2.5t-34 25q-25 36 -12 86q0 17 -4 33q-16 26 -13 47q-10 24 -20 29 q-25 11 -83 -30l-5 -3q-105 -86 -189 -247.5t-84 -301.5z" />
<glyph unicode=":" horiz-adv-x="235" d="M41 348q5 20 20 38t41 13q44 -8 35 -73q-4 -25 -23.5 -41t-37.5 -11q-22 4 -31.5 25t-3.5 49zM90 860q4 20 21 38t43 13q40 -8 32 -73q-4 -26 -23 -41.5t-38 -10.5q-20 6 -29.5 26t-5.5 48z" />
<glyph unicode=";" horiz-adv-x="296" d="M44.5 74.5q-5.5 19.5 8.5 42.5q12 27 34.5 39t43.5 2q22 -9 28 -40.5t-1 -45.5q-27 -78 -97 -107q-7 -2 -7.5 1.5t9.5 19.5q22 39 9 45q-8 5 -15 14.5t-12.5 29zM104.5 696q2.5 15 8.5 27q12 26 33.5 38t43.5 3q18 -9 25 -29t-4 -57q-7 -17 -30.5 -35t-47.5 -6 q-18 8 -24.5 26t-4 33z" />
<glyph unicode="&#x3c;" horiz-adv-x="864" d="M25 436q-7 57 188 309q180 234 272 314q34 28 63 42t47.5 15t33 -5t21 -13t9.5 -15q1 -5 4 -19.5t-12.5 -33t-46.5 -22.5q-27 -4 -45 4q-2 0 -28.5 -23.5t-75 -73.5t-104.5 -114.5t-125 -159.5t-128 -195q47 -42 310 -155q298 -124 401 -150q14 -5 21 -17.5t4 -27.5 q-3 -12 -16 -20t-30 -4q-144 39 -430 161q-94 40 -160 73t-98.5 52t-50.5 36.5t-20.5 24.5t-3.5 17z" />
<glyph unicode="=" horiz-adv-x="716" d="M51 752q-9 17 2 42t39 35q26 10 73 18.5t116.5 8.5t137.5 -12.5t137 -52t114 -101.5q9 -12 6.5 -26.5t-14.5 -22.5q-14 -9 -29.5 -5t-20.5 13q-43 57 -105 88.5t-118 37t-109 1t-82 -12.5t-34 -11q-9 -12 -27 -19q-59 -25 -86 19zM57 362.5q-2 10.5 9.5 28t35.5 31.5 q18 10 82 21.5t163 12t173 -23.5q13 -4 20.5 -16.5t4.5 -26.5q-4 -15 -17.5 -22t-27.5 -2q-89 26 -162.5 19t-114.5 -19.5t-45 -18.5q-13 -13 -31 -22q-11 -5 -24.5 -7.5t-33 3t-28.5 24.5q-2 8 -4 18.5z" />
<glyph unicode="&#x3e;" horiz-adv-x="765" d="M26.5 1071q-3.5 15 2.5 39q7 18 26 21.5t31 -0.5t23 -9q25 -15 303.5 -245.5t314.5 -274.5q27 -30 21 -72q-3 -27 -23 -57t-44 -55.5t-67.5 -60t-74.5 -56.5t-84 -59q-178 -127 -187 -154q-8 -33 -45 -25q-13 3 -20 17.5t-2 28.5q11 34 58 74t155 116q53 37 88.5 63 t79.5 62t68.5 65.5t27.5 51.5q0 7 -6 16q-31 38 -214 182.5t-370 286.5q-7 1 -17 5t-25.5 14.5t-19 25.5z" />
<glyph unicode="?" horiz-adv-x="950" d="M21 1277q-6 59 18 126.5t79 138.5t130 119q146 94 309 100q169 6 266 -88q22 -22 38 -48.5t27 -72.5t6.5 -98.5t-32 -128.5t-80.5 -160q-206 -328 -215 -526q-2 -37 3.5 -66t11.5 -39l6 -10q10 -11 9.5 -25.5t-9.5 -25.5q-20 -23 -51 0q-7 8 -13.5 17.5t-16.5 40 t-12.5 66t6 96.5t31.5 130.5t71 169t118 211.5q88 139 101.5 248t-48.5 170q-74 72 -218 66t-269 -86q-53 -35 -93.5 -76t-61.5 -78t-29 -69.5t0 -55t28 -29.5q18 -7 27 -14q30 -22 38.5 -50t-8.5 -52q-13 -18 -34 -20t-43 6.5t-45 25.5q-39 28 -45 87zM575 72 q-6 -28 3.5 -48.5t29.5 -25.5q19 -5 38.5 10t25.5 41q9 65 -35 74q-26 5 -42 -13t-20 -38z" />
<glyph unicode="@" horiz-adv-x="1509" d="M24 909.5q6 149.5 60 274.5q56 129 125.5 229.5t137.5 162.5t143.5 103.5t139 59t129 22t109.5 0t84 -13.5q230 -52 373.5 -236t130.5 -419q-8 -127 -34.5 -223t-59.5 -147.5t-76 -83t-77 -39.5t-68 -7q-81 4 -154.5 63t-107.5 136q-54 -120 -102 -188t-101 -75 q-57 -6 -98 25t-56 92q-8 44 -6 95.5t22 109.5t48 109t73.5 92.5t98.5 60.5q54 21 95.5 13t66 -26t32.5 -40q15 -57 -14 -68q-42 -21 -66 27q-25 42 -90 20q-67 -24 -116.5 -94t-67.5 -147.5t-4 -134.5q15 -67 74 -62q30 10 75 82q11 18 28.5 53t32.5 66t28 59.5t14 30.5 q22 45 53 37q31 -5 31 -47q-3 -64 67.5 -138.5t147.5 -78.5q93 -5 160 111t79 321q12 210 -116 373t-330 208q-55 13 -112.5 14t-120 -10.5t-123 -36.5t-121 -68t-115 -100.5t-105 -139t-89.5 -179.5q-80 -206 -53.5 -392.5t124 -328.5t238.5 -213q80 -40 168 -50 t183.5 13.5t192.5 102t177 207.5q8 12 22.5 15.5t26.5 -3.5q29 -22 10 -51q-26 -41 -56.5 -81.5t-77.5 -87.5t-98 -84t-117.5 -66t-136.5 -38.5t-155 4.5t-172 56q-140 66 -236.5 190t-135 267t-32.5 292.5z" />
<glyph unicode="A" horiz-adv-x="1122" d="M6.5 477q1.5 32 26.5 58q14 16 72.5 58.5t107.5 72.5q50 360 201 659q65 126 211 330q17 28 47 39q6 12 18 18q13 6 27 0.5t20 -18.5q13 -26 44 -112t98 -336.5t125 -553.5q4 -1 28 -8.5t37 -11.5q13 -6 19.5 -19.5t1.5 -27.5t-19 -20.5t-27 -0.5q-20 5 -26 8 q50 -276 88 -573q3 -14 -6.5 -26t-24.5 -13q-14 -3 -25.5 7t-13.5 24q-46 339 -96 604q-192 55 -350 55q-177 0 -311 -69q-15 -141 -15 -272q0 -94 8 -183q2 -14 -8.5 -26.5t-27.5 -12.5q-14 1 -24 11t-11 24q-8 95 -8 189q0 105 10 208q-49 -46 -49 -59q-2 -35 -44 -68 q-21 -17 -42 -17q-20 0 -41 15q-22 15 -20.5 47zM291 705q138 56 306 56q152 0 329 -46q-98 506 -215 846q-17 -14 -33 -17q-7 -2 -44.5 -43.5t-87 -109t-77.5 -123.5q-131 -261 -178 -563z" />
<glyph unicode="B" horiz-adv-x="901" d="M23 1221q0 81 44 204.5t117 208.5q-24 18 -34 60q-8 35 4.5 61.5t40.5 32.5q8 2 15 2q26 0 44 -24q22 -32 22 -56q76 43 175 43q56 0 120 -14q120 -28 201 -93t115 -159q18 -55 19 -114q0 -45 -10 -91q-24 -110 -97 -199q-101 -126 -320 -241q157 -7 248 -74 q53 -38 87 -94.5t40 -122.5q3 -40 3 -77q0 -112 -29 -202q-39 -121 -115 -186q-31 -27 -74 -42q-31 -11 -60 -11q-12 0 -24 2q2 -17 -15 -30.5t-44 3.5q-203 158 -267 735q-11 2 -17 19.5t11 38.5q-15 173 -15 315q0 109 9 201q3 34 3 69q0 74 -13 154q-27 -47 -46 -110.5 t-25.5 -102.5t-4.5 -41q16 -19 19 -49q4 -26 -9.5 -57t-44.5 -35q-33 -3 -53 23.5t-20 52.5zM285 1630q10 -100 10 -190q0 -69 -6 -131q-9 -92 -9 -198q0 -129 13 -280q72 31 142.5 67t163.5 101t144 129q62 76 82 166q9 39 9 77q0 48 -15 93q-57 156 -264 203 q-55 14 -104 14q-94 0 -166 -51zM305 700q4 -33 7.5 -57t21 -115.5t38 -160.5t57 -148.5t79.5 -122.5q15 18 37 15q19 -5 37 -5q46 0 84 33q64 55 96 161q24 78 23 173q0 35 -3 72q-9 100 -96 166q-38 27 -106 37q-45 7 -84 7q-20 1 -40 -1q-56 -6 -73 -21 q-10 -10 -34.5 -21t-43.5 -12z" />
<glyph unicode="C" horiz-adv-x="1191" d="M18 1417q-8 13 -8 28q0 17 9 35q17 36 71 52q23 7 64 20.5t57 18.5q0 110 69 110h3q52 -2 57 -75q86 20 160 22h11q69 0 149 -20q86 -20 177 -78.5t187 -155.5q10 -11 9.5 -26.5t-11.5 -24.5q-7 -7 -20 -9t-29 11q-215 231 -467 231q-88 0 -180 -28q-4 -76 -10 -276 q-5 -169 -5 -302v-47q2 -181 16.5 -323.5t34.5 -226.5t46.5 -142.5t48 -82t43.5 -34.5q9 -4 24 -7t40 -2t59 15.5t67 42.5q124 106 211.5 196.5t126.5 142t58.5 94t20.5 54.5t-1 21q-11 26 8 45q26 19 46.5 0t17.5 -55q-6 -83 -117 -226.5t-324 -324.5q-45 -38 -103 -58 q-52 -18 -94 -18h-8q-29 0 -63 17q-210 104 -244 870q-9 199 -14 578q-25 -14 -49 -31q-10 -20 -37 -39q-26 -18 -51 -17.5t-37.5 8.5t-18.5 17z" />
<glyph unicode="D" horiz-adv-x="1269" d="M17 1432q5 185 89 297q89 121 301 121q21 0 42 -1q358 -23 568.5 -268t227.5 -657q2 -32 2 -63q1 -194 -59 -370q-68 -204 -201 -337q-182 -185 -434 -185h-18q-170 5 -254 74q-1 -3 -2.5 -8t-2.5 -8q-3 -12 -12.5 -20.5t-21.5 -8.5q-5 0 -9 2q-13 3 -21 15t-5 26 q2 14 7 39.5t7 36.5q-15 32 -15 67q0 13 2 26q8 49 40 87q24 186 26 370q0 32 1 62q0 145 -10 252q-12 130 -29.5 234.5t-31 156t-16.5 53.5q-25 11 -43 52q-3 8 -3.5 21.5t1 29.5t10.5 30t25 19q27 9 48 -2.5t36 -46.5t25 -69t17.5 -93.5t11 -94.5t8.5 -96q1 -10 1.5 -15.5 t1 -14.5t1 -14.5t1 -13t1.5 -13.5q18 -188 18 -371q0 -193 -20 -379q26 9 53 9q20 0 41 -5q14 -3 22 -15.5t5 -27.5q-5 -14 -17.5 -21.5t-25.5 -4.5t-25 3q-36 0 -64 -26q-5 -36 -22 -137q54 -82 242 -88h16q221 0 385 164q120 123 183 313q56 168 56 356q0 24 -1 48 q-17 381 -211 607.5t-521 248.5q-16 1 -32 1q-161 0 -244 -104q-31 -39 -40 -117q-6 -50 -6 -93q0 -25 2 -45q5 -60 11 -68q17 -24 17 -52v-10q0 -32 -17 -55q-20 -20 -41 -23q-28 -1 -47.5 22t-21.5 58q-8 84 -8 130v10z" />
<glyph unicode="E" horiz-adv-x="1183" d="M11.5 817q-0.5 15 12.5 32.5t39 33.5q36 20 189 41q8 326 12 471q-34 4 -47 29.5t1.5 57.5t51.5 52q3 79 13 106q17 48 58 48q8 0 17 -2q48 -9 48 -82q85 35 155 35q11 0 21 -1q63 -4 126.5 -29t109 -56t84.5 -65.5t57 -55.5t22 -27q8 -12 5 -27t-15 -22q-29 -18 -51 10 q0 2 -17 21t-50 48t-73.5 57t-95 50t-106.5 25q-6 1 -12 1q-40 0 -90 -24q-56 -28 -101 -61q-41 -352 -43 -551q107 9 206 9q253 0 459 -60q14 -5 20.5 -17.5t2.5 -27.5q-3 -13 -16 -20.5t-27 -2.5q-179 55 -377 55q-131 0 -270 -24q1 -160 11.5 -288t26.5 -205.5t38 -133 t41 -80t40 -37.5q24 -15 54 -15q56 0 133 52q306 215 395 285q3 20 18 29q28 17 47.5 17t30.5 -17q6 -8 6 -18q0 -20 -28 -44q-1 -1 -64 -51q-227 -163 -364 -258q-92 -65 -172 -65q-49 0 -92 24q-119 73 -168 348q-31 205 -31 442q-84 -18 -90 -24q-6 -10 -17 -21t-36 -21 t-54 -5q-10 2 -20 10t-16.5 21t-7 28z" />
<glyph unicode="F" horiz-adv-x="1228" d="M16 1314q-4 19 -4 41q0 24 4 52q8 55 39 111q69 135 230 200q108 42 237 42q96 0 203 -23q96 -22 175.5 -51.5t135 -61t98.5 -70t69 -73.5t44 -76t26 -73.5t13 -69.5q2 -16 -8.5 -28.5t-28.5 -12.5q-13 2 -23.5 10.5t-11.5 21.5q-3 27 -6.5 44.5t-16.5 55t-32.5 66 t-58 67t-89 68.5t-128.5 60.5t-174 52.5q-103 22 -192 22q-114 0 -206 -36q-50 -21 -89.5 -58t-60 -74t-32.5 -71.5t-15 -56t-1 -23.5l3 -2q4 -3 8 -6.5t9 -8.5t9.5 -13t8.5 -17t6 -21.5t1 -25.5q0 -18 -10.5 -34.5t-26.5 -25.5t-37.5 -1.5t-40.5 34.5t-27 65zM193 758.5 q-2 18.5 11 38.5t40 32q43 21 202 50q-16 169 -39 324t-38 225.5t-17 72.5q-30 20 -41 55q-6 18 -6 34q-1 18 7 32q14 28 36 33q32 8 53.5 -11t32.5 -49q5 -18 23.5 -149.5t31.5 -241.5q24 -199 31 -311q221 38 384 38q154 0 255 -34q15 -4 22.5 -17.5t2.5 -27.5 t-18.5 -20.5t-28.5 -2.5q-85 27 -201 29q-11 0 -21 1q-104 1 -193 -13q-98 -14 -196 -39q19 -289 19 -598q0 -99 -2 -199q0 -15 -11 -25t-26 -10q-4 0 -10 1t-16 10.5t-9 25.5q6 125 6 256q0 248 -22 520q-111 -29 -111 -34q-10 -18 -40 -36q-21 -13 -44 -13q-10 0 -22 2 q-19 4 -31 18.5t-14 33z" />
<glyph unicode="G" horiz-adv-x="1386" d="M10 55q-1 15 10 25q69 77 205 217q-127 216 -139 451q-1 24 -1 48q0 230 105 459q44 99 115.5 214t121 182t62.5 78q30 27 57 28t38.5 -8t17.5 -18q56 41 103 55q26 6 56 6q47 0 103 -14q94 -25 158 -84q77 -70 135.5 -141t86 -120t44.5 -94t20 -62.5t3 -25.5 q4 -35 -25 -45q-16 -6 -29 2.5t-16 20.5l-1 7q-1 6 -4 18.5t-7.5 29.5t-14.5 39.5t-23 48.5t-33.5 57t-46 64t-61 71t-77.5 76q-41 37 -81.5 55.5t-73 18.5t-62.5 -8t-52 -23.5t-38.5 -30t-24.5 -25.5l-8 -11q0 -19 -6 -37q-9 -25 -33 -46.5t-55 -10.5q-40 14 -40 62 q0 6 1 13q-159 -181 -246 -372q-99 -219 -99 -427q0 -231 124 -448q324 318 561 454q168 95 284 95q49 0 88 -16q66 -28 100 -97q29 -62 29 -147v-21q-4 -131 -64.5 -275.5t-169 -263t-235.5 -159.5q-62 -20 -122 -20q-222 0 -424 252q-7 10 -28.5 38.5t-31.5 45.5 q-37 -37 -194 -203q-9 -11 -23.5 -11.5t-25.5 9.5q-12 9 -13 24zM317 287q34 -53 66 -90q110 -141 229 -194q69 -31 139 -31l99 16q110 36 207 143.5t153 239t60 250.5v16q0 144 -84 180q-22 9 -52 10h-6q-29 0 -74 -9q-50 -10 -119.5 -45.5t-156.5 -92.5t-206 -158 t-255 -235z" />
<glyph unicode="H" horiz-adv-x="1271" d="M12 643q3 14 23 49q7 12 17 45.5t20.5 59.5t44.5 56t88 46q-1 126 -10.5 248t-19 184.5t-13.5 63.5q-15 7 -26.5 28t-14.5 45t10.5 47.5t44.5 32.5q29 8 51.5 -17t26.5 -54q22 -223 22 -511v-48q71 12 166 12q60 0 135.5 -1t141.5 -2.5t122.5 -3t92 -2.5t37.5 -1l-7 105 q-8 105 -17 231t-17 234q-7 96 -6 113q0 35 23 60q20 22 46 20q33 -2 47.5 -29t11 -58t-17.5 -52q-1 -21 -1 -93t5 -228t13 -305q32 -1 58 -1q78 0 108 7q15 3 27.5 -5.5t15.5 -23.5q3 -14 -5.5 -27t-23.5 -16q-35 -7 -117 -7q-27 0 -59 1q34 -555 102 -717q15 -35 -6 -51 q-19 -9 -31 -6t-18 12q-75 88 -125 764l-91 2q-90 3 -219.5 5.5t-224.5 2.5q-94 0 -166 -14q-2 -62 -2 -121q0 -201 29 -357q38 -200 125 -255q29 -22 21 -48q-5 -12 -19.5 -19.5t-28.5 -0.5q-53 27 -92.5 92.5t-59.5 148t-33 179.5t-13 187t2 171q-39 -16 -58 -39 q-22 -25 -22 -68q0 -12 2 -26q13 -20 13 -48q0 -9 -2 -19q-7 -35 -29 -55t-50 -17q-33 3 -42.5 34t-4.5 60z" />
<glyph unicode="I" d="M25 1575q-6 18 -6 34q0 17 7 31q13 28 35 33q33 8 55 -11.5t31 -49.5q12 -33 58 -391q55 -428 55 -984q0 -103 -2 -210q0 -14 -11 -24.5t-26 -10.5h-2q-14 2 -24 13t-9 24q5 133 5 258q0 113 -4 219q-9 224 -27 409.5t-39.5 320t-36.5 208.5t-18 76q-28 16 -41 55z" />
<glyph unicode="J" horiz-adv-x="1155" d="M23 1511q-12 18 -12 36q0 22 19 44q59 65 273 95q155 22 315 22q249 0 508 -53q14 -5 20.5 -18.5t2.5 -26.5t-16.5 -20.5t-26.5 -4.5q-42 10 -79 10q-77 0 -130 -45q-53 -46 -80 -133t-27 -178q-1 -6 -1 -12q0 -85 7 -164q7 -85 18 -139l11 -54q66 -427 76 -569 q3 -45 3 -84q0 -165 -51 -236q-15 -21 -34 -36q-52 -43 -135 -43q-104 0 -313 80q-155 60 -219 114q-60 49 -60 104v9q3 34 36.5 63t77.5 46t91 29.5t75.5 17t33.5 4.5q13 1 25 -8t15 -23q1 -15 -7.5 -27t-22.5 -14q-93 -13 -171.5 -41.5t-82.5 -56.5q0 -4 1.5 -8.5 t14 -19.5t34.5 -31t70.5 -40.5t114.5 -50.5q185 -74 287 -74q59 0 90 25q15 12 26.5 30t17.5 46.5t10 55.5q4 22 4 56v16q-1 45 -2 79.5t-8 95.5t-12 102.5t-16 117t-18.5 123t-21.5 136.5q-3 12 -7.5 34t-14 87t-13.5 127q-2 35 -2 76q0 32 1 66q3 82 18 149t50 129t88 98 q-129 15 -235 15h-13q-112 -1 -197.5 -11t-143.5 -24.5t-87.5 -25t-29.5 -13.5q-6 -29 -34 -52t-58 -24.5t-53 22.5z" />
<glyph unicode="K" horiz-adv-x="1081" d="M18 1665q-2 30 11.5 58.5t46.5 29.5q24 2 40.5 -13t22 -31t8.5 -34q0 -1 1 -41.5t2.5 -109t2.5 -154t2 -199t1 -221.5q109 117 218 229.5t252 252.5q142 141 250 225q103 80 144 80h4q43 -2 43 -33v-8q1 -34 -21 -72q-24 -42 -48 -67t-27 -25q-10 -11 -25 -10.5t-24 12.5 q-16 16 -9 39q-45 -35 -100 -82.5t-103.5 -92t-111 -105.5t-105 -103t-104.5 -105.5t-90 -92.5t-81.5 -85t-59.5 -63q145 -41 274 -129q67 -47 126.5 -106t120.5 -145t106 -206t65 -260q2 -14 -8 -26t-23 -13q-2 -2 -6 -2q-12 0 -23 9.5t-12 21.5q-62 445 -387 667 q-121 82 -235 113q-4 -544 -31 -842q-2 -14 -12 -23t-23 -9h-4q-14 2 -24 13t-9 25q23 217 23 622q0 112 -2 237q-14 4 -21 20q-7 22 8 37l5 4l8 8q-4 180 -10 363t-11 281.5t-6 99.5q-26 23 -29 61z" />
<glyph unicode="L" horiz-adv-x="1054" d="M20 1643v10q0 29 15 55q18 30 53 29q32 0 47 -26.5t17 -57.5q0 -5 6.5 -153t17.5 -440.5t19 -600.5q1 -62 1.5 -83.5t4 -69.5t8 -68t13 -49.5t21.5 -46t31 -27.5q33 -20 90 -20q187 0 631 216q12 6 26.5 1.5t20.5 -17.5q6 -14 1 -27.5t-17 -19.5q-467 -225 -663 -225h-15 q-45 2 -80 15t-58 32.5t-39 51t-24.5 60.5t-13.5 72.5t-6.5 76t-2.5 80.5q-1 31 -1 46q-6 212 -24.5 488.5t-35.5 459t-22 186.5q-18 17 -21 52z" />
<glyph unicode="M" horiz-adv-x="1529" d="M17 1410q2 304 6 325q5 35 26 57t47 18q23 -4 36.5 -19.5t15.5 -33.5t1 -32t-2 -19q166 -334 323 -623.5t202 -328.5q28 -26 67 -26q13 0 27 3q88 21 203 143.5t217.5 291.5t171.5 341q10 168 12 172q5 36 26 57t48 17q40 -5 50 -49q3 -12 2 -26q0 -33 -19 -66 q-8 -13 -32.5 -257.5t-46.5 -544.5q-20 -280 -20 -535v-36q2 -272 41 -325q7 29 7 73q0 15 -1 31q0 15 10 26t25 11q15 1 26 -9.5t11 -25.5q1 -14 1 -27q0 -33 -4 -59q-5 -38 -12.5 -57.5t-18.5 -32t-19 -15.5t-17 -3q-41 0 -75 61q-52 85 -58 398q0 174 52 1026 q-76 -150 -165 -283t-198 -239t-201 -127q-25 -6 -48 -6q-61 0 -109 42q-94 85 -504 899q-13 -170 -23 -379q-6 -124 -6 -304q0 -123 4 -273q6 -368 41 -670q3 -15 -7.5 -28t-27.5 -13q-13 0 -22.5 9.5t-11.5 23.5q-30 263 -42 703q-10 374 -9 651v93z" />
<glyph unicode="N" horiz-adv-x="907" d="M20.5 1295q1.5 13 10.5 20q19 19 45 4l8 -6q8 -6 20.5 -16t30 -25t40 -37t46.5 -48.5t53.5 -62.5t57.5 -75q204 -281 334 -670q-2 77 -2 156q0 119 5 244q9 208 25 366.5t35 294.5t31.5 206.5t15.5 79.5q10 35 34.5 52.5t51.5 9.5q21 -6 31.5 -25.5t9.5 -38.5t-4 -34 q-6 -28 -27 -45q-4 -4 -22.5 -91t-43 -235.5t-43.5 -341.5t-25 -410q-1 -49 0 -98q0 -169 14 -342q0 -16 -9 -25q1 -4 3.5 -12t3.5 -12q3 -14 -4.5 -27t-22.5 -16q-14 -3 -27 5t-16 21q-135 572 -404 940q-85 119 -155 185q29 -179 30 -571q0 -282 -16 -676q-1 -13 -12 -23 t-25 -12q-15 0 -26 12t-9 27q10 227 15 465q2 75 2 154q0 174 -8 366q-11 280 -47 344q-6 10 -4.5 23z" />
<glyph unicode="O" horiz-adv-x="1175" d="M12 798q-2 27 -2 55q0 119 33 249q41 160 133 317q20 33 47.5 47t55.5 -2q24 -18 24 -53q0 -10 -2 -22q71 83 155 125q83 44 161 46h15q70 0 140 -22q77 -24 139.5 -66.5t110.5 -97.5q64 -73 98 -168q34 -94 36 -194v-28q0 -86 -14 -170q-16 -97 -48 -196 q-80 -239 -229.5 -399t-317.5 -160q-190 0 -344 211q-85 118 -133 250t-58 278zM121 1061q-35 -125 -35 -245q0 -268 176 -505q131 -181 285 -181q18 0 37 3q129 20 250 160t192 350q40 121 52 243q4 37 4 74q0 86 -20 174q-28 126 -106 207q-33 36 -78 66.5t-99.5 50.5 t-111.5 28q-19 2 -38 2q-37 0 -77 -10q-58 -15 -111 -50.5t-99 -104.5t-76 -166q-3 -14 -15.5 -22t-27.5 -5q-13 3 -21 16.5t-5 27.5q21 81 57 145q-19 -10 -31 -10q-66 -123 -102 -248z" />
<glyph unicode="P" horiz-adv-x="964" d="M20 1487q-1 5 -1 10q0 27 21 62q25 42 72.5 85t127 79.5t172.5 50.5q33 5 66.5 5t78.5 -6t88.5 -24.5t87.5 -48t86.5 -81t75.5 -118.5q49 -94 49 -196q0 -52 -13 -106q-38 -159 -181 -279q-96 -84 -250 -136q-128 -43 -230 -43q-21 0 -41 2q-5 -137 -6 -254 q0 -357 51 -532q5 -15 -3.5 -31t-28.5 -16q-29 0 -35 24q-54 161 -54 607q0 101 3 217q-39 14 -64 33q-12 8 -14.5 22.5t6.5 26.5t23.5 14.5t25.5 -6.5q6 -4 25 -14q10 361 41 749q-39 -33 -35 -37q4 -20 -11 -52.5t-49 -49.5q-36 -17 -58 1t-26 42zM233 815q23 -3 47 -3 q86 0 190 34q133 42 232 127q28 24 55.5 56t56.5 82.5t44 104.5q11 40 11 87q0 16 -1 33q-5 67 -37 132q-65 132 -174 192q-83 46 -176 47q-29 0 -59 -5q-58 -6 -121 -45q28 -20 28 -57v-10q-4 -45 -32 -72q-3 -3 -14 -96.5t-26.5 -266.5t-23.5 -340z" />
<glyph unicode="Q" horiz-adv-x="1228" d="M16 908v24q0 72 10 134q12 71 28.5 133.5t37.5 110.5t38.5 81.5t29.5 52.5l12 20q0 32 27 62q21 24 44 32.5t40.5 3.5t29 -16t13.5 -24q78 59 174 84q63 16 127 16q33 0 67 -4q51 -8 86 -15.5t85 -25t84 -41.5t71.5 -66t60 -96.5t37.5 -134.5t15 -178q0 -130 -61.5 -308 t-160.5 -331q66 -110 135 -179q65 -65 119 -65h6q15 1 26 -9t13 -24q2 -16 -10 -27.5t-35 -11.5q-62 0 -143 70t-160 174q-147 -192 -297 -233q-39 -10 -77 -10q-174 0 -302 223q-60 103 -99 207.5t-54 194.5t-17 176zM111 1106q-24 -99 -24 -200q0 -264 161 -541 q109 -187 243 -187q27 0 56 8q133 38 270 226q-79 117 -86 161q-6 24 -6 42q0 51 45 57q32 3 56 -21.5t28 -44.5q4 -16 4 -30q0 -20 -8 -37l-2 -2q14 -25 22 -43q6 8 24.5 41.5t47.5 96t55.5 130.5t45.5 150q18 78 18 142v7q0 36 -0.5 56t-4 60.5t-9.5 66.5t-19 64 t-31.5 64.5t-47.5 57t-65.5 51.5t-87.5 38.5t-112 26.5q-30 4 -60 4q-108 0 -211 -56q-131 -72 -192 -204q-39 -86 -39 -177q0 -78 28 -159q62 -177 247 -338q11 -9 11.5 -23.5t-9.5 -25.5q-9 -12 -24 -12.5t-25 8.5q-297 259 -299 543z" />
<glyph unicode="R" horiz-adv-x="1005" d="M16 557q3 14 15.5 22.5t25.5 4.5q15 -4 33 -4q36 0 86 17q75 26 152 75q-26 253 -58 444q-6 40 -32.5 120.5t-51.5 92.5q-33 17 -44 48.5t-7 56.5q6 31 25.5 43.5t40 8.5t32.5 -16q30 -25 56 -108q105 320 284 379q22 8 47 8q36 -1 77 -19q68 -32 134 -137 q63 -105 64 -226q1 -41 -7 -81q-28 -168 -163 -348q-136 -180 -322 -303q10 -93 11 -111l551 -90q15 -3 23 -15.5t5 -27.5q-2 -13 -13.5 -21.5t-27.5 -7.5l-530 89q3 -44 10 -129.5t13 -161.5t10 -146q1 -15 -9 -26t-24 -11q-15 -1 -26 9t-13 24q-11 176 -35 453 q-297 49 -305 51q-14 5 -22 17.5t-5 25.5zM256 551l86 -14q-1 9 -3 27.5t-3 27.5q-37 -22 -80 -41zM332 1171q37 -192 63 -454q166 121 273 264q42 55 74.5 114t59.5 137q22 63 22 131q0 16 -2 33q-6 85 -52 160q-73 120 -151 120q-12 0 -25 -3q-56 -14 -110 -104 q-53 -89 -80 -175q-22 -70 -22 -94q0 -5 1 -8q8 -13 8 -31q1 -17 -7 -39q-14 -44 -52 -51z" />
<glyph unicode="S" horiz-adv-x="958" d="M23 375q44 78 223 90q15 0 26 -10.5t11 -24.5q0 -15 -10 -26t-25 -11q-48 -2 -99 -16t-63 -37q-8 -16 10 -45q66 -109 224 -171q131 -51 252 -50q26 0 51 2q66 6 110 29.5t58 58.5q6 17 6 37q0 98 -156 260q-121 124 -211 244t-141 215.5t-80.5 187t-37.5 157.5 q-5 41 -5 80q0 24 2 48q18 225 199 362q85 64 170 64q65 0 129 -37q62 -36 112 -104t78.5 -140t46.5 -144t23 -122q3 -31 3 -50q0 -11 -1 -18q-6 -35 -26.5 -54.5t-49.5 -16.5q-19 1 -35 22q-18 23 -18 56q0 30 24 63q2 3 -0.5 38.5t-14 91.5t-31.5 115t-59 115.5t-89 87.5 q-43 25 -88 25q-63 0 -131 -49q-155 -118 -170 -312q-2 -20 -2 -40q0 -167 104 -369q116 -226 350 -467q175 -181 175 -310q0 -32 -11 -61q-22 -62 -92 -99.5t-191 -37.5q-157 0 -312.5 69t-225.5 187q-23 37 -23 71q0 24 11 46z" />
<glyph unicode="T" horiz-adv-x="1538" d="M7.5 1484.5q0.5 35.5 19.5 81.5t55 93q105 136 415 136q47 0 99 -3q6 15 18 27q21 17 43 14q33 0 50 -35l6 -18h2q118 -15 225.5 -46.5t185 -69.5t145 -83t109.5 -84t74.5 -76.5t45 -55.5t16.5 -26q7 -12 3 -26.5t-16 -20.5q-9 -6 -18 -6q-21 0 -31 19q-6 9 -17.5 25.5 t-55 63t-95.5 87.5q-240 185 -579 227h-2q-5 -13 -17 -25q-4 -4 -16 -317q-12 -314 -14 -686v-69q0 -331 22 -599q1 -15 -8.5 -26t-24.5 -13h-4q-13 0 -23 9.5t-12 23.5q-21 223 -27 622q-4 266 -4 472q0 103 1 191q3 264 8 429q-49 3 -92 3q-260 0 -340 -107 q-15 -20 -21.5 -58.5t2.5 -48.5q17 -20 18 -54q0 -5 -1 -11q-1 -36 -21.5 -58t-48.5 -22q-21 1 -38.5 15.5t-27 42t-9 63z" />
<glyph unicode="U" horiz-adv-x="1089" d="M22 774q0 16 -1 32q0 156 14 312q15 172 32.5 275t22.5 116q16 42 39.5 57t44.5 5q43 -23 43 -71q0 -14 -4 -30q-10 -26 -27 -43q-1 -1 -12 -53.5t-24.5 -140.5t-25.5 -196q-13 -109 -15 -225v-40q-1 -95 7 -181q10 -105 44 -193t90 -132q87 -69 220 -69q161 0 390 102 q1 41 1 83q0 137 -10 285q-13 193 -33.5 343.5t-43.5 277t-38.5 194.5t-18.5 70q-28 15 -41 54q-10 35 0 62t37 38q30 13 52.5 -4.5t33.5 -56.5q5 -19 17.5 -80t35.5 -201t42 -292q20 -152 32 -354q9 -153 9 -295q0 -45 -1 -89q46 24 96 51q13 8 28 3.5t21 -17.5 q8 -12 3.5 -27t-17.5 -22q-72 -40 -135 -68q-2 -87 -17 -223q-2 -14 -12.5 -23t-23.5 -8h-3q-15 1 -23.5 13t-6.5 26q9 87 12 180q-219 -93 -388 -93q-15 0 -30 1q-141 9 -233 84q-91 72 -136 231.5t-47 331.5z" />
<glyph unicode="V" horiz-adv-x="1048" d="M20 1559q-4 29 5.5 49.5t20.5 28t22 10.5q31 7 52 -16.5t30 -51.5q9 -22 75.5 -375t133 -712.5t67.5 -366.5q19 -86 41 -90q2 0 6 2t19 17t31.5 40t44 79.5t57.5 127.5q55 133 103 300t78 307.5t52 267.5t31.5 195.5t9.5 74.5q2 12 11.5 21.5t21.5 9.5q28 3 39 -25 l53 -190q3 -14 -4.5 -27.5t-22.5 -17.5q-14 -3 -27 4.5t-16 21.5l-8 27q-98 -614 -254 -998q-40 -96 -75 -160.5t-62.5 -95t-47.5 -42t-40 -11.5q-14 1 -26.5 6.5t-21.5 12.5t-18 19.5t-14.5 21.5t-11.5 24t-8 22t-6.5 20.5t-4.5 14.5q-1 6 -44.5 229t-92.5 472t-98.5 464 t-65.5 224q-13 7 -23 26.5t-12 39.5z" />
<glyph unicode="W" horiz-adv-x="1087" d="M22 1430q-1 29 0 54q0 42 2 74q2 52 9 68q25 61 66 61q10 0 22 -4q22 -7 32 -26t9.5 -38.5t-8.5 -35.5q-10 -17 -19 -152q-9 -128 -9 -309q0 -10 1 -20q0 -194 10.5 -391t46 -361t90.5 -217q24 -21 54 -21q7 0 14 1q74 11 158 49q9 242 9 437q0 358 -30 556 q-8 58 -30 123t-31 68q-29 16 -40.5 43t-6.5 51t22 37q18 16 40.5 11t37.5 -15.5t25 -22.5q50 -73 69 -379q15 -182 16 -453q0 -187 -8 -417q163 95 312 252q8 160 8 301q0 360 -53 598q-9 44 -28 96t-35 83.5t-19 31.5q-22 2 -47 28.5t-31 57.5q-1 5 -1 11q0 25 23 46 q8 7 19.5 10.5t35 -4.5t48.5 -33q32 -33 61.5 -119t54.5 -223t37 -347q7 -124 6 -260q0 -95 -3 -195l53 65q9 12 24 14t27 -6q11 -9 13 -24t-7 -27q-26 -38 -117 -135q-11 -223 -28 -391q-2 -14 -14 -23t-27 -8q-14 2 -23 13t-8 26q18 198 25 305q-155 -147 -310 -227 q-1 -37 -6 -156q0 -14 -11 -24t-26 -9q-15 0 -24.5 11t-9.5 26q2 41 6 119q-99 -42 -170 -45q-57 0 -103 43q-84 76 -134 299t-54 577q-1 55 -4.5 148.5t-6 170t-4.5 153.5z" />
<glyph unicode="X" horiz-adv-x="1376" d="M10 -29q13 46 32.5 107t79.5 223t123.5 305.5t160.5 314.5t196 289q-63 86 -145 172q-47 47 -113.5 94.5t-111 72t-48.5 22.5q-12 -4 -26 -4q-20 0 -43 8q-26 9 -46 36.5t-8 55.5q15 29 45 35q7 1 15 2q25 0 55 -13q40 -17 82.5 -44.5t89 -66.5t83 -73t71.5 -69 q77 -77 149 -172q142 151 289 196q79 19 144 19q53 -1 99 -13q101 -28 153 -83q33 -36 32 -66q0 -17 -10 -31q-24 -28 -53.5 -24.5t-54.5 22.5t-33 39q-5 14 -41 37q-38 22 -94 36q-24 6 -49 6q-35 0 -72 -11q-133 -42 -265 -187q303 -419 531 -1104q4 -13 -2.5 -26.5 t-20.5 -18.5q-16 -4 -29 3.5t-16 19.5q-217 655 -510 1069q-95 -117 -188 -283t-158 -316t-118.5 -292t-78 -219t-26.5 -88q-5 -13 -18 -21t-27 -4q-14 5 -21.5 17.5t-3.5 27.5z" />
<glyph unicode="Y" horiz-adv-x="1130" d="M15 1615.5q-4 15.5 2 41t30 37.5q29 14 58.5 -8.5t39.5 -57.5q0 -1 9 -54.5t21.5 -124.5t37 -159.5t53.5 -164t73 -133t93 -70.5q15 -4 32 -4q45 0 104 26q82 37 155 113q92 97 158.5 184.5t96 140t45.5 98.5t17 60t0 26v1v7q1 7 2 14.5t7.5 16t17.5 11.5q15 5 25.5 -2.5 t13.5 -17.5l4 -11q2 -7 3 -19.5t-3 -39.5t-14.5 -59t-35 -80.5t-60 -102.5t-94 -126t-132.5 -150q-104 -110 -227 -148q0 -45 -19 -69q-14 -16 -14 -249q-1 -7 -1 -13q0 -231 17 -603q2 -14 -8.5 -24.5t-25.5 -10.5q-14 0 -24.5 10t-10.5 25l-30 570q-9 205 -9 291 q0 60 4 63q-60 10 -113.5 65.5t-88.5 130.5t-64.5 161.5t-45.5 159t-28 123t-16 52.5q-29 15 -47 49q-4 9 -8 24.5z" />
<glyph unicode="Z" horiz-adv-x="1392" d="M23 1145q-9 18 -9 41q0 30 14 68q26 68 87 140t159.5 139t208.5 101q135 42 247 52q50 5 91 4q51 0 89 -7q68 -13 120.5 -42.5t76 -58t36.5 -60.5q26 -65 25 -147q0 -55 -11 -119q-29 -157 -125 -343q143 -13 268 -51q14 -5 21.5 -17.5t3.5 -27.5q-4 -13 -17.5 -20 t-27.5 -2q-142 43 -285 49q-23 -42 -63 -103q-83 -128 -194.5 -243t-220 -197t-241.5 -164h15q147 0 337 -18q200 -19 415 -66t321 -112q12 -8 15.5 -23t-3.5 -27q-6 -11 -17.5 -15.5t-31.5 3.5q-78 47 -231.5 83t-305 54t-314.5 29t-241 13.5t-102 2.5q-12 -1 -22 7t-13 20 q-4 12 1.5 23.5t17.5 17.5q223 110 418.5 272.5t336.5 378.5q39 64 41 68h-14q-103 0 -207 -14q-110 -15 -166.5 -29.5t-58.5 -18.5q-35 -48 -89 -48q-10 0 -20 1q-10 2 -20 10t-16 21t-6 28t12.5 32.5t38.5 33.5q18 10 95.5 25.5t217.5 26.5q85 7 168 7q53 0 106 -3 q96 178 128 328q15 69 15 128q0 68 -20 119q-23 54 -69 86t-102 41q-34 5 -73 5q-27 0 -55 -2q-72 -6 -136 -21t-136 -39q-70 -22 -133.5 -63t-105 -83t-72.5 -82t-45 -65t-13 -27q6 -10 8 -29t-5 -44t-25 -42q-24 -22 -44.5 -18t-32 13.5t-15.5 19.5z" />
<glyph unicode="[" horiz-adv-x="489" d="M41 803q-2 139 8 376t21.5 440.5t11.5 221.5v9v15t1 18t2.5 21t5.5 20.5t9 20t13.5 16t19.5 11.5q41 16 101 -12t90 -62q12 -12 16.5 -33.5t-4.5 -41.5q-8 -15 -25.5 -16t-32 6.5t-22.5 15.5q-24 28 -53.5 51t-42.5 25q-9 -1 -29 -485t-18 -617q2 -161 11 -292t21.5 -208 t27 -130.5t25.5 -74t19 -24.5q41 -19 80.5 -7t68.5 30.5t29 21.5q11 9 25.5 8t25.5 -12q9 -11 8 -26t-12 -26q-46 -38 -105.5 -52.5t-97 -11.5t-57.5 11q-42 18 -70 88t-47.5 245.5t-23.5 459.5z" />
<glyph unicode="\" horiz-adv-x="884" d="M38.5 2063.5q10.5 25.5 35.5 31.5q26 8 44.5 -12t22.5 -43q6 -23 0 -45q-1 -4 120.5 -456t259 -943t169.5 -571q42 -99 70 -134q9 14 20 41q6 13 19.5 19.5t27.5 1.5q14 -8 19.5 -21.5t-0.5 -27.5q-24 -57 -51 -76q-15 -12 -35 -12q-34 2 -64.5 43t-70.5 139 q-34 82 -177.5 576.5t-275.5 962.5l-131 468q-13 33 -2.5 58.5z" />
<glyph unicode="]" horiz-adv-x="526" d="M41 89q-1 15 8 26q11 11 25.5 12t25.5 -8q0 -3 29 -21.5t69 -30.5t81 7q8 4 19 24.5t25.5 74t27 130.5t21.5 208t11 292q2 133 -18 617t-29 485q-13 -2 -42.5 -25t-53.5 -51q-8 -8 -22.5 -15.5t-32 -6.5t-25.5 16q-9 20 -4.5 41.5t16.5 33.5q31 34 90 62t100 12 q9 -4 17 -10t13.5 -14t9.5 -16.5t6 -18.5t3.5 -18t2 -18t0.5 -15.5v-13.5v-7q0 -18 11.5 -221.5t21.5 -440.5t8 -376q-4 -284 -23.5 -459.5t-48 -245.5t-70.5 -88q-20 -8 -57.5 -11t-97 11.5t-105.5 52.5q-11 11 -12 26z" />
<glyph unicode="^" horiz-adv-x="1028" d="M50.5 1221q-3.5 18 0.5 32.5t10 22.5q10 20 174 211.5t209 228.5q30 27 72 21q33 -4 68 -27.5t77.5 -73.5t69 -85.5t76.5 -106.5q121 -176 154 -187q30 -9 22 -43q-3 -15 -17 -22t-28 -2q-34 11 -74 58t-116 155q-37 53 -63 88.5t-62 79.5t-65 68.5t-50 27.5 q-12 0 -16 -6q-72 -60 -336 -406q-1 -7 -5 -17t-14.5 -25.5t-25.5 -19t-39 2.5q-18 7 -21.5 25z" />
<glyph unicode="_" horiz-adv-x="1228" d="M29 -76q-4 18 5 37.5t34 20.5q13 3 29.5 -7t21.5 -22q4 -8 149.5 -27.5t379.5 -28t517 28.5q14 3 27 -5t14 -23q3 -14 -5 -26t-21 -15q-112 -26 -331 -34.5t-411 -1.5t-262 23q-77 17 -107.5 36.5t-39.5 43.5z" />
<glyph unicode="`" horiz-adv-x="315" d="M23.5 1710q3.5 15 15.5 23q12 7 26.5 3t22.5 -16l176 -293q17 -27 -8 -49q-32 -22 -53 11l-176 294q-7 12 -3.5 27z" />
<glyph unicode="a" horiz-adv-x="720" d="M12 271q-1 17 -1 33q1 128 35 257q38 145 104 215q66 69 141 69q9 0 18 -1q95 -12 170 -82q2 24 24.5 44.5t53.5 12.5q35 -10 48 -29.5t10 -34.5t-11 -24q-12 -15 -20 -94q-7 -67 -8 -151v-30q2 -102 33 -215.5t89 -179.5q10 -11 9.5 -25.5t-11.5 -23.5q-10 -10 -24 -10 q-16 0 -25 12q-29 31 -52.5 70t-36.5 70.5t-25 80t-16 72.5t-10.5 75.5t-8.5 63.5q-94 -349 -275 -430q-28 -14 -59 -14q-58 0 -98 55q-49 69 -54 214zM82 283q2 -129 43 -185q15 -24 40 -24q14 0 30 8q57 25 104.5 87.5t75 131t47 138.5t26.5 110.5t7 46.5q3 14 14 25 q-18 -7 -37 11.5t-8 47.5q1 2 1 5q0 16 -39 47q-45 36 -85 40h-10q-45 0 -90 -45q-53 -59 -87 -187q-32 -121 -33 -242q1 -8 1 -15z" />
<glyph unicode="b" horiz-adv-x="638" d="M16.5 207q0.5 15 10.5 24q11 11 26 11q-2 153 -2 315q-1 134 1 274q1 154 1.5 296.5t-1.5 272.5q-2 261 -13 286q-6 13 -7 29t3 34t21 32t44 19q22 3 36 -8.5t19 -34t6 -35t1 -29.5v-3q-3 -17 -23 -895q10 3 19 0q40 19 98 27q27 4 51 5q28 0 53 -6q110 -26 175 -139 q76 -132 76 -296q0 -16 -1 -32q-15 -285 -166 -344q-29 -10 -71 -10q-111 0 -248 96q0 -30 -1 -65.5t-1 -40.5q0 -10 -9 -19t-28 -8q-9 2 -17.5 10.5t-9.5 18.5q-4 86 -4 160l-30 30q-9 10 -8.5 25zM126 184q73 -60 154 -94q49 -21 90 -21q26 0 50 9q106 40 119 280 q1 17 1 33q0 119 -44 209q-50 104 -121 133q-24 11 -48 11q-27 0 -55 -12q-54 -24 -77 -48q-25 -20 -58 -27q-9 -376 -11 -473z" />
<glyph unicode="c" horiz-adv-x="661" d="M16 348q-1 16 -1 31q0 163 77 297q63 109 174 141q22 4 48 5q26 0 56 -5q60 -9 99 -29q22 6 50.5 -14.5t38 -49t-14.5 -56.5q-19 -19 -51.5 -15t-57.5 27q-7 6 -17 13t-30.5 19t-40.5 17.5t-46.5 8t-47.5 -8.5q-70 -31 -120 -135q-45 -92 -45 -213q0 -14 1 -29 q13 -241 119 -278q25 -9 52 -9q57 -1 127 37q104 56 165 123q9 10 24 10.5t25 -8.5q11 -11 11.5 -25.5t-9.5 -25.5q-22 -23 -56.5 -51t-81.5 -59t-103.5 -51.5t-106.5 -20.5q-34 0 -72 12q-151 56 -166 342z" />
<glyph unicode="d" horiz-adv-x="794" d="M20 271q-1 17 -1 33q1 128 35 257q38 145 104 215q73 75 141 75q9 0 18 -1q36 -4 83 -29t73 -44.5t35 -28.5q3 153 15 342q12 190 21 306q8 105 8 195v19q-1 98 -20 131q-8 12 -8 24q0 19 18 41q28 36 68 35q28 0 43.5 -21t18.5 -40.5t2 -34.5q-3 -31 -15 -165.5 t-31.5 -397t-29.5 -482.5v-34q0 -421 166 -605q10 -11 9.5 -25.5t-11.5 -23.5q-10 -10 -25 -10t-24 12q-69 69 -123 179q-20 38 -35.5 87.5t-20.5 73t-18 86.5q0 -53 -41.5 -142t-110.5 -172.5t-133 -109.5q-35 -14 -59 -14q-58 0 -98 55q-49 69 -54 214zM90 283 q2 -129 43 -185q15 -24 40 -24q14 0 30 8q57 25 104.5 87.5t75 131t47 138.5t26.5 110.5t7 46.5q0 13 5.5 17.5t14.5 5t11 2.5q-1 0 -6 -0.5t-11 1.5t-10 9q-11 18 -24 36t-34.5 43t-48 42t-51.5 20h-10q-45 0 -90 -45q-53 -59 -87 -187q-32 -121 -33 -242q1 -8 1 -15z" />
<glyph unicode="e" horiz-adv-x="677" d="M29 616q3 15 19.5 28t35.5 13q27 59 68 103q29 29 64.5 49t65.5 28.5t58 11.5t43 2.5t18 -1.5h2q75 -4 120 -71.5t48 -157.5v-11q0 -92 -47 -168q-50 -82 -145 -88h-16q-121 0 -234 97q-1 -18 -1 -35q0 -28 3 -54q31 -245 141 -280q20 -7 42 -7q34 0 76 16 q68 26 115.5 63t88.5 79q9 10 24 11t25 -8q11 -11 11.5 -26t-9.5 -26q-14 -15 -39 -38t-72 -59t-106 -60.5t-113 -24.5q-27 0 -65 10q-160 55 -197 342q-6 49 -6 96q0 39 4 76q-25 34 -25 68q0 12 3 22zM158 590q1 -4 6 -29q0 -3 9.5 -18t29 -36.5t43.5 -40.5q26 -20 60 -32 q26 -9 52 -9q9 0 17 1q36 4 62.5 25.5t39.5 52t18.5 59t4.5 55.5q-2 65 -31.5 113.5t-77.5 48.5h-2q-99 -11 -164 -78q-42 -42 -67 -112z" />
<glyph unicode="f" horiz-adv-x="1026" d="M42.5 150q-0.5 18 8.5 45q35 80 160.5 180t210.5 137q-10 139 -10 254q0 245 45 379q26 80 59 134.5t67.5 78t64 31t59.5 2.5q105 -17 208 -177q33 -48 58 -108q0 -4 2 -6q3 -18 6 -25q5 -35 -12 -57.5t-36 -28t-34 -4.5q-34 0 -56 23q-15 17 -15 39q0 10 3 22q2 7 2 18 q0 26 -14 72q-63 153 -123 162q-5 1 -10 1q-95 0 -162 -200q-40 -125 -40 -344q0 -110 10 -243q47 11 97 11q179 0 382 -140q12 -9 15 -24.5t-5 -27.5q-9 -12 -23 -14.5t-26 6.5q-187 127 -348 127q-45 0 -88 -10q25 -283 86 -639.5t105 -557t52 -224.5q3 -13 -4.5 -25.5 t-21.5 -17.5h-8q-12 0 -22 7t-13 19q-17 64 -57 244.5t-101 532.5t-86 632q-66 -39 -152 -139.5t-92 -144.5q-7 -38 -30.5 -52t-55.5 -8q-10 3 -20 9t-22.5 19.5t-13 31.5z" />
<glyph unicode="g" horiz-adv-x="669" d="M30 271q-1 17 -1 33q0 129 35 257q38 145 104 215q70 75 141 75q10 0 19 -1q60 -7 143 -68q-6 70 -6 88q12 69 67 69q7 0 15 -1q32 -3 41 -38t2 -56l-15 -40q0 -16 6 -134q7 -134 19 -301t21 -236l16.5 -132t13 -113.5t9.5 -112.5q1 -32 1 -68q0 -12 -1 -25q0 -49 -5 -88 q-15 -113 -72.5 -185.5t-162.5 -110.5q-37 -13 -78 -13q-90 0 -166 43q-100 56 -119 150q-3 13 5 25.5t22 15.5q15 3 27.5 -5t15.5 -22q12 -59 84 -100q45 -25 96 -32q19 -3 35 -3q30 0 53 8q50 18 85 45t58.5 57t34.5 82.5t15 99.5q2 20 2 47q0 36 -3 84q-6 84 -14 153.5 t-24 189.5q-20 140 -39 307q-89 -335 -268 -414q-28 -14 -60 -14q-61 0 -98 55q-49 69 -54 214zM99 284q2 -129 42 -186q15 -24 40 -24q13 0 30 8q57 25 105.5 87.5t76 131t47 138.5t26.5 110.5t7 46.5q0 20 14 20v5q-5 3 -10 10q-11 18 -24 36t-34.5 43t-48 42t-51.5 20 h-12q-46 0 -88 -45q-54 -57 -88 -186q-32 -122 -32 -243v-14z" />
<glyph unicode="h" horiz-adv-x="694" d="M66 1751q-1 16 3 34.5t20.5 32.5t43.5 19q23 4 38 -9.5t19 -34t6 -40t-1 -27.5q-2 -21 -9 -135.5t-16 -318.5q-10 -204 -16 -410q-3 -126 -3 -252q-1 -80 1 -161q4 -207 20 -322q158 246 301 596q16 43 52 43h3q21 -1 32 -20t11 -35v-3q-8 -77 -8 -152q0 -140 29 -269 q30 -136 92 -232q9 -12 4.5 -26.5t-16.5 -22.5q-14 -7 -27.5 -3.5t-21.5 15.5q-108 170 -142 541q-158 -354 -303 -547q-9 -12 -26 -12q-29 0 -37 29q-26 127 -35 413q-6 178 -6 346q0 103 2 202q6 262 6 490.5t-10 241.5q-5 13 -6 29z" />
<glyph unicode="i" d="M86 762q0 14 5 34t21.5 40t41.5 16q44 -6 58 -54q5 -17 5 -33q0 -29 -16 -54q-3 -9 -9 -120q-3 -61 -3 -144q-1 -68 1 -151q4 -184 25 -333q3 -15 -6.5 -26.5t-24.5 -14.5h-4q-14 0 -24 9t-11 22q-23 160 -37.5 363.5t-18 306t-3.5 139.5zM106 1118q3 39 29 62 q19 19 43 16q32 -3 47 -37q11 -19 11 -51q-3 -41 -29 -64q-21 -17 -43 -14q-28 1 -44.5 27t-13.5 61z" />
<glyph unicode="j" horiz-adv-x="208" d="M-397 -516q-3 15 5.5 27.5t22.5 15.5q15 3 27.5 -5.5t15.5 -23.5q12 -59 84 -100q44 -25 96 -32q17 -2 33 -2q31 0 56 9q50 18 85 45t58.5 57t34.5 83t15 100q2 18 2 43q0 37 -4 87q-6 85 -14 154t-24 189q-24 174 -56 449q-28 244 -28 291v8q13 68 71 68q5 0 11 -1 q32 -4 40 -38t3 -58l-14 -38q0 -17 6 -135q7 -135 18 -301.5t19 -236.5q12 -87 18 -131.5t13.5 -113.5t9.5 -112q2 -34 2 -72q0 -10 -1 -20q0 -49 -5 -89q-29 -222 -236 -295q-43 -15 -78 -15q-86 0 -165 45q-102 54 -121 148zM14 1118q3 38 27 62q19 19 45 16q32 -4 47 -37 q11 -20 8 -51q-3 -41 -26 -64q-21 -17 -43 -14q-28 1 -44.5 27t-13.5 61z" />
<glyph unicode="k" horiz-adv-x="843" d="M6 432q-3 26 23 37q10 4 38.5 16t45.5 19q0 104 0.5 304t0.5 318.5t-1 256t-4.5 210t-10.5 86.5q-5 17 -7.5 39t15.5 45t54 29q23 4 37.5 -9.5t18.5 -33.5t6 -39.5t-1 -26.5q0 -4 -4.5 -181t-10.5 -461.5t-11 -499.5q371 162 473 243q39 31 65 31q4 -1 7 -1 q27 -6 38.5 -28.5t5.5 -44.5q-8 -26 -30 -52q-22 -25 -55 -25h-3h-1q-37 0 -502 -203v-35q322 -123 595 -365q11 -9 12.5 -24t-7.5 -27q-12 -12 -27 -12t-25 10q-258 225 -551 340q-6 -273 -6 -366q0 -8 -9.5 -17t-27.5 -8q-10 0 -18 8t-8 19q-8 123 -8 393l-78 22 q-26 6 -29 33z" />
<glyph unicode="l" horiz-adv-x="206" d="M23.5 1722q-1.5 16 2 34t22.5 29.5t52 12.5h6q34 0 50 -32q17 -34 14 -58q0 -2 -5 -120.5t-12.5 -282.5t-12 -376.5t-4.5 -404.5t10.5 -363t31.5 -255q3 -15 -4 -27.5t-22 -15.5q-2 -2 -7 -2q-29 0 -36 26q-30 119 -47 402.5t-20.5 544.5t-4.5 533t-2 306q0 2 -5 17.5 t-6.5 31.5z" />
<glyph unicode="m" horiz-adv-x="1015" d="M23 924q11 30 43 45q15 8 37 9.5t49 -13.5q34 -13 34 -78q1 -12 0 -26q0 -48 -8 -105q-5 -133 -5 -239q0 -258 28 -353q22 22 44 82.5t38 134t28 140t19 119.5l8 52q6 33 27.5 53.5t48.5 18.5q27 -3 40.5 -23t11.5 -40t-1 -31q-7 -34 -15 -126q-6 -62 -5 -106 q0 -20 1 -37q8 -117 25.5 -195.5t30 -101.5t24.5 -32q32 16 88 149q33 77 113 309q9 27 24.5 76t26 80.5t25 66.5t30.5 53.5t33 20.5q25 3 41.5 -5t23.5 -18.5t9 -28.5t1.5 -25.5t-1.5 -18.5q-7 -37 -14 -101q-6 -64 -14 -190q-2 -41 -3 -84q1 -90 11 -188q16 -146 55 -264 q4 -13 -2.5 -26.5t-20.5 -18.5q-4 -2 -12 -2q-26 0 -35 24q-100 302 -100 580q0 39 2 78q-8 -19 -10 -33q-85 -250 -139 -367t-109 -137q-32 -10 -57 6q-40 26 -71 108.5t-46 278.5q0 17 -2 23q-32 -112 -69.5 -201t-56 -119.5t-24.5 -36.5q-10 -17 -30 -14q-19 0 -29 16 q-41 68 -66 276.5t-35 422.5q-6 73 -28 98q-16 23 -16 44q0 10 4 20z" />
<glyph unicode="n" horiz-adv-x="794" d="M54 552q0 10 -1 19q-1 105 5 181q6 82 12 104q6 25 25.5 46.5t54.5 21.5q25 0 38 -27.5t7.5 -62.5t-27.5 -56q-2 -2 -9 -43.5t-13 -110t-6 -144.5v-5q0 -74 14 -152q14 -81 45 -137q215 366 319 592q7 20 25 38t45 13q27 -4 34.5 -32.5t2.5 -48.5q-4 -20 -10 -76.5 t-10 -162.5q-2 -45 -2 -87q-1 -59 3 -114q6 -95 35.5 -180.5t81.5 -113.5q13 -7 18.5 -21t-0.5 -26q-9 -22 -32 -22q-7 0 -15 4q-136 58 -166 461q-8 99 -8 208q-83 -159 -289 -520q-10 -16 -30 -16q-17 -3 -31 14q-57 80 -86.5 209t-29.5 247z" />
<glyph unicode="o" horiz-adv-x="686" d="M38 378q1 62 16 126.5t31.5 107t41 86.5t33.5 57t18 25q24 34 58 43q8 2 15 2q25 0 48 -22q37 6 71 6q64 1 118 -21q82 -32 122 -104q29 -54 30 -125v-6q0 -68 -21 -135q-22 -70 -48.5 -127.5t-58.5 -106.5q-120 -180 -250 -180q-51 0 -89 26.5t-60 63.5q-40 70 -58 146 q-17 72 -17 131v7zM119 384v-19q0 -45 12 -101q15 -66 51 -133q10 -20 31.5 -34.5t48.5 -14.5q85 0 184 147q45 68 75 144.5t38 150.5q2 17 2 33q0 52 -20 90q-25 47 -83 66q-54 18 -98 18q-3 -1 -7 -1q-46 -2 -46 -5q-7 -18 -14 -27q-29 -42 -74 -45q-26 -35 -45.5 -72.5 t-35.5 -90t-19 -106.5z" />
<glyph unicode="p" horiz-adv-x="714" d="M37 152.5q0 14.5 5 35t25 42.5t52 40q6 3 20.5 4t20.5 -2q-1 14 -10.5 136.5t-18.5 212.5t-31 197t-51 153q-14 26 -14 48q0 11 3 21q11 31 44 47q15 7 36 10t48.5 -12t38.5 -53q6 -21 6 -55q0 -20 -2 -45q20 17 41 24q40 16 81 16q80 0 163 -61q92 -67 138 -187 q43 -114 43 -231q0 -7 -1 -13q-2 -124 -39 -236q-43 -133 -125 -208t-184 -75q-18 0 -50 4q54 -739 54 -1010q0 -48 -2 -81q0 -14 -11 -24.5t-24 -10.5h-2q-15 1 -25 12.5t-10 26.5q1 30 1 71q0 132 -15 377q-19 321 -54 666q-128 58 -147 133q-4 13 -4 27.5zM111 143 q5 -28 69 -65l-12 129q-58 -29 -58 -57q0 -4 1 -7zM213 778q3 -37 24 -305.5t33 -435.5q36 -4 56 -4q78 0 142 61.5t99 171.5q24 72 29 153q1 21 1 42q0 60 -10 117q-14 78 -53 147.5t-98 114.5q-61 47 -108 47q-14 0 -27 -4q-45 -16 -88 -105z" />
<glyph unicode="q" horiz-adv-x="864" d="M84 212q-4 27 -4 55q0 76 24 159q34 115 111 199q56 62 120.5 101.5t113.5 53t99 15.5q18 1 32 1q25 0 38 -2q22 -4 35 -8q43 -14 60 -45q6 53 6 58q2 15 6.5 29.5t22.5 31t47 14.5q26 -1 41 -27.5t12 -60.5q-3 -29 -19 -51q-6 -7 -41.5 -309.5t-64.5 -657.5 q-21 -257 -21 -385q0 -49 3 -79q13 -127 37 -233.5t42 -149.5l17 -43q6 -14 0.5 -27.5t-19.5 -19.5q-10 -5 -14 -5q-22 0 -33 21l-3 7q-3 7 -7 18l-10 27.5t-12.5 39t-14.5 49.5t-16 60.5t-16 70.5t-16 82.5t-15 93.5q-8 51 -8 151q0 255 51 828q-80 -119 -226 -221 q-36 -24 -90.5 -38.5t-87.5 -14.5q-76 0 -119 55q-49 57 -61 157zM154 230q7 -84 45 -128q25 -28 75 -28h14q61 5 113 39q71 47 125.5 99.5t86 101t48 85.5t25.5 72q2 25 10.5 103.5t10.5 111.5q-14 -21 -37 -27q-16 -4 -44 1.5t-51 23.5q-2 2 -23.5 3t-57 -3t-74 -14 t-80.5 -34t-72 -58q-62 -69 -92 -166q-23 -78 -23 -149q0 -16 1 -33z" />
<glyph unicode="r" horiz-adv-x="712" d="M45.5 786.5q6.5 25.5 32.5 38.5q9 7 24.5 10.5t36.5 -3.5t33 -29q12 -16 18 -47q2 -7 9 -66q73 81 151 103q38 12 75 13q7 0 15 -1q46 -3 82 -12t66 -23.5t45 -24t18 -12.5q12 -9 14.5 -24t-6.5 -27q-9 -11 -24 -13t-27 7q-2 2 -6.5 5t-19 11t-29.5 15t-37.5 14 t-44.5 10.5t-48.5 2.5t-51.5 -9q-14 -5 -29 -13.5t-27.5 -18.5t-26 -24t-22.5 -25t-20.5 -26t-16.5 -23t-13 -20.5t-9 -13.5q12 -211 12 -427v-87q0 -15 -10.5 -26t-24.5 -11q-15 0 -26 11t-11 26v32q0 293 -69 623q-9 21 -17 33q-22 26 -15.5 51.5z" />
<glyph unicode="s" horiz-adv-x="768" d="M45.5 165.5q-4.5 14.5 1.5 27.5t20 17.5t27 -1.5q285 -133 364 -133h7q-16 44 -90 121q-209 219 -243 383q-7 32 -7 64q0 127 111 233q82 79 192 79q19 0 39 -2q72 -8 158.5 -65t101.5 -82q13 -20 13 -38t-9 -30.5t-18 -19.5t-17 -10q-16 -8 -39 -4q-39 3 -45 45 q-1 6 -14 22.5t-33 37t-50.5 38t-61.5 20.5q-20 2 -39 2q-32 0 -56 -6q-40 -8 -73 -39q-37 -37 -59 -71q-20 -34 -28 -86q-2 -15 -3 -29q0 -38 14 -79q19 -57 73 -138t144 -176q76 -80 100 -132q12 -26 12 -46.5t-12 -36.5q-18 -27 -59 -27h-9q-32 0 -77 12 q-119 33 -318 129q-13 6 -17.5 20.5z" />
<glyph unicode="t" horiz-adv-x="704" d="M0.5 653q5.5 31 34.5 53q14 12 95.5 43.5t176.5 53.5q5 203 16.5 434.5t19.5 359.5q7 114 7 127l-10 56q3 34 22.5 56t45.5 22t45 -26q16 -22 16 -53v-10q-3 -28 -14 -147t-29 -357t-28 -446q72 11 133 11q78 0 143 -17q13 -3 21 -16t5 -27q-4 -15 -17 -22.5t-28 -4.5 q-52 14 -111 14q-71 0 -151 -20q-12 -255 -12 -436q0 -243 22 -350q3 -14 -5 -26t-21 -15q-4 -2 -8 -2q-12 0 -22 8.5t-13 20.5q-31 154 -31 542q0 107 2 232q-67 -25 -120 -56t-64 -45q-14 -16 -47.5 -21.5t-57.5 13.5q-21 20 -15.5 51z" />
<glyph unicode="u" horiz-adv-x="653" d="M72 428q2 46 7 124.5t8 130t1 54.5q-16 29 -10.5 60.5t27.5 55.5t45 21q17 -1 29 -7t17.5 -17l9 -18t3 -22.5t-0.5 -17.5t-1 -14q-1 -7 -16 -73t-30.5 -148t-17.5 -133q-1 -29 -1 -55q0 -117 22 -191q26 -90 82 -104q21 -5 40 -5q58 0 107 40q50 39 80.5 98.5t36.5 99.5 q-5 79 -8.5 170t-4 136.5t0.5 62.5q1 18 6 36t22 36t43 14q35 -6 50 -38q11 -24 12 -48q0 -8 -2 -16q-5 -32 -19 -42q-8 -7 -16 -135q-5 -73 -4 -151q0 -58 2 -118q6 -141 33 -169q10 -11 7.5 -26.5t-14.5 -24.5q-9 -6 -22 -6q-17 0 -29 12q-24 34 -41 154q-39 -62 -88 -103 q-68 -53 -151 -53q-28 0 -58 6q-158 37 -158 365q0 28 1 59z" />
<glyph unicode="v" horiz-adv-x="749" d="M30.5 764.5q-3.5 19.5 8.5 42.5t39 43q10 7 20 7q33 0 74 -73q3 -6 54.5 -130.5t120 -295.5t102.5 -264q17 85 52 269t63.5 335t29.5 154q16 66 80 68q15 0 27 -8.5t17.5 -23.5t5 -34t-10.5 -42.5t-29 -45.5q-3 -4 -39.5 -153t-82.5 -349t-68 -315q-7 -29 -35 -29 q-12 0 -22 7t-13 18q-21 72 -103 258t-157 339.5t-82 157.5q-21 11 -34.5 28t-17 36.5z" />
<glyph unicode="w" horiz-adv-x="1019" d="M41.5 808q-7.5 21 1 39.5t35.5 26.5q27 7 58.5 -9.5t43.5 -37.5q24 -42 30 -126q4 -52 5 -122q0 -43 -2 -92q-4 -130 -4 -151q0 -62 8.5 -113.5t19.5 -82.5t24 -53t21.5 -30.5t12.5 -9.5q2 0 5 1.5t12.5 11.5t20.5 26.5t27 51.5t33 81q50 135 72 230q-33 94 -33 143 q0 17 4 29q18 42 56 42h2q39 -1 58 -41q9 -21 9 -47q0 -17 -4 -36q-3 -12 -5.5 -26t-5.5 -32.5t-5 -29.5q3 -10 11 -31t11 -31q34 -77 69.5 -127t63.5 -59q3 -1 6 -1l52 58q92 203 92 405q0 29 -2 58q-10 -1 -20 -1q-47 0 -83 28q-31 25 -44 64q-7 20 -7 40q0 18 6 35 q19 64 82 67q5 1 10 1q44 0 76 -48q24 -35 39 -92q2 2 8.5 5.5t8.5 4.5q12 7 26.5 3.5t22.5 -15.5t4 -27t-17 -22q-35 -20 -41 -23q3 -33 3 -67q0 -83 -17 -179q-24 -135 -84 -268q-18 -41 -40 -65t-43 -29.5t-37.5 -4t-32.5 8.5q-79 32 -156 199q-11 -40 -47 -143 q-79 -219 -169 -219q-5 0 -9 1q-49 6 -97 109.5t-55 245.5q-19 376 -49 409q-11 11 -22 28.5t-18.5 38.5zM764 868q-3 -15 2 -33.5t18 -29.5q23 -13 50 -10q-8 45 -29 73q-11 17 -21 17h-2q-12 0 -18 -17z" />
<glyph unicode="x" horiz-adv-x="815" d="M22.5 728q-7.5 31 10.5 52q22 26 48.5 26t59.5 -26q38 -31 140 -157q93 123 188 176q52 29 112 40q37 7 68 7q21 0 39 -3q46 -7 70 -28q26 -22 33 -48t-7 -48q-19 -25 -47 -25q-26 0 -59 21q-10 7 -36 15q-25 8 -66 8h-2q-40 0 -72 -17q-94 -51 -174 -156 q175 -229 278 -432q6 -13 1.5 -27.5t-17.5 -21.5q-8 -4 -17 -4q-20 0 -30 20q-114 223 -269 392q-36 -60 -49 -86q-57 -112 -84 -220q-19 -77 -20 -136q0 -24 4 -46q2 -14 -7 -26t-24 -13q-1 0 -2 -1t-2 -1q-13 0 -23.5 9.5t-13.5 23.5q-4 26 -4 54q0 92 38 208 q49 151 138 287q-99 99 -166 135q-29 17 -36.5 48z" />
<glyph unicode="y" horiz-adv-x="602" d="M12 668q-1 17 -1 33q0 31 1 53v34q-6 18 -6 35q0 26 14 52q21 37 55 37q5 0 11 -1q34 -5 44 -37t5 -55q-7 -33 -20 -49q-2 -2 -7 -54t-6 -134q-1 -18 -1 -36q0 -66 5 -134q5 -86 30 -168t67 -123q16 -16 41 -16q13 0 28 4q58 16 108 121.5t79.5 231.5t46.5 265l10 92 q2 15 13 24.5t26 8.5q13 -1 23 -13t10 -26q-1 -3 -8 -78q-12 -132 -19 -383q-2 -90 -2 -192q0 -132 3 -284q7 -268 32 -509t65 -250q15 -4 22.5 -17t4.5 -28q-8 -30 -43 -24q-25 3 -46 35.5t-35 90.5t-25 128t-18 161.5t-11.5 177t-7 187t-3.5 180t-2.5 167.5t-2.5 138 q-78 -236 -199 -274q-26 -7 -49 -7q-49 0 -86 31q-36 30 -63.5 85.5t-42.5 121t-24.5 138t-12.5 139.5t-3 121z" />
<glyph unicode="z" horiz-adv-x="841" d="M32 562.5q-11 21.5 5 51.5q11 27 52 68.5t105 77.5q61 35 113 35h6q87 -1 155 -63t103 -152q87 0 160 -21q12 -5 18.5 -16t2.5 -23q-3 -12 -14 -18.5t-23 -3.5q-67 18 -123 18q13 -54 13 -109q0 -26 -3 -53q32 -6 83 -32t84 -47.5t36 -24.5q11 -9 12 -24.5t-8 -26.5 q-11 -11 -25.5 -11.5t-25.5 9.5l-8 6q-8 6 -17 12.5t-25.5 16.5t-33.5 19t-40 18.5t-46 15.5q-16 -55 -53 -101q-66 -82 -164.5 -130t-182.5 -48q-58 0 -88 18q-31 19 -31 52q0 28 14 60q15 34 41.5 66.5t57.5 57.5q140 112 295 112q27 0 55 -3q1 17 1 34q0 56 -15 107 q-23 -5 -43.5 -11t-30 -10.5t-10.5 -5.5q-11 -11 -26 -20q-20 -7 -36 -7q-29 0 -40 25q-4 9 -4 18q0 28 39 50q30 15 129 24q-32 69 -81 109t-104 41q-47 0 -100 -50.5t-53 -101.5q0 -32 -24.5 -45.5t-51.5 -5.5q-13 3 -26 12t-24 30.5zM143 93q4 -8 17 -13q14 -3 30 -3 q53 0 127 31q97 40 162 121q22 28 39 70q-12 2 -39 2q-132 0 -252 -96l-13 -11q-12 -10 -19.5 -17t-20.5 -20t-19 -23.5t-11 -21.5t-1 -19z" />
<glyph unicode="{" horiz-adv-x="548" d="M41 879q0 15 9.5 24.5t23.5 11.5q46 4 98 20.5t70 41.5q7 9 12 37t-2 144.5t-37 297.5q-10 61 -22 126.5t-21.5 116.5t-18 93t-13.5 65l-5 23q-6 23 15 37q24 14 98 -7t110 -42q69 -42 37 -92q-15 -23 -40 -27.5t-41.5 1t-28.5 13.5l-62 43q38 -191 64 -338 q20 -128 30 -227t11 -150t-5.5 -89.5t-10.5 -47t-11 -20.5q-32 -42 -108 -68q167 -126 172 -489q1 -71 7 -129t14.5 -92t19 -58t18 -33.5t12.5 -11.5l2 2q11 11 25.5 12t25.5 -8q11 -11 12 -25.5t-9 -25.5q-23 -26 -54 -26l-26 4q-56 22 -87 123.5t-32 267.5 q-1 124 -24 217.5t-51.5 139t-63.5 72.5t-53 32.5t-27 5.5q-14 2 -23.5 12t-9.5 23z" />
<glyph unicode="|" horiz-adv-x="362" d="M76 603q2 456 6.5 956t3.5 507q-4 34 14 57t43 23q27 0 40.5 -25t11.5 -46q-4 -32 -15 -45q-2 -3 -12 -489.5t-16 -941t2 -613.5q12 -115 28 -148q15 10 31 33q25 25 53 6q10 -10 10.5 -25.5t-8.5 -27.5q-37 -48 -71 -57q-15 -6 -35 0q-33 11 -51.5 59t-28.5 151 q-8 170 -6 626z" />
<glyph unicode="}" horiz-adv-x="684" d="M38 1775q4 21 15 35q31 33 91 60t102 12q12 -5 21 -13.5t14.5 -20t8.5 -22.5t4 -24.5t1.5 -21.5t0.5 -18l-1 -11q13 -265 22 -350q26 -207 74 -246q5 -3 19 1t35 18.5t41 37.5t38.5 65.5t26.5 96.5q7 33 37 33q14 0 24.5 -10t10.5 -23l1 -12q0 -11 1.5 -31t2.5 -49.5 t3 -65t3 -77.5t2.5 -87.5t2 -95.5t1 -101.5t-0.5 -104.5q-3 -210 -17 -356.5t-37 -220.5t-44 -106.5t-47 -46.5q-17 -9 -55.5 -12t-97.5 12.5t-105 53.5q-11 11 -12.5 25.5t7.5 25.5t24.5 12t27.5 -8q0 -3 29 -21.5t68.5 -30.5t80.5 7q9 5 19 18.5t25.5 58t27.5 112t22 192 t12 285.5q3 239 -8 450q-42 -61 -119 -106q-40 -19 -86 0q-37 16 -63.5 96t-39 182.5t-19 203t-9 170t-4.5 69.5q-13 -1 -42 -23.5t-56 -50.5q-12 -16 -37 -22.5t-41 14.5q-9 21 -5 42z" />
<glyph unicode="~" horiz-adv-x="1820" d="M28.5 639q-4.5 15 2.5 27q112 220 307 266q298 74 766 -252q107 -74 219 -101.5t197.5 -12t140.5 62.5q47 40 58 93t-17 112q-6 12 -0.5 26.5t18.5 20.5q12 6 26.5 0.5t20.5 -17.5q38 -82 22.5 -158.5t-81.5 -132.5q-101 -84 -258 -84q-208 9 -387 134q-442 306 -709 239 q-165 -41 -260 -229q-6 -12 -20.5 -17t-28.5 2q-12 6 -16.5 21z" />
<glyph unicode="&#xa1;" horiz-adv-x="247" d="M49 117q2 7 2 185.5t7 461t24 502.5q2 14 13 23.5t26 8.5q15 -3 24.5 -14t8.5 -24q-25 -319 -24 -594t11.5 -390.5t16.5 -123.5q7 -8 13 -25.5t5.5 -43.5t-14.5 -46q-8 -11 -23 -19t-35.5 -5t-35.5 24q-30 37 -19 80zM102 1808q-3 28 8 48.5t31 23.5q19 3 37 -13t21 -42 q5 -17 -2.5 -42.5t-34.5 -29.5q-26 -4 -40.5 15t-19.5 40z" />
<glyph unicode="&#xa2;" horiz-adv-x="1069" d="M37 827q12 265 125 447t309 254q22 109 47.5 200t37.5 123t17 43q17 31 44.5 42.5t50.5 -1.5q35 -23 28 -66.5t-47 -72.5q-4 -2 -19.5 -34.5t-37.5 -90.5t-39 -117q70 14 127 19q198 12 281 -100q92 -121 67 -347q0 -2 -1 -8.5t-5 -18.5t-10 -22.5t-18.5 -18t-28.5 -7.5 q-31 0 -43.5 26t-10.5 51q0 24 15 46q4 10 7.5 55.5t-4 105.5t-30.5 88q-72 87 -215 78q-87 -7 -152 -26l-6 -32q-6 -32 -14.5 -88t-19 -142t-20.5 -193t-17 -241.5t-9 -288t3 -332.5q74 -29 161 -29q76 3 127 23.5t66 54.5q18 39 -12 82q-23 26 -56 26q-3 0 -13.5 -1 t-12.5 -1q-28 0 -35 27q-2 4 -0.5 11.5t5.5 15.5t18 14t36 6q69 0 113 -53q28 -34 33.5 -76t-11.5 -80q-18 -44 -78 -80.5t-178 -40.5q-96 0 -161 23q4 -134 8 -205q0 -11 -10.5 -23.5t-24.5 -13.5q-13 -3 -24 8t-13 25q-8 173 -10 240q-75 40 -131 96q-106 107 -161 271.5 t-48 348.5zM109 825q-7 -170 42.5 -320t145.5 -247q38 -38 78 -63q-15 717 80 1249q-156 -74 -246.5 -234.5t-99.5 -384.5z" />
<glyph unicode="&#xa3;" horiz-adv-x="1273" d="M35 158q3 13 15.5 20t27.5 4q6 -2 16 -4t39 -5t56.5 -0.5t63 16t62.5 38.5q48 43 74 119.5t28 154.5t-2.5 149.5t-12.5 117.5l-9 45q-200 -16 -252 -55q-3 -11 -12.5 -18t-19.5 -7q-19 0 -29 13.5t-8 25.5q18 87 309 113q-17 95 -25.5 144.5t-21 128t-18 119.5 t-12.5 102.5t-7 94.5v78.5t7 72t16 56.5t24 50.5t35 37.5q63 54 178 47.5t307 -75.5q162 -59 231 -109.5t66 -109.5q-2 -33 -41 -65.5t-84 -52.5t-85.5 -35.5t-41.5 -16.5q-9 -8 -27.5 -15t-46.5 -7t-49 16q-9 7 -16 19t-3.5 32.5t26.5 38.5q13 11 36.5 15.5t61.5 -5.5 q23 5 60.5 14.5t86.5 30t52 37.5q0 4 -1 8t-14 18t-36.5 29.5t-75.5 39.5t-123 50q-327 118 -414 43q-19 -16 -31.5 -40.5t-18 -64t-8 -75.5t3.5 -100t11 -110t19 -132.5t23 -141.5t28 -161q158 7 335 4q15 0 25 -11t10 -26q0 -14 -11 -24.5t-26 -10.5q-179 3 -321 -4 q27 -162 26 -290.5t-42 -227t-123 -154.5q307 -31 600 9q222 29 249 81l1 1q1 11 -15.5 28t-36.5 29q-12 6 -15.5 20.5t3.5 26.5q6 13 21 17.5t28 -3.5q9 -6 19.5 -13.5t29 -25.5t28.5 -42t7 -50q-5 -33 -40.5 -60t-108.5 -50.5t-201 -37.5t-303 -16q-137 -2 -270 11.5 t-196.5 26.5t-66.5 16q-14 3 -21 16.5t-3 26.5z" />
<glyph unicode="&#xa4;" horiz-adv-x="919" d="M25 1153q-4 10 2 25.5t16 23.5q9 8 21.5 8t21.5 -8q22 -15 180 -160q40 85 66 111q25 35 59 44t64 -19q130 18 217 -29q18 20 30 32.5t36 32.5t41.5 28.5t38.5 8.5t36 -16q19 -27 18.5 -65t-10.5 -58q-6 -12 -20.5 -16.5t-26.5 2.5q-24 9 -20 39q-39 -31 -54 -45 q132 -166 -41 -478q140 -147 189 -237q8 -12 5 -27t-15 -22q-20 -11 -32 -6.5t-18 16.5q-44 82 -167 215q-117 -176 -244 -176q-50 0 -88.5 25t-59.5 61q-41 -97 -32 -148q4 -37 -33 -43q-13 -1 -24.5 8t-14.5 23q-14 88 65 244q-77 199 5 426q-69 62 -97 82q1 -2 1.5 -5.5 t1.5 -12.5t-1 -16.5t-9 -15.5t-19 -12q-19 -7 -34 2.5t-20 24.5zM275 707q6 -74 27.5 -134.5t57.5 -92t72 -23.5q43 8 77.5 39.5t90.5 105.5q30 39 61.5 114t48 162t-13.5 144q-27 47 -85.5 65.5t-103 16.5t-44.5 -6q-35 -70 -88 -70q-56 -73 -81 -160t-19 -161z" />
<glyph unicode="&#xa5;" horiz-adv-x="1150" d="M23 1644.5q-4 15.5 2 40.5t30 37q29 14 59 -8t40 -57q0 -1 9 -54.5t21.5 -125t37 -160t53.5 -164t73 -133t94 -70.5q54 -14 136 22.5t153 112.5q55 57 100.5 111t77 97t56 81.5t39 68.5t25 54.5t14.5 42.5t6 29.5t2 18.5v7v3q0 2 -0.5 4.5t0 6.5l1 8t2.5 8.5t4.5 8 t6.5 6.5t10 5q15 5 25.5 -2.5t13.5 -18.5l4 -10q2 -7 3 -19.5t-3 -39.5t-14.5 -59.5t-35 -81t-59.5 -102.5t-93 -126t-132 -150q-106 -109 -229 -147v-10q1 -13 -4.5 -32t-13.5 -28q-15 -15 -15 -239h15q71 -1 162.5 -7t148.5 -11.5t63 -6.5q14 -2 24 -13t9 -26t-13 -25 t-26 -8l-13 1q-12 2 -33.5 4t-49.5 4.5t-62.5 5t-68.5 4.5t-71.5 4t-69.5 2h-15q0 -13 1 -41.5t1 -44.5h13q71 -1 162.5 -7t148.5 -11.5t63 -6.5q15 -2 24.5 -12.5t8.5 -26.5q-1 -15 -13 -24.5t-26 -7.5l-13 1q-12 1 -33.5 3t-49.5 4.5t-62.5 5t-68.5 5t-71.5 4t-69.5 1.5 h-11q3 -175 15 -395q0 -14 -10 -24.5t-25 -10.5q-15 -1 -26 9.5t-11 25.5q-10 188 -20 395q-208 -4 -263 -8q-22 -15 -45 -8q-21 3 -33.5 13.5t-15 19t-2.5 16.5q0 20 13.5 32t26.5 14t24 1q3 0 49 -1t117 -2.5t124 -2.5q-1 14 -2 42t-2 42q-203 -4 -254 -8q-22 -14 -45 -11 q-51 9 -51 52q0 20 13.5 32t26.5 14t24 1q3 0 47.5 -1t113.5 -2.5t123 -2.5q-14 265 -10 288q2 4 2 9q-68 12 -127 86.5t-96.5 172.5t-64.5 194.5t-43 165t-21 71.5q-30 18 -47 51q-4 9 -8 24.5z" />
<glyph unicode="&#xa6;" horiz-adv-x="186" d="M23 688q1 7 2.5 13t3.5 10.5t5 8.5t5.5 6.5t6 5t6 3.5t6 2.5t5 2t4.5 0.5l3 1q31 0 42 -22t9 -43q-2 -12 -2 -383q0 -69 -4.5 -159.5t-8.5 -153.5l-4 -62q-2 -14 -13 -24t-26 -9t-24.5 13t-7.5 26l1 12q1 13 2.5 35t3 50t3 62t3 68.5t2.5 72t1 69.5q0 105 -14 350 q-14 17 -10 45zM23 1739q3 21 13.5 34t18.5 16t15 3q31 0 42 -22.5t9 -43.5q-2 -12 -2 -383q0 -69 -4.5 -159.5t-8.5 -152.5l-4 -62q-2 -13 -13.5 -23.5t-25.5 -9.5q-15 1 -24.5 13t-7.5 26l1 13q1 12 2.5 33.5t3 49.5t3 62.5t3 68.5t2.5 71.5t1 69.5q0 106 -14 351 q-14 17 -10 45z" />
<glyph unicode="&#xa7;" horiz-adv-x="811" d="M45 111q31 56 156 65h2q13 0 23 -9.5t12 -23.5q0 -13 -11 -24q-10 -13 -24 -13q-30 0 -61.5 -9t-37.5 -19q-1 -4 7 -21q39 -65 129.5 -103t179.5 -38q21 0 31 2q85 6 102 51q22 62 -96 187q-100 103 -168.5 200t-100 175.5t-42.5 138t-7 112.5q12 157 137 250 q60 48 130 45q-132 199 -119 367q12 145 127 231q96 75 196 19q61 -36 103 -121t55 -154t8 -94q-7 -50 -53 -53h-4q-23 0 -37 28q-16 40 8 74q2 21 -5.5 66t-36 107t-73.5 89q-58 36 -122 -14q-92 -70 -101 -182q-12 -173 176 -420q48 -62 79.5 -123t42.5 -107.5t14.5 -69.5 t3.5 -42q0 -31 -13 -53q-7 -18 -18 -29q-35 -41 -105 -41q-34 0 -65 8q-73 17 -145 68.5t-115 116.5q3 -235 299 -545q150 -153 112 -258q-17 -43 -71 -70t-127 -27q-106 0 -212.5 46.5t-156.5 128.5q-28 48 -6 88zM231 868q-3 -22 14 -55.5t48 -67.5q50 -57 110.5 -89.5 t118.5 -32.5q24 0 45 6q-19 37 8 80q0 16 -4.5 47t-16 78t-38.5 91t-65 66q-65 41 -134 -14q-59 -44 -86 -109z" />
<glyph unicode="&#xa8;" horiz-adv-x="401" d="M38 1414.5q2 14.5 7 25.5q12 28 34 39.5t44 1.5q18 -7 25 -28.5t-5 -57.5q-7 -17 -30 -35t-47 -6q-18 9 -24 27.5t-4 33zM208 1414.5q2 14.5 7 25.5q12 28 34 39.5t44 1.5q18 -7 25 -28.5t-5 -57.5q-7 -17 -30 -35t-47 -6q-18 9 -24 27.5t-4 33z" />
<glyph unicode="&#xa9;" horiz-adv-x="1431" d="M26.5 882q12.5 129 57.5 255q30 86 75 170.5t112.5 169.5t145.5 148.5t180.5 101.5t211.5 34q106 -4 196 -36t153.5 -81t111 -115t74.5 -134.5t40 -143.5q11 -61 14 -131t-4.5 -156t-26 -171t-55.5 -175t-89.5 -170t-131 -155.5t-176.5 -130.5q-138 -78 -299 -78 q-119 0 -221 42.5t-174.5 116.5t-121 176t-67 218t-6 245zM102.5 681q11.5 -105 50.5 -199t100 -165t154.5 -114.5t208.5 -46.5q81 -3 158.5 19.5t142 64.5t122.5 100.5t103.5 128.5t82 147.5t59.5 159.5t35.5 162t11.5 156.5t-16 142.5q-19 83 -57.5 158t-99 141.5 t-151 108t-198.5 45.5q-81 3 -160 -22.5t-143.5 -71.5t-122 -104.5t-102 -125.5t-77 -130t-52.5 -122q-36 -105 -48.5 -216.5t-1 -216.5zM451 793q-6 142 59 254q49 89 137 110q38 9 82.5 1t73.5 -21q20 3 42.5 -12.5t31.5 -37.5q8 -20 -4 -44.5t-46 -24.5q-32 0 -57 22 q-16 16 -56 34t-73 3q-52 -26 -89.5 -103t-31.5 -177q2 -37 7.5 -69t17.5 -68t36 -56.5t58 -19.5q55 1 119.5 41.5t101.5 79.5q7 7 19.5 9t29.5 -9q9 -9 9.5 -24t-9.5 -24q-41 -46 -117.5 -93.5t-152.5 -47.5q-173 0 -188 277z" />
<glyph unicode="&#xaa;" horiz-adv-x="720" d="M58 1092.5q24 84.5 104 164.5q53 54 115.5 66.5t113.5 -5t103 -55t82.5 -68.5t52.5 -60q-5 383 -193 462q-24 10 -43 14.5t-31 5t-21.5 -4t-13.5 -8t-7 -12t-3.5 -11t-1.5 -8.5q30 -16 35.5 -48.5t-5.5 -59.5t-26 -38q-22 -18 -41.5 -12t-29.5 16t-17 23q-17 31 -0.5 102 t54.5 105q57 55 180 4q63 -26 109 -80t70.5 -116.5t38 -138.5t16 -139t0 -126t-5.5 -91t-5 -42t-13.5 -24t-27.5 -7q-14 2 -23 14t-8 27q3 14 5 39q-71 -14 -244 -78q-67 -25 -121.5 -30t-90 7t-57 28.5t-34.5 37.5q-40 62 -16 146.5zM120 1041q0 -32 13 -56 q25 -37 82.5 -41t134.5 27q174 65 252 80q-13 17 -23 30t-39 45t-54 53.5t-62.5 44t-70.5 29t-71 -3.5t-71 -43q-44 -44 -67.5 -88.5t-23.5 -76.5z" />
<glyph unicode="&#xab;" horiz-adv-x="1282" d="M12 373q-7 56 189 309q178 231 272 313q34 28 63 42t47.5 15t33 -4.5t21 -13t9.5 -14.5l4 -20t-12.5 -33.5t-46.5 -22.5q-27 -4 -45 4q-2 0 -28.5 -23.5t-75 -73t-104.5 -114t-125 -159.5t-128 -195q50 -45 309 -156q291 -120 402 -149q13 -4 20 -17t4 -28 q-4 -12 -16 -20.5t-29 -4.5q-137 38 -430 162q-94 40 -160 73t-99 52t-51 36.5t-20.5 24.5t-3.5 17zM432 373q-7 56 189 309q178 231 272 313q34 28 63 42t47.5 15t33 -4.5t21 -13t9.5 -14.5l4 -20t-12.5 -33.5t-46.5 -22.5q-27 -4 -45 4q-2 0 -28.5 -23.5t-75 -73 t-104.5 -114t-125 -159.5t-128 -195q50 -45 309 -156q291 -120 402 -149q13 -4 20 -17t4 -28q-4 -12 -16 -20.5t-29 -4.5q-137 38 -430 162q-94 40 -160 73t-99 52t-51 36.5t-20.5 24.5t-3.5 17z" />
<glyph unicode="&#xac;" horiz-adv-x="997" d="M20 870q-14 41 54 60q27 5 381 6.5t428 -8.5q40 -9 61 -43q28 -42 29.5 -89.5t-17.5 -117.5q-1 -4 -5.5 -19t-7 -24.5t-5 -23.5t-2 -25t3.5 -19q13 -31 -20 -47q-12 -6 -27 0.5t-21 20.5q-5 13 -6 30t1.5 35.5t5 32t7 31t5.5 20.5q28 111 0 158q-8 8 -15 8 q-97 8 -319 2.5t-432 -16.5q-6 -3 -16.5 -6t-28 -5t-32.5 7.5t-22 31.5z" />
<glyph unicode="&#xad;" horiz-adv-x="901" d="M31 608q9 24 40.5 42t108.5 32q72 13 178.5 15t239 -12t244.5 -44q14 -5 21.5 -17.5t4.5 -25.5q-3 -15 -16 -22.5t-27 -4.5q-155 27 -283.5 37.5t-203 8t-127 -12t-71.5 -17.5t-21 -12q-4 -12 -21.5 -20.5t-31.5 -5.5q-24 3 -32.5 22.5t-2.5 36.5z" />
<glyph unicode="&#xae;" horiz-adv-x="1056" d="M35.5 1014q2.5 117 46.5 233q20 56 49.5 112t76.5 117t102 107.5t130 76.5t156 30q89 0 163 -33t122.5 -87.5t79.5 -116t45 -128.5q12 -55 12.5 -122t-12 -142.5t-38 -149.5t-71 -144t-104.5 -125t-144 -92.5t-186 -47.5q-86 -9 -166 27t-138 108.5t-92 166t-31.5 210.5z M113.5 1002q0.5 -115 36 -210.5t117 -157t196.5 -61.5q77 0 150 32t129.5 87t103 128t70.5 155t32 168.5t-12 167.5q-27 125 -121.5 220t-218.5 87q-77 -6 -144 -34t-113.5 -67.5t-85.5 -92t-62 -100t-41 -99.5q-37 -108 -36.5 -223zM268 961q0 23 23 30l12 1q12 2 29 3 t33 0q-6 66 3 193t23 190q-37 -50 -47 -114q7 -6 12 -25.5t-3.5 -39.5t-35.5 -23q-3 -1 -9 0t-14.5 6t-14 15.5t-8 29t2.5 47.5q7 38 25.5 76t48.5 74.5t78 60t106 24.5q60 1 111 -29.5t80 -84.5q73 -136 -10 -260q-66 -105 -213 -164q131 -41 274 -135q11 -6 13 -18t-5 -23 q-4 -8 -14.5 -12t-26.5 3q-174 116 -313 140q14 -122 49 -203q7 -28 -18 -39q-11 -4 -22.5 2t-16.5 16q-37 107 -51 232q-51 -4 -72 -2q-25 3 -29 29zM424 1006q72 21 137.5 62t102.5 99q64 94 8 201q-12 21 -33 40t-50.5 32.5t-70 9t-82.5 -30.5q14 0 25 -11t14 -24 q0 -37 -24 -55q-5 -21 -11.5 -59t-12.5 -115t-3 -149z" />
<glyph unicode="&#xb0;" horiz-adv-x="421" d="M24.5 1599.5q0.5 10.5 4.5 24.5q4 11 8.5 19.5t9 13.5t10 8t10 3.5t9 0t8 -1.5t6 -2.5t3.5 -2.5l1 -1q36 68 131 68q44 0 86.5 -38.5t59.5 -95.5q8 -24 10 -50.5t-4 -65.5t-37 -82.5t-84 -81.5q-53 -37 -98 -37q-31 0 -66 25q-42 40 -58 118.5t-7 153.5q0 1 -1.5 7.5 t-1 17zM106 1526q-5 -52 3 -102t30 -70q25 -21 76 18q127 89 90 203q-11 36 -36.5 60t-43.5 24q-57 0 -69 -31q-19 -37 26 -92q9 -12 8 -26t-12 -23q-23 -20 -49 6z" />
<glyph unicode="&#xb1;" horiz-adv-x="925" d="M35 76q9 25 40 43.5t109 32.5q71 13 178.5 14.5t240 -13t245.5 -44.5q14 -3 21 -16.5t3 -26.5q-3 -14 -15.5 -22t-27.5 -5q-154 27 -282.5 37.5t-202.5 8t-127 -12t-72 -17.5t-22 -12q-4 -12 -20.5 -20.5t-30.5 -6.5q-25 4 -34 24.5t-3 35.5zM53.5 559.5q-2.5 18.5 3 34 t13.5 24.5q90 92 270 127q1 41 3.5 82t6 71.5t6 55t4.5 38t2 14.5q0 13 7 34q12 28 33.5 40t43.5 3q9 -3 17.5 -14t12.5 -33t-15 -53q-4 -5 -12 -31.5t-18 -80.5t-15 -113q194 23 428 -10q15 -1 23.5 -13.5t6.5 -27.5q-3 -14 -15 -23t-25 -6q-244 33 -422 8q0 -213 67 -405 q5 -14 -2 -27.5t-20 -17.5q-14 -6 -27 1t-18 19q-68 166 -72 414q-58 -15 -100 -37t-55 -34.5t-15 -18.5q-11 -34 -41.5 -50.5t-58.5 0.5q-14 11 -16.5 29.5z" />
<glyph unicode="&#xb2;" horiz-adv-x="634" d="M29 893q-6 24 14 41q149 106 284.5 268.5t145.5 288.5q6 81 -45 129q-25 25 -74 25q-50 0 -98 -25q-40 -19 -60.5 -45.5t-25.5 -44.5q8 -24 2.5 -44.5t-20.5 -31.5q-17 -10 -29 -10q-15 0 -33 14q-17 21 -14 47q1 13 6 28.5t18.5 44.5t44.5 59t76 53q61 28 127 28 q81 0 131 -47q75 -75 66 -186q-5 -68 -42 -145.5t-93.5 -149.5t-114.5 -132t-119 -112q163 16 373 60h6q12 0 23 -8.5t12 -20.5q3 -13 -5 -25.5t-22 -15.5q-323 -68 -495 -68h-5q-23 0 -34 25z" />
<glyph unicode="&#xb3;" horiz-adv-x="638" d="M41 1479q1 20 9.5 42.5t39.5 60.5t82 71q79 51 168 51q60 0 104 -23q36 -19 61.5 -43t38 -46.5t18 -47.5t5 -43.5t-3.5 -36.5q-9 -52 -43 -100t-86 -84q121 -37 160 -119q47 -102 -62 -207q-71 -68 -155 -90q-27 -8 -62 -8h-18q-55 6 -98 43q-10 10 -13 25q0 15 9 24 q13 13 28 13q14 0 23 -9q27 -24 69 -24q43 0 88 23.5t78 54.5q74 70 47 124q-19 40 -78 67.5t-128 27.5q-6 0 -19.5 -1t-19.5 -1q-14 -3 -26 6t-13 24q-3 13 8 27q9 12 22 12q76 9 141 64.5t79 122.5q15 87 -82 139q-25 14 -66 14q-69 0 -131 -39q-38 -21 -58.5 -49.5 t-25.5 -48.5q10 -17 10 -37q0 -22 -8 -35q-12 -24 -41 -24q-22 0 -33 14q-25 22 -18 66z" />
<glyph unicode="&#xb4;" horiz-adv-x="315" d="M27 1427l178 293q8 12 21.5 16t27.5 -3q12 -8 15.5 -23t-3.5 -27l-178 -294q-20 -32 -51 -11q-24 21 -10 49z" />
<glyph unicode="&#xb5;" horiz-adv-x="636" d="M12 -143q-2 12 6.5 27.5t18.5 19.5q6 2 16 36t17.5 121.5t-7.5 233.5q-9 79 -6 184q2 46 7 124.5t8.5 130t1.5 54.5q-15 30 -9.5 61.5t27.5 55.5t45 21q67 -6 58 -97q-1 -7 -16.5 -73t-31.5 -148t-18 -133q-12 -322 104 -350q80 -18 148 35q49 39 80 99t37 99 q-6 79 -10 170.5t-4 136.5t1 62q1 19 6.5 37t22 35.5t41.5 13.5q36 -6 51 -37t10.5 -62.5t-18.5 -43.5q-8 -7 -16.5 -134.5t-3 -268.5t33.5 -171q9 -11 7 -25.5t-13 -23.5q-11 -8 -22 -8q-18 0 -29 14q-27 34 -43 154q-40 -67 -86 -103q-67 -55 -152 -55q-30 0 -57 6 q-46 13 -74 41q-3 -84 -12 -139q-13 -68 -28.5 -96t-36.5 -35q-13 -6 -31.5 2t-22.5 29z" />
<glyph unicode="&#xb6;" horiz-adv-x="991" d="M20 1362.5q26 162.5 121 333.5q27 49 57 85.5t54.5 56.5t53.5 31t45 15t39 1.5t25.5 -3.5t14.5 -4q15 -2 35 -14q12 4 20 4q5 0 17 -4q67 11 151 8q54 0 90 -8q12 4 19 4q21 0 35 -17q2 -2 6 -2q87 -35 104 -106q3 -17 -6.5 -31.5t-26.5 -17.5q-2 -2 -8 -2q-15 0 -26.5 9 t-14.5 23q-7 21 -24 31q0 -2 -2 -2q-2 -5 -6 -490.5t-4.5 -940.5t8.5 -615q10 -100 30 -147q1 2 11.5 12.5t19.5 21.5q26 26 51 7q12 -10 12.5 -26t-8.5 -28q-43 -49 -69 -57q-20 -7 -37 -2q-32 11 -51 59t-31 152q-9 87 -13 581.5t-4.5 993t-0.5 512.5q-16 2 -56 2 q-59 3 -116 -4q-4 -22 -13 -31q-2 -5 -6 -490.5t-4.5 -940.5t8.5 -615q10 -97 31 -147q1 2 11.5 12.5t19.5 21.5q26 26 51 7q12 -10 12.5 -26t-8.5 -28q-42 -49 -70 -57q-20 -7 -37 -2q-32 10 -50.5 58.5t-30.5 152.5q-14 130 -19 1518q-40 -61 -88 -109q-81 -78 -160 -78 q-43 0 -80 22t-57 60q-51 88 -25 250.5zM95 1364q-28 -144 11 -217q23 -42 72 -45q51 -2 115 57q79 79 137 201v371q-26 9 -43 30q-5 6 -14 12t-27.5 9t-38.5 -4.5t-48 -37t-54 -79.5q-82 -153 -110 -297z" />
<glyph unicode="&#xb7;" horiz-adv-x="188" d="M38 519.5q2 14.5 7 25.5q12 28 34 39.5t44 1.5q18 -7 25 -28.5t-5 -57.5q-7 -17 -30 -35t-47 -6q-18 9 -24 27.5t-4 33z" />
<glyph unicode="&#xb8;" horiz-adv-x="421" d="M29 -160l53 51q37 -26 89.5 -33t115.5 9q37 9 37 20q0 40 -111 123l63 58q128 -108 119 -189q-4 -30 -26 -49q-21 -21 -64 -33q-79 -20 -151.5 -8t-124.5 51z" />
<glyph unicode="&#xb9;" horiz-adv-x="206" d="M43 895l3 23q3 24 7.5 63t9.5 84.5t10 99t7 97.5q3 70 3.5 199.5t-1.5 150.5q-12 18 -8 45q10 49 51 49h6q19 -3 31 -18q13 -20 10 -48q-2 -10 -9.5 -156.5t-10.5 -226.5q-4 -70 -12.5 -161.5t-16 -148t-8.5 -62.5q-1 -13 -12 -22t-23 -9h-6q-14 2 -23 14t-8 27z" />
<glyph unicode="&#xba;" horiz-adv-x="653" d="M34 1257q1 62 16 126.5t31.5 107t41 86.5t33.5 57t18 25q24 34 57.5 43t63.5 -19q108 17 190 -15t121 -103q29 -54 30 -125.5t-21 -141.5t-49 -127.5t-58 -105.5q-120 -182 -250 -182q-51 0 -89 26.5t-60 63.5q-40 71 -58 146.5t-17 137.5zM115 1264q-3 -54 12 -121 t51 -133q10 -19 31.5 -33t48.5 -14q87 0 184 145q45 68 75 144.5t38 150t-18 123.5q-25 47 -83.5 66.5t-104.5 18t-46 -6.5q-35 -70 -88 -72q-25 -34 -45 -71t-36 -90t-19 -107z" />
<glyph unicode="&#xbb;" horiz-adv-x="1130" d="M26.5 1012q-3.5 15 2.5 39q7 18 26 21.5t31 -0.5t23 -9q25 -15 303.5 -245.5t314.5 -274.5q27 -30 21 -72q-4 -33 -29 -68.5t-72.5 -76t-86.5 -70t-105 -74.5q-7 -5 -25 -18t-27.5 -19.5t-26.5 -19t-26.5 -20t-23.5 -18t-22 -18t-16.5 -15.5t-13 -14t-6.5 -11 q-8 -33 -45 -25q-13 3 -20 17t-2 28q11 34 59 75t154 116q54 38 88.5 63t79.5 61.5t69 65.5t27 51q0 8 -6 17q-31 38 -214 182.5t-370 286.5q-7 1 -17 5t-25.5 14.5t-19 25.5zM380.5 1012q-3.5 15 2.5 39q7 18 26 21.5t31 -0.5t23 -9q25 -15 303.5 -245.5t314.5 -274.5 q27 -30 21 -72q-4 -33 -29 -68.5t-72.5 -76t-86.5 -70t-105 -74.5q-145 -104 -173 -135q-11 -11 -13 -18q-8 -33 -45 -25q-13 3 -20.5 17t-2.5 28q11 34 59 75t154 116q54 38 88.5 63t79.5 61.5t69 65.5t27 51q0 8 -6 17q-31 38 -214 182.5t-370 286.5q-7 1 -17 5 t-25.5 14.5t-19 25.5z" />
<glyph unicode="&#xbc;" horiz-adv-x="937" d="M39 1641.5q6 23.5 24 29.5q62 23 90 -90q43 -174 -8 -633q-2 -14 -12.5 -23.5t-23.5 -9.5h-3q-15 1 -24.5 13t-7.5 26q27 206 22 344.5t-15.5 199t-17.5 67.5q-4 4 -20 28q-10 25 -4 48.5zM170 -12q-36 94 23 403q48 249 145 598q49 175 107 375.5t89 306.5t31 107 q5 13 17.5 26t23.5 13q17 0 30 -18t13 -34l37 -172q0 -21 -11 -38.5t-40 -18.5q-30 -2 -49 29q-69 -218 -131.5 -434t-125 -457.5t-88.5 -420.5t-3 -241q4 -13 -2.5 -27t-20.5 -20q-2 0 -6 -1t-6 -1q-11 0 -20.5 7.5t-12.5 17.5zM367 358q-17 20 0 41q245 342 247 375 q1 5 6.5 16t17 25.5t27 17.5t35.5 -6q35 -19 9 -79l-228 -310q152 43 289 64q-3 53 -7 106t-7 91t-5.5 68t-4.5 46l-1 16q-4 26 9 47t32 23q22 2 37.5 -14t18.5 -43q4 -15 -2 -33q-8 -23 4 -301q14 -2 23.5 -12t9.5 -23t-8.5 -23.5t-20.5 -13.5q5 -119 22 -362q1 -15 -8 -26 t-24 -13q-15 0 -26 10.5t-13 24.5q-6 122 -23 360q-41 -6 -93.5 -17.5t-99 -23t-87.5 -22t-66 -17.5l-24 -6q-2 0 -6.5 -1t-6.5 -1q-19 4 -26 16z" />
<glyph unicode="&#xbd;" horiz-adv-x="1036" d="M43 938l3 24q3 23 7.5 62t9.5 84.5t9 99t6 97.5q3 71 3.5 201t-1.5 149q-12 24 -6 47q9 49 51 49h6q20 -3 29 -18q14 -17 10 -47q-1 -6 -4.5 -75t-8.5 -168t-7 -140q-3 -71 -12 -163.5t-16 -147t-9 -64.5q-2 -12 -12 -21.5t-23 -9.5h-4q-15 3 -24.5 14.5t-6.5 26.5z M121 -12q-36 96 22 403q46 237 146 598q51 179 111.5 376t95 304.5t34.5 108.5q10 27 41 24q12 -3 20.5 -13.5t8.5 -23.5v-180q0 -13 -11 -24t-24 -11q-19 0 -28 15q-70 -219 -132 -434t-125 -457t-89 -421t-3 -241q4 -13 -2 -27t-20 -20q-2 0 -6 -1t-6 -1q-11 0 -20.5 7.5 t-12.5 17.5zM412 139q-7 25 14 39q149 106 284.5 268.5t145.5 288.5q6 81 -45 129q-23 27 -74 27q-43 0 -98 -25q-40 -20 -60.5 -47t-25.5 -45q8 -22 2 -43.5t-20 -32.5q-17 -10 -29 -10q-16 0 -33 17q-17 20 -14 45q1 13 6 28.5t18.5 45t44.5 59t76 51.5q67 31 127 31 q81 0 131 -50q75 -75 66 -184q-5 -69 -42 -146.5t-94 -150t-114 -132t-119 -112.5q168 17 371 60q2 0 4.5 1t3.5 1q12 0 23 -8.5t12 -20.5q3 -15 -5 -27.5t-22 -15.5q-318 -67 -495 -67h-5q-28 0 -34 26z" />
<glyph unicode="&#xbe;" horiz-adv-x="1226" d="M35 1493q1 20 9.5 42t39.5 59.5t82 70.5q77 53 168 53q62 0 104 -22q45 -24 73.5 -55.5t37 -59.5t12 -56t-3.5 -46q-19 -109 -129 -185q122 -37 160 -118q48 -104 -62 -209q-68 -65 -155 -88q-30 -9 -62 -9h-18q-54 6 -98 41q-9 9 -13 25q0 16 8 27q12 12 29 12 q15 0 23 -8q31 -25 69 -25q44 0 89.5 23t78.5 55q73 68 45 125q-19 40 -77.5 66t-129.5 26q-26 0 -36 -2q-15 -2 -27.5 8t-13.5 25q0 16 8 24q9 12 24 15q75 9 140 63.5t77 120.5q15 90 -81 141q-27 15 -66 15q-64 0 -131 -39q-37 -23 -58 -52.5t-26 -48.5q10 -17 10 -34 q0 -24 -8 -35q-13 -27 -39 -27h-2q-19 0 -33 14q-24 27 -18 68zM489 -12q-36 94 23 403q48 249 145 598q51 181 111.5 377.5t94.5 302t36 109.5q4 12 15.5 19t23.5 5q31 -7 31 -37v-180q0 -13 -10.5 -24t-24.5 -11q-20 0 -29 15q-95 -296 -178.5 -590t-142 -588t-29.5 -375 q6 -13 0 -27t-20 -20q-2 0 -6.5 -1t-6.5 -1q-11 0 -20.5 7.5t-12.5 17.5zM676 381q-11 23 4 41l321 379q9 12 24.5 12.5t25.5 -8.5q12 -9 13 -23.5t-9 -25.5l-256 -305q183 31 295 38l4 351q2 15 13 25t24 9q15 0 25 -10.5t9 -23.5l-4 -351q12 -2 21 -12t8 -22 q0 -13 -8.5 -23t-20.5 -12l-6 -365q0 -14 -11 -24.5t-26 -10.5h-4q-13 1 -22 12t-9 25l7 361q-66 -4 -160 -18t-156 -25.5t-63 -12.5h-13q-17 3 -26 19z" />
<glyph unicode="&#xbf;" horiz-adv-x="950" d="M30.5 -5.5q4.5 52.5 32 128.5t80.5 160q206 328 215 526q2 37 -3 66t-11 39l-6 10q-10 11 -9.5 25.5t9.5 25.5q20 23 51 0q7 -8 13.5 -17.5t16.5 -40t12.5 -66t-6 -96.5t-31.5 -130.5t-71 -169t-118 -211.5q-88 -139 -101.5 -248t48.5 -170q74 -72 218 -66t269 86 q53 35 93.5 76t61.5 78t29 69.5t0 55t-28 29.5q-18 7 -27 14q-30 22 -39 50t8 52q13 18 34.5 20t43.5 -6.5t45 -25.5q39 -28 45 -87t-18 -126.5t-79 -138.5t-130 -119q-146 -94 -309 -100q-170 -6 -267 88q-22 22 -38 48.5t-27 72.5t-6.5 98.5zM254 1399q6 26 25 41t38 10 q20 -5 29.5 -25.5t3.5 -48.5q-5 -20 -20 -38t-41 -13q-44 9 -35 74z" />
<glyph unicode="&#xc0;" horiz-adv-x="1122" d="M6.5 477q1.5 32 26.5 58q14 16 72.5 58.5t107.5 72.5q50 360 201 659q65 126 211 330q17 28 47 39q6 12 18 18q13 6 27 0.5t20 -18.5q13 -26 44 -112t98 -336.5t125 -553.5l65 -20q13 -6 19.5 -19.5t1.5 -27.5t-19 -20.5t-27 -0.5q-20 5 -26 8q50 -276 88 -573 q3 -14 -6.5 -26t-24.5 -13q-14 -3 -25.5 7t-13.5 24q-46 339 -96 604q-407 116 -661 -14q-25 -243 -7 -455q2 -14 -8.5 -26.5t-27.5 -12.5q-14 1 -24 11t-11 24q-17 201 2 397q-49 -46 -49 -59q-2 -35 -43.5 -68t-83.5 -2q-22 15 -20.5 47zM291 705q264 107 635 10 q-98 506 -215 846q-17 -14 -33 -17q-7 -2 -44.5 -43.5t-87 -109t-77.5 -123.5q-131 -261 -178 -563zM439 2119.5q4 14.5 16 22.5q12 7 26.5 3.5t22.5 -15.5l176 -293q17 -27 -8 -49q-18 -11 -32 -7t-22 17l-176 295q-7 12 -3 26.5z" />
<glyph unicode="&#xc1;" horiz-adv-x="1122" d="M6.5 477q1.5 32 26.5 58q14 16 72.5 58.5t107.5 72.5q50 360 201 659q65 126 211 330q17 28 47 39q6 12 18 18q13 6 27 0.5t20 -18.5q13 -26 44 -112t98 -336.5t125 -553.5l65 -20q13 -6 19.5 -19.5t1.5 -27.5t-19 -20.5t-27 -0.5q-20 5 -26 8q50 -276 88 -573 q3 -14 -6.5 -26t-24.5 -13q-14 -3 -25.5 7t-13.5 24q-46 339 -96 604q-407 116 -661 -14q-25 -243 -7 -455q2 -14 -8.5 -26.5t-27.5 -12.5q-14 1 -24 11t-11 24q-17 201 2 397q-49 -46 -49 -59q-2 -35 -43.5 -68t-83.5 -2q-22 15 -20.5 47zM291 705q264 107 635 10 q-98 506 -215 846q-17 -14 -33 -17q-7 -2 -44.5 -43.5t-87 -109t-77.5 -123.5q-131 -261 -178 -563zM437 1811q-3 14 3 26l178 293q8 12 22 15.5t28 -3.5q12 -8 15.5 -22.5t-3.5 -26.5l-178 -295q-20 -32 -51 -10q-11 9 -14 23z" />
<glyph unicode="&#xc2;" horiz-adv-x="1122" d="M6.5 477q1.5 32 26.5 58q14 16 72.5 58.5t107.5 72.5q50 360 201 659q65 126 211 330q17 28 47 39q6 12 18 18q13 6 27 0.5t20 -18.5q13 -26 44 -112t98 -336.5t125 -553.5l65 -20q13 -6 19.5 -19.5t1.5 -27.5t-19 -20.5t-27 -0.5q-20 5 -26 8q50 -276 88 -573 q3 -14 -6.5 -26t-24.5 -13q-14 -3 -25.5 7t-13.5 24q-46 339 -96 604q-407 116 -661 -14q-25 -243 -7 -455q2 -14 -8.5 -26.5t-27.5 -12.5q-14 1 -24 11t-11 24q-17 201 2 397q-49 -46 -49 -59q-2 -35 -43.5 -68t-83.5 -2q-22 15 -20.5 47zM291 705q264 107 635 10 q-98 506 -215 846q-17 -14 -33 -17q-7 -2 -44.5 -43.5t-87 -109t-77.5 -123.5q-131 -261 -178 -563zM474.5 1705q-2.5 15 6.5 26l176 245q4 11 13 17q8 4 14 4h16l13 -6q9 -6 12 -19l160 -254q8 -12 4.5 -27t-15.5 -22q-31 -17 -51 12l-135 215l-149 -206q-8 -12 -23 -15 t-27 6t-14.5 24z" />
<glyph unicode="&#xc3;" horiz-adv-x="1122" d="M6.5 477q1.5 32 26.5 58q14 16 72.5 58.5t107.5 72.5q50 360 201 659q65 126 211 330q17 28 47 39q6 12 18 18q13 6 27 0.5t20 -18.5q13 -26 44 -112t98 -336.5t125 -553.5l65 -20q13 -6 19.5 -19.5t1.5 -27.5t-19 -20.5t-27 -0.5q-20 5 -26 8q50 -276 88 -573 q3 -14 -6.5 -26t-24.5 -13q-14 -3 -25.5 7t-13.5 24q-46 339 -96 604q-407 116 -661 -14q-25 -243 -7 -455q2 -14 -8.5 -26.5t-27.5 -12.5q-14 1 -24 11t-11 24q-17 201 2 397q-49 -46 -49 -59q-2 -35 -43.5 -68t-83.5 -2q-22 15 -20.5 47zM282.5 1762.5q-4.5 13.5 2.5 27.5 q50 99 141 121q134 34 338 -109q40 -27 81.5 -38t73.5 -6t52 22q28 22 12 61q-6 12 -1.5 26.5t17.5 20.5q14 6 28 1t22 -17q19 -40 10 -80t-41 -68q-44 -36 -105.5 -37.5t-107.5 16t-82 42.5q-178 123 -279 96q-59 -14 -96 -84q-6 -13 -21 -17.5t-28 1.5q-12 8 -16.5 21.5z M291 705q264 107 635 10q-98 506 -215 846q-17 -14 -33 -17q-7 -2 -44.5 -43.5t-87 -109t-77.5 -123.5q-131 -261 -178 -563z" />
<glyph unicode="&#xc4;" horiz-adv-x="1122" d="M6.5 477q1.5 32 26.5 58q14 16 72.5 58.5t107.5 72.5q50 360 201 659q65 126 211 330q17 28 47 39q6 12 18 18q13 6 27 0.5t20 -18.5q13 -26 44 -112t98 -336.5t125 -553.5l65 -20q13 -6 19.5 -19.5t1.5 -27.5t-19 -20.5t-27 -0.5q-20 5 -26 8q50 -276 88 -573 q3 -14 -6.5 -26t-24.5 -13q-14 -3 -25.5 7t-13.5 24q-46 339 -96 604q-407 116 -661 -14q-25 -243 -7 -455q2 -14 -8.5 -26.5t-27.5 -12.5q-14 1 -24 11t-11 24q-17 201 2 397q-49 -46 -49 -59q-2 -35 -43.5 -68t-83.5 -2q-22 15 -20.5 47zM291 705q264 107 635 10 q-98 506 -215 846q-17 -14 -33 -17q-7 -2 -44.5 -43.5t-87 -109t-77.5 -123.5q-131 -261 -178 -563zM562 1823.5q2 14.5 7 25.5q12 28 34 39.5t44 1.5q18 -7 25.5 -28.5t-4.5 -57.5q-7 -17 -30.5 -35t-47.5 -6q-18 9 -24 27.5t-4 33zM732 1823.5q2 14.5 7 25.5 q12 28 34 39.5t44 1.5q18 -7 25.5 -28.5t-4.5 -57.5q-7 -17 -30.5 -35t-47.5 -6q-18 9 -24 27.5t-4 33z" />
<glyph unicode="&#xc5;" horiz-adv-x="1122" d="M6.5 477q1.5 32 26.5 58q14 16 72.5 58.5t107.5 72.5q50 360 201 659q65 126 211 330q5 12 18 22q-57 54 -31 232q7 47 27 106q1 2 -0.5 10t-0.5 21.5t7 28.5q10 23 34 28.5t38 -4.5q7 -2 9 -8l3 -6q78 2 131 -30.5t70 -92.5q22 -76 -25.5 -158.5t-138.5 -132.5 q-12 -4 -16 -6q27 -67 59 -166t88.5 -323t106.5 -484l65 -20q13 -6 19.5 -19.5t1.5 -27.5t-19 -20.5t-27 -0.5q-20 5 -26 8q50 -276 88 -573q3 -14 -6.5 -26t-24.5 -13q-14 -3 -25.5 7t-13.5 24q-46 339 -96 604q-407 116 -661 -14q-25 -243 -7 -455q2 -14 -8.5 -26.5 t-27.5 -12.5q-14 1 -24 11t-11 24q-17 201 2 397q-49 -46 -49 -59q-2 -35 -43.5 -68t-83.5 -2q-22 15 -20.5 47zM291 705q264 107 635 10q-98 506 -215 846q-17 -14 -33 -17q-7 -2 -44.5 -43.5t-87 -109t-77.5 -123.5q-131 -261 -178 -563zM694 1722q10 -5 41 11 q73 38 107.5 100t21.5 111q-22 77 -139 71q-21 -74 -31 -121q-29 -143 0 -172z" />
<glyph unicode="&#xc6;" horiz-adv-x="1882" d="M6.5 477q1.5 32 26.5 58q14 16 72.5 58.5t107.5 72.5q50 360 201 659q65 126 211 330q17 28 47 39q6 12 18 18q13 6 27 0.5t20 -18.5q93 -218 199 -678q5 248 10 379q-34 4 -47 29.5t1.5 57.5t51.5 52q3 79 13 106q20 57 75 46q47 -8 47 -82q98 40 177 34 q63 -4 126.5 -29t109 -56t84.5 -65.5t57 -55.5t22 -27q8 -12 5 -27t-15 -22q-29 -18 -51 10q0 2 -17 21t-50 48t-73.5 57t-95 50t-106.5 25q-46 4 -102.5 -23.5t-100.5 -60.5q-41 -352 -43 -551q379 33 665 -51q14 -5 20.5 -17.5t2.5 -27.5q-3 -13 -16 -20.5t-27 -2.5 q-297 91 -647 31q0 -107 2 -156l55 -16q13 -6 19.5 -19.5t1.5 -27.5t-19 -20.5t-27 -0.5l-26 6q30 -439 151 -510q69 -43 187 37q306 215 395 285q3 20 18 29q57 34 78 0q18 -27 -22 -62q-1 -1 -64 -51q-227 -163 -364 -258q-148 -105 -264 -41q-119 73 -168 348 q-18 109 -27 248q-405 116 -659 -14q-25 -243 -7 -455q2 -14 -8.5 -26.5t-27.5 -12.5q-14 1 -24 11t-11 24q-17 201 2 397q-49 -46 -49 -59q-2 -35 -43.5 -68t-83.5 -2q-22 15 -20.5 47zM291 705q264 107 635 10l-23 108q-56 -15 -59 -18q-6 -10 -17 -21t-36 -21t-54 -5 q-10 2 -20 10t-16.5 21t-7 28t12.5 32.5t39 33.5q30 15 138 32q-86 393 -172 646q-17 -14 -33 -17q-7 -2 -44.5 -43.5t-87 -109t-77.5 -123.5q-131 -261 -178 -563z" />
<glyph unicode="&#xc7;" horiz-adv-x="1191" d="M18 1417q-16 27 1 62.5t71 52.5l121 39q0 112 72 110q52 -2 57 -75q86 20 160.5 21.5t160 -19t176.5 -79t187 -155.5q10 -11 9.5 -26.5t-11.5 -24.5q-7 -7 -20 -9t-29 11q-290 311 -647 203q-5 -77 -10.5 -276.5t-4.5 -348.5q2 -181 16.5 -323.5t34.5 -226.5t46.5 -142.5 t48 -82t43.5 -34.5q9 -4 24 -7t40 -2.5t59 15.5t67 43q124 106 211.5 196.5t126.5 142t58.5 94t20.5 54.5t-1 21q-11 26 8 45q26 19 46.5 0t17.5 -55q-6 -83 -117 -226.5t-324 -324.5q-21 -18 -51 -35q99 -96 90 -164q-4 -30 -26 -49q-20 -20 -64 -32q-79 -20 -151.5 -8 t-124.5 51l53 51q37 -26 89.5 -33.5t115.5 8.5q12 3 20.5 7.5t12.5 8t4 5.5q0 39 -109 120q-34 -6 -64 -6q-29 0 -63 17q-210 104 -244 870q-9 199 -14 578q-25 -14 -49 -31q-10 -20 -37 -39q-26 -18 -51 -17.5t-37.5 8.5t-18.5 17z" />
<glyph unicode="&#xc8;" horiz-adv-x="1183" d="M11.5 817q-0.5 15 12.5 32.5t39 33.5q36 20 189 41q8 326 12 471q-34 4 -47 29.5t1.5 57.5t51.5 52q3 79 13 106q20 57 75 46q48 -9 48 -82q98 40 176 34q63 -4 126.5 -29t109 -56t84.5 -65.5t57 -55.5t22 -27q8 -12 5 -27t-15 -22q-29 -18 -51 10q0 2 -17 21t-50 48 t-73.5 57t-95 50t-106.5 25q-46 4 -102.5 -23.5t-100.5 -60.5q-41 -352 -43 -551q379 33 665 -51q14 -5 20.5 -17.5t2.5 -27.5q-3 -13 -16 -20.5t-27 -2.5q-297 91 -647 31q1 -160 11.5 -288t26.5 -205.5t38 -133t41 -80t40 -37.5q69 -43 187 37q306 215 395 285q3 20 18 29 q57 34 78 0q18 -27 -22 -62q-1 -1 -64 -51q-227 -163 -364 -258q-148 -105 -264 -41q-119 73 -168 348q-31 205 -31 442q-84 -18 -90 -24q-6 -10 -17 -21t-36 -21t-54 -5q-10 2 -20 10t-16.5 21t-7 28zM469.5 2119.5q3.5 14.5 15.5 22.5q12 7 27 3.5t23 -15.5l176 -293 q7 -12 4.5 -26t-13.5 -23q-18 -11 -31.5 -7t-21.5 17l-176 295q-7 12 -3.5 26.5z" />
<glyph unicode="&#xc9;" horiz-adv-x="1183" d="M11.5 817q-0.5 15 12.5 32.5t39 33.5q36 20 189 41q8 326 12 471q-34 4 -47 29.5t1.5 57.5t51.5 52q3 79 13 106q20 57 75 46q48 -9 48 -82q98 40 176 34q63 -4 126.5 -29t109 -56t84.5 -65.5t57 -55.5t22 -27q8 -12 5 -27t-15 -22q-29 -18 -51 10q0 2 -17 21t-50 48 t-73.5 57t-95 50t-106.5 25q-46 4 -102.5 -23.5t-100.5 -60.5q-41 -352 -43 -551q379 33 665 -51q14 -5 20.5 -17.5t2.5 -27.5q-3 -13 -16 -20.5t-27 -2.5q-297 91 -647 31q1 -160 11.5 -288t26.5 -205.5t38 -133t41 -80t40 -37.5q69 -43 187 37q306 215 395 285q3 20 18 29 q57 34 78 0q18 -27 -22 -62q-1 -1 -64 -51q-227 -163 -364 -258q-148 -105 -264 -41q-119 73 -168 348q-31 205 -31 442q-84 -18 -90 -24q-6 -10 -17 -21t-36 -21t-54 -5q-10 2 -20 10t-16.5 21t-7 28zM471 1837l178 293q8 12 21.5 15.5t27.5 -3.5q12 -8 16 -22.5t-3 -26.5 l-179 -295q-20 -32 -51 -10q-24 21 -10 49z" />
<glyph unicode="&#xca;" horiz-adv-x="1183" d="M11.5 817q-0.5 15 12.5 32.5t39 33.5q36 20 189 41q8 326 12 471q-34 4 -47 29.5t1.5 57.5t51.5 52q3 79 13 106q20 57 75 46q48 -9 48 -82q98 40 176 34q63 -4 126.5 -29t109 -56t84.5 -65.5t57 -55.5t22 -27q8 -12 5 -27t-15 -22q-29 -18 -51 10q0 2 -17 21t-50 48 t-73.5 57t-95 50t-106.5 25q-46 4 -102.5 -23.5t-100.5 -60.5q-41 -352 -43 -551q379 33 665 -51q14 -5 20.5 -17.5t2.5 -27.5q-3 -13 -16 -20.5t-27 -2.5q-297 91 -647 31q1 -160 11.5 -288t26.5 -205.5t38 -133t41 -80t40 -37.5q69 -43 187 37q306 215 395 285q3 20 18 29 q57 34 78 0q18 -27 -22 -62q-1 -1 -64 -51q-227 -163 -364 -258q-148 -105 -264 -41q-119 73 -168 348q-31 205 -31 442q-84 -18 -90 -24q-6 -10 -17 -21t-36 -21t-54 -5q-10 2 -20 10t-16.5 21t-7 28zM384.5 1815.5q-2.5 14.5 6.5 25.5l176 246q3 9 13 16q8 4 14 4h6h10 q2 -1 6.5 -3t6.5 -3q9 -6 12 -18l160 -254q8 -12 4.5 -27t-15.5 -22q-31 -17 -51 12l-135 215l-149 -207q-8 -12 -23 -14.5t-27 6.5t-14.5 23.5z" />
<glyph unicode="&#xcb;" horiz-adv-x="1183" d="M11.5 817q-0.5 15 12.5 32.5t39 33.5q36 20 189 41q8 326 12 471q-34 4 -47 29.5t1.5 57.5t51.5 52q3 79 13 106q20 57 75 46q48 -9 48 -82q98 40 176 34q63 -4 126.5 -29t109 -56t84.5 -65.5t57 -55.5t22 -27q8 -12 5 -27t-15 -22q-29 -18 -51 10q0 2 -17 21t-50 48 t-73.5 57t-95 50t-106.5 25q-46 4 -102.5 -23.5t-100.5 -60.5q-41 -352 -43 -551q379 33 665 -51q14 -5 20.5 -17.5t2.5 -27.5q-3 -13 -16 -20.5t-27 -2.5q-297 91 -647 31q1 -160 11.5 -288t26.5 -205.5t38 -133t41 -80t40 -37.5q69 -43 187 37q306 215 395 285q3 20 18 29 q57 34 78 0q18 -27 -22 -62q-1 -1 -64 -51q-227 -163 -364 -258q-148 -105 -264 -41q-119 73 -168 348q-31 205 -31 442q-84 -18 -90 -24q-6 -10 -17 -21t-36 -21t-54 -5q-10 2 -20 10t-16.5 21t-7 28zM449.5 1823q2.5 14 7.5 26q12 28 34 39.5t44 1.5q18 -7 25 -28.5 t-5 -57.5q-7 -17 -30.5 -35t-47.5 -6q-18 9 -24 27.5t-3.5 32.5zM619.5 1823q2.5 14 7.5 26q12 28 34 39.5t44 1.5q18 -7 25 -28.5t-5 -57.5q-7 -17 -30.5 -35t-47.5 -6q-18 9 -24 27.5t-3.5 32.5z" />
<glyph unicode="&#xcc;" d="M21.5 2119.5q3.5 14.5 15.5 22.5q12 7 26.5 3.5t22.5 -15.5l176 -293q17 -27 -8 -49q-18 -11 -31.5 -7t-21.5 17l-176 295q-7 12 -3.5 26.5zM25 1575q-12 38 1 65.5t35 32.5q33 8 55 -11.5t31 -49.5q12 -33 58 -391q65 -507 53 -1194q0 -14 -11 -24.5t-26 -10.5h-2 q-14 2 -24 13t-9 24q10 253 1 477t-27 409.5t-39.5 320t-36.5 208.5t-18 76q-28 16 -41 55z" />
<glyph unicode="&#xcd;" d="M23 1837l178 293q8 12 21.5 15.5t27.5 -3.5q12 -8 15.5 -22.5t-3.5 -26.5l-178 -295q-20 -32 -51 -10q-24 21 -10 49zM25 1575q-12 38 1 65.5t35 32.5q33 8 55 -11.5t31 -49.5q12 -33 58 -391q65 -507 53 -1194q0 -14 -11 -24.5t-26 -10.5h-2q-14 2 -24 13t-9 24 q10 253 1 477t-27 409.5t-39.5 320t-36.5 208.5t-18 76q-28 16 -41 55z" />
<glyph unicode="&#xce;" d="M-63.5 1723.5q-2.5 14.5 6.5 25.5l176 246q3 10 12 16q8 4 14 4h7h10l12 -6q9 -6 12 -18l160 -254q8 -12 5 -27t-15 -22q-31 -17 -51 12l-135 215l-150 -207q-8 -12 -22.5 -14.5t-26.5 6.5t-14.5 23.5zM25 1575q-12 38 1 65.5t35 32.5q33 8 55 -11.5t31 -49.5 q12 -33 58 -391q65 -507 53 -1194q0 -14 -11 -24.5t-26 -10.5h-2q-14 2 -24 13t-9 24q10 253 1 477t-27 409.5t-39.5 320t-36.5 208.5t-18 76q-28 16 -41 55z" />
<glyph unicode="&#xcf;" d="M1 1823.5q2 14.5 7 25.5q12 28 34 39.5t44 1.5q18 -7 25 -28.5t-5 -57.5q-7 -17 -30 -35t-47 -6q-18 9 -24 27.5t-4 33zM25 1575q-12 38 1 65.5t35 32.5q33 8 55 -11.5t31 -49.5q12 -33 58 -391q65 -507 53 -1194q0 -14 -11 -24.5t-26 -10.5h-2q-14 2 -24 13t-9 24 q10 253 1 477t-27 409.5t-39.5 320t-36.5 208.5t-18 76q-28 16 -41 55zM171 1823.5q2 14.5 7 25.5q12 28 34 39.5t44 1.5q18 -7 25 -28.5t-5 -57.5q-7 -17 -30 -35t-47 -6q-18 9 -24 27.5t-4 33z" />
<glyph unicode="&#xd0;" horiz-adv-x="1445" d="M23.5 883q-4.5 15 1.5 28q53 100 141 121q65 17 151 -10q2 48 11 152q2 21 6 70q19 240 49 326q36 99 96 79q16 -6 25.5 -20t11 -30t0.5 -29.5t-4 -21.5q-13 -38 -43 -53q-3 -3 -17 -58t-34 -180t-29 -264q56 -27 115 -69q40 -27 81.5 -38t73.5 -6.5t52 21.5q30 24 12 62 q-6 12 -1 26.5t17 20.5q14 6 28.5 0.5t20.5 -17.5q19 -39 11 -79.5t-41 -67.5q-44 -36 -105.5 -38t-107.5 15.5t-82 42.5q-51 34 -76 47q-11 -309 33 -612q32 38 78.5 54t93.5 5q14 -5 21 -17.5t3 -27.5q-3 -13 -15.5 -20t-27.5 -4q-41 7 -70 -7.5t-39.5 -40t-14 -53 t7.5 -47.5q22 -46 87 -72.5t163 -29.5q232 -6 399 164q121 123 183.5 312.5t53.5 404.5q-15 381 -209 608.5t-520 247.5q-185 11 -276 -101q-31 -39 -40 -117.5t-4 -138t11 -69.5q14 -21 16 -53t-13 -58t-46 -27q-26 -2 -46 20.5t-23 57.5q0 1 -2.5 28t-4 57.5t1 78 t10.5 91.5t27.5 93.5t48.5 88.5q103 135 344 120q357 -23 568.5 -267.5t228.5 -655.5q10 -228 -58.5 -433t-199.5 -337q-181 -187 -434 -187h-18q-200 7 -285 101h-2q-12 0 -23 8t-12 20q-85 417 -70 850q-81 29 -129 15q-59 -14 -96 -84q-6 -13 -20.5 -18t-26.5 1 q-13 6 -17.5 21z" />
<glyph unicode="&#xd1;" horiz-adv-x="907" d="M20.5 1295q1.5 13 10.5 20q19 19 45 4l8 -6q8 -6 20.5 -16t30 -25t40 -37t46.5 -48.5t53.5 -62.5t57.5 -75q204 -281 334 -670q-6 192 3 400t25 366.5t35 294.5t31.5 206.5t15.5 79.5q10 35 34.5 52.5t51.5 9.5q21 -6 31.5 -25.5t9.5 -38.5t-4 -34q-6 -28 -27 -45 q-4 -4 -22.5 -91t-43 -235.5t-43.5 -341.5t-24.5 -410t13.5 -440q0 -16 -9 -25q1 -4 3.5 -12t3.5 -12q3 -14 -4.5 -27t-22.5 -16q-14 -3 -27 5t-16 21q-135 572 -404 940q-85 119 -155 185q50 -308 14 -1247q-1 -13 -12 -23t-25 -12q-15 0 -26 12t-9 27q10 227 15 465.5 t-6 519t-47 344.5q-6 10 -4.5 23zM40.5 1827.5q-4.5 13.5 2.5 27.5q50 99 141 121q135 34 338 -108q40 -27 81.5 -38t73.5 -6.5t52 21.5q28 22 12 62q-6 12 -1 26.5t18 20.5q14 6 27.5 0.5t21.5 -17.5q19 -40 10 -79.5t-41 -67.5q-44 -36 -105.5 -38t-107.5 15.5t-82 42.5 q-179 123 -278 97q-60 -15 -97 -84q-6 -13 -21 -18t-28 1q-12 8 -16.5 21.5z" />
<glyph unicode="&#xd2;" horiz-adv-x="1175" d="M11.5 797.5q-9.5 145.5 31.5 305t133 316.5q20 33 47.5 47t55.5 -2q31 -23 22 -75q71 83 154.5 125.5t161.5 45t155 -21t139.5 -66.5t110.5 -98q64 -73 97.5 -167.5t36 -195t-13 -197.5t-48.5 -196q-80 -239 -229.5 -399t-317.5 -160q-190 0 -344 211q-85 118 -133.5 250 t-58 277.5zM121 1061q-113 -407 141 -750q147 -202 322 -178q129 20 250 160t192 350q40 121 52.5 242.5t-16 248t-106.5 207.5q-33 36 -78 66.5t-99.5 50.5t-111.5 27.5t-115.5 -7.5t-111 -50.5t-98.5 -104.5t-76 -166q-3 -14 -15.5 -22t-27.5 -5q-13 3 -21 16.5t-5 27.5 q21 81 57 145q-19 -10 -31 -10q-66 -123 -102 -248zM465.5 1996.5q3.5 14.5 15.5 22.5q12 7 26.5 3.5t22.5 -15.5l177 -293q7 -12 4.5 -26t-13.5 -23q-18 -11 -31.5 -7t-21.5 17l-176 295q-7 12 -3.5 26.5z" />
<glyph unicode="&#xd3;" horiz-adv-x="1175" d="M11.5 797.5q-9.5 145.5 31.5 305t133 316.5q20 33 47.5 47t55.5 -2q31 -23 22 -75q71 83 154.5 125.5t161.5 45t155 -21t139.5 -66.5t110.5 -98q64 -73 97.5 -167.5t36 -195t-13 -197.5t-48.5 -196q-80 -239 -229.5 -399t-317.5 -160q-190 0 -344 211q-85 118 -133.5 250 t-58 277.5zM121 1061q-113 -407 141 -750q147 -202 322 -178q129 20 250 160t192 350q40 121 52.5 242.5t-16 248t-106.5 207.5q-33 36 -78 66.5t-99.5 50.5t-111.5 27.5t-115.5 -7.5t-111 -50.5t-98.5 -104.5t-76 -166q-3 -14 -15.5 -22t-27.5 -5q-13 3 -21 16.5t-5 27.5 q21 81 57 145q-19 -10 -31 -10q-66 -123 -102 -248zM467 1720l178 293q8 12 21.5 15.5t27.5 -3.5q12 -8 16 -22.5t-3 -26.5l-179 -295q-20 -32 -51 -10q-24 21 -10 49z" />
<glyph unicode="&#xd4;" horiz-adv-x="1175" d="M11.5 797.5q-9.5 145.5 31.5 305t133 316.5q20 33 47.5 47t55.5 -2q31 -23 22 -75q71 83 154.5 125.5t161.5 45t155 -21t139.5 -66.5t110.5 -98q64 -73 97.5 -167.5t36 -195t-13 -197.5t-48.5 -196q-80 -239 -229.5 -399t-317.5 -160q-190 0 -344 211q-85 118 -133.5 250 t-58 277.5zM121 1061q-113 -407 141 -750q147 -202 322 -178q129 20 250 160t192 350q40 121 52.5 242.5t-16 248t-106.5 207.5q-33 36 -78 66.5t-99.5 50.5t-111.5 27.5t-115.5 -7.5t-111 -50.5t-98.5 -104.5t-76 -166q-3 -14 -15.5 -22t-27.5 -5q-13 3 -21 16.5t-5 27.5 q21 81 57 145q-19 -10 -31 -10q-66 -123 -102 -248zM380.5 1694.5q-2.5 14.5 6.5 25.5l176 246q3 10 12 16q10 5 15 5h6h10q2 -1 6 -3.5t6 -3.5q10 -7 13 -18l160 -254q8 -12 4.5 -27t-15.5 -22q-31 -17 -51 12l-135 215l-150 -207q-8 -12 -22.5 -14.5t-26.5 6.5t-14.5 23.5 z" />
<glyph unicode="&#xd5;" horiz-adv-x="1175" d="M11.5 797.5q-9.5 145.5 31.5 305t133 316.5q20 33 47.5 47t55.5 -2q31 -23 22 -75q71 83 154.5 125.5t161.5 45t155 -21t139.5 -66.5t110.5 -98q64 -73 97.5 -167.5t36 -195t-13 -197.5t-48.5 -196q-80 -239 -229.5 -399t-317.5 -160q-190 0 -344 211q-85 118 -133.5 250 t-58 277.5zM121 1061q-113 -407 141 -750q147 -202 322 -178q129 20 250 160t192 350q40 121 52.5 242.5t-16 248t-106.5 207.5q-33 36 -78 66.5t-99.5 50.5t-111.5 27.5t-115.5 -7.5t-111 -50.5t-98.5 -104.5t-76 -166q-3 -14 -15.5 -22t-27.5 -5q-13 3 -21 16.5t-5 27.5 q21 81 57 145q-19 -10 -31 -10q-66 -123 -102 -248zM196.5 1682.5q-4.5 13.5 2.5 27.5q50 99 141 121q134 34 338 -109q40 -27 81.5 -38t73.5 -6t52 22q28 22 12 61q-6 12 -1.5 26.5t17.5 20.5q14 6 28 1t22 -17q19 -40 10 -79.5t-41 -67.5q-44 -36 -105.5 -38t-107.5 15.5 t-82 42.5q-178 123 -279 96q-59 -14 -96 -84q-6 -13 -21 -17.5t-28 1.5q-12 8 -16.5 21.5z" />
<glyph unicode="&#xd6;" horiz-adv-x="1175" d="M11.5 797.5q-9.5 145.5 31.5 305t133 316.5q20 33 47.5 47t55.5 -2q31 -23 22 -75q71 83 154.5 125.5t161.5 45t155 -21t139.5 -66.5t110.5 -98q64 -73 97.5 -167.5t36 -195t-13 -197.5t-48.5 -196q-80 -239 -229.5 -399t-317.5 -160q-190 0 -344 211q-85 118 -133.5 250 t-58 277.5zM121 1061q-113 -407 141 -750q147 -202 322 -178q129 20 250 160t192 350q40 121 52.5 242.5t-16 248t-106.5 207.5q-33 36 -78 66.5t-99.5 50.5t-111.5 27.5t-115.5 -7.5t-111 -50.5t-98.5 -104.5t-76 -166q-3 -14 -15.5 -22t-27.5 -5q-13 3 -21 16.5t-5 27.5 q21 81 57 145q-19 -10 -31 -10q-66 -123 -102 -248zM445.5 1711q2.5 14 7.5 26q12 28 33.5 39.5t43.5 1.5q18 -7 25.5 -28.5t-4.5 -57.5q-7 -17 -30.5 -35t-47.5 -6q-18 9 -24 27.5t-3.5 32.5zM615.5 1711q2.5 14 7.5 26q12 28 33.5 39.5t43.5 1.5q18 -7 25.5 -28.5 t-4.5 -57.5q-7 -17 -30.5 -35t-47.5 -6q-18 9 -24 27.5t-3.5 32.5z" />
<glyph unicode="&#xd7;" horiz-adv-x="763" d="M27 831q-4 10 2 26t16 24q21 14 43 0q2 -2 31.5 -26.5t82.5 -69t103 -89.5q257 326 316 357q63 31 92 2q13 -13 16.5 -40.5t0 -49.5t-8.5 -33q-7 -13 -21.5 -18t-27.5 1q-11 6 -16.5 17.5t-2.5 21.5q-38 -25 -122.5 -110t-172.5 -195q231 -215 316 -344q8 -12 5.5 -26 t-13.5 -23q-29 -19 -52 10q-85 128 -303 322q-100 -132 -149 -237t-39 -163q4 -37 -33 -43q-13 -1 -24.5 8t-14.5 23q-25 154 207 461q-25 20 -66 54t-51 42q1 -2 1.5 -5t1 -12t-1.5 -17t-9 -16.5t-18 -12.5q-19 -7 -34 2.5t-20 25.5z" />
<glyph unicode="&#xd8;" horiz-adv-x="1175" d="M11.5 797.5q-9.5 145.5 31.5 305t133 316.5q20 33 47.5 47t55.5 -2q31 -23 22 -75q173 200 406 165q157 471 157 480q6 33 30.5 49t47.5 8q26 -8 31 -39t-4 -45q-11 -27 -27 -37q0 -4 -151 -436q139 -50 231 -160q64 -73 97.5 -167.5t36 -195t-13 -197.5t-48.5 -196 q-80 -239 -229.5 -399t-317.5 -160q-119 0 -223 84q-9 -31 -20.5 -69.5t-12.5 -42.5q-23 -111 -17 -150q1 0 14 7.5t25 15.5q31 17 52 -10q7 -14 3 -28.5t-16 -23.5q-54 -32 -86 -32q-20 0 -35 10q-28 20 -30 71t20 154q3 14 18 65t25 87q-34 34 -61 73q-85 118 -133.5 250 t-58 277.5zM121 1061q-113 -407 141 -750q3 -4 9 -11.5t11 -13.5t9 -10q103 337 393 1207q-62 9 -120 -3t-114.5 -47.5t-104 -105.5t-79.5 -170q-3 -14 -15.5 -22t-27.5 -5q-13 3 -21 16.5t-5 27.5q21 81 57 145q-19 -10 -31 -10q-66 -123 -102 -248zM346 217 q114 -102 238 -84q129 20 250 160t192 350q40 121 52.5 242.5t-16 248t-106.5 207.5q-77 84 -190 123q-332 -973 -420 -1247z" />
<glyph unicode="&#xd9;" horiz-adv-x="1089" d="M21.5 774.5q-1.5 172.5 13.5 344t32.5 274.5t22.5 116q16 42 39.5 57t44.5 5q55 -30 39 -101q-10 -26 -27 -43q-1 -1 -12 -53.5t-24.5 -140.5t-26 -196t-14.5 -224.5t7.5 -221.5t43.5 -193t90 -132q193 -153 610 33q4 175 -9 368t-33.5 343.5t-43.5 277t-38.5 194.5 t-18.5 70q-28 15 -41 54q-10 35 0 62t37 38q30 13 52.5 -4.5t33.5 -56.5q5 -19 17.5 -80t35.5 -201t42 -291.5t31.5 -354t8.5 -384.5q46 24 96 51q13 8 28 3.5t21 -17.5q8 -12 3.5 -27t-17.5 -22q-72 -40 -135 -68q-2 -87 -17 -223q-2 -14 -12.5 -23t-23.5 -8h-3 q-15 1 -23.5 13t-6.5 26q9 87 12 180q-238 -101 -418 -92q-141 9 -233 84q-91 72 -136.5 231.5t-47 332zM422.5 2119.5q3.5 14.5 15.5 22.5q12 7 26.5 3.5t22.5 -15.5l177 -293q7 -12 4.5 -26t-13.5 -23q-18 -11 -31.5 -7t-21.5 17l-176 295q-7 12 -3.5 26.5z" />
<glyph unicode="&#xda;" horiz-adv-x="1089" d="M21.5 774.5q-1.5 172.5 13.5 344t32.5 274.5t22.5 116q16 42 39.5 57t44.5 5q55 -30 39 -101q-10 -26 -27 -43q-1 -1 -12 -53.5t-24.5 -140.5t-26 -196t-14.5 -224.5t7.5 -221.5t43.5 -193t90 -132q193 -153 610 33q4 175 -9 368t-33.5 343.5t-43.5 277t-38.5 194.5 t-18.5 70q-28 15 -41 54q-10 35 0 62t37 38q30 13 52.5 -4.5t33.5 -56.5q5 -19 17.5 -80t35.5 -201t42 -291.5t31.5 -354t8.5 -384.5q46 24 96 51q13 8 28 3.5t21 -17.5q8 -12 3.5 -27t-17.5 -22q-72 -40 -135 -68q-2 -87 -17 -223q-2 -14 -12.5 -23t-23.5 -8h-3 q-15 1 -23.5 13t-6.5 26q9 87 12 180q-238 -101 -418 -92q-141 9 -233 84q-91 72 -136.5 231.5t-47 332zM424 1837l178 293q8 12 21.5 15.5t27.5 -3.5q12 -8 16 -22.5t-3 -26.5l-179 -295q-20 -32 -51 -10q-24 21 -10 49z" />
<glyph unicode="&#xdb;" horiz-adv-x="1089" d="M21.5 774.5q-1.5 172.5 13.5 344t32.5 274.5t22.5 116q16 42 39.5 57t44.5 5q55 -30 39 -101q-10 -26 -27 -43q-1 -1 -12 -53.5t-24.5 -140.5t-26 -196t-14.5 -224.5t7.5 -221.5t43.5 -193t90 -132q193 -153 610 33q4 175 -9 368t-33.5 343.5t-43.5 277t-38.5 194.5 t-18.5 70q-28 15 -41 54q-10 35 0 62t37 38q30 13 52.5 -4.5t33.5 -56.5q5 -19 17.5 -80t35.5 -201t42 -291.5t31.5 -354t8.5 -384.5q46 24 96 51q13 8 28 3.5t21 -17.5q8 -12 3.5 -27t-17.5 -22q-72 -40 -135 -68q-2 -87 -17 -223q-2 -14 -12.5 -23t-23.5 -8h-3 q-15 1 -23.5 13t-6.5 26q9 87 12 180q-238 -101 -418 -92q-141 9 -233 84q-91 72 -136.5 231.5t-47 332zM210.5 1703q-2.5 15 6.5 26l176 245q4 11 13 17q8 4 14 4h6h10q2 -1 6.5 -3t6.5 -3q9 -6 12 -19l160 -254q8 -12 4.5 -27t-15.5 -22q-31 -17 -51 12l-135 215 l-150 -206q-8 -12 -22.5 -15t-26.5 6t-14.5 24z" />
<glyph unicode="&#xdc;" horiz-adv-x="1089" d="M21.5 774.5q-1.5 172.5 13.5 344t32.5 274.5t22.5 116q16 42 39.5 57t44.5 5q55 -30 39 -101q-10 -26 -27 -43q-1 -1 -12 -53.5t-24.5 -140.5t-26 -196t-14.5 -224.5t7.5 -221.5t43.5 -193t90 -132q193 -153 610 33q4 175 -9 368t-33.5 343.5t-43.5 277t-38.5 194.5 t-18.5 70q-28 15 -41 54q-10 35 0 62t37 38q30 13 52.5 -4.5t33.5 -56.5q5 -19 17.5 -80t35.5 -201t42 -291.5t31.5 -354t8.5 -384.5q46 24 96 51q13 8 28 3.5t21 -17.5q8 -12 3.5 -27t-17.5 -22q-72 -40 -135 -68q-2 -87 -17 -223q-2 -14 -12.5 -23t-23.5 -8h-3 q-15 1 -23.5 13t-6.5 26q9 87 12 180q-238 -101 -418 -92q-141 9 -233 84q-91 72 -136.5 231.5t-47 332zM324.5 1719q2.5 14 7.5 26q12 28 34 39.5t44 1.5q18 -7 25 -28.5t-5 -57.5q-7 -17 -30.5 -35t-47.5 -6q-18 9 -24 27.5t-3.5 32.5zM494.5 1719q2.5 14 7.5 26 q12 28 34 39.5t44 1.5q18 -7 25 -28.5t-5 -57.5q-7 -17 -30.5 -35t-47.5 -6q-18 9 -24 27.5t-3.5 32.5z" />
<glyph unicode="&#xdd;" horiz-adv-x="1130" d="M15 1615.5q-4 15.5 2 41t30 37.5q29 14 58.5 -8.5t39.5 -57.5q0 -1 9 -54.5t21.5 -124.5t37 -159.5t53.5 -164t73 -133t93 -70.5q54 -14 136 22.5t155 112.5q92 97 158.5 184.5t96 140t45.5 98.5t17 60t0 26v1v7q1 7 2 14.5t7.5 16t17.5 11.5q15 5 25.5 -2.5t13.5 -17.5 l4 -11q2 -7 3 -19.5t-3 -39.5t-14.5 -59t-35 -80.5t-60 -102.5t-94 -126t-132.5 -150q-104 -110 -227 -148q0 -45 -19 -69q-14 -16 -14.5 -249t16.5 -616q2 -14 -8.5 -24.5t-25.5 -10.5q-14 0 -24.5 10t-10.5 25l-30 570q-16 346 -5 354q-60 10 -113.5 65.5t-88.5 130.5 t-64.5 161.5t-45.5 159t-28 123t-16 52.5q-29 15 -47 49q-4 9 -8 24.5zM441 1655q-3 14 3 26l179 293q8 12 21.5 16t27.5 -3q12 -8 15.5 -23t-3.5 -27l-178 -295q-20 -32 -51 -10q-11 9 -14 23z" />
<glyph unicode="&#xde;" horiz-adv-x="737" d="M31 -59q2 3 16 117.5t31.5 297t23.5 320.5q5 100 6.5 275.5t0.5 306t-3 133.5q-8 8 -13 29t-1 40q9 45 32.5 60t41.5 10q28 -3 41.5 -28.5t7.5 -61.5q0 -3 -2 -39.5t-6.5 -107t-7.5 -134.5h8q36 23 96.5 39t102.5 10q111 -17 186 -121q99 -136 110 -319 q15 -287 -129 -358q-38 -17 -69 -19q-83 -9 -175.5 30.5t-164.5 92.5q-4 -57 -9.5 -120t-11.5 -118t-12 -108t-11 -95t-9 -74t-7 -49l-2 -18q-1 -13 -11.5 -22.5t-22.5 -9.5q-1 0 -3.5 1t-3.5 1q-13 1 -22.5 13t-7.5 26zM170 596q8 0 14 -6q28 -25 69.5 -50.5t95 -49 t101.5 -29t91 11.5q103 52 90 291q-7 139 -68 235.5t-135 120.5q-36 12 -78 -3.5t-63.5 -33t-32.5 -30.5q-26 -30 -61 -33q-12 -188 -19 -346q0 -24 -4 -78z" />
<glyph unicode="&#xdf;" horiz-adv-x="929" d="M35 921q2 170 22 293q20 119 53.5 210t74.5 146t80.5 86.5t82.5 47.5q121 47 254.5 -13t216.5 -200q69 -118 72 -236.5t-60 -218.5q-63 -99 -176 -160t-256 -75q54 -30 101.5 -61.5t103 -77.5t95 -92.5t67 -105.5t29.5 -118q9 -239 -398 -446q-14 -6 -27.5 -1t-19.5 17 q-7 14 -2.5 27.5t17.5 21.5q364 181 358 379q-2 51 -29 103t-64.5 93.5t-93 84t-98 69.5t-96 55t-70.5 36t-37 17l-2 1q-12 4 -17.5 16.5t-2.5 24.5q3 13 13.5 20.5t23.5 7.5q173 -15 313 38.5t209 162.5q108 175 -14 381q-65 109 -172 166.5t-211 17.5q-92 -35 -155 -147.5 t-91 -288.5q-71 -432 80 -1182q14 -9 27 -34t10.5 -57t-31.5 -50q-7 -2 -18.5 -3.5t-26 5.5t-27.5 17.5t-22 32.5t-10 51l-13 90q-12 91 -26.5 227t-26.5 294t-10 328z" />
<glyph unicode="&#xe0;" horiz-adv-x="720" d="M12 271q-5 145 33.5 290t104.5 215q74 77 159 68q95 -12 170 -82q2 24 24.5 44.5t53.5 12.5q35 -10 48 -29.5t10 -34.5t-11 -24q-12 -15 -20.5 -94t-7 -181.5t32.5 -215.5t89 -179q10 -11 9.5 -25.5t-11.5 -23.5q-10 -10 -24 -10q-16 0 -25 12q-29 31 -52.5 70 t-36.5 70.5t-25 80t-16 72.5t-10.5 75.5t-8.5 63.5q-94 -349 -275 -430q-28 -14 -59 -14q-58 0 -98 55q-49 69 -54 214zM82 283q2 -129 43 -185q24 -37 70 -16q57 25 104.5 87.5t75 131t47 138.5t26.5 110.5t7 46.5q3 14 14 25q-18 -7 -37 11.5t-8 47.5q7 16 -38 52t-85 40 h-10q-45 0 -90 -45q-54 -58 -87.5 -186.5t-31.5 -257.5zM355 1224.5q4 14.5 16 22.5q12 7 26.5 3.5t22.5 -15.5l176 -293q17 -27 -8 -49q-18 -11 -31.5 -7t-21.5 17l-177 295q-7 12 -3 26.5z" />
<glyph unicode="&#xe1;" horiz-adv-x="720" d="M12 271q-5 145 33.5 290t104.5 215q74 77 159 68q95 -12 170 -82q2 24 24.5 44.5t53.5 12.5q35 -10 48 -29.5t10 -34.5t-11 -24q-12 -15 -20.5 -94t-7 -181.5t32.5 -215.5t89 -179q10 -11 9.5 -25.5t-11.5 -23.5q-10 -10 -24 -10q-16 0 -25 12q-29 31 -52.5 70 t-36.5 70.5t-25 80t-16 72.5t-10.5 75.5t-8.5 63.5q-94 -349 -275 -430q-28 -14 -59 -14q-58 0 -98 55q-49 69 -54 214zM82 283q2 -129 43 -185q24 -37 70 -16q57 25 104.5 87.5t75 131t47 138.5t26.5 110.5t7 46.5q3 14 14 25q-18 -7 -37 11.5t-8 47.5q7 16 -38 52t-85 40 h-10q-45 0 -90 -45q-54 -58 -87.5 -186.5t-31.5 -257.5zM367 971l178 293q8 12 21.5 15.5t27.5 -3.5q12 -8 15.5 -22.5t-3.5 -26.5l-178 -295q-20 -32 -51 -10q-24 21 -10 49z" />
<glyph unicode="&#xe2;" horiz-adv-x="720" d="M12 271q-5 145 33.5 290t104.5 215q74 77 159 68q95 -12 170 -82q2 24 24.5 44.5t53.5 12.5q35 -10 48 -29.5t10 -34.5t-11 -24q-12 -15 -20.5 -94t-7 -181.5t32.5 -215.5t89 -179q10 -11 9.5 -25.5t-11.5 -23.5q-10 -10 -24 -10q-16 0 -25 12q-29 31 -52.5 70 t-36.5 70.5t-25 80t-16 72.5t-10.5 75.5t-8.5 63.5q-94 -349 -275 -430q-28 -14 -59 -14q-58 0 -98 55q-49 69 -54 214zM82 283q2 -129 43 -185q24 -37 70 -16q57 25 104.5 87.5t75 131t47 138.5t26.5 110.5t7 46.5q3 14 14 25q-18 -7 -37 11.5t-8 47.5q7 16 -38 52t-85 40 h-10q-45 0 -90 -45q-54 -58 -87.5 -186.5t-31.5 -257.5zM210.5 982q-2.5 15 6.5 26l176 245q4 11 13 17q8 4 14 4h16l13 -6q9 -6 12 -19l160 -254q8 -12 4.5 -27t-15.5 -22q-31 -17 -51 12l-135 216l-150 -207q-8 -12 -22.5 -15t-26.5 6t-14.5 24z" />
<glyph unicode="&#xe3;" horiz-adv-x="720" d="M-31.5 1107q-4.5 14 2.5 28q49 98 142 120q135 34 338 -108q40 -27 81.5 -38t73 -6.5t51.5 21.5q29 23 13 62q-6 12 -1.5 26.5t17.5 20.5q14 6 27.5 1t21.5 -17q19 -40 10.5 -80t-40.5 -68q-44 -36 -105.5 -37.5t-107.5 16t-82 42.5q-178 123 -279 96q-59 -14 -96 -84 q-6 -13 -21 -18t-28 1q-13 8 -17.5 22zM12 271q-5 145 33.5 290t104.5 215q74 77 159 68q95 -12 170 -82q2 24 24.5 44.5t53.5 12.5q35 -10 48 -29.5t10 -34.5t-11 -24q-12 -15 -20.5 -94t-7 -181.5t32.5 -215.5t89 -179q10 -11 9.5 -25.5t-11.5 -23.5q-10 -10 -24 -10 q-16 0 -25 12q-29 31 -52.5 70t-36.5 70.5t-25 80t-16 72.5t-10.5 75.5t-8.5 63.5q-94 -349 -275 -430q-28 -14 -59 -14q-58 0 -98 55q-49 69 -54 214zM82 283q2 -129 43 -185q24 -37 70 -16q57 25 104.5 87.5t75 131t47 138.5t26.5 110.5t7 46.5q3 14 14 25 q-18 -7 -37 11.5t-8 47.5q7 16 -38 52t-85 40h-10q-45 0 -90 -45q-54 -58 -87.5 -186.5t-31.5 -257.5z" />
<glyph unicode="&#xe4;" horiz-adv-x="720" d="M12 271q-5 145 33.5 290t104.5 215q74 77 159 68q95 -12 170 -82q2 24 24.5 44.5t53.5 12.5q35 -10 48 -29.5t10 -34.5t-11 -24q-12 -15 -20.5 -94t-7 -181.5t32.5 -215.5t89 -179q10 -11 9.5 -25.5t-11.5 -23.5q-10 -10 -24 -10q-16 0 -25 12q-29 31 -52.5 70 t-36.5 70.5t-25 80t-16 72.5t-10.5 75.5t-8.5 63.5q-94 -349 -275 -430q-28 -14 -59 -14q-58 0 -98 55q-49 69 -54 214zM82 283q2 -129 43 -185q24 -37 70 -16q57 25 104.5 87.5t75 131t47 138.5t26.5 110.5t7 46.5q3 14 14 25q-18 -7 -37 11.5t-8 47.5q7 16 -38 52t-85 40 h-10q-45 0 -90 -45q-54 -58 -87.5 -186.5t-31.5 -257.5zM330.5 1021q2.5 14 7.5 26q12 28 34 39t44 1q18 -7 25 -28.5t-5 -57.5q-7 -17 -30.5 -34.5t-47.5 -5.5q-18 9 -24 27.5t-3.5 32.5zM500.5 1021q2.5 14 7.5 26q12 28 34 39t44 1q18 -7 25 -28.5t-5 -57.5 q-7 -17 -30.5 -34.5t-47.5 -5.5q-18 9 -24 27.5t-3.5 32.5z" />
<glyph unicode="&#xe5;" horiz-adv-x="720" d="M12 271q-5 145 33.5 290t104.5 215q74 77 159 68q95 -12 170 -82q2 24 24.5 44.5t53.5 12.5q35 -10 48 -29.5t10 -34.5t-11 -24q-12 -15 -20.5 -94t-7 -181.5t32.5 -215.5t89 -179q10 -11 9.5 -25.5t-11.5 -23.5q-10 -10 -24 -10q-16 0 -25 12q-29 31 -52.5 70 t-36.5 70.5t-25 80t-16 72.5t-10.5 75.5t-8.5 63.5q-94 -349 -275 -430q-28 -14 -59 -14q-58 0 -98 55q-49 69 -54 214zM82 283q2 -129 43 -185q24 -37 70 -16q57 25 104.5 87.5t75 131t47 138.5t26.5 110.5t7 46.5q3 14 14 25q-18 -7 -37 11.5t-8 47.5q7 16 -38 52t-85 40 h-10q-45 0 -90 -45q-54 -58 -87.5 -186.5t-31.5 -257.5zM266 1171q8 49 27 107q1 2 -0.5 9.5t-0.5 21t7 28.5q10 23 34 29t38 -4q7 -2 9 -8l3 -6q78 2 131 -30.5t70 -92.5q22 -76 -25.5 -158.5t-138.5 -132.5q-31 -17 -58.5 -18t-39 4.5t-19.5 13.5q-63 51 -37 237zM348 985 q11 -6 41 10q73 38 107.5 100t21.5 111q-11 37 -47 56t-92 16q-21 -74 -31 -121q-29 -143 0 -172z" />
<glyph unicode="&#xe6;" horiz-adv-x="1122" d="M12 271q-5 145 33.5 290t104.5 215q74 77 159 68q95 -12 170 -82q2 24 24.5 44.5t53.5 12.5q49 -15 57 -49q28 26 62.5 43.5t63 25t55 10.5t40.5 2.5t17 -1.5h2q75 -4 120 -71.5t48 -157.5q3 -97 -47.5 -178.5t-145.5 -88.5q-129 -7 -249 97q-3 -48 2 -89 q31 -245 141 -280q72 -24 162 28t159 123q9 10 24.5 11t25.5 -8q11 -11 11.5 -26t-9.5 -26q-14 -15 -39 -38t-72 -59t-106 -60.5t-113 -24.5q-28 0 -66 10q-159 54 -196 342q-6 49 -6 92q-94 -349 -275 -430q-28 -14 -59 -14q-58 0 -98 55q-49 69 -54 214zM82 283 q2 -129 43 -185q24 -37 70 -16q57 25 104.5 87.5t75 131t47 138.5t26.5 110.5t7 46.5q3 14 14 25q-18 -7 -37 11.5t-8 47.5q7 16 -38 52t-85 40h-10q-45 0 -90 -45q-54 -58 -87.5 -186.5t-31.5 -257.5zM608 590l6 -29q0 -3 9.5 -18t29 -36.5t44 -41t59 -31.5t69.5 -8 q36 4 62.5 25.5t39.5 52t18.5 59t4.5 55.5q-2 65 -31 113.5t-77 48.5h-2q-99 -11 -164 -78q-44 -44 -68 -112z" />
<glyph unicode="&#xe7;" horiz-adv-x="622" d="M16 348q-8 181 76 328q63 109 174 141q45 9 104.5 0t98.5 -29q22 6 50.5 -14.5t38 -49t-14.5 -56.5q-19 -19 -51.5 -15t-57.5 27q-7 6 -17 13t-30.5 19t-40.5 17.5t-46.5 8t-47.5 -8.5q-70 -32 -120 -135.5t-44 -241.5q13 -241 119 -278q75 -27 178.5 28.5t165.5 122.5 q9 10 24 10.5t25 -8.5q11 -11 11.5 -25.5t-9.5 -25.5q-27 -31 -80 -71t-112 -70q91 -89 82 -156q-4 -29 -27 -49q-21 -21 -64 -33q-79 -20 -151.5 -8t-124.5 51l53 51q37 -26 89.5 -33t115.5 9q37 9 37 20q0 37 -101 115q-46 -8 -65 -8q-34 0 -72 12q-151 56 -166 342z" />
<glyph unicode="&#xe8;" horiz-adv-x="677" d="M29 616q3 15 19.5 28t35.5 13q27 59 68 103q29 29 64.5 49t65.5 28.5t58 11.5t43 2.5t18 -1.5h2q75 -4 120 -71.5t48 -157.5q3 -97 -47 -178.5t-145 -88.5q-130 -7 -250 97q-3 -48 2 -89q31 -245 141 -280q50 -17 117.5 9t115.5 63t89 79q9 10 24 11t25 -8 q11 -11 11.5 -26t-9.5 -26q-14 -15 -39 -38t-72 -59t-106 -60.5t-113 -24.5q-27 0 -65 10q-160 55 -197 342q-11 89 -2 172q-33 45 -22 90zM158 590l6 -29q0 -3 9.5 -18t29 -36.5t44 -41t59 -31.5t69.5 -8q36 4 62.5 25.5t39.5 52t18.5 59t4.5 55.5q-2 65 -31.5 113.5 t-77.5 48.5h-2q-99 -11 -164 -78q-42 -42 -67 -112zM295.5 1259.5q3.5 14.5 15.5 22.5q12 7 26.5 3.5t22.5 -15.5l177 -293q7 -12 4.5 -26t-13.5 -23q-18 -11 -31.5 -7t-21.5 17l-176 295q-7 12 -3.5 26.5z" />
<glyph unicode="&#xe9;" horiz-adv-x="677" d="M29 616q3 15 19.5 28t35.5 13q27 59 68 103q29 29 64.5 49t65.5 28.5t58 11.5t43 2.5t18 -1.5h2q75 -4 120 -71.5t48 -157.5q3 -97 -47 -178.5t-145 -88.5q-130 -7 -250 97q-3 -48 2 -89q31 -245 141 -280q50 -17 117.5 9t115.5 63t89 79q9 10 24 11t25 -8 q11 -11 11.5 -26t-9.5 -26q-14 -15 -39 -38t-72 -59t-106 -60.5t-113 -24.5q-27 0 -65 10q-160 55 -197 342q-11 89 -2 172q-33 45 -22 90zM158 590l6 -29q0 -3 9.5 -18t29 -36.5t44 -41t59 -31.5t69.5 -8q36 4 62.5 25.5t39.5 52t18.5 59t4.5 55.5q-2 65 -31.5 113.5 t-77.5 48.5h-2q-99 -11 -164 -78q-42 -42 -67 -112zM291 971l178 293q8 12 21.5 15.5t27.5 -3.5q12 -8 15.5 -22.5t-3.5 -26.5l-178 -295q-20 -32 -51 -10q-24 21 -10 49z" />
<glyph unicode="&#xea;" horiz-adv-x="677" d="M29 616q3 15 19.5 28t35.5 13q27 59 68 103q29 29 64.5 49t65.5 28.5t58 11.5t43 2.5t18 -1.5h2q75 -4 120 -71.5t48 -157.5q3 -97 -47 -178.5t-145 -88.5q-130 -7 -250 97q-3 -48 2 -89q31 -245 141 -280q50 -17 117.5 9t115.5 63t89 79q9 10 24 11t25 -8 q11 -11 11.5 -26t-9.5 -26q-14 -15 -39 -38t-72 -59t-106 -60.5t-113 -24.5q-27 0 -65 10q-160 55 -197 342q-11 89 -2 172q-33 45 -22 90zM158 590l6 -29q0 -3 9.5 -18t29 -36.5t44 -41t59 -31.5t69.5 -8q36 4 62.5 25.5t39.5 52t18.5 59t4.5 55.5q-2 65 -31.5 113.5 t-77.5 48.5h-2q-99 -11 -164 -78q-42 -42 -67 -112zM171.5 986.5q-2.5 14.5 6.5 25.5l176 245q4 11 13 17q8 4 14 4h16l13 -6q9 -6 12 -19l160 -254q8 -12 4.5 -27t-15.5 -22q-31 -17 -51 13l-135 215l-149 -207q-8 -12 -23 -14.5t-27 6.5t-14.5 23.5z" />
<glyph unicode="&#xeb;" horiz-adv-x="677" d="M29 616q3 15 19.5 28t35.5 13q27 59 68 103q29 29 64.5 49t65.5 28.5t58 11.5t43 2.5t18 -1.5h2q75 -4 120 -71.5t48 -157.5q3 -97 -47 -178.5t-145 -88.5q-130 -7 -250 97q-3 -48 2 -89q31 -245 141 -280q50 -17 117.5 9t115.5 63t89 79q9 10 24 11t25 -8 q11 -11 11.5 -26t-9.5 -26q-14 -15 -39 -38t-72 -59t-106 -60.5t-113 -24.5q-27 0 -65 10q-160 55 -197 342q-11 89 -2 172q-33 45 -22 90zM158 590l6 -29q0 -3 9.5 -18t29 -36.5t44 -41t59 -31.5t69.5 -8q36 4 62.5 25.5t39.5 52t18.5 59t4.5 55.5q-2 65 -31.5 113.5 t-77.5 48.5h-2q-99 -11 -164 -78q-42 -42 -67 -112zM234.5 1008q2.5 14 7.5 26q12 28 33.5 39.5t43.5 1.5q18 -7 25.5 -28.5t-4.5 -57.5q-7 -17 -30.5 -35t-47.5 -6q-18 9 -24 27.5t-3.5 32.5zM404.5 1008q2.5 14 7.5 26q12 28 33.5 39.5t43.5 1.5q18 -7 25.5 -28.5 t-4.5 -57.5q-7 -17 -30.5 -35t-47.5 -6q-18 9 -24 27.5t-3.5 32.5z" />
<glyph unicode="&#xec;" d="M21.5 1284q3.5 15 15.5 23q12 7 26.5 3t22.5 -16l176 -293q17 -27 -8 -49q-32 -22 -53 11l-176 294q-7 12 -3.5 27zM86 762q0 14 5 34t21.5 40t41.5 16q44 -6 58 -53.5t-11 -87.5q-4 -9 -9.5 -120t-1 -295t24.5 -333q3 -15 -6.5 -26.5t-24.5 -14.5h-4q-14 0 -24 9t-11 22 q-23 160 -37.5 363.5t-18 306t-3.5 139.5z" />
<glyph unicode="&#xed;" d="M23 991l178 293q8 12 21.5 15.5t27.5 -3.5q12 -8 15.5 -22.5t-3.5 -26.5l-178 -295q-20 -32 -51 -10q-24 21 -10 49zM86 762q0 14 5 34t21.5 40t41.5 16q44 -6 58 -53.5t-11 -87.5q-4 -9 -9.5 -120t-1 -295t24.5 -333q3 -15 -6.5 -26.5t-24.5 -14.5h-4q-14 0 -24 9 t-11 22q-23 160 -37.5 363.5t-18 306t-3.5 139.5z" />
<glyph unicode="&#xee;" d="M-63.5 971.5q-2.5 14.5 6.5 25.5l176 246q4 12 12 17q8 4 14 4h17l12 -7q9 -6 12 -18l160 -254q8 -12 5 -27t-15 -22q-31 -17 -51 12l-135 215l-150 -207q-8 -12 -22.5 -14.5t-26.5 6.5t-14.5 23.5zM86 762q0 14 5 34t21.5 40t41.5 16q44 -6 58 -53.5t-11 -87.5 q-4 -9 -9.5 -120t-1 -295t24.5 -333q3 -15 -6.5 -26.5t-24.5 -14.5h-4q-14 0 -24 9t-11 22q-23 160 -37.5 363.5t-18 306t-3.5 139.5z" />
<glyph unicode="&#xef;" d="M1 1031.5q2 14.5 7 25.5q12 28 34 39.5t44 1.5q18 -7 25 -28.5t-5 -57.5q-7 -17 -30 -35t-47 -6q-18 9 -24 27.5t-4 33zM86 762q0 14 5 34t21.5 40t41.5 16q44 -6 58 -53.5t-11 -87.5q-4 -9 -9.5 -120t-1 -295t24.5 -333q3 -15 -6.5 -26.5t-24.5 -14.5h-4q-14 0 -24 9 t-11 22q-23 160 -37.5 363.5t-18 306t-3.5 139.5zM171 1031.5q2 14.5 7 25.5q12 28 34 39.5t44 1.5q18 -7 25 -28.5t-5 -57.5q-7 -17 -30 -35t-47 -6q-18 9 -24 27.5t-4 33z" />
<glyph unicode="&#xf0;" horiz-adv-x="667" d="M78 610q32 80 92 168q24 34 58.5 43t62.5 -20q30 3 57 6q-94 63 -119 147q-52 -18 -82 -80q-6 -13 -20.5 -17.5t-26.5 1.5q-13 7 -17.5 21.5t1.5 27.5q51 97 135 121q1 4 3 13.5t3 13.5q10 42 43 66t78 22q14 0 24.5 -10.5t10.5 -24.5q0 -15 -11 -26t-26 -11 q-37 3 -49 -33q81 3 172 -59q31 -24 10 -51t-51 -8q-81 49 -127 49q24 -67 102 -111q95 -56 156 -117q27 -24 45 -59q29 -54 30 -125.5t-20 -141t-48.5 -128t-59.5 -105.5q-119 -182 -250 -182q-51 0 -89.5 26.5t-58.5 63.5q-138 242 -28 520zM116.5 290.5 q13.5 -80.5 57.5 -161.5q10 -20 31.5 -34.5t48.5 -14.5q90 0 184 145q45 68 75 145.5t37.5 150.5t-18.5 124q-15 30 -44.5 49t-61 25t-60.5 7t-47.5 -1t-19.5 -4t-12 -25q-31 -45 -74 -45q-33 -45 -56.5 -95t-38.5 -117.5t-1.5 -148z" />
<glyph unicode="&#xf1;" horiz-adv-x="794" d="M5.5 1088.5q-4.5 13.5 2.5 27.5q50 99 142 121q133 34 337 -109q40 -27 81.5 -38t73.5 -6t52 22q28 23 13 61q-6 12 -1.5 26.5t17.5 20.5q14 6 27.5 1t21.5 -17q19 -40 10 -79.5t-41 -67.5q-44 -36 -105.5 -38t-107.5 15.5t-82 42.5q-178 123 -278 96q-59 -14 -96 -84 q-6 -13 -21 -17.5t-28 1.5q-13 8 -17.5 21.5zM53.5 552q-0.5 118 5 200.5t11.5 103.5q6 25 25.5 46.5t54.5 21.5q25 0 38 -27.5t7.5 -62.5t-27.5 -56q-2 -2 -9 -43.5t-13 -110t-6.5 -144.5t14 -157t45.5 -137q215 366 319 592q7 20 25 38t45 13q27 -4 34.5 -32.5t2.5 -48.5 q-4 -20 -10 -76.5t-10 -162.5t1.5 -201t35 -180.5t81.5 -113.5q13 -7 18.5 -21t-0.5 -26q-9 -22 -32 -22q-7 0 -15 4q-136 58 -166 461q-8 99 -8 208q-83 -159 -289 -520q-10 -16 -30 -16q-17 -3 -31 14q-57 80 -86.5 209t-30 247z" />
<glyph unicode="&#xf2;" horiz-adv-x="706" d="M38 378q1 62 16 126.5t31.5 107t41 86.5t33.5 57t18 25q24 34 57.5 43t63.5 -20q107 17 189.5 -15.5t121.5 -103.5q29 -54 30 -125t-21 -141t-48.5 -127.5t-58.5 -106.5q-120 -180 -250 -180q-51 0 -89 26.5t-60 63.5q-40 71 -58 146.5t-17 137.5zM119 383.5 q-3 -53.5 12 -120t51 -132.5q10 -20 31.5 -34.5t48.5 -14.5q85 0 184 147q45 68 75 144.5t38 150t-18 123.5q-25 47 -83.5 66t-104.5 17.5t-46 -5.5q-7 -18 -14 -27q-29 -42 -74 -45q-26 -35 -45.5 -72.5t-35.5 -90.5t-19 -106.5zM287.5 1226.5q3.5 14.5 15.5 22.5 q12 7 26.5 3.5t22.5 -15.5l176 -293q17 -27 -8 -49q-18 -11 -31.5 -7t-21.5 17l-176 295q-7 12 -3.5 26.5z" />
<glyph unicode="&#xf3;" horiz-adv-x="706" d="M38 378q1 62 16 126.5t31.5 107t41 86.5t33.5 57t18 25q24 34 57.5 43t63.5 -20q107 17 189.5 -15.5t121.5 -103.5q29 -54 30 -125t-21 -141t-48.5 -127.5t-58.5 -106.5q-120 -180 -250 -180q-51 0 -89 26.5t-60 63.5q-40 71 -58 146.5t-17 137.5zM119 383.5 q-3 -53.5 12 -120t51 -132.5q10 -20 31.5 -34.5t48.5 -14.5q85 0 184 147q45 68 75 144.5t38 150t-18 123.5q-25 47 -83.5 66t-104.5 17.5t-46 -5.5q-7 -18 -14 -27q-29 -42 -74 -45q-26 -35 -45.5 -72.5t-35.5 -90.5t-19 -106.5zM289 940l178 293q8 12 21.5 15.5t27.5 -3.5 q12 -8 15.5 -22.5t-3.5 -26.5l-178 -295q-20 -32 -51 -10q-24 21 -10 49z" />
<glyph unicode="&#xf4;" horiz-adv-x="706" d="M38 378q1 62 16 126.5t31.5 107t41 86.5t33.5 57t18 25q24 34 57.5 43t63.5 -20q107 17 189.5 -15.5t121.5 -103.5q29 -54 30 -125t-21 -141t-48.5 -127.5t-58.5 -106.5q-120 -180 -250 -180q-51 0 -89 26.5t-60 63.5q-40 71 -58 146.5t-17 137.5zM119 383.5 q-3 -53.5 12 -120t51 -132.5q10 -20 31.5 -34.5t48.5 -14.5q85 0 184 147q45 68 75 144.5t38 150t-18 123.5q-25 47 -83.5 66t-104.5 17.5t-46 -5.5q-7 -18 -14 -27q-29 -42 -74 -45q-26 -35 -45.5 -72.5t-35.5 -90.5t-19 -106.5zM145.5 975.5q-2.5 14.5 6.5 25.5l176 246 q4 12 12 17q8 4 14 4h17l12 -6q9 -6 12 -19l160 -254q8 -12 5 -27t-15 -22q-31 -17 -51 12l-136 215l-149 -206q-8 -12 -22.5 -15t-26.5 6t-14.5 23.5z" />
<glyph unicode="&#xf5;" horiz-adv-x="706" d="M-37.5 1094.5q-4.5 13.5 2.5 27.5q50 99 141 121q135 34 338 -108q40 -27 81.5 -38t73.5 -6.5t52 21.5q29 23 13 62q-6 12 -1.5 26.5t17.5 20.5q14 6 27.5 0.5t21.5 -17.5q19 -40 10 -79.5t-41 -67.5q-44 -36 -105.5 -38t-107.5 15.5t-82 42.5q-179 123 -278 97 q-59 -14 -96 -84q-6 -13 -21 -18t-28 1q-13 8 -17.5 21.5zM38 378q1 62 16 126.5t31.5 107t41 86.5t33.5 57t18 25q24 34 57.5 43t63.5 -20q107 17 189.5 -15.5t121.5 -103.5q29 -54 30 -125t-21 -141t-48.5 -127.5t-58.5 -106.5q-120 -180 -250 -180q-51 0 -89 26.5 t-60 63.5q-40 71 -58 146.5t-17 137.5zM119 383.5q-3 -53.5 12 -120t51 -132.5q10 -20 31.5 -34.5t48.5 -14.5q85 0 184 147q45 68 75 144.5t38 150t-18 123.5q-25 47 -83.5 66t-104.5 17.5t-46 -5.5q-7 -18 -14 -27q-29 -42 -74 -45q-26 -35 -45.5 -72.5t-35.5 -90.5 t-19 -106.5z" />
<glyph unicode="&#xf6;" horiz-adv-x="706" d="M38 378q1 62 16 126.5t31.5 107t41 86.5t33.5 57t18 25q24 34 57.5 43t63.5 -20q107 17 189.5 -15.5t121.5 -103.5q29 -54 30 -125t-21 -141t-48.5 -127.5t-58.5 -106.5q-120 -180 -250 -180q-51 0 -89 26.5t-60 63.5q-40 71 -58 146.5t-17 137.5zM119 383.5 q-3 -53.5 12 -120t51 -132.5q10 -20 31.5 -34.5t48.5 -14.5q85 0 184 147q45 68 75 144.5t38 150t-18 123.5q-25 47 -83.5 66t-104.5 17.5t-46 -5.5q-7 -18 -14 -27q-29 -42 -74 -45q-26 -35 -45.5 -72.5t-35.5 -90.5t-19 -106.5zM255 1021.5q2 14.5 7 25.5q12 28 34 39 t44 1q18 -7 25 -28.5t-5 -57.5q-7 -17 -30 -34.5t-47 -5.5q-18 9 -24 27.5t-4 33zM425 1021.5q2 14.5 7 25.5q12 28 34 39t44 1q18 -7 25 -28.5t-5 -57.5q-7 -17 -30 -34.5t-47 -5.5q-18 9 -24 27.5t-4 33z" />
<glyph unicode="&#xf7;" horiz-adv-x="901" d="M35 526q9 25 40 43.5t109 32.5q71 13 178.5 14.5t240 -13t245.5 -44.5q14 -3 21 -16.5t3 -26.5q-3 -14 -15.5 -22t-27.5 -5q-154 27 -282.5 38t-202.5 8t-127 -12t-72 -17t-22 -12q-4 -12 -20.5 -20.5t-30.5 -6.5q-25 4 -34 24t-3 35zM381 348q5 20 20 38t41 13 q44 -8 35 -73q-4 -25 -23.5 -41t-37.5 -11q-21 5 -31 26t-4 48zM430 860q20 60 64 51q19 -4 27.5 -19t7 -29.5t-2.5 -24.5q-4 -26 -23 -41.5t-38 -10.5q-20 6 -29.5 26t-5.5 48z" />
<glyph unicode="&#xf8;" horiz-adv-x="706" d="M38 378q1 62 16 126.5t31.5 107t41 86.5t33.5 57t18 25q24 34 57.5 43t63.5 -20q28 4 43 4q121 357 121 358q6 33 30.5 49.5t47.5 8.5q26 -8 30.5 -39t-4.5 -45q-12 -28 -26 -37q-4 -4 -111 -299q126 -21 180 -119q29 -54 30 -125t-21 -141t-48.5 -127.5t-58.5 -106.5 q-120 -180 -250 -180q-47 0 -92 29l-8 -33q-23 -111 -17 -150q1 0 14 7.5t25 15.5q31 17 52 -10q16 -29 -13 -51q-56 -33 -86 -33q-20 0 -35 10q-28 20 -30 71t20 154q9 40 21 80q-40 71 -58 146.5t-17 137.5zM117 345.5q3 -67.5 28 -136.5q38 125 170 518l-8 -2 q-7 -18 -14 -27q-29 -42 -74 -45q-29 -39 -50.5 -82.5t-38 -100.5t-13.5 -124.5zM193 115q29 -33 69 -33q85 0 184 147q45 68 75 144.5t38 150t-18 123.5q-37 68 -138 80q-122 -336 -210 -612z" />
<glyph unicode="&#xf9;" horiz-adv-x="653" d="M72 428q2 46 7 124.5t8 130t1 54.5q-16 29 -10.5 60.5t27.5 55.5t45 21q17 -1 29 -7t17.5 -17l9 -18t3 -22.5t-0.5 -17.5t-1 -14q-1 -7 -16 -73t-30.5 -148t-17.5 -133q-6 -155 20.5 -245.5t82.5 -104.5q81 -18 147 35q50 39 80.5 98.5t36.5 99.5q-5 79 -8.5 170 t-4 136.5t0.5 62.5q1 18 6 36t22 36t43 14q35 -6 50 -38t10 -63.5t-19 -42.5q-8 -7 -16 -135t-2 -269t33 -169q10 -11 7.5 -26.5t-14.5 -24.5q-9 -6 -22 -6q-17 0 -29 12q-24 34 -41 154q-39 -62 -88 -103q-68 -53 -151 -53q-28 0 -58 6q-172 40 -157 424zM248.5 1261.5 q3.5 14.5 15.5 22.5q12 7 26.5 3.5t22.5 -15.5l176 -293q17 -27 -8 -49q-18 -11 -31.5 -7t-21.5 17l-176 295q-7 12 -3.5 26.5z" />
<glyph unicode="&#xfa;" horiz-adv-x="653" d="M72 428q2 46 7 124.5t8 130t1 54.5q-16 29 -10.5 60.5t27.5 55.5t45 21q17 -1 29 -7t17.5 -17l9 -18t3 -22.5t-0.5 -17.5t-1 -14q-1 -7 -16 -73t-30.5 -148t-17.5 -133q-6 -155 20.5 -245.5t82.5 -104.5q81 -18 147 35q50 39 80.5 98.5t36.5 99.5q-5 79 -8.5 170 t-4 136.5t0.5 62.5q1 18 6 36t22 36t43 14q35 -6 50 -38t10 -63.5t-19 -42.5q-8 -7 -16 -135t-2 -269t33 -169q10 -11 7.5 -26.5t-14.5 -24.5q-9 -6 -22 -6q-17 0 -29 12q-24 34 -41 154q-39 -62 -88 -103q-68 -53 -151 -53q-28 0 -58 6q-172 40 -157 424zM262 987l178 293 q8 12 21.5 15.5t27.5 -3.5q12 -8 16 -22.5t-3 -26.5l-178 -295q-20 -32 -52 -10q-24 21 -10 49z" />
<glyph unicode="&#xfb;" horiz-adv-x="653" d="M72 428q2 46 7 124.5t8 130t1 54.5q-16 29 -10.5 60.5t27.5 55.5t45 21q17 -1 29 -7t17.5 -17l9 -18t3 -22.5t-0.5 -17.5t-1 -14q-1 -7 -16 -73t-30.5 -148t-17.5 -133q-6 -155 20.5 -245.5t82.5 -104.5q81 -18 147 35q50 39 80.5 98.5t36.5 99.5q-5 79 -8.5 170 t-4 136.5t0.5 62.5q1 18 6 36t22 36t43 14q35 -6 50 -38t10 -63.5t-19 -42.5q-8 -7 -16 -135t-2 -269t33 -169q10 -11 7.5 -26.5t-14.5 -24.5q-9 -6 -22 -6q-17 0 -29 12q-24 34 -41 154q-39 -62 -88 -103q-68 -53 -151 -53q-28 0 -58 6q-172 40 -157 424zM175.5 969.5 q-2.5 14.5 6.5 25.5l176 246q3 9 13 16q10 5 14 5h16l13 -7q9 -6 12 -18l160 -254q8 -12 4.5 -27t-15.5 -22q-31 -17 -51 12l-135 215l-149 -207q-8 -12 -23 -14.5t-27 6.5t-14.5 23.5z" />
<glyph unicode="&#xfc;" horiz-adv-x="653" d="M72 428q2 46 7 124.5t8 130t1 54.5q-16 29 -10.5 60.5t27.5 55.5t45 21q17 -1 29 -7t17.5 -17l9 -18t3 -22.5t-0.5 -17.5t-1 -14q-1 -7 -16 -73t-30.5 -148t-17.5 -133q-6 -155 20.5 -245.5t82.5 -104.5q81 -18 147 35q50 39 80.5 98.5t36.5 99.5q-5 79 -8.5 170 t-4 136.5t0.5 62.5q1 18 6 36t22 36t43 14q35 -6 50 -38t10 -63.5t-19 -42.5q-8 -7 -16 -135t-2 -269t33 -169q10 -11 7.5 -26.5t-14.5 -24.5q-9 -6 -22 -6q-17 0 -29 12q-24 34 -41 154q-39 -62 -88 -103q-68 -53 -151 -53q-28 0 -58 6q-172 40 -157 424zM242.5 1027 q2.5 14 7.5 26q12 28 34 39.5t44 1.5q18 -7 25 -28.5t-5 -57.5q-7 -17 -30.5 -35t-47.5 -6q-18 9 -24 27.5t-3.5 32.5zM412.5 1027q2.5 14 7.5 26q12 28 34 39.5t44 1.5q18 -7 25 -28.5t-5 -57.5q-7 -17 -30.5 -35t-47.5 -6q-18 9 -24 27.5t-3.5 32.5z" />
<glyph unicode="&#xfd;" horiz-adv-x="886" d="M31.5 804q-16.5 31 9.5 62q26 26 72 15q11 -4 487 -320q37 120 83 256.5t52 147.5q17 31 43 44t51 3q30 -13 38.5 -45.5t-17.5 -61.5q-22 -22 -72.5 -130.5t-105.5 -260.5l53 -35q12 -9 15 -23t-5 -26q-13 -20 -35 -16q-4 0 -51 30q-148 -466 -10 -753q6 -13 1.5 -28 t-17.5 -21q-6 -4 -21 -4q-22 4 -27 20q-154 301 3 829q-9 6 -54 33.5t-79 48.5t-86.5 53t-92.5 55t-80.5 45.5t-67 35t-36.5 12.5q-34 3 -50.5 34zM437 1031q-3 14 3 26l178 293q8 12 22 15.5t28 -3.5q12 -8 15.5 -22.5t-3.5 -26.5l-178 -295q-20 -32 -51 -10q-11 9 -14 23z " />
<glyph unicode="&#xfe;" horiz-adv-x="743" d="M33 25q2 3 16 117.5t31.5 297t23.5 320.5q5 101 6.5 276t1 305.5t-2.5 133.5q-8 8 -13.5 29t-1.5 40q9 45 32.5 60t41.5 10q26 -3 40.5 -29t8.5 -61q0 -3 -2 -39.5t-6.5 -107t-7.5 -134.5h8q36 23 96.5 39t102.5 10q111 -17 186 -121q101 -143 111 -319 q15 -287 -130 -358q-38 -17 -69 -19q-83 -9 -175.5 30.5t-164.5 92.5q-4 -57 -9.5 -120t-11.5 -118t-12 -108t-11 -95t-9 -74t-7 -49l-2 -18q-1 -13 -11.5 -22.5t-22.5 -9.5q-1 0 -3.5 1t-3.5 1q-13 1 -22.5 13t-7.5 26zM172 680q8 0 14 -6q28 -25 69.5 -50.5t95 -49 t101.5 -29t91 11.5q103 52 90 291q-8 139 -68.5 235.5t-134.5 120.5q-36 12 -78 -3.5t-63.5 -33t-32.5 -30.5q-30 -30 -61 -33q-12 -188 -19 -346q0 -24 -4 -78z" />
<glyph unicode="&#xff;" horiz-adv-x="886" d="M31.5 804q-16.5 31 9.5 62q26 26 72 15q11 -4 487 -320q37 120 83 256.5t52 147.5q17 31 43 44t51 3q30 -13 38.5 -45.5t-17.5 -61.5q-22 -22 -72.5 -130.5t-105.5 -260.5l53 -35q12 -9 15 -23t-5 -26q-13 -20 -35 -16q-4 0 -51 30q-148 -466 -10 -753q6 -13 1.5 -28 t-17.5 -21q-6 -4 -21 -4q-22 4 -27 20q-154 301 3 829q-9 6 -54 33.5t-79 48.5t-86.5 53t-92.5 55t-80.5 45.5t-67 35t-36.5 12.5q-34 3 -50.5 34zM427 1166.5q2 14.5 7 25.5q12 28 34 39.5t44 1.5q18 -7 25 -28.5t-5 -57.5q-7 -17 -30 -35t-47 -6q-18 9 -24 27.5t-4 33z M597 1166.5q2 14.5 7 25.5q12 28 34 39.5t44 1.5q18 -7 25 -28.5t-5 -57.5q-7 -17 -30 -35t-47 -6q-18 9 -24 27.5t-4 33z" />
<glyph unicode="&#x152;" horiz-adv-x="2021" d="M11.5 797.5q-9.5 145.5 31.5 305t133 316.5q20 33 47.5 47t55.5 -2q31 -23 22 -75q71 83 154.5 125.5t161.5 45t155 -21t139.5 -66.5t110.5 -98q34 -39 65 -96l5 117q-34 4 -47 29.5t1.5 57.5t51.5 52q3 79 13 106q20 57 75 46q47 -8 47 -82q98 40 176 34 q63 -4 126.5 -29t109 -56t84.5 -65.5t57 -55.5t22 -27q8 -12 5 -27t-15 -22q-29 -18 -51 10q0 2 -17 21t-50 48t-73.5 57t-95 50t-106.5 25q-46 4 -102.5 -23.5t-100.5 -60.5q-41 -352 -43 -551q379 33 666 -51q14 -5 20 -17.5t2 -27.5q-3 -13 -16 -20.5t-27 -2.5 q-297 91 -647 31q1 -198 16.5 -344.5t41 -225.5t49.5 -118.5t51 -55.5q69 -43 186 37q306 215 395 285q3 20 19 29q57 34 78 0q18 -27 -23 -62q-5 -5 -63 -51q-192 -138 -365 -258q-148 -105 -264 -41q-119 73 -168 348q-17 101 -25 211q-53 -150 -134 -270.5t-187.5 -194.5 t-216.5 -74q-190 0 -344 211q-85 118 -133.5 250t-58 277.5zM121 1061q-113 -407 141 -750q147 -202 322 -178q129 20 250 160t192 350q34 106 43 184q-77 -19 -80 -22q-6 -10 -17 -21t-35.5 -21t-53.5 -5q-10 2 -20 10t-16.5 21t-7 28t12.5 32.5t39 33.5q36 21 188 41 q0 30 2 77q-7 216 -125 340q-33 36 -78 66.5t-99.5 50.5t-111.5 27.5t-115.5 -7.5t-111 -50.5t-98.5 -104.5t-76 -166q-3 -14 -15.5 -22t-27.5 -5q-13 3 -21 16.5t-5 27.5q24 87 55 143q-8 -8 -29 -8q-66 -123 -102 -248z" />
<glyph unicode="&#x153;" horiz-adv-x="1189" d="M38 378q1 62 16 126.5t31.5 107t41 86.5t33.5 57t18 25q24 34 57.5 43t63.5 -20q105 17 186.5 -14.5t120.5 -100.5q28 47 53 72q29 29 64.5 49t66 28.5t58.5 11.5t43 2.5t18 -1.5h2q75 -4 120 -71.5t48 -157.5q3 -97 -47 -178.5t-145 -88.5q-130 -7 -250 97q-3 -48 2 -89 q31 -245 141 -280q50 -17 117.5 9t115.5 63t89 79q9 10 24 11t25 -8q11 -11 11.5 -26t-9.5 -26q-14 -15 -39 -38t-72 -59t-106 -60.5t-113 -24.5q-27 0 -65 10q-141 49 -187 279q-27 -56 -59 -107q-120 -180 -250 -180q-51 0 -89 26.5t-60 63.5q-40 71 -58 146.5t-17 137.5z M119 383.5q-3 -53.5 12 -120t51 -132.5q10 -20 31.5 -34.5t48.5 -14.5q85 0 184 147q91 137 109 273l4 24q-33 45 -22 90q0 9 10 19l-6 12q-25 47 -83.5 66t-104.5 17.5t-46 -5.5q-7 -18 -14 -27q-29 -42 -74 -45q-26 -35 -45.5 -72.5t-35.5 -90.5t-19 -106.5zM666 590 l6 -29q0 -3 9.5 -18t29 -36.5t44 -41t59 -31.5t69.5 -8q36 4 62.5 25.5t39.5 52t18.5 59t4.5 55.5q-2 65 -31.5 113.5t-77.5 48.5h-2q-99 -11 -164 -78q-42 -42 -67 -112z" />
<glyph unicode="&#x178;" horiz-adv-x="1130" d="M15 1615.5q-4 15.5 2 41t30 37.5q29 14 58.5 -8.5t39.5 -57.5q0 -1 9 -54.5t21.5 -124.5t37 -159.5t53.5 -164t73 -133t93 -70.5q54 -14 136 22.5t155 112.5q92 97 158.5 184.5t96 140t45.5 98.5t17 60t0 26v1v7q1 7 2 14.5t7.5 16t17.5 11.5q15 5 25.5 -2.5t13.5 -17.5 l4 -11q2 -7 3 -19.5t-3 -39.5t-14.5 -59t-35 -80.5t-60 -102.5t-94 -126t-132.5 -150q-104 -110 -227 -148q0 -45 -19 -69q-14 -16 -14.5 -249t16.5 -616q2 -14 -8.5 -24.5t-25.5 -10.5q-14 0 -24.5 10t-10.5 25l-30 570q-16 346 -5 354q-60 10 -113.5 65.5t-88.5 130.5 t-64.5 161.5t-45.5 159t-28 123t-16 52.5q-29 15 -47 49q-4 9 -8 24.5zM423 1823.5q2 14.5 7 25.5q12 28 34 39.5t44 1.5q18 -7 25 -28.5t-5 -57.5q-7 -17 -30 -35t-47 -6q-18 9 -24 27.5t-4 33zM593 1823.5q2 14.5 7 25.5q12 28 34 39.5t44 1.5q18 -7 25 -28.5t-5 -57.5 q-7 -17 -30 -35t-47 -6q-18 9 -24 27.5t-4 33z" />
<glyph unicode="&#x2c6;" horiz-adv-x="454" d="M18.5 1406q-2.5 15 6.5 26l176 245q4 12 12 17q8 4 14 4h6h11l12 -6q9 -6 12 -19l160 -254q8 -12 5 -27t-15 -22q-31 -17 -51 12l-136 215l-149 -206q-8 -12 -22.5 -15t-26.5 6t-14.5 24z" />
<glyph unicode="&#x2dc;" horiz-adv-x="827" d="M38.5 1326.5q-4.5 13.5 2.5 27.5q50 99 141 121q134 34 338 -109q40 -27 81.5 -38t73.5 -6.5t52 21.5q28 22 12 62q-6 12 -1 26.5t18 20.5q14 6 27.5 1t21.5 -17q19 -40 10 -80t-41 -68q-44 -36 -105.5 -37.5t-107.5 16t-82 42.5q-178 123 -278 96q-60 -15 -97 -84 q-6 -13 -21 -17.5t-28 1.5q-12 8 -16.5 21.5z" />
<glyph unicode="&#x2000;" horiz-adv-x="1073" />
<glyph unicode="&#x2001;" horiz-adv-x="2146" />
<glyph unicode="&#x2002;" horiz-adv-x="1073" />
<glyph unicode="&#x2003;" horiz-adv-x="2146" />
<glyph unicode="&#x2004;" horiz-adv-x="715" />
<glyph unicode="&#x2005;" horiz-adv-x="536" />
<glyph unicode="&#x2006;" horiz-adv-x="357" />
<glyph unicode="&#x2007;" horiz-adv-x="357" />
<glyph unicode="&#x2008;" horiz-adv-x="268" />
<glyph unicode="&#x2009;" horiz-adv-x="429" />
<glyph unicode="&#x200a;" horiz-adv-x="119" />
<glyph unicode="&#x2010;" horiz-adv-x="901" d="M31 608q9 24 40.5 42t108.5 32q72 13 178.5 15t239 -12t244.5 -44q14 -5 21.5 -17.5t4.5 -25.5q-3 -15 -16 -22.5t-27 -4.5q-155 27 -283.5 37.5t-203 8t-127 -12t-71.5 -17.5t-21 -12q-4 -12 -21.5 -20.5t-31.5 -5.5q-24 3 -32.5 22.5t-2.5 36.5z" />
<glyph unicode="&#x2011;" horiz-adv-x="901" d="M31 608q9 24 40.5 42t108.5 32q72 13 178.5 15t239 -12t244.5 -44q14 -5 21.5 -17.5t4.5 -25.5q-3 -15 -16 -22.5t-27 -4.5q-155 27 -283.5 37.5t-203 8t-127 -12t-71.5 -17.5t-21 -12q-4 -12 -21.5 -20.5t-31.5 -5.5q-24 3 -32.5 22.5t-2.5 36.5z" />
<glyph unicode="&#x2012;" horiz-adv-x="901" d="M31 608q9 24 40.5 42t108.5 32q72 13 178.5 15t239 -12t244.5 -44q14 -5 21.5 -17.5t4.5 -25.5q-3 -15 -16 -22.5t-27 -4.5q-155 27 -283.5 37.5t-203 8t-127 -12t-71.5 -17.5t-21 -12q-4 -12 -21.5 -20.5t-31.5 -5.5q-24 3 -32.5 22.5t-2.5 36.5z" />
<glyph unicode="&#x2013;" horiz-adv-x="890" d="M29 580q-4 18 5 37t34 20q13 3 29.5 -7t21.5 -22q2 -4 20.5 -13t71 -20t126.5 -16.5t203 0.5t285 27q14 3 27 -5.5t14 -23.5q3 -14 -5 -26t-21 -15q-114 -26 -247 -35t-239 -3t-178 22q-77 17 -107.5 36.5t-39.5 43.5z" />
<glyph unicode="&#x2014;" horiz-adv-x="1228" d="M29 580q-4 18 5 37t34 20q13 3 29.5 -7t21.5 -22q4 -8 149.5 -27t379.5 -27.5t517 28.5q14 3 27 -5.5t14 -23.5q3 -14 -5 -26t-21 -15q-167 -38 -527.5 -38t-476.5 26q-77 17 -107.5 36.5t-39.5 43.5z" />
<glyph unicode="&#x2018;" horiz-adv-x="206" d="M59 1722q-2 14 8 26t25 13q14 2 26 -7.5t13 -24.5l33 -340q2 -17 -7.5 -29t-29.5 -12q-13 0 -23 9t-12 23z" />
<glyph unicode="&#x2019;" horiz-adv-x="215" d="M59 1421l33 308q1 15 13 24.5t26 7.5q15 -1 25 -13.5t8 -27.5l-33 -307q-2 -14 -14 -24t-27 -7q-14 2 -23 13t-8 26z" />
<glyph unicode="&#x201a;" horiz-adv-x="223" d="M37 63q-5 22 10 50q15 31 41 45t49 2q26 -11 33.5 -47t-0.5 -52q-13 -38 -43 -72t-72 -50q-9 -3 -8 2q0 4 11 21q26 44 12 52q-9 4 -18.5 15.5t-14.5 33.5z" />
<glyph unicode="&#x201c;" horiz-adv-x="397" d="M49 1720q-2 15 8 27.5t25 13.5q14 2 26 -7.5t13 -24.5l33 -308q1 -15 -8 -26t-23 -13q-15 -3 -27 7t-14 24zM229 1389l33 340q1 15 13 24.5t26 7.5q15 -1 25 -13t8 -26l-33 -342q-2 -14 -12 -23t-23 -9q-20 0 -29.5 12t-7.5 29z" />
<glyph unicode="&#x201d;" horiz-adv-x="407" d="M59 1722q-2 14 8 26t25 13q14 2 26 -7.5t13 -24.5l33 -340q2 -17 -7.5 -29t-29.5 -12q-13 0 -23 9t-12 23zM240 1421l32 308q1 15 13 24.5t26 7.5q15 -1 25 -13.5t8 -27.5l-33 -307q-2 -14 -14 -24t-25 -7q-15 2 -24 13t-8 26z" />
<glyph unicode="&#x201e;" horiz-adv-x="366" d="M37 63q-5 22 10 50q15 31 41 45t49 2q26 -11 33.5 -47t-0.5 -52q-13 -38 -43 -72t-72 -50q-9 -3 -8 2q0 4 11 21q26 44 12 52q-9 4 -18.5 15.5t-14.5 33.5zM193 63q-5 22 10 50q15 31 41 45t49 2q26 -11 33.5 -47t-0.5 -52q-13 -38 -43 -72t-72 -50q-9 -3 -8 2q0 4 11 21 q27 45 11 52q-9 4 -18 15.5t-14 33.5z" />
<glyph unicode="&#x2022;" horiz-adv-x="235" d="M49 647.5q3 26.5 10 40.5q3 3 6.5 4.5t6.5 1.5h2q13 29 53 29q19 0 36 -16t23 -39q3 -13 5 -29.5t-11 -41t-41 -44.5q-21 -16 -41 -16q-11 0 -26 10q-15 14 -20.5 44t-2.5 56.5z" />
<glyph unicode="&#x2026;" horiz-adv-x="565" d="M31.5 95q2.5 14 7.5 26q12 28 34 39.5t44 1.5q18 -7 25 -28.5t-5 -57.5q-7 -17 -30.5 -35t-47.5 -6q-18 9 -24 27.5t-3.5 32.5zM220 95.5q2 14.5 7 25.5q12 28 34 39.5t44 1.5q18 -7 25.5 -28.5t-4.5 -57.5q-7 -17 -30.5 -35t-47.5 -6q-18 9 -24 27.5t-4 33zM408.5 95 q2.5 14 7.5 26q12 28 34 39.5t44 1.5q18 -7 25 -28.5t-5 -57.5q-7 -17 -30.5 -35t-47.5 -6q-18 9 -24 27.5t-3.5 32.5z" />
<glyph unicode="&#x202f;" horiz-adv-x="429" />
<glyph unicode="&#x2039;" horiz-adv-x="843" d="M12 373q-7 56 189 309q178 231 272 313q34 28 63 42t47.5 15t33 -4.5t21 -13t9.5 -14.5l4 -20t-12.5 -33.5t-46.5 -22.5q-27 -4 -45 4q-2 0 -28.5 -23.5t-75 -73t-104.5 -114t-125 -159.5t-128 -195q50 -45 309 -156q291 -120 402 -149q13 -4 20 -17t4 -28 q-4 -12 -16 -20.5t-29 -4.5q-137 38 -430 162q-94 40 -160 73t-99 52t-51 36.5t-20.5 24.5t-3.5 17z" />
<glyph unicode="&#x203a;" horiz-adv-x="765" d="M26.5 1012q-3.5 15 2.5 39q7 18 26 21.5t31 -0.5t23 -9q25 -15 303.5 -245.5t314.5 -274.5q27 -30 21 -72q-4 -33 -29 -68.5t-72.5 -76t-86.5 -70t-105 -74.5q-7 -5 -25 -18t-27.5 -19.5t-26.5 -19t-26.5 -20t-23.5 -18t-22 -18t-16.5 -15.5t-13 -14t-6.5 -11 q-8 -33 -45 -25q-13 3 -20 17t-2 28q11 34 59 75t154 116q54 38 88.5 63t79.5 61.5t69 65.5t27 51q0 8 -6 17q-31 38 -214 182.5t-370 286.5q-7 1 -17 5t-25.5 14.5t-19 25.5z" />
<glyph unicode="&#x205f;" horiz-adv-x="536" />
<glyph unicode="&#x20ac;" horiz-adv-x="1447" d="M47 750q3 56 133 86q-3 62 0 120q0 28 4 78q-56 -17 -67 -28q-2 -10 -11 -16.5t-15 -7.5t-9 -1q-15 2 -25.5 13t-9.5 26q3 60 148 90q51 345 255.5 547.5t526.5 224.5q242 12 344 -121q40 -54 62 -124t24 -136.5t0.5 -103.5t-5.5 -66q-1 -5 -1 -6q-1 -35 -21.5 -58.5 t-48.5 -21.5q-23 3 -39 23q-21 24 -18 65q0 32 16 51q6 9 11 69t-4 139t-40 118q-91 111 -276 100q-288 -19 -474 -199.5t-239 -488.5q179 27 496 21q14 0 24.5 -11t10.5 -26q0 -14 -11 -24.5t-26 -10.5q-322 5 -504 -22q-6 -47 -6 -95q-3 -52 0 -104q185 28 512 22 q14 0 24.5 -10.5t10.5 -25.5t-11 -25t-26 -10q-318 5 -506 -23q17 -163 77.5 -303t155.5 -237q167 -170 400 -164q98 3 163 29.5t87 72.5q12 34 6 62.5t-25 48.5q-41 51 -98 35q-15 -3 -27.5 4.5t-17.5 21.5q-3 15 5 27.5t22 15.5q47 12 93.5 -3.5t78.5 -55.5q34 -39 41 -90 t-13 -95q-68 -138 -313 -145h-19q-253 0 -434 184q-103 104 -168 254t-84 324q-56 -16 -69 -29q-6 -24 -35 -24q-15 2 -25.5 13t-9.5 26z" />
<glyph unicode="&#x2122;" horiz-adv-x="1634" d="M56.5 1622q6.5 37 35.5 74q59 75 244 67q12 23 37 21q12 -1 20.5 -7.5t11.5 -12.5l3 -7q76 -10 142.5 -36.5t104 -50.5t72 -57.5t41 -42.5t14.5 -22q14 -28 -10 -43q-23 -15 -43 11q-23 38 -74 77q-51 40 -114.5 65.5t-101.5 31.5l-38 6q-3 -39 -7.5 -170t-6.5 -308 t8 -292q2 -9 -5 -22t-25 -13q-11 0 -20.5 8.5t-10.5 20.5q-19 211 -10 782q-11 0 -40 2.5t-72 -8.5t-62 -35q-4 -6 -7.5 -18t-1.5 -17q14 -18 11 -39q-1 -22 -15 -36.5t-33 -14.5q-29 4 -41 31q-13 18 -6.5 55zM876 1611.5q1 142.5 3 153.5q3 22 17.5 35.5t33.5 11.5 q37 -4 37 -61q200 -403 237 -432q11 -11 31 -8q57 13 136 122t128 230l4 76q3 23 17.5 36.5t33.5 10.5q30 -6 36.5 -37t-9.5 -49q-12 -60 -32.5 -325t-8.5 -386q8 13 29.5 8.5t21.5 -28.5q5 -95 -35 -105q-4 0 -11.5 -1t-22 7.5t-25.5 26.5q-26 51 -29 193q0 20 3.5 84 t9 163.5t8.5 165.5q-57 -102 -128.5 -177.5t-135.5 -78.5q-37 0 -62 25q-36 30 -215 375q-23 -404 13 -701q2 -9 -5.5 -22t-25.5 -13q-12 0 -20.5 8t-10.5 19q-14 122 -19 326.5t-4 347z" />
<glyph unicode="&#x25fc;" horiz-adv-x="849" d="M0 0v850h850v-850h-850z" />
<glyph unicode="&#xfb01;" horiz-adv-x="1232" d="M42.5 150q-0.5 18 8.5 45q35 80 160.5 180t210.5 137q-31 436 35 633q26 80 59 134.5t67.5 78t64 31t59.5 2.5q105 -17 208 -177q33 -48 58 -108q0 -4 2 -6l6 -25q5 -35 -12 -57.5t-36 -28t-34 -4.5q-34 0 -56 23.5t-12 60.5q8 26 -12 90q-63 153 -123 162 q-101 11 -172 -199q-60 -188 -30 -587q220 49 479 -129q12 -9 15 -24.5t-5 -27.5q-9 -12 -23 -14.5t-26 6.5q-240 163 -436 117q25 -283 86 -639.5t105 -557t52 -224.5q3 -13 -4.5 -25.5t-21.5 -17.5h-8q-12 0 -22 7t-13 19q-17 64 -57 244.5t-101 532.5t-86 632 q-66 -39 -152 -139.5t-92 -144.5q-7 -38 -30.5 -52t-55.5 -8q-10 3 -20 9t-22.5 19.5t-13 31.5zM1032 762q0 14 5 34t21.5 40t41.5 16q44 -6 58 -53.5t-11 -87.5q-4 -9 -9.5 -120t-1 -295t24.5 -333q3 -15 -6.5 -26.5t-24.5 -14.5h-4q-13 0 -22.5 8.5t-11.5 22.5 q-23 160 -38 363t-18.5 307t-3.5 139zM1053 1118q3 40 28 62q19 19 43 16q32 -3 47 -37q11 -19 11 -51q-3 -41 -29 -64q-21 -17 -43 -14q-28 1 -44 26.5t-13 61.5z" />
<glyph unicode="&#xfb02;" horiz-adv-x="1216" d="M42.5 150q-0.5 18 8.5 45q35 80 160.5 180t210.5 137q-31 436 35 633q26 80 59 134.5t67.5 78t64 31t59.5 2.5q105 -17 208 -177q33 -48 58 -108q0 -4 2 -6l6 -25q5 -35 -12 -57.5t-36 -28t-34 -4.5q-34 0 -56 23.5t-12 60.5q8 26 -12 90q-63 153 -123 162 q-101 11 -172 -199q-60 -188 -30 -587q220 49 479 -129q12 -9 15 -24.5t-5 -27.5q-9 -12 -23 -14.5t-26 6.5q-240 163 -436 117q25 -283 86 -639.5t105 -557t52 -224.5q3 -13 -4.5 -25.5t-21.5 -17.5h-8q-12 0 -22 7t-13 19q-17 64 -57 244.5t-101 532.5t-86 632 q-66 -39 -152 -139.5t-92 -144.5q-7 -38 -30.5 -52t-55.5 -8q-10 3 -20 9t-22.5 19.5t-13 31.5zM1033.5 1722q-1.5 16 2 34t22.5 29.5t52 12.5q39 3 56 -31.5t14 -58.5q0 -2 -5.5 -120.5t-12.5 -282.5t-11.5 -376.5t-4.5 -404.5t10.5 -363t31.5 -255q3 -15 -4.5 -27.5 t-22.5 -15.5q-2 -2 -6 -2q-31 0 -37 26q-30 119 -47 402.5t-20.5 544.5t-4.5 533t-2 306q0 2 -4.5 17.5t-6 31.5z" />
</font>
</defs>
</svg>
