<?xml version="1.0" standalone="no"?>
<!DOCTYPE svg PUBLIC "-//W3C//DTD SVG 1.1//EN" "http://www.w3.org/Graphics/SVG/1.1/DTD/svg11.dtd" >
<svg xmlns="http://www.w3.org/2000/svg" xmlns:xlink="http://www.w3.org/1999/xlink" version="1.1">
<metadata></metadata>
<defs>
<font id="loft_yianregular" horiz-adv-x="1286" >
<font-face units-per-em="2048" ascent="1536" descent="-512" />
<missing-glyph horiz-adv-x="559" />
<glyph unicode="&#xfb01;" horiz-adv-x="843" d="M-195 1047q10 16 39 18q22 0 64 -6l131 -25l24 269q26 111 67 104q25 -5 46 -45q-6 -3 -7.5 -4.5t-5.5 -38t-9 -119.5l-13 -190q171 -37 294 -52.5t220 -1.5q49 7 87.5 21t61.5 30.5t38.5 35t20.5 37t4.5 34.5t-7.5 29q-11 21 -4 28l2 -3q67 -110 28 -183 q-35 -64 -153 -82q-31 -5 -68.5 -5t-66 0.5t-76.5 8.5t-71 11t-80.5 16.5t-73.5 17t-81.5 20.5t-74.5 19q-1 -11 -1.5 -25t-1 -22t-1.5 -12l2 2q-4 -70 -4 -107q69 -109 105 -264.5t39.5 -300t-7.5 -287.5t-26.5 -232.5t-28.5 -129.5q-24 -75 -63 -88q-2 -2 -7 -2h-4 q-64 -42 -99 98q-64 258 -29 1024q6 123 14 244l10 127q-63 16 -131 26q-30 5 -33 5q-5 0 -14 1t-11 1q-21 0 -30 -9q-2 -1 -4 -4l-2 -4q0 -6 2 -10q3 -7 33.5 -9.5t35.5 7.5l11 -8q-9 -24 -27 -31q-28 -13 -54 16q-24 27 -10 50zM29 952q0 -2 4 -2v-2zM111 68.5 q-5 -310.5 4 -394.5q8 -42 17 -65t14.5 -23t9.5 2q12 16 22 45q11 36 26 116.5t26 209t10.5 260.5t-28 276t-81.5 250q-15 -366 -20 -676.5zM309 1241q23 17 106 21t182 -16t148 -64q3 -2 7 -6.5t12.5 -18.5t12 -29t-1 -39t-19.5 -49q-19 -30 -45 -38.5t-47.5 0.5t-37.5 27 t-18 36q-3 31 2.5 57t15.5 40.5t20.5 24.5t17.5 13l8 4q0 3 -52 18.5t-132.5 26t-178.5 -7.5zM549.5 479q0.5 53 5.5 101q2 8 14 75t24.5 128.5t16.5 68.5q40 34 77 4.5t22 -84.5q-67 -322 -56 -481q9 -124 76 -202.5t160 -57.5q19 2 21.5 0.5t4.5 -11.5q-26 -23 -118 -12 q-59 9 -104 43t-72 84t-44 107.5t-22.5 120.5t-5 116z" />
<glyph horiz-adv-x="0" />
<glyph horiz-adv-x="682" />
<glyph horiz-adv-x="0" />
<glyph horiz-adv-x="0" />
<glyph unicode="&#xd;" horiz-adv-x="735" />
<glyph unicode=" "  horiz-adv-x="559" />
<glyph unicode="&#x09;" horiz-adv-x="559" />
<glyph unicode="&#xa0;" horiz-adv-x="559" />
<glyph unicode="!" horiz-adv-x="671" d="M156 76q5 17 17.5 27.5t25.5 7.5q14 -3 25.5 -23.5t8.5 -38.5q-4 -19 -24.5 -35.5t-34.5 -13.5q-11 3 -17 29.5t-1 46.5zM180 172q31 227 123 571t139 476q3 5 13 36.5t20.5 66t11.5 36.5q1 4 34 -14t61.5 -49t19.5 -58q-19 -59 -74.5 -191.5t-108 -257.5t-109 -295.5 t-83.5 -314.5q0 -1 -1 -4t-1.5 -4t-1.5 -3.5t-1.5 -3.5t-2 -3t-3 -3t-3.5 -2t-4.5 -1.5t-6 -1t-7.5 -0.5q-5 1 -9 6t-5 10z" />
<glyph unicode="&#x22;" horiz-adv-x="315" d="M0 1184q5 8 21.5 32t25.5 39t19.5 39.5t13.5 48.5q-32 16 -29 72q0 38 18 67t40 29q24 0 36.5 -20.5t13.5 -48t-1 -50.5t-6 -32q-24 -73 -62.5 -129t-83.5 -60zM131 1184q6 9 22 32.5t25.5 38.5t20 39.5t14.5 48.5q-34 15 -31 72q0 37 18.5 66.5t39.5 29.5 q24 0 36.5 -20.5t13.5 -48t-1 -50.5t-6 -32q-21 -72 -60.5 -128.5t-85.5 -60.5z" />
<glyph unicode="#" horiz-adv-x="731" d="M12 690l11 37q24 1 78 4t83 4q0 43 -4 129q-102 -4 -153 -10l10 37q45 4 143 8q0 130 2 191l45 -9v-88q-2 -29 -2 -92q98 4 154 4q0 126 2 185l45 -9v-88q-2 -27 -2 -88q127 0 188 -4l-10 -39q-78 4 -88 4q-27 2 -90 2q0 -19 1 -60.5t1 -62.5v-6q115 0 172 -4l-10 -37 q-22 0 -52 1t-36 1q-23 2 -72 2q9 -135 16 -198l-45 12q-6 57 -14 186q-86 0 -133 -2h-23q7 -103 15 -196l-43 12q-9 82 -15 182q-60 0 -174 -8zM225 866q0 -19 1 -59.5t1 -61.5v-8q51 2 156 2q0 21 -1 63.5t-1 65.5q-76 0 -115 -2h-41z" />
<glyph unicode="$" horiz-adv-x="999" d="M4 326q6 46 34 68.5t71.5 21t93 -17.5t104.5 -44q1 4 31.5 154.5t60.5 298t33 149.5q4 2 19 18t26 24.5t12 0.5q1 -5 -69 -330.5t-74 -336.5q32 -19 60 -41q25 150 114.5 645.5t97.5 503.5q50 40 62 -19q4 -20 -121 -751.5t-135 -759.5q-3 3 -7.5 8.5t-15 26t-16 45 t-5.5 66t11 87.5q-90 150 -192 181q-72 22 -111 -23q-42 -48 -11 -132q10 -25 25 -50q22 -35 89.5 -37t149.5 23.5t161.5 62.5t134 83t57.5 83q3 35 -48.5 83.5t-128 99.5t-153.5 104.5t-133 111.5t-59 107q-5 77 108 222t250 241q170 118 256 68q27 -16 43 -48 q20 -41 3.5 -185t-44.5 -194l-55 66q3 8 7.5 22t15 52.5t16.5 72t5 71t-13 58.5q-22 37 -160 -75t-254.5 -258.5t-87.5 -192.5q18 -27 67 -62t110 -73t124 -81t120.5 -101.5t88.5 -120.5q14 -29 -8 -66t-71 -72t-113 -69.5t-134.5 -59t-134.5 -39.5t-115.5 -13.5t-74.5 22.5 q-6 4 -15.5 12.5t-33 37.5t-40.5 61t-26.5 83.5t-1.5 106.5z" />
<glyph unicode="%" horiz-adv-x="1265" d="M2.5 979q11.5 85 45.5 171.5t97.5 155t139.5 89.5q18 6 22 6q5 -1 14 6t15.5 10.5t20 -10.5t30.5 -49q17 -33 123.5 -53.5t203 -25.5t105.5 -1q3 0 8 -6t9 -12l4 -7q12 -6 14 -22t-6 -38.5t-22 -50.5t-33.5 -61.5t-41 -68t-45 -72t-44.5 -72t-40.5 -70.5t-31.5 -65 q-10 -23 -39 -86t-55.5 -126t-46.5 -120l-21 -63l-31 -82q-22 -65 -41.5 -117t-28.5 -76.5t-10 -27.5l-26 -23q-39 -4 -53 11t-7 43q2 9 10 28.5t11 28.5q21 58 62 174t73 202.5t70 176.5q30 70 140.5 273t137.5 245q8 12 -8.5 23.5t-55 21.5t-77 18.5t-93 19t-85.5 17.5 q16 -82 3.5 -163t-50 -153.5t-84 -125.5t-98 -80.5t-91.5 -17.5q-56 13 -80.5 76.5t-13 148.5zM84 880q4 -102 56 -100q6 0 12 2q65 29 120 94.5t86 135t41 131.5q10 68 1 108.5t-31 58.5t-45 23.5t-40 3.5l-18 -2q-76 -38 -134 -193q-53 -144 -48 -262zM638 179q-4 43 5 79 l14 68q26 92 76.5 172.5t119 127t132.5 31.5q96 -22 100.5 -165.5t-78.5 -292t-208 -181.5q-9 -9 -23 -6q-47 0 -79 25t-43.5 62t-15.5 80zM670.5 150.5q6.5 -42.5 30 -59.5t49 -20.5t45.5 1.5l20 4q78 38 136 193q52 142 48 260q-3 104 -56 102q-5 0 -11 -2 q-64 -28 -118.5 -96t-84 -133.5t-47.5 -131.5q-18 -75 -11.5 -117.5z" />
<glyph unicode="&#x26;" horiz-adv-x="925" d="M4 -10q-13 132 21 266t99.5 250t137.5 153q-19 66 -22 148t10 161.5t53.5 142.5t102.5 83q37 13 75.5 17t81.5 -2.5t78 -38t53 -85.5q21 -56 -14.5 -186t-106.5 -285q66 -60 86 -170q7 -40 8.5 -77t-1.5 -53l-2 -17q0 204 -101 287q-64 -136 -207 -363q-35 6 -39 10 q115 148 224 371q-50 37 -99 37q-61 -1 -116 -36.5t-95 -94.5t-68.5 -134.5t-42 -155.5t-10 -159.5t22.5 -144t60 -111t98 -59.5q28 -7 80.5 6.5t105.5 41.5t97 66t56 79.5t-18 82.5q-44 46 -100.5 46t-65.5 -46q-18 10 -1.5 34.5t30.5 33.5q10 5 28.5 7t51 2t67 -1.5t94 -3 t113.5 -2.5h10t5.5 -0.5t2.5 -2.5v-4.5t-1.5 -7.5t-2.5 -10.5t-2 -15t-1 -20.5q-4 1 -17 3.5t-24.5 4.5t-41 5t-69.5 5q22 -17 31 -42.5t2.5 -58t-46.5 -71.5t-110 -74q-160 -75 -277.5 -74t-197.5 68q-73 63 -86 195zM329 818.5q0 -76.5 19 -136.5q122 17 203 -51 q36 92 56.5 173.5t25 156.5t-21.5 126.5t-83 67.5q-69 -8 -116 -61t-65 -126t-18 -149.5z" />
<glyph unicode="'" horiz-adv-x="245" d="M0 1188q6 10 22 34t25 39.5t19.5 40t13.5 48.5q-32 16 -29 71q0 38 18 67.5t40 29.5q24 0 36.5 -20.5t13.5 -48t-1 -51t-6 -32.5q-24 -73 -62.5 -128.5t-83.5 -59.5z" />
<glyph unicode="(" horiz-adv-x="581" d="M21 515.5q40 237.5 126.5 448.5t174 355t139.5 180q59 40 55 -23q-4 -66 -59 -192q-72 -73 -148.5 -206.5t-140.5 -305.5t-89.5 -355t3.5 -354q22 -116 57.5 -187.5t102.5 -147.5l-9 -39q-156 118 -210 364q-42 225 -2 462.5z" />
<glyph unicode=")" horiz-adv-x="729" d="M0 -305l12 39q61 15 83.5 21t70 22t74 32t62.5 44t69 65q91 102 146 252.5t70 306.5t7 315.5t-35.5 289.5t-66.5 218l-15 105q-12 127 20 116q15 -6 38 -40q23 -35 49 -113t48 -190.5t36.5 -242t9.5 -273.5t-28.5 -279t-81.5 -264.5t-146 -224.5q-184 -193 -422 -199z " />
<glyph unicode="*" horiz-adv-x="765" d="M50.5 1014q11.5 38 46 50.5t96.5 -30.5q5 -4 8 -7t5.5 -6t4.5 -5q26 -22 63.5 -77.5t64.5 -95t38 -36.5q8 1 6 35.5t-8.5 74t-11 82t-1.5 58.5q2 24 23.5 33t43.5 -3t24 -38t-10 -87t-20.5 -108t-0.5 -51q8 -5 51.5 50.5t86.5 118.5l44 62q36 31 66.5 38t47 -6 t25.5 -33.5t8 -43.5t-10 -37q-17 -23 -87.5 -59t-130.5 -65t-60 -40q-1 -11 59 -41.5t131 -68t88 -60.5q16 -23 1 -56t-49 -42.5t-85 23.5q-3 2 -44.5 60t-83.5 112t-50 51q-7 -3 1 -48.5t19 -104.5t9 -85q-3 -24 -26 -36t-46 -4.5t-25 30.5q-2 20 4 85.5t9 106t-4 56.5 q-5 3 -32 -30.5t-57.5 -75t-57.5 -78.5t-31 -39q-46 -38 -87 -27.5t-49.5 44.5t4.5 58q17 23 87 57.5t130 65.5t62 47t-58.5 45t-133.5 62.5t-91 56.5q-18 24 -6.5 62z" />
<glyph unicode="+" horiz-adv-x="608" d="M0 399l10 58q236 37 525 24l-9 -63q-71 4 -80 6q-170 0 -227 -4q-108 -3 -219 -21zM225 735l58 -10q37 -235 24 -526l-63 10q4 71 6 80q0 170 -4 227q-3 109 -21 219z" />
<glyph unicode="," horiz-adv-x="360" d="M0 -158q8 9 44 42t56 60t27 58q-50 15 -47 72q0 38 29 67t63 29q37 0 57 -20.5t22 -48.5t-1 -50.5t-8 -32.5q-37 -72 -99.5 -128t-134.5 -60z" />
<glyph unicode="-" horiz-adv-x="620" d="M0 297l10 57q256 40 525 25l-9 -64q-20 2 -46.5 4t-33.5 3q-184 0 -227 -3q-127 -7 -219 -22z" />
<glyph unicode="." horiz-adv-x="282" d="M4 125q9 43 40 68t65 16q33 -7 48.5 -43.5t4.5 -79.5q-10 -44 -40.5 -68t-64.5 -18q-33 9 -48.5 46t-4.5 79z" />
<glyph unicode="/" horiz-adv-x="837" d="M5 -108q-16 20 22 61q46 51 97.5 174t105 283t55.5 165q155 392 233 742q9 32 48 37.5t73.5 -4t34.5 -15.5q-1 -7 -5 -21.5t-5 -19.5q-15 -57 -62.5 -198.5t-121 -336.5t-151.5 -376.5t-161 -323t-141 -172.5q-12 -7 -22 5z" />
<glyph unicode="0" horiz-adv-x="876" d="M4 682q15 185 83 342t169.5 247.5t212.5 90.5t197 -90.5t127.5 -247.5t25.5 -342q-15 -185 -83 -342t-169.5 -247.5t-212.5 -90.5t-197 90.5t-127 247.5t-26 342zM123 686q-13 -177 11.5 -322t85 -232t147.5 -87q86 0 157 87.5t113 231.5t55 322q14 176 -8.5 319 t-81 228.5t-145.5 85.5t-159 -85.5t-116.5 -228.5t-58.5 -319z" />
<glyph unicode="1" horiz-adv-x="485" d="M0 43q-1 5 4 57q4 49 12.5 107.5t16 100.5t23 114.5t22 101.5t26 112.5t23.5 100.5q43 168 72 267q3 7 8 28q-31 -17 -59 -7q-12 6 -9 13q99 179 174 246q35 33 72 51q29 11 43 11h14q-37 -44 -87 -198.5t-94.5 -343.5t-83 -372t-61.5 -306.5t-22 -123.5q-56 -4 -74 4.5 t-20 36.5z" />
<glyph unicode="2" horiz-adv-x="835" d="M0 240q17 68 68.5 137t100.5 113t128 106q12 9 36 28.5t36 28.5q33 26 63 52.5t63 62t59 70.5t48 76.5t33.5 82.5t11 87t-15.5 90q-28 91 -96 119.5t-136 -13.5q-17 -11 -30 -23.5t-20.5 -32t-12 -30.5t-5 -39t-1 -36t1.5 -43.5t2 -39.5q2 -26 -20 -42t-44.5 -20 t-31.5 -1q-6 62 -8.5 122.5t17 121.5t62.5 96q39 31 90.5 37t100 -10.5t91.5 -55t66 -90.5q116 -264 -80 -462q-3 -3 -4.5 -5t-3.5 -4q-55 -61 -146 -140t-174.5 -153.5t-131.5 -134.5q-5 -6 91 -57q206 -108 349 -132q161 -27 154 85q-1 22 -9 49q60 -17 78 -76t-5 -108.5 t-64 -43.5q-32 5 -173 58t-300 107t-238 63z" />
<glyph unicode="3" horiz-adv-x="847" d="M5 173.5q-5 43.5 14.5 84.5t56.5 77.5t92.5 62.5t118.5 34l3 -2q3 -2 5.5 -4t4 -4.5t-1 -5t-9.5 -4.5q-129 -33 -199 -125q-60 -80 -37 -150q26 -79 145 -92q19 -2 40 -2q161 -2 284 117q104 102 130 239q28 149 -56 249q-79 93 -238 112q-29 3 -72 -3.5t-65 -4.5 q-42 4 24 25l11 3q21 5 86.5 9t83.5 6q209 22 190 348q-5 82 -39 128.5t-116 59.5q-69 10 -138 -17.5t-92 -90.5q-8 -23 5.5 -64t31.5 -71l17 -29q4 -11 2 -19t-13.5 -16t-21 -13t-21 -10t-12.5 -6q-43 47 -55 109q-18 87 17.5 149t101 88.5t145.5 22.5q74 -2 136.5 -29.5 t101.5 -70.5t59 -99t15.5 -113t-36.5 -115t-90 -103q-71 -55 -163 -70q71 -12 154.5 -52.5t115.5 -78.5q49 -56 61 -130.5t-11 -149t-76.5 -146.5t-129.5 -123q-79 -54 -182 -73t-197 3t-145 80q-31 36 -36 79.5z" />
<glyph unicode="4" horiz-adv-x="870" d="M-0.5 509q-0.5 13 6.5 17q50 37 89 101.5t61 133t36 153.5t19 148t6 134.5t0 95t-2 44.5v1q18 11 34.5 10.5t30.5 -9.5t24.5 -19.5t15.5 -19.5l6 -9q13 -37 -8 -190t-69.5 -319.5t-101.5 -217.5q-4 -4 6 -4q6 -1 154 12q132 12 209 7q2 10 12.5 75t16.5 97q28 166 51 262 q43 199 82 266q42 76 82 76q2 -2 5 -4.5t9.5 -12.5t10 -20t3.5 -25t-6 -30q-39 -93 -80 -265.5t-63.5 -299t-20.5 -126.5q34 -3 79.5 -15.5t80.5 -30.5t29 -33q-5 -14 -22 -27t-31 -19l-15 -6q27 35 20 56.5t-46 33t-65.5 15.5t-37.5 4q-2 -11 -17.5 -104t-30 -179 t-26 -167.5t-10.5 -96.5h-8q-38 -4 -49.5 9.5t-13.5 45.5q0 12 4 58q11 197 53 442q-227 0 -502 -68q-10 7 -10.5 20z" />
<glyph unicode="5" horiz-adv-x="831" d="M-1 392q-3 65 5 59q2 -2 4 -7q1 -61 13.5 -127.5t24.5 -102.5l13 -36q31 -88 97 -103t157 46q73 50 131 121t93 147t57 159.5t22.5 158t-8.5 143.5q-8 47 -45 76t-88 35.5t-107.5 -1t-110 -30.5t-89.5 -56q-25 7 -32.5 26t3.5 44q15 34 45 203.5t56 210.5q4 0 87 -12.5 t184.5 -32t133.5 -33.5q12 -5 20.5 -8t28 -12t30.5 -16.5t25 -17.5t14 -19t-5.5 -18.5t-29.5 -18t-62 -15.5q89 64 -50 113q-105 36 -270 49q-47 -97 -74 -253q-15 -96 0 -89q76 47 152.5 57.5t137.5 -13.5t104.5 -80t56.5 -136v-1q31 -115 -37 -325q-39 -122 -106 -221.5 t-137.5 -155t-135.5 -81.5t-108 -15q-57 9 -102 53t-68 119q-25 82 -30 216z" />
<glyph unicode="6" horiz-adv-x="835" d="M-2 497.5q0 130.5 36 272t99.5 260t167.5 204t229 105.5q20 3 37 4.5t31 0t24.5 -2t21 -6.5t16 -8.5t14.5 -11.5t11.5 -12t12 -14.5t11.5 -14.5q21 -32 19 -81.5t-28.5 -102.5t-64.5 -74q-21 -12 -65 15q-32 20 -24 29q2 2 7 3q62 12 95.5 77.5t6 121.5t-115.5 43 q-42 -6 -80 -26t-66.5 -46t-55.5 -65.5t-45 -73.5t-36.5 -82t-29 -78.5t-24.5 -75.5q-3 -11 -5 -16q77 52 162.5 65.5t159 -12t131.5 -78.5t87 -140t19 -190q-11 -121 -53 -221t-105 -161t-138 -88.5t-159.5 -9t-163.5 82.5q-68 56 -103.5 166.5t-35.5 241zM109 438 q-2 -57 7 -119t30 -127t65.5 -107.5t105.5 -43.5q54 -2 105 24t95 77.5t74 136.5t38 192q12 153 -27 248t-105 121.5t-136.5 22.5t-125 -33.5t-67.5 -61.5q-23 -63 -39.5 -160.5t-19.5 -169.5z" />
<glyph unicode="7" horiz-adv-x="729" d="M0.5 1199.5q9.5 32.5 46.5 39.5q52 10 154 22t172 21.5t135.5 33.5t83.5 60q4 11 14.5 9t20 -10t24 -14t25.5 -3q2 1 2 -3q1 -17 -16 -46q-94 -160 -222 -437l15 2q24 4 50 -3.5t19 -30.5q-2 -32 -14 -56t-43 -51q-16 10 -19.5 21t1 19.5t8.5 15.5t1 9.5t-18 0.5h-34 q-210 -464 -302 -799l-43 2q-73 -8 -59 55q2 6 8.5 26t9.5 34q17 46 89 248t122 323q14 35 50 109q-135 -8 -224 -27q-24 -5 -22 9q1 14 18 20l8 2q72 28 246 53q59 123 126 242t110 182q-187 -38 -355 -80q-62 -16 -81.5 -54.5t-10.5 -80.5q-54 24 -79.5 64t-16 72.5z" />
<glyph unicode="8" horiz-adv-x="864" d="M4.5 402.5q11.5 70.5 47 135t109 122.5t175.5 94q-85 12 -133 69q-48 53 -59.5 122t10 135t70.5 126.5t116 98.5q32 19 47 24q89 33 178 39t176 -25q55 -24 70.5 -83t-7.5 -131t-65.5 -144t-105.5 -129t-125 -78q141 10 196 -113q51 -113 12 -280q-39 -169 -145 -278 q-132 -136 -298 -97q-65 15 -132 58q-49 32 -83.5 85t-49.5 116t-3.5 133.5zM93 308q7 -104 67 -171q111 -124 236 -48q96 60 162 210q69 156 58 291q-10 120 -84 162v-13q-9 13 -114 9q-98 -4 -177.5 -75t-117 -166t-30.5 -199zM238 911.5q3 -51.5 36 -87t93 -42.5 q18 -2 57 -2q0 2 4 2q17 4 36.5 12.5t55.5 31.5t67.5 54.5t66.5 87.5t59 124q77 231 -66 251q-100 14 -175 -26.5t-163 -173.5q-38 -59 -56 -119.5t-15 -112z" />
<glyph unicode="9" horiz-adv-x="821" d="M2 856q11 121 53 221t105 161t138 88.5t159.5 9t163.5 -82.5q68 -56 103.5 -166.5t35.5 -241t-36 -272t-100 -260t-168 -204t-229 -105.5q-23 -4 -42 -4.5t-32.5 -0.5t-26.5 5.5t-20 7.5t-17.5 12.5l-13 13t-13.5 16t-13 16.5q-21 32 -19 81.5t28.5 102.5t64.5 74 q21 12 65 -15q32 -20 24 -29q-2 -2 -7 -3q-62 -12 -95.5 -77.5t-6 -121.5t115.5 -43q42 6 80 26t66.5 46t55.5 65.5t45 73.5t36.5 82t29 78.5t24.5 75.5q2 5 3 8.5t2 7.5q-65 -43 -135.5 -59t-134.5 -6.5t-121 43.5t-96.5 86.5t-59.5 128t-12 161.5zM129 872 q-12 -153 27 -248t105 -121.5t136.5 -22.5t125 33.5t67.5 61.5q23 63 39.5 160.5t19.5 169.5q2 57 -7 119t-30 127t-66 108t-106 44q-54 2 -105 -24.5t-94.5 -77.5t-73.5 -136t-38 -193z" />
<glyph unicode=":" horiz-adv-x="440" d="M92 125q9 43 40 68t65 16q33 -7 48.5 -43.5t4.5 -79.5q-10 -44 -40.5 -68t-64.5 -18q-33 9 -48.5 46t-4.5 79zM164 682q9 42 40 66.5t64 15.5q33 -6 49 -42.5t5 -78.5q-10 -44 -40.5 -69t-64.5 -17q-33 9 -48.5 45.5t-4.5 79.5z" />
<glyph unicode=";" horiz-adv-x="495" d="M0 -158q8 9 44 42t56 60t27 58q-50 15 -47 72q0 38 29 67t63 29q37 0 57 -20.5t22 -48.5t-1 -50.5t-8 -32.5q-37 -72 -99.5 -128t-134.5 -60zM158 672q9 43 39.5 67.5t64.5 16.5q33 -7 48.5 -43.5t4.5 -79.5q-10 -44 -40 -68t-64 -18q-33 9 -48.5 45.5t-4.5 79.5z" />
<glyph unicode="&#x3c;" horiz-adv-x="460" d="M-0.5 391q0.5 13 14.5 31q147 170 289 309q11 11 25 -16l43 -64q-52 -48 -174.5 -166.5t-126.5 -126.5q3 -7 20 -24.5t44 -43t51.5 -48t56 -52t43.5 -40.5q34 -26 82 -68q5 -5 -5 -23q-8 -13 -12 -12q-193 168 -330 307q-21 24 -20.5 37z" />
<glyph unicode="=" horiz-adv-x="606" d="M0 244l10 57q256 40 525 25l-9 -64q-20 2 -46.5 3.5t-33.5 2.5q-15 0 -62.5 1t-86.5 0.5t-78 -3.5q-127 -7 -219 -22zM0 399l10 58q236 37 525 24l-9 -63q-71 4 -80 6q-170 0 -227 -4q-108 -3 -219 -21z" />
<glyph unicode="&#x3e;" horiz-adv-x="479" d="M0 651q27 44 41 64q7 12 13.5 16t9.5 2l2 -2q136 -133 288 -309q15 -17 15.5 -30.5t-19.5 -37.5q-125 -128 -332 -307h-3l-9 12q-4 8 -4.5 13.5t0.5 7.5l2 2q15 14 31.5 28t30.5 25t18 15q205 186 217 208q-5 8 -133.5 132t-167.5 161z" />
<glyph unicode="?" horiz-adv-x="915" d="M73 1253q2 142 42 191q73 89 215 80.5t243 -103.5q115 -112 101 -270q-9 -106 -56 -203q-41 -81 -119.5 -183t-154 -200.5t-111.5 -171.5q-19 -40 -32 -92q-11 -50 -13 -76v-10v-25q-10 -17 -43 -20q-22 0 -34 8v2q0 1 -1 3t-1 3v4v7v6q-3 0 -3 6v6v4v10v11v2v6v2v8v8v2 q3 9 3 17l2 2v6v2q2 4 2 10q15 90 70 176.5t149 200.5q28 37 69 82q323 394 146 627q-67 90 -174.5 110t-177.5 -43q-39 -36 -48 -162t8 -254.5t46 -181.5q19 -36 -7.5 -60t-50.5 -24q-27 62 -49.5 198.5t-20.5 278.5zM115 66q6 22 23 33.5t36 6.5q20 -3 29 -20.5t4 -40.5 q-6 -23 -24.5 -35.5t-37.5 -9.5q-19 5 -28 24t-2 42z" />
<glyph unicode="@" horiz-adv-x="868" d="M4 449q31 170 170 288q135 123 311 123q85 0 164.5 -30.5t114.5 -92.5q25 -45 22 -102q-9 -74 -53.5 -160t-102 -149t-104.5 -80q-2 0 -6.5 -1t-7.5 -1q-33 0 -48 13.5t-24 39.5q-2 2 -2 4q-78 -122 -143 -131h-10q-17 0 -29 8q-44 20 -63 72t-16 94l3 43 q14 90 39.5 155.5t52.5 94t52 44t41 16.5l16 1v2q38 0 71.5 -16t54.5 -39t37 -47.5t22.5 -40.5t6.5 -20l-20 -7q-2 5 -5.5 13.5t-16 31t-27.5 40.5t-40 35.5t-52 23.5q-59 -22 -100 -94t-55 -151t-10 -147.5t25 -86.5q5 -5 21 -2q60 9 143 145q4 89 29 131q9 16 24 21.5 t26 3.5l11 -2q-2 -3 -4 -5l4 5q8 -8 0 -35l-2 -4q-7 -18 -20 -41q-21 -148 8 -150q3 -1 23 11.5t50.5 42t62 68.5t61 101t43.5 131q0 9 2 15q5 23 2 44t-9 35l-6 15q-31 55 -105 82t-151 27q-162 0 -295 -115t-159 -277q-25 -153 67 -268q93 -114 256 -117q180 -3 316 133 q10 15 28.5 13.5t1.5 -22.5q-4 -5 -10 -11q-156 -137 -323 -137h-13q-173 3 -276 125q-98 122 -74 291z" />
<glyph unicode="A" d="M4 -291q-4 19 -4 36q0 40 25 65q13 12 40 12q24 0 58 -10q73 -20 96 -33q4 -2 6 -5t2 -5v-2q-57 20 -91 25.5t-41.5 2.5t-16.5 -10q-3 -3 -3 -11q1 -23 29 -86q38 -84 68 -91q23 -6 40.5 2t53.5 36q70 55 142 160q110 158 225 426q-54 -12 -107 -31.5t-82 -33t-32 -13.5 q-13 0 -39 16t-46 32l-20 16q192 72 352 78q13 30 21 53q93 236 188 731q-6 68 -6 84v43q0 147 18 257q12 70 28 70q3 0 7 -3q15 -21 41 -181v-4q27 -190 35 -301q34 -373 129 -872q69 -48 126.5 -115.5t81 -109t40.5 -80.5q31 -60 31 -100q-1 -3 -1 -6q-2 -41 -23 -59.5 t-52 -15.5q-198 13 -326 523q-93 40 -207 40q-52 0 -108 -8q-119 -284 -242 -460q-152 -217 -270 -217q-19 0 -29 2q-103 24 -137 153zM705 287q153 0 284 -54q-45 188 -78 424q-4 44 -30 273q-77 -384 -162 -606q-2 -6 -7 -18.5t-7 -18.5zM1130 115q45 -177 138 -305 q50 -70 74 -70h1q11 1 11 16q0 25 -29 90l-2 4l-2 5q-82 168 -191 260z" />
<glyph unicode="B" horiz-adv-x="1421" d="M16 -83q-17 27 -17 54q0 63 97 119q-7 -26 -7 -50q0 -28 9 -56q16 -51 51.5 -87.5t83 -65.5t94 -45t87.5 -22q3 0 35 -5t60.5 -8.5t68 -5.5t55.5 3q1 25 1 59q0 130 -15 395q-19 334 -57.5 662.5t-78.5 376.5q-3 3 -11 -2t-24 -42.5t-30 -106.5q-4 -24 -16 -26 q-7 -1 -10 11q-3 10 -1 25q7 47 44 112.5t74.5 105t45.5 25.5q3 -4 7.5 -14t17.5 -53.5t24.5 -101.5t25 -166t21.5 -240q5 115 35.5 238t80.5 232t126.5 187t163.5 95q6 0 11 1q128 -1 154 -161q8 -47 8 -97q0 -127 -50 -269q-70 -200 -179 -285q8 4 21.5 9.5t51.5 17.5 t72 16q12 1 24 1q24 -1 50 -5q40 -8 64 -31q38 -37 56 -87q15 -44 16 -79v-10q-2 -39 -5 -75q-1 -8 -1 -11q-10 -107 -46.5 -212t-105 -205t-160.5 -176q-90 -76 -222 -120q-123 -41 -265 -41h-19q-117 2 -276 61q-187 70 -240 155zM645 -252q61 15 125 42.5t137 76.5 t133.5 111.5t110.5 153.5t72 196q29 135 29 223q0 154 -87 168q-8 1 -17 1q-58 0 -133 -52l-5 -4q-10 -8 -27 -22t-55.5 -54t-61.5 -76l19 94q80 62 133.5 152.5t75 183t28.5 160.5q5 48 5 90q0 18 -1 35q-7 166 -83 188q-12 4 -24 4q-57 0 -127 -78q-110 -123 -173 -346 q-51 -184 -51 -387v-8q2 -42 10 -183t11 -204t6 -162q1 -38 0 -70q0 -51 -2 -87q-4 -58 -13 -89z" />
<glyph unicode="C" horiz-adv-x="1218" d="M4 384l2 56q15 178 51.5 329.5t85 256t107.5 188.5t120 134.5t121.5 87t113.5 52t93.5 24t63.5 8.5h24q61 -4 111 -67.5t79.5 -148t50.5 -185t28.5 -166t9.5 -103.5h-84q-4 40 -8.5 79t-15 121.5t-25.5 149t-34 134.5q-20 66 -47 104q-26 37 -56 37h-2q-16 1 -32 1 q-74 0 -141 -30q-81 -37 -141.5 -108t-111.5 -169t-85.5 -212t-60.5 -237t-39 -244q-12 -122 -18 -234q-3 -65 -4 -123q0 -42 2 -81q4 -92 14.5 -158t26.5 -93q15 -25 30.5 -46t47 -48.5t65.5 -43.5q32 -15 84 -21q15 -2 30 -2q38 0 78 10q56 14 132.5 55t159.5 109.5 t188 180.5t219 259l45 -45q-33 -32 -103 -116t-133.5 -157t-173 -164.5t-229.5 -156.5q-81 -43 -167 -43h-10q-91 2 -173.5 42t-140.5 107q-49 56 -82.5 152t-45.5 193q-12 96 -17 186q-4 64 -4 111q0 19 1 35z" />
<glyph unicode="D" horiz-adv-x="1423" d="M16 -85q-17 27 -17 54q0 63 97 119q-7 -26 -7 -50q0 -28 9 -56q16 -51 51.5 -87.5t83 -65.5t94 -45t87.5 -22q3 0 35 -5t60.5 -8.5t68 -5.5t55.5 3q1 25 1 59q0 130 -15 395q-19 334 -57.5 662.5t-78.5 376.5q-3 3 -11 -2.5t-24 -43t-30 -106.5q-4 -25 -16 -26 q-13 -2 -12 27q0 5 1 10q7 47 44 112.5t74.5 105t45.5 25.5q3 -4 7.5 -14t17.5 -53.5t24.5 -101.5t25 -166t21.5 -240q6 151 64 322.5t152 297t190 132.5q11 1 21 1q62 0 113 -26q59 -30 95 -86t61 -130t34.5 -157t13.5 -166q2 -42 2 -81.5t-2 -77.5q-4 -76 -8.5 -134.5 t-9.5 -93.5l-5 -35q-11 -107 -49.5 -220t-110.5 -225t-166 -199q-95 -88 -229 -140q-127 -50 -269 -49h-16q-117 2 -276 61q-187 70 -240 155zM645 -254q63 15 125 40.5t135 73t133 108.5t110.5 154.5t74.5 203.5q29 128 44 256q15 130 16 222v51q1 62 -1 115q-2 74 -8 111 l-6 37q-53 249 -170 291q-23 8 -46 8q-74 0 -153 -83q-116 -123 -181 -353q-50 -179 -50 -375v-8q2 -42 10 -183t11 -204t6 -162q1 -38 0 -70q0 -51 -2 -87q-4 -58 -13 -89z" />
<glyph unicode="E" horiz-adv-x="1185" d="M-152 102q-5 36 -5 69q0 69 20 129q29 88 81 145.5t141 100t169.5 64.5t194.5 36t187 18t175 6q25 2 53 -13.5t23 -42.5q-2 -40 -15 -66.5t-47 -53.5q-20 18 -21 35.5t7 27t7 16t-21 7.5q-285 -26 -392 -44q-393 -65 -491 -241q-35 -63 -35 -139q0 -25 4 -52 q-6 -4 -15 -4.5t-14 0.5zM0 386l2 56q15 178 51.5 329.5t85 256t107 188.5t119.5 134.5t121 87t113 52t93.5 24t63.5 8.5h24q51 -3 95.5 -47.5t73.5 -113.5t51 -145t34.5 -154t19 -129t7.5 -81h-84q-3 38 -8 78.5t-15.5 122t-26 148.5t-35.5 135q-19 66 -46 104 q-26 37 -56 37h-2q-16 1 -32 1q-74 0 -141 -30q-81 -37 -142 -108t-112 -169.5t-86 -212.5t-60.5 -237t-39 -244t-18.5 -233q-3 -62 -3 -119q0 -45 2 -86q4 -92 14.5 -157.5t26.5 -92.5q16 -25 31.5 -46t47 -49t65.5 -43q33 -15 85 -21q15 -2 31 -2q37 0 77 10 q56 14 132.5 55t159.5 109.5t188 180.5t219 259l45 -45q-31 -30 -80.5 -89.5t-101 -120t-117.5 -128.5t-154 -135.5t-186 -120.5q-82 -44 -168 -44q-5 1 -9 1q-92 2 -174 41.5t-141 105.5q-50 56 -83 152.5t-45 194.5q-12 96 -17 186q-3 56 -3 99q0 26 1 47z" />
<glyph unicode="F" horiz-adv-x="991" d="M4 152q-4 28 -4 56q0 245 305 417q39 484 76 655q-157 -76 -245 -183q-79 -97 -80 -208q0 -11 1 -23q0 -3 5.5 0t12.5 5t15 5.5t13 2.5t6.5 -6t-5.5 -19.5t-22 -36.5q-20 -12 -32.5 -7.5t-17.5 16.5l-5 12q-1 184 102.5 316.5t273.5 215.5q29 91 66 131q17 20 38 17.5 t25 -33.5q3 -27 3 -62q172 58 317 68q131 9 240 9q80 0 147 -5q29 -11 43 -43.5t8 -46.5q-38 -49 -76.5 -107.5t-77.5 -128t-61.5 -129.5t-28.5 -112l-2 -18q0 -38 23 -58q13 -13 28 -13q19 0 42 19q-13 -22 -39 -24t-47 7.5t-31 20.5q-39 43 -39 110q0 68 28 137 q27 67 66 132.5t72 108t51 57.5q-90 10 -179 10q-248 0 -487 -76q-12 -251 -98 -653q144 62 299 94q13 7 48 1.5t40 -31.5q-6 -70 -21.5 -111t-62.5 -115q28 73 28 116q0 21 -7 35q-12 25 -48 25q-25 0 -63 -12q-129 -35 -231 -78q-15 -70 -23 -86q-31 -346 -31 -497v-119.5 v-94.5t-0.5 -73t-2 -55.5t-5 -42.5t-9 -33.5t-13.5 -28.5q-22 -36 -55 -36q-10 0 -21 3q-39 12 -75 56t-63 113.5t-46.5 129.5t-36 139t-21 104t-10.5 61zM31 164q8 -83 40.5 -214t83.5 -246.5t95 -119.5q16 140 24 338.5t8 326.5l-1 128l8 76q2 18 5 53t5 51 q-271 -147 -271 -348q0 -22 3 -45zM410 678q44 175 64.5 306.5t43.5 350.5q-12 -4 -16 -4q-40 -180 -92 -653z" />
<glyph unicode="G" horiz-adv-x="991" d="M0 454v52.5v46.5q2 44 5 70l3 26q18 145 46.5 268t61 208.5t69.5 154.5t73 111t71 72.5t64.5 43.5t52 20.5t35.5 8.5h13q91 0 172 -46.5t129 -101.5t91.5 -136t55 -111t22.5 -66l1 -2l-54 -18q0 5 -13 40t-44.5 93.5t-74.5 115.5t-113.5 104.5t-151.5 61.5 q-95 -44 -172.5 -159.5t-122.5 -258.5t-69 -302q-20 -136 -20 -253q0 -21 1 -40q4 -134 34 -228t83 -110q4 -2 10.5 -5.5t31.5 -8.5t54 -4t76 13t98 37t121.5 74.5t144.5 118.5l-4 -65q-65 -71 -141 -122.5t-138.5 -74.5t-115 -36t-81.5 -14l-30 -1q-5 -1 -11 -1 q-31 0 -77 23q-50 26 -87 73t-56 101t-30 113.5t-13 113.5zM498 324q-1 3 0 8l7 137q29 362 127 444q26 21 55 21q10 0 20 -2q77 -83 119 -283t44 -409v-21q0 -198 -28 -374q-30 -185 -84 -246q-41 -46 -75 -46q-41 0 -73 68q-36 75 -43 174q-1 17 0 25q13 -7 15 -23 q7 -82 41 -142q19 -33 34 -33q10 0 18 15q2 2 3 5q65 132 78 452q2 60 2 120q0 250 -43 468q-17 86 -56 86h-1q-37 -1 -69 -74q-44 -100 -44 -251q0 -36 2 -74q1 -22 -25 -43q-22 -18 -24 -2z" />
<glyph unicode="H" horiz-adv-x="1011" d="M-1 1104l1 10q7 50 38 115q30 65 68 105q26 29 46 29q8 0 14 -5q21 -17 68 -330q46 -313 76 -703q15 -204 16 -349q0 -133 -13 -216q-25 -10 -35 -9.5t-34 11.5q1 25 1 59q0 130 -15 395q-19 334 -58 662.5t-80 376.5q-3 3 -11 -2.5t-23.5 -43t-28.5 -105.5 q-5 -25 -18 -27q-13 -1 -12 27zM12 0q-4 27 -4 53q0 39 9 76q15 61 45 109t83.5 92t107 75.5t129.5 61.5t136.5 49.5t144 40t135.5 31t126 24.5q24 4 49 -3.5t20 -30.5q-2 -32 -14 -56t-43 -51q-16 9 -19.5 20t1 19.5t8.5 16t1 10t-18 0.5q-294 -72 -411 -111 q-394 -130 -447 -316q-9 -31 -9 -64q0 -19 3 -38q-6 -4 -14.5 -6t-13.5 -2h-5zM307 -209l2 14q220 311 357 594q9 388 33 744t42 370q8 7 28 -4.5t43.5 -45t45.5 -84.5t31 -132q6 -50 5 -107q0 -34 -2 -71q-6 -97 -40 -232.5t-96 -285.5v-168q0 -505 16 -680q-4 -13 7 -54 q18 -65 58 -64q11 0 23 4q56 21 137 141q5 6 11 6.5t10 -3t4 -5.5q-56 -90 -122 -136q-59 -41 -110 -40h-10q-54 5 -86 55q-31 150 -31 573q0 80 1 170q-137 -271 -342 -565q-16 -15 -15 6zM758 612q111 298 111 533q0 78 -12 149q-15 86 -36 121q-55 -68 -63 -803z" />
<glyph unicode="I" horiz-adv-x="899" d="M0 858q7 49 129 220q123 172 251 317q114 129 144 129q4 0 6 -2q39 -32 74.5 -174t57.5 -337t36 -403q13 -194 13 -367v-25q-1 -184 -17 -286q-14 -96 -61 -157q-42 -55 -76 -55q-4 0 -8 1q-40 5 -44 65v13q0 100 96 248q115 178 337 361q3 3 3 -7q-1 -3 -2 -12 q-1 -14 -1 -20q-163 -117 -293 -296q-120 -164 -127 -263q-1 -6 0 -12q0 -50 39 -62q9 0 16 7t12 22.5t8.5 29t6 36.5t4 35t3 35.5t1.5 26.5q1 26 1 61q-1 131 -15 395q-18 334 -57 661.5t-80 375.5q-1 2 -42 -40.5t-98.5 -110t-112.5 -142t-88 -148.5q-25 -56 -25 -96 q0 -13 3 -24q4 -17 -21 -26t-50.5 -2.5t-22.5 28.5z" />
<glyph unicode="J" horiz-adv-x="901" d="M0 850q7 47 126.5 212t247.5 310q125 141 155 141h1q31 -4 69.5 -239.5t62.5 -532.5q21 -255 21 -420q0 -28 -1 -53q151 70 256 127q3 2 3 -3q1 -4 -1 -16.5t-2 -17.5q-58 -37 -258 -131q-10 -117 -59 -235t-116.5 -204.5t-144.5 -142.5t-143 -61q-17 -2 -32 -2 q-43 0 -71 12q-40 17 -52 49q-9 24 -9 53q0 10 1 20q4 41 23.5 84.5t46 83.5t56.5 69q94 90 182.5 145t221.5 119q2 20 2 57q0 145 -38 547q-49 501 -91 590q-17 -15 -56.5 -55.5t-99 -110t-109 -138.5t-80.5 -141q-21 -51 -21 -88q0 -15 3 -28q4 -18 -21 -27.5t-50.5 -2.5 t-22.5 30zM178 -217q-4 -29 -4 -51q0 -79 50 -91q10 -2 20 -2q52 0 125 63q108 94 168 248q45 114 47 232q-84 -40 -145 -77t-120 -86t-95 -108.5t-46 -127.5z" />
<glyph unicode="K" horiz-adv-x="1214" d="M33 1190v2q11 50 46.5 112t75.5 99q26 24 44 24q9 0 16 -6q14 -13 32 -213q17 -200 29 -457q7 -164 8 -335q0 -96 -3 -194q-6 -272 -37 -404q-68 -34 -80 -34q-2 0 -2 1q-14 21 -24 83t-12 154q0 15 -1 31q1 80 7 174q8 113 33.5 240t65 254t108 250t155.5 226.5 t212.5 185.5t274.5 124q67 18 107 18q50 0 61 -27q2 -5 5 -23q0 -46 -64 -151.5t-146 -207.5q-80 -102 -158 -178q-72 -70 -98 -70h-4q-26 16 -6 51.5t56.5 73t41.5 33.5q1 -1 3 -1q21 0 111 107q117 141 168 240q18 37 18 54q0 14 -13 14h-5q-4 0 -9 -2 q-529 -179 -747 -696q-137 -326 -137 -732q0 -33 1 -66q2 -43 5 -97l1 -21q16 118 22 453q2 106 3 212q0 228 -10 453q-14 330 -52 381q-3 3 -11.5 -1.5t-27.5 -40.5t-37 -103q-7 -25 -19 -25q-14 0 -7 35zM256 674q2 2 6 6.5t16.5 15.5t26 20.5t33 19.5t38.5 15t41.5 4.5 t43.5 -10.5q36 -15 111 -133t160.5 -277.5t171.5 -318.5t160.5 -275.5t109.5 -129.5q31 -10 61 -9q25 0 53 6q58 16 112 53.5t95.5 77t66.5 69.5l25 30q2 -4 2 -9q0 -20 -29 -59q-37 -50 -104 -102t-145 -88q-58 -27 -119 -26q-22 0 -44 3q-85 13 -144 89 q-88 113 -204.5 330t-212.5 415.5t-120 235.5q-24 39 -54.5 58t-57 18.5t-49.5 -6.5t-36 -15z" />
<glyph unicode="L" horiz-adv-x="1263" d="M0 -61q0 36 10.5 75t37.5 82t68 74.5t108 48.5q44 11 95 11q27 0 56 -3q69 -7 146 -43t140.5 -83.5t129.5 -107.5t109 -107.5t83.5 -93t50.5 -54.5q53 -50 102.5 -78t85.5 -36q19 -4 38 -5q18 0 38 4q40 8 63.5 18.5t59.5 30.5q69 38 101 126q20 57 20 124q0 38 -6 78 q8 10 18 0q4 -4 8 -21t6 -32l1 -15v-23q0 -45 -3 -83q-4 -46 -23.5 -102.5t-54 -92.5t-100.5 -59q-54 -19 -124 -19q-15 0 -31 1q-87 4 -185 64.5t-186 144.5t-173.5 169t-174 148.5t-160.5 71.5q-24 3 -46 3q-28 -1 -52 -5q-44 -8 -72.5 -25t-49.5 -39.5t-31.5 -46.5 t-17 -44t-7.5 -33l-2 -13q0 -94 46.5 -154.5t94.5 -60.5q42 1 77 18.5t62.5 54t50 80.5t41.5 111.5t34 132t31.5 157.5t29 172.5t31.5 191.5t36 202q24 128 58 233.5t69 172t72 117.5t69 76.5t57.5 41.5t40.5 19l15 4q23 10 59 10q2 0 4 1q34 0 67 -10q35 -10 59 -39 q21 -26 20 -63v-10q-4 -64 -34.5 -123t-79 -104t-111.5 -84.5t-132.5 -66t-142 -48.5t-140.5 -31q-66 -10 -126 -14q-21 -2 -41 -1q-34 0 -61 5q-63 9 -98 29.5t-40 43.5t-1 44.5t14 36.5l10 14l35 43q46 -87 118 -129q69 -41 145 -40h7q80 2 168 28t167 73t143 96.5t103 97 t42 77.5q2 19 2 34q0 21 -4 33q-7 21 -22 21t-36 -2q-65 -10 -121 -61t-99 -136.5t-77.5 -182t-65 -221.5t-52.5 -229.5t-48.5 -231.5t-46.5 -204q-23 -90 -50.5 -162.5t-54 -120.5t-58 -83t-57.5 -53.5t-56 -30t-50 -14t-44 -3.5q-74 0 -139.5 75t-65.5 157z" />
<glyph unicode="M" horiz-adv-x="1812" d="M0 -55l31 43l11 -86q21 -116 53 -116q2 0 5 1q11 3 23 18q64 80 120 190.5t96.5 229t74 247.5t55 249.5t35.5 232.5t20 198q5 79 6 133v10q0 57 -8 73q10 14 27.5 13t39.5 -12t41.5 -24t32.5 -23l13 -11q1 -18 3.5 -47.5t12 -115.5t27.5 -156t45 -155t69.5 -126.5 t96.5 -56.5q12 -3 24 -3q46 1 106 43q76 54 165 176q15 24 28 50q-47 348 -47 407q4 125 65 173q25 20 49 20l43 -15q58 -40 60 -151v-6q0 -127 -77 -295q64 -594 168 -896q78 -227 165 -227q51 0 104 78q35 50 70 131q4 8 6 9t7 -4.5t10 -8.5q-40 -86 -80.5 -142.5t-74 -83 t-68.5 -29.5t-61.5 8t-54 39.5t-45 53t-36.5 62t-26.5 54.5t-16.5 40q-79 230 -153 740q-42 -69 -90 -129t-106 -108q-56 -48 -112 -71q-33 -14 -67 -14q-22 1 -45 7q-56 16 -102.5 70.5t-85 173t-60.5 292.5q-2 -19 -5 -53.5t-18 -139.5t-34.5 -207t-55 -241t-78.5 -259 t-107 -242.5t-138 -209.5q-23 -27 -45 -27q-31 0 -61 58q-50 97 -50 168zM1319 1430q0 -98 20 -318q47 134 47 238q0 40 -7 75q-12 60 -34 63q-19 3 -25 -42q-1 -8 -1 -16z" />
<glyph unicode="N" horiz-adv-x="1462" d="M-111 -68q2 48 29 85q15 18 16 3q4 -90 22.5 -148.5t35 -73.5t20.5 -5q33 81 147.5 444.5t220.5 677.5t140 345q27 20 83 51.5t61 34.5q-4 -50 -4 -107q0 -125 21 -279q31 -224 91.5 -436t132.5 -395t146 -289q65 -94 113 -94q6 0 12 2q24 6 48 288.5t32 626.5 q3 120 2 234q0 214 -9 408q-11 174 -66 174h-4q-50 -5 -115 -136q-77 -156 -104 -333q-10 -64 -10 -114q0 -111 51 -151q23 -18 57 -18q42 0 101 29q9 5 25.5 -14t7.5 -57.5t-64 -78.5h-13q-61 0 -103 24q-46 28 -67 78t-27 114q-3 26 -3 53q-1 39 5 83q10 72 26 145 t38.5 139t44.5 117t40 81q39 62 100 74q14 3 27 3q46 -1 84 -31q50 -40 59 -112q37 -268 36 -546q0 -58 -1 -114q-9 -336 -39 -587t-61 -334q-31 -90 -110 -90h-5q-91 6 -184.5 101t-169.5 247t-138.5 335.5t-100 375.5t-46.5 358q-39 -124 -100 -316t-189.5 -569.5 t-185.5 -500.5q-16 -33 -36 -33q-24 0 -54 47q-42 67 -62 153q-4 20 -4 31z" />
<glyph unicode="O" horiz-adv-x="1136" d="M4 362q-4 59 -4 117q0 97 12 195q19 157 74.5 317t142.5 293q60 92 136 148.5t145 71.5q42 9 81 9q25 1 47 -3q58 -10 95 -42q8 -7 15.5 -14.5t12.5 -13t10 -14.5t8 -14t6 -16t4.5 -15t3.5 -18t2.5 -18t2.5 -20.5t3 -21.5l-113 -29q0 3 0.5 9t1.5 24.5t0.5 34.5t-2.5 40 t-7.5 40.5t-13.5 36t-21 26.5t-31 12t-42 -8q-71 -15 -145.5 -120t-133.5 -258t-98 -341q-38 -190 -46 -366q-2 -34 -2 -66q0 -140 29 -267q36 -157 118 -243q43 -38 99 -54q34 -10 72 -9q23 0 48 3q64 10 127 45t126 106t112 169q148 293 148 606v8q-2 240 -87 388 q-69 120 -165 120h-8q-115 -5 -226 -180q-77 -111 -77 -247q0 -20 2 -41q10 -127 74 -197q42 -45 89 -45q28 0 58 15q21 11 42 30q40 39 67 39q7 0 14 -3q24 -10 8 -48q-7 -15 -19 -31q-88 -111 -194 -111h-9q-94 4 -155 94q-56 84 -56 201q0 44 8 93q24 145 117 300 q173 206 312 206q31 0 60 -10q117 -40 179 -233q48 -148 48 -328q0 -68 -7 -141q-15 -162 -64 -299q-39 -111 -88.5 -201t-100 -148t-104.5 -102t-104 -66t-97 -35q-48 -14 -86 -16q-23 -1 -42 0h-25q-29 1 -45 5l-16 4q-92 43 -162.5 139.5t-111 224t-52.5 283.5z" />
<glyph unicode="P" horiz-adv-x="954" d="M0 1108q7 53 38 139q31 87 70 151q32 53 53 52q5 0 9 -2q48 -27 86 -285q165 258 360 357q37 19 71 19q68 0 121 -78q79 -119 88 -355l2 -54q0 -149 -34 -300q-21 -100 -53 -170t-74 -108q-38 -34 -85 -34h-12q-55 4 -118 54l-54 54q-43 45 -43 60q0 8 11 8 q84 -99 153 -99q45 0 82 42q79 89 103 319q8 76 8 146q0 135 -28 253q-40 171 -120 187q-20 3 -42 -4q-54 -30 -90.5 -60.5t-94 -102.5t-141.5 -201q39 -298 59 -712q13 -267 13 -445q0 -98 -4 -170v-6q0 -75 -52 -129q-36 -38 -81 -37q-21 0 -45 8q24 2 40.5 12t25.5 23 t13.5 35.5t5.5 40.5t1 48q-2 183 -21 499.5t-55 628.5t-74 357q-3 3 -11 -2t-23.5 -42.5t-28.5 -106.5q-6 -26 -19 -26q-14 1 -10 36z" />
<glyph unicode="Q" horiz-adv-x="1138" d="M0 507q-1 18 -1 37q0 168 53 356q59 208 179 392q61 92 136.5 148.5t144.5 71.5q43 10 82 10q23 0 46 -4q58 -9 95 -41q8 -7 15.5 -15t12.5 -14t10 -15t8 -14t6 -16t4.5 -15.5t3.5 -18t2.5 -18t2.5 -21t3 -21.5l-113 -29q0 3 0.5 9t1.5 25t0.5 35t-2.5 40t-7.5 40.5 t-13.5 36t-21 26t-31 11.5t-42 -8q-61 -13 -125 -85.5t-116 -184.5t-94.5 -248.5t-61.5 -284.5q-17 -134 -17 -259v-26q2 -137 39.5 -257.5t108.5 -194.5l6 -6q15 2 33 2q32 0 74 -6q49 -8 139 -39q104 15 195 67t125 121q146 295 146 609v9q-2 241 -87 388 q-70 119 -165 119h-8q-114 -8 -224 -181q-77 -112 -77 -248q0 -20 2 -41q10 -127 74 -197q42 -45 89 -45q28 0 58 15q21 11 42 31q40 37 67 37q7 0 13 -2q25 -8 11 -44q-7 -16 -21 -34q-88 -111 -194 -111h-9q-94 4 -155 94q-56 84 -56 201q0 44 8 93q24 145 117 300 q173 206 312 206q31 0 61 -11q117 -42 178 -237q46 -147 46 -324q0 -71 -7 -147q-15 -158 -62 -291q-120 -344 -387 -418q59 -29 139.5 -75t132 -75t104.5 -52q44 -19 75 -19h11q33 5 48 39q11 28 9.5 45t-15 26.5t-24.5 13t-19 3.5q8 5 17 5q19 0 43 -20q29 -25 29 -63 q0 -7 -1 -15q-6 -57 -50 -86t-108 -29t-129.5 13t-126.5 37q-34 13 -198 105q-221 123 -305 133q-9 1 -16 1q-64 0 -64 -65q0 -18 6 -47q-1 -7 -5.5 -14.5t-8.5 -12.5t-10.5 -12.5t-8.5 -9.5l-2.5 10t-4 25t-2.5 37.5t3 43t11 45.5t24 41t39 33q-113 86 -176.5 241.5 t-69.5 339.5z" />
<glyph unicode="R" horiz-adv-x="1150" d="M0 1153l59 79q179 224 318 270q32 10 60 10q83 0 136 -89q47 -82 47 -247q0 -37 -2 -78q13 28 29 56t39.5 62.5t49 61.5t58.5 50q32 24 66 34q23 7 51 8q11 0 23 -2q40 -4 82 -27q60 -35 80 -97q10 -33 11 -68q0 -32 -8 -64q-17 -70 -58.5 -142.5t-97.5 -131.5 t-120.5 -98t-120.5 -42l90 -199q268 -567 462 -769q92 -95 159 -95q37 0 66 29q32 30 38 71t-0.5 63t-15.5 40q8 -11 14 -20t20 -31.5t22.5 -40.5t16.5 -43.5t8 -45t-8 -40.5t-27 -34.5t-54 -21.5q-31 -7 -73 -7h-11q-57 1 -137 86.5t-159 213t-165 277.5t-156.5 279.5 t-132 219.5t-92.5 97q20 5 52.5 15t112 54.5t135 103t89.5 164.5q19 60 18 128q0 52 -11 108l-13 4h-2q-60 0 -171 -149q-83 -110 -185 -295v29q-29 -172 -85 -381t-102 -355.5t-49 -166.5l-118 14q5 17 13 46.5t32.5 121.5t47.5 182t52.5 214t53 233t44.5 224.5t31 202.5 q8 72 8 130v22q-2 66 -20 88q-23 25 -54 25h-7q-36 -3 -80 -31t-89.5 -68t-88 -86t-75.5 -85t-53 -65l-20 -26zM1497 -158l4 -4z" />
<glyph unicode="S" horiz-adv-x="1081" d="M4 207q8 61 30 115t54 95t74 59q29 12 59 12q14 0 29 -3q46 -8 101 -56t108 -134l-49 -35q-95 156 -186 156q-6 0 -12 -1q-69 -9 -110 -100q-32 -70 -32 -150q0 -39 8 -82q13 -73 49 -132q27 -44 111 -47h14q78 0 172 28q102 32 201 78t167 104q72 61 72 108q0 36 -43 82 q-46 50 -117 98t-155 106.5t-157 112t-123.5 114t-53.5 111.5v8q0 90 123 253q126 167 288 289q170 130 281 130q18 0 35 -4q60 -13 90 -74q4 -8 4 -26q0 -81 -81 -359q-99 -339 -142 -416l-68 84q3 7 8.5 19.5t23.5 54t33 79.5t37.5 96t38 103.5t34 102.5t25 93.5t11 75.5 t-7.5 48q-6 11 -21 11q-46 0 -176 -106q-171 -140 -316 -322q-115 -145 -115 -211q0 -18 8 -30q21 -33 82 -76.5t136.5 -90t154.5 -100.5t150.5 -126t109.5 -149q7 -14 7 -30q0 -24 -17 -52q-28 -46 -89 -90t-140 -86.5t-167 -73.5q-87 -31 -167 -49q-70 -16 -129 -17 q-8 1 -15 1q-64 2 -92 28q-7 5 -19 15.5t-41.5 46t-50.5 75.5t-33 104q-7 37 -8 76q0 28 4 56z" />
<glyph unicode="T" horiz-adv-x="1462" d="M63 786q-14 78 -14 148q0 93 25 172q44 137 144 211.5t236.5 124.5t289.5 60q154 9 304 15q50 2 97 3q95 0 180 -9q34 0 74 -24q36 -21 36 -54q0 -4 -1 -8q0 -32 -17.5 -45t-58 -20t-58.5 -14q-43 19 -81.5 30.5t-56.5 14.5t-59.5 6t-53.5 4q-319 -9 -460 -30 q-315 -47 -425 -203q-68 -96 -67 -238q0 -66 14 -142q-9 -5 -21 -5.5t-20 1.5zM838 514q1 300 18.5 573t36.5 291q20 20 57 13q59 -10 75 -87q5 -25 5 -55q0 -148 -121 -420q-10 -22 -15 -22q-8 1 2 30q2 6 5 11q81 171 102 379q4 42 4 60q0 15 -3 15q-1 0 -3 -10 q-24 -113 -45 -443q-15 -241 -15 -432q0 -298 37 -474q41 -193 123 -193q60 0 142 101q27 32 55 75q4 6 6 7t3.5 -1t4.5 -6.5t7 -7.5q-61 -86 -115 -138q-55 -50 -96 -64q-26 -9 -50 -9q-13 1 -26 3q-35 8 -59.5 35.5t-44.5 62t-32 73.5t-20 69.5t-12 49.5v2 q-26 204 -26 491v21z" />
<glyph unicode="U" horiz-adv-x="1542" d="M6 494q47 41 90 177.5t71 282.5t69.5 293t85.5 203q28 36 52.5 53.5t40 18t27.5 -7t17 -17t6 -16.5q0 -1 -4 -34q-63 -450 -63 -760q0 -250 41 -410q61 -235 208 -235q106 0 258 122q36 29 74 65q-1 37 -1 76q0 137 8 302q10 211 22 339l12 127q26 23 54 22.5t50 -13.5 l21 -13q20 -10 42 -53t36 -117q13 -67 13 -145v-16q-2 -88 -36 -199t-100 -215v-69q0 -234 18 -351q27 -160 113 -160q47 0 112 48q113 83 246 274l13 20q11 -10 12.5 -25t-4.5 -22q-9 -17 -35 -50.5t-67 -78t-88.5 -87t-101.5 -73t-104 -40.5q-15 -3 -29 -4q-35 0 -69 18 q-48 25 -80 88q-48 94 -55 358q-163 -158 -266 -168q-21 -2 -42 -2q-299 0 -370 414q-21 120 -21 281q0 228 42 537q15 116 15 141q0 7 -1 7q-36 -37 -67.5 -132.5t-54.5 -208.5t-45 -224.5t-48.5 -199.5t-54.5 -115l-42 -21q-38 -16 -20 15zM1102 401q47 93 68 199 q18 91 18 163v23q-4 80 -18 137.5t-33 67.5q-26 -258 -35 -590z" />
<glyph unicode="V" horiz-adv-x="1302" d="M0 930q1 48 10 63q12 20 33 20q25 0 62 -29q92 -73 180 -256q149 -308 171 -692q1 -22 1 -44q16 66 35 138.5t48 176t60 203t68 212.5t77 213t82.5 197t87.5 170.5t90 127.5t92 75q27 12 54 12q19 0 37 -6q58 -21 84 -77q20 -45 21 -100q1 -14 -1 -28 q-6 -71 -29.5 -150.5t-57 -147.5t-66 -117.5t-54.5 -61.5q-5 -1 -14 -1.5t-33.5 0.5t-46 7t-46 22.5t-38.5 41.5q2 -1 5.5 -3t15.5 -3.5t24.5 1t31.5 14t38 32.5q33 35 63.5 96t50 123.5t33.5 126t14.5 103t-7.5 53.5q-18 18 -39 18q-72 0 -187 -211q-158 -290 -326 -824 q-114 -363 -173 -658q0 -8 -5 -43q-2 -1 -4.5 -3t-11.5 -6t-18 -5.5t-21.5 0.5t-23.5 9q-7 5 -8.5 43t-3 104.5t-6 152.5t-24.5 196t-52.5 225t-95.5 250t-148 262q10 -295 43 -399l-39 39q-2 14 -5.5 38t-11.5 86.5t-12 113.5q-4 42 -4 82v18z" />
<glyph unicode="W" horiz-adv-x="1785" d="M0 1274q1 48 10 63q12 21 33 21q25 0 63 -30q91 -72 180 -255q147 -306 168 -690q3 -57 4 -115q0 -66 -5 -133q105 88 176.5 177t97.5 145.5t49.5 118t36.5 83.5q7 2 15 2q40 0 82 -64q50 -76 92 -212t70 -248.5t52 -230.5q9 42 24 101t41 159t56.5 204t68.5 227 t80 236.5t87.5 224.5t95 199t98.5 152.5t101 91.5q32 17 62 16q19 0 38 -6q72 -25 94 -99q12 -40 12 -86q0 -38 -9 -80q-19 -90 -54.5 -180.5t-77 -156t-67.5 -80.5q-5 -1 -14 -1.5t-34 0.5t-46.5 7t-46 22.5t-38.5 41.5q2 -1 5.5 -3t15.5 -3.5t24.5 1t31.5 14t38 32.5 q33 35 63.5 96t50 123.5t33.5 126t14.5 103t-7.5 53.5q-15 15 -32 15q-68 0 -186 -221q-160 -304 -334 -850q-159 -497 -210 -826q-5 1 -12.5 3.5t-19.5 10.5t-11 16q1 6 1 14q0 81 -64 350q-84 356 -151 487q-25 49 -42 49q-10 0 -17 -15q-31 -65 -76.5 -129.5t-90 -112 t-83 -84.5t-64.5 -59l-26 -22q-2 -1 -4.5 -3t-11.5 -6t-18 -5.5t-21.5 0.5t-23.5 9q-7 4 -9 41.5t-2.5 103t-4.5 149.5t-21.5 192.5t-46.5 221.5t-85 245.5t-132 255.5q-28 45 -35 0l-2 -31q10 -240 43 -344l-39 39q-2 14 -5.5 38t-11.5 86.5t-12 113.5q-4 42 -4 82v18z" />
<glyph unicode="X" horiz-adv-x="1585" d="M0 1280q2 48 14 61q20 22 54 22q72 -1 200 -95q190 -140 445 -410q451 743 711 744q24 0 46 -7q71 -21 94 -94q13 -40 13 -86q0 -39 -9 -79q-19 -92 -55 -183t-78 -158t-69 -82q-5 -1 -14 -1.5t-33.5 0.5t-46 7t-46 22.5t-38.5 41.5q2 -1 5.5 -3t15.5 -3.5t24.5 1 t31.5 14t38 32.5q33 35 63.5 96t49.5 123.5t33.5 126t14.5 102.5t-8 54q-20 22 -51 22q-43 0 -107 -42q-110 -72 -255.5 -249.5t-301.5 -427.5q345 -368 637 -763q24 -34 48.5 -53.5t45 -24.5t39.5 -2t35 13.5t29.5 24.5t24 28.5t18 26.5t11.5 18.5t5 4.5q-3 -7 -8 -18 t-23 -39.5t-37 -51t-49.5 -43t-60.5 -24.5q-5 -1 -12 -1q-26 -1 -59 15q-40 18 -80 64q-3 3 -90.5 115.5t-236 294t-286.5 334.5q-336 -562 -561 -1194l-16 143q28 63 77.5 171t193.5 394t278 514q-413 452 -631 524q10 -295 43 -399l-39 39q-3 14 -7 38.5t-13 88.5t-13 115 q-3 38 -4 75v23z" />
<glyph unicode="Y" horiz-adv-x="1241" d="M6 569q39 34 71 125t54.5 203.5t45 226t52.5 215t66 148.5q28 36 52.5 53.5t40 18t27.5 -7.5t17.5 -17.5t7.5 -17.5l-6 -82q-5 -81 -13 -199t-15 -267t-11 -284q-3 -90 -3 -172q0 -40 1 -79q2 -116 13 -167q10 -47 27 -86t44 -69t61 -31h2q32 0 74 29q37 10 96 65 t124 145t116 207t72 252q9 56 9 114q0 80 -17 163l2 4q-22 114 -22 194q0 37 5 66q7 45 26 41q3 -1 5 -2q51 -26 87 -251.5t49 -484.5q7 -151 7 -275q0 -89 -4 -165q-6 -120 -57 -231q208 -12 420 -53.5t344 -94.5q53 -22 79 -46.5t25 -47t-15 -45t-38 -40t-46.5 -31.5 t-38.5 -21l-17 -8q4 16 4 31q0 24 -9 47q-14 36 -40.5 62t-67 48.5t-76.5 36.5t-77 25q-196 55 -478 71q-75 -137 -186 -229t-203 -100q-21 -2 -41 -2q-66 0 -109 24q-56 31 -66 81q-3 16 -3 33q0 35 14 74q20 57 64 101q53 52 183 73q102 16 232 16q37 0 76 -1 q34 99 34 212q0 31 -3 64l-20 492q-80 -416 -437 -660q-78 -49 -139 -49q-173 0 -206 394q-7 85 -7 196q0 253 38 637q12 133 12 164q0 10 -1 10q-36 -37 -65 -128.5t-48.5 -198.5t-37.5 -212.5t-42 -189.5t-52 -111l-42 -21q-38 -16 -20 15zM516 -264q-3 -20 -3 -37 q0 -77 61 -104q27 -11 59 -11q55 0 126 33q130 62 217 198q22 34 40 72h-46q-74 0 -138 -5q-83 -6 -153 -22.5t-113 -48t-50 -75.5z" />
<glyph unicode="Z" horiz-adv-x="1716" d="M2 123q2 52 16 98.5t31 59.5q30 24 67 24.5t81 -24.5q18 -8 112 -82q85 89 146 141q161 176 360 387q-109 85 -270 85q-128 0 -289 -54q2 6 7 16.5t23.5 38.5t41 51t60.5 46t81 32q29 6 61 6q62 0 136 -22q114 -32 208 -135q159 171 242 256q-110 -15 -208 -17 q-24 -1 -48 -1q-68 -1 -124 5q-74 8 -139 24.5t-111 37t-84.5 46.5t-62.5 49.5t-42.5 49t-27 42.5t-13.5 32q-4 14 -4 29q0 26 11 57q18 50 41 83l24 32q-4 -22 -4 -43q0 -48 22 -89q32 -58 98.5 -93.5t157.5 -61t194 -33.5q104 -10 211 -14q46 -2 90 -1q59 0 115 3 q14 2 39 2q108 115 187 190.5t90 75.5q11 5 21 5q23 0 39 -30t16 -68q0 -30 -10 -65q-33 -114 -155 -173q-45 -22 -98 -34q-67 -15 -129 -24q-141 -157 -294 -322q153 -211 153 -592v-38l-63 -48q2 17 4 45q1 14 1 42t-1 68q-2 82 -14 155.5t-46.5 161t-89.5 147.5 q-300 -321 -510 -516q104 -79 189 -141t218.5 -149.5t238.5 -142t214 -87.5q73 -22 129 -22q27 0 50 5q103 24 165 147q50 101 50 213q0 23 -2 46q-12 143 -98 204q-49 33 -112 33q-101 0 -238 -85l-52 -35v79l6.5 6.5t19 17t30 24.5t38.5 27t46 27t51.5 22.5t55.5 15.5 t58 3t59 -12q87 -32 134 -94t55 -145q3 -28 3 -58q0 -60 -11 -131q-3 -19 -12 -47t-27.5 -69.5t-45 -80.5t-64.5 -79t-86 -65t-108 -39q-30 -7 -63 -7t-69 7q-80 14 -204.5 81.5t-224 137t-251 180t-211.5 151.5q-130 -114 -174 -114q-57 0 -83 40q-24 37 -24 84v9z M57 129.5q1 -19.5 6.5 -38t18.5 -28.5t31.5 -9.5t49.5 22t70 63.5q-105 65 -146 65q-19 0 -24 -14q-3 -8 -5 -24.5t-1 -36zM1335 1196q73 10 123.5 29.5t70.5 39.5t29.5 38.5t7.5 30.5l-1 12q-16 7 -33 7q-36 0 -76 -32q-23 -23 -31 -29q-3 -2 -90 -96z" />
<glyph unicode="[" horiz-adv-x="542" d="M0 -283q42 237 140 962t110 841q113 -39 151 -39q61 0 105 20l10 -57q-29 -23 -84 -23q-38 0 -96 15q-26 -266 -92 -691q-122 -854 -142 -964q33 10 74 10q52 0 96 -20q-14 -53 -16 -64q-48 23 -98 23q-115 0 -158 -13z" />
<glyph unicode="\" horiz-adv-x="901" d="M0 1335q0 6 35 15.5t74 4t47 -37.5q10 -44 29 -119t77.5 -262t126.5 -361q7 -18 57 -168.5t103 -276.5t98 -177q42 -44 20 -63q-10 -9 -20 -3q-58 31 -141 172.5t-161 323t-151.5 376.5t-121 336.5t-62.5 198.5q-2 14 -10 41z" />
<glyph unicode="]" horiz-adv-x="575" d="M0 -231q27 24 84 24q56 0 96 -14q25 258 88 694q12 84 44 317.5t59.5 430.5t31.5 225q-30 -10 -73 -10q-53 0 -94 20q3 11 8.5 33.5t7.5 30.5q39 -23 98 -23q28 0 86.5 7t81.5 14q-40 -244 -142.5 -985.5t-111.5 -825.5q-98 27 -149 27q-54 0 -105 -23z" />
<glyph unicode="^" horiz-adv-x="606" d="M121 997q114 86 184 174l45 -2q86 -140 107 -202q-5 -2 -66 -29q-1 2 -7.5 20t-14.5 37t-23 52t-33 65q-5 -6 -34 -39.5t-43.5 -49.5t-37 -38.5t-38.5 -34.5q-6 8 -19.5 23.5t-19.5 23.5z" />
<glyph unicode="_" horiz-adv-x="598" d="M0 2l10 57q241 38 525 25l-9 -64q-66 4 -80 7q-170 0 -227 -4q-108 -3 -219 -21z" />
<glyph unicode="`" horiz-adv-x="315" d="M2 1057q-11 24 17.5 43.5t54.5 19.5q10 0 10 -14q0 -34 32.5 -91.5t65.5 -86.5l-4 -6q-51 3 -101.5 46.5t-74.5 88.5z" />
<glyph unicode="a" horiz-adv-x="802" d="M1 250q-2 22 -1.5 39t1.5 31l3 28q16 105 42 189t55.5 135t61 88t60 53.5t51.5 25t36 9.5h14l2 -2v4q61 0 115 -26.5t87.5 -62t59 -76t36 -65.5t11.5 -32l-35 -10q0 2 -8 21.5t-26.5 51.5t-43.5 63t-65 58.5t-84 36.5q-75 -30 -133.5 -112t-86.5 -181q-27 -100 -39 -200 q-6 -52 -6 -98q0 -42 4 -78q10 -76 38 -99q14 -9 34 -4q95 14 230 231q2 57 14.5 119t30.5 92q16 24 40.5 33.5t40.5 6.5l17 -3q-2 -4 -4 -6l6 4q13 -13 -2 -53h2q-1 -1 -2 -3t-2 -3q-7 -21 -33 -68q-13 -96 -13 -153q0 -84 28 -87q8 -1 22 3t46 35t63.5 87t73 176t77.5 285 l41 -20q-23 -84 -36.5 -131t-35 -114t-37 -104.5t-38.5 -83.5t-44.5 -72.5t-49.5 -49.5t-60 -35q-16 -4 -22 -4h-5q-49 -1 -72 19q-24 20 -40 65q0 1 -1 3t-1 3q-128 -194 -230 -209h-16q-27 0 -47 12q-45 20 -74 62t-38 87.5t-12 88.5z" />
<glyph unicode="b" horiz-adv-x="589" d="M0 287q3 312 25 628t49 369q18 38 41.5 57t42.5 21l8 -2q86 -35 86 -203t-86 -469q-30 -101 -70 -221q-1 -67 -4 -168q-3 -87 -2 -133v-14q0 -46 6 -68q8 -24 48 -32q19 -4 37 -3q19 0 36 4q36 4 84.5 45.5t94 103t79 137t45.5 147.5q4 24 5 47q-1 45 -17 87 q-24 64 -88 99q-18 2 -34 2q-98 0 -128 -78q-3 -7 -3 -13q0 -37 102 -43q25 -2 53 -2q134 0 342 36q1 -1 3.5 -2t6.5 -4.5t5.5 -6t-1.5 -5.5t-12 -5q-201 -28 -328 -28q-196 0 -218 66q-2 7 -2 15q0 43 66 107q31 29 88 39q17 3 34 3q40 0 79 -16q41 -20 66 -80 q24 -57 24 -137v-6q-1 -84 -25.5 -174.5t-91 -184t-165.5 -159.5q-15 -10 -36.5 -20t-50 -16.5t-56.5 -6.5t-54.5 13.5t-46 40t-29.5 76.5q-7 35 -7 80q0 18 1 38zM98 618q54 176 83 317q26 126 26 225q-1 12 -1 24q-4 108 -52 133q-45 -136 -56 -699z" />
<glyph unicode="c" horiz-adv-x="571" d="M0 254v9q0 36 4 60l4 27q12 82 31 151t40 117t45.5 87t48.5 62t46.5 40.5t42.5 24.5t34.5 11.5t23.5 4.5h8q21 2 40 2q24 0 44 -4q36 -6 55 -18.5t29.5 -32t12 -38t-1.5 -39t-7 -32.5t-8 -22l-41 18l1 6q1 5 3 13.5t3.5 19.5t2 23t-0.5 23.5t-4 21.5t-9.5 17.5 t-15.5 10.5t-23.5 1t-32.5 -11q-39 -18 -86 -85t-86 -155t-66.5 -186t-27.5 -178t30 -131q9 -12 43 -22q29 -8 72 -9q8 1 14 1q52 2 106 18t109.5 64t91.5 122l23 -13q-38 -76 -94.5 -127.5t-110 -71t-101.5 -28.5q-36 -7 -62 -7q-8 0 -16 1l-30 2q-41 7 -78 21 q-41 19 -66.5 59.5t-32.5 85t-7 86.5z" />
<glyph unicode="d" horiz-adv-x="825" d="M1 245q-2 22 -1.5 39.5t1.5 31.5l3 28q13 82 31.5 151.5t40 118t46 87t48 62t46.5 40.5t42.5 24t34 11t23.5 4h8h2v4q100 0 178 -64q20 193 51.5 340t58.5 174q58 56 123 56v2h6q43 0 64 -39q18 -30 17 -85q0 -80 -36 -211q-62 -222 -186 -478q-7 -131 -7 -245 q-1 -119 7 -221q14 -200 55 -206q60 6 102 79t62 173l41 -8q-26 -131 -80.5 -207t-124.5 -80h-4q-84 16 -125.5 146t-46.5 335q-10 -16 -21 -34t-23 -38.5t-19 -31.5l2 -6q0 1 -1 3t-1 3l-2 -2q-5 -10 -6 -11q-126 -182 -222 -194q-6 -2 -16 -2q-27 0 -47 12 q-45 20 -74 62.5t-38 88t-12 88.5zM108 246v-24q0 -62 9 -110q11 -58 33 -77q18 -6 34 -4q81 13 195 190q49 76 100 170q0 127 19 342q-56 56 -125 72q-63 -25 -114.5 -88t-82 -141.5t-48.5 -166t-20 -163.5zM610 655q98 227 146 405q28 104 28 166q0 45 -14 68 q-3 10 -12 15l-2 -2q-54 -53 -92 -233t-54 -419z" />
<glyph unicode="e" horiz-adv-x="579" d="M6 369q16 136 51 244t74 155q31 38 75 57.5t68 22t39 0.5v2v-2h2q50 -15 66 -64q6 -20 6 -45q1 -34 -11 -78q-20 -76 -68 -163t-90.5 -155t-92.5 -138q-2 -29 -2 -68q1 -27 5.5 -47t10 -30.5t13 -16.5t12 -7t8.5 -1q64 2 121 29t93.5 62t64 72.5t39.5 60.5t12 26l43 -17 q-3 -9 -15 -32.5t-44 -66t-72 -79t-104 -66t-136 -32.5q-28 0 -48.5 3t-46.5 12.5t-43.5 33t-23.5 59.5q-13 77 -13 156q0 56 7 113zM129 293q101 151 165 283q48 100 47 159q0 20 -5 35q-6 26 -37 35q-52 -13 -90 -103.5t-55 -191.5t-25 -217z" />
<glyph unicode="f" horiz-adv-x="452" d="M-193 1074q10 16 39 18q15 0 64 -7q65 -11 131 -24q17 201 25 268q24 105 62 105q2 0 5 -1q25 -5 45 -44q-6 -3 -7.5 -4.5t-5.5 -38t-9 -119.5q-5 -85 -13 -191q269 -58 428 -58q48 0 86 5q49 7 87.5 21t61.5 30.5t38.5 35t20.5 36.5t4.5 34t-7.5 29q-12 21 -4 29l2 -3 q42 -70 42 -124q0 -32 -14 -59q-35 -64 -153 -82q-31 -5 -68.5 -5t-66 0.5t-76.5 8.5t-71 11t-80.5 16.5t-73.5 17t-81.5 20.5t-74.5 19q-1 -11 -1.5 -25t-1 -22.5t-1.5 -12.5l2 3q-4 -70 -4 -107q69 -109 105 -264.5t40 -299.5v-70q0 -110 -8 -218q-11 -143 -26.5 -232.5 t-28.5 -129.5q-24 -77 -63 -89q-2 -2 -6 -2h-5q-15 -10 -28 -10q-44 0 -71 108q-41 167 -41 546q0 207 12 478q6 123 14 244q2 29 10 127q-72 18 -131 27q-24 4 -33 4q-5 0 -13 1t-11 1q-23 0 -31 -8q-2 -1 -4 -4t-2 -4q0 -6 2 -10q3 -7 33.5 -9.5t35.5 7.5l11 -9 q-8 -23 -27 -30q-28 -13 -54 16q-24 27 -10 50zM31 979q0 -2 4 -2v-2zM113 96q-2 -111 -2 -193q0 -148 6 -202q8 -42 17 -65t14.5 -23t9.5 2q12 16 22 45q11 36 26 116.5t26 209.5q11 122 11 249q0 5 -1 11q0 132 -27.5 276t-81.5 250q-15 -366 -20 -676z" />
<glyph unicode="g" horiz-adv-x="675" d="M41 -10q4 19 11 21t11 -3q-49 -200 -49 -359q0 -169 55 -292q64 -142 183 -185q43 -15 86 -15q66 0 129 37q111 64 149 207q17 63 17 134q0 60 -12 125q-15 78 -66 261t-72 280q-30 -42 -63 -76t-59 -54t-56.5 -34.5t-46.5 -20.5t-39 -9t-25 -3h-12q-22 -4 -59 12 q-45 20 -74 62.5t-37.5 88t-10.5 88.5q-1 17 -1 32q0 22 2 39l4 28q12 82 31 151.5t40 118t45 87.5t48 62.5t46.5 40.5t42 24.5t34 11.5t23.5 4h8l2 -2v4q119 0 209 -94q34 24 81 27q11 1 22 1q32 0 54 -7l29 -9q-79 -29 -121 -102q9 -14 16 -29t11 -24t7 -16.5t3 -8.5 l-35 -10q-6 18 -20 45q-24 -71 -26 -171v-15q0 -93 17 -196q18 -112 39.5 -208.5t48.5 -208.5t37 -164q13 -62 13 -120q0 -78 -24 -148q-41 -122 -120 -201q-87 -87 -203 -87q-12 0 -24 1q-136 10 -227 129q-54 72 -83 172q-30 99 -30 246q0 153 41 332zM112 146 q11 -76 38 -99q23 -9 48 -9q120 0 275 212q-24 125 -24 227q0 115 30 203q10 28 29 55q-60 64 -135 80q-75 -30 -133 -112.5t-86 -182t-40 -198.5q-6 -54 -6 -100q0 -41 4 -76z" />
<glyph unicode="h" horiz-adv-x="690" d="M2 27q-3 33 -3 91t3 140l6 119q15 289 53.5 573.5t71.5 335.5q43 67 100 72l11 -2q51 -19 85.5 -67t50.5 -124q7 -35 7 -77q-1 -52 -11 -114q-18 -114 -73 -251q-39 -98 -188 -436q-4 -68 -4 -72q9 20 40 93t50 114q62 134 114.5 224t90.5 131t62.5 55.5t47.5 15.5 q13 -2 28.5 -6.5t35 -21t24.5 -40.5q2 -11 2 -28q0 -42 -13 -118q-18 -106 -39.5 -204t-26.5 -194q-1 -13 -1 -24q0 -75 29 -93l18 -10q12 -4 23 -4q49 0 95 81q17 31 32 74l22 -12q-33 -92 -82 -142q-48 -50 -125 -49h-3q-17 0 -36 8t-28 17q-35 32 -39 116q-1 14 0 29 q0 71 14 147q17 92 33.5 187t22.5 153q1 10 1 19q0 41 -22 55q-91 -77 -231 -382q-50 -105 -139 -330q-16 -36 -33 -54.5t-30 -19t-24 4.5t-16 13zM111 371q74 160 124.5 292t75.5 223t31 163q3 37 4 67q0 28 -3 48q-6 42 -26.5 74.5t-40.5 47.5t-49 29q-28 -64 -63 -371 t-53 -573z" />
<glyph unicode="i" horiz-adv-x="382" d="M0 384q2 65 6.5 101t11.5 88q7 41 28.5 152t27.5 121q21 18 41 18q18 0 35 -14q26 -22 26 -56q0 -13 -4 -28q-57 -259 -57 -420q0 -33 2 -61q6 -77 19.5 -129t31 -77t40.5 -29t47.5 7.5t53.5 39.5t56.5 62.5t58.5 80.5q4 -4 8 -25q-34 -65 -98 -138t-111 -77 q-57 0 -99 23.5t-66.5 58t-38 89.5t-17.5 101q-2 29 -2 65q-1 22 0 47zM8 689q0 5 -1 10q0 79 22 171q23 98 69 146q2 3 6.5 7t18.5 12t29.5 11t39.5 -2t48 -22q40 -26 40 -65q0 -33 -21 -56q-22 -25 -48 -27q-31 -2 -56.5 4.5t-40 17t-24 21t-12.5 17.5l-4 8q-4 0 -20 -50 q-16 -51 -30 -131q-6 -38 -7 -80q0 -47 8 -99q-15 24 -17 107z" />
<glyph unicode="j" horiz-adv-x="559" d="M2 40q4 115 23 230t71 233t131 195q20 265 20 367q0 61 -7 65q3 4 8 9t19 13.5t26.5 8t26.5 -16.5t22 -50q3 31 3 63q0 43 -6 87q-11 77 -24 117t-16 40q-1 -3 -3.5 -8t-13.5 -17t-25 -20.5t-39 -14t-56 -2.5q-25 2 -46 27q-20 23 -20 54v8q3 35 41 59q40 21 69 21h8 q31 -3 48 -19l17 -16q37 -42 57 -123q19 -76 19 -142q0 -5 -1 -10q-1 -70 -8 -123v-8q2 -22 2 -65q0 -77 -6 -222q8 4 21 7.5t38.5 5t51.5 -4.5t58.5 -26t62 -53t60 -93t54.5 -139l-26 -18q-28 77 -59 134t-58.5 88t-57.5 48.5t-51 21.5t-44 -0.5t-33 -9t-21 -10.5 q-27 -541 -98 -845q-56 -238 -126 -238q-4 0 -8 1q-12 2 -24 11q-2 0 -4 2q-4 0 -6 2q-38 12 -54 80q-9 33 -15 107q-3 42 -3 98q0 42 2 91zM42 20v-49q0 -71 4 -121q6 -66 13 -96q4 -16 15 -39q5 -3 10.5 -3t16 16t24.5 49q16 42 44 300t52 558q-65 -77 -106.5 -188.5 t-56 -216.5t-16.5 -210z" />
<glyph unicode="k" horiz-adv-x="837" d="M2 -45q-1 10 -1 28q0 71 10 267q12 244 26 354q35 248 82.5 464.5t79.5 258.5q44 62 100 62l10 -3q79 -32 79 -143q0 -151 -146 -448q-47 -100 -101 -191v-12q0 -2 4 -2h2q36 59 75.5 113t90.5 111t109.5 96t114.5 51q19 4 35 4q37 0 57 -23q14 -17 14 -41q0 -29 -21 -69 q-38 -72 -112 -136q-146 -128 -330 -141l-6 -12q11 -1 41 -1t47.5 -1.5t37.5 -10.5t28 -26l8 -30q8 -29 19.5 -63.5t29 -81.5t40 -90t49.5 -82t61.5 -64.5t70.5 -31.5q14 -2 27 -2q33 0 57 13q59 30 100.5 103.5t51.5 127.5l49 -4q-10 -61 -57 -142.5t-117 -117.5 q-43 -19 -84 -19h-12l4 -2h-14q-51 0 -98 19q-54 22 -93.5 56t-75.5 85.5t-58.5 94.5t-43.5 97t-29 79.5t-16 54.5q-19 0 -43 4q-15 -25 -27 -49q-29 -326 -33 -473q0 -8 -23 -16t-46 -12zM160 735q57 113 97.5 210t64.5 183q18 67 18 118q0 14 -2 26q-6 58 -45 78 q-64 -116 -133 -615zM205 596q142 18 266 125q70 60 101 120q20 39 20 61q0 12 -6 20q-4 4 -17 4q-14 0 -20 -2q-153 -34 -344 -328z" />
<glyph unicode="l" horiz-adv-x="452" d="M42 186q1 82 6 154l5 72q1 18 8 73q9 84 17 211.5t14.5 211t19.5 175.5t38 154.5t63 97.5q11 10 24 22.5t20 19.5t15 13.5t14 9.5t11 3l8 -2q66 -35 65 -155q0 -163 -120 -482q-2 -4 -5 -13t-5 -14q0 -2 -7 -16q-24 -57 -65 -162q-33 -331 -33 -501q0 -102 47 -102 q34 0 91 53q85 78 182 220l14 -16q-208 -298 -322 -298q-18 0 -34 8q-49 24 -63 110l-1 8q-7 55 -7 126v19zM182 705q3 10 10 26t9 21q43 112 73 208q29 98 45 182q11 60 11 106q0 20 -2 36q-6 58 -37 78q-27 -68 -56.5 -251t-52.5 -406z" />
<glyph unicode="m" horiz-adv-x="1208" d="M0 343q0 58 6 110.5t19 60.5q47 28 76 34t35 -2l5 -7q3 -24 3 -51q0 -44 -8 -96l-20 -140q-4 -24 -5 -54q0 -41 8 -94q23 83 78 250q51 155 94.5 259t76.5 151.5t54.5 64.5t42.5 19q12 -2 25.5 -6.5t31.5 -22.5t23 -45q3 -19 4 -49q-1 -33 -5 -77q-8 -86 -20 -181 t-22 -189q-7 -67 -8 -123q0 -22 2 -43q4 -72 28 -94q3 -1 7.5 -1.5t15 -1.5t12.5 1q27 15 39 60q1 1 1.5 2.5t1 4.5t1.5 5v2q16 69 84 275q51 154 94.5 258t76.5 151t54.5 64t42.5 18q18 0 45 -18t35 -56q3 -18 3 -47q1 -45 -7 -119q-12 -120 -28.5 -235.5t-16.5 -220.5 t29 -133q16 -17 41 -17q109 84 159 172l19 -2q-40 -71 -94.5 -122t-91 -69.5t-56.5 -19.5q-36 -4 -51 15q-32 38 -38 132q-2 33 -3 67q0 63 8 131q12 104 23.5 213t15.5 175v15q0 53 -22 69q-80 -89 -195 -438l-84 -276q-1 -6 -4 -16.5t-4 -12.5l-6 -14q-21 -62 -101 -70 q-11 -1 -21 -1q-44 0 -58 15q-33 37 -40 131q-3 34 -3 70q0 64 8 130q12 104 24 214t16 176q1 10 1 18q0 51 -21 66q-79 -83 -196 -438q-66 -201 -97 -322q-4 -9 -77 -18q-26 -3 -42 41t-19 89l-3 46q0 3 -1 56t-1 111z" />
<glyph unicode="n" horiz-adv-x="724" d="M0 138v46q0 2 5 87.5t16 165.5t28 89q49 26 79 31t35 -3l5 -9v-14q0 -61 -15 -129q-17 -76 -32 -150q-10 -50 -10 -98q0 -22 2 -43q26 75 96 249q51 124 95 215.5t75 142t58.5 80t44 38t32.5 8.5q7 -1 17 -5t23 -12.5t22.5 -25.5t11.5 -39q1 -7 1 -17q0 -49 -19 -153 q-22 -122 -46 -236t-34 -226q-2 -28 -2 -49q0 -68 22 -87q15 -19 29 -23q5 3 25.5 15t34.5 22t36.5 27.5t46.5 42t49 55.5l21 -4q-34 -53 -77.5 -93t-82 -60t-65.5 -29t-42 -10q-39 0 -51 18q-29 39 -29 134q0 98 21 205q20 105 40 216q20 110 28 177q2 18 2 33q0 40 -17 54 q-85 -80 -227 -432q-41 -102 -67.5 -170.5t-38.5 -102.5t-17 -46q4 -11 -13 -15.5t-65 -7.5h-1q-25 0 -38 45q-12 43 -12 86v7z" />
<glyph unicode="o" horiz-adv-x="794" d="M0 338q4 94 46.5 215t117.5 190q62 58 140 84q66 22 121 22q9 -1 18 -1q61 -4 100 -27q22 -13 39 -32t24.5 -35t12.5 -33.5t5.5 -24t0.5 -10.5l-52 -2q0 3 -0.5 7.5t-4 17.5t-9 24.5t-17.5 25.5t-28 23q-34 19 -72 19q-25 -6 -50 -17.5t-59.5 -37.5t-64.5 -62t-62 -96 t-56 -135q-22 -71 -26 -137q-1 -17 -1 -33q0 -43 7 -77q10 -44 27 -79t33 -51.5t27 -20.5l25 -8q65 4 128.5 71t103.5 154t58 172q-32 0 -59 9q-122 46 -122 124q0 16 5 33q7 24 31.5 46.5t54.5 33.5q21 6 41 6q39 0 76 -24q34 -22 34 -111q0 -28 -3 -61l-2 -11 q169 6 194 41l13 -18q-44 -44 -209 -61q-11 -60 -44 -136.5t-78 -146.5q-46 -71 -104 -119q-57 -47 -110 -47h-2q-40 0 -84.5 24.5t-82 66.5t-61.5 107q-21 58 -20 122v16zM406 596q-3 -10 -3 -18q0 -48 89 -80q21 -6 49 -6v14q4 29 4 52q0 9 -1 17q-2 28 -6.5 42t-9.5 16 q-20 14 -45 14q-16 0 -24 -2q-40 -15 -53 -49z" />
<glyph unicode="p" horiz-adv-x="630" d="M-59 782q19 51 46.5 67.5t55.5 -5.5q52 -39 96 -135l11 28l8.5 17t24 43t38 61.5t48.5 67.5t57.5 67.5t63 54t67.5 33.5q18 5 33 5q35 0 62 -24q39 -35 54.5 -95.5t21.5 -114.5q3 -31 3 -55q0 -18 -2 -31q-12 -137 -29 -209q-66 -288 -256 -322q-21 -3 -43 -4 q-47 0 -72 5q3 -63 3 -124q0 -173 -24 -324q-31 -204 -83 -214q-11 -2 -27.5 14.5t-38 65t-34.5 117.5q-19 93 -19 231v39q7 265 96 559q-27 108 -59 145q-25 25 -48 30t-33 -3l-11 -8zM37 -6l2 -84q26 -230 54 -230h1l4 3q45 95 59 248q7 79 7 163q0 78 -6 160 q-36 14 -68 41l14 37q19 -15 50 -29q-9 88 -33 221q-45 -138 -65 -292q-19 -139 -19 -222v-16zM164 641q46 -136 63 -362q33 -5 59 -5h15q35 3 67 45t55 107.5t41.5 133.5t31 139.5t18.5 108.5t8 56q2 25 2 47q0 135 -59 135q-18 0 -43 -14q-34 -20 -70.5 -62.5t-65 -89.5 t-52 -91t-36.5 -73l-12 -28q-4 -8 -11.5 -24.5t-10.5 -22.5z" />
<glyph unicode="q" horiz-adv-x="632" d="M1 251q-1 17 -1 32q0 22 2 39l4 28q12 82 31 151.5t40 118t45 87.5t48 62.5t46.5 40.5t42 24.5t34 11.5t23.5 4h8l2 -2v4q61 0 115.5 -27t87.5 -61t60 -77.5t35.5 -63.5t12.5 -33l-35 -10q0 2 -8 21.5t-27 51.5t-44 63t-65 58.5t-85 36.5q-75 -30 -133 -112.5t-86 -182 t-40 -198.5q-6 -54 -6 -100q0 -41 4 -76q11 -76 38 -99q24 -10 50 -10q115 0 261 194q10 81 10 149q0 277 -164 331q8 3 20.5 7t47.5 8q12 1 24 1q21 0 41 -5q29 -6 60.5 -32.5t46.5 -73.5q29 -85 31 -190v-13q0 -98 -20 -203q-21 -111 -47 -209.5t-58.5 -216t-46.5 -188.5 q-13 -69 -13 -130q0 -139 67 -240q70 -105 184 -127q25 -5 49 -5q90 0 167 66q130 110 148 353q3 38 3 78q0 160 -48 356q1 0 5 1t6 0.5t5.5 -5.5t5.5 -15q41 -179 41 -332q0 -147 -30 -245q-29 -100 -83 -172q-90 -118 -227 -131q-11 -1 -22 -1q-116 0 -205 89 q-79 77 -120 199q-24 70 -24 150q0 57 13 120q8 44 55 239t66 312q-37 -45 -79 -77t-69.5 -46t-60 -21.5t-39.5 -7.5h-19q-22 -4 -59 12q-45 20 -74 62.5t-37.5 88t-10.5 88.5z" />
<glyph unicode="r" horiz-adv-x="567" d="M0 934v14q0 34 10 60q12 30 41 60t52.5 47t58 34.5t44 21.5t23.5 9q17 4 32 4q39 0 61 -29q23 -29 24 -92q0 -106 -67 -307q10 -8 32 -24.5t33 -25t24 -21t19 -23.5q34 -51 44 -118q5 -33 5 -64q0 -32 -6 -64q-10 -62 -25.5 -127t-31.5 -112t-18 -85t14 -45q10 0 14 2 q74 23 192 234l39 -21l-19 -43q-73 -147 -162 -199q-18 -10 -36 -16q-16 -4 -26 -4q-22 0 -35 8q-46 18 -62 67q-11 33 -11 71q0 18 3 38q8 60 19 129t21 129q4 24 3 46q0 33 -8 61q-16 59 -59 102l-39 33q-11 9 -42 31t-48 36t-41.5 40.5t-42.5 56.5q-27 44 -29 86z M139 958q-1 -6 -1 -11q0 -29 12 -57q14 -34 36 -57t54 -49q61 193 61 280q0 42 -14 60q-12 18 -47 9v2q-49 -50 -73.5 -96.5t-27.5 -80.5z" />
<glyph unicode="s" horiz-adv-x="524" d="M2 14q4 51 39 97.5t90 68.5q0 1 6.5 -4.5t13.5 -11.5l7 -6q-86 -29 -114 -113q-11 -31 -11 -61q0 -38 19 -72q29 -51 79 -50q9 0 19 1q78 19 130 69q54 51 72 124q7 27 6 57q0 52 -20 115q-32 99 -117 204q-5 7 -13 19.5t-27.5 47t-33.5 65t-22 65.5t-2 57q14 45 41.5 78 t54 48t59.5 23.5t46.5 9.5t25.5 1v2q47 -16 56 -57q2 -10 2 -22q0 -39 -25 -95q-33 -74 -92 -156q17 -38 57 -103t65.5 -118.5t28.5 -97.5q1 -13 1 -26q0 -59 -19 -113q-23 -64 -57.5 -103t-76.5 -68.5t-70 -41.5t-42 -15q-19 -3 -36 -3q-38 0 -70 17q-44 25 -60 71 q-12 35 -12 74q1 11 2 23zM27 -170l4 2q-2 0 -4 -2zM51 -160l12 4q-8 -4 -12 -4zM82 -147q2 0 5.5 1t4.5 1q2 2 4 2q-2 0 -4 -2q-2 0 -5 -1t-5 -1zM246 677q2 -26 6.5 -41t15 -43t13.5 -38q41 61 63 127q16 48 16 78q0 11 -2 20q-3 16 -22 25l-2 -2q-34 -19 -54 -41 t-28 -40.5t-6 -44.5z" />
<glyph unicode="t" horiz-adv-x="604" d="M-258 920v17q0 151 162 151q64 0 153 -23q23 174 45 211q42 77 101 82h10q100 -37 99 -204q0 -74 -19 -175q99 -44 244 -121q10 -6 19 -16t13.5 -23t-8.5 -22q-21 -21 -42.5 -30.5t-57.5 -10.5q-5 17 3 27t17.5 11.5t12.5 6.5t-11 12q-195 96 -204 100q-28 -122 -76 -264 q-2 -5 -6.5 -15.5t-6.5 -15.5h3q-3 -3 -9 -18q-7 -18 -30.5 -85t-36.5 -101q-4 -159 -4 -278q0 -184 10 -275q13 -118 83 -118q56 0 150 76q126 104 277 301l8 11l31 -10q-310 -434 -500 -434q-9 0 -17 1q-87 9 -131 110l-12 32q-14 104 -14 305l2 119l2 86q13 382 49 672 q-69 25 -121 36q-40 8 -74 8h-21q-43 -4 -64 -32q-18 -24 -17 -64v-16zM121 578q10 25 18 53h2q65 197 88 305q-43 21 -84 39q-18 -179 -24 -397zM150 1036q9 -3 92 -35q18 94 18 161q0 122 -61 151q-26 -75 -49 -277z" />
<glyph unicode="u" horiz-adv-x="731" d="M0 182q1 44 6 84q3 24 17.5 97t17.5 114q3 15 -12.5 33.5t-28.5 9.5q13 37 39 65.5t41 26.5q22 -2 37.5 -9.5t24.5 -15t14.5 -21t7.5 -21t3.5 -22.5t2.5 -19q1 -11 1 -23q0 -28 -5 -63q-4 -44 -25 -139q-20 -111 -22 -148v-39q6 -35 24 -35q27 0 82 82q62 92 123 230 q-4 46 -4 87q0 60 8 111q8 53 28 158t28 115q20 18 46 15t48.5 -16.5t35 -39t5.5 -51.5q-22 -100 -33.5 -156t-22.5 -148q-8 -64 -8 -115q0 -23 2 -44q19 -228 40 -307q15 -56 34 -74q4 -4 10 -4q26 0 88 70q77 86 107 149q2 -1 24 -23q-15 -42 -103 -141q-85 -96 -124 -96 h-2q-26 4 -48.5 20t-39 37t-31 53.5t-23.5 60.5t-18.5 68.5t-14.5 67.5t-12 66.5t-10 56.5q-21 -44 -40.5 -79.5t-45.5 -77t-51.5 -68.5t-53 -46t-56 -17.5t-54.5 24.5q-28 23 -43 69q-14 43 -14 83v5z" />
<glyph unicode="v" horiz-adv-x="600" d="M-38.5 625q-0.5 3 4.5 8.5t11 7.5t20.5 8.5t25.5 12.5q38 17 60.5 0t33.5 -70q7 -32 9 -80q1 -21 1 -43q1 -27 -1 -53q-2 -48 -6 -98t-7.5 -93.5t-5 -78t1.5 -54t12 -18.5q31 4 117.5 147t111.5 205q-95 105 -133 287q-18 93 -18 159q0 39 6 68q15 66 45 90q25 14 46 14 q10 0 19 -3q29 -9 56 -37q79 -80 113 -190q25 -81 25 -164q0 -29 -3 -59q-12 -113 -64 -214l-2 -8q84 -79 185 -142l-21 -32q-122 78 -182 143q-177 -280 -295 -329q-22 -9 -40 -9q-47 0 -69 63q-14 45 -14 144q0 58 4 135q6 95 7 151q0 66 -9 76q-17 17 -25 26t-13.5 18 t-6 12zM246 934q-8 -31 -8 -72q0 -58 16 -135q20 -89 44.5 -147.5t72.5 -124.5q41 93 58 180q8 41 8 84q0 48 -10 97q-19 94 -85 161q-14 16 -31 23t-37 -3q-19 -13 -28 -63z" />
<glyph unicode="w" horiz-adv-x="942" d="M1 480q2 41 13 59q22 33 57 33h11q42 -6 65 -37q27 -31 46.5 -92t27.5 -126q6 -47 6 -93q0 -17 -1 -35q-3 -63 -17 -99q39 96 57 168q18 68 18 101q0 29 -5 57q-4 22 -2.5 35.5t18.5 31.5q19 2 36.5 5t25.5 3t14.5 2t10 -2.5t5.5 -6t9 -14t12 -21.5q36 -60 73 -188.5 t62 -216.5q23 -81 38 -82q1 0 3 1q28 15 61.5 176t38.5 232q-127 69 -223 227q-76 125 -88 209q-3 20 -3 36q0 39 15 64q24 33 62 33q27 0 61 -16q150 -72 226 -234q57 -123 58 -252q0 -41 -6 -82v-8q154 -66 218 -72l6 -36q-98 0 -230 71q-81 -352 -182 -419 q-20 -14 -40 -14q-34 0 -66 40q-37 48 -71.5 156.5t-61.5 202.5t-48 114q3 -10 3 -26q0 -52 -34 -161q-44 -141 -94 -192q-12 -12 -28 -12t-23 4t-22 14q7 52 7 147q0 31 -1 67q-3 146 -23 210q-5 16 -26 47q-18 17 -37 6.5t-21 -24.5q-2 -8 -2 -19q0 -34 20 -100 q27 -88 91 -153l2 -31q-47 47 -77 107t-38 112q-7 42 -7 77v16zM414 813q9 -83 78 -188q46 -76 88.5 -123.5t111.5 -95.5q3 36 3 70q1 37 -3 73q-6 68 -27.5 134.5t-66 120t-109.5 85.5q-24 11 -41 11q-19 0 -28 -15q-9 -13 -9 -39q0 -14 3 -33z" />
<glyph unicode="x" horiz-adv-x="997" d="M0 31q184 138 358 288q-33 69 -97 254q-48 140 -80 171q-15 15 -32 15q-19 0 -40 -20l5.5 11t14 25t21.5 32t26.5 26.5t30.5 14.5q11 2 21.5 -1.5t19.5 -12.5t16 -16.5t15 -23t11 -22t10 -22.5l7 -15q1 -2 12 -38t25.5 -80t40.5 -108t55 -118q13 11 37 34t37 34 q4 5 68 73q163 169 163 244q0 11 -4 21q-5 14 -19 21.5t-25 7.5l-11 1h-18l14 15q7 6 15.5 10.5t16 6.5t15.5 3t14.5 0.5t11 -1t7.5 -1.5h4q30 -3 41 -24q10 -12 14 -29l2 -14q0 -123 -360 -441q34 -58 70.5 -102.5t84.5 -78.5q48 -35 99 -45q19 -4 39 -4q34 0 74 12 q62 18 128 69q-2 -4 -6.5 -10t-20.5 -22.5t-35.5 -30.5t-51.5 -29t-68 -23q-34 -10 -84 -10h-4q-48 0 -100 12q-117 23 -209 189q-123 -105 -354 -285z" />
<glyph unicode="y" horiz-adv-x="612" d="M-125 -280v-10q0 -143 29 -240q29 -100 84 -172q94 -123 227 -132q11 -1 21 -1q116 0 206 90q78 77 118 199q24 72 24 153q0 57 -11 117q-9 46 -28.5 128.5t-38 156.5t-37 167.5t-29.5 172.5q-10 75 -10 154v7q1 82 16 143.5t52 108.5t96 67q-8 3 -20.5 7t-47.5 8 q-13 1 -25 1q-21 0 -40 -4q-30 -6 -61.5 -32.5t-47.5 -73.5q-29 -88 -29 -200q0 -91 19 -197q-95 -204 -160 -263q-19 -17 -32 -17q-18 0 -25 34v37q2 41 22 147q21 100 25 140q3 42 3 65q0 14 -1 21q-4 34 -22.5 64.5t-49.5 33.5h-3q-31 0 -60 -37q-16 -23 -109 -174 l-24 -43h39l24 43q18 32 66 100q11 14 12 -1v-13q-4 -40 -17.5 -111.5t-17.5 -99.5q-5 -40 -6 -84v-5q0 -41 13 -83q14 -45 42 -67q26 -22 53 -25t53.5 13.5t51 41t49.5 62.5t44.5 72t41.5 77q20 -97 72 -284t68 -267q13 -69 13 -131q0 -139 -67 -240q-69 -105 -182 -126 q-26 -5 -50 -5q-90 0 -166 66q-130 111 -148 353q-3 38 -3 78q0 161 48 356q-1 0 -4 0.5t-5 0.5t-5 -1.5t-5 -6t-4 -12.5q-40 -178 -41 -327z" />
<glyph unicode="z" horiz-adv-x="870" d="M-76 748q8 5 21.5 12.5t55 26.5t81.5 33q40 12 92 20q29 4 55 5q21 0 41 -3q36 -5 97.5 -25t112.5 -33q50 -14 110 -19q11 -1 22 -1q49 0 96 19q58 23 107 77q-4 -6 -11.5 -16.5t-31.5 -39t-49.5 -53t-64 -51.5t-76.5 -41l-398 -516q82 -35 196.5 -52.5t255 -25.5 t173.5 -12q116 -14 189.5 -86.5t99.5 -167.5q13 -45 14 -90q0 -72 -35 -145q-56 -122 -176 -176q-53 -22 -113 -27q-16 -1 -32 -1q-46 0 -98 10q-70 14 -152 54.5t-168 106.5q-15 14 -4 25q223 -181 408 -181q28 0 54 4q132 19 204 130q51 78 51 167q0 27 -5 55 q-22 128 -133 196q-63 39 -149 50q-46 6 -190.5 14.5t-252 27t-190.5 57.5l-41 20q-39 24 -80 62q-28 28 -37 61.5t-1.5 61t19.5 51.5t23 38l11 13q-2 -16 -2 -32q0 -121 118 -187l365 479q-29 0 -43 2q-60 8 -134.5 31t-128.5 42q-54 20 -128 30q-38 5 -76 5q-36 0 -72 -5z " />
<glyph unicode="{" horiz-adv-x="591" d="M-0.5 -5.5q-4.5 43.5 10.5 93.5q17 88 43 186q38 144 43 185q7 50 4 90.5t-12.5 71.5t-20 51t-18.5 30l-8 11q14 14 35 36.5t59.5 76t44.5 89.5q14 78 25 197q19 155 26 193q10 59 47.5 102.5t83.5 64t90.5 32t74.5 12.5l30 2q-9 -1 -24 -4.5t-54 -21t-71 -42.5 t-61.5 -74.5t-37.5 -111.5q-2 -22 -9.5 -78t-10.5 -88q-13 -127 -23 -176q-18 -97 -74.5 -147.5t-117.5 -67.5l65 -60q61 -79 35 -229q-12 -76 -41 -172q-35 -144 -39 -164q-13 -94 -4 -158.5t33.5 -104.5t50 -61.5t44.5 -29.5l20 -7l-10 2.5t-26.5 8.5t-38 16t-43 25 t-43 35.5t-38.5 47.5t-28 61.5t-11.5 77z" />
<glyph unicode="|" horiz-adv-x="477" d="M183.5 355q-9.5 364 6.5 646t43 381q3 8 -18.5 63.5t-19.5 63.5q4 7 48 10.5t84 -10.5t33 -51q-7 -17 -31 -384t-40 -773.5t0 -493.5q10 -63 -24 -82q-20 -10 -30 3l-2 6q-40 257 -49.5 621z" />
<glyph unicode="}" horiz-adv-x="585" d="M0 -287q4 -1 11 -1t28.5 3.5t41.5 11.5t46.5 28.5t48 50t41 79.5t29.5 113q4 29 14 168q11 153 14 178q27 153 107 201l80 33q-22 17 -42 38.5t-41 55t-30 80t-2 98.5q8 50 35 174q6 26 16.5 81t16.5 83q11 66 0.5 119t-36 93t-52 66.5t-46.5 39.5l-20 14q11 -5 29 -13.5 t63 -39t78 -65.5t56 -90.5t14 -115.5q-7 -55 -37 -190q-24 -110 -37 -193q-4 -36 13 -97t36 -104l19 -43q-4 -2 -11 -6.5t-26.5 -21.5t-36 -39.5t-34 -62t-26.5 -85.5q-7 -41 -16 -190q-5 -80 -16 -191q-7 -64 -28.5 -113t-51 -76t-63.5 -44.5t-66.5 -23t-59 -6.5t-43.5 1z " />
<glyph unicode="~" horiz-adv-x="722" d="M0 236q4 4 10.5 11t30.5 24.5t50.5 31t69 24.5t87.5 11q53 0 95.5 -18.5t79.5 -37t77 -18.5q45 0 84.5 17.5t55.5 34.5l17 18l11 -6q-2 -5 -6.5 -14t-22.5 -32t-40 -40.5t-60.5 -32t-83.5 -14.5q-47 0 -87.5 12t-64.5 26.5t-58 26.5t-71 12q-40 0 -81 -10t-62 -20 l-21 -11z" />
<glyph unicode="&#xad;" horiz-adv-x="620" d="M0 297l10 57q256 40 525 25l-9 -64q-20 2 -46.5 4t-33.5 3q-184 0 -227 -3q-127 -7 -219 -22z" />
<glyph unicode="&#xc0;" />
<glyph unicode="&#xc1;" />
<glyph unicode="&#xc2;" />
<glyph unicode="&#xc3;" />
<glyph unicode="&#xc4;" />
<glyph unicode="&#xc5;" />
<glyph unicode="&#xc6;" horiz-adv-x="2582" />
<glyph unicode="&#x2000;" horiz-adv-x="801" />
<glyph unicode="&#x2001;" horiz-adv-x="1602" />
<glyph unicode="&#x2002;" horiz-adv-x="801" />
<glyph unicode="&#x2003;" horiz-adv-x="1602" />
<glyph unicode="&#x2004;" horiz-adv-x="534" />
<glyph unicode="&#x2005;" horiz-adv-x="400" />
<glyph unicode="&#x2006;" horiz-adv-x="267" />
<glyph unicode="&#x2007;" horiz-adv-x="267" />
<glyph unicode="&#x2008;" horiz-adv-x="200" />
<glyph unicode="&#x2009;" horiz-adv-x="320" />
<glyph unicode="&#x200a;" horiz-adv-x="89" />
<glyph unicode="&#x2010;" horiz-adv-x="620" d="M0 297l10 57q256 40 525 25l-9 -64q-20 2 -46.5 4t-33.5 3q-184 0 -227 -3q-127 -7 -219 -22z" />
<glyph unicode="&#x2011;" horiz-adv-x="620" d="M0 297l10 57q256 40 525 25l-9 -64q-20 2 -46.5 4t-33.5 3q-184 0 -227 -3q-127 -7 -219 -22z" />
<glyph unicode="&#x2012;" horiz-adv-x="620" d="M0 297l10 57q256 40 525 25l-9 -64q-20 2 -46.5 4t-33.5 3q-184 0 -227 -3q-127 -7 -219 -22z" />
<glyph unicode="&#x2013;" horiz-adv-x="1109" d="M0 297l19 57q490 40 1005 25l-17 -64q-39 2 -89.5 4t-63.5 3q-353 0 -435 -3q-243 -7 -419 -22z" />
<glyph unicode="&#x2014;" horiz-adv-x="2133" d="M0 297l38 57q980 40 2010 25l-34 -64q-77 2 -178.5 4t-128.5 3q-704 0 -869 -3q-486 -7 -838 -22z" />
<glyph unicode="&#x202f;" horiz-adv-x="320" />
<glyph unicode="&#x205f;" horiz-adv-x="400" />
<glyph unicode="&#x25fc;" horiz-adv-x="860" d="M0 0v860h860v-860h-860z" />
</font>
</defs>
</svg>
