<?xml version="1.0" encoding="UTF-8"?>
<svg xmlns="http://www.w3.org/2000/svg" xmlns:xlink="http://www.w3.org/1999/xlink" version="1.2" >
<font id="Zurich">
<font-face  font-family="Zurich" units-per-em="1000" ascent="750" descent="-250" font-style="normal" font-weight="400" font-stretch="normal" cap-height="700" x-height="500" underline-position="-75" underline-thickness="50" />
<missing-glyph  horiz-adv-x="183" d="" />
<glyph glyph-name="NULL" d="" />
<glyph glyph-name="nonmarkingreturn" unicode="&#xd;" horiz-adv-x="183" d="" />
<glyph glyph-name="space" unicode="&#x20;" horiz-adv-x="183" d="" />
<glyph glyph-name="E" unicode="E" horiz-adv-x="352" d="M147 131 Q148 138 150 144.5 Q152 151 153 157 Q161 223 167.5 287 Q174 351 179 417 Q181 445 178.5 473 Q176 501 173 529 Q173 535 175.5 545 Q178 555 182.5 565.5 Q187 576 193 584.5 Q199 593 204 596 Q220 605 236 593 Q258 580 280 568 Q302 556 325 544 Q333 539 340.5 534 Q348 529 356 524 Q358 522 359 520 Q360 518 362 517 Q412 504 387 455 Q349 462 307.5 468.5 Q266 475 229 499 Q221 439 214 382.5 Q207 326 200 272 Q222 267 241.5 261.5 Q261 256 281 251 Q267 231 246 220.5 Q225 210 185 200 Q176 148 167.5 94.5 Q159 41 150 -16 Q156 -14 160 -13 Q164 -12 167 -10 Q196 10 228 18.5 Q260 27 292 35 Q335 46 362 15 Q367 11 373.5 9 Q380 7 388 4 Q365 -19 336.5 -27 Q308 -35 278 -44 Q240 -56 200.5 -63 Q161 -70 125 -89 Q114 -94 99.5 -95.5 Q85 -97 71 -100 Q57 -84 76 -74 Q84 -69 93 -64.5 Q102 -60 113 -55 Q110 -47 107.5 -40.5 Q105 -34 100 -24 Q98 -30 96 -34.5 Q94 -39 92 -44 Q90 -39 88 -35.5 Q86 -32 84 -28 Q80 -16 78.5 -2.5 Q77 11 65 21 Q62 23 60 28 Q58 33 60 38 Q61 72 52.5 103.5 Q44 135 41 168 Q39 202 35 233.5 Q31 265 29 297 Q25 332 22 365 Q19 398 15 433 Q11 470 7.5 507 Q4 544 -1 581 Q11 589 28.5 591 Q46 593 63.5 590 Q81 587 96.5 579 Q112 571 121 559 Q123 555 125 549.5 Q127 544 125 541 Q113 520 117.5 499 Q122 478 126 457 Q132 424 135 390 Q138 356 137 322 Q136 274 138 227 Q140 180 141 132 Q145 132 147 131 Z " />
<glyph glyph-name="F" unicode="F" horiz-adv-x="320" d="M191 271 Q206 266 218 263 Q230 260 240 252 Q249 247 256 236.5 Q263 226 271 216 Q248 202 228.5 202 Q209 202 187 214 Q175 197 173 177.5 Q171 158 168 141 Q167 135 167.5 128.5 Q168 122 166 117 Q155 81 151.5 45 Q148 9 143 -28 Q140 -45 135 -64 Q130 -83 125 -102 Q117 -97 114.5 -90 Q112 -83 110 -75 Q108 -67 105 -59 Q102 -51 94 -45 Q89 -53 85 -59.5 Q81 -66 77 -74 Q75 -72 73 -71 Q71 -70 68 -69 Q67 -64 66 -58.5 Q65 -53 64 -47 Q60 -8 56.5 31.5 Q53 71 49 111 Q44 153 39 194.5 Q34 236 28 278 Q26 304 22 331 Q18 358 15 386 Q11 430 8.5 473.5 Q6 517 4 561 Q4 566 9 572.5 Q14 579 19 581 Q36 591 53 588.5 Q70 586 84 576 Q99 565 110.5 550.5 Q122 536 122 516 Q123 515 123 514 Q125 487 128.5 460.5 Q132 434 132 408 Q130 358 136.5 308 Q143 258 143 207 Q145 211 147 214.5 Q149 218 149 220 Q153 254 155.5 287 Q158 320 162 354 Q163 365 165 376.5 Q167 388 169 399 Q174 434 179.5 469 Q185 504 191 539 Q195 559 205 577 Q214 594 230 598 Q246 602 263 592 Q277 584 292 578 Q307 572 321 564 Q347 550 354 536 Q361 522 352 493 Q346 475 338.5 456.5 Q331 438 334 418 Q335 411 335.5 405.5 Q336 400 340 395 Q343 389 339.5 386.5 Q336 384 336 382 Q335 376 337 368.5 Q339 361 341 353 Q331 348 319.5 349.5 Q308 351 297 359 Q252 391 243 443 Q241 460 239 476.5 Q237 493 234 511 Q223 451 212.5 391.5 Q202 332 191 271 Z " />
<glyph glyph-name="G" unicode="G" horiz-adv-x="406" d="M120 -9 Q146 20 172 47.5 Q198 75 224 103 Q221 118 218.5 131 Q216 144 214 155 Q226 170 236 183 Q246 196 254 210 Q268 236 299 244 Q319 248 339 256 Q362 266 380 244 Q378 238 376.5 231.5 Q375 225 370 221 Q350 199 346.5 173.5 Q343 148 342 122 Q340 92 340 62.5 Q340 33 337 2 Q335 -18 329 -37 Q323 -56 305 -68 Q294 -61 283 -55 Q272 -49 259 -41 Q254 -18 249 8.5 Q244 35 237 63 Q215 47 199.5 28 Q184 9 171 -12 Q157 -34 140 -48.5 Q123 -63 97 -67 Q95 -75 95 -82 Q95 -89 93 -101 Q88 -88 84 -78.5 Q80 -69 76 -61 Q71 -63 67 -64.5 Q63 -66 55 -69 Q43 -15 34 34 Q26 91 22 148.5 Q18 206 16 264 Q15 322 11 379 Q7 436 4 495 Q3 507 3.5 518.5 Q4 530 3 542 L3 576 Q11 577 17 578.5 Q23 580 30 581 Q50 584 62 583 Q74 582 81.5 576.5 Q89 571 95 560 Q101 549 109 533 Q112 526 110 516.5 Q108 507 104 498 Q97 484 97.5 471.5 Q98 459 100 446 Q104 420 105 395.5 Q106 371 109 346 Q110 332 111 317.5 Q112 303 115 288 Q117 275 120 261.5 Q123 248 125 234 Q127 222 128.5 208.5 Q130 195 135 182 Q135 185 136.5 188 Q138 191 137 193 Q131 216 136.5 236.5 Q142 257 146 278 Q154 329 162.5 380.5 Q171 432 182 484 Q185 506 190 526.5 Q195 547 202 569 Q209 590 219.5 596 Q230 602 253 600 Q278 598 299.5 588 Q321 578 339 564 Q366 544 363 507 Q358 475 357 442.5 Q356 410 355 378 Q354 370 356 361.5 Q358 353 359 341 Q351 348 345 352.5 Q339 357 333 362 Q327 354 325.5 347 Q324 340 325.5 333 Q327 326 329 318.5 Q331 311 331 304 Q311 314 298 324.5 Q285 335 276 348.5 Q267 362 262.5 380.5 Q258 399 255 425 Q253 449 252.5 473.5 Q252 498 249 522 Q249 529 245.5 534.5 Q242 540 239 545 Q237 545 235.5 544.5 Q234 544 231 544 Q228 527 225 511 Q222 495 220 478 Q215 428 207 380 Q199 332 179 286 Q174 275 172.5 262 Q171 249 169 238 Q163 199 156 160 Q149 121 137 83 Q129 61 124.5 39 Q120 17 114 -6 Q116 -8 117.5 -8 Q119 -8 120 -9 Z " />
<glyph glyph-name="H" unicode="H" horiz-adv-x="430" d="M374 -74 Q368 -68 363.5 -65 Q359 -62 353 -58 Q351 -66 349.5 -71.5 Q348 -77 346 -85 Q325 -61 319 -29 Q308 26 303 80.5 Q298 135 298 191 Q298 199 297.5 205 Q297 211 297 217 Q271 215 247.5 213 Q224 211 199 208 Q188 160 178 111 Q168 62 156 11 Q152 -6 144 -23.5 Q136 -41 130 -59 Q125 -70 120 -80.5 Q115 -91 110 -102 Q98 -99 94 -93 Q90 -87 89 -79 Q88 -71 88 -62 Q88 -53 85 -45 Q83 -55 81.5 -63 Q80 -71 78 -80 Q62 -57 53.5 -33 Q45 -9 41 16 Q37 41 35 66 Q33 91 31 115 Q24 181 20 246 Q16 311 11 377 Q8 413 5.5 449.5 Q3 486 1 522 Q0 538 0.5 553 Q1 568 1 582 Q1 591 6.5 596 Q12 601 20 600 Q32 598 45.5 595.5 Q59 593 67 585 Q79 574 88 559.5 Q97 545 108 531 Q110 525 108 521 Q97 483 101 446 Q105 409 110 371 Q114 346 118 321 Q122 296 125 270.5 Q128 245 129 219.5 Q130 194 126 167 Q122 136 124.5 106 Q127 76 129 44 Q139 54 141 65.5 Q143 77 145 88 L166 277 Q168 300 168.5 322.5 Q169 345 171 367 Q173 422 177.5 476 Q182 530 195 584 Q197 588 198 592 Q199 596 200 601 Q217 597 233 593.5 Q249 590 267 586 Q255 577 244.5 569 Q234 561 224 553 Q218 484 213.5 415.5 Q209 347 204 278 Q227 276 249 273.5 Q271 271 295 269 Q298 283 297 297 Q293 361 301 423.5 Q309 486 324 548 Q327 559 335 570 Q343 581 352 586 Q364 593 376.5 587.5 Q389 582 397 571 Q402 563 409 557 Q416 551 421 543 Q430 530 431.5 518 Q433 506 424 491 Q411 470 408 445 Q405 420 405 396 Q403 333 402.5 270.5 Q402 208 400 145 Q399 113 396.5 79.5 Q394 46 392 13 Q392 9 391.5 6.5 Q391 4 389 1 Q387 -2 383.5 -6.5 Q380 -11 373 -19 Q368 -26 366 -34.5 Q364 -43 371 -53 Q373 -56 372.5 -61 Q372 -66 374 -74 Z " />
<glyph glyph-name="I" unicode="I" horiz-adv-x="180" d="M53 -101 Q51 -94 50 -89.5 Q49 -85 49 -80 Q48 -67 48.5 -54.5 Q49 -42 46 -29 Q33 29 31.5 87.5 Q30 146 25 204 Q20 259 18 313.5 Q16 368 14 423 Q12 452 8.5 482 Q5 512 2 542 Q2 547 1.5 551 Q1 555 2 560 Q5 586 12 592.5 Q19 599 45 599 Q63 599 81 598 Q99 597 113 581 Q115 579 119 578.5 Q123 578 126 578 Q148 577 153.5 572.5 Q159 568 156 549 Q153 522 155 495.5 Q157 469 156 443 Q154 407 156.5 371.5 Q159 336 157 298 Q157 286 154 274 Q151 262 148 249 Q147 244 145 238.5 Q143 233 143 228 Q141 180 139.5 134 Q138 88 137 41 Q137 28 138.5 15 Q140 2 137 -9 Q135 -20 128.5 -29.5 Q122 -39 116 -53 Q113 -45 111 -37.5 Q109 -30 107 -20 Q102 -27 98 -30.5 Q94 -34 94 -38 Q94 -52 93.5 -58.5 Q93 -65 89 -70.5 Q85 -76 76.5 -82 Q68 -88 53 -101 Z " />
<glyph glyph-name="J" unicode="J" horiz-adv-x="402" d="M366 184 Q361 170 357 156.5 Q353 143 348 129 Q337 98 318.5 72.5 Q300 47 279 24 Q263 7 250 -11.5 Q237 -30 221 -47 Q216 -52 209 -54.5 Q202 -57 197 -62 Q176 -79 151 -81.5 Q126 -84 100 -86 Q82 -87 64.5 -91.5 Q47 -96 29 -99 Q24 -100 18.5 -100.5 Q13 -101 4 -102 Q12 -93 16 -86 Q10 -84 4 -79 Q6 -77 7 -74.5 Q8 -72 10 -70 Q31 -59 51.5 -49 Q72 -39 95 -31 Q135 -16 161.5 11 Q188 38 209 73 Q245 136 260 203.5 Q275 271 282 341 Q286 385 290 427 Q294 469 298 513 Q299 525 298.5 537.5 Q298 550 298 565 Q284 562 271.5 560.5 Q259 559 248 554 Q243 552 239 545.5 Q235 539 232 534 Q217 499 202 464 Q187 429 170 394 Q165 383 160.5 371 Q156 359 142 351 Q138 349 138.5 339.5 Q139 330 137 322 Q132 320 127.5 321.5 Q123 323 121 333 Q117 346 110 355.5 Q103 365 86 363 Q75 411 71 458 Q67 505 68 552 Q68 554 68.5 555.5 Q69 557 69 559 Q69 574 70 581.5 Q71 589 74.5 592.5 Q78 596 86 595.5 Q94 595 108 593 L121 593 Q152 592 164.5 574.5 Q177 557 169 525 Q166 516 164 506.5 Q162 497 162 487 Q162 478 163.5 468.5 Q165 459 167 447 Q179 472 188 492 Q198 512 206.5 531 Q215 550 224 570 Q230 580 233.5 585.5 Q237 591 241.5 593.5 Q246 596 252.5 595.5 Q259 595 271 594 Q282 593 293 594.5 Q304 596 315 598 Q353 606 378.5 592 Q404 578 413 540 Q418 519 417.5 498 Q417 477 413 455 Q405 413 399.5 370 Q394 327 387 283 Q385 275 384 266 Q383 257 381 247 Q379 236 375.5 218.5 Q372 201 366 184 Z " />
<glyph glyph-name="K" unicode="K" horiz-adv-x="383" d="M360 278 Q352 290 344 303 Q336 316 328 328 Q326 322 325 318.5 Q324 315 325 311 Q326 307 330 301 Q334 295 341 284 Q331 287 324.5 293 Q318 299 313 305.5 Q308 312 303.5 319.5 Q299 327 293 333 Q294 329 294 325 Q294 321 296 315 Q284 320 280.5 328 Q277 336 274 345 Q257 396 258.5 446 Q260 496 275 549 Q264 551 254.5 553.5 Q245 556 234 558 Q226 483 216.5 410 Q207 337 197 262 Q204 260 211.5 255.5 Q219 251 225 242 Q230 231 241.5 226 Q253 221 263 215 Q275 207 289 201.5 Q303 196 314 186 Q338 163 346 135 Q354 107 351 76 Q349 47 349 19.5 Q349 -8 349 -35 Q347 -42 350 -48 Q353 -54 355 -62 Q353 -63 351 -63.5 Q349 -64 345 -66 Q348 -68 351.5 -70.5 Q355 -73 356 -75 Q357 -79 357.5 -84.5 Q358 -90 356 -93 Q352 -96 347 -98.5 Q342 -101 337 -100 Q323 -98 314.5 -87.5 Q306 -77 299 -67 Q295 -62 292.5 -55.5 Q290 -49 285 -44 Q259 -13 251 22 Q243 57 249 96 Q251 113 253 128.5 Q255 144 257 161 Q259 172 255.5 179 Q252 186 240 193 Q228 198 216.5 206.5 Q205 215 189 224 Q171 143 142.5 66 Q114 -11 85 -93 Q77 -79 71.5 -68.5 Q66 -58 61 -47 Q51 -20 39.5 7 Q28 34 26 65 Q24 82 22 100 Q20 118 18 137 Q14 167 11 196.5 Q8 226 7 255 Q6 284 5.5 313 Q5 342 7 371 Q11 424 8 476.5 Q5 529 0 582 Q26 600 52.5 596.5 Q79 593 96 568 Q103 559 105 545 Q110 503 115 463.5 Q120 424 125 382 Q127 365 128 348.5 Q129 332 131 316 Q134 276 133.5 237 Q133 198 137 159 Q137 154 143 149 Q148 170 152.5 190 Q157 210 161 231 Q162 236 160 242 Q158 248 157 255 Q156 257 156 257 Q168 260 168 269 Q168 278 169 283 Q175 328 180.5 371.5 Q186 415 193 460 Q196 483 199.5 508 Q203 533 207 557 Q211 573 219 587 Q223 595 231.5 598.5 Q240 602 246 596 Q259 585 273.5 584 Q288 583 302 582 Q328 580 340 561 Q348 548 355 536 Q362 524 367 511 Q369 500 368.5 489 Q368 478 366 467 Q363 449 357.5 432 Q352 415 349 398 Q341 363 353 331 Q358 319 360.5 306.5 Q363 294 367 281 Q362 278 360 278 Z " />
<glyph glyph-name="L" unicode="L" horiz-adv-x="422" d="M304 237 Q314 239 323 241.5 Q332 244 342 246 Q357 249 372 251.5 Q387 254 402 256 Q404 256 407.5 253.5 Q411 251 413 249 Q414 246 412 242 Q410 238 408 237 Q393 228 389.5 213.5 Q386 199 383 185 Q380 162 377 139 Q374 116 373 93 Q371 68 357.5 55.5 Q344 43 324 38 Q310 34 295 33.5 Q280 33 265 31 Q248 28 231 26 Q214 24 197 21 Q169 16 153.5 -2.5 Q138 -21 123 -43 Q113 -57 102 -71 Q91 -85 80 -101 Q78 -89 76 -79 Q74 -69 72 -60 Q71 -55 69.5 -50.5 Q68 -46 64 -43 Q54 -36 50.5 -27 Q47 -18 45 -8 Q37 37 30 81.5 Q23 126 16 171 Q14 187 13.5 202 Q13 217 12 233 Q12 238 13 242 Q11 266 9.5 289 Q8 312 9 336 Q9 363 11.5 389.5 Q14 416 16 444 Q17 466 18.5 488 Q20 510 19 533 Q18 547 12 561.5 Q6 576 1 591 Q3 593 6 596 Q9 599 13 599 Q33 600 51.5 600 Q70 600 88 597 Q103 595 108 587.5 Q113 580 115 565 Q117 540 120 516.5 Q123 493 128 469 Q132 450 137.5 431.5 Q143 413 149 394 Q156 369 153 344 Q150 319 147 294 Q146 271 141 242 Q141 240 142.5 238 Q144 236 145 234 Q147 208 149 184 Q151 160 150 136 Q150 113 147.5 88.5 Q145 64 143 38 Q148 40 151.5 40.5 Q155 41 157 43 Q177 57 197.5 65 Q218 73 242 74 Q260 76 266 81.5 Q272 87 275 106 Q281 139 292.5 170.5 Q304 202 327 231 Q319 233 314 234 Q309 235 304 237 Z " />
<glyph glyph-name="M" unicode="M" horiz-adv-x="583" d="M159 -7 Q154 -12 149 -18.5 Q144 -25 137 -33 Q133 -22 130 -12.5 Q127 -3 123 11 Q118 -16 114.5 -39 Q111 -62 107 -82 Q106 -83 102 -83 Q100 -78 98.5 -74 Q97 -70 96 -65 Q91 -48 87 -32 Q83 -16 78 0 Q78 2 77.5 3.5 Q77 5 77 6 Q81 36 74 63.5 Q67 91 59 117 Q41 182 35 249 Q29 316 18 382 Q12 412 13 444 Q14 476 13 508 Q13 524 13.5 539 Q14 554 0 567 Q29 604 69 590 Q77 587 81 581 Q85 575 87 567 Q94 535 101 501.5 Q108 468 118 436 Q128 401 131 365 Q134 329 136 292 Q138 276 136 259 Q124 208 150 154 Q152 170 155 184.5 Q158 199 160 214 Q166 268 171 323 Q176 378 181 433 Q183 457 184 481 Q185 505 187 531 Q189 564 207 587 Q211 591 216.5 595 Q222 599 225 597 Q231 592 237 592.5 Q243 593 249.5 594 Q256 595 262 594 Q268 593 273 586 Q275 584 280 585.5 Q285 587 290 589 Q307 595 320.5 587.5 Q334 580 346 569 Q351 564 353 554 L353 495 Q368 508 379 520.5 Q390 533 389 552 Q389 557 390 561.5 Q391 566 394 568 Q424 586 461 589 Q462 589 462 588 Q462 587 464 587 Q487 580 501 573 Q515 566 522 555.5 Q529 545 530 529 Q531 513 529 489 Q527 473 527.5 458 Q528 443 528 428 Q528 395 527.5 362.5 Q527 330 529 298 Q530 269 533.5 241 Q537 213 540 184 Q541 168 541.5 151 Q542 134 544 117 Q546 100 547 84.5 Q548 69 549 53 Q550 29 552 6 Q554 -17 550 -39 Q548 -54 543.5 -71.5 Q539 -89 519 -100 L465 11 Q452 38 445 65.5 Q438 93 433.5 121.5 Q429 150 426.5 178.5 Q424 207 421 236 Q413 296 407 355 Q401 414 395 474 Q395 476 393.5 477 Q392 478 390 480 Q379 466 368 453 Q357 440 351 424 Q346 412 346.5 398.5 Q347 385 348 372 Q349 334 350.5 295.5 Q352 257 354 218 Q354 207 353.5 196.5 Q353 186 354 176 Q355 168 358.5 161 Q362 154 365 146 Q360 144 354.5 141.5 Q349 139 341 137 Q337 140 332.5 143.5 Q328 147 322 152 Q320 150 319 148 Q321 144 322.5 139 Q324 134 328 124 Q254 177 250 259 Q248 279 246.5 300 Q245 321 244 341 Q244 381 245 420.5 Q246 460 247 498 Q247 502 246 504 Q245 506 244 510 Q239 511 234 511 Q229 511 224 512 Q219 507 219 503 Q215 471 212 440 Q209 409 205 377 Q199 335 192.5 292.5 Q186 250 180 206 Q166 117 156 26 Q154 19 156 11 Q158 3 159 -7 Z " />
<glyph glyph-name="N" unicode="N" horiz-adv-x="417" d="M233 583 Q253 584 268 585 Q283 586 296 588 Q307 590 320.5 587.5 Q334 585 346.5 579 Q359 573 369 565 Q379 557 385 547 Q388 541 388 535 Q390 512 391.5 490 Q393 468 395 445 Q398 412 396.5 378.5 Q395 345 392.5 311 Q390 277 388 243.5 Q386 210 389 177 Q392 142 395.5 108 Q399 74 402 39 Q404 23 406.5 6.5 Q409 -10 411 -26 Q413 -37 409 -45 Q406 -55 403.5 -64.5 Q401 -74 403 -85 Q403 -87 393 -99 Q388 -84 386 -69.5 Q384 -55 365 -48 Q363 -57 362 -66.5 Q361 -76 360 -87 Q354 -87 352 -81.5 Q350 -76 348 -71 Q346 -66 343 -64 Q340 -62 332 -67 Q324 -46 315.5 -25 Q307 -4 302 19 Q295 50 290.5 81.5 Q286 113 281 146 Q277 171 276 196 Q275 221 275 247 Q274 301 273.5 355.5 Q273 410 273 464 Q273 478 273 490 Q273 502 272 516 Q272 521 269 527 Q266 533 264 538 Q260 538 257 537 Q257 532 256.5 527.5 Q256 523 255 518 Q251 490 248.5 462 Q246 434 241 405 Q235 362 227.5 319 Q220 276 214 233 Q209 201 204 170.5 Q199 140 193 108 Q190 96 185 84.5 Q180 73 175 60 Q174 56 171.5 53 Q169 50 169 47 Q169 31 165.5 16 Q162 1 157.5 -13.5 Q153 -28 148.5 -43 Q144 -58 143 -73 Q137 -75 130.5 -76.5 Q124 -78 116 -80 Q112 -70 109.5 -60 Q107 -50 102 -40 Q97 -25 91 -10.5 Q85 4 77 18 Q69 33 66 49 Q63 65 61 81 Q56 110 50 138.5 Q44 167 42 196 Q41 211 36 225 Q31 239 36 256 Q37 261 32.5 268 Q28 275 26 283 Q19 356 8.5 429 Q-2 502 2 576 Q2 581 2.5 585.5 Q3 590 4 595 Q15 596 25 597 Q35 598 45 600 Q54 601 63.5 596.5 Q73 592 81 585 Q89 578 94.5 568.5 Q100 559 102 549 Q112 490 122 433 Q132 376 142 317 Q144 304 144 292 Q144 280 145 266 Q147 257 146 248.5 Q145 240 147 231 Q149 214 152.5 198 Q156 182 160 165 Q162 167 164.5 169 Q167 171 168 173 Q180 251 193 328 Q206 405 218 483 Q221 499 221.5 515.5 Q222 532 223 549 Q224 560 226 569 Q228 578 233 583 Z " />
<glyph glyph-name="O" unicode="O" horiz-adv-x="437" d="M56 348 Q52 359 48.5 366 Q45 373 45 379 Q45 398 40 414 Q35 430 27 444 Q10 474 10 506 Q10 538 12 570 Q12 573 14 577 Q16 581 20 583 Q45 599 76 597.5 Q107 596 127 568 Q137 554 137 538 Q137 522 137 507 L137 489 Q148 503 157 513 Q166 523 174 534 Q195 563 222.5 574.5 Q250 586 282 588 Q290 588 296.5 588.5 Q303 589 309 589 Q334 591 351.5 581.5 Q369 572 379 549 Q400 504 417 458.5 Q434 413 436 363 Q438 342 433 320.5 Q428 299 423 278 Q411 225 396.5 172.5 Q382 120 368 69 Q358 34 341.5 2 Q325 -30 297 -57 Q278 -76 252 -60 Q237 -71 222.5 -80.5 Q208 -90 191 -101 Q185 -88 181 -74 Q173 -76 163.5 -78 Q154 -80 142 -84 Q127 -75 109.5 -63 Q92 -51 75 -39 Q72 -42 70 -43 Q87 -66 102 -88 Q88 -91 81 -85.5 Q74 -80 69 -72 Q52 -49 41.5 -23.5 Q31 2 22 28 Q-5 113 6 192.5 Q17 272 56 348 Z M207 -63 Q212 -57 217 -52.5 Q222 -48 224 -42 Q235 -12 247 18 Q259 48 267 79 Q274 115 276 151.5 Q278 188 281 224 Q285 273 287.5 321.5 Q290 370 295 420 Q299 452 295 484.5 Q291 517 273 546 Q252 547 239.5 543.5 Q227 540 219 530 Q200 507 182.5 482.5 Q165 458 146 433 Q157 433 167 433.5 Q177 434 187 433 Q205 430 220 423 Q235 416 243 397 Q248 385 246 367 Q244 349 237.5 331.5 Q231 314 220.5 300 Q210 286 198 281 Q187 277 177 277 Q167 277 157 288 Q152 294 145 298 Q138 302 130 310 Q119 287 115 264.5 Q111 242 110 221 Q108 173 107.5 125 Q107 77 110 28 Q111 5 116 -10.5 Q121 -26 130.5 -35.5 Q140 -45 154.5 -51 Q169 -57 190 -61 Q194 -62 198 -62 Q202 -62 207 -63 Z M184 371 Q161 358 156 348 Q151 338 162 324 Q182 335 187 343.5 Q192 352 184 371 Z " />
<glyph glyph-name="P" unicode="P" horiz-adv-x="340" d="M129 125 Q132 130 133.5 133 Q135 136 137 139 Q156 225 169 311.5 Q182 398 193 486 Q195 507 199.5 527.5 Q204 548 209 568 Q214 587 220.5 589.5 Q227 592 247 588 Q258 586 270.5 586.5 Q283 587 294 589 Q314 592 328.5 586 Q343 580 352 562 Q360 542 365.5 521.5 Q371 501 366 479 Q361 450 358 421.5 Q355 393 350 365 Q348 351 345.5 336 Q343 321 338 307 Q334 299 326.5 293 Q319 287 313 280 Q307 274 299.5 272 Q292 270 282 268 Q267 266 253.5 258.5 Q240 251 226 242 Q215 235 205.5 226 Q196 217 186 207 Q176 197 173 185 Q165 140 148 99 Q142 82 141.5 64 Q141 46 139 27 Q139 25 139.5 21.5 Q140 18 139 15 Q130 -13 121 -41.5 Q112 -70 102 -101 Q89 -91 84.5 -78.5 Q80 -66 78.5 -52.5 Q77 -39 75.5 -25.5 Q74 -12 68 0 Q65 -5 62 -8 Q59 -11 55 -15 Q53 20 49.5 55 Q46 90 47 125 Q48 166 42.5 206 Q37 246 32 287 Q25 342 16.5 397 Q8 452 1 507 Q-1 524 1.5 542.5 Q4 561 7 578 Q8 584 14.5 589 Q21 594 26 595 Q46 600 65 598.5 Q84 597 101 584 Q108 579 113 572.5 Q118 566 120 559 Q126 523 126 484 Q125 441 123.5 398.5 Q122 356 121 313 Q121 304 123 295 Q125 286 125 278 Q126 240 126.5 203 Q127 166 129 125 Z M228 534 Q218 466 209.5 402 Q201 338 192 269 Q203 279 210.5 288 Q218 297 227 300 Q253 310 258.5 328.5 Q264 347 264 368 Q264 404 264 440 Q264 476 262 513 Q262 519 261 525.5 Q260 532 258 540 Q249 538 241.5 537 Q234 536 228 534 Z " />
<glyph glyph-name="Q" unicode="Q" horiz-adv-x="426" d="M81 360 Q78 362 75 363 Q72 364 70 366 Q67 369 65.5 373 Q64 377 62 382 Q55 372 51.5 367 Q48 362 45 357 Q38 379 32 400 Q26 421 21 442 Q17 459 15.5 476 Q14 493 12 511 Q10 525 11 539 Q12 553 12 569 Q27 577 43 580 Q59 583 76 583 Q96 584 103.5 575 Q111 566 109 547 Q109 543 107.5 540 Q106 537 106 533 Q110 510 113.5 487 Q117 464 122 438 Q130 456 137.5 472 Q145 488 153 504 Q168 537 193.5 558 Q219 579 251 592 Q284 605 314 589 Q319 585 325 580 Q331 575 331 570 Q334 550 345 534.5 Q356 519 366 504 Q390 469 398.5 430.5 Q407 392 402 350 Q399 333 398.5 316.5 Q398 300 397 283 Q397 265 399.5 246 Q402 227 395 212 Q390 201 389 189 Q388 177 387 165.5 Q386 154 383 143 Q380 132 373 122 Q368 117 367.5 110 Q367 103 365 96 Q359 75 353 55.5 Q347 36 341 17 Q366 -12 387 -41 Q403 -64 428 -68 Q428 -74 425.5 -76.5 Q423 -79 419 -80 Q415 -81 410.5 -81.5 Q406 -82 402 -84 Q405 -88 408.5 -91 Q412 -94 415 -99 Q413 -100 411 -101 Q409 -102 407 -102 Q378 -100 355 -86.5 Q332 -73 311 -55 Q303 -48 296.5 -42.5 Q290 -37 285 -31 Q238 -48 192 -68 Q187 -70 182 -71 Q177 -72 172 -70 Q156 -65 141.5 -59.5 Q127 -54 112 -52 Q94 -49 82.5 -40 Q71 -31 62.5 -19 Q54 -7 47.5 6 Q41 19 33 31 Q10 63 4 100 Q-2 137 6 177 Q14 210 21 244 Q28 278 45 309 Q53 322 62 334.5 Q71 347 81 360 Z M194 526 Q176 491 159 457 Q142 423 125 390 Q141 396 158 402 Q175 408 190 416 Q199 421 205 419.5 Q211 418 219 413 Q239 399 247.5 379.5 Q256 360 255 337 Q253 321 251 305.5 Q249 290 247 273 Q240 245 217 236 Q212 233 207 231.5 Q202 230 197 228 Q179 221 170.5 223.5 Q162 226 152 241 Q144 254 142.5 268 Q141 282 142 296 Q143 299 143.5 303 Q144 307 145 311 Q136 301 129 290 Q122 279 117 268 Q105 241 100.5 212 Q96 183 96 153 Q97 139 102 128.5 Q107 118 120 112 Q129 107 139 103.5 Q149 100 160 96 Q170 94 180.5 92.5 Q191 91 201 88 Q216 84 230.5 79.5 Q245 75 260 71 Q262 74 262.5 76.5 Q263 79 265 81 Q267 107 270.5 132.5 Q274 158 274 184 Q274 263 268 343 Q266 373 260.5 403 Q255 433 243 462 Q235 479 225.5 496.5 Q216 514 194 526 Z M111 66 Q114 55 117 45 Q120 35 122 25 Q124 16 129 8.5 Q134 1 141 -5 Q158 -21 177.5 -22.5 Q197 -24 219 -19 Q227 -17 231.5 -15.5 Q236 -14 238 -11.5 Q240 -9 241.5 -4 Q243 1 245 10 Q216 35 181.5 44 Q147 53 111 66 Z M180 251 Q199 254 208 270 Q216 286 216 302.5 Q216 319 212 336 Q209 349 193 347 Q187 345 182 342.5 Q177 340 170 338 Q174 332 177 327.5 Q180 323 183 318 Q169 304 168 290.5 Q167 277 180 251 Z " />
<glyph glyph-name="R" unicode="R" horiz-adv-x="407" d="M286 253 Q294 253 302.5 252 Q311 251 319 251 Q361 248 380 209 Q385 199 387 190 Q389 181 381 170 Q378 165 375.5 158 Q373 151 372 145 Q369 100 364.5 57 Q360 14 365 -30 Q367 -44 370.5 -58 Q374 -72 378 -87 Q336 -75 315.5 -46.5 Q295 -18 280 15 Q242 95 248 183 L248 206 Q236 208 224.5 210.5 Q213 213 200 215 Q198 204 194.5 193.5 Q191 183 189 172 Q180 133 171 94 Q162 55 154 16 Q151 -5 151 -26 Q149 -64 118 -73 Q109 -66 101 -60.5 Q93 -55 85 -49 Q86 -63 86.5 -75.5 Q87 -88 89 -101 Q87 -101 86.5 -101.5 Q86 -102 85 -102 Q82 -96 79 -89 Q76 -82 74 -76 Q70 -70 69.5 -62 Q69 -54 55 -56 Q53 -56 50.5 -51 Q48 -46 47 -41 Q44 -24 41.5 -7 Q39 10 36 27 Q36 32 38 42 Q41 49 43 53 Q45 57 45.5 61 Q46 65 45.5 69.5 Q45 74 44 82 Q41 73 35 60 Q29 87 28 104 Q27 114 27 124 Q27 134 27 144 Q18 146 16 149.5 Q14 153 15 157.5 Q16 162 17.5 166.5 Q19 171 18 175 Q15 198 13.5 222 Q12 246 11 270 Q11 280 12.5 289.5 Q14 299 15 309 Q15 314 15.5 319.5 Q16 325 15 329 Q-6 416 3 503 Q5 520 4 536.5 Q3 553 3 573 Q21 587 37 588 Q53 589 76 575 Q84 561 90.5 549 Q97 537 105 526 Q118 508 122.5 489 Q127 470 127 449 Q126 426 129 404 Q132 382 134 359 Q136 345 135.5 332 Q135 319 133 305 Q130 281 130.5 257 Q131 233 132 208 Q132 191 133.5 173.5 Q135 156 137 139 Q138 123 136.5 107 Q135 91 134 75 Q134 65 134.5 55 Q135 45 139 34 Q141 45 144.5 56 Q148 67 150 79 Q175 283 204 487 Q206 509 208.5 531.5 Q211 554 216 577 Q218 594 224.5 597.5 Q231 601 245 593 Q264 584 280 592 Q283 594 286.5 594 Q290 594 294 596 Q324 603 342 588.5 Q360 574 362 542 Q362 533 364.5 523.5 Q367 514 368 504 Q368 498 369 491 Q370 484 367 478 Q359 462 354.5 445 Q350 428 348 410.5 Q346 393 344.5 376 Q343 359 340 342 Q337 328 334 314.5 Q331 301 327 287 Q324 272 308 272 Q302 270 295.5 265.5 Q289 261 284 257 Q284 256 285 255 Q286 254 286 253 Z M205 273 Q239 292 252 315.5 Q265 339 255 373 L255 379 Q256 411 256.5 442 Q257 473 258 504 Q258 513 255.5 521 Q253 529 239 532 Q238 525 237.5 519.5 Q237 514 237 508 Q235 492 234.5 475.5 Q234 459 231 442 Q226 400 219.5 359 Q213 318 205 273 Z " />
<glyph glyph-name="S" unicode="S" horiz-adv-x="395" d="M59 351 Q49 364 37.5 376.5 Q26 389 20 405 Q13 418 11.5 434 Q10 450 9 464 Q7 492 7 520 Q7 548 6 576 Q6 587 12.5 592.5 Q19 598 28 600 Q36 601 44 600.5 Q52 600 60 600 Q95 599 102 568 Q109 544 113.5 520 Q118 496 122 470 Q123 461 121 450.5 Q119 440 118 426 Q125 431 129.5 433.5 Q134 436 139 440 Q159 457 183 466.5 Q207 476 233 480 Q272 486 303 462 Q332 439 353.5 412 Q375 385 384 349 Q392 317 392.5 285.5 Q393 254 389 222 Q384 180 373 140 Q362 100 345 62 Q329 27 304 1 Q279 -25 249 -47 Q243 -51 235.5 -52 Q228 -53 222 -54 Q208 -58 195.5 -59 Q183 -60 172 -67 Q155 -78 136.5 -79.5 Q118 -81 101 -85 Q90 -88 79.5 -89 Q69 -90 58 -92 Q41 -95 26 -95 Q11 -95 0 -73 Q14 -68 28 -63 Q42 -58 57 -53 Q81 -44 101 -31.5 Q121 -19 137 1 Q163 33 188 64.5 Q213 96 235 131 Q259 167 267 217 Q271 246 276 273 Q281 300 280 329 Q280 372 256 405 Q251 412 246 417.5 Q241 423 235 429 Q221 439 210.5 438 Q200 437 186 426 Q177 418 166.5 412.5 Q156 407 145 399 Q140 394 133.5 388.5 Q127 383 124 377 Q119 364 110.5 360 Q102 356 91 355 Q83 355 76.5 353.5 Q70 352 59 351 Z " />
<glyph glyph-name="T" unicode="T" horiz-adv-x="446" d="M252 -102 Q249 -93 249 -83.5 Q249 -74 234 -72 Q230 -72 227 -63.5 Q224 -55 221 -49 Q219 -51 216 -52.5 Q213 -54 209 -56 Q188 87 167.5 227 Q147 367 126 510 Q109 509 94 508.5 Q79 508 64 507 Q36 506 12 524 Q4 530 -5.5 535 Q-15 540 -26 546 Q-27 556 -20.5 562 Q-14 568 -3 570 Q15 575 31 575 Q94 579 156 582 Q218 585 281 588 Q286 588 291 588 Q296 588 299 590 Q322 600 344 598.5 Q366 597 388 593 Q403 591 418.5 584 Q434 577 446 566 Q460 555 459 541 Q458 527 447 512 Q444 508 441 504.5 Q438 501 437 497 Q433 474 429 452 Q425 430 426 407 Q427 393 434 377.5 Q441 362 458 355 Q462 353 465.5 348 Q469 343 469 341 Q464 330 455 327 Q446 322 437 321 Q428 320 420 328 Q403 345 385.5 361.5 Q368 378 352 396 Q332 420 321 448 Q310 476 312 508 Q312 513 310.5 518.5 Q309 524 307 532 Q295 530 283.5 529 Q272 528 258 526 Q266 512 263.5 500 Q261 488 253 475 Q248 470 250 460 Q252 450 252 442 Q252 430 251.5 417.5 Q251 405 252 394 Q252 368 252.5 342.5 Q253 317 254 291 Q256 274 257.5 257 Q259 240 260 223 Q264 210 262 201 Q255 179 256 157.5 Q257 136 260 115 Q262 107 262.5 99 Q263 91 263 83 Q263 59 263.5 36 Q264 13 263 -11 Q263 -33 261.5 -55.5 Q260 -78 259 -101 Q254 -101 252 -102 Z " />
<glyph glyph-name="U" unicode="U" horiz-adv-x="406" d="M407 -91 Q399 -89 392.5 -87 Q386 -85 378 -82 Q382 -87 384 -90 Q386 -93 389 -97 Q385 -98 381.5 -99 Q378 -100 375 -98 Q364 -94 352.5 -91.5 Q341 -89 330.5 -84.5 Q320 -80 311 -72 Q302 -64 297 -50 Q293 -40 286.5 -32.5 Q280 -25 273 -17 Q265 -7 260.5 6.5 Q256 20 250 34 Q217 23 187.5 4.5 Q158 -14 132 -39 Q112 -57 91 -73 Q70 -89 44 -100 Q37 -91 36 -81.5 Q35 -72 35 -62.5 Q35 -53 35.5 -43 Q36 -33 32 -23 Q24 -25 21 -29 Q18 -33 17 -38.5 Q16 -44 15.5 -49.5 Q15 -55 12 -58 Q4 -56 3 -51 Q2 -46 4 -40 Q5 3 6 45 Q7 87 9 131 Q11 192 13 252.5 Q15 313 16 375 Q18 426 19 475.5 Q20 525 21 576 Q21 587 25.5 593 Q30 599 42 600 L80 600 Q115 596 126 561 Q135 528 142.5 496 Q150 464 147 430 Q144 400 144.5 369.5 Q145 339 141 310 Q136 274 128.5 237.5 Q121 201 114 165 Q111 145 109 126.5 Q107 108 104 89 Q99 61 94.5 34 Q90 7 85 -21 Q84 -22 86 -31 Q121 3 161 23 Q201 43 244 55 Q249 117 250 176 Q250 188 248.5 200 Q247 212 247 225 Q245 290 251.5 353 Q258 416 266 480 Q269 508 266 536 Q263 556 282 566 Q296 571 312 575.5 Q328 580 345 572 Q349 570 352.5 567.5 Q356 565 358 562 Q378 539 389 512 Q400 485 407 456 Q414 424 410.5 392.5 Q407 361 402 329 Q396 295 393 261.5 Q390 228 383 194 Q377 165 370.5 135.5 Q364 106 342 82 Q338 78 336 71.5 Q334 65 333 59 Q332 47 332 34.5 Q332 22 332 10 Q330 -19 355 -34 Q363 -38 368 -43.5 Q373 -49 376 -60 Q379 -69 388.5 -75.5 Q398 -82 407 -91 Z " />
<glyph glyph-name="V" unicode="V" horiz-adv-x="437" d="M-1 553 Q8 560 15.5 565.5 Q23 571 30 576 Q45 589 62.5 594 Q80 599 97.5 596.5 Q115 594 130.5 585 Q146 576 158 561 Q187 522 198.5 478 Q210 434 212 386 Q214 338 224.5 291.5 Q235 245 250 199 Q265 151 281 104 Q297 57 314 10 Q316 7 317.5 4.5 Q319 2 322 -4 Q328 24 333.5 49 Q339 74 343 99 Q354 184 372 265 Q390 346 410 429 Q418 459 426.5 489 Q435 519 446 548 Q452 561 464.5 570.5 Q477 580 489 588 Q503 597 513 590.5 Q523 584 534 563 Q521 559 510 555.5 Q499 552 485 548 Q475 509 464 469 Q453 429 442 388 Q432 349 423.5 309.5 Q415 270 406 230 Q400 201 396.5 172 Q393 143 386 114 Q375 65 362 17.5 Q349 -30 338 -79 Q336 -84 333 -89 Q330 -94 327 -101 Q319 -99 311.5 -97 Q304 -95 295 -92 Q297 -88 298 -84 Q299 -80 301 -75 Q281 -69 271 -53.5 Q261 -38 252 -21 Q235 11 219.5 42.5 Q204 74 183 103 Q160 135 149.5 170 Q139 205 123 238 Q109 270 95 306 Q75 360 55 413 Q35 466 15 520 Q12 528 8 536 Q4 544 -1 553 Z " />
<glyph glyph-name="W" unicode="W" horiz-adv-x="469" d="M398 563 Q412 552 425 553.5 Q438 555 452 558 Q444 551 436 545 Q428 539 420 532 Q412 525 408.5 517 Q405 509 408 497 Q425 426 422 357 Q422 348 425 338 Q428 328 431 318 Q442 284 448.5 249.5 Q455 215 446 178 Q442 165 444 146 Q447 106 440.5 66.5 Q434 27 425 -12 Q423 -22 421 -32 Q419 -42 416 -51 Q412 -60 407.5 -69.5 Q403 -79 398 -92 Q380 -73 363.5 -56.5 Q347 -40 332 -23 Q327 -17 325 -8 Q323 1 320 9 Q306 55 291.5 99.5 Q277 144 263 190 Q255 214 249.5 238.5 Q244 263 239 286 Q232 311 226.5 335.5 Q221 360 214 384 Q213 385 208 385 Q207 373 205.5 361 Q204 349 202 337 Q201 327 200.5 316.5 Q200 306 198 295 Q192 266 190 235.5 Q188 205 176 177 Q173 169 170 160.5 Q167 152 163 143 Q161 138 159 133.5 Q157 129 156 124 Q148 92 138.5 59.5 Q129 27 124 -6 Q120 -23 121.5 -42 Q123 -61 124 -79 Q124 -86 124.5 -92 Q125 -98 114 -102 Q104 -96 97.5 -85 Q91 -74 87 -62 Q82 -50 79.5 -37.5 Q77 -25 72 -13 Q66 1 60 13.5 Q54 26 49 40 Q45 47 42 59 Q39 80 39 104 Q36 131 34.5 159 Q33 187 31 214 Q29 240 27.5 266 Q26 292 24 318 Q20 372 16 426 Q12 480 8 535 Q8 537 8 539 Q8 541 7 543 Q2 552 3 560 Q4 568 14 575 Q25 583 37 586.5 Q49 590 62 582 Q73 576 75 565 Q92 501 108 431 Q111 418 111 405 Q111 392 113 378 Q118 344 123.5 311 Q129 278 134 245 Q135 234 135 223 Q135 212 139 200 Q141 209 144.5 217.5 Q148 226 150 235 Q157 281 163.5 327 Q170 373 175 419 Q179 452 180 485 Q181 518 185 551 Q187 572 201 590 Q206 600 215.5 600 Q225 600 231 591 Q246 571 249 549 Q260 482 278.5 418 Q297 354 315 289 Q316 288 317.5 286.5 Q319 285 323 283 L323 306 Q324 345 324 385 Q324 425 326 464 Q327 484 331.5 504.5 Q336 525 342 545 Q346 559 354 571.5 Q362 584 370 598 Q383 594 397.5 591.5 Q412 589 426 585 Q418 579 412 573.5 Q406 568 398 563 Z " />
<glyph glyph-name="X" unicode="X" horiz-adv-x="371" d="M384 -56 Q362 -41 344.5 -23.5 Q327 -6 311 13.5 Q295 33 280.5 53 Q266 73 250 92 Q237 108 224 125 Q211 142 196 161 Q179 132 163 107 Q140 68 117 29 Q94 -10 70 -48 Q61 -63 49.5 -78 Q38 -93 16 -100 Q17 -92 17.5 -85.5 Q18 -79 20 -73 Q31 -45 41.5 -16.5 Q52 12 65 40 Q86 84 108 127 Q130 170 153 212 Q159 223 157.5 231 Q156 239 152 249 Q127 297 104 345 Q81 393 56 443 Q44 468 32 493 Q20 518 5 542 Q-2 553 2 562.5 Q6 572 4 581 Q19 584 32.5 586 Q46 588 60 590 Q79 593 93.5 583 Q108 573 116 554 Q117 546 122 539 Q140 510 158 481.5 Q176 453 194 424 Q200 413 206 402 Q212 391 220 379 Q242 434 263 486.5 Q284 539 304 593 Q311 595 317.5 596.5 Q324 598 332 598 Q349 599 356.5 588.5 Q364 578 357 562 Q339 519 320.5 476.5 Q302 434 284 390 Q277 376 272.5 361.5 Q268 347 263 333 Q259 319 259.5 305.5 Q260 292 269 278 Q283 256 295.5 233.5 Q308 211 315 186 Q323 157 337 132.5 Q351 108 364 82 Q368 72 371.5 63.5 Q375 55 379 46 Q392 22 389.5 -3.5 Q387 -29 384 -56 Z " />
<glyph glyph-name="Y" unicode="Y" horiz-adv-x="414" d="M0 570 Q4 580 11.5 586 Q19 592 28.5 594.5 Q38 597 48.5 597.5 Q59 598 68 599 Q82 601 93.5 598.5 Q105 596 116 588.5 Q127 581 137.5 568.5 Q148 556 161 537 Q155 520 155.5 503 Q156 486 161 469 Q165 451 163 431.5 Q161 412 159 393 Q158 380 154 366.5 Q150 353 154 338 Q177 353 193.5 361 Q210 369 225 372.5 Q240 376 256 375.5 Q272 375 294 373 Q294 388 293.5 403 Q293 418 294 433 Q295 459 296 485 Q297 511 298 537 Q299 545 298.5 552.5 Q298 560 297 568 Q295 579 300 587 Q305 595 315 595 Q331 597 347 595 Q363 593 376 579 Q384 570 392.5 560.5 Q401 551 410 542 Q418 533 418.5 522 Q419 511 415 500 Q410 482 409 464.5 Q408 447 410 428 Q412 403 409.5 378.5 Q407 354 405 328 Q402 289 397.5 250.5 Q393 212 388 173 Q386 138 373 108.5 Q360 79 346 48 Q331 19 310.5 -3 Q290 -25 263 -43 Q246 -55 228 -65 Q210 -75 186 -76 Q174 -76 162.5 -83.5 Q151 -91 138 -97 Q136 -93 135 -90.5 Q134 -88 132 -85 Q124 -90 117 -93.5 Q110 -97 102 -102 Q97 -98 91.5 -94.5 Q86 -91 81 -87 Q83 -85 85 -83 Q87 -81 89 -79 Q112 -61 134.5 -44 Q157 -27 179 -8 Q188 0 195.5 8.5 Q203 17 211 27 Q218 35 224 43 Q230 51 237 59 Q238 61 240 63.5 Q242 66 243 68 Q243 91 256 109.5 Q269 128 277 148 Q285 172 289 195.5 Q293 219 294 243 Q295 269 294.5 295 Q294 321 293 347 Q293 354 289 359 Q266 361 245.5 355 Q225 349 206 337 Q197 332 189 325 Q181 318 173 312 Q162 304 152 298 Q142 292 128 292 Q123 292 117.5 288 Q112 284 107 280 Q106 284 101 290 Q98 287 94 284 Q90 281 83 275 Q81 286 79.5 295 Q78 304 76 312 Q74 314 75 317.5 Q76 321 74 322 Q56 338 53 360.5 Q50 383 45 403 Q37 431 32 458.5 Q27 486 19 515 Q16 528 10.5 541 Q5 554 0 570 Z " />
<glyph glyph-name="Z" unicode="Z" horiz-adv-x="332" d="M205 557 Q183 555 160.5 554.5 Q138 554 115 549 Q86 542 59 546.5 Q32 551 8 574 Q14 588 26.5 592.5 Q39 597 54 598 Q90 598 126.5 597.5 Q163 597 198 598 Q227 598 256 601 Q285 605 306.5 594 Q328 583 340 565 Q352 547 354 525 Q356 503 347 484 Q343 476 341 469 Q339 462 336 454 Q331 444 325.5 436 Q320 428 310 421 Q299 412 289 400 Q279 388 271 376 Q248 341 224 307 Q200 273 180 236 Q161 201 142.5 166 Q124 131 115 90 Q113 79 109.5 68.5 Q106 58 101 44 Q121 49 139 53.5 Q157 58 174 63 Q197 68 217.5 64.5 Q238 61 258 50 Q269 42 282.5 37 Q296 32 310 27 Q326 20 342 12 Q358 4 373 -7 L360 -7 Q352 -6 344.5 -0.5 Q337 5 327 -5 Q319 1 310 2 Q301 3 292 2.5 Q283 2 274 1 Q265 0 256 1 Q225 5 193.5 3 Q162 1 132 -10 Q109 -17 89 -28.5 Q69 -40 60 -66 Q58 -72 52.5 -78.5 Q47 -85 36 -85 Q34 -85 30 -90 Q26 -95 21 -100 Q19 -77 18 -57 Q17 -37 15 -15 Q8 -17 1 -22 Q2 -2 1.5 18 Q1 38 2 57.5 Q3 77 6 96.5 Q9 116 17 136 Q26 159 31 184.5 Q36 210 41 234 Q60 316 98 390 Q116 425 136.5 460 Q157 495 186 524 Q191 531 197 537.5 Q203 544 208 550 Q206 556 205 557 Z " />
<glyph glyph-name="a" unicode="a" horiz-adv-x="385" d="M135 79 Q153 62 185 73 Q182 105 186.5 136 Q191 167 200 198 Q204 211 209 221.5 Q214 232 228 238 Q233 240 235 247 Q237 254 241 254 Q255 254 269.5 254 Q284 254 298 251 Q313 247 326 237.5 Q339 228 349 215.5 Q359 203 365.5 188 Q372 173 372 158 Q372 139 356 129 Q330 112 319 86 Q308 60 303 28 Q320 24 337 21 Q354 18 375 13 L355 1 Q358 0 361 -1 Q364 -2 369 -4 Q362 -6 357.5 -6.5 Q353 -7 345 -9 Q350 -13 354 -16.5 Q358 -20 366 -26 Q337 -27 310.5 -27 Q284 -27 258 -28 L258 -41 Q245 -21 232.5 -1.5 Q220 18 207 38 Q196 36 187 33 Q178 30 170 19 Q178 20 184 20.5 Q190 21 196 22 Q194 16 194 16 Q141 1 96 37 Q75 54 58.5 73.5 Q42 93 31 117 Q20 141 25 169 Q31 201 39.5 231.5 Q48 262 55 293 Q58 307 60 322.5 Q62 338 65 355 Q72 354 81.5 354.5 Q91 355 100 351 Q129 340 159.5 340.5 Q190 341 221 340 Q235 340 248.5 339.5 Q262 339 276 336 Q261 334 246 331.5 Q231 329 215 326 Q218 321 220.5 318 Q223 315 226.5 313 Q230 311 235.5 309.5 Q241 308 251 305 Q234 295 216.5 298 Q199 301 182 297 Q168 274 162.5 248.5 Q157 223 153 197 Q148 168 144 139.5 Q140 111 135 79 Z " />
<glyph glyph-name="b" unicode="b" horiz-adv-x="375" d="M107 522 Q109 498 110 474.5 Q111 451 113 427 Q116 400 127 370 Q138 341 138 310.5 Q138 280 137 250 L137 191 Q145 196 149.5 199 Q154 202 159 205 Q179 220 196.5 237.5 Q214 255 237 263 Q248 267 260 269.5 Q272 272 283 271 Q291 271 298.5 267 Q306 263 311 258 Q321 247 329 234 Q337 221 346 207 Q335 198 334.5 188.5 Q334 179 341 170 Q332 153 328 135 Q324 117 321 98.5 Q318 80 315 62 Q312 44 305 26 Q299 29 295 33 Q292 33 292 31 Q290 22 288.5 13.5 Q287 5 285 -4 Q282 -18 278 -30 Q274 -42 258 -50 Q251 -53 248 -62 Q245 -71 241 -78 Q232 -78 223.5 -77 Q215 -76 208 -79 Q201 -81 195.5 -87 Q190 -93 184 -98 Q184 -96 180 -89 Q170 -94 160 -99.5 Q150 -105 139 -110 Q138 -109 137.5 -106.5 Q137 -104 136 -102 Q128 -102 121 -102.5 Q114 -103 107 -102 Q99 -102 92.5 -100 Q86 -98 78 -99 Q71 -100 63.5 -104 Q56 -108 54 -106 Q50 -102 46.5 -101.5 Q43 -101 40 -102.5 Q37 -104 33.5 -105.5 Q30 -107 26 -107 Q24 -89 22.5 -71 Q21 -53 19 -36 Q19 -31 24 -24.5 Q29 -18 27 -16 Q21 -10 19 -3.5 Q17 3 17 10.5 Q17 18 16.5 25 Q16 32 12 38 Q7 48 8 57 Q9 66 11 76 Q12 81 10 87 Q8 93 8 98 Q7 104 8 110.5 Q9 117 9 123 Q9 134 7 144 Q5 154 7 164 Q15 221 24.5 277 Q34 333 43 390 Q46 413 48.5 437 Q51 461 53 484 Q55 494 56 503 Q57 512 59 522 L107 522 Z M210 201 Q208 202 206 202.5 Q204 203 202 204 Q188 187 173 170 Q158 153 144 136 Q141 131 140 124.5 Q139 118 138 111 Q136 84 134.5 56.5 Q133 29 129 2 Q127 -15 126.5 -32 Q126 -49 114 -64 Q107 -59 101.5 -55.5 Q96 -52 91 -48 Q79 -56 75 -67.5 Q71 -79 72 -94 Q99 -92 120 -80 Q141 -68 161 -55 Q161 -54 161.5 -53.5 Q162 -53 162 -52 Q170 -33 179 -15 Q188 3 190 25 Q192 53 195 80 Q198 107 201 134 Q203 151 205.5 167.5 Q208 184 210 201 Z M36 -97 Q43 -88 46 -83 Q49 -78 49 -74 Q49 -70 44.5 -65.5 Q40 -61 32 -55 Q33 -65 33.5 -74.5 Q34 -84 36 -97 Z " />
<glyph glyph-name="c" unicode="c" horiz-adv-x="271" d="M47 354 Q77 355 102.5 354 Q128 353 151 338 Q166 352 183.5 352.5 Q201 353 218 349 Q234 346 245.5 335 Q257 324 262 304 Q254 298 252.5 289.5 Q251 281 253 270 Q257 244 259 218.5 Q261 193 263 167 Q263 156 259 145 Q248 159 234.5 170.5 Q221 182 208.5 195 Q196 208 186.5 223.5 Q177 239 176 261 Q168 247 161 237 Q154 227 149 216 Q147 212 147 207 Q147 202 147 197 Q145 161 138 126.5 Q131 92 114 58 Q123 48 133.5 43.5 Q144 39 155.5 37 Q167 35 178.5 34 Q190 33 202 32 Q209 41 214.5 46.5 Q220 52 226 54 Q232 56 241 56.5 Q250 57 266 56 Q254 42 243 30 Q232 18 220 5 Q224 2 227.5 -1 Q231 -4 236 -8 Q235 -19 228 -23.5 Q221 -28 213 -30 Q188 -36 164.5 -34.5 Q141 -33 119 -17 Q110 -11 100 -6 Q90 -1 79 5 Q80 0 80 -4 Q80 -8 81 -13 Q71 -15 65.5 -15 Q60 -15 56 -13 Q52 -11 48.5 -6.5 Q45 -2 41 6 Q31 24 21 41.5 Q11 59 7 78 Q3 99 4 121.5 Q5 144 10 165 Q18 200 28 233 Q38 266 49 300 Q53 312 55.5 325 Q58 338 47 354 Z M212 -16 L209 -13 Q204 -15 200.5 -16.5 Q197 -18 192 -20 Q193 -21 193 -22 Q193 -23 194 -24 Q199 -22 203 -20 Q207 -18 212 -16 Z " />
<glyph glyph-name="d" unicode="d" horiz-adv-x="364" d="M334 594 Q344 579 349.5 563.5 Q355 548 349 528 Q345 515 347.5 500.5 Q350 486 353 472 Q358 451 358 430 Q358 409 354 387 Q349 355 344.5 322.5 Q340 290 335 258 Q331 228 323 197 Q320 185 316 161.5 Q312 138 307.5 112.5 Q303 87 298.5 63.5 Q294 40 290 28 Q285 11 279 -5 Q273 -21 269 -38 Q267 -44 262 -49.5 Q257 -55 251 -64 Q249 -50 248.5 -40 Q248 -30 247 -19 L236 -63 Q228 -47 223 -34 Q218 -21 211 -9 Q203 5 203 24 Q203 43 203 61 Q203 72 205 94 Q207 116 209 140 Q211 164 213 185.5 Q215 207 216 218 Q217 238 200 250 Q182 262 164 274 Q146 286 127 300 Q125 298 123 295 Q121 292 121 289 Q122 268 121.5 236 Q121 204 120.5 169.5 Q120 135 119.5 103.5 Q119 72 120 51 Q121 39 122 27.5 Q123 16 123 4 Q124 -7 128 -13 Q132 -19 143 -21 Q153 -23 162.5 -24 Q172 -25 181 -27 Q190 -29 199 -30.5 Q208 -32 217 -37 L121 -70 Q123 -76 124.5 -82 Q126 -88 128 -94 L122 -97 Q117 -90 111.5 -82.5 Q106 -75 100 -67 Q83 -71 71.5 -63 Q60 -55 52 -38 Q47 -27 37.5 -18 Q28 -9 23 2 Q15 22 11 53.5 Q7 85 7 118.5 Q7 152 10 184 Q13 216 18 237 Q21 251 23 265.5 Q25 280 28 295 Q30 303 34.5 309.5 Q39 316 50 313 Q54 312 57.5 309 Q61 306 67 302 Q74 303 78.5 309.5 Q83 316 88 322.5 Q93 329 100 333 Q107 337 119 334 Q159 299 218 282 Q222 310 225 337.5 Q228 365 232 391 Q238 433 243.5 475 Q249 517 256 559 Q258 568 255 577.5 Q252 587 263 594 L334 594 Z " />
<glyph glyph-name="e" unicode="e" horiz-adv-x="260" d="M219 41 Q227 29 226 18.5 Q225 8 222 -3 Q220 -8 220 -13.5 Q220 -19 218 -25 Q189 -46 157 -43.5 Q125 -41 93 -32 Q82 -28 73 -19 Q64 -10 53 -3 Q41 5 32 13 Q23 21 25 38 Q26 42 23 47 Q8 72 3.5 96.5 Q-1 121 2 145 Q5 169 12.5 192.5 Q20 216 29 240 Q37 263 49.5 283.5 Q62 304 74 325 Q89 352 113.5 357.5 Q138 363 162 345 Q177 334 191 321.5 Q205 309 219 297 Q233 284 238.5 268 Q244 252 246 233 Q248 210 241.5 189.5 Q235 169 224 149 Q222 146 219 143.5 Q216 141 213 139 Q205 133 195.5 127.5 Q186 122 187 108 Q187 105 183.5 102 Q180 99 177 97 Q156 82 131 66 Q115 55 120 37 Q122 28 129 25 Q136 22 144 21 Q161 19 176 23 Q191 27 219 41 Z M144 313 Q146 303 148.5 293.5 Q151 284 153 274 Q156 254 158.5 233 Q161 212 163 192 Q164 183 162 175 Q160 167 152 159 Q145 153 142.5 143 Q140 133 136 125 Q138 123 140 122.5 Q142 122 144 120 Q152 131 161 140.5 Q170 150 178 161 Q192 179 196.5 201 Q201 223 196.5 244 Q192 265 178.5 283.5 Q165 302 144 313 Z " />
<glyph glyph-name="f" unicode="f" horiz-adv-x="302" d="M236 215 Q239 205 232.5 203 Q226 201 221 198 Q207 189 192 182 Q177 175 164 164 Q156 157 152.5 144.5 Q149 132 145 121 Q143 116 143.5 110 Q144 104 144 96 Q151 95 156.5 94.5 Q162 94 167 94 Q167 88 166 88 Q160 87 155 86.5 Q150 86 143 85 Q138 56 133 29 Q128 2 123 -26 Q120 -47 116 -68 Q112 -89 107 -110 Q104 -118 97 -124.5 Q90 -131 82 -141 Q81 -133 81 -129 Q81 -125 81 -120 L63 -120 Q50 -149 37 -177 Q24 -205 10 -236 Q4 -225 4 -215.5 Q4 -206 5 -197 Q9 -164 13.5 -131.5 Q18 -99 16 -66 Q15 -32 17.5 0.5 Q20 33 22 64 Q30 126 38 187 Q46 248 60 308 Q66 332 69 356.5 Q72 381 76 406 Q78 415 75.5 425 Q73 435 71 446 Q86 450 101 452.5 Q116 455 134 449 Q146 444 151 436.5 Q156 429 158 418 Q159 407 160 396 Q161 385 163 373 Q177 385 183 391.5 Q189 398 193.5 403 Q198 408 205 413 Q212 418 229 428 Q267 434 303.5 433 Q340 432 376 421 Q373 417 370.5 413.5 Q368 410 365 406 Q355 406 343.5 406.5 Q332 407 318 407 Q329 399 336.5 392 Q344 385 355 377 Q347 376 343 375.5 Q339 375 334 375 Q322 375 309.5 377 Q297 379 284.5 380.5 Q272 382 260.5 381 Q249 380 239 374 Q225 366 220 362 Q215 358 211.5 354 Q208 350 203.5 343.5 Q199 337 187 322 Q178 307 170 290.5 Q162 274 171 251 Q179 253 186 254 Q193 255 201 257 Q203 255 203 254 Q203 253 202.5 253 Q202 253 202 252 Q201 250 200.5 249.5 Q200 249 199 247 Q210 249 220.5 250 Q231 251 242 253 Q243 252 243 250 Q237 246 230 242.5 Q223 239 215 234 Q216 225 221 216 Q231 216 236 215 Z " />
<glyph glyph-name="g" unicode="g" horiz-adv-x="376" d="M167 -72 Q162 -72 159.5 -65 Q157 -58 154.5 -50 Q152 -42 149.5 -35 Q147 -28 142 -27 Q124 -24 110.5 -16 Q97 -8 89 10 Q81 26 69.5 40.5 Q58 55 49 70 Q32 99 25 130 Q18 161 22 194 Q27 220 33 246 Q39 272 44 298 Q46 308 45.5 318.5 Q45 329 46 342 Q72 338 96 333.5 Q120 329 142 315 Q176 330 211 325 Q246 320 284 309 Q276 305 274 303 Q283 295 294 290.5 Q305 286 317 282 Q329 278 340.5 272 Q352 266 362 255 Q352 254 343.5 253 Q335 252 326 251 Q333 234 339 216.5 Q345 199 336 177 Q334 183 332 188.5 Q330 194 328 199 Q316 193 313 184.5 Q310 176 310 166.5 Q310 157 309.5 148 Q309 139 302 133 Q300 174 288.5 201 Q277 228 258 243.5 Q239 259 214.5 263 Q190 267 162 262 Q152 229 140 196.5 Q128 164 123 123 Q128 136 132 144.5 Q136 153 139 161 Q142 161 144 159 Q143 151 142.5 143 Q142 135 138 127 Q133 113 132.5 104.5 Q132 96 136 90 Q140 84 148 79 Q156 74 169 68 Q173 66 178 65 Q183 64 189 62 Q190 72 190 80.5 Q190 89 191 98 Q191 103 190 109.5 Q189 116 191 121 Q193 130 198 134.5 Q203 139 214 136 Q232 131 249.5 125.5 Q267 120 285 113 Q292 110 298.5 102.5 Q305 95 310.5 86 Q316 77 319 67 Q322 57 322 49 Q321 36 308 17 Q295 -2 279 -22 Q263 -42 250 -61.5 Q237 -81 236 -94 Q246 -96 251 -98 Q256 -100 260 -102 Q264 -104 269.5 -105.5 Q275 -107 286 -109 Q315 -114 321.5 -124.5 Q328 -135 318 -164 Q304 -168 296 -168.5 Q288 -169 281 -167.5 Q274 -166 266 -164 Q258 -162 245 -161 Q243 -161 240.5 -160.5 Q238 -160 236 -160 Q218 -155 203 -158 Q188 -161 179 -180 Q178 -175 177.5 -168.5 Q177 -162 177 -152 Q168 -162 162 -169.5 Q156 -177 149 -186 Q146 -181 143 -176 Q140 -171 136 -165 Q128 -167 120 -183 Q112 -199 105.5 -218.5 Q99 -238 94.5 -256.5 Q90 -275 88 -282 Q101 -288 124.5 -293.5 Q148 -299 174.5 -303 Q201 -307 225 -310.5 Q249 -314 262 -315 Q280 -317 287.5 -318.5 Q295 -320 301 -321.5 Q307 -323 315 -324 Q323 -325 341 -325 Q386 -325 430.5 -323 Q475 -321 520 -320 Q520 -322 519 -325 Q518 -328 515 -329 Q500 -334 484.5 -338 Q469 -342 453 -347 Q461 -357 465 -366 Q451 -368 439 -370 Q427 -372 415 -375 Q414 -387 409 -394 Q404 -401 391 -403 Q360 -404 329.5 -405 Q299 -406 269 -407 Q261 -407 253.5 -407.5 Q246 -408 238 -414 Q231 -419 229 -421 Q227 -423 225.5 -423.5 Q224 -424 221 -423.5 Q218 -423 209 -423 Q197 -423 178.5 -422 Q160 -421 140.5 -419.5 Q121 -418 102.5 -415.5 Q84 -413 72 -411 Q61 -409 57.5 -406.5 Q54 -404 52.5 -402.5 Q51 -401 48.5 -401 Q46 -401 36 -404 Q27 -406 20 -400 Q4 -391 -12.5 -381 Q-29 -371 -45 -359 Q-56 -352 -59 -341 Q-62 -330 -61 -319 Q-60 -308 -54 -286 Q-48 -264 -40 -240.5 Q-32 -217 -24 -196 Q-16 -175 -10 -167 Q-5 -158 1 -149 Q7 -140 8 -129 Q11 -111 33 -104 Q60 -94 96.5 -86.5 Q133 -79 166 -79 Q167 -77 166.5 -75.5 Q166 -74 167 -72 Z M80 -285 Q81 -277 85.5 -258 Q90 -239 95 -218.5 Q100 -198 104 -180 Q108 -162 110 -154 Q92 -156 78 -160.5 Q64 -165 55 -181 Q60 -184 62 -199.5 Q64 -215 65.5 -232.5 Q67 -250 70 -265.5 Q73 -281 80 -285 Z M179 -15 Q178 -13 178 -11 Q178 -9 177 -7 Q172 -8 166.5 -7.5 Q161 -7 155 -8 Q155 -11 157 -13 Q162 -14 167.5 -14.5 Q173 -15 179 -15 Z M443 -353 L440 -344 Q431 -345 420 -350 Q420 -351 422 -355 Q427 -354 432.5 -354 Q438 -354 443 -353 Z " />
<glyph glyph-name="h" unicode="h" horiz-adv-x="375" d="M284 -56 Q278 -48 275 -45 Q274 -50 273.5 -55.5 Q273 -61 272 -67 Q251 -60 239.5 -45 Q228 -30 218 -11 Q194 32 192.5 76.5 Q191 121 199 168 Q202 184 206.5 200.5 Q211 217 202 234 Q190 230 177.5 221 Q165 212 155 200.5 Q145 189 138.5 176 Q132 163 131 151 Q129 137 129.5 123 Q130 109 128 95 Q127 85 126.5 76 Q126 67 115 59 Q109 55 107 45 Q105 35 102 25 Q96 26 89 22.5 Q82 19 77 30 Q63 22 58 11.5 Q53 1 51.5 -11 Q50 -23 49.5 -35 Q49 -47 46 -59 Q44 -54 42.5 -49 Q41 -44 40 -39 Q35 -4 29.5 31 Q24 66 20 101 Q17 124 19.5 147.5 Q22 171 26 195 Q30 219 33.5 242.5 Q37 266 37 290 Q37 337 45.5 383 Q54 429 62 476 Q64 491 69.5 509 Q75 527 76 543 Q76 559 75.5 575 Q75 591 74 608 Q110 619 136.5 601.5 Q163 584 168 546 Q171 525 173 501.5 Q175 478 180 457 Q183 441 179.5 425 Q176 409 177 393 Q178 374 173 355 Q168 336 162 317 Q156 298 151 279 Q146 260 147 241 Q164 248 180.5 254 Q197 260 213 267 Q232 276 254.5 275.5 Q277 275 297.5 267 Q318 259 335 244.5 Q352 230 362 211 Q370 197 370 181.5 Q370 166 360 152 Q358 148 357 144.5 Q356 141 354 137 Q349 116 343 94.5 Q337 73 327 53 L327 75 Q322 70 319 68 Q316 66 315 64 Q313 51 311 39 Q309 27 307 14 Q306 8 305.5 2 Q305 -4 301 -9 Q292 -19 290.5 -29.5 Q289 -40 292 -53 Q290 -54 284 -56 Z " />
<glyph glyph-name="i" unicode="i" horiz-adv-x="167" d="M135 180 Q130 145 121.5 112.5 Q113 80 91 51 Q86 44 84.5 35 Q83 26 72 22 Q66 20 61.5 15 Q57 10 48 13 Q46 14 42.5 10 Q39 6 36 4 Q35 10 33.5 17 Q32 24 31 32 Q14 28 9 15.5 Q4 3 -3 -9 Q-3 -5 -3.5 -3 Q-4 -1 -4 1 Q-5 5 -3 13 Q-1 52 0 90.5 Q1 129 5 167 Q7 189 13 210 Q19 231 24 251 Q28 268 28 284.5 Q28 301 17 318 Q36 333 56 326 Q75 318 87.5 312.5 Q100 307 109 299.5 Q118 292 126 280 Q134 268 144 249 Q142 229 140 212.5 Q138 196 135 180 Z M125 353 Q107 352 94.5 357 Q82 362 73.5 371.5 Q65 381 59 393 Q53 405 47 418 Q41 435 41.5 451 Q42 467 58 482 Q69 480 80 479 Q91 478 104 476 Q109 459 112 444 Q115 429 113 410 Q112 404 116 397.5 Q120 391 124 384 Q128 377 129.5 369 Q131 361 125 353 Z " />
<glyph glyph-name="j" unicode="j" horiz-adv-x="239" d="M-111 -303 Q-97 -283 -85.5 -262.5 Q-74 -242 -60 -223 Q-17 -168 6 -108 Q29 -48 39 20 Q47 81 60.5 141 Q74 201 85 261 Q89 278 92 301 Q69 301 57 302 Q45 303 36.5 306 Q28 309 18 316 Q8 323 -10 337 Q11 342 21.5 342 Q32 342 41 340.5 Q50 339 61 337.5 Q72 336 94 339 Q100 344 101.5 349.5 Q103 355 102 361 Q101 367 98 373 Q95 379 94 385 Q119 396 139 390.5 Q159 385 176 373 Q193 362 203.5 347.5 Q214 333 210 308 Q206 285 209.5 261 Q213 237 216 213 Q221 171 216.5 130.5 Q212 90 204 48 Q196 0 183.5 -46 Q171 -92 152 -137 Q148 -147 145 -156.5 Q142 -166 129 -171 Q125 -173 123 -179.5 Q121 -186 117 -191 Q101 -193 87 -197 Q73 -201 67 -221 Q66 -224 64 -227.5 Q62 -231 60 -231 Q51 -231 45 -235.5 Q39 -240 34.5 -246 Q30 -252 26 -259 Q22 -266 17 -272 L17 -254 Q-7 -262 -29 -267 Q-27 -259 -24 -251 Q-21 -243 -18 -232 Q-40 -239 -53.5 -253 Q-67 -267 -81 -279 Q-89 -286 -96.5 -291.5 Q-104 -297 -112 -303 L-111 -303 Z " />
<glyph glyph-name="k" unicode="k" horiz-adv-x="281" d="M116 177 Q140 179 159 187.5 Q178 196 196 204 Q215 211 233 217 Q251 223 271 225 Q262 215 250.5 209 Q239 203 227.5 196.5 Q216 190 206 181.5 Q196 173 189 159 Q192 134 195 107 Q198 80 204 53 Q211 27 221 2 Q231 -23 241 -51 Q233 -49 229 -47.5 Q225 -46 220 -44 Q220 -45 218 -47 Q223 -54 228.5 -60.5 Q234 -67 240 -73 Q224 -78 214 -71.5 Q204 -65 196 -56 Q171 -30 150 -1.5 Q129 27 116 61 Q113 69 109 76 Q105 83 102 93 Q93 77 86.5 60 Q80 43 73.5 26.5 Q67 10 58 -5.5 Q49 -21 34 -34 Q33 -29 33 -24 Q33 -19 31 -12 Q25 -20 19 -26 Q13 -32 6 -40 Q5 -33 4 -29 Q3 -25 4 -21 Q7 -4 12.5 13 Q18 30 16 47 Q15 58 17 68.5 Q19 79 21 89.5 Q23 100 24 110.5 Q25 121 24 131 Q21 148 26 163.5 Q31 179 26 195 Q31 205 31.5 215 Q32 225 31.5 235 Q31 245 30.5 255 Q30 265 34 275 Q42 295 45.5 314.5 Q49 334 54 354 Q61 386 68 417.5 Q75 449 82 481 Q92 533 103 589 Q105 593 108.5 597 Q112 601 117 603 Q143 614 163 588 Q185 562 190.5 532 Q196 502 188 467 Q180 430 172.5 393 Q165 356 157 318 Q151 287 144 256.5 Q137 226 124 197 Q122 194 121 189.5 Q120 185 116 177 Z " />
<glyph glyph-name="l" unicode="l" horiz-adv-x="146" d="M64 -37 Q53 -27 49.5 -16 Q46 -5 45 6.5 Q44 18 43 29.5 Q42 41 36 51 Q18 46 16 68 Q12 117 6.5 164.5 Q1 212 3 261 Q5 287 4 313 Q3 339 4 365 Q6 413 9 459 Q12 505 14 553 L14 598 Q24 600 34 602.5 Q44 605 55 604 Q63 604 72 600 Q81 596 83 591 Q90 572 100 555 Q110 538 111 517 Q112 488 115 459 Q118 430 120 401 Q121 393 119.5 384 Q118 375 117 366 Q116 361 116 355 Q116 349 118 344 Q126 326 122 310.5 Q118 295 107 281 Q98 272 98 264 Q95 238 92.5 213.5 Q90 189 87 163 Q85 149 83 135.5 Q81 122 79 108 Q77 98 76.5 88.5 Q76 79 74 70 Q72 59 69 47.5 Q66 36 65 25 Q63 11 63.5 -4.5 Q64 -20 64 -37 Z " />
<glyph glyph-name="m" unicode="m" horiz-adv-x="479" d="M464 56 Q462 59 459.5 62 Q457 65 453 69 Q445 43 437 18 Q429 -7 421 -32 Q419 -40 415 -47 Q411 -54 401 -52 Q396 -50 393 -43 Q390 -36 386 -31 Q383 -28 381 -25 Q379 -29 376.5 -32.5 Q374 -36 371 -41 Q327 93 336 237 Q328 236 324.5 233 Q321 230 320 225.5 Q319 221 319.5 216.5 Q320 212 320 208 Q319 200 317 192 Q315 184 310 176 Q308 181 306 186.5 Q304 192 302 197 Q303 152 298 108 Q293 64 289 15 Q284 26 281.5 33.5 Q279 41 276 50 Q272 45 269.5 41 Q267 37 263 34 Q248 21 231.5 27 Q215 33 209 55 Q203 78 198.5 102 Q194 126 196 151 Q197 165 196 179 Q195 193 194 209 Q184 207 177 205.5 Q170 204 162 202 L162 171 Q151 173 145 170 Q139 167 134.5 161 Q130 155 127 147 Q124 139 120 130 Q116 139 113.5 144.5 Q111 150 109 155 Q107 153 106 152.5 Q105 152 103 150 Q101 144 101 141 Q102 122 101 104.5 Q100 87 81 73 Q74 68 72.5 56.5 Q71 45 69 35 Q67 27 67.5 17.5 Q68 8 67 -3 Q62 4 59 8 Q56 12 51 19 Q47 -7 24 -12 Q22 24 18 60 Q14 96 11 132 Q8 168 8.5 204.5 Q9 241 15 278 Q18 293 18.5 309 Q19 325 17 341 Q16 354 21.5 358 Q27 362 37 362 Q71 362 95 336 Q109 320 123.5 304 Q138 288 154 271 Q161 282 169 292.5 Q177 303 183 315 Q190 328 204 331 Q218 333 232.5 336 Q247 339 262 341 Q298 342 302 307 Q305 283 327 287 Q336 299 350.5 307.5 Q365 316 381.5 319.5 Q398 323 415 321 Q432 319 446 312 Q464 301 467.5 290.5 Q471 280 465 258 Q461 242 466 227 Q474 204 474.5 182 Q475 160 471 137 Q468 117 469 97.5 Q470 78 470 58 Q468 57 467 57 Q466 57 464 56 Z " />
<glyph glyph-name="n" unicode="n" horiz-adv-x="396" d="M119 -66 Q112 -58 107.5 -52 Q103 -46 98 -40 Q93 -49 88.5 -56.5 Q84 -64 79 -72 Q74 -39 66.5 -7 Q59 25 51.5 57.5 Q44 90 38.5 122 Q33 154 33 187 Q33 201 31.5 214 Q30 227 25 240 Q20 254 12 266.5 Q4 279 -4 293 Q4 301 15 303 Q26 305 39 303 Q59 301 79.5 299 Q100 297 120 298 Q130 299 137 296 Q144 293 150 288.5 Q156 284 161.5 278.5 Q167 273 174 270 Q173 259 171.5 249 Q170 239 170.5 229 Q171 219 175.5 210 Q180 201 190 192 Q204 207 217 222.5 Q230 238 244 254 Q253 264 266.5 271.5 Q280 279 295 283 Q310 287 324 287 Q338 287 348 281 Q370 269 387.5 251.5 Q405 234 411 205 Q405 204 401.5 199 Q398 194 394 189 Q390 184 384 180 Q378 176 368 177 Q362 142 354.5 104 Q347 66 339 24 Q334 32 330.5 36 Q327 40 324 45 Q311 16 302.5 -15.5 Q294 -47 290 -83 Q283 -78 279.5 -75 Q276 -72 272 -70 Q270 -69 267 -72 Q264 -75 259 -78 Q248 -5 241.5 66 Q235 137 248 210 Q237 197 224.5 185 Q212 173 201 160 Q197 155 195.5 148 Q194 141 192 134 Q190 127 190.5 119.5 Q191 112 190 99 Q185 108 181.5 113 Q178 118 175 123 Q161 113 153 100 Q145 87 147 68 Q147 57 146 46.5 Q145 36 140 26 Q126 -10 125 -50 Q125 -53 123 -56.5 Q121 -60 119 -66 Z M153 253 L149 253 Q150 247 150 241 Q150 235 151 230 L153 230 L153 253 Z " />
<glyph glyph-name="o" unicode="o" horiz-adv-x="365" d="M91 373 Q113 373 130 372.5 Q147 372 164 373 Q202 374 232.5 357 Q263 340 289 313 Q325 275 336 229 Q347 183 334 132 Q329 113 320 96 Q311 79 303 62 Q302 60 299 57.5 Q296 55 294 56 Q286 60 283 58.5 Q280 57 278 53.5 Q276 50 274 45 Q272 40 268 38 Q265 40 261.5 43 Q258 46 252 51 Q244 41 237 31.5 Q230 22 222 13 Q216 6 203 2 Q193 -2 183.5 -4 Q174 -6 164 -9 Q143 -15 124.5 -9.5 Q106 -4 92 10 Q50 56 19 107 Q11 121 7.5 137.5 Q4 154 5 170 Q9 221 25 267 Q41 313 74 353 Q86 366 91 373 Z M226 84 Q228 86 230.5 88 Q233 90 233 92 Q232 110 235 127 Q238 144 240 161 Q245 186 240.5 210.5 Q236 235 231 258 Q226 278 217 296.5 Q208 315 188 329 Q187 323 187 319.5 Q187 316 186 312 Q183 296 181.5 279 Q180 262 172 249 Q158 228 148 207 Q134 181 128 156 Q122 131 126 102 Q132 54 176 67 Q189 71 201 75 Q213 79 226 84 Q228 72 222 64.5 Q216 57 208 50 Q203 45 197.5 40.5 Q192 36 186 31 Q200 22 203 21 Q206 20 211 25 Q238 50 226 84 Z " />
<glyph glyph-name="p" unicode="p" horiz-adv-x="312" d="M109 132 Q92 67 81 4.5 Q70 -58 75 -123 L60 -123 Q55 -130 54.5 -138 Q54 -146 53 -154.5 Q52 -163 50 -171.5 Q48 -180 41 -189 Q36 -161 32.5 -137 Q29 -113 24 -89 L16 -101 Q14 -82 12.5 -65.5 Q11 -49 10 -33 Q9 -16 8 1 Q7 18 12 32 Q17 47 16 62 Q15 77 18 91 Q23 114 23.5 136.5 Q24 159 25 182 Q27 223 29 262.5 Q31 302 32 342 Q34 376 33 410.5 Q32 445 32 482 Q46 488 63.5 487.5 Q81 487 98 482 Q120 475 114 450 Q113 445 112.5 441 Q112 437 112 432 Q111 427 111 421.5 Q111 416 111 405 Q119 413 123.5 417 Q128 421 132 426 Q158 458 191.5 468 Q225 478 263 473 Q281 471 285 465 Q289 459 290 440 Q292 415 293.5 390 Q295 365 297 340 Q299 325 298.5 310.5 Q298 296 290 281 Q283 269 281 254.5 Q279 240 277 226 Q274 206 261.5 193 Q249 180 238 164 Q236 161 230.5 161 Q225 161 221 159 Q213 154 205.5 149.5 Q198 145 191 140 Q184 135 178.5 132 Q173 129 165 135 Q164 136 162 136 Q158 138 156 135 Q154 132 151.5 129 Q149 126 146 125 Q143 124 137 130 Q133 134 125 132.5 Q117 131 109 132 Z M187 434 Q170 414 155.5 395.5 Q141 377 127 360 Q123 354 124 352 Q127 344 126.5 337.5 Q126 331 123.5 324.5 Q121 318 118.5 311.5 Q116 305 116 298 Q116 290 118.5 283 Q121 276 120 269 Q118 255 115 240.5 Q112 226 110 212 Q109 204 109.5 195 Q110 186 110 178 Q121 178 123.5 183.5 Q126 189 132 193 Q155 207 173 226 Q191 245 196 274 Q208 340 199 407 Q199 413 195.5 419 Q192 425 187 434 Z " />
<glyph glyph-name="q" unicode="q" horiz-adv-x="312" d="M29 302 Q28 298 28 294.5 Q28 291 27 286 Q48 287 41 307 Q52 308 61 305.5 Q70 303 78 298.5 Q86 294 94 289 Q102 284 111 282 Q118 280 124.5 277 Q131 274 138 273 Q153 271 167 268.5 Q181 266 188 247 Q198 264 199 277 Q200 290 194 311 Q203 313 212 316.5 Q221 320 230 320 Q241 321 249.5 316 Q258 311 260 297 Q261 290 263 284 Q265 278 265 271 Q268 202 274.5 135 Q281 68 276 -1 Q273 -42 269.5 -81.5 Q266 -121 263 -161 Q261 -178 261 -195 Q261 -212 259 -229 Q256 -257 253 -284 Q250 -311 247 -339 Q246 -344 243.5 -348.5 Q241 -353 238 -360 Q221 -334 209 -307 Q197 -280 194 -250 Q189 -203 184.5 -157 Q180 -111 177 -64 Q176 -48 178.5 -32.5 Q181 -17 183 0 Q163 -13 145 -25 Q127 -37 106 -43 Q100 -45 95 -49 Q90 -53 85 -57 Q71 -68 63 -65 Q55 -62 48 -45 Q44 -36 39.5 -26.5 Q35 -17 30 -9 Q12 17 6 44 Q0 71 3 101 Q8 140 9.5 179.5 Q11 219 14 258 Q15 270 17 281 Q19 292 21 303 Q26 303 29 302 Z M86 265 Q85 264 79 260 Q86 204 85.5 148.5 Q85 93 74 37 Q106 28 132.5 36.5 Q159 45 186 51 Q188 91 190 128 Q192 165 194 202 Q138 233 86 265 Z " />
<glyph glyph-name="r" unicode="r" horiz-adv-x="241" d="M136 224 Q118 223 105 229.5 Q92 236 82 246 Q72 256 64.5 268.5 Q57 281 50 293 Q27 328 38 371 Q41 380 39 390 Q37 400 36 411 Q68 415 97 409.5 Q126 404 150 380 Q155 375 156.5 367.5 Q158 360 160 353 Q164 344 160 338.5 Q156 333 150 328 Q147 326 145.5 323.5 Q144 321 142 319 Q125 290 128.5 280 Q132 270 165 259 Q179 255 194 251 Q209 247 215 228 Q217 223 219 218.5 Q221 214 220 209 Q214 168 210 127.5 Q206 87 187 50 Q185 47 185.5 43 Q186 39 184 39 Q173 36 167.5 30 Q162 24 159 16.5 Q156 9 153.5 0.5 Q151 -8 148 -15 Q138 -34 129 -53 Q120 -72 111 -92 Q104 -109 98.5 -126 Q93 -143 97 -165 Q114 -168 130.5 -171.5 Q147 -175 166 -180 Q160 -184 154.5 -188 Q149 -192 140 -200 Q154 -202 165 -202.5 Q176 -203 187 -205 Q170 -216 150.5 -216.5 Q131 -217 113 -218 Q110 -218 104 -216 Q100 -214 95 -215 Q90 -216 85 -216 Q80 -216 76 -214 Q72 -212 70 -204 Q68 -195 64 -185 Q60 -175 55 -164 Q41 -163 35 -153 Q29 -143 27 -127 Q22 -95 30 -67 Q38 -39 47 -10 Q50 0 51 10 Q52 20 63 27 Q65 28 66 31.5 Q67 35 68 37 Q73 73 89.5 104 Q106 135 122 167 Q128 181 133 194.5 Q138 208 136 224 Z " />
<glyph glyph-name="s" unicode="s" horiz-adv-x="331" d="M106 231 Q135 245 160.5 251 Q186 257 214 255 Q244 253 262 240.5 Q280 228 289 200 Q291 195 292.5 190.5 Q294 186 296 182 Q313 150 312.5 118.5 Q312 87 304 55 Q298 30 280.5 16.5 Q263 3 248 -13 Q233 -13 218.5 -17 Q204 -21 189.5 -26 Q175 -31 160 -35 Q145 -39 128 -39 Q134 -33 138 -29.5 Q142 -26 145 -23 Q125 -15 106.5 -18 Q88 -21 69 -23 Q52 -24 34.5 -20 Q17 -16 0 -13 Q-3 -13 -4 -10.5 Q-5 -8 -5.5 -5 Q-6 -2 -7.5 0.5 Q-9 3 -14 4 Q-21 6 -27.5 10 Q-34 14 -42 8 Q-44 21 -44 27.5 Q-44 34 -41.5 37.5 Q-39 41 -33 43 Q-27 45 -16 48 Q22 58 57.5 72 Q93 86 127 106 Q133 110 139.5 112.5 Q146 115 152 119 Q166 127 177 138.5 Q188 150 192 167 Q198 193 183.5 208 Q169 223 144 215 Q133 212 121 206.5 Q109 201 104 192 Q90 172 75.5 171 Q61 170 43 178 Q42 190 40 201 Q38 212 21 214 Q19 214 17.5 218 Q16 222 16 225 Q17 239 15.5 253.5 Q14 268 13 282 Q12 296 14 310 Q16 324 23 338 Q25 343 25.5 349 Q26 355 30 358 Q36 363 43.5 366.5 Q51 370 58 370 Q73 368 88 364.5 Q103 361 117 355 Q132 349 135.5 335.5 Q139 322 133 307 Q126 290 120 272 Q114 254 106 231 Z " />
<glyph glyph-name="t" unicode="t" horiz-adv-x="271" d="M41 -51 Q46 17 50 81 Q54 145 59 211 Q44 216 34.5 220.5 Q25 225 18.5 229.5 Q12 234 6.5 240.5 Q1 247 -5 257 Q15 259 33 260 Q51 261 70 263 Q74 273 79.5 298 Q85 323 91.5 355 Q98 387 104.5 422 Q111 457 115.5 488 Q120 519 123 542 Q126 565 125 573 Q145 574 163 570.5 Q181 567 195 552 Q198 549 200 543 Q202 537 200 533 Q190 514 193.5 495 Q197 476 199 458 Q204 413 202 370 Q200 327 195 283 Q194 270 192.5 257.5 Q191 245 189 232 Q194 230 200.5 226 Q207 222 217 216 Q204 211 195.5 208 Q187 205 177 201 Q175 193 173 184 Q171 175 169 165 Q161 134 152 102.5 Q143 71 124 44 Q120 37 118.5 28.5 Q117 20 114 10 Q109 15 106 17.5 Q103 20 99 24 Q91 16 89 6 Q87 -4 85 -17 Q95 -15 103 -13 Q111 -11 118 -8 Q157 10 191 35 Q225 60 251 95 Q268 119 294 148 Q297 122 289 104.5 Q281 87 268 72 Q253 54 236.5 37.5 Q220 21 198 10 Q181 2 166.5 -7.5 Q152 -17 135 -26 Q133 -28 129.5 -29.5 Q126 -31 123 -33 Q103 -37 83.5 -41.5 Q64 -46 41 -51 Z " />
<glyph glyph-name="u" unicode="u" horiz-adv-x="344" d="M268 -64 Q265 -58 261.5 -52 Q258 -46 253 -35 Q249 -47 247 -54.5 Q245 -62 240 -73 Q226 -53 219.5 -32 Q213 -11 205 10 Q184 3 164.5 -3 Q145 -9 125 -13 Q118 -15 110 -12 Q102 -9 95 -6 Q44 32 28 83.5 Q12 135 20 195 Q22 217 25.5 238.5 Q29 260 30 281 Q32 292 32.5 302.5 Q33 313 27 324 Q22 332 28.5 341.5 Q35 351 43 350 Q69 345 96.5 343.5 Q124 342 148 328 Q183 310 197 273 Q180 261 172 244.5 Q164 228 162 207 Q160 187 156 168 Q152 149 143 131 Q133 103 129.5 75 Q126 47 124 18 Q136 15 145.5 17.5 Q155 20 164 23.5 Q173 27 182 31.5 Q191 36 200 38 Q199 68 203 96.5 Q207 125 213.5 153 Q220 181 227.5 209 Q235 237 242 265 Q266 270 289.5 263 Q313 256 334 243 Q343 238 348.5 226 Q354 214 362 201 Q340 190 329 176.5 Q318 163 321 141 Q321 139 319 135.5 Q317 132 316 130 Q312 122 308.5 115.5 Q305 109 303 101 Q296 71 288.5 43.5 Q281 16 275 -13 Q273 -26 273 -38.5 Q273 -51 272 -65 Q271 -65 270 -64.5 Q269 -64 268 -64 Z " />
<glyph glyph-name="v" unicode="v" horiz-adv-x="359" d="M146 77 Q155 93 159 107.5 Q163 122 166.5 136.5 Q170 151 174 165.5 Q178 180 187 195 Q203 224 209 255.5 Q215 287 214 317 Q232 323 252 325 Q272 327 290.5 324.5 Q309 322 323.5 315 Q338 308 344 296 Q333 280 324 263 Q315 246 318 228 Q310 213 304.5 197.5 Q299 182 292 166.5 Q285 151 275.5 136 Q266 121 250 108 Q233 95 218 80 Q203 65 187 49 Q176 38 164.5 25.5 Q153 13 141 1 Q136 -4 131.5 -9 Q127 -14 116 -16 Q105 -18 104.5 -28.5 Q104 -39 105 -50 Q101 -48 97 -48 Q93 -48 92 -46 Q96 -20 87 0.5 Q78 21 72 43 Q62 80 57 118 Q52 156 49 195 Q47 222 44 249 Q41 276 22 299 Q30 304 37.5 308 Q45 312 52 314 Q62 316 72 314 Q82 312 90.5 306.5 Q99 301 104.5 293.5 Q110 286 111 277 Q116 251 122 224 Q128 197 132 170 Q136 149 138 127 Q140 105 143 83 Q143 81 144.5 80 Q146 79 146 77 Z " />
<glyph glyph-name="w" unicode="w" horiz-adv-x="521" d="M294 60 Q308 71 319.5 80 Q331 89 343 98 Q349 99 349.5 94.5 Q350 90 351 85.5 Q352 81 354 77.5 Q356 74 365 76 Q353 119 354.5 161.5 Q356 204 357 247 L357 327 Q357 329 356.5 330 Q356 331 356 332 Q357 336 362.5 341 Q368 346 375 350 Q382 354 390 356 Q398 358 404 358 Q416 356 424.5 347 Q433 338 430 325 Q425 294 430 265 Q435 236 437 207 Q438 193 440 179 Q442 165 443.5 150.5 Q445 136 445 122 Q445 108 441 94 Q439 89 440 83.5 Q441 78 442 69 Q453 75 463 80 Q473 85 484 91 Q489 84 494.5 78 Q500 72 503 64 Q510 45 498.5 27 Q487 9 466 4 Q458 2 451 0 Q444 -2 437 -2 Q426 -2 419 7 Q408 21 396.5 35 Q385 49 372 65 Q362 58 351 51 Q340 44 330 36 Q318 24 304 21.5 Q290 19 275 20 Q271 20 267 22 Q251 33 235.5 44 Q220 55 203 67 Q201 62 197 59.5 Q193 57 188.5 54 Q184 51 182 47 Q180 43 183 35 Q183 33 180 30.5 Q177 28 175 27 Q164 24 153 21 Q142 18 131 17.5 Q120 17 109.5 20.5 Q99 24 88 35 Q75 47 66.5 55.5 Q58 64 52.5 72 Q47 80 43.5 89.5 Q40 99 36 115 Q24 168 19.5 220.5 Q15 273 10 327 Q9 338 7 349 Q5 360 3 372 Q20 376 38.5 377 Q57 378 75 368 Q90 360 100.5 349 Q111 338 118 321 Q133 286 135 250 Q137 214 136 177 Q135 154 133.5 131 Q132 108 131 85 Q130 77 132 69 Q134 61 135 52 Q146 50 154 53.5 Q162 57 169 63 Q176 69 182 75 Q188 81 196 86 Q178 139 183 190 Q188 241 199 293 Q203 310 205.5 328 Q208 346 211 366 Q216 365 221.5 365 Q227 365 231 363 Q246 352 260.5 340.5 Q275 329 290 318 Q304 307 307 292 Q310 277 308 261 Q305 213 301.5 163.5 Q298 114 294 60 Z " />
<glyph glyph-name="x" unicode="x" horiz-adv-x="281" d="M151 95 Q142 81 135 70 Q128 59 121 48 Q116 52 112 54.5 Q108 57 103 60 Q97 48 92 36.5 Q87 25 81 11 Q78 17 76 22 Q74 27 72 33 Q67 26 63.5 20.5 Q60 15 55 8 Q48 12 40 15 Q32 18 30 23 Q27 30 27.5 39 Q28 48 30 56 Q45 149 63 242 Q65 251 65 258.5 Q65 266 57 270 Q41 278 35.5 291.5 Q30 305 23 319 Q17 330 11.5 342 Q6 354 0 368 Q9 368 15 366.5 Q21 365 27.5 357 Q34 349 43 332.5 Q52 316 69 285 Q74 294 76.5 300.5 Q79 307 80.5 314 Q82 321 82.5 330 Q83 339 83 354 Q83 381 88.5 386 Q94 391 120 383 Q135 379 149.5 371.5 Q164 364 176 354 Q194 339 198 318.5 Q202 298 197 276 Q191 247 185 219.5 Q179 192 174 163 Q172 156 175 147.5 Q178 139 183 133 Q200 109 217.5 86 Q235 63 252 40 Q257 33 260.5 25 Q264 17 269 9 Q267 8 264 5 Q258 8 252 11.5 Q246 15 237 20 Q239 9 241 1 Q243 -7 246 -18 Q214 5 194 34 Q174 63 151 95 Z " />
<glyph glyph-name="y" unicode="y" horiz-adv-x="323" d="M118 100 Q107 101 98 88 Q84 67 69.5 46.5 Q55 26 31 9 Q14 28 6 51 Q-2 74 2 103 Q9 149 15.5 194 Q22 239 28 285 Q30 296 30 306.5 Q30 317 30 330 Q43 338 56 338.5 Q69 339 81 334 Q102 327 97 302 Q91 265 85.5 229 Q80 193 74 157 Q71 140 67.5 124 Q64 108 60 91 Q71 89 79.5 96.5 Q88 104 97 109 Q117 120 126.5 135 Q136 150 142 169 Q148 195 157.5 219.5 Q167 244 176 269 Q181 285 186.5 300.5 Q192 316 198 332 Q227 343 251 337.5 Q275 332 287 310 Q290 306 289 299.5 Q288 293 286 288 Q278 267 274 247 Q270 227 276 207 Q276 204 276 200.5 Q276 197 274 193 Q266 165 257.5 137 Q249 109 240 81 Q237 69 234 57 Q231 45 229 33 Q227 28 224.5 23 Q222 18 218 13 Q207 -1 195.5 -22.5 Q184 -44 174 -67.5 Q164 -91 156 -113 Q148 -135 143 -151 Q142 -155 140.5 -159.5 Q139 -164 136 -166 Q122 -175 117 -187.5 Q112 -200 107 -212 Q104 -220 101.5 -227 Q99 -234 95 -241 Q91 -246 85 -249.5 Q79 -253 74 -258 Q62 -270 56.5 -283.5 Q51 -297 47 -311 Q46 -314 44.5 -317 Q43 -320 42 -323 Q37 -320 37 -319 Q40 -291 40 -264 Q40 -237 48 -208 Q56 -179 62.5 -150.5 Q69 -122 74 -93 Q78 -75 84 -50.5 Q90 -26 96.5 -0.5 Q103 25 109 49 Q115 73 118 91 Q118 93 118.5 95.5 Q119 98 118 100 Z " />
<glyph glyph-name="z" unicode="z" horiz-adv-x="260" d="M122 334 Q107 334 93.5 335 Q80 336 67 334 Q35 329 13 348 Q15 358 21.5 361 Q28 364 35 366 Q55 373 76 373.5 Q97 374 117 372 Q123 372 129 373.5 Q135 375 141 375 Q158 377 171 374 Q183 371 195 368 Q207 365 219 360 Q224 358 228.5 353.5 Q233 349 233 344 Q236 326 234.5 309 Q233 292 223 276 Q212 257 201.5 239 Q191 221 180 202 Q167 177 155 152 Q143 127 129 101 Q142 104 155 108.5 Q168 113 180.5 116 Q193 119 206.5 120 Q220 121 234 116 Q229 104 221 102.5 Q213 101 205 99 Q175 94 148.5 80.5 Q122 67 96 53 Q87 48 80.5 38 Q74 28 66 21 Q46 5 37 -19 Q38 -13 38.5 -6.5 Q39 0 39 6 Q31 12 22 12.5 Q13 13 2 5 Q3 8 3.5 11.5 Q4 15 6 18 Q20 41 26 66.5 Q32 92 37 118 Q40 134 43 149.5 Q46 165 52 179 Q65 211 79 242.5 Q93 274 107 306 Q110 313 114 319.5 Q118 326 122 334 Z " />
<glyph glyph-name="one" unicode="1" horiz-adv-x="270" d="M82 485 Q39 471 9 508 Q20 518 30 527 Q40 536 51 545 Q59 551 66.5 556 Q74 561 80 567 Q103 589 128.5 596 Q154 603 174 592 Q185 586 195 573.5 Q205 561 211.5 546 Q218 531 220 515.5 Q222 500 218 487 Q209 458 204.5 429 Q200 400 198.5 370.5 Q197 341 196 311.5 Q195 282 193 253 Q189 201 183 150 Q177 99 171 47 Q169 37 162 26 Q155 15 147 -1 Q141 16 133.5 31 Q126 46 128 59 Q129 66 122.5 69 Q116 72 110.5 74.5 Q105 77 104 81.5 Q103 86 114 95 Q115 96 112.5 100 Q110 104 107.5 109 Q105 114 104.5 120.5 Q104 127 110 133 Q98 141 95.5 152 Q93 163 93 177 Q91 188 86.5 199 Q82 210 82 221 Q80 248 81 276 Q82 304 82 331 L82 485 Z " />
<glyph glyph-name="two" unicode="2" horiz-adv-x="531" d="M108 167 Q113 178 117.5 187 Q122 196 127 204 Q158 242 189.5 280 Q221 318 252 357 Q257 362 261.5 368.5 Q266 375 268 382 Q272 396 277.5 412 Q283 428 278 439 Q258 487 221 521 Q212 529 202 531.5 Q192 534 181.5 533 Q171 532 160.5 528 Q150 524 140 520 Q120 511 114.5 496.5 Q109 482 111 461 Q113 447 108 433 Q103 419 98 405 Q91 391 81 378 Q71 365 61 349 Q54 351 46 351.5 Q38 352 29 354 Q20 374 18 402.5 Q16 431 20.5 460 Q25 489 36 514 Q47 539 63 552 Q73 561 87.5 565.5 Q102 570 115 568 Q131 567 143.5 570 Q156 573 170 580 Q197 594 226 594.5 Q255 595 284 592 Q307 588 324 566.5 Q341 545 346 521 Q351 501 357.5 482 Q364 463 381 446 Q401 426 403 397 Q405 368 400 342 Q395 318 383 294 Q371 270 349 253 Q325 234 302 214.5 Q279 195 256 175 Q248 168 239 162.5 Q230 157 221 151 Q211 142 200.5 133 Q190 124 182 112 Q218 111 253 115 Q288 119 323 122 Q358 125 394 124 Q430 123 466 112 Q464 106 462 102 Q460 98 458 92 Q466 91 473.5 89 Q481 87 491 85 L484 78 Q429 54 370.5 45 Q312 36 253 29 Q217 24 181 24 Q145 24 108 21 Q96 19 83 15.5 Q70 12 58 7 Q43 2 29 3.5 Q15 5 -2 21 Q12 39 24 56 Q38 73 49.5 88 Q61 103 63 128 Q64 141 76.5 155 Q89 169 110 169 Q108 167 107.5 165 Q107 163 105 161 Q105 160 106 159 L108 157 Q117 164 125 170.5 Q133 177 142 184 Q137 187 136 191 Q128 186 121.5 179.5 Q115 173 108 167 Z " />
<glyph glyph-name="three" unicode="3" horiz-adv-x="480" d="M266 570 Q289 544 310 516 Q331 488 334 451 Q336 441 334 431 Q332 421 328 411 Q324 394 317 378.5 Q310 363 305 346 Q329 338 349.5 331.5 Q370 325 390 318 Q409 311 416.5 300 Q424 289 424 269 Q425 237 415 207 Q405 177 402 145 Q402 136 395 127 Q381 114 365.5 102.5 Q350 91 347 68 Q346 63 334.5 58 Q323 53 320 55 Q307 62 297 62 Q287 62 278.5 57.5 Q270 53 262.5 46.5 Q255 40 247 35 Q177 -14 104 25 Q91 31 77 34 Q63 37 49 40 Q34 45 22 53 Q10 61 3 80 Q17 90 32.5 94.5 Q48 99 65 97 Q72 94 80 94 Q104 92 122 94 Q140 96 153.5 104 Q167 112 177.5 126 Q188 140 198 163 Q203 172 206 181 Q209 190 214 198 Q238 240 207 280 Q204 274 200.5 269 Q197 264 195 259 Q181 261 167.5 263 Q154 265 137 267 Q139 282 146 293 Q153 304 162 313 Q171 322 180.5 331 Q190 340 198 351 Q200 353 204 355.5 Q208 358 208 360 Q205 372 206.5 384 Q208 396 209.5 408.5 Q211 421 210.5 433 Q210 445 204 457 Q192 477 174.5 488 Q157 499 129 500 Q121 480 112.5 460.5 Q104 441 98 419 Q93 393 83 370 Q73 347 52 330 Q47 326 39.5 326.5 Q32 327 28 324 Q23 321 21 314 Q19 307 17 302 Q14 302 11.5 303 Q9 304 7 304 Q9 321 9.5 337.5 Q10 354 13 372 Q16 399 20.5 425 Q25 451 30 479 Q37 514 72 526 Q83 530 93 536.5 Q103 543 113 549 Q125 556 137 564 Q149 572 161 578 Q187 592 212.5 593 Q238 594 263 574 Q265 573 265 572 Q265 571 266 570 Z " />
<glyph glyph-name="four" unicode="4" horiz-adv-x="481" d="M309 -2 Q308 1 307 4.5 Q306 8 308 11 Q309 41 304 69.5 Q299 98 282 123 Q270 143 269 163 Q268 183 273 205 Q277 217 276.5 229 Q276 241 278 254 Q251 245 224 237 Q197 229 171 221 Q151 213 136 219.5 Q121 226 109 241 Q94 258 76.5 275.5 Q59 293 46 313 Q34 331 25 352 Q16 373 12 394 Q7 414 8.5 434.5 Q10 455 9 475 Q7 497 6.5 518 Q6 539 3 562 Q-2 603 35 599 Q64 597 91.5 589.5 Q119 582 140 559 Q154 544 166 528 Q178 512 191 496 Q194 490 197 482.5 Q200 475 200 468 Q198 439 194 409 Q190 379 188 350 Q187 340 188.5 330.5 Q190 321 191 311 L281 311 Q284 342 288 374.5 Q292 407 295 442 Q300 476 303.5 510.5 Q307 545 312 583 Q319 585 329 590 Q339 595 347 592 Q360 585 370 574 Q380 563 391 553 Q395 550 396.5 544.5 Q398 539 401 535 Q424 511 430 484 Q436 457 431 423 Q427 386 420.5 349.5 Q414 313 407.5 276 Q401 239 396.5 202.5 Q392 166 391 129 Q391 116 381 104 Q375 117 374 130 Q373 143 374 156 Q375 169 376 182 Q377 195 375 209 Q370 193 365 177 Q360 161 355 145 Q350 125 346 104.5 Q342 84 336 64 Q336 62 335 59 Q334 56 335 54 Q347 42 346.5 34 Q346 26 339 20 Q332 14 323 9 Q314 4 309 -2 Z " />
<glyph glyph-name="five" unicode="5" horiz-adv-x="523" d="M217 529 Q219 517 221 508 Q223 499 222 490 Q220 472 218.5 455.5 Q217 439 201 425 Q192 416 187.5 401.5 Q183 387 180 372 Q194 375 204.5 383.5 Q215 392 225.5 400 Q236 408 248 414 Q260 420 277 419 Q290 418 304 420 Q318 422 331.5 424.5 Q345 427 359 428 Q373 429 388 426 Q416 419 440 408.5 Q464 398 483 380 Q478 367 473.5 357.5 Q469 348 467 338 Q458 302 450 266 Q442 230 434 194 Q431 175 423.5 158.5 Q416 142 401 126 Q384 110 372 90.5 Q360 71 356 46 Q356 37 347 28.5 Q338 20 329 9 Q326 21 322.5 29 Q319 37 316 48 Q314 44 311 41.5 Q308 39 307 37 Q306 33 306.5 28.5 Q307 24 305.5 19.5 Q304 15 300.5 12 Q297 9 288 9 Q285 22 285 36 Q253 30 222 24.5 Q191 19 160.5 17.5 Q130 16 99 21 Q68 26 38 42 Q66 55 97 60.5 Q128 66 159.5 71.5 Q191 77 221.5 86.5 Q252 96 280 117 Q275 159 270 202.5 Q265 246 249 289 Q216 280 196.5 276 Q177 272 162.5 273.5 Q148 275 132.5 282 Q117 289 92 303 Q97 310 100.5 317 Q104 324 110 335 Q99 342 88.5 348 Q78 354 69 363 Q57 373 54 390 Q49 413 47.5 436 Q46 459 42 483 Q39 506 32 525 Q25 544 2 553 Q12 580 25.5 590.5 Q39 601 68 600 Q129 598 190 595.5 Q251 593 313 591 Q330 590 344.5 585 Q359 580 373.5 572.5 Q388 565 402.5 556.5 Q417 548 434 541 Q406 528 378.5 526.5 Q351 525 324 527.5 Q297 530 270.5 532 Q244 534 217 529 Z " />
<glyph glyph-name="six" unicode="6" horiz-adv-x="496" d="M349 5 Q347 15 345 26 Q343 37 341 52 Q317 37 292 31 Q267 25 242.5 24 Q218 23 193 24.5 Q168 26 144 26 Q128 25 114.5 30.5 Q101 36 90 45.5 Q79 55 71 67 Q63 79 57 91 Q28 148 13.5 208.5 Q-1 269 7 333 Q16 393 36 455 Q46 490 71.5 518 Q97 546 130 565 Q163 584 200.5 592 Q238 600 273 596 Q304 593 321 571.5 Q338 550 331 520 Q327 506 330 496 Q333 486 337 473 Q342 457 343 439 Q344 421 346 402 Q325 409 313 423 Q301 437 291.5 453.5 Q282 470 273 486.5 Q264 503 250 516 Q237 514 230.5 507 Q224 500 229 487 Q236 464 231 445 Q226 426 215 406 Q208 390 203 373 Q198 356 192 339 Q196 339 200.5 338 Q205 337 209 339 Q240 358 273.5 358.5 Q307 359 340 359 Q380 359 401 323 Q418 291 427.5 259 Q437 227 427 190 Q422 176 419.5 162.5 Q417 149 428 135 Q432 133 430 126 L361 3 Q358 3 355.5 4 Q353 5 349 5 Z M277 97 Q287 134 296 169.5 Q305 205 312 240 Q316 255 314.5 270.5 Q313 286 311 303 Q306 334 274 316 Q249 306 224 295 Q199 284 176 272 Q176 258 177 244 Q178 230 176 216 Q166 165 190 132 Q214 99 277 97 Z " />
<glyph glyph-name="seven" unicode="7" horiz-adv-x="406" d="M218 531 Q193 537 169 538.5 Q145 540 122.5 542 Q100 544 78 549.5 Q56 555 35 568 Q47 583 61.5 587.5 Q76 592 92 593 Q143 595 192.5 596 Q242 597 293 599 Q312 600 327.5 595 Q343 590 355.5 580 Q368 570 378 557 Q388 544 398 529 Q383 513 371.5 496 Q360 479 355 456 Q350 439 333.5 425 Q317 411 302 399 Q270 373 248 340 Q226 307 205 273 Q185 243 167.5 213 Q150 183 133 152 Q117 122 103.5 91 Q90 60 76 26 Q61 22 43.5 16 Q26 10 5 2 Q5 18 3.5 36.5 Q2 55 3 73 Q7 128 22.5 178 Q38 228 61.5 274.5 Q85 321 114 364.5 Q143 408 173 451 Q187 469 196.5 489 Q206 509 218 531 Z " />
<glyph glyph-name="eight" unicode="8" horiz-adv-x="411" d="M31 48 Q31 39 31.5 29.5 Q32 20 32 9 Q29 10 24.5 9.5 Q20 9 18 10 Q8 30 2 48 Q-28 125 -14 178.5 Q0 232 64 282 Q81 295 97 308.5 Q113 322 131 338 Q123 349 117 356 Q111 363 105 370 Q96 383 86 394 Q76 405 69 419 Q60 434 57 445 Q54 456 55.5 466 Q57 476 64 485.5 Q71 495 83 506 Q105 529 126.5 552 Q148 575 171 599 L173 595 Q174 592 176 592 Q190 593 202.5 595.5 Q215 598 229 599 Q235 600 239.5 596.5 Q244 593 248.5 589.5 Q253 586 258.5 582.5 Q264 579 273 580 Q288 581 302.5 572.5 Q317 564 328 550.5 Q339 537 346.5 520 Q354 503 354 487 Q354 449 343.5 414.5 Q333 380 310 349 Q302 338 294 324.5 Q286 311 276 296 Q314 260 333 216 Q352 172 360 120 Q365 93 357.5 70.5 Q350 48 341 26 Q339 20 329.5 15 Q320 10 316 12 Q299 20 283 21 Q267 22 250.5 20 Q234 18 218 15 Q202 12 186 12 Q174 10 161.5 8.5 Q149 7 136 6 Q105 2 79 11.5 Q53 21 31 48 Z M222 253 Q192 211 164 171.5 Q136 132 107 91 Q127 80 145.5 78.5 Q164 77 182.5 80 Q201 83 219.5 87 Q238 91 258 91 Q256 134 251 174.5 Q246 215 222 253 Z M206 525 Q204 520 200 513 Q196 506 191 499 Q183 491 174.5 483.5 Q166 476 159 467 Q153 460 151 450 Q149 440 149.5 429.5 Q150 419 154 409.5 Q158 400 165 395 Q190 377 220 410 Q226 416 231 421 Q236 426 241 432 Q261 457 271 483.5 Q281 510 273 541 Q255 536 239 533 Q223 530 206 525 Z " />
<glyph glyph-name="nine" unicode="9" horiz-adv-x="415" d="M187 324 Q177 323 171.5 322 Q166 321 160 320 Q165 315 170 309.5 Q175 304 174 302 Q165 291 156 277 Q147 263 135 258 Q119 251 99 253.5 Q79 256 60.5 264.5 Q42 273 26.5 286.5 Q11 300 4 315 Q-1 326 1 345 Q9 403 28.5 456 Q48 509 97 549 Q104 554 109 560 Q114 566 118 570 Q132 573 146 574 Q160 575 171 580 Q194 594 214.5 596 Q235 598 263 586 Q293 572 317.5 555 Q342 538 363 514 Q372 503 376.5 496.5 Q381 490 380.5 484 Q380 478 375.5 470.5 Q371 463 363 449 Q354 435 351 417 Q348 399 344 381 Q337 347 333.5 312.5 Q330 278 322 243 Q313 198 289 163 Q265 128 237 95 Q223 77 207.5 62 Q192 47 181 28 Q171 13 158 7 Q145 1 129 1 Q116 1 103 1 Q90 1 76 3 Q42 7 32.5 21 Q23 35 29 73 Q55 83 81.5 93.5 Q108 104 134 114 Q149 121 157 131.5 Q165 142 166 162 Q168 191 173.5 219.5 Q179 248 184 277 Q185 287 185 298.5 Q185 310 187 324 Z M197 376 L197 552 Q183 547 173.5 544 Q164 541 157 536 Q145 522 133.5 506.5 Q122 491 112 474 Q103 457 94.5 440.5 Q86 424 82 405 Q76 364 118 364 Q138 364 157.5 368 Q177 372 197 376 Z " />
<glyph glyph-name="zero" unicode="0" horiz-adv-x="535" d="M358 43 Q358 51 359 60 Q360 69 363 86 Q345 69 332.5 58.5 Q320 48 310 37 Q304 30 297.5 24 Q291 18 284 14.5 Q277 11 268.5 12.5 Q260 14 250 22 Q225 17 204 20 Q183 23 164.5 32 Q146 41 129.5 54.5 Q113 68 97 83 Q93 85 86 84 Q79 83 68 83 Q76 69 82 59.5 Q88 50 94 40 Q90 36 90 35 Q85 40 78.5 44 Q72 48 67 54 Q19 125 10.5 200.5 Q2 276 22 355 Q37 414 63 468 Q111 570 224 598 Q233 600 238.5 597.5 Q244 595 248 591.5 Q252 588 255.5 585 Q259 582 265 582 Q306 585 340 570 Q374 555 400.5 530.5 Q427 506 446 475.5 Q465 445 475 417 Q480 403 477 387.5 Q474 372 472 356 Q466 287 450.5 220 Q435 153 404 91 Q396 77 387 62 Q378 47 358 43 Z M250 557 Q208 492 181 426 Q154 360 137 290 Q126 250 126 210 Q126 170 140 130 Q152 97 179 89 Q206 81 232 105 Q252 123 266 144 Q280 165 286 193 Q291 216 295.5 240.5 Q300 265 308 288 Q324 330 324.5 372.5 Q325 415 320 458 Q317 490 302 516.5 Q287 543 250 557 Z " />
<glyph glyph-name="slash" unicode="&#x2f;" horiz-adv-x="323" d="M4 2 Q6 27 11 44 Q37 144 72 240 Q107 336 148 431 Q155 448 161.5 464.5 Q168 481 174 498 Q178 512 183.5 522 Q189 532 206 535 Q213 537 218 544.5 Q223 552 228 559 Q233 567 236.5 576.5 Q240 586 247 600 Q251 549 246.5 504.5 Q242 460 225 420 Q189 327 152 236.5 Q115 146 78 53 Q68 30 51 17 Q34 4 4 2 Z " />
<glyph glyph-name="period" unicode="&#x2e;" horiz-adv-x="146" d="M40 0 Q25 10 17 17 Q9 24 5.5 30.5 Q2 37 3 43.5 Q4 50 8 59 Q14 75 22.5 87 Q31 99 51 96 Q64 94 73.5 87 Q83 80 86 63 Q87 52 86.5 44 Q86 36 81 29 Q76 22 66 15.5 Q56 9 40 0 Z " />
<glyph glyph-name="comma" unicode="&#x2c;" horiz-adv-x="156" d="M142 -37 Q116 -29 92.5 -15 Q69 -1 50 16 Q31 33 19 52.5 Q7 72 3 91 Q33 97 61 88.5 Q89 80 109 61.5 Q129 43 138.5 17.5 Q148 -8 142 -37 Z " />
<glyph glyph-name="colon" unicode="&#x3a;" horiz-adv-x="261" d="M156 380 Q168 380 177.5 374 Q187 368 193 359.5 Q199 351 201 340.5 Q203 330 199 321 Q193 305 178.5 294 Q164 283 146.5 278 Q129 273 111.5 275.5 Q94 278 81 289 Q65 303 65.5 324 Q66 345 84 354 Q102 365 121 370 Q140 375 156 380 Z M148 98 Q162 94 173.5 88 Q185 82 185 64 Q187 48 185 33 Q183 18 166 9 Q151 0 136 4 Q121 8 110 19 Q98 32 89.5 48 Q81 64 70 79 Q92 96 110.5 99 Q129 102 148 98 Z " />
<glyph glyph-name="semicolon" unicode="&#x3b;" horiz-adv-x="271" d="M69 125 Q86 113 105.5 106 Q125 99 144 91 Q163 83 179.5 72 Q196 61 206 41 L206 -50 Q195 -42 184.5 -34.5 Q174 -27 163 -19 Q152 -10 141.5 -0.5 Q131 9 120.5 18 Q110 27 98 34 Q86 41 71 45 Q48 50 40 69.5 Q32 89 38 118 Q47 120 55.5 123.5 Q64 127 69 125 Z M146 292 Q132 290 115.5 289.5 Q99 289 79 287 Q77 307 75.5 324.5 Q74 342 71 362 Q88 367 103.5 372.5 Q119 378 133 380 Q153 384 167.5 374 Q182 364 184 345 Q184 327 176.5 311.5 Q169 296 146 292 Z " />
<glyph glyph-name="less" unicode="&#x3c;" horiz-adv-x="438" d="M378 378 Q326 321 274 265.5 Q222 210 165 148 Q228 153 285.5 148.5 Q343 144 403 130 Q391 118 379.5 112 Q368 106 356.5 103.5 Q345 101 333.5 100 Q322 99 311 97 Q305 95 298.5 95 Q292 95 286 93.5 Q280 92 275.5 88 Q271 84 270 75 Q270 73 260 74 Q250 75 242 75 Q225 72 207 70 Q189 68 171 67 Q154 65 138 66 Q122 67 105 64 Q84 62 81.5 53 Q79 44 94 21 Q72 14 60.5 22 Q49 30 41.5 42.5 Q34 55 26 67.5 Q18 80 3 83 Q36 173 91.5 240.5 Q147 308 228 355 Q244 365 261.5 369 Q279 373 299 362 Q304 360 313.5 365 Q323 370 332 373 Q342 376 353.5 379 Q365 382 375 385 Q378 383 378 378 Z " />
<glyph glyph-name="equal" unicode="&#x3d;" horiz-adv-x="521" d="M178 182 Q250 180 319.5 167 Q389 154 462 116 Q402 102 345 90 Q288 78 231.5 73 Q175 68 117.5 70.5 Q60 73 -1 88 Q15 112 32 130 Q49 148 70 160 Q91 172 117 177.5 Q143 183 178 182 Z M359 278 Q336 261 296.5 249.5 Q257 238 208 231.5 Q159 225 105.5 224.5 Q52 224 1 230 Q22 255 61.5 272 Q101 289 150 295.5 Q199 302 253.5 298 Q308 294 359 278 Z " />
<glyph glyph-name="greater" unicode="&#x3e;" horiz-adv-x="468" d="M75 70 Q91 82 106.5 93.5 Q122 105 137 119 Q132 122 127 125.5 Q122 129 114 135 Q124 151 138.5 160.5 Q153 170 168.5 178 Q184 186 199.5 194.5 Q215 203 226 217 Q198 244 162.5 255.5 Q127 267 89 273 Q75 275 60.5 278 Q46 281 33 287 Q24 290 17.5 297.5 Q11 305 3 312 Q4 314 5 316.5 Q6 319 7 322 Q18 320 28 319 Q38 318 49 316 Q68 314 71.5 318.5 Q75 323 74 346 Q74 349 76 353 Q78 357 80 362 Q118 361 152.5 348 Q187 335 220 318 Q242 306 262.5 293 Q283 280 304 268 Q315 260 331 260 Q344 259 356 257 Q368 255 376 241 Q378 236 385 234 Q392 232 397 232 Q416 232 421.5 221 Q427 210 424 197 Q422 186 415.5 174 Q409 162 400 155 Q368 131 332 114 Q296 97 254 91 Q219 86 185 78.5 Q151 71 117 64 Q108 62 98.5 62 Q89 62 80 61 Q78 63 77.5 65.5 Q77 68 75 70 Z " />
<glyph glyph-name="question" unicode="&#x3f;" horiz-adv-x="354" d="M311 488 Q313 458 311.5 428.5 Q310 399 307 370 Q305 341 300 314.5 Q295 288 291 260 Q290 242 282.5 229 Q275 216 263.5 206.5 Q252 197 238 190.5 Q224 184 210 179 Q188 172 175.5 166.5 Q163 161 156 152.5 Q149 144 146.5 130.5 Q144 117 143 94 Q142 87 141 79.5 Q140 72 134 64 Q133 67 131 70.5 Q129 74 128 78 Q126 82 125 86 Q124 90 121 95 Q118 94 114 94 Q110 94 110 92 Q102 78 97 64.5 Q92 51 85 36 Q72 81 77.5 121 Q83 161 104 202 Q117 228 133.5 251.5 Q150 275 174 295 Q187 305 193.5 312.5 Q200 320 201.5 327.5 Q203 335 200.5 344.5 Q198 354 194 370 Q182 412 179 457 Q176 503 137 530 Q117 544 96.5 538 Q76 532 67 509 Q54 477 61.5 458 Q69 439 99 422 Q107 417 117.5 414 Q128 411 142 405 Q127 399 119 395 Q111 391 105.5 387 Q100 383 96 377.5 Q92 372 85 362 Q92 358 98 354.5 Q104 351 112 344 Q55 339 29.5 359.5 Q4 380 1 431 Q0 487 27 537 Q62 605 132 577 Q140 574 145 574 Q150 574 161 579 Q171 583 185 581 Q199 579 210 574 Q230 567 247.5 559 Q265 551 280 538 Q291 529 299.5 515 Q308 501 311 488 Z M135 2 Q148 1 155.5 -4 Q163 -9 168 -16.5 Q173 -24 177.5 -32.5 Q182 -41 188 -50 Q179 -54 172.5 -57 Q166 -60 161 -61 Q153 -63 144 -66 Q135 -69 127 -69 Q109 -67 99 -52.5 Q89 -38 91 -18 Q92 -4 102 0 Q112 4 135 2 Z " />
<glyph glyph-name="D" unicode="D" horiz-adv-x="414" d="M113 -101 Q112 -89 111.5 -78.5 Q111 -68 107 -59 Q104 -51 97.5 -45 Q91 -39 85 -31 Q83 -32 80.5 -34.5 Q78 -37 73 -39 Q71 -22 69 -6.5 Q67 9 65 25 Q55 67 51.5 108.5 Q48 150 46 193 Q43 256 36.5 317.5 Q30 379 24 442 Q22 464 21 484.5 Q20 505 17 527 Q15 538 11 549.5 Q7 561 2 575 Q7 588 15 595 Q23 602 38 597 Q61 589 82.5 580.5 Q104 572 123 560 Q147 545 152.5 521.5 Q158 498 153 473 Q142 423 143 374.5 Q144 326 159 278 Q160 272 160 265 Q160 258 160 251 Q160 239 160.5 226 Q161 213 163 199 Q188 300 200 407 Q204 441 211 473 Q218 505 224 538 Q226 549 228.5 561 Q231 573 234 585 Q248 597 262 596 Q276 595 293 588 Q342 568 363.5 543 Q385 518 386 472 Q387 452 390 431.5 Q393 411 397 391 Q403 354 405 318 Q407 282 396 246 Q393 238 392.5 229 Q392 220 391 212 Q389 194 383 178 Q377 162 363 150 Q354 139 346 127 Q338 115 333 101 Q319 68 294.5 44.5 Q270 21 246 -2 Q229 -19 210 -34.5 Q191 -50 173 -67 Q159 -78 146 -87.5 Q133 -97 113 -101 Z M127 -72 Q146 -54 162 -38 Q178 -22 195 -6 Q197 -4 198.5 -0.5 Q200 3 200 5 Q198 22 206.5 34 Q215 46 223 60 Q246 97 258.5 136.5 Q271 176 274 218 Q277 253 279 291 Q281 329 265 364 Q263 366 263.5 369 Q264 372 265 376 Q269 395 264.5 413.5 Q260 432 254 455 Q251 440 248.5 427.5 Q246 415 244 404 Q240 380 237.5 355 Q235 330 228 305 Q215 256 200 207.5 Q185 159 171 111 Q163 81 154.5 51 Q146 21 134 -7 Q128 -22 125 -36.5 Q122 -51 127 -72 Z " />
<glyph glyph-name="exclam" unicode="&#x21;" horiz-adv-x="240" d="M162 549 Q187 534 184 499 Q176 437 170.5 374.5 Q165 312 157 250 Q149 205 140 162 Q131 119 123 77 Q112 72 103 68 Q94 64 88 59 Q84 54 80.5 56 Q77 58 73 61 Q69 64 65.5 64 Q62 64 59 55 Q56 47 52 39.5 Q48 32 43 23 Q41 26 40 26.5 Q39 27 37 28 Q37 70 36.5 112.5 Q36 155 35 198 Q33 296 47 390.5 Q61 485 90 585 Q112 575 129 567 Q146 559 162 549 Z M4 -19 Q17 -16 26.5 -14.5 Q36 -13 46.5 -14.5 Q57 -16 71.5 -19.5 Q86 -23 110 -30 Q108 -40 106 -49 Q104 -58 103 -66 Q92 -74 77.5 -74 Q63 -74 49 -67 Q35 -60 23 -47.5 Q11 -35 4 -19 Z " />
<glyph glyph-name="quotedbl" unicode="&#x22;" horiz-adv-x="230" d="M64 493 Q75 489 81.5 483.5 Q88 478 91 466 Q99 440 109.5 416.5 Q120 393 128 371 Q117 361 110 355 Q103 349 95 342 Q94 342 90 344 Q86 346 81 348 Q78 343 74 338.5 Q70 334 65 326 Q49 368 33.5 407 Q18 446 2 487 Q32 505 64 493 Z M206 386 Q210 377 211.5 371.5 Q213 366 213 361 Q213 356 210.5 350.5 Q208 345 204 335 Q193 333 183.5 332.5 Q174 332 165 331 Q162 344 158.5 358 Q155 372 150 385.5 Q145 399 136.5 411.5 Q128 424 114 435 Q122 440 129 444 Q136 448 144 452 Q170 463 181 455 Q192 447 196 419 Q198 411 201 402.5 Q204 394 206 386 Z " />
<glyph glyph-name="numbersign" unicode="&#x23;" horiz-adv-x="573" d="M217 390 Q239 393 260.5 395.5 Q282 398 305 402 Q308 427 310.5 451 Q313 475 316 501 Q328 495 338 490 Q348 485 357 480 Q352 460 348.5 443.5 Q345 427 340 409 Q366 405 391.5 408 Q417 411 442.5 413 Q468 415 493.5 412.5 Q519 410 545 397 Q525 385 505.5 381.5 Q486 378 466 375 Q442 370 418 366.5 Q394 363 369 359 Q357 357 350.5 355 Q344 353 341 349.5 Q338 346 337 339.5 Q336 333 336 321 Q335 313 335.5 304 Q336 295 336 285 Q361 287 386.5 290.5 Q412 294 439 297 Q425 248 378 232 Q355 224 343 218.5 Q331 213 325.5 204.5 Q320 196 318.5 182 Q317 168 315 144 Q312 110 302 77 Q292 44 284 11 Q284 9 281 8.5 Q278 8 272 5 Q270 23 269 39 Q268 55 268 71 Q268 95 270 119.5 Q272 144 273 168 Q273 176 271.5 183.5 Q270 191 268 202 Q248 199 228.5 198 Q209 197 190 191 Q179 187 170.5 176 Q162 165 155 155 Q150 148 148.5 139 Q147 130 144 119 L123 119 L123 182 Q88 174 58.5 184 Q29 194 3 220 Q15 233 30 237.5 Q45 242 60.5 244 Q76 246 91.5 248.5 Q107 251 121 259 Q122 271 122 284.5 Q122 298 123 314 Q108 317 92.5 314.5 Q77 312 62 310.5 Q47 309 32.5 311.5 Q18 314 5 327 Q3 342 11.5 348.5 Q20 355 34 358 Q55 362 77.5 366 Q100 370 124 375 Q126 393 128 409 Q130 425 128 441 Q126 451 124 461.5 Q122 472 133 477 Q142 481 155.5 480 Q169 479 179 474 Q191 468 201.5 457 Q212 446 209 426 Q207 418 210.5 409.5 Q214 401 217 390 Z M189 261 Q206 263 219 265 Q232 267 246 267 Q263 266 272 275.5 Q281 285 284 301 Q285 310 284.5 320.5 Q284 331 284 343 Q261 339 240 335.5 Q219 332 199 329 Q196 312 193.5 296 Q191 280 189 261 Z " />
<glyph glyph-name="dollar" unicode="&#x24;" horiz-adv-x="500" d="M434 232 Q454 195 453.5 157.5 Q453 120 444 82 Q441 67 433 56.5 Q425 46 415.5 37 Q406 28 396 19.5 Q386 11 378 2 Q362 2 346.5 -2 Q331 -6 315.5 -11.5 Q300 -17 284 -22 Q268 -27 250 -29 Q250 -38 249.5 -48 Q249 -58 248 -67 Q246 -80 241 -93 Q236 -106 231 -123 Q222 -94 215 -65 Q208 -36 203 -6 Q192 -7 183.5 -8 Q175 -9 165 -9 Q145 -12 124.5 -6.5 Q104 -1 84 2 Q80 2 79 5 Q78 8 77 11 Q76 14 74.5 17 Q73 20 68 21 Q59 23 51.5 28.5 Q44 34 33 27 Q31 42 31 49.5 Q31 57 34 61.5 Q37 66 44.5 68.5 Q52 71 65 75 Q97 83 126.5 93 Q156 103 185 117 Q183 153 181.5 189 Q180 225 180 262 Q154 258 131.5 253.5 Q109 249 105 243 Q90 220 72 218 Q54 216 33 227 Q33 240 30 253 Q27 266 8 269 Q6 269 3 274 Q0 279 2 283 Q2 300 0 317 Q-2 334 -3 350.5 Q-4 367 -2 383.5 Q0 400 9 416 Q11 422 12 429 Q13 436 16 440 Q24 445 33.5 450.5 Q43 456 51 454 Q69 452 87 448.5 Q105 445 121 437 Q139 430 143 413.5 Q147 397 140 380 Q131 360 124 338 Q117 316 107 288 Q119 295 138 299.5 Q157 304 180 307 Q183 360 187 412 Q191 464 196 517 Q210 520 218 512.5 Q226 505 232 489 Q245 448 249.5 405 Q254 362 254 316 Q280 318 302 319.5 Q324 321 336 319 Q373 317 394.5 302.5 Q416 288 427 253 Q429 248 430.5 242.5 Q432 237 434 232 Z M252 -14 Q252 -13 253 -12 Q254 -11 255 -9 Q254 -9 252 -8 L252 -14 Z M311 216 Q314 231 311 243 Q308 255 300 263 Q292 271 280.5 273.5 Q269 276 255 272 L254 272 L254 264 L254 153 Q260 157 264 157 Q281 168 294 181.5 Q307 195 311 216 Z " />
<glyph glyph-name="percent" unicode="&#x25;" horiz-adv-x="432" d="M326 328 Q286 291 261.5 245 Q237 199 216 149 Q212 141 209 138 Q174 87 138 37 Q102 -13 65 -63 Q57 -74 47.5 -82.5 Q38 -91 29 -100 Q27 -98 25 -96.5 Q23 -95 21 -93 Q31 -71 41 -45 Q46 -34 49 -23 Q52 -12 43 2 Q40 6 40.5 14 Q41 22 43 27 Q66 67 83 109 Q100 151 123 190 Q153 244 186 295.5 Q219 347 251 398 Q258 410 270 427 Q278 426 286 425.5 Q294 425 302 423 Q316 418 326.5 406.5 Q337 395 341.5 381 Q346 367 342.5 353 Q339 339 326 328 Z M331 148 Q353 139 366 128 Q379 117 382.5 101.5 Q386 86 380.5 64.5 Q375 43 361 13 Q351 -5 332 -12 Q306 -24 283 -19 Q260 -14 240 2 Q235 25 234.5 43 Q234 61 239 77 Q244 93 254 108 Q264 123 281 140 Q284 140 287.5 139.5 Q291 139 293 137 Q298 132 303 128.5 Q308 125 313 120 Q318 127 322 133.5 Q326 140 331 148 Z M277 62 Q281 67 285 73 Q289 79 292 83 Q287 90 288 90 Q288 90 284 90 Q281 84 277.5 78 Q274 72 270 67 Q272 65 273.5 64.5 Q275 64 277 62 Z M164 365 Q163 341 152 322.5 Q141 304 124 293 Q107 282 85 280 Q63 278 41 288 Q18 299 8 317.5 Q-2 336 4 361 Q9 380 14 399 Q19 418 39 429 Q53 422 65.5 416 Q78 410 92 402 Q99 410 104 416 Q109 422 114 429 Q130 424 140.5 418.5 Q151 413 156.5 406 Q162 399 163.5 389.5 Q165 380 164 365 Z M80 371 Q69 369 63 368 Q57 367 54 364 Q51 361 51 355 Q51 349 51 338 Q59 347 65.5 354 Q72 361 80 371 Z " />
<glyph glyph-name="ampersand" unicode="&#x26;" horiz-adv-x="582" d="M284 244 Q303 229 317 216 Q331 203 346 189 Q361 200 375 210.5 Q389 221 403 232 Q416 242 428.5 253.5 Q441 265 457 278 Q458 270 458 265 Q458 260 459 254 Q467 259 475 261 Q483 263 490 266 Q498 269 505 272.5 Q512 276 518 279 Q520 277 520.5 276 Q521 275 523 274 Q518 267 515 261.5 Q512 256 507 250 Q513 245 519 240 Q525 235 532 232 Q524 212 511.5 198 Q499 184 484 171.5 Q469 159 454 147 Q439 135 427 120 Q444 101 460.5 84.5 Q477 68 491 52 Q490 49 488 45 Q484 46 480 46.5 Q476 47 473 48 Q469 50 464 52.5 Q459 55 452 59 Q453 51 454 45 Q455 39 456 31 Q444 31 433.5 35.5 Q423 40 413 45.5 Q403 51 393.5 56 Q384 61 374 64 Q350 48 326.5 29.5 Q303 11 276 -3 Q242 -20 207 -33 Q172 -46 136 -59 Q130 -61 122 -60.5 Q114 -60 109 -58 Q44 -36 9 19 Q-5 43 -5.5 69.5 Q-6 96 7 120 Q21 145 40.5 167.5 Q60 190 79 211 Q90 223 103 233.5 Q116 244 129 256 Q101 294 79 334 Q57 374 41 416 Q53 427 63.5 434 Q74 441 83 449 Q93 456 114.5 463 Q136 470 160.5 474 Q185 478 207.5 478.5 Q230 479 242 475 Q264 467 281.5 452 Q299 437 309 414 Q314 398 318 382.5 Q322 367 326 350 Q328 335 328.5 320.5 Q329 306 324.5 292.5 Q320 279 310.5 267 Q301 255 284 244 Z M236 129 Q222 132 213.5 133 Q205 134 198 136 Q192 140 188 146.5 Q184 153 177 158 Q171 160 162.5 162 Q154 164 145 156 Q134 146 121 136.5 Q108 127 97 119 Q86 111 81.5 100.5 Q77 90 85 77 Q101 74 115.5 75 Q130 76 146.5 81.5 Q163 87 184 98.5 Q205 110 236 129 Z M138 402 Q151 382 165.5 362.5 Q180 343 204 329 Q206 363 191 380 Q176 397 138 402 Z " />
<glyph glyph-name="quotesingle" unicode="&#x27;" horiz-adv-x="187" d="M88 311 Q80 316 72 321.5 Q64 327 53 334 Q42 366 30 402.5 Q18 439 6 477 Q26 485 44.5 488 Q63 491 78 475 Q84 451 88.5 431 Q93 411 99 393 Q114 349 88 311 Z " />
<glyph glyph-name="parenleft" unicode="&#x28;" horiz-adv-x="354" d="M168 -8 Q159 -13 152 -17.5 Q145 -22 139 -26 L139 -33 Q155 -37 171 -32.5 Q187 -28 202.5 -23 Q218 -18 234.5 -15 Q251 -12 269 -19 Q252 -45 229 -53.5 Q206 -62 182 -65 Q158 -67 132 -66 Q106 -65 80 -65 Q11 28 4 137 Q2 185 4.5 233.5 Q7 282 14 330 Q19 374 42.5 407 Q66 440 106 459 Q140 475 174.5 473 Q209 471 244 467 Q248 441 236 432.5 Q224 424 207 422 Q186 421 170 414 Q154 407 143 388 Q132 371 125 354.5 Q118 338 118 317 Q119 262 116.5 208 Q114 154 112 99 Q111 72 116.5 49.5 Q122 27 151 14 Q156 12 159.5 6 Q163 0 168 -8 Z " />
<glyph glyph-name="parenright" unicode="&#x29;" horiz-adv-x="323" d="M180 -47 Q170 -43 160 -40 Q150 -37 138 -33 Q124 -44 109 -56 Q94 -68 79 -79 Q53 -61 55 -43 Q57 -25 89 5 Q84 9 79.5 10.5 Q75 12 73 17 Q69 21 66.5 27.5 Q64 34 66 37 Q68 42 73 46.5 Q78 51 83 50 Q96 50 107.5 47 Q119 44 132 42 Q134 46 137 49 Q140 52 140 54 Q131 81 129.5 107.5 Q128 134 129.5 161 Q131 188 135 214.5 Q139 241 141 267 Q145 315 143.5 361 Q142 407 122 452 Q107 458 92 452.5 Q77 447 61 442 Q45 437 28 438.5 Q11 440 -7 458 Q16 465 35 470.5 Q54 476 77 481 Q64 485 56 486.5 Q48 488 40 490 Q64 502 88 505.5 Q112 509 133.5 503.5 Q155 498 172.5 484.5 Q190 471 201 449 Q226 400 243 350.5 Q260 301 266.5 250 Q273 199 268 147 Q263 95 244 42 Q235 15 226 -15 Q216 -13 210.5 -16.5 Q205 -20 201 -25.5 Q197 -31 192.5 -37.5 Q188 -44 180 -47 Z " />
<glyph glyph-name="asterisk" unicode="&#x2a;" horiz-adv-x="302" d="M271 324 Q251 336 232.5 347 Q214 358 194 370 Q193 357 193 343.5 Q193 330 189.5 318.5 Q186 307 176 298 Q166 289 146 285 Q144 298 143.5 310 Q143 322 141 336 Q125 328 105 325 Q88 323 78.5 324.5 Q69 326 57 336 Q61 344 71 357 Q43 365 22 383 Q15 388 12.5 399 Q10 410 5 424 Q27 426 47 428 Q67 430 85 432 Q85 434 84.5 435 Q84 436 84 437 Q78 454 78 463.5 Q78 473 86 488 Q94 484 106.5 477.5 Q119 471 133 462 Q134 464 134 467.5 Q134 471 134 474 Q133 490 133.5 499 Q134 508 138.5 512 Q143 516 153.5 515.5 Q164 515 184 514 Q188 503 191 490.5 Q194 478 199 464 Q215 475 229 481.5 Q243 488 252 486 Q240 473 229 461 Q218 449 207 437 Q216 435 230 434 Q244 433 261 431 Q260 409 247.5 402.5 Q235 396 220 391 Q241 371 255 353 Q269 335 271 324 Z " />
<glyph glyph-name="plus" unicode="&#x2b;" horiz-adv-x="363" d="M2 218 Q48 222 85 225.5 Q122 229 160 233 Q162 245 163.5 257 Q165 269 163 281 Q163 301 163.5 312 Q164 323 170 327.5 Q176 332 189 332 Q202 332 226 331 Q232 310 239.5 286 Q247 262 255 233 Q266 232 284 230.5 Q302 229 324 227 Q323 207 314 198 Q305 189 292.5 183.5 Q280 178 266.5 174 Q253 170 242 161 Q239 146 239 127.5 Q239 109 235.5 92.5 Q232 76 220 63 Q208 50 180 45 Q178 64 176 85.5 Q174 107 171 133 Q130 122 92.5 131 Q55 140 23 166 Q16 173 12.5 187 Q9 201 2 218 Z " />
<glyph glyph-name="hyphen" unicode="&#x2d;" horiz-adv-x="321" d="M297 272 Q265 263 234.5 254.5 Q204 246 170 237 Q181 234 188.5 232 Q196 230 204 228 Q167 203 128.5 194 Q90 185 46 205 Q27 213 19 220.5 Q11 228 6 247 Q19 255 43 262 Q67 269 96 274 Q125 279 156.5 282 Q188 285 216 285 Q244 285 265.5 282 Q287 279 297 272 Z " />
<glyph glyph-name="at" unicode="&#x40;" horiz-adv-x="582" d="M517 340 Q506 329 505.5 319 Q505 309 510 295 Q530 239 519.5 188 Q509 137 475 90 Q458 66 436.5 63 Q415 60 392 78 Q374 94 357.5 111 Q341 128 323 147 Q314 146 301 144.5 Q288 143 274 144 Q267 145 259 151 Q251 157 246 163 Q229 186 236.5 216.5 Q244 247 271 278 Q306 283 329.5 274.5 Q353 266 367.5 248.5 Q382 231 389.5 206.5 Q397 182 401 155 Q430 167 440.5 184 Q451 201 446 231 Q441 272 421.5 303 Q402 334 360 352 Q266 392 189 323 Q148 285 133 242 Q118 199 124.5 157.5 Q131 116 158 80 Q185 44 228 20 Q267 -2 308 -7.5 Q349 -13 391 -15 Q405 -15 419 -20.5 Q433 -26 449 -31 Q409 -44 371 -51 Q333 -58 295 -48 Q236 -34 185.5 -9 Q135 16 98 64 Q63 108 53.5 158.5 Q44 209 61 264 Q73 300 90.5 332 Q108 364 146 382 Q155 387 163.5 396 Q172 405 177 414 Q186 432 198 442.5 Q210 453 224.5 459.5 Q239 466 255.5 469.5 Q272 473 290 478 Q276 481 261 483 Q246 485 227 489 Q237 494 242 497 Q247 500 252 502 Q281 513 309 509.5 Q337 506 366 500 Q395 495 416 480.5 Q437 466 452 439 Q459 426 474.5 419 Q490 412 504 404 Q530 391 533 377 Q536 363 517 340 Z M273 194 Q285 205 295.5 214 Q306 223 317 233 Q300 235 291 235.5 Q282 236 277.5 232 Q273 228 272.5 219 Q272 210 273 194 Z M5 171 Q7 119 24 81.5 Q41 44 70 17 Q99 -10 137.5 -29 Q176 -48 220 -61 Q170 -61 129 -44 Q88 -27 59.5 4 Q31 35 16.5 77.5 Q2 120 5 171 Z " />
<glyph glyph-name="backslash" unicode="&#x5c;" horiz-adv-x="352" d="M0 562 Q18 568 30.5 563 Q43 558 55 545 Q95 503 119 453 Q143 403 163 351 Q181 306 199 263 Q217 220 234 175 Q245 146 255.5 116 Q266 86 274 55 Q277 44 275.5 31 Q274 18 273 1 Q217 62 174.5 128 Q132 194 99.5 265 Q67 336 43 410.5 Q19 485 0 562 Z " />
<glyph glyph-name="underscore" unicode="&#x5f;" horiz-adv-x="355" d="M355 -94 Q265 -116 178 -116 Q91 -116 0 -95 Q33 -79 84 -70.5 Q135 -62 188 -61.5 Q241 -61 287 -69.5 Q333 -78 355 -94 Z " />
<glyph glyph-name="asciitilde" unicode="&#x7e;" horiz-adv-x="562" d="M514 221 Q489 179 455.5 155 Q422 131 368 133 Q333 134 299.5 138.5 Q266 143 234 158 Q219 165 202 171 Q151 188 114 152 Q94 134 72 118.5 Q50 103 28 87 Q24 89 19 94 Q23 105 27 116 Q31 127 36 138 Q85 231 178 265 Q191 270 205.5 271.5 Q220 273 234 269 Q259 261 283.5 250 Q308 239 331 225 Q347 215 356.5 209.5 Q366 204 374.5 203.5 Q383 203 392.5 209 Q402 215 417 227 Q428 237 441.5 239.5 Q455 242 468 242 Q480 241 491 234 Q502 227 514 221 Z " />
<glyph glyph-name="asciicircum" unicode="&#x5e;" horiz-adv-x="234" d="M173 390 Q148 431 122.5 472 Q97 513 70 558 Q61 520 49 485.5 Q37 451 18 417 Q13 426 11.5 434 Q10 442 10.5 449.5 Q11 457 12.5 464.5 Q14 472 14 479 Q14 487 16 494.5 Q18 502 7 507 Q6 508 8 513.5 Q10 519 11 524 Q13 535 14.5 546.5 Q16 558 18 569 Q20 579 23.5 588.5 Q27 598 29 609 Q31 623 25.5 625.5 Q20 628 3 623 Q3 638 9.5 643.5 Q16 649 25 651.5 Q34 654 42.5 656.5 Q51 659 56 667 Q154 599 184 486 Q187 474 187 463 Q187 452 177 441 Q175 438 176.5 431.5 Q178 425 178 420 L178 390 L173 390 Z " />
<glyph glyph-name="bar" unicode="&#x7c;" horiz-adv-x="155" d="M26 562 Q46 568 56.5 563 Q67 558 74 545 Q98 503 102 453 Q106 403 106 351 Q106 306 106.5 263 Q107 220 107 175 Q106 146 105 116 Q104 86 99 55 Q97 44 91 31 Q85 18 77 1 Q45 62 28.5 128 Q12 194 8 265 Q4 336 9.5 410.5 Q15 485 26 562 Z " />
<glyph glyph-name="grave" unicode="&#x60;" horiz-adv-x="203" d="M153 543 Q127 551 103.5 565 Q80 579 61 596 Q42 613 30 632.5 Q18 652 14 671 Q44 677 72 668.5 Q100 660 120 641.5 Q140 623 149.5 597.5 Q159 572 153 543 Z " />
<glyph glyph-name="braceleft" unicode="&#x7b;" horiz-adv-x="340" d="M169 -33 Q185 -36 200.5 -31.5 Q216 -27 231.5 -21.5 Q247 -16 263.5 -13.5 Q280 -11 298 -18 Q281 -43 258 -52 Q235 -61 212 -63 Q188 -65 162.5 -64 Q137 -63 111 -63 Q44 29 36 136 L36 146 Q35 158 26 168 Q17 178 9 186 Q1 194 -3.5 201.5 Q-8 209 0 215 Q8 221 14.5 230 Q21 239 27 247 Q33 257 40 268 Q41 283 43 298 Q45 313 47 327 Q52 370 74.5 402.5 Q97 435 137 454 Q170 471 203.5 468.5 Q237 466 272 461 Q276 436 264.5 427.5 Q253 419 236 418 Q216 416 200 409.5 Q184 403 173 384 Q162 367 155 350.5 Q148 334 148 314 Q150 260 147.5 206.5 Q145 153 143 99 Q142 86 142.5 74 Q143 62 147 50.5 Q151 39 159 30 Q167 21 181 14 Q186 12 189.5 6.5 Q193 1 198 -5 Q190 -11 182.5 -15.5 Q175 -20 169 -25 L169 -33 L169 -33 Z " />
<glyph glyph-name="braceright" unicode="&#x7d;" horiz-adv-x="301" d="M294 219 Q303 211 293 201 Q283 191 274 178 Q274 113 250 44 Q245 32 241.5 19 Q238 6 233 -8 Q224 -5 219 -8 Q214 -11 210.5 -16.5 Q207 -22 202.5 -27.5 Q198 -33 191 -36 Q183 -34 173.5 -31 Q164 -28 154 -24 Q140 -35 127 -45 Q114 -55 100 -66 Q75 -49 77 -32.5 Q79 -16 110 11 Q105 14 100.5 15.5 Q96 17 94 22 Q90 27 88 32 Q86 37 88 40 Q89 45 94 49 Q99 53 103 52 Q115 52 126 49 Q137 46 149 44 Q151 47 153.5 50 Q156 53 155 55 Q147 80 145.5 104.5 Q144 129 146 153.5 Q148 178 151 202 Q154 226 156 250 Q160 294 159 336 Q158 378 139 419 Q125 424 111 419 Q97 414 83 410 Q69 406 53.5 407 Q38 408 21 425 Q42 430 59 435 Q76 440 98 446 Q87 449 79 450 Q71 451 64 453 Q107 475 149 465.5 Q191 456 211 416 Q231 377 245.5 338 Q260 299 266 258 Q271 249 278.5 238 Q286 227 294 219 Z " />
<glyph glyph-name="bracketleft" unicode="&#x5b;" horiz-adv-x="269" d="M107 -33 Q123 -37 138.5 -32.5 Q154 -28 169.5 -22.5 Q185 -17 202 -14.5 Q219 -12 237 -19 Q220 -45 197.5 -54 Q175 -63 150 -65 Q115 -66 77 -65 L73 -65 Q52 -65 39 -42 Q26 -19 19 17 Q12 53 9.5 98.5 Q7 144 6.5 188 Q6 232 7 271 Q8 310 8 334 Q8 383 21 408 Q34 433 45 442 Q52 447 59 451.5 Q66 456 74 460 Q106 477 141.5 475 Q177 473 212 467 Q216 441 204 432.5 Q192 424 175 423 Q154 421 138 414.5 Q122 408 110 389 Q99 372 92.5 355.5 Q86 339 86 318 Q86 263 84 208.5 Q82 154 80 100 Q79 73 84.5 50.5 Q90 28 119 14 Q124 12 127.5 6 Q131 0 137 -7 Q128 -12 121 -16.5 Q114 -21 107 -26 L107 -33 L107 -33 Z " />
<glyph glyph-name="bracketright" unicode="&#x5d;" horiz-adv-x="215" d="M101 467 Q127 468 147 437 Q156 424 164 402.5 Q172 381 178.5 349 Q185 317 189 272.5 Q193 228 193 168 Q193 100 189 56.5 Q185 13 178.5 -12 Q172 -37 163 -47 Q154 -57 145 -58 Q115 -66 92 -67 Q82 -68 72.5 -67 Q63 -66 55.5 -63 Q48 -60 44 -54 Q40 -48 40 -39 Q38 -32 41 -23 Q44 -21 51.5 -20.5 Q59 -20 72 -23 Q85 -26 94 -18 Q103 -10 109 4 Q115 18 118.5 35.5 Q122 53 123.5 68 Q125 83 125.5 93.5 Q126 104 126 104 Q128 138 128 175.5 Q128 213 126 245 Q124 282 120 319 Q119 345 114.5 369.5 Q110 394 100 418 Q86 423 72.5 418.5 Q59 414 44.5 409.5 Q30 405 14.5 406 Q-1 407 -17 424 Q4 430 21.5 434.5 Q39 439 59 444 Q48 448 40 449.5 Q32 451 25 453 Q45 462 64 465.5 Q83 469 101 467 Z " />
<glyph glyph-name="A" unicode="A" horiz-adv-x="417" d="M47 -100 Q47 -74 47.5 -52 Q48 -30 46 -7 Q44 29 40.5 65 Q37 101 35 138 Q31 169 30.5 199.5 Q30 230 28 261 Q25 285 21 310 Q17 335 14 359 Q11 389 9 417.5 Q7 446 5 476 Q4 486 6 496.5 Q8 507 10 517 Q12 529 13.5 540.5 Q15 552 7 565 Q3 572 7 578 Q11 584 18 582 Q36 577 52.5 580.5 Q69 584 86 577 Q127 564 132 520 Q139 470 134.5 421 Q130 372 132 323 Q132 316 132.5 308.5 Q133 301 135 296 Q143 266 147 235 Q151 204 144 173 Q144 174 149 162 Q158 194 166.5 223 Q175 252 180 280 Q192 336 200.5 392.5 Q209 449 221 506 Q225 524 228.5 543.5 Q232 563 250 577 Q271 594 291.5 598.5 Q312 603 328 586 Q331 582 334 575 Q337 568 337 563 Q326 526 331 490.5 Q336 455 341 420 Q349 363 356.5 307.5 Q364 252 367 195 Q368 175 369.5 154.5 Q371 134 367 114 L367 94 Q371 64 374 35.5 Q377 7 381 -21 Q377 -26 372.5 -29 Q368 -32 367 -37 Q365 -42 366 -48 Q367 -54 367 -60 Q362 -64 357.5 -65.5 Q353 -67 348 -72 Q347 -68 345.5 -66.5 Q344 -65 344 -63 Q343 -54 338.5 -47.5 Q334 -41 329 -34.5 Q324 -28 319.5 -21.5 Q315 -15 313 -7 Q303 25 296 56.5 Q289 88 280 119 Q277 130 275 142 Q273 154 270 167 Q251 163 235 162.5 Q219 162 202 160 Q191 158 186.5 152.5 Q182 147 178 138 Q167 100 151 66 Q135 32 113 0 Q107 -10 99 -20 Q91 -30 84 -39 Q74 -51 65.5 -64 Q57 -77 54 -93 Q54 -95 51.5 -96.5 Q49 -98 47 -100 Z M265 177 Q260 215 253.5 253.5 Q247 292 240 334 Q228 292 216.5 255 Q205 218 195 182 Q212 182 229 180.5 Q246 179 265 177 Z " />
<glyph glyph-name="B" unicode="B" horiz-adv-x="427" d="M364 204 L287 204 Q301 192 312.5 183.5 Q324 175 333 166 Q342 157 351 147 Q360 137 366 126 Q371 118 374 109 Q377 100 376 90 Q369 45 358.5 2.5 Q348 -40 323 -82 Q321 -82 316.5 -82 Q312 -82 310 -79 Q290 -61 268 -60.5 Q246 -60 221 -69 Q195 -77 168 -84.5 Q141 -92 111 -101 Q114 -87 115 -77 Q116 -67 117 -55 Q115 -55 112 -56 Q109 -57 105 -58 Q99 -52 93 -45 Q87 -38 81 -30 Q76 -25 75 -23 Q68 16 56.5 54.5 Q45 93 45 134 Q45 156 44.5 178 Q44 200 39 221 Q30 279 16 336 Q8 371 3.5 406 Q-1 441 0 477 Q1 507 0.5 537 Q0 567 0 600 Q20 600 39.5 600 Q59 600 78 598 Q94 596 99.5 588 Q105 580 107 563 Q107 555 109.5 546.5 Q112 538 116 533 Q145 492 155 448 Q165 404 164 356 Q161 329 162.5 303 Q164 277 164 251 Q162 237 160 222.5 Q158 208 157 194 Q156 182 156 169.5 Q156 157 155 145 Q172 149 179 158 Q186 167 190 183 Q204 240 211.5 296.5 Q219 353 224 411 Q227 434 231 456 Q235 478 239 499 Q242 516 245.5 533.5 Q249 551 251 568 Q254 588 263 594 Q272 600 293 598 Q316 596 327 582.5 Q338 569 349 554 Q352 550 355 545 Q358 540 362 538 Q390 500 387 454 Q385 410 385.5 366.5 Q386 323 386 278 Q386 258 380.5 240 Q375 222 364 204 Z M142 -40 Q144 -41 145 -42.5 Q146 -44 149 -46 Q155 -27 166.5 -18.5 Q178 -10 192 -5.5 Q206 -1 221 1.5 Q236 4 248 10 Q250 41 252 69.5 Q254 98 260 126 Q264 152 253.5 169 Q243 186 228 207 Q220 190 214.5 178 Q209 166 205 152 Q198 129 194 105.5 Q190 82 183 58 Q178 44 171.5 31 Q165 18 160 5 Q156 -7 151.5 -18 Q147 -29 142 -40 Z M238 243 Q274 276 273 306 Q273 332 271.5 357.5 Q270 383 268 410 Q259 390 254 369.5 Q249 349 246.5 328 Q244 307 242.5 286 Q241 265 238 243 Z " />
<glyph glyph-name="C" unicode="C" horiz-adv-x="441" d="M412 246 Q420 241 425 236 Q430 231 438 223 Q415 222 398 225.5 Q381 229 367 246 Q347 269 336 292 Q325 315 327 347 Q330 391 331 434 Q332 477 337 522 Q329 524 320 527.5 Q311 531 302 535 Q299 515 296 497.5 Q293 480 291 462 Q288 440 285 419 Q282 398 278 376 Q264 311 247 248.5 Q230 186 216 122 Q206 87 197.5 53 Q189 19 178 -15 Q177 -20 176 -25 Q175 -30 174 -40 Q182 -33 188 -29 Q194 -25 197 -20 Q212 -3 227 12.5 Q242 28 259 42 Q295 72 337 96 Q345 102 356 104 Q367 106 378 104 Q415 101 398 60 Q381 62 369 53.5 Q357 45 346 31 Q329 10 311 -9 Q293 -28 275 -50 Q272 -52 268 -55 Q264 -58 260 -60 Q231 -71 202 -81 Q173 -91 144 -101 Q139 -103 134.5 -101.5 Q130 -100 127 -100 Q119 -85 111.5 -70 Q104 -55 99 -39 Q77 23 77 90 Q74 143 65.5 193.5 Q57 244 49 295 Q37 356 24.5 415 Q12 474 11 536 Q11 544 7.5 552.5 Q4 561 2 569 Q17 594 28.5 598 Q40 602 65 590 Q79 583 93.5 576.5 Q108 570 125 563 Q158 549 176.5 523 Q195 497 194 461 Q193 430 190.5 399 Q188 368 183 339 Q171 270 174 204 Q176 178 174.5 152.5 Q173 127 172 101 Q172 92 172.5 83.5 Q173 75 175 64 Q181 83 186.5 101 Q192 119 194 137 Q204 185 211.5 233 Q219 281 227 330 Q232 359 241 386.5 Q250 414 254 443 Q259 475 264 507.5 Q269 540 269 573 Q267 586 278.5 594 Q290 602 304 597 Q309 596 313 592.5 Q317 589 322 585 Q339 577 354.5 569.5 Q370 562 385 554 Q395 549 403.5 545 Q412 541 419 536 Q433 522 436 509.5 Q439 497 429 481 Q410 446 405.5 412 Q401 378 412 340 Q413 335 412.5 329 Q412 323 412 316 Q412 311 410.5 304 Q409 297 413 294 Q424 281 422 269.5 Q420 258 412 246 Z " />
</font>
</svg>
