<?xml version="1.0" encoding="UTF-8"?>
<svg xmlns="http://www.w3.org/2000/svg" xmlns:xlink="http://www.w3.org/1999/xlink" version="1.2" >
<font id="Bettarria">
<font-face  font-family="Bettarria" units-per-em="1000" ascent="750" descent="-250" font-style="normal" font-weight="400" font-stretch="normal" cap-height="700" x-height="500" underline-position="-75" underline-thickness="50" />
<missing-glyph  horiz-adv-x="158" d="" />
<glyph glyph-name="NULL" d="" />
<glyph glyph-name="nonmarkingreturn" unicode="&#xd;" horiz-adv-x="158" d="" />
<glyph glyph-name="space" unicode="&#x20;" horiz-adv-x="158" d="" />
<glyph glyph-name="e" unicode="e" horiz-adv-x="68" d="M67 37 Q70 41 74.5 38.5 Q79 36 76 32 Q66 19 55.5 6.5 Q45 -6 34 -18 Q29 -23 23.5 -28 Q18 -33 10 -35 L9 -35 L8 -35 L6 -35 L4 -35 Q2 -35 -2 -33 L-6 -29 Q-7 -28 -9 -24 Q-10 -23 -10 -22 Q-10 -21 -11 -19 Q-12 -14 -12 -3 Q-12 4 -11 7 Q-6 34 12 54 Q14 56 17 58.5 Q20 61 23 63 Q29 67 33 68 Q41 70 48 66.5 Q55 63 52 53 Q49 44 41 36 Q33 28 24 25 Q13 21 9 32 Q7 29 4 23 Q1 17 -1 9.5 Q-3 2 -3.5 -6 Q-4 -14 0 -21 Q4 -25 6 -25 L7 -25 L8 -25 Q11 -25 15 -21 Q20 -18 24 -13.5 Q28 -9 33 -4 Q42 6 50.5 16 Q59 26 67 37 Z M21 48 Q20 47 20 46.5 Q20 46 19 45 L19 41 Q16 38 18 36 Q18 34 20 34 Q26 36 29 39 Q31 41 38 48.5 Q45 56 42 59 Q41 60 39 59.5 Q37 59 36 59 Q33 58 30.5 56.5 Q28 55 26 53 L21 48 Z " />
<glyph glyph-name="f" unicode="f" horiz-adv-x="83" d="M214 505 Q216 510 220.5 507.5 Q225 505 223 500 Q220 494 216.5 488 Q213 482 210 476 Q184 427 160 378 Q136 329 113 278 Q90 227 67.5 176 Q45 125 25 74 Q8 32 -7.5 -9.5 Q-23 -51 -38 -93 Q-36 -89 -34 -87 Q-26 -76 -16 -66 Q-6 -56 3 -46 Q23 -24 42.5 -3.5 Q62 17 82 38 Q85 41 88.5 37.5 Q92 34 89 31 Q84 26 79 20.5 Q74 15 69 10 Q27 -34 -12 -77 Q-14 -80 -17 -83 Q-20 -86 -23 -89 Q-25 -90 -26 -92 Q-28 -94 -28.5 -96.5 Q-29 -99 -31 -101 Q-33 -104 -35 -110 Q-36 -113 -36 -117 Q-37 -120 -37 -125 Q-38 -135 -38 -144.5 Q-38 -154 -40 -164 Q-46 -193 -69 -212 Q-71 -214 -74 -216 Q-77 -218 -80 -217 L-81 -217 Q-84 -216 -85 -213 Q-86 -210 -86 -207 Q-86 -203 -84 -199 L-84 -196 L-81 -187 L-69 -154 Q-67 -147 -64.5 -140 Q-62 -133 -59 -125 Q-41 -70 -21 -17 Q-1 36 21 90 Q42 144 65 196 Q88 248 112 301 Q160 404 214 505 Z M-48 -151 Q-47 -143 -47.5 -134.5 Q-48 -126 -47 -118 Q-48 -125 -52 -134 Q-57 -147 -60.5 -159.5 Q-64 -172 -69 -185 L-75 -205 Q-51 -183 -48 -151 Z " />
<glyph glyph-name="g" unicode="g" horiz-adv-x="84" d="M83 37 Q86 41 90 37.5 Q94 34 91 30 Q71 3 52 -24 Q33 -51 11 -77 Q8 -86 4 -94 Q-9 -125 -23.5 -155.5 Q-38 -186 -61 -210 Q-64 -213 -69 -217 Q-74 -221 -79.5 -223.5 Q-85 -226 -90.5 -225.5 Q-96 -225 -101 -219 Q-105 -214 -105.5 -207 Q-106 -200 -104 -194 Q-100 -181 -90 -168 Q-70 -142 -46 -121 Q-22 -100 -2 -75 Q0 -74 0.5 -73 Q1 -72 2 -71 Q4 -67 4 -66 Q11 -49 16.5 -32.5 Q22 -16 28 1 Q27 0 27 -1 Q23 -6 19 -10.5 Q15 -15 9 -18 Q4 -20 -1 -18.5 Q-6 -17 -8 -11 Q-10 -6 -9.5 0.5 Q-9 7 -8 12 Q-5 25 -1 35 Q3 47 11 56 Q11 57 12 58 Q15 63 20.5 68 Q26 73 31 71 Q31 71 32 70 Q39 67 37 57 Q37 46 30 34 Q28 29 23.5 31.5 Q19 34 21 39 Q25 44 26 50 Q27 54 27 61 Q27 60 26.5 60 Q26 60 26 59 Q24 58 24 57 Q24 56 23 55 Q20 52 16 46 Q4 26 1 3 Q1 1 0 -2 Q-1 -5 1 -7 Q1 -9 3 -9 Q8 -8 18 5 Q28 18 35 28 Q36 30 36.5 30.5 Q37 31 38 33 Q43 47 46 58 Q48 63 53 60.5 Q58 58 56 53 L23 -46 Q39 -26 53.5 -4.5 Q68 17 83 37 Z M-21 -125 Q-18 -118 -15 -112 Q-12 -106 -9 -99 Q-27 -118 -46 -135.5 Q-65 -153 -81 -174 Q-91 -186 -94 -199 Q-95 -202 -95 -208.5 Q-95 -215 -89 -215 Q-83 -215 -78 -211 Q-73 -207 -69 -203 Q-64 -198 -59.5 -192 Q-55 -186 -50 -180 Q-41 -167 -34 -153 Q-27 -139 -21 -125 Z " />
<glyph glyph-name="h" unicode="h" horiz-adv-x="95" d="M210 512 Q212 517 216.5 514.5 Q221 512 219 507 Q205 475 191 444.5 Q177 414 163 383 Q138 328 113.5 273.5 Q89 219 65 164 Q49 129 34 93.5 Q19 58 4 23 Q8 28 11 31.5 Q14 35 19 40 Q23 45 27.5 48.5 Q32 52 37 56 Q48 63 56 59 Q62 54 61 47.5 Q60 41 58 36 Q56 29 54.5 22 Q53 15 52 7 L52 4 Q53 6 54.5 6.5 Q56 7 57 8 Q60 11 63.5 13.5 Q67 16 70 18 Q76 23 82 28 Q88 33 94 38 Q98 41 101.5 37.5 Q105 34 101 31 Q94 26 87.5 20 Q81 14 74 9 Q70 6 66.5 3 Q63 0 60 -2 Q57 -4 54.5 -6 Q52 -8 49 -7 Q41 -6 41 0 Q41 6 42 11 Q43 18 44.5 25 Q46 32 48 39 Q49 41 50 45.5 Q51 50 49 50 Q47 51 44.5 49 Q42 47 40 46 Q35 42 31 38 Q27 34 22 29 Q5 10 -6.5 -12.5 Q-18 -35 -29 -58 Q-31 -62 -35.5 -60 Q-40 -58 -38 -54 Q-25 -22 -12.5 8.5 Q0 39 14 71 Q37 126 61.5 180.5 Q86 235 111 290 L210 512 L210 512 Z " />
<glyph glyph-name="i" unicode="i" horiz-adv-x="50" d="M50 38 Q53 42 56.5 38 Q60 34 57 30 Q49 20 41 10.5 Q33 1 24 -9 Q19 -16 10 -23.5 Q1 -31 -8 -26 Q-19 -21 -16.5 -9 Q-14 3 -11 11 Q-6 22 -1.5 33.5 Q3 45 8 56 Q10 60 14.5 57.5 Q19 55 17 51 Q12 42 8.5 32.5 Q5 23 1 14 Q0 12 -2 7 Q-4 2 -5.5 -3 Q-7 -8 -6.5 -12.5 Q-6 -17 -2 -17 Q2 -18 6 -14 Q10 -10 12 -8 Q16 -5 18.5 -1.5 Q21 2 24 6 Q31 14 37 22 Q43 30 50 38 Z M24 98 Q19 96 17.5 101 Q16 106 21 107 Q24 108 26.5 108.5 Q29 109 32 110 Q37 112 38.5 107.5 Q40 103 35 101 Q27 99 24 98 Z " />
<glyph glyph-name="j" unicode="j" horiz-adv-x="63" d="M18 90 Q13 88 11 93 Q9 98 14 100 Q17 101 19.5 101.5 Q22 102 25 103 Q30 105 31.5 100 Q33 95 28 93 Q26 92 23 91.5 Q20 91 18 90 Z M62 37 Q64 42 68 38 Q72 34 69 30 Q25 -33 -33 -84 Q-35 -86 -35 -88 L-38 -94 Q-51 -125 -66.5 -155.5 Q-82 -186 -105 -210 Q-108 -213 -113 -217 Q-118 -221 -123 -223.5 Q-128 -226 -134 -225.5 Q-140 -225 -144 -219 Q-149 -214 -149 -207 Q-149 -200 -147 -194 Q-143 -181 -133 -168 Q-113 -142 -89 -121 Q-65 -100 -43 -75 L-39 -71 Q-38 -69 -38 -68 Q-38 -67 -37 -66 Q-25 -35 -14.5 -4 Q-4 27 7 58 Q9 63 13.5 60.5 Q18 58 16 53 Q8 29 0 5 Q-8 -19 -17 -42 Q-18 -44 -20 -49.5 Q-22 -55 -25 -62 Q0 -39 21 -14.5 Q42 10 62 37 Z M-63 -125 Q-60 -118 -57 -112 Q-54 -106 -51 -99 Q-69 -118 -88 -135.5 Q-107 -153 -124 -174 Q-134 -186 -138 -199 Q-139 -202 -138.5 -208.5 Q-138 -215 -132 -215 Q-126 -215 -121 -211 Q-116 -207 -113 -203 Q-101 -191 -94 -180 Q-84 -167 -77 -153 Q-70 -139 -63 -125 Z " />
<glyph glyph-name="k" unicode="k" horiz-adv-x="101" d="M221 508 Q224 513 228 510.5 Q232 508 230 503 Q213 474 196.5 445.5 Q180 417 165 388 Q137 335 112 282 Q87 229 64 174 Q53 147 42.5 119.5 Q32 92 21 65 Q13 42 4.5 20 Q-4 -2 -9 -25 Q-7 -22 -6.5 -19 Q-6 -16 -4 -14 Q4 3 16 21 Q27 36 38.5 50 Q50 64 66 74 Q69 76 71.5 73 Q74 70 72 67 Q66 54 57.5 43 Q49 32 41 21 Q38 18 36 14 Q34 12 34.5 10 Q35 8 35 6 Q38 -8 38 -20 L38 -26 Q38 -27 38.5 -28.5 Q39 -30 39 -32 L40 -31 Q43 -28 44 -26 Q49 -21 54 -15 Q59 -9 64 -4 Q73 7 81.5 17.5 Q90 28 100 38 Q103 41 107 37.5 Q111 34 107 31 Q97 20 88 9 Q79 -2 70 -13 Q65 -18 61 -23 Q57 -28 52 -33 Q49 -36 44.5 -40.5 Q40 -45 35 -43 Q30 -41 29.5 -36 Q29 -31 28 -27 Q28 -21 28 -14.5 Q28 -8 27 -2 Q26 3 24.5 7 Q23 11 25 16 Q26 17 26.5 18 Q27 19 28 20 Q22 12 20 8 Q15 0 10 -9 Q5 -18 1 -27 Q-1 -32 -4.5 -38 Q-8 -44 -15 -45 L-16 -45 L-17 -45 Q-21 -45 -21 -40 Q-21 -35 -21 -33 Q-16 -4 -5 24.5 Q6 53 17 81 Q28 109 39 136.5 Q50 164 61 192 Q72 219 84.5 246 Q97 273 110 300 Q135 354 163 405.5 Q191 457 221 508 Z M48 46 Q43 40 38 34 Q33 28 28 21 Q30 23 31.5 25 Q33 27 35 29 Q38 34 41.5 37.5 Q45 41 48 46 Z " />
<glyph glyph-name="l" unicode="l" horiz-adv-x="61" d="M219 494 Q222 498 226 495.5 Q230 493 228 489 Q208 457 189 425 Q170 393 152 360 Q88 242 41 119 Q29 90 18 60 Q7 30 0 -1 Q-2 -5 -2 -8.5 Q-2 -12 -3 -15 Q-3 -17 -3 -20.5 Q-3 -24 -1 -26 Q1 -29 4.5 -25.5 Q8 -22 10 -20 Q13 -18 15.5 -15 Q18 -12 21 -9 Q32 2 41 14 Q50 26 60 38 Q63 41 66.5 37.5 Q70 34 67 31 Q55 17 44 2.5 Q33 -12 20 -25 Q15 -30 8 -35.5 Q1 -41 -7 -35 Q-12 -30 -13 -22 Q-14 -14 -13 -8 Q-10 7 -6 19 Q-4 27 -1.5 35.5 Q1 44 4 52 Q10 69 16 85.5 Q22 102 29 119 Q42 151 56 183 Q70 215 84 247 Q114 311 147.5 372.5 Q181 434 219 494 Z " />
<glyph glyph-name="m" unicode="m" horiz-adv-x="115" d="M115 38 Q118 42 121.5 38 Q125 34 122 31 Q112 19 102 7 Q92 -5 83 -18 L74 -30 Q70 -37 66 -39 Q61 -43 57 -40.5 Q53 -38 52 -33 Q51 -27 53 -21 Q55 -15 57 -10 Q60 -4 62.5 1.5 Q65 7 68 13 L71 19 L94 68 Q89 63 85.5 58 Q82 53 78 48 Q70 37 62.5 26 Q55 15 48 4 Q45 -1 42 -6 Q39 -11 35 -14 Q32 -16 28 -16.5 Q24 -17 22 -13 Q19 -8 22 1 Q25 10 27 15 Q28 19 30 29 Q30 31 29.5 33.5 Q29 36 27 34 Q25 32 23 29 Q21 26 19 23 Q17 20 15.5 17.5 Q14 15 12 12 Q8 7 5 1 Q2 -5 -2 -10 Q-5 -15 -8.5 -20.5 Q-12 -26 -17 -29 Q-22 -32 -24 -26 Q-26 -21 -22 -15 Q-20 -7 -18 -2 Q-16 4 -13 10 Q-10 16 -8 22 Q-2 35 4 47.5 Q10 60 18 71 Q20 76 24.5 73.5 Q29 71 26 66 Q20 55 14 44 Q8 33 3 22 Q1 18 -0.5 14 Q-2 10 -4 5 Q0 11 3.5 17.5 Q7 24 12 30 Q15 34 19 39.5 Q23 45 29 45 Q35 45 37.5 40 Q40 35 40 30 Q39 22 36.5 14 Q34 6 32 -3 Q33 -1 34 0.5 Q35 2 36 4 Q40 10 43.5 15.5 Q47 21 51 26 Q64 48 81 68 Q84 72 87.5 76 Q91 80 96 82 Q106 85 106 75 Q106 73 105.5 71.5 Q105 70 105 68 L79 13 Q78 11 77 8.5 Q76 6 75 4 Q73 -1 70 -6.5 Q67 -12 65 -18 Q63 -22 63 -25 Q62 -25 62 -29 L65 -26 Q71 -16 81 -3 Q89 8 97.5 17.5 Q106 27 115 38 Z " />
<glyph glyph-name="n" unicode="n" horiz-adv-x="76" d="M75 37 Q78 41 81.5 37 Q85 33 82 30 Q72 18 62 6 Q52 -6 43 -19 L34 -31 Q32 -33 30 -35.5 Q28 -38 26 -40 Q21 -44 17 -41.5 Q13 -39 12 -34 Q11 -28 13 -22 Q15 -16 17 -11 Q20 -5 22.5 0.5 Q25 6 28 12 Q28 13 29 14.5 Q30 16 32.5 21 Q35 26 40 37 Q45 48 54 67 Q40 52 29.5 35.5 Q19 19 8 2 Q6 -3 2.5 -7.5 Q-1 -12 -6 -15 Q-10 -17 -12 -17 L-14 -17 L-15 -17 Q-15 -17 -17 -16 L-17 -15 Q-19 -12 -18 -7 Q-17 -2 -16 0 Q-9 17 -2 32.5 Q5 48 12 65 Q14 69 18.5 66.5 Q23 64 21 59 Q15 45 8.5 31.5 Q2 18 -4 4 Q0 9 3.5 14.5 Q7 20 10 25 Q18 36 25.5 46.5 Q33 57 41 67 Q44 71 47.5 75 Q51 79 56 81 Q60 83 63 80.5 Q66 78 66 74 Q66 71 64 67 L39 12 Q38 10 37 7.5 Q36 5 35 3 Q33 -2 30 -7.5 Q27 -13 25 -19 Q23 -23 22 -26 L22 -30 Q24 -28 24 -27 Q29 -21 32.5 -15.5 Q36 -10 41 -4 Q49 7 57.5 16.5 Q66 26 75 37 Z " />
<glyph glyph-name="o" unicode="o" horiz-adv-x="72" d="M71 38 Q75 41 78 37.5 Q81 34 78 30 Q72 24 64.5 17.5 Q57 11 49 9 L48 9 L44 9 Q38 -3 29.5 -13.5 Q21 -24 10 -31 Q3 -35 -3.5 -34.5 Q-10 -34 -14 -26 Q-17 -18 -15.5 -9.5 Q-14 -1 -12 6 Q-7 24 1.5 40 Q10 56 21 70 Q23 75 27.5 72.5 Q32 70 29 65 Q21 54 13.5 41.5 Q6 29 1 15 Q-3 3 -5 -10 Q-7 -16 -5 -21 Q-4 -26 3 -24 Q14 -18 21 -8.5 Q28 1 33 11 Q34 12 34 13 L33 14 Q27 21 29 31 Q30 37 34 46 Q38 55 46 53 Q54 50 52.5 39 Q51 28 49 22 Q49 20 48 20 Q50 20 52 21 Q56 23 61 28 Q67 32 71 38 Z M42 40 L41 39 Q37 32 39 26 L39 24 Q42 30 42 36 L42 40 Z " />
<glyph glyph-name="p" unicode="p" horiz-adv-x="90" d="M90 38 Q93 41 96.5 37.5 Q100 34 97 31 Q74 6 44 -14 Q39 -16 35 -19 Q31 -22 27 -24 Q25 -26 22.5 -29 Q20 -32 18 -34 Q13 -42 4.5 -50 Q-4 -58 -14 -53 Q-17 -52 -17 -49 Q-21 -54 -24 -60 Q-27 -66 -31 -72 Q-55 -116 -73 -162 Q-73 -162 -75 -168 Q-80 -182 -85 -195.5 Q-90 -209 -95 -223 Q-97 -228 -101.5 -227 Q-106 -226 -104 -221 Q-102 -214 -100 -208 Q-98 -202 -96 -196 Q-94 -188 -91 -181 Q-88 -174 -86 -166 Q-84 -164 -83.5 -161 Q-83 -158 -82 -156 Q-61 -99 -37 -44 Q-13 11 13 65 Q15 70 19.5 67.5 Q24 65 22 60 Q14 45 7 29.5 Q0 14 -7 -2 Q-13 -13 -18 -25 Q-23 -37 -28 -48 Q-26 -46 -25 -43 Q-24 -40 -22 -38 Q-16 -28 -9.5 -18.5 Q-3 -9 4 1 Q11 10 17.5 19.5 Q24 29 32 37 Q36 40 40.5 44.5 Q45 49 50 49 Q55 49 57.5 45.5 Q60 42 60 38 Q60 28 54.5 19 Q49 10 44 2 L41 -4 Q54 5 66.5 15.5 Q79 26 90 38 Z M22 -13 Q28 -5 34 3.5 Q40 12 45 21 L48 30 Q49 31 50 33.5 Q51 36 50 38 Q48 40 43 34 Q38 28 37 26 Q30 19 24 11.5 Q18 4 13 -4 Q-1 -22 -11 -40 Q-5 -32 3 -27 Q11 -22 20 -17 Q21 -16 21 -15 Q21 -14 22 -13 Z " />
<glyph glyph-name="q" unicode="q" horiz-adv-x="87" d="M86 37 Q89 41 93 38.5 Q97 36 94 32 Q90 27 87 22.5 Q84 18 80 13 Q65 -7 50 -27.5 Q35 -48 21 -68 Q17 -73 14 -78 Q11 -83 7 -88 Q4 -92 0.5 -95 Q-3 -98 -6 -101 L-9 -107 Q-11 -109 -11.5 -112 Q-12 -115 -14 -117 L-14 -118 Q-14 -124 -13.5 -130 Q-13 -136 -14 -142 Q-16 -188 -38 -225 Q-40 -229 -42.5 -234 Q-45 -239 -50 -241 Q-59 -244 -62 -236 Q-63 -231 -62 -226 Q-61 -221 -60 -216 Q-58 -211 -56 -205 Q-54 -199 -52 -193 Q-45 -173 -38 -153 Q-31 -133 -23 -113 Q-22 -107 -19 -102 Q-10 -79 -0.5 -57 Q9 -35 19 -12 Q24 -2 28.5 7.5 Q33 17 38 26 Q36 23 33.5 19.5 Q31 16 29 12 Q24 4 17.5 -4.5 Q11 -13 3 -18 Q-3 -22 -8.5 -21 Q-14 -20 -15 -12 Q-17 -1 -13 9.5 Q-9 20 -4 29 Q0 39 7 49 Q10 53 12.5 57 Q15 61 19 64 Q22 66 25 67.5 Q28 69 31 67 Q35 66 36.5 62.5 Q38 59 37 56 Q37 51 32 51 Q27 51 27 56 L27 57 Q23 53 21 50 Q14 42 8 31 Q5 26 3 20.5 Q1 15 -1 10 Q-3 5 -5 -0.5 Q-7 -6 -5 -11 L-5 -12 L-5 -11 Q-1 -9 0 -8 Q5 -4 8.5 0.5 Q12 5 15 10 Q22 19 27.5 28.5 Q33 38 40 46 Q43 49 46 53.5 Q49 58 54 59 Q58 59 59 56 Q60 53 59 48.5 Q58 44 56 39.5 Q54 35 53 34 Q48 23 43 13.5 Q38 4 33 -6 Q28 -16 24 -25.5 Q20 -35 15 -46 Q12 -54 8.5 -62 Q5 -70 2 -78 Q3 -76 3.5 -75.5 Q4 -75 5 -73 Q12 -64 18 -55 Q24 -46 31 -37 Q45 -18 58.5 0.5 Q72 19 86 37 Z M-44 -216 Q-36 -201 -29 -179 Q-24 -161 -24 -144 Q-30 -161 -36.5 -178.5 Q-43 -196 -48 -213 Q-49 -216 -50 -219 Q-51 -222 -51 -226 Q-52 -227 -52 -229 Q-51 -228 -50.5 -227 Q-50 -226 -49 -225 Q-48 -222 -44 -216 Z " />
<glyph glyph-name="r" unicode="r" horiz-adv-x="90" d="M89 37 Q92 41 96.5 38.5 Q101 36 98 32 Q76 2 58 -32 Q53 -40 48.5 -48 Q44 -56 39 -64 Q34 -72 29.5 -80.5 Q25 -89 20 -97 Q18 -99 15.5 -101.5 Q13 -104 9 -104 Q4 -103 2 -96 Q0 -89 1.5 -81.5 Q3 -74 5 -67 Q7 -59 10 -50.5 Q13 -42 16 -34 Q19 -26 22 -18 Q25 -10 25 -2 Q25 6 19 12 Q17 14 15 15 Q13 16 11 18 Q4 22 2 27.5 Q0 33 -2 38 L-2 40 Q-4 54 0.5 68 Q5 82 10 95 Q15 109 23 122 Q31 135 42 145 Q45 149 50 152 Q55 155 60 153 Q66 150 65 141.5 Q64 133 62 128 Q57 114 50 100 Q43 86 35 72 Q29 62 23 52.5 Q17 43 10 34 Q14 27 20 23 Q31 17 34 7 Q36 0 34.5 -6.5 Q33 -13 31 -19 Q27 -33 22 -47 Q17 -61 13 -75 Q10 -83 11 -90 L11 -91 Q11 -90 13 -88 L14 -87 Q18 -81 21 -75 Q24 -69 28 -63 Q43 -37 57.5 -12 Q72 13 89 37 Z M10 64 Q9 60 8.5 56.5 Q8 53 8 48 Q18 62 28 79 Q32 86 35.5 92.5 Q39 99 42 106 Q45 113 48.5 120 Q52 127 54 135 Q56 139 55 143 Q54 143 53 142 Q50 140 46 136 Q36 125 31 114 Q16 92 10 64 Z " />
<glyph glyph-name="s" unicode="s" horiz-adv-x="79" d="M79 38 Q83 41 86.5 37.5 Q90 34 86 31 Q74 19 62.5 6 Q51 -7 40 -21 Q40 -23 40.5 -23.5 Q41 -24 41 -26 Q41 -36 40 -41 Q40 -43 39.5 -45.5 Q39 -48 39 -50 L36 -59 Q36 -62 34 -68 Q33 -70 32 -72 Q31 -74 30 -76 Q28 -82 26 -84 Q25 -88 22 -92 Q21 -94 20 -95.5 Q19 -97 18 -99 Q3 -122 -15 -136 Q-19 -140 -24 -141.5 Q-29 -143 -34 -139 Q-40 -133 -38 -123 Q-37 -113 -31 -102 Q-28 -96 -25 -90 Q-22 -84 -19 -79 Q-17 -76 -15 -72.5 Q-13 -69 -11 -66 Q-4 -55 7.5 -41.5 Q19 -28 29 -17 Q26 -5 19 3 Q15 8 11 12 Q7 16 4 21 Q-2 32 1 42 Q3 53 11 62 Q19 71 29 76 Q40 80 44 72 Q47 67 45 61.5 Q43 56 40 52 Q38 47 33.5 49.5 Q29 52 32 57 Q33 58 35.5 62 Q38 66 35 67 Q33 68 30 65.5 Q27 63 25 61 Q14 52 11 38 Q10 26 21 16 Q24 12 27.5 8.5 Q31 5 33 0 L37 -8 L44 -1 Q45 1 46 2 Q54 12 62 21 Q70 30 79 38 Z M26 -57 Q28 -52 28 -47 Q28 -42 29 -38 Q29 -34 30 -30 Q30 -30 27 -34 Q24 -38 20 -42.5 Q16 -47 12.5 -51 Q9 -55 9 -56 Q-2 -70 -12 -86.5 Q-22 -103 -27 -121 Q-30 -126 -28 -129 Q-27 -133 -25 -131.5 Q-23 -130 -21 -128 Q-8 -118 2 -105 Q12 -92 20 -76 Q22 -71 23.5 -66.5 Q25 -62 26 -57 Z " />
<glyph glyph-name="t" unicode="t" horiz-adv-x="72" d="M230 259 Q240 251 240 239 Q240 227 234 215 Q227 201 217.5 190 Q208 179 197 168 Q197 168 195 167 Q192 165 189 168 Q187 171 189 174 Q190 175 191 175.5 Q192 176 193 177 Q213 196 225 219 Q229 226 230 233 Q233 246 221 254 Q216 257 211 258 Q206 259 201 260 Q193 262 185 261.5 Q177 261 169 260 Q158 258 146.5 256.5 Q135 255 124 252 L123 252 Q116 250 109 248.5 Q102 247 95 245 L94 244 Q71 196 50.5 146.5 Q30 97 13 46 Q8 33 4 20 Q0 7 -3 -7 Q-6 -17 -8 -26.5 Q-10 -36 -9 -46 Q-9 -51 -8 -52 Q-8 -53 -7 -53 Q-1 -51 5 -44 Q8 -41 11 -37.5 Q14 -34 17 -30 Q31 -13 44.5 3.5 Q58 20 71 37 Q74 41 78 38.5 Q82 36 79 32 Q64 12 49 -7.5 Q34 -27 17 -46 Q12 -51 5 -58 Q-2 -65 -10 -63 Q-19 -60 -19 -49 Q-21 -38 -18.5 -27.5 Q-16 -17 -14 -7 Q-10 7 -6 20 Q-2 33 3 47 Q16 88 31.5 127 Q47 166 65 204 Q69 214 73 223 Q77 232 82 242 L81 242 Q73 239 64.5 236.5 Q56 234 48 232 Q31 227 15 221 Q-1 215 -18 210 L-22 209 L-23 208 L-74 191 L-75 191 Q-79 189 -79 189 Q-89 187 -98.5 184.5 Q-108 182 -118 180 Q-127 178 -135.5 177 Q-144 176 -152 178 Q-175 181 -180 202 Q-180 204 -180.5 207 Q-181 210 -181 212 Q-180 217 -180 223 Q-180 229 -178 234 Q-175 253 -168 266 Q-166 271 -165 271 Q-163 274 -159 273 Q-155 271 -157 267 Q-158 266 -158 265 Q-163 253 -166.5 241 Q-170 229 -171 216 Q-171 213 -171 209.5 Q-171 206 -170 203 Q-169 194 -158 189 Q-154 188 -151 187.5 Q-148 187 -144 187 Q-127 186 -108 192 L-75 201 L-37 214 Q-31 216 -25 218 Q-19 220 -13 222 Q1 227 16 231.5 Q31 236 45 241 Q56 245 66.5 248 Q77 251 88 253 Q90 256 90.5 258.5 Q91 261 93 263 Q123 325 156 384.5 Q189 444 224 504 Q226 508 230.5 505.5 Q235 503 233 499 Q210 459 188 420 Q166 381 144 341 Q134 323 125 305 Q116 287 106 268 L105 266 Q105 264 103 262 L101 257 L104 257 Q135 265 163 269 Q175 271 187 271 Q199 271 211 268 Q223 266 230 259 Z " />
<glyph glyph-name="u" unicode="u" horiz-adv-x="100" d="M100 37 Q102 41 106.5 38.5 Q111 36 109 32 Q102 19 95 7 Q88 -5 80 -16 Q75 -23 67 -31.5 Q59 -40 49 -39 Q41 -37 39 -30 Q37 -23 38 -17 Q38 -11 39 -5 Q40 1 42 6 Q27 -14 11 -26 Q7 -29 2.5 -31.5 Q-2 -34 -7 -32 Q-12 -31 -13.5 -27.5 Q-15 -24 -16 -20 Q-18 -8 -14 4 Q-10 16 -5 27 Q0 38 6 48.5 Q12 59 21 67 Q24 70 28 66.5 Q32 63 28 60 Q23 56 19.5 51 Q16 46 13 40 Q9 35 6 28.5 Q3 22 1 16 Q-6 2 -6 -11 Q-7 -13 -7 -16.5 Q-7 -20 -5 -22 Q-3 -25 2 -20 Q11 -15 20 -4 Q25 1 29 6.5 Q33 12 38 17 Q43 25 49 32 Q55 39 60 47 Q63 53 66 58.5 Q69 64 72 70 Q75 74 79 71.5 Q83 69 81 65 Q74 54 68 42 Q62 30 57 18 Q52 8 49 -2.5 Q46 -13 48 -24 Q48 -28 49 -29 Q51 -30 53.5 -28 Q56 -26 57 -25 Q66 -20 73 -8 Q88 13 100 37 Z " />
<glyph glyph-name="v" unicode="v" horiz-adv-x="104" d="M103 37 Q106 42 109.5 38 Q113 34 110 30 Q103 22 95 14 Q87 6 77 0 Q70 -4 61 -8 Q52 -12 44 -7 Q40 -6 38 -2 Q32 -10 26 -18.5 Q20 -27 12 -34 Q3 -43 -5 -38 Q-11 -34 -13 -25 Q-14 -20 -13 -14 Q-12 -8 -11 -3 Q-9 4 -7.5 10.5 Q-6 17 -4 24 Q0 36 4.5 48 Q9 60 16 72 Q18 76 22 73.5 Q26 71 24 67 Q10 39 3 12 Q1 5 0 -1.5 Q-1 -8 -2 -15 Q-3 -17 -3 -23 Q-3 -29 1 -30 Q3 -30 6.5 -26.5 Q10 -23 11 -21 Q16 -16 20 -10 Q25 -5 28.5 1 Q32 7 36 12 Q38 14 38.5 15.5 Q39 17 41 19 Q42 21 43 23 Q44 25 45 27 Q49 37 54 46 Q59 55 67 63 Q70 67 73.5 64 Q77 61 75 57 Q64 33 50 15 Q50 14 49.5 13.5 Q49 13 49 12 Q47 9 46.5 5.5 Q46 2 51 1 Q58 0 65.5 4.5 Q73 9 78 13 Q85 18 91.5 24 Q98 30 103 37 Z " />
<glyph glyph-name="w" unicode="w" horiz-adv-x="102" d="M101 38 Q104 41 107.5 37.5 Q111 34 107 31 Q102 24 95 17.5 Q88 11 80 8 Q71 4 64 11 Q57 -1 48 -15 Q45 -20 41.5 -26 Q38 -32 33 -37 Q29 -41 24 -43.5 Q19 -46 14 -43 Q7 -40 8 -32.5 Q9 -25 11 -20 Q13 -12 14.5 -5 Q16 2 18 10 Q18 10 19 11 Q13 3 8.5 -6 Q4 -15 -1 -24 Q-3 -28 -6.5 -33 Q-10 -38 -15 -40 Q-20 -42 -22.5 -39 Q-25 -36 -25 -31 Q-25 -25 -23 -19 Q-21 -13 -19 -7 Q-17 -1 -14.5 4.5 Q-12 10 -10 16 Q-5 28 0.5 40 Q6 52 12 64 Q14 69 18 66.5 Q22 64 20 59 Q15 48 9.5 36 Q4 24 -1 12 Q-6 1 -10 -12 Q-11 -14 -11.5 -17 Q-12 -20 -13 -22 Q-14 -23 -14 -26 Q-13 -24 -12 -22.5 Q-11 -21 -10 -19 Q-8 -15 -6 -11.5 Q-4 -8 -2 -5 Q5 10 16 25 Q16 25 17 27 Q19 29 21.5 30.5 Q24 32 27 31 Q27 30 28 30 Q33 27 31.5 20 Q30 13 28 9 Q26 2 24.5 -5 Q23 -12 21 -19 Q21 -21 19 -27 Q17 -33 19 -34 Q21 -35 23.5 -32.5 Q26 -30 27 -29 Q32 -24 35 -18 Q38 -12 42 -7 Q46 0 49.5 6.5 Q53 13 57 19 Q58 21 58.5 21.5 Q59 22 60 24 Q60 30 62 37 Q64 44 66 50 Q69 57 72.5 64 Q76 71 81 76 Q83 76 83 78 Q85 79 88 79 Q92 79 92 74 Q91 66 88 58 Q85 50 80 42 Q78 37 75.5 32 Q73 27 70 22 Q70 19 71 18 Q74 15 80 19 Q86 23 91 28 Q96 33 101 38 Z " />
<glyph glyph-name="x" unicode="x" horiz-adv-x="76" d="M75 37 Q78 41 82.5 38.5 Q87 36 84 32 Q75 20 66 8 Q57 -4 47 -16 Q42 -21 38.5 -26 Q35 -31 30 -36 Q25 -41 21 -45.5 Q17 -50 12 -54 Q3 -60 -6 -54 Q-14 -49 -14 -36 Q-14 -34 -13.5 -32 Q-13 -30 -13 -28 Q-31 -53 -49 -78 Q-67 -103 -85 -129 Q-87 -133 -91.5 -130.5 Q-96 -128 -93 -124 Q-72 -94 -51 -64 Q-30 -34 -8 -4 Q-7 1 -6 6.5 Q-5 12 -4 17 Q-2 28 0 39 Q2 50 4 61 Q1 60 -1.5 62.5 Q-4 65 -2 68 Q3 75 10 76 Q18 78 16 70 Q14 56 11 42 Q8 28 6 14 Q17 29 27.5 43.5 Q38 58 49 73 Q51 77 55.5 74.5 Q60 72 57 68 Q43 49 29 30 Q15 11 1 -8 Q0 -12 0 -15 Q0 -18 -1 -21 Q-2 -26 -3.5 -34.5 Q-5 -43 0 -46 Q5 -49 11 -42 Q17 -35 20 -32 Q25 -26 29.5 -20.5 Q34 -15 39 -9 Q60 15 75 37 Z " />
<glyph glyph-name="y" unicode="y" horiz-adv-x="97" d="M96 37 Q99 41 103 37.5 Q107 34 104 30 Q84 3 63.5 -24 Q43 -51 20 -77 Q18 -82 16 -85.5 Q14 -89 12 -94 Q-2 -125 -18 -155.5 Q-34 -186 -58 -210 Q-61 -213 -66 -217 Q-71 -221 -76.5 -223.5 Q-82 -226 -88 -225.5 Q-94 -225 -98 -219 Q-102 -214 -102 -207 Q-102 -200 -100 -194 Q-95 -180 -85 -168 Q-65 -142 -40 -121 Q-15 -100 7 -75 L11 -71 Q12 -69 12 -68 Q12 -67 13 -66 Q24 -41 33 -16 Q42 9 52 34 Q45 26 38 15 L8 -27 Q6 -30 2.5 -32.5 Q-1 -35 -6 -33 Q-11 -29 -13 -20 Q-13 -15 -12 -10 Q-11 -5 -10 0 L-4 24 Q-1 35 3 45.5 Q7 56 12 67 Q14 72 18.5 69.5 Q23 67 21 62 Q16 50 11.5 38 Q7 26 4 13 L-2 -11 Q-2 -14 -2.5 -16.5 Q-3 -19 -3 -21 Q-2 -21 -2 -24 Q-2 -23 -1 -22 Q0 -21 0 -20 Q17 2 32.5 24 Q48 46 64 69 Q66 72 70 70 Q74 68 73 64 Q72 62 71.5 60.5 Q71 59 70 57 L59 25 Q52 7 46 -10.5 Q40 -28 32 -46 Q49 -26 64.5 -4.5 Q80 17 96 37 Z M-14 -125 Q-11 -118 -8 -112 Q-5 -106 -2 -99 Q-21 -118 -40 -135.5 Q-59 -153 -76 -174 Q-81 -179 -85 -185 Q-89 -191 -91 -199 Q-92 -202 -92 -208.5 Q-92 -215 -86 -215 Q-80 -215 -75 -211 Q-70 -207 -66 -203 Q-55 -192 -46 -180 Q-36 -167 -29 -153 Q-22 -139 -14 -125 Z " />
<glyph glyph-name="z" unicode="z" horiz-adv-x="98" d="M98 38 Q101 41 104.5 37.5 Q108 34 105 30 Q85 6 64.5 -17 Q44 -40 22 -63 Q20 -69 18 -74.5 Q16 -80 14 -85 Q10 -94 6.5 -103 Q3 -112 -2 -121 Q-16 -150 -33.5 -177.5 Q-51 -205 -74 -227 Q-79 -232 -85 -236 Q-91 -240 -99 -237 Q-104 -235 -106 -229.5 Q-108 -224 -107 -219 Q-106 -203 -99.5 -189 Q-93 -175 -84 -163 Q-65 -135 -41.5 -112 Q-18 -89 5 -66 L13 -58 Q15 -50 15 -46 Q16 -40 13 -34.5 Q10 -29 2 -30 Q-3 -31 -8 -32.5 Q-13 -34 -18 -29 Q-23 -25 -19 -21 Q12 2 33 34 Q35 38 37.5 41 Q40 44 41 49 Q41 50 41.5 51.5 Q42 53 41 54 Q40 55 38 53.5 Q36 52 35 51 Q17 41 5 29 Q1 25 -2.5 28.5 Q-6 32 -3 36 Q7 46 16 51 Q24 58 36 63 Q46 67 50 58 Q52 54 51.5 50 Q51 46 49 42 Q47 37 44 32.5 Q41 28 38 23 L23 5 Q12 -8 -3 -22 Q-1 -21 0 -21 Q1 -21 2 -20 Q10 -20 15 -24 Q20 -27 22.5 -33 Q25 -39 25 -45 Q45 -25 63 -4.5 Q81 16 98 38 Z M-6 -105 Q-3 -99 -0.5 -93 Q2 -87 5 -81 Q-15 -101 -35 -120.5 Q-55 -140 -72 -163 Q-80 -174 -87 -186.5 Q-94 -199 -96 -213 Q-97 -218 -97 -224.5 Q-97 -231 -89 -227 Q-86 -225 -83 -222 Q-80 -219 -78 -217 L-68 -207 Q-48 -184 -33 -158 Q-18 -132 -6 -105 Z " />
<glyph glyph-name="d" unicode="d" horiz-adv-x="98" d="M226 454 Q234 456 234 449 Q234 442 233 439 Q228 427 223.5 415 Q219 403 214 391 Q194 346 173.5 300.5 Q153 255 133 210 Q122 185 111.5 161 Q101 137 90 112 Q79 86 67 61.5 Q55 37 41 13 Q40 12 39.5 11 Q39 10 38 9 L38 8 Q35 5 35 3 Q34 3 34 2 L31 -19 Q31 -24 31 -29.5 Q31 -35 33 -40 Q35 -43 38.5 -41 Q42 -39 44 -37 Q47 -34 50 -30 Q53 -26 56 -22 Q63 -14 70 -3 Q78 7 84 16.5 Q90 26 97 37 Q99 41 103.5 38.5 Q108 36 105 32 Q89 7 70 -21 Q65 -26 61.5 -31 Q58 -36 53 -41 Q48 -50 39 -51 Q33 -53 29 -50 Q25 -47 23.5 -42.5 Q22 -38 21.5 -32 Q21 -26 21 -22 Q21 -20 21.5 -18 Q22 -16 22 -14 Q20 -16 19.5 -17 Q19 -18 18 -19 L16 -21 Q14 -24 11 -26 Q8 -28 7 -29 Q6 -30 5 -30.5 Q4 -31 3 -32 Q-5 -37 -11.5 -33.5 Q-18 -30 -20 -21 Q-21 -15 -20 -9 Q-19 -3 -17 3 Q-7 32 11 52 Q21 62 33 65 Q35 66 39 66 Q41 74 43.5 80.5 Q46 87 48 94 Q59 132 73.5 169.5 Q88 207 105 244 Q120 276 135.5 307.5 Q151 339 168 370 Q179 388 189 405 Q199 422 212 439 L221 451 Q225 453 226 454 Z M36 56 Q33 56 30 54 Q23 51 17 43 Q17 42 16 41 Q13 38 12 36 Q11 36 11 35 Q11 35 9 33 Q7 29 5 24.5 Q3 20 1 16 Q-1 12 -3 7 Q-7 -3 -9.5 -13.5 Q-12 -24 -6 -25 Q-1 -25 4.5 -19 Q10 -13 12 -11 Q16 -7 22 1 Q23 2 23 3 Q23 4 24 5 L24 6 L36 54 L36 56 Z M48 44 Q50 50 46 54 Q44 48 42.5 42 Q41 36 39 30 Q41 34 43.5 37.5 Q46 41 48 44 Z M210 406 Q214 414 216.5 421.5 Q219 429 222 437 Q219 434 218 432 Q207 417 197.5 401.5 Q188 386 178 369 Q161 339 146 308.5 Q131 278 117 246 Q101 211 86.5 176 Q72 141 61 105 L49 66 L49 64 Q50 64 50 63 Q51 62 52.5 60.5 Q54 59 54 57 L56 61 Q62 75 68.5 87.5 Q75 100 80 113 Q101 160 122 206.5 Q143 253 164 300 Q175 326 187 352.5 Q199 379 210 406 Z " />
<glyph glyph-name="A" unicode="A" horiz-adv-x="414" d="M464 241 L475 241 Q479 240 482 239.5 Q485 239 489 238 Q500 232 495 219 Q489 201 470 198 L468 198 Q464 198 464 204 Q464 207 469 209 Q480 209 485 221 Q488 226 483 228 Q475 232 465 230 Q460 230 459 229.5 Q458 229 456 224 Q413 123 372 23 Q331 -77 291 -179 L288 -185 Q285 -190 281 -191 Q277 -192 275 -189 Q275 -184 277 -182 Q279 -181 279.5 -180 Q280 -179 281 -178 Q296 -139 311.5 -100.5 Q327 -62 343 -23 Q369 38 394 98.5 Q419 159 445 221 Q447 225 448 228 L445 228 Q428 225 410 220 Q392 215 375 210 Q372 210 371 207 Q352 178 333 149.5 Q314 121 294 92 Q268 54 241.5 16.5 Q215 -21 186 -57 Q166 -81 146 -104.5 Q126 -128 103 -149 Q90 -161 76 -172 Q62 -183 46 -191 Q36 -196 26.5 -199.5 Q17 -203 6 -204 Q-30 -207 -41 -172 Q-45 -162 -45.5 -151 Q-46 -140 -44 -129 Q-41 -109 -34 -90 Q-27 -71 -17 -52 Q-1 -19 25 8 Q38 21 55 29 Q77 39 92 28 Q97 24 100 18.5 Q103 13 105 7 Q106 4 108 0 Q110 -3 107 -6 Q105 -13 102 -8 Q99 -6 97 -3 Q96 -1 94 5 L91 11 Q81 28 62 21 Q54 19 48 14.5 Q42 10 36 5 Q25 -6 15.5 -18 Q6 -30 -2 -44 Q-11 -60 -18 -76 Q-25 -92 -30 -109 Q-34 -123 -35 -136.5 Q-36 -150 -33 -163 Q-27 -187 -6 -193 Q2 -195 11 -193.5 Q20 -192 28 -189 Q54 -178 80 -157 Q100 -140 118 -121 Q136 -102 153 -82 Q182 -48 207.5 -13.5 Q233 21 258 57 Q284 94 308 130 Q332 166 357 202 Q357 203 357.5 203.5 Q358 204 358 205 L356 205 Q284 182 214 151.5 Q144 121 76 82 Q64 75 52 69 Q40 63 29 56 Q27 55 24 54.5 Q21 54 19 52 L16 52 Q11 50 11 56 Q11 62 16 62 Q22 64 27.5 67 Q33 70 39 73 Q57 83 75 93 Q93 103 111 113 Q155 136 199.5 156 Q244 176 290 192 Q309 199 327.5 205 Q346 211 365 218 Q367 219 369 221 Q430 314 487.5 406.5 Q545 499 602 593 Q622 625 640.5 658 Q659 691 679 723 L685 732 Q687 736 691 734 Q695 734 693 728 Q692 726 691.5 723 Q691 720 689 718 L644 625 Q606 548 569 471 Q532 394 497 316 Q489 298 481 280 Q473 262 465 244 Q465 243 464.5 242.5 Q464 242 464 241 Z M635 630 Q574 527 511 425.5 Q448 324 382 223 Q383 224 385 224 Q401 229 417 233 Q433 237 449 239 Q452 239 455 243 Q468 272 480.5 300.5 Q493 329 506 358 Q537 426 569 493 Q601 560 634 627 Q635 628 635 630 Z " />
<glyph glyph-name="B" unicode="B" horiz-adv-x="464" d="M594 675 Q602 675 606.5 670 Q611 665 609 657 Q608 649 604 640 Q600 632 596.5 625 Q593 618 588 610 Q574 588 559.5 567 Q545 546 529 525 Q489 472 448.5 421 Q408 370 366 319 Q361 313 356 307.5 Q351 302 346 296 Q345 295 345 294 Q345 293 344 292 Q346 293 346.5 293.5 Q347 294 349 295 Q365 306 381 317 Q397 328 415 336 Q440 348 465 354 Q479 357 494 354 Q513 348 520 331 Q524 319 524 304 Q524 290 521.5 276.5 Q519 263 515 249 Q503 210 485 170 L470 140 L469 139 Q454 109 437 80.5 Q420 52 403 23 Q402 21 395 10 Q388 -1 382 -10 Q372 -24 363 -39 Q354 -54 344 -68 Q329 -90 313 -110.5 Q297 -131 279 -151 Q270 -162 260.5 -171 Q251 -180 240 -188 Q229 -196 214 -203 Q209 -205 203.5 -206 Q198 -207 192 -206 Q171 -203 165 -182 Q160 -169 163 -151 Q169 -118 193 -89 Q231 -43 287 -16 Q329 4 370 10 Q375 11 379 11.5 Q383 12 385 12 Q390 21 397.5 33 Q405 45 409 51 Q409 52 409.5 52 Q410 52 410 53 Q421 72 432 90.5 Q443 109 453 129 Q454 129 454 130 Q454 130 456 134 Q457 135 457 136 Q457 137 458 138 Q459 140 459.5 141 Q460 142 461 144 Q463 148 464.5 151.5 Q466 155 468 158 Q469 158 469 159 Q470 162 472 166 L473 167 Q484 190 493 213 Q502 236 508 261 Q511 272 513 284 Q515 296 514 307 Q514 317 511 326 Q504 344 486 345 Q471 346 458 342 Q427 333 396 315 Q372 301 350 284 Q328 267 307 248 Q305 247 304.5 245.5 Q304 244 302 243 Q286 224 270 205.5 Q254 187 238 169 Q234 163 228 159 Q225 155 221 157 Q217 161 220 165 Q222 167 222.5 169 Q223 171 225 173 Q237 189 250 204 Q263 219 278 233 Q292 247 305 261.5 Q318 276 331 292 Q377 348 421.5 403.5 Q466 459 510 517 Q526 537 541 557.5 Q556 578 570 599 Q581 615 592 636 Q594 640 595.5 644 Q597 648 599 653 Q603 667 588 665 Q574 662 561 656 Q544 648 527.5 638.5 Q511 629 495 618 Q472 603 450.5 586 Q429 569 408 552 Q372 521 337.5 489 Q303 457 271 422 Q180 323 117 201 Q108 184 99 166 Q90 148 81 131 Q75 120 68 108 Q66 106 64.5 104 Q63 102 61 100 Q56 97 53 98 Q49 101 49 105 Q49 109 49.5 112 Q50 115 51 119 Q56 138 63 156.5 Q70 175 78 194 Q97 242 117.5 288 Q138 334 158 381 Q190 453 222.5 524 Q255 595 287 667 Q294 683 300.5 698.5 Q307 714 314 731 Q314 733 314.5 734.5 Q315 736 315 738 Q315 742 319 746 Q324 748 326 743 L326 737 Q322 728 319 719 Q316 710 312 701 Q290 652 269 603.5 Q248 555 226 507 Q200 449 174 391.5 Q148 334 122 276 Q108 245 95.5 214.5 Q83 184 72 152 Q69 144 66.5 135.5 Q64 127 61 119 Q61 118 60.5 117 Q60 116 61 114 Q62 116 63 117.5 Q64 119 65 121 Q71 132 77 143 Q83 154 88 165 Q102 194 117 222 Q132 250 149 277 Q202 363 273 438 Q361 532 465 609 Q486 624 507.5 637.5 Q529 651 552 662 Q560 666 568 669 Q576 672 584 674 Q586 674 589 674.5 Q592 675 594 675 Z M370 -11 Q371 -9 375 -3 Q377 0 378 2 Q374 2 373 1 Q369 0 365.5 0 Q362 0 358 -1 Q325 -9 294.5 -22.5 Q264 -36 236 -59 Q222 -70 209.5 -83.5 Q197 -97 187 -114 Q175 -134 172 -157 Q170 -173 177 -184 Q183 -196 196 -196 Q204 -196 212 -193 Q220 -190 227.5 -185 Q235 -180 243 -174 Q256 -163 267 -150.5 Q278 -138 289 -125 Q312 -97 331.5 -68.5 Q351 -40 370 -11 Z " />
<glyph glyph-name="C" unicode="C" horiz-adv-x="306" d="M522 694 Q525 685 525 675.5 Q525 666 524 657 Q521 635 514 614 Q507 593 499 572 Q487 541 472.5 511.5 Q458 482 441 453 Q423 421 404 390 Q385 359 363 330 Q343 303 321.5 278 Q300 253 275 231 Q270 226 265.5 223 Q261 220 256 216 Q254 214 252 214 Q247 212 247 216 Q244 218 247 221 Q250 225 254 228 Q254 229 255 229 Q258 229 260 230.5 Q262 232 264 234 Q284 251 301.5 271 Q319 291 336 312 Q358 338 377 366.5 Q396 395 413 424 Q429 451 443 477.5 Q457 504 471 532 Q482 555 490.5 577.5 Q499 600 506 623 Q513 645 515 670 Q515 686 510 696 Q504 713 485 713 Q475 714 465.5 711.5 Q456 709 446 705 Q429 697 413 686.5 Q397 676 382 664 Q357 644 335.5 621 Q314 598 294 573 Q258 528 227.5 481 Q197 434 171 384 Q101 250 57 104 Q41 51 30 -6 Q26 -27 23.5 -48.5 Q21 -70 19 -92 Q18 -111 19 -129 Q20 -147 25 -165 Q27 -173 29.5 -180.5 Q32 -188 37 -195 Q47 -209 61 -210 Q72 -212 81 -207 Q97 -202 114 -188 Q141 -167 168 -138 Q183 -122 197.5 -106.5 Q212 -91 227 -74 Q228 -73 230 -72 Q234 -70 236 -71 Q238 -73 237 -75.5 Q236 -78 235 -80 L230 -85 Q212 -105 194 -125 Q176 -145 156 -164 Q145 -175 133.5 -185.5 Q122 -196 108 -204 Q101 -209 94 -213 Q87 -217 79 -219 Q47 -228 28 -200 Q22 -191 18.5 -181 Q15 -171 13 -160 Q7 -126 9 -88 Q10 -84 10 -76 Q12 -54 15 -32 Q18 -10 23 12 Q40 90 65.5 164 Q91 238 124 311 Q164 398 214 478 Q237 514 262 547.5 Q287 581 316 613 Q334 633 353.5 651.5 Q373 670 396 687 Q422 706 448 716 Q467 724 485 724 Q515 722 522 694 Z " />
<glyph glyph-name="D" unicode="D" horiz-adv-x="562" d="M377 -65 Q378 -64 378.5 -63 Q379 -62 381 -61 Q414 -23 443.5 17 Q473 57 500 99 Q591 237 656 382 Q669 411 680.5 441 Q692 471 701 502 Q706 522 711 541.5 Q716 561 718 581 Q720 593 720 605.5 Q720 618 717 630 Q715 640 713 645 Q703 666 680 661 Q669 660 654 653 Q639 647 625.5 638.5 Q612 630 598 621 Q567 600 538 577 Q509 554 481 530 Q417 475 358.5 416 Q300 357 245 294 Q208 252 172.5 209 Q137 166 102 123 Q93 111 83.5 100 Q74 89 65 78 Q61 73 57 69.5 Q53 66 49 62 Q47 60 45 59 Q43 58 41 56 Q32 53 29 62 Q28 67 29 70.5 Q30 74 32 79 Q35 93 40 105.5 Q45 118 50 131 Q71 179 91.5 227.5 Q112 276 133 324 Q165 396 196.5 466.5 Q228 537 260 609 Q272 634 283.5 659 Q295 684 306 709 Q308 713 308 715 Q307 716 306.5 716 Q306 716 305 717 Q301 719 303 722 Q308 733 317 741 Q319 743 323 743 Q326 741 326 738 Q326 736 325.5 734 Q325 732 325 730 L307 688 Q287 643 266 598 Q245 553 225 508 Q187 422 150.5 337.5 Q114 253 76 167 Q68 148 60 129 Q52 110 45 90 Q43 86 42.5 82 Q42 78 40 73 L40 67 Q44 69 45 71 Q50 77 55.5 82.5 Q61 88 66 94 Q85 117 103.5 139.5 Q122 162 141 185 Q179 233 218.5 278.5 Q258 324 300 369 Q348 419 396.5 466 Q445 513 499 558 Q524 579 550 599 Q576 619 604 636 Q626 651 652 663 Q669 670 683 671 Q707 673 719 655 Q724 648 725.5 640 Q727 632 729 624 Q731 610 729.5 595.5 Q728 581 726 566 Q718 521 703.5 478.5 Q689 436 672 394 Q643 326 608 261 Q573 196 533 132 Q505 87 475 45 Q445 3 412 -38 Q387 -69 360 -98 Q333 -127 304 -153 Q266 -188 224 -214 Q211 -222 197.5 -228 Q184 -234 170 -238 Q151 -243 137 -242 Q128 -242 121 -239 Q103 -232 103 -212 Q103 -200 110 -186 Q115 -175 122.5 -166.5 Q130 -158 138 -150 Q176 -115 226 -97 Q253 -87 281 -79 Q309 -71 338 -66 Q343 -65 349 -64.5 Q355 -64 360 -63 Q365 -63 368.5 -63.5 Q372 -64 377 -65 Z M369 -73 L361 -73 Q355 -74 348.5 -74.5 Q342 -75 336 -76 Q290 -85 241 -102 Q194 -116 158 -145 Q147 -153 138 -163 Q129 -173 122 -185 Q116 -194 113 -206 Q111 -215 115 -222 Q119 -229 129 -231 Q134 -233 147 -233 Q159 -232 171 -228 Q183 -224 194 -219 Q214 -210 232 -198 Q250 -186 267 -172 Q294 -151 318.5 -127 Q343 -103 366 -77 Q368 -75 369 -73 Z " />
<glyph glyph-name="E" unicode="E" horiz-adv-x="558" d="M747 719 Q760 712 767.5 701 Q775 690 775 674 Q775 655 767 634 Q760 617 751.5 602 Q743 587 734 573 Q718 548 700.5 525.5 Q683 503 665 480 Q630 438 595 398 Q560 358 523 320 Q519 317 517 312 Q514 308 510 309 Q505 311 507 316 Q508 318 509 319.5 Q510 321 511 323 Q516 328 520 332 Q524 336 528 341 Q575 390 618.5 441 Q662 492 703 546 Q717 564 728.5 582 Q740 600 750 620 Q755 631 758.5 641.5 Q762 652 764 663 Q769 698 739 711 Q728 716 716.5 718 Q705 720 694 720 Q665 720 637.5 714 Q610 708 583 699 Q541 685 503.5 665 Q466 645 430 620 Q382 588 339 550 Q296 512 256 469 Q230 440 205 410.5 Q180 381 158 348 Q143 327 130 304.5 Q117 282 107 258 Q97 236 92 211 Q90 201 90 191.5 Q90 182 92 172 Q98 146 124 138 Q134 135 143.5 134.5 Q153 134 163 135 Q183 137 202 142 Q221 147 240 153 Q276 165 312.5 177.5 Q349 190 385 203 Q420 215 455.5 227.5 Q491 240 526 252 L535 255 Q540 257 542 252 Q544 247 538 244 Q536 242 533.5 241.5 Q531 241 529 239 Q484 214 440.5 187 Q397 160 355 130 Q304 93 258.5 52.5 Q213 12 172 -36 Q157 -54 143 -72 Q129 -90 117 -110 Q111 -121 105.5 -132.5 Q100 -144 98 -156 Q95 -167 95 -177 Q97 -203 119 -212 Q129 -216 138.5 -216.5 Q148 -217 158 -216 Q178 -214 196 -208 Q214 -202 231 -194 Q249 -185 266 -174 Q283 -163 300 -151 L411 -67 Q440 -46 467.5 -25.5 Q495 -5 524 16 Q525 16 527 17 Q529 18 531 16 Q533 12 531 10 Q530 8 529 8 Q525 5 521 2 Q517 -1 512 -4 Q466 -39 420.5 -73.5 Q375 -108 328 -143 Q308 -157 288.5 -170.5 Q269 -184 248 -196 Q232 -205 215.5 -212 Q199 -219 181 -223 Q158 -229 134 -226 Q129 -225 125 -224.5 Q121 -224 116 -222 Q82 -208 85 -170 Q88 -145 100 -121 Q108 -104 119 -88 Q130 -72 142 -56 Q177 -12 216.5 26.5 Q256 65 299 100 Q342 135 386.5 164.5 Q431 194 478 222 L484 225 L484 226 Q475 223 466 220 Q457 217 449 214 Q406 199 363.5 184 Q321 169 278 155 Q256 147 234.5 140.5 Q213 134 191 129 Q178 127 165.5 125 Q153 123 141 124 Q133 125 126 126.5 Q119 128 113 131 Q85 144 80 179 Q78 202 84 222 Q90 248 101 271.5 Q112 295 126 318 Q146 351 169 381.5 Q192 412 217 441 Q296 532 388 602 Q425 630 463.5 653.5 Q502 677 544 695 Q570 706 597 714 Q624 722 653 727 Q679 732 706 730 Q717 728 727 726 Q737 724 747 719 Z " />
<glyph glyph-name="F" unicode="F" horiz-adv-x="331" d="M262 444 Q260 443 258.5 442.5 Q257 442 255 441 Q184 412 115.5 379 Q47 346 -21 308 Q-26 305 -30.5 302.5 Q-35 300 -40 297 L-47 290 Q-49 288 -53 288 Q-56 289 -56 293 Q-55 297 -52 300 Q-44 306 -40 308 Q-19 319 2 331 Q23 343 44 354 Q96 381 149 405.5 Q202 430 256 453 L257 453 Q259 455 262.5 455.5 Q266 456 268 458 Q271 461 273 469 Q298 525 322 579.5 Q346 634 370 690 Q377 704 381 716 L381 717 Q379 715 379 715 Q366 704 355 691.5 Q344 679 334 665 Q331 660 327 663 Q323 665 326 670 Q328 672 328.5 674 Q329 676 331 678 Q350 702 372 722 Q375 725 381 729 Q394 734 392 722 Q391 717 390 713 Q389 709 387 704 Q378 683 368.5 661.5 Q359 640 350 619 Q333 581 316.5 542.5 Q300 504 283 466 Q282 465 282 463 Q283 464 284 464 Q356 493 428.5 517.5 Q501 542 575 564 Q638 582 699.5 598.5 Q761 615 824 629 Q851 635 877.5 640.5 Q904 646 931 649 Q950 652 971 652 Q975 652 978.5 651 Q982 650 986 649 Q995 645 991 634 Q985 625 975 628 Q974 628 972 630 Q968 633 972 637 Q975 640 979 638 L981 638 Q977 642 970 642 Q945 642 926 638 Q877 631 828.5 620 Q780 609 732 596 Q667 579 603.5 561 Q540 543 477 523 Q379 492 278 451 Q275 450 274 447 Q251 393 227.5 339.5 Q204 286 181 232 Q177 224 173 215 Q169 206 165 197 Q165 196 164.5 195.5 Q164 195 164 194 Q165 194 165.5 194.5 Q166 195 167 195 Q193 206 219 216.5 Q245 227 271 238 Q288 245 306 250.5 Q324 256 342 261 Q350 263 357.5 264.5 Q365 266 373 265 Q394 263 394 243 Q394 240 393 238 Q391 234 388 234 Q382 236 384 239 Q385 247 380.5 250.5 Q376 254 370 255 Q357 255 344 252 Q328 247 312 242 Q296 237 280 231 Q250 220 220 207.5 Q190 195 160 181 Q157 180 156 177 Q136 129 115 82 Q94 35 74 -13 Q73 -14 73 -15 Q74 -15 75 -14.5 Q76 -14 77 -14 Q85 -14 81 -22 Q79 -26 76.5 -29.5 Q74 -33 72 -37 Q56 -64 43 -91 Q30 -118 18 -147 Q13 -159 7.5 -171.5 Q2 -184 -3 -197 Q-5 -201 -5 -201 Q-8 -206 -12 -204 Q-16 -202 -14 -198 Q-11 -188 -6 -175 Q19 -117 43.5 -59 Q68 -1 93 56 Q105 85 117.5 113.5 Q130 142 143 171 Q143 172 144 174 Q140 172 140 172 Q101 155 62.5 136 Q24 117 -14 97 Q-42 83 -69 71 Q-75 68 -77 73 Q-79 77 -73 80 L-34 98 Q-11 109 12.5 121 Q36 133 59 145 Q81 156 103 165.5 Q125 175 147 186 Q151 188 151 190 Q179 253 206.5 316 Q234 379 261 442 Q262 442 262 444 Z " />
<glyph glyph-name="G" unicode="G" horiz-adv-x="534" d="M580 736 Q583 735 586.5 734.5 Q590 734 594 732 Q616 724 621 701 Q624 690 623.5 680.5 Q623 671 621 660 Q617 637 609.5 616 Q602 595 593 573 Q579 540 564 507 Q549 474 532 442 Q519 417 506 392.5 Q493 368 478 345 Q469 331 459 317.5 Q449 304 437 291 Q434 288 431 285.5 Q428 283 424 280 Q422 278 418 278 Q413 278 413 282 Q411 285 416 287 Q420 289 423 292 Q435 304 447 319 Q461 337 473 356.5 Q485 376 496 396 Q519 438 540 480.5 Q561 523 579 567 Q588 587 595.5 607.5 Q603 628 608 649 Q610 659 612 669 Q614 679 612 690 Q612 698 609 704 Q602 724 578 727 Q567 729 556 727 Q545 725 534 723 Q513 718 494 710.5 Q475 703 457 694 Q418 674 384 650 Q350 626 320 597 Q285 564 256.5 528 Q228 492 203 454 Q178 415 158.5 375 Q139 335 122 293 Q86 203 68 109 Q59 63 56 15 Q55 -4 55.5 -22 Q56 -40 58 -59 Q61 -76 65.5 -92 Q70 -108 78 -123 Q85 -135 93 -143 Q119 -167 154 -160 Q167 -158 178 -153.5 Q189 -149 200 -144 Q220 -134 238 -122.5 Q256 -111 274 -99 Q311 -73 347 -47 Q383 -21 419 6 Q439 21 458.5 35.5 Q478 50 498 65 L507 71 Q509 72 509.5 72.5 Q510 73 512 74 Q517 75 520 73 Q523 71 522 67 L519 58 L498 22 L420 -107 Q413 -118 407 -128.5 Q401 -139 395 -150 Q394 -151 394 -151.5 Q394 -152 393 -153 L395 -153 Q420 -142 444 -131 Q468 -120 492 -107 Q499 -103 505.5 -99 Q512 -95 519 -91 Q534 -81 539 -69 Q540 -66 544 -66 Q548 -68 549 -69 Q551 -71 549 -74 Q544 -84 531 -94 Q522 -101 512 -107 Q502 -113 491 -118 Q468 -129 445.5 -139.5 Q423 -150 400 -161 Q395 -163 387 -167 Q385 -168 383 -170 Q375 -184 368 -196.5 Q361 -209 353 -222 Q351 -226 345 -234 Q343 -235 342 -236 Q341 -237 339 -238 Q327 -245 322 -233 Q320 -228 321 -223 Q322 -218 324 -213 Q328 -201 335.5 -192 Q343 -183 354 -175 Q359 -171 364 -168.5 Q369 -166 374 -162 Q375 -162 377 -160 Q404 -112 432.5 -65.5 Q461 -19 490 29 Q498 41 506 57 Q507 57 507 59 Q506 59 505.5 58.5 Q505 58 504 58 Q481 40 457 22 Q433 4 409 -14 Q373 -40 337 -66.5 Q301 -93 263 -118 Q230 -141 194 -157 Q170 -168 148 -171 Q108 -174 83 -147 Q65 -128 57 -100 Q52 -85 49.5 -70 Q47 -55 46 -39 Q44 -20 44.5 -1 Q45 18 47 37 Q50 72 56.5 105.5 Q63 139 71 172 Q84 221 100.5 268 Q117 315 140 361 Q162 407 189 450.5 Q216 494 249 535 Q275 567 305.5 596.5 Q336 626 371 652 Q400 674 431 691.5 Q462 709 497 722 Q511 727 524.5 730.5 Q538 734 552 736 L553 736 L580 736 Z M366 -179 L365 -179 Q357 -185 352 -190 Q336 -204 332 -223 L332 -230 L334 -230 Q345 -219 351.5 -205.5 Q358 -192 366 -179 Z " />
<glyph glyph-name="H" unicode="H" horiz-adv-x="362" d="M86 -78 Q87 -76 90 -73 Q94 -66 99 -69 Q102 -72 98 -78 Q95 -83 91.5 -87 Q88 -91 85 -96 Q83 -98 83 -100 Q74 -114 66 -127.5 Q58 -141 52 -156 Q45 -174 38 -192 Q31 -210 23 -227 Q22 -229 21 -231.5 Q20 -234 19 -236 Q15 -242 12 -240 Q8 -239 8 -233 Q10 -225 12 -222 Q18 -203 25.5 -185 Q33 -167 43 -150 Q49 -138 55 -125.5 Q61 -113 66 -99 Q101 -15 135.5 67 Q170 149 205 233 Q207 237 208 240 Q206 238 204.5 238 Q203 238 201 237 Q172 222 145 204.5 Q118 187 92 167 Q79 158 66.5 148 Q54 138 43 127 Q37 122 32 116 Q31 115 27 107 Q29 106 30 106 Q31 106 33 105 Q36 105 38 104 Q41 102 40 99 Q40 95 36 95 Q31 95 26.5 96 Q22 97 19 101 Q16 106 19 114 Q21 117 23 120 Q25 123 28 126 Q37 136 46 143 Q84 175 124 202 Q164 229 209 251 Q215 255 216 259 Q295 443 381 625 Q388 640 394 655 Q400 670 406 684 Q410 694 411 698 Q412 701 412 708 Q410 707 409 707 Q408 707 406 706 Q402 704 399 701.5 Q396 699 393 697 Q355 668 332 627 Q330 623 328 619.5 Q326 616 324 611 Q322 603 322 599 Q320 593 317 593 Q312 593 312 598 Q312 601 312 604.5 Q312 608 314 611 Q316 616 318.5 621.5 Q321 627 324 632 Q336 654 352 672 Q368 690 387 705 Q395 711 400 713 Q401 716 405 716 Q413 720 418.5 716 Q424 712 422 704 Q421 693 416 682 Q408 663 400 645 Q392 627 384 609 Q343 523 305 438 Q267 353 230 266 Q228 264 228 261 Q229 261 233 263 Q251 271 269 276.5 Q287 282 306 286 Q313 288 319.5 288.5 Q326 289 333 290 Q338 290 340 296 Q386 392 439 485 Q503 596 578 703 Q581 708 584.5 713 Q588 718 591 723 Q591 725 590 726.5 Q589 728 591 730 Q597 736 600 738 Q603 740 605 737.5 Q607 735 606 732 Q606 729 604 725 L592 707 Q575 682 558.5 657.5 Q542 633 525 608 Q476 533 433 455 Q390 377 351 296 Q350 295 350 294 Q350 293 349 291 Q354 291 357.5 290.5 Q361 290 365 289 Q408 281 411 237 Q412 222 409 207.5 Q406 193 401 178 Q393 155 382 134 Q371 113 357 93 Q352 86 346 79 Q340 72 335 65 L326 56 Q322 54 319 54 Q312 52 312 59 Q310 65 316 69 Q319 71 324 67 Q330 73 332 76 Q352 102 367.5 129 Q383 156 394 186 Q397 196 399 205.5 Q401 215 401 225 Q403 242 395 257 Q385 276 362 279 Q357 280 353 280.5 Q349 281 344 280 Q342 278 342 277 Q313 214 286 152 Q259 90 235 26 Q221 -12 208.5 -49.5 Q196 -87 185 -126 Q180 -141 176.5 -156.5 Q173 -172 171 -189 Q168 -208 173 -223 Q174 -224 174 -225 Q174 -228 171 -231 Q167 -233 165 -229 Q164 -228 164 -227 Q164 -226 163 -224 Q157 -204 162 -182 Q167 -153 175 -125 Q183 -97 192 -69 Q215 2 242 70 Q269 138 299 206 Q307 223 314.5 240.5 Q322 258 330 275 Q331 276 333 280 Q328 281 322 279 Q301 276 280.5 269.5 Q260 263 240 255 Q235 253 227 249 Q221 247 219 241 Q205 209 191.5 176.5 Q178 144 164 111 Q144 65 125.5 19.5 Q107 -26 87 -72 Q87 -75 85 -77 Q86 -78 86 -78 Z " />
<glyph glyph-name="I" unicode="I" horiz-adv-x="280" d="M269 224 Q274 226 284 228 Q293 231 302 234.5 Q311 238 320 241 Q325 243 333 247 Q338 250 340 247 Q343 242 339 239 Q333 237 327.5 234 Q322 231 316 229 Q304 224 291.5 221 Q279 218 267 213 Q264 213 263 210 L191 42 Q171 -4 153.5 -50 Q136 -96 119 -143 Q114 -156 110.5 -169 Q107 -182 102 -195 Q101 -196 101 -198 Q107 -199 106 -205 Q106 -216 98 -229 L95 -232 Q90 -235 87 -234 Q82 -233 84 -228 Q84 -221 85 -218 Q90 -202 94.5 -186.5 Q99 -171 104 -155 Q133 -73 165.5 7.5 Q198 88 233 169 Q238 179 242 188.5 Q246 198 250 207 Q251 208 251 210 Q250 210 249 209.5 Q248 209 247 209 Q217 203 189 204 Q158 204 135 215 Q108 228 105 259 Q103 273 105.5 286.5 Q108 300 113 314 Q121 337 131.5 359.5 Q142 382 155 404 Q175 439 198 471 Q221 503 246 535 Q274 570 304 603 Q334 636 367 667 Q382 681 398 694.5 Q414 708 431 720 Q439 725 447 730 Q455 735 465 739 Q470 741 475 742 Q480 743 485 742 Q496 741 501 730 Q505 721 503 709 Q501 695 497 683 Q493 671 488 659 Q477 633 464.5 609 Q452 585 439 560 Q417 520 395.5 480.5 Q374 441 353 401 Q330 357 310 314 Q290 271 270 226 Q270 225 269 224 Z M205 213 Q213 213 225.5 215 Q238 217 252 220 Q256 220 258 225 Q283 280 308.5 333.5 Q334 387 363 441 Q381 476 399.5 509.5 Q418 543 437 578 Q448 600 459.5 622 Q471 644 480 667 Q484 677 487 687 Q490 697 492 708 Q494 718 491 725 Q488 734 479 732 Q475 732 469 730 Q461 727 454 723 Q447 719 439 714 Q423 703 408 690.5 Q393 678 379 664 Q352 639 327 612.5 Q302 586 278 558 Q246 520 217.5 481.5 Q189 443 165 401 Q153 381 143 361 Q133 341 125 319 Q120 305 117 291.5 Q114 278 115 264 Q117 233 146 221 Q158 216 171.5 214.5 Q185 213 205 213 Z " />
<glyph glyph-name="J" unicode="J" horiz-adv-x="504" d="M281 -81 Q287 -81 292 -79 Q297 -77 302 -75 Q306 -73 308 -75 Q310 -77 309.5 -79.5 Q309 -82 305 -84 Q300 -87 294.5 -88.5 Q289 -90 283 -92 Q281 -92 279 -92.5 Q277 -93 275 -93 Q271 -92 267 -97 Q247 -119 226 -139.5 Q205 -160 182 -177 Q166 -189 149.5 -198.5 Q133 -208 116 -213 Q97 -219 80 -219 Q63 -219 48 -211 Q11 -192 9 -147 Q7 -125 22 -108 Q35 -92 55 -87 Q65 -84 74.5 -83 Q84 -82 94 -82 Q120 -82 146 -82.5 Q172 -83 198 -84 Q215 -84 231.5 -83.5 Q248 -83 265 -83 Q267 -83 270 -80 Q283 -64 296.5 -48.5 Q310 -33 323 -17 Q356 25 387 67.5 Q418 110 447 154 Q475 196 501.5 238.5 Q528 281 553 324 Q573 359 591 393.5 Q609 428 624 463 Q634 485 642 506 Q650 527 656 549 Q661 566 663.5 582.5 Q666 599 665 615 Q664 635 658 652 Q652 669 638 681 Q629 689 617.5 694 Q606 699 593 702 Q574 707 554.5 707 Q535 707 515 705 Q479 701 442.5 691.5 Q406 682 370 668 Q313 647 259 618.5 Q205 590 153 553 Q124 532 97.5 508.5 Q71 485 47 458 Q11 419 -9 376 Q-17 360 -21.5 345 Q-26 330 -28 313 Q-30 276 -9 257 Q6 244 32 242 Q52 240 72 243.5 Q92 247 113 253 Q128 258 142 264 Q156 270 170 280 Q175 283 177 279 Q179 274 174 271 Q160 261 145.5 255 Q131 249 117 244 Q83 233 46 231 Q31 230 17 232.5 Q3 235 -9 243 Q-40 263 -38 306 Q-37 324 -32 341.5 Q-27 359 -19 377 Q-8 402 8 424 Q24 446 43 467 Q69 496 98.5 521 Q128 546 160 568 Q211 604 264.5 632 Q318 660 374 680 Q439 704 502 713 Q542 719 579 716 Q597 714 613.5 708 Q630 702 644 691 Q670 669 675 629 Q677 615 675 600 Q673 585 670 570 Q665 544 656.5 519.5 Q648 495 637 470 Q616 419 590.5 372 Q565 325 536 277 Q494 207 448.5 139.5 Q403 72 353 7 Q336 -16 318.5 -37 Q301 -58 283 -79 L281 -81 Z M257 -94 L256 -94 L209 -94 Q192 -94 175.5 -93.5 Q159 -93 142 -93 L80 -93 Q61 -93 46 -101 Q29 -107 23 -124 Q20 -131 19.5 -137 Q19 -143 19 -149 Q22 -178 45 -197 Q68 -216 106 -206 Q124 -201 140.5 -192 Q157 -183 173 -172 Q196 -155 216 -135.5 Q236 -116 256 -96 Q256 -95 257 -94 Z " />
<glyph glyph-name="K" unicode="K" horiz-adv-x="406" d="M68 103 L67 102 Q63 98 60 94.5 Q57 91 54 87 Q50 82 46 77 Q42 72 37 67 Q35 65 34.5 63.5 Q34 62 32 60 Q29 56 26 52 Q23 48 19 44 L4 23 Q2 20 -1 17 Q-4 14 -6 10 L-21 -11 Q-23 -15 -25.5 -18.5 Q-28 -22 -31 -26 Q-33 -30 -35 -33.5 Q-37 -37 -39 -41 Q-38 -41 -37 -42 Q-32 -47 -38 -49 Q-40 -50 -41.5 -50.5 Q-43 -51 -45 -52 Q-50 -54 -52 -49 L-52 -43 L-46 -31 Q-43 -26 -39.5 -20.5 Q-36 -15 -33 -10 Q-31 -6 -28.5 -3 Q-26 0 -24 4 L-3 31 Q-1 35 1.5 38 Q4 41 6 44 Q11 50 16 56.5 Q21 63 26 70 Q30 75 33.5 78.5 Q37 82 40 87 L61 111 Q65 116 68 119.5 Q71 123 75 128 L82 135 Q83 136 83 138 Q85 140 85.5 141.5 Q86 143 87 145 L87 148 Q85 153 89 154 L92 157 Q94 162 95.5 166.5 Q97 171 99 176 Q102 181 104.5 186.5 Q107 192 109 197 L118 218 Q120 223 122.5 228.5 Q125 234 128 239 L137 260 Q139 265 141.5 270 Q144 275 146 280 Q148 285 151 290 Q154 295 156 300 L165 321 Q167 326 169.5 331 Q172 336 174 341 Q177 346 179.5 351 Q182 356 184 361 Q186 366 188.5 371 Q191 376 193 381 Q195 386 198 391 Q201 396 203 401 Q205 406 207.5 411 Q210 416 212 421 Q214 426 216.5 431 Q219 436 222 441 Q224 446 226.5 451 Q229 456 231 461 L240 482 Q243 487 245.5 492 Q248 497 250 502 L259 523 L268 544 Q271 549 273.5 555 Q276 561 278 566 Q280 572 282 577.5 Q284 583 286 588 Q289 595 291.5 601.5 Q294 608 296 615 Q297 619 298 622.5 Q299 626 300 630 Q302 635 302.5 639.5 Q303 644 304 649 Q308 668 304 688 Q299 708 278 714 Q270 717 261.5 717 Q253 717 244 716 Q214 711 190 700 Q181 696 171.5 691.5 Q162 687 154 682 Q146 677 138 672 Q130 667 122 662 Q116 657 109.5 652.5 Q103 648 97 643 Q92 639 86.5 635 Q81 631 76 626 Q71 621 66 616.5 Q61 612 56 607 Q51 602 46 596.5 Q41 591 36 586 Q32 581 28.5 577.5 Q25 574 21 569 L6 551 L-9 530 Q-16 520 -23 508 Q-26 503 -28.5 497.5 Q-31 492 -34 487 Q-36 482 -41 484 Q-44 485 -44 490 Q-42 495 -39.5 499.5 Q-37 504 -35 509 Q-31 515 -30 518 Q-28 521 -26 524 Q-24 527 -22 530 Q-17 536 -13.5 542 Q-10 548 -5 553 Q-3 555 -2 557 Q-1 559 1 561 Q5 566 9 571.5 Q13 577 18 582 Q22 587 25.5 590.5 Q29 594 33 598 Q43 610 55 620 L67 632 Q73 637 79 642 Q85 647 91 652 Q95 655 98.5 658 Q102 661 107 664 Q113 669 119 672.5 Q125 676 132 681 Q137 684 142.5 687.5 Q148 691 153 694 Q163 699 173 703.5 Q183 708 194 713 Q204 717 213.5 719.5 Q223 722 233 724 Q244 726 255.5 726.5 Q267 727 278 724 Q294 721 306 708 Q314 695 316 680 Q318 672 317.5 665.5 Q317 659 316 652 Q314 640 312 633 Q311 628 310 624.5 Q309 621 308 616 Q306 609 303.5 602.5 Q301 596 299 590 L290 566 L281 545 L272 524 Q270 519 267 513.5 Q264 508 262 503 L253 482 Q251 477 248.5 472 Q246 467 244 462 Q241 457 238.5 452 Q236 447 234 442 Q232 437 229.5 432 Q227 427 225 422 Q223 417 220 412 Q217 407 215 402 Q213 397 210.5 392 Q208 387 206 382 Q204 377 201 372 Q198 367 196 362 Q194 357 191.5 352 Q189 347 187 342 Q185 337 182.5 332 Q180 327 178 322 Q175 317 172.5 311.5 Q170 306 168 301 Q166 296 163.5 291 Q161 286 159 281 Q157 276 154.5 270.5 Q152 265 149 260 Q147 255 144.5 250 Q142 245 140 240 L131 219 Q129 214 126 208.5 Q123 203 121 198 Q119 193 116.5 187.5 Q114 182 112 176 Q110 173 108.5 169.5 Q107 166 105 162 Q107 162 107 163 L120 176 Q125 181 128.5 185 Q132 189 137 194 Q140 197 142.5 200 Q145 203 148 206 Q154 212 160.5 218 Q167 224 173 231 L185 243 Q191 248 196.5 253.5 Q202 259 208 264 L219 275 Q225 281 231 286.5 Q237 292 244 298 L256 310 Q262 315 267.5 320 Q273 325 279 330 Q282 332 285 335 Q288 338 290 340 L314 361 Q322 367 325 370 Q332 375 338 380.5 Q344 386 350 391 Q353 394 356 396.5 Q359 399 361 401 Q368 406 374 411 Q380 416 386 421 Q388 423 391 425.5 Q394 428 396 430 Q404 436 411.5 442 Q419 448 427 454 L445 469 Q450 474 456 478 Q462 482 467 487 Q471 489 479 495 Q485 500 491 505 Q497 510 503 515 Q508 518 511.5 521 Q515 524 519 527 Q527 532 534 538 Q541 544 549 549 L567 561 Q574 566 581 571 Q588 576 595 581 Q604 585 612 592 Q621 597 629.5 602.5 Q638 608 647 613 Q658 619 669 624 Q675 627 681 627 Q687 629 689 622 Q689 619 689 619 Q688 616 684 610 L678 604 Q670 596 662 592 Q658 589 654 593 Q651 597 657 601 Q666 606 674 616 Q672 614 670.5 614 Q669 614 667 612 L649 603 Q642 598 635 594 Q628 590 621 585 Q616 583 612 580 Q608 577 603 574 Q596 569 589 564 Q582 559 574 554 L556 542 Q549 537 542.5 531.5 Q536 526 528 521 Q524 517 520 514 Q516 511 511 508 Q505 503 499 498.5 Q493 494 487 489 Q482 484 476 481 Q470 476 464 471 Q458 466 452 461 Q447 457 443 454 Q439 451 434 447 Q426 441 419.5 435.5 Q413 430 405 424 Q402 421 394 415 Q388 410 382 405 Q376 400 370 395 Q367 393 364 390 Q361 387 358 385 L334 364 Q331 362 328.5 359.5 Q326 357 323 355 L299 334 Q294 329 286 323 Q281 318 277 314.5 Q273 311 268 307 Q265 303 257 297 Q251 291 245 285.5 Q239 280 233 274 Q230 271 226.5 268 Q223 265 220 262 Q215 257 209 251 Q203 245 197 240 L187 230 Q174 218 162 205 L152 195 Q146 188 140 182 Q134 176 128 170 Q124 166 121 162.5 Q118 159 114 154 Q112 152 110.5 150.5 Q109 149 107 147 Q112 142 116.5 138 Q121 134 126 130 L132 124 L153 103 Q157 99 161 95 Q165 91 170 87 Q177 80 184 73.5 Q191 67 199 60 Q203 56 207 52.5 Q211 49 216 45 Q223 39 230 33 Q237 27 244 21 Q250 16 255.5 11.5 Q261 7 267 2 Q275 -3 281.5 -9 Q288 -15 296 -20 Q301 -25 307 -29 Q313 -33 318 -38 Q326 -43 332.5 -48.5 Q339 -54 347 -59 Q357 -67 369 -75 Q377 -82 386 -88 Q395 -94 403 -100 Q416 -110 426 -116 Q434 -122 442.5 -128 Q451 -134 460 -140 Q465 -144 470.5 -147.5 Q476 -151 482 -154 Q492 -161 501.5 -167 Q511 -173 521 -179 Q529 -184 536 -188 Q543 -192 551 -196 Q553 -197 555 -199 Q558 -202 557 -203 Q554 -206 554 -206 Q551 -208 549 -206 Q544 -203 538 -200 Q532 -197 527 -193 Q519 -188 511 -183.5 Q503 -179 495 -174 Q486 -169 475 -161 Q469 -157 462.5 -153 Q456 -149 449 -144 Q445 -142 437 -136 Q429 -130 420.5 -124.5 Q412 -119 404 -113 Q399 -109 394.5 -106 Q390 -103 385 -99 Q378 -94 372 -89.5 Q366 -85 359 -80 L347 -71 Q339 -65 330.5 -59 Q322 -53 314 -46 Q309 -42 304 -38.5 Q299 -35 294 -31 Q287 -26 281 -21 Q275 -16 268 -11 Q265 -9 262 -6 Q259 -3 256 -1 Q249 4 242.5 10 Q236 16 229 21 Q225 23 222 26 Q219 29 216 31 Q209 38 202 44 Q195 50 188 56 Q185 59 181.5 62 Q178 65 175 69 Q168 75 162 80.5 Q156 86 150 92 L133 109 Q125 116 118.5 122.5 Q112 129 104 136 Q103 137 102 137.5 Q101 138 100 139 Q98 137 95.5 134.5 Q93 132 91 128 Q88 120 85 113.5 Q82 107 79 100 Q77 95 74.5 89.5 Q72 84 70 78 Q68 73 65.5 67.5 Q63 62 61 56 Q59 51 56.5 46 Q54 41 52 36 Q47 24 42 13 Q40 8 37.5 2.5 Q35 -3 33 -9 Q31 -14 28.5 -20 Q26 -26 24 -31 Q22 -37 19.5 -42.5 Q17 -48 15 -54 Q13 -59 10.5 -65 Q8 -71 5 -76 Q3 -82 0.5 -87.5 Q-2 -93 -4 -99 Q-6 -105 -8.5 -111 Q-11 -117 -13 -122 L-22 -146 L-31 -170 Q-33 -176 -35.5 -182.5 Q-38 -189 -40 -195 L-46 -213 Q-47 -215 -47 -219 Q-47 -222 -45 -223 Q-42 -224 -42 -229 Q-44 -232 -47 -232 Q-50 -232 -50 -231 Q-58 -225 -58 -220 Q-57 -216 -57 -213 Q-57 -210 -55 -207 Q-52 -194 -48 -184 Q-47 -181 -46 -178 Q-45 -175 -44 -172 Q-39 -157 -34 -147 Q-32 -141 -30 -135.5 Q-28 -130 -26 -124 Q-24 -118 -21 -112 Q-18 -106 -16 -100 Q-14 -94 -11.5 -88.5 Q-9 -83 -7 -77 Q-5 -72 -2.5 -66 Q0 -60 2 -54 Q4 -49 6.5 -43.5 Q9 -38 11 -32 Q14 -27 16.5 -21 Q19 -15 21 -9 L30 12 Q32 18 34.5 23.5 Q37 29 39 35 L48 56 Q50 61 52.5 66.5 Q55 72 58 78 L67 99 Q67 100 67.5 100.5 Q68 101 68 103 Z " />
<glyph glyph-name="L" unicode="L" horiz-adv-x="220" d="M0 -143 Q3 -144 6 -145 Q9 -146 12 -147 Q38 -155 64.5 -160.5 Q91 -166 118 -171 Q151 -177 184.5 -182 Q218 -187 252 -191 L375 -206 Q402 -209 428.5 -211.5 Q455 -214 482 -216 Q501 -218 520 -219 Q539 -220 558 -222 Q572 -223 586 -222.5 Q600 -222 614 -217 L617 -217 Q620 -217 622 -220 Q624 -223 620 -225 Q616 -227 614 -227 Q603 -230 593 -231 Q583 -232 572 -232 Q551 -232 530 -230.5 Q509 -229 489 -227 Q472 -225 454.5 -223.5 Q437 -222 420 -220 Q400 -218 381 -216 Q362 -214 342 -212 Q322 -210 301.5 -207 Q281 -204 261 -202 Q212 -196 163.5 -189 Q115 -182 67 -171 Q29 -164 -8 -151 Q-13 -149 -16 -151 Q-30 -158 -42 -158 Q-62 -161 -78 -149 Q-97 -135 -98 -113 L-98 -108 Q-96 -95 -83 -100 Q-80 -101 -74 -105 Q-70 -107 -66.5 -110 Q-63 -113 -60 -115 Q-40 -128 -17 -137 Q-13 -139 -10 -136 Q-1 -131 6.5 -125 Q14 -119 22 -112 Q39 -97 52.5 -80.5 Q66 -64 79 -47 Q102 -16 122.5 15.5 Q143 47 163 79 Q214 162 259.5 245.5 Q305 329 346 416 Q363 451 377.5 486 Q392 521 403 556 Q415 593 421 627 Q423 640 423 653 Q423 666 420 679 Q417 690 411 699 Q405 708 394 714 Q382 719 364 721 Q331 722 298 713 Q270 706 244.5 696 Q219 686 193 674 Q88 623 3 547 Q-35 515 -66 473 Q-74 462 -80 451 Q-86 440 -91 428 Q-93 423 -95 413 Q-96 410 -96 403 Q-94 395 -88 394 Q-87 394 -87 393 Q-81 391 -83 388 Q-84 384 -89 384 Q-97 386 -101 391 Q-108 398 -106 409 Q-105 419 -102 428 Q-99 437 -94 445 Q-77 480 -49 509 Q-24 538 4 562 Q32 586 63 608 Q103 637 145.5 660.5 Q188 684 235 703 Q255 711 275.5 717.5 Q296 724 318 728 Q345 733 369 730 Q383 728 394.5 724 Q406 720 415 710 Q428 697 431 678 Q435 656 432 630 Q427 601 419 572.5 Q411 544 400 516 Q383 471 363.5 428.5 Q344 386 323 344 Q281 263 237 184.5 Q193 106 144 29 Q126 1 107 -26 Q88 -53 67 -79 Q46 -105 23 -125 Q18 -130 12 -134 Q6 -138 0 -143 Z M-26 -145 Q-27 -144 -27 -143 Q-29 -143 -29.5 -142.5 Q-30 -142 -31 -142 Q-53 -133 -72 -118 Q-74 -116 -77 -114.5 Q-80 -113 -82 -111 Q-86 -109 -88 -110 Q-86 -131 -69 -143 Q-59 -150 -48 -149.5 Q-37 -149 -26 -145 Z " />
<glyph glyph-name="M" unicode="M" horiz-adv-x="535" d="M688 566 Q686 558 683.5 551 Q681 544 678 536 Q667 510 655.5 484.5 Q644 459 633 433 Q608 375 584 317.5 Q560 260 538 201 Q519 149 502.5 97 Q486 45 470 -9 Q459 -44 449.5 -79 Q440 -114 432 -149 Q428 -164 425 -179 Q422 -194 420 -210 Q419 -213 419 -218 Q420 -219 421 -219 Q426 -219 427 -223 Q429 -226 423 -230 Q419 -233 415 -231.5 Q411 -230 410 -225 Q409 -220 409 -210 Q411 -202 412 -193.5 Q413 -185 415 -177 Q427 -120 443.5 -64 Q460 -8 477 49 Q506 147 542.5 242 Q579 337 621 431 Q633 458 645 485.5 Q657 513 669 541 Q671 546 672.5 551 Q674 556 676 561 Q677 563 677 567 Q673 565 672 563 Q664 555 656.5 548 Q649 541 642 533 Q616 504 592 474.5 Q568 445 544 415 Q501 359 461 303 Q421 247 383 188 Q348 134 317.5 78 Q287 22 259 -36 Q256 -44 252.5 -50.5 Q249 -57 245 -64 L242 -70 Q239 -73 236 -72 Q231 -71 233 -66 Q233 -63 235 -59 Q244 -36 253 -13.5 Q262 9 272 32 Q314 127 358 219 Q402 311 449 403 Q469 442 488 481 Q507 520 526 559 Q534 573 539.5 587.5 Q545 602 551 616 Q553 619 553.5 622.5 Q554 626 556 629 Q556 631 556.5 634 Q557 637 557 640 Q555 639 554 638.5 Q553 638 551 637 Q547 634 543 631.5 Q539 629 536 626 Q522 614 509.5 601.5 Q497 589 486 575 Q439 524 396.5 469.5 Q354 415 314 358 Q276 304 241.5 250 Q207 196 173 140 Q141 85 108.5 30 Q76 -25 44 -80 Q39 -88 34.5 -95.5 Q30 -103 25 -111 Q24 -114 20 -118 Q15 -125 9 -123 Q6 -121 6 -118.5 Q6 -116 6 -113 Q7 -109 7.5 -106 Q8 -103 9 -99 Q14 -79 21 -60.5 Q28 -42 36 -24 Q59 33 82.5 88.5 Q106 144 132 199 Q161 262 190.5 324 Q220 386 249 449 Q268 489 285.5 528.5 Q303 568 320 610 Q328 628 334.5 646.5 Q341 665 346 684 Q348 692 349 698.5 Q350 705 350 713 Q350 732 333 725 Q326 723 320 719.5 Q314 716 307 713 Q293 704 279.5 693.5 Q266 683 253 672 Q199 627 150.5 577.5 Q102 528 58 472 Q36 443 16.5 414 Q-3 385 -20 353 Q-29 336 -37 317.5 Q-45 299 -50 280 Q-54 266 -56 252 Q-58 238 -56 224 Q-55 210 -48 195 Q-46 191 -43 187 Q-40 183 -35 181 Q-30 179 -33 174 Q-36 170 -41 172 Q-47 175 -52 182 Q-62 195 -65 214 Q-70 243 -62 272 Q-57 294 -49 314.5 Q-41 335 -30 355 Q-14 385 4.5 413.5 Q23 442 44 469 Q142 598 270 699 Q280 707 290.5 714 Q301 721 312 727 Q326 736 336 737 Q357 741 360 720 Q361 711 360 702.5 Q359 694 357 686 Q352 666 344.5 646 Q337 626 329 606 Q313 565 295.5 525.5 Q278 486 259 446 Q227 377 195.5 310 Q164 243 132 174 Q108 121 85 68 Q62 15 40 -39 Q35 -53 30.5 -66 Q26 -79 21 -93 Q21 -95 20.5 -96 Q20 -97 20 -99 Q22 -98 24 -94 Q38 -71 51 -48 Q64 -25 78 -2 Q116 64 155 129 Q194 194 236 259 Q284 336 336.5 408 Q389 480 449 549 Q465 567 481 585 Q497 603 514 620 Q520 625 526 630.5 Q532 636 539 641 Q547 647 551 649 Q559 652 563.5 649 Q568 646 567 638 Q567 633 566 629 Q565 625 563 620 Q558 604 551.5 588.5 Q545 573 537 558 Q517 518 497.5 478.5 Q478 439 458 399 Q417 319 378.5 238.5 Q340 158 303 76 Q300 73 300 68 Q301 70 303 72 Q339 138 379 200.5 Q419 263 464 325 Q536 425 617 520 Q627 531 637 542.5 Q647 554 658 565 Q661 568 664.5 571 Q668 574 672 577 L678 580 Q684 581 688 574 L688 566 Z " />
<glyph glyph-name="N" unicode="N" horiz-adv-x="412" d="M50 -87 Q55 -79 58.5 -71.5 Q62 -64 67 -56 Q159 116 273 275 Q372 414 490 544 Q551 611 619 673 Q633 685 647.5 696.5 Q662 708 678 718 Q687 724 697 729 Q699 730 701 730 Q703 730 705 731 Q718 733 720 720 Q720 714 718.5 709 Q717 704 715 699 Q710 687 704.5 676 Q699 665 693 654 Q675 625 657.5 595.5 Q640 566 622 537 Q582 471 543 406 Q504 341 467 275 Q438 224 411 173 Q384 122 358 70 Q338 32 319 -6.5 Q300 -45 283 -84 Q274 -103 265.5 -122.5 Q257 -142 251 -162 Q249 -169 247 -181 Q246 -188 255 -190 Q261 -190 259 -195 Q259 -200 254 -200 Q246 -201 241 -195.5 Q236 -190 236 -182 Q237 -174 239 -167 Q241 -160 243 -153 Q251 -132 259.5 -111.5 Q268 -91 278 -71 Q310 -2 344 64.5 Q378 131 413 198 Q440 249 468.5 298.5 Q497 348 526 398 Q552 441 578 483 Q604 525 630 568 Q646 594 661.5 620 Q677 646 691 672 Q696 681 700.5 690 Q705 699 708 710 Q709 712 709 718 Q710 721 705 721 Q698 719 694 716 Q682 710 671.5 702.5 Q661 695 651 687 Q627 667 604.5 646 Q582 625 561 603 Q498 540 440.5 472.5 Q383 405 329 334 Q278 268 232 199 Q186 130 143 58 Q121 22 101 -14.5 Q81 -51 61 -89 Q57 -95 53.5 -101 Q50 -107 46 -114 Q45 -115 44.5 -116 Q44 -117 43 -118 Q40 -123 36 -121 Q32 -120 32 -114 Q33 -112 33 -109.5 Q33 -107 34 -105 Q39 -85 45.5 -65.5 Q52 -46 60 -26 Q90 57 122.5 139 Q155 221 188 303 Q204 344 219.5 384.5 Q235 425 251 466 Q263 496 273.5 526 Q284 556 292 587 Q297 604 300 621.5 Q303 639 304 657 Q305 666 304.5 675 Q304 684 301 692 Q292 717 266 718 Q253 719 240.5 716 Q228 713 215 709 Q191 701 169 689 Q147 677 126 663 Q32 602 -35 509 Q-49 489 -61 468.5 Q-73 448 -81 425 Q-86 411 -89.5 397 Q-93 383 -94 368 Q-97 335 -84 307 Q-67 274 -30 263 Q-18 258 -7 259 Q0 259 -2 253 Q-2 250 -7 248 Q-16 248 -23.5 250 Q-31 252 -39 255 Q-96 276 -104 339 Q-106 359 -103 378.5 Q-100 398 -94 418 Q-85 445 -71.5 469.5 Q-58 494 -41 517 Q35 622 145 686 Q163 697 182.5 706.5 Q202 716 223 722 Q244 728 266 728 Q304 726 312 690 Q314 680 314.5 670 Q315 660 314 649 Q312 624 306 600 Q300 576 292 552 Q280 513 265.5 475 Q251 437 236 399 Q211 336 186 272.5 Q161 209 136 145 Q117 97 99 49 Q81 1 63 -48 Q59 -57 56 -66.5 Q53 -76 50 -85 L50 -87 Z " />
<glyph glyph-name="O" unicode="O" horiz-adv-x="585" d="M411 -64 L410 -63 Q398 -52 390 -39 Q382 -26 376 -11 Q371 3 367 17.5 Q363 32 361 47 Q359 59 359.5 71 Q360 83 362 96 Q367 138 379.5 179 Q392 220 408 260 Q440 338 480 412 Q520 486 569 556 Q605 607 645 649 Q656 661 668.5 672.5 Q681 684 695 695 Q704 701 712.5 706 Q721 711 731 714 Q736 716 741.5 717 Q747 718 752 717 Q769 717 779 701 Q784 693 786 684 Q788 675 789 666 Q790 650 788 634.5 Q786 619 783 604 Q776 571 765 539.5 Q754 508 740 477 Q721 432 699.5 388.5 Q678 345 654 303 Q608 219 558.5 138.5 Q509 58 454 -20 Q448 -29 442 -38 Q436 -47 429 -56 Q428 -57 426 -61 Q445 -73 471 -65 Q488 -59 504 -48 Q529 -29 550 -5 Q558 5 566.5 14.5 Q575 24 583 35 Q584 36 584 36.5 Q584 37 585 38 Q589 40 591 38 Q595 36 593 33 Q593 31 591 29 Q573 5 552.5 -17 Q532 -39 508 -58 Q489 -71 472 -76 Q446 -84 424 -72 Q424 -72 420 -70 L419 -70 Q418 -72 417 -72.5 Q416 -73 415 -75 Q397 -99 378 -121.5 Q359 -144 338 -165 Q324 -179 309.5 -191 Q295 -203 278 -213 Q257 -226 232 -231 Q196 -237 167 -217 Q145 -203 130 -177 Q119 -160 111.5 -141 Q104 -122 99 -102 Q93 -80 90 -58 Q87 -36 85 -13 Q83 18 83.5 48.5 Q84 79 86 110 Q89 136 93 162 Q97 188 102 214 Q113 264 128 312 Q143 360 163 408 Q180 447 200 484.5 Q220 522 245 557 Q261 579 278 599.5 Q295 620 315 639 Q331 653 348 665.5 Q365 678 384 687 Q408 698 431 701 Q445 703 456 700 Q486 694 489 661 Q492 636 479 609 Q476 604 472 605 Q467 607 470 613 Q472 617 473 620 Q474 623 475 627 Q481 645 478 663 Q475 688 449 691 Q439 693 429 691 Q419 689 409 686 Q375 675 343 649 Q324 635 308 618 Q292 601 277 583 Q251 551 230.5 517 Q210 483 193 447 Q167 394 148 340 Q129 286 116 229 Q107 188 101.5 147.5 Q96 107 94 65 Q92 24 95 -16 Q98 -56 108 -95 Q113 -115 119.5 -134 Q126 -153 137 -170 Q142 -178 148.5 -186 Q155 -194 163 -201 Q187 -223 219 -222 Q229 -222 238.5 -219.5 Q248 -217 257 -213 Q269 -208 279.5 -200.5 Q290 -193 301 -185 Q334 -158 365 -122 Q376 -108 386.5 -95 Q397 -82 408 -68 Q409 -67 409.5 -66 Q410 -65 411 -64 Z M417 -55 L419 -53 Q425 -45 431 -36.5 Q437 -28 442 -20 Q492 51 537 124 Q582 197 625 272 Q652 320 677 367.5 Q702 415 725 466 Q739 498 751 530 Q763 562 771 595 Q779 629 779 658 Q779 666 778 674 Q777 682 773 690 Q766 711 742 706 Q729 703 714 695 Q700 686 687.5 675.5 Q675 665 664 654 Q638 629 616 601.5 Q594 574 574 545 Q539 495 509 442.5 Q479 390 453 335 Q434 297 418 258.5 Q402 220 390 179 Q383 155 378 130.5 Q373 106 371 81 Q370 70 370 60.5 Q370 51 372 40 Q374 29 377 19 Q380 9 384 -2 Q389 -16 395.5 -28 Q402 -40 413 -51 Q414 -52 415 -52.5 Q416 -53 417 -55 Z " />
<glyph glyph-name="P" unicode="P" horiz-adv-x="449" d="M718 588 Q718 586 717.5 585.5 Q717 585 717 583 Q711 554 701 526 Q691 498 678 470 Q658 426 633 385 Q608 344 580 304 Q505 199 412 109 Q383 83 353 59 Q323 35 291 15 Q268 1 243.5 -10.5 Q219 -22 193 -29 Q172 -36 153 -37 L148 -37 Q131 -83 115 -128.5 Q99 -174 87 -221 Q88 -221 88 -221.5 Q88 -222 89 -222 Q94 -225 94 -230.5 Q94 -236 89 -241 Q85 -245 81 -244.5 Q77 -244 76 -239 Q76 -232 77 -229 Q79 -221 80.5 -213 Q82 -205 84 -197 Q95 -157 109 -118 Q123 -79 138 -40 L138 -38 Q134 -37 130.5 -37 Q127 -37 123 -36 Q93 -33 76 -13 Q61 7 64 34 Q65 51 71 68 Q77 85 86 102 Q96 121 107.5 138 Q119 155 132 172 Q171 221 219 269 Q240 292 261.5 313 Q283 334 304 356 Q321 373 331 393 Q345 418 359 443 Q373 468 390 492 Q393 497 396.5 501.5 Q400 506 404 511 L410 517 Q413 519 416 518 Q419 517 419 513 Q419 510 417 502 Q408 475 393 451 Q383 434 371 418.5 Q359 403 346 388 Q344 386 342 383.5 Q340 381 338 379 Q329 371 322 357 Q293 299 266 241.5 Q239 184 213 125 Q197 88 182.5 51.5 Q168 15 154 -22 Q153 -24 153 -24.5 Q153 -25 152 -27 L161 -27 Q184 -24 206.5 -16 Q229 -8 251 3 Q280 17 305.5 35 Q331 53 357 73 Q421 126 480 192 Q524 241 562 292.5 Q600 344 632 401 Q647 428 661 455 Q675 482 686 511 Q705 559 712 605 Q715 623 715 640.5 Q715 658 710 675 Q697 721 647 732 Q631 736 615 735 Q599 734 582 732 Q550 726 520 715 Q490 704 460 688 Q329 620 230 505 Q212 483 196 460.5 Q180 438 167 412 Q159 398 153.5 383 Q148 368 146 353 Q144 342 144.5 332 Q145 322 148 313 Q161 282 195 283 Q213 285 224 298 Q226 302 230 301 Q233 301 233 298 Q232 296 232 295.5 Q232 295 231 293 Q222 283 214 279 Q192 269 170 277 Q153 283 145 295.5 Q137 308 135 326 Q134 338 136 350 Q138 362 142 375 Q149 398 160 419 Q171 440 185 460 Q205 489 228 516 Q251 543 277 568 Q361 648 459 698 Q485 711 511.5 721 Q538 731 565 737 Q596 746 631 744 Q670 742 695 719 Q705 710 711 698.5 Q717 687 721 673 Q727 645 722 612 Q721 608 721 604.5 Q721 601 720 598 Q720 594 718 588 Z M305 344 Q304 343 303.5 343 Q303 343 302 342 Q284 324 266 306 Q248 288 231 269 Q207 245 184.5 220.5 Q162 196 142 170 Q128 152 115.5 134 Q103 116 93 96 Q77 66 73 38 Q70 11 84 -6 Q97 -20 117 -25 Q129 -28 142 -28 Q178 67 218.5 159.5 Q259 252 305 344 Z M348 405 Q355 412 365 425.5 Q375 439 384 453.5 Q393 468 399 481 Q405 494 405 499 Q389 476 375.5 452.5 Q362 429 348 405 Z " />
<glyph glyph-name="Q" unicode="Q" horiz-adv-x="499" d="M238 -187 Q248 -191 261 -194 Q289 -202 316.5 -207.5 Q344 -213 373 -217 Q428 -225 478 -222 Q502 -221 525 -218 Q548 -215 571 -207 Q579 -205 585.5 -202 Q592 -199 599 -196 Q600 -196 601 -195.5 Q602 -195 603 -195 Q607 -197 607 -199 Q608 -204 604 -205 L589 -211 Q570 -219 550 -223.5 Q530 -228 510 -230 Q484 -233 458.5 -232.5 Q433 -232 407 -230 Q318 -223 229 -195 Q227 -194 225 -196 Q211 -204 196.5 -210 Q182 -216 167 -218 Q103 -230 62 -181 Q48 -164 40.5 -145 Q33 -126 29 -105 Q24 -84 29 -63 Q31 -53 36 -46 Q46 -31 63 -39 Q73 -43 81 -53 Q89 -62 95.5 -71.5 Q102 -81 110 -91 Q121 -105 131.5 -118.5 Q142 -132 156 -143 Q185 -169 223 -183 Q226 -183 228 -182 Q258 -162 286 -134 Q310 -109 331 -82.5 Q352 -56 372 -27 Q404 20 432 67.5 Q460 115 486 166 Q512 218 536 271 Q560 324 581 379 Q596 420 609 461 Q622 502 631 544 Q636 564 639 583 Q642 602 643 622 Q645 638 644.5 653.5 Q644 669 640 684 Q638 689 636.5 694 Q635 699 633 704 Q619 731 586 728 Q572 726 560 722 Q548 718 536 712 Q515 702 496 689.5 Q477 677 459 663 Q424 636 393 606.5 Q362 577 333 545 Q292 500 256.5 453 Q221 406 191 355 Q171 322 154.5 288.5 Q138 255 125 219 Q117 198 111 176.5 Q105 155 102 133 Q100 116 99.5 98.5 Q99 81 104 64 Q106 59 107.5 54 Q109 49 113 44 Q118 36 127 36 Q130 36 136 38 Q140 38 142 36 Q144 34 142 31 Q140 29 139 29 Q117 19 104 39 Q99 47 96.5 55 Q94 63 92 71 Q89 87 89.5 102.5 Q90 118 92 133 Q97 168 108 201 Q119 234 133 266 Q152 308 175 347.5 Q198 387 224 425 Q262 480 305 530 Q348 580 399 625 Q422 647 447.5 667 Q473 687 501 704 Q516 713 531.5 720.5 Q547 728 564 733 Q584 740 602 737 Q630 733 642 708 Q647 699 649.5 689 Q652 679 653 668 Q655 646 653.5 624.5 Q652 603 649 580 Q641 535 629 492 Q617 449 601 406 Q541 238 453 83 Q429 40 402.5 -1 Q376 -42 345 -81 Q329 -101 312 -120.5 Q295 -140 275 -158 Q267 -166 258 -172 Q249 -178 240 -186 Q239 -187 238 -187 Z M215 -190 Q209 -188 207 -187 Q160 -167 124 -125 Q115 -114 106.5 -102.5 Q98 -91 89 -79 Q80 -67 69 -56 Q67 -53 63.5 -51 Q60 -49 57 -47 Q51 -44 46 -50 Q44 -52 43 -54 Q42 -56 41 -58 Q38 -66 37.5 -72.5 Q37 -79 37 -87 Q38 -109 46 -132 Q52 -146 60 -159.5 Q68 -173 79 -184 Q107 -210 144 -210 Q167 -211 193 -200 Q198 -198 203.5 -195.5 Q209 -193 215 -190 Z " />
<glyph glyph-name="R" unicode="R" horiz-adv-x="478" d="M601 -226 Q603 -230 602 -231 Q599 -234 598 -234 Q596 -236 594 -233 Q589 -229 584 -225.5 Q579 -222 574 -217 Q566 -211 559 -205.5 Q552 -200 545 -194 Q540 -190 536 -186 Q532 -182 527 -178 Q522 -173 516 -168 Q510 -163 504 -158 Q502 -156 499 -153 Q496 -150 493 -148 Q486 -141 479 -134 Q472 -127 464 -120 Q459 -116 455.5 -112 Q452 -108 447 -104 L424 -81 Q421 -79 418.5 -76 Q416 -73 413 -71 Q405 -63 398.5 -56 Q392 -49 384 -41 L366 -23 Q361 -17 355 -11 Q349 -5 344 0 Q341 3 338.5 6 Q336 9 333 12 Q327 18 321 24.5 Q315 31 309 38 Q307 40 304 43 Q301 46 298 50 Q292 57 286 63.5 Q280 70 274 78 Q271 82 268.5 85 Q266 88 263 92 Q258 99 252.5 105.5 Q247 112 242 120 L227 138 Q221 146 215 153.5 Q209 161 203 169 L202 170 Q201 169 200.5 169 Q200 169 199 168 Q177 149 155 138 Q145 133 137 133 Q129 132 125 136.5 Q121 141 123 149 Q125 157 128 161 Q139 181 157 190 Q180 204 201 186 Q203 186 203 184 L206 187 Q230 209 252 232 Q274 255 295 280 Q332 324 365 369 Q398 414 428 463 Q443 486 456.5 510 Q470 534 481 560 Q486 571 490.5 582.5 Q495 594 497 606 Q500 619 499 628 Q498 641 485 638 Q478 637 472.5 634.5 Q467 632 461 628 Q447 619 435 608.5 Q423 598 412 587 Q362 539 319 485 Q276 434 236 382 Q196 330 158 275 Q69 146 -5 9 Q-17 -13 -28.5 -34.5 Q-40 -56 -52 -79 Q-56 -83 -57 -87 L-60 -90 Q-64 -92 -66 -90 Q-69 -89 -69 -85 Q-68 -83 -68 -80 Q-68 -77 -66 -75 Q-59 -57 -53 -38.5 Q-47 -20 -39 -2 Q2 98 44.5 195.5 Q87 293 131 391 Q157 448 182 504 Q207 560 232 617 Q242 638 250.5 659 Q259 680 267 702 Q269 709 271 715.5 Q273 722 274 730 L274 735 Q270 735 268 733 Q263 729 258 726 Q253 723 248 719 Q228 703 211.5 685.5 Q195 668 178 649 Q172 642 166.5 636 Q161 630 156 623 Q154 621 152 617 Q150 613 145 615 Q141 617 143 622 Q144 623 146 627 Q166 652 187.5 675.5 Q209 699 233 720 Q246 731 259 740 Q267 744 271 745 Q284 747 284 734 Q284 724 281 715 Q277 699 271.5 684.5 Q266 670 260 655 Q242 614 224 574 Q206 534 188 494 Q153 413 117 334 Q81 255 46 174 Q27 130 9 86.5 Q-9 43 -28 -1 Q-32 -10 -35 -18.5 Q-38 -27 -41 -35 Q-42 -36 -42 -38 Q-41 -37 -41 -36 Q-14 15 14 64 Q42 113 72 162 Q126 248 184 329 Q242 410 308 488 Q331 515 354 541.5 Q377 568 403 593 Q427 617 456 637 Q461 640 467 643 Q473 646 479 648 Q509 654 509 624 Q509 614 507 604.5 Q505 595 502 586 Q496 566 487.5 548 Q479 530 469 512 Q444 466 415.5 424 Q387 382 355 340 Q330 307 304 275 Q278 243 249 214 Q241 206 232 197.5 Q223 189 214 181 L209 176 Q213 172 216 168 Q219 164 223 160 Q226 157 228 153 Q233 147 237 141 Q241 135 246 130 Q250 125 253.5 120.5 Q257 116 261 111 Q267 103 273 95.5 Q279 88 285 80 Q289 75 292.5 71 Q296 67 300 63 Q312 48 325 35 Q330 30 335 24.5 Q340 19 345 14 Q351 7 357 0.5 Q363 -6 370 -13 Q379 -24 390 -33 Q396 -40 402 -46 Q408 -52 415 -59 L434 -78 Q442 -86 449.5 -93 Q457 -100 465 -108 Q470 -113 475 -117 Q480 -121 485 -126 Q493 -134 500 -140.5 Q507 -147 515 -155 Q520 -160 525 -164 Q530 -168 535 -172 Q544 -180 552.5 -187.5 Q561 -195 571 -203 Q577 -208 584 -213.5 Q591 -219 598 -224 Q600 -226 601 -226 Z M190 173 Q193 176 195 177 Q181 191 166 183 Q155 178 147.5 170.5 Q140 163 134 153 Q134 151 133.5 150 Q133 149 133 147 Q132 142 137 143 Q145 145 151 147 Q162 152 171 158.5 Q180 165 190 173 Z " />
<glyph glyph-name="S" unicode="S" horiz-adv-x="410" d="M247 138 Q248 137 248.5 137 Q249 137 250 136 Q267 131 283 126 Q299 121 314 113 Q326 107 337 99.5 Q348 92 357 81 Q378 58 376 24 Q376 8 371 -7 Q366 -22 359 -36 Q357 -40 355 -42 Q353 -46 354 -49 Q356 -54 350 -54 Q348 -56 348 -56 Q322 -96 289 -128 Q256 -160 218 -186 Q201 -197 183.5 -207 Q166 -217 146 -223 Q126 -230 108 -231 Q96 -233 84 -228 Q71 -223 65.5 -213 Q60 -203 65 -189 Q68 -179 73.5 -171.5 Q79 -164 86 -156 Q99 -144 112.5 -134 Q126 -124 140 -114 Q188 -82 238 -61 Q254 -55 269.5 -51 Q285 -47 302 -45 Q312 -44 321.5 -44 Q331 -44 341 -44 Q343 -44 344 -42 Q358 -18 364 6 Q370 35 359 59 Q349 78 330 91 Q317 100 302.5 106.5 Q288 113 273 118 Q252 126 230 131.5 Q208 137 185 143 Q162 148 139 154.5 Q116 161 93 169 Q77 175 62 181.5 Q47 188 33 198 Q24 206 16 214 Q8 222 2 233 Q-10 255 -7 281 Q-5 297 0.5 311.5 Q6 326 14 340 Q26 360 40.5 378.5 Q55 397 72 414 Q100 443 129.5 468 Q159 493 190 516 Q248 558 308 594.5 Q368 631 433 661 Q471 679 509.5 693.5 Q548 708 588 718 Q605 723 622.5 726 Q640 729 657 730 Q671 732 686 731.5 Q701 731 715 726 Q729 721 737 713 Q749 701 746 679 Q744 667 739.5 656 Q735 645 729 634 Q718 617 706 601 Q694 585 681 569 Q653 537 624 506.5 Q595 476 566 445 Q516 394 466.5 344 Q417 294 366 244 Q343 222 320 200 Q297 178 273 158 Q267 153 260.5 148.5 Q254 144 248 139 Q247 138 247 138 Z M236 141 Q237 143 240 146 Q247 151 253.5 156 Q260 161 267 166 Q295 190 321.5 215 Q348 240 374 266 Q425 317 475 367.5 Q525 418 575 469 Q602 498 628.5 526 Q655 554 681 585 Q693 599 704 614.5 Q715 630 724 647 Q733 662 736 679 Q739 695 730 704 Q722 713 712 716 Q702 719 692.5 720 Q683 721 673 721 Q653 720 633 717 Q613 714 593 709 Q553 699 515 684.5 Q477 670 439 653 Q321 597 215 521 Q180 496 147 469 Q114 442 84 411 Q67 395 52.5 377.5 Q38 360 26 340 Q18 326 12 312.5 Q6 299 4 283 Q0 259 12 237 Q23 216 46 203 Q60 193 75.5 186.5 Q91 180 107 175 Q130 167 152 161.5 Q174 156 197 150 L236 141 Z M337 -54 L336 -54 Q327 -54 318 -54 Q309 -54 301 -55 Q283 -57 266.5 -62 Q250 -67 233 -74 Q209 -85 186 -97.5 Q163 -110 141 -126 Q128 -134 116 -144 Q104 -154 93 -165 Q80 -177 74 -193 Q71 -208 81 -214 Q83 -217 88 -218 Q96 -221 104 -221 Q112 -221 120 -219 Q136 -217 150.5 -211.5 Q165 -206 179 -198 Q198 -187 215.5 -175 Q233 -163 250 -149 Q273 -130 293 -109 Q313 -88 330 -64 Q332 -62 333.5 -59 Q335 -56 337 -54 Z " />
<glyph glyph-name="T" unicode="T" horiz-adv-x="216" d="M817 649 Q819 635 817.5 621.5 Q816 608 811 595 Q800 566 778.5 542.5 Q757 519 737 495 Q734 491 730.5 494.5 Q727 498 730 503 Q735 508 740.5 514 Q746 520 751 526 Q771 548 788.5 573 Q806 598 808 629 Q810 660 789 679 Q771 694 743 699 Q730 701 717.5 701 Q705 701 692 699 Q675 697 658.5 694 Q642 691 625 688 Q592 681 559.5 673 Q527 665 495 656 Q481 651 468.5 647.5 Q456 644 442 640 Q440 634 440 634 Q439 633 439 632 Q434 617 429 602 Q424 587 417 573 Q403 539 387.5 505 Q372 471 357 437 Q329 373 302 309.5 Q275 246 246 182 Q222 126 197.5 71.5 Q173 17 146 -38 L130 -68 Q119 -88 108.5 -107.5 Q98 -127 85 -147 Q78 -158 71 -168 Q64 -178 56 -187 Q55 -188 54.5 -189 Q54 -190 53 -191 Q45 -199 35.5 -206.5 Q26 -214 14 -216 L8 -216 Q-12 -212 -20 -190 Q-27 -172 -27 -150 Q-27 -133 -25 -117 Q-23 -101 -18 -85 Q-15 -75 -9 -66 Q6 -40 35 -46 Q43 -48 51.5 -49.5 Q60 -51 69 -53 Q81 -56 93.5 -56.5 Q106 -57 119 -56 Q120 -55 122 -55 Q124 -55 126 -54 L129 -48 Q151 -5 170.5 37.5 Q190 80 210 124 Q238 187 265 250 Q292 313 320 376 Q337 416 355 456 Q373 496 391 536 Q402 560 411.5 584 Q421 608 429 632 Q429 634 429.5 634.5 Q430 635 430 636 Q381 621 333 606 Q285 591 235 578 Q203 569 170 561.5 Q137 554 103 549 Q80 546 55.5 551 Q31 556 17 579 Q7 596 6.5 615.5 Q6 635 9 654 Q11 674 16.5 692 Q22 710 28 728 Q30 733 34.5 732 Q39 731 37 726 Q36 722 35 718.5 Q34 715 33 710 Q27 691 22.5 671.5 Q18 652 17 632 Q16 614 20.5 596 Q25 578 42 567 Q54 559 68.5 557.5 Q83 556 97 558 Q114 560 131 563.5 Q148 567 165 571 Q198 578 231 586.5 Q264 595 296 605 Q328 615 359.5 624.5 Q391 634 423 645 Q423 650 428 658 Q429 659 429 659.5 Q429 660 430 661 Q432 665 436 671 Q440 676 444 675 Q449 674 448 668 Q449 666 448 661.5 Q447 657 445 651 Q473 659 500 667 Q527 675 555 682 Q588 690 621 697 Q654 704 688 709 Q713 712 740 710 Q767 708 788 692 Q811 677 817 649 Z M119 -69 Q119 -67 120 -66 Q119 -66 119 -65.5 Q119 -65 118 -65 Q100 -67 82.5 -65.5 Q65 -64 48 -59 Q41 -57 29 -55 Q12 -52 2 -67 Q0 -71 -2.5 -75 Q-5 -79 -7 -84 Q-22 -127 -14 -170 Q-12 -184 -5 -196 Q7 -213 26 -201 Q36 -194 41 -188 Q50 -180 57 -170.5 Q64 -161 71 -151 Q85 -131 96.5 -110.5 Q108 -90 119 -69 Z " />
<glyph glyph-name="U" unicode="U" horiz-adv-x="352" d="M238 -226 Q240 -224 240.5 -224 Q241 -224 242 -223 Q249 -215 250 -206 Q250 -204 251 -203 Q253 -199 256 -200 Q260 -200 260 -204 Q260 -209 259 -211 Q256 -225 248 -231 Q241 -238 235 -236 Q228 -233 228 -225 Q227 -218 227.5 -211.5 Q228 -205 229 -198 Q234 -172 240.5 -147.5 Q247 -123 254 -99 Q269 -47 287.5 3 Q306 53 326 104 Q358 183 391.5 261 Q425 339 460 417 Q462 422 463.5 425.5 Q465 429 467 434 Q466 433 462 427 L141 -86 Q125 -110 109 -134.5 Q93 -159 77 -183 Q69 -193 62 -202 Q55 -211 47 -221 Q44 -225 40.5 -228 Q37 -231 33 -234 Q31 -236 27 -238 Q13 -244 8 -231 Q7 -227 6 -223.5 Q5 -220 6 -216 Q6 -207 6 -198 Q6 -189 8 -181 Q13 -148 21.5 -116.5 Q30 -85 40 -53 Q64 23 93 97 Q122 171 154 244 Q181 305 210 365 Q239 425 269 485 Q286 519 303 552.5 Q320 586 335 620 Q342 636 348 651 Q354 666 358 683 Q360 688 360.5 693.5 Q361 699 362 704 L362 710 Q362 732 340 730 Q333 729 327 727 Q321 725 315 723 Q301 718 289 711.5 Q277 705 266 697 Q242 681 219.5 663.5 Q197 646 176 627 Q95 557 33 474 Q22 459 11.5 443 Q1 427 -8 410 Q-13 400 -17 390 Q-21 380 -23 369 Q-24 364 -24.5 359.5 Q-25 355 -23 350 Q-20 333 -3 333 Q7 332 17 335 Q35 342 46 351 Q48 353 49 353 Q51 354 55 352 Q56 349 55 346 Q55 344 53 344 Q29 323 -1 322 Q-31 322 -34 353 Q-35 361 -33.5 368 Q-32 375 -30 383 Q-25 399 -17.5 414 Q-10 429 -1 443 Q16 469 35.5 494 Q55 519 76 543 Q112 583 151.5 619.5 Q191 656 235 688 Q266 711 299 727 Q315 736 334 739 Q341 740 349 739 Q367 737 371 720 Q374 711 372 699 Q368 673 357 647 Q347 621 335 596 Q323 571 311 546 Q288 498 264.5 451.5 Q241 405 218 358 Q184 287 153 216.5 Q122 146 95 73 Q78 28 63 -16 Q48 -60 35 -105 Q30 -125 25 -145.5 Q20 -166 17 -187 Q16 -195 15.5 -202.5 Q15 -210 16 -218 Q16 -222 18 -226 Q19 -230 23 -229 Q25 -227 26.5 -226.5 Q28 -226 30 -224 Q34 -220 37 -216.5 Q40 -213 44 -209 Q56 -195 66.5 -179.5 Q77 -164 88 -148 Q118 -103 146.5 -58 Q175 -13 203 32 Q261 125 318.5 216 Q376 307 434 400 Q451 427 467 454 Q483 481 499 508 Q504 516 508 524.5 Q512 533 517 542 Q523 553 528.5 563 Q534 573 539 584 Q541 586 541.5 587.5 Q542 589 544 591 Q548 595 551 593 Q554 591 553 587 Q553 585 551 581 Q546 572 542 563 Q538 554 533 546 Q522 528 513 509 Q504 490 495 470 Q453 379 414 288 Q375 197 337 103 Q321 65 306.5 26.5 Q292 -12 279 -51 Q270 -80 261.5 -110 Q253 -140 245 -170 Q243 -182 240.5 -194 Q238 -206 238 -218 L238 -226 Z " />
<glyph glyph-name="V" unicode="V" horiz-adv-x="324" d="M582 635 Q577 628 572.5 621.5 Q568 615 563 608 L561 606 Q558 601 554 605 Q550 609 554 613 Q556 615 557 617 Q558 619 560 621 Q569 634 578 646 Q587 658 595 670 Q598 673 602 679 Q606 683 610 681 Q614 677 612 673 Q610 668 608 663 Q606 658 604 653 Q577 600 547 552 Q517 504 487 457.5 Q457 411 428 363 Q392 306 356.5 248.5 Q321 191 286 132 Q254 79 221.5 26.5 Q189 -26 157 -79 Q142 -104 126 -127.5 Q110 -151 93 -174 Q85 -184 78 -192 Q71 -200 62 -208 Q58 -212 53.5 -215 Q49 -218 43 -220 Q28 -225 22 -208 Q20 -201 19.5 -194.5 Q19 -188 19 -181 Q21 -161 25.5 -142.5 Q30 -124 35 -106 Q43 -80 52.5 -54.5 Q62 -29 72 -3 Q96 57 122 115 Q148 173 174 231 Q199 286 223 340 Q247 394 272 449 Q287 484 301.5 519 Q316 554 328 590 Q334 607 339 624.5 Q344 642 347 661 Q349 669 350 677.5 Q351 686 349 695 Q348 713 330 710 Q315 705 302 697 Q288 689 275 678.5 Q262 668 250 657 Q193 605 145.5 546.5 Q98 488 59 420 Q34 377 17 328 Q13 317 10.5 306.5 Q8 296 7 285 Q6 272 7 259 Q11 239 31 238 Q40 237 49 237.5 Q58 238 66 242 Q70 243 72 239 Q74 235 69 232 Q65 231 61.5 230 Q58 229 53 228 Q42 225 28 227 Q3 231 -2 259 Q-6 277 -1 299 Q3 319 9.5 337.5 Q16 356 24 374 Q41 409 60.5 442 Q80 475 103 506 Q134 549 168.5 588.5 Q203 628 242 663 Q256 675 270 686.5 Q284 698 299 707 Q307 712 314.5 715 Q322 718 330 720 Q341 722 348 717 Q357 710 359 696 Q361 685 359.5 675 Q358 665 356 655 Q352 633 346 612.5 Q340 592 332 572 Q318 534 303 496.5 Q288 459 271 421 Q242 356 212.5 291.5 Q183 227 154 161 Q131 110 109 59 Q87 8 67 -45 Q58 -68 49.5 -92 Q41 -116 36 -141 Q33 -153 31 -165 Q29 -177 29 -190 Q29 -195 31 -203 Q34 -213 42 -209 Q50 -206 56 -200 Q64 -194 70.5 -186.5 Q77 -179 83 -171 Q99 -151 113 -129.5 Q127 -108 141 -86 Q168 -42 195 1.5 Q222 45 248 89 Q303 181 358.5 271 Q414 361 472 452 Q494 486 515 520 Q536 554 557 589 Q564 600 570 610.5 Q576 621 582 632 Q582 633 583 634 L582 635 Z " />
<glyph glyph-name="W" unicode="W" horiz-adv-x="564" d="M616 691 Q613 685 613 678 L613 673 Q613 667 608 667 Q603 667 603 673 Q603 682 606 693 Q613 708 624 698 Q632 690 636 682 Q644 668 649 654 Q654 640 659 626 Q664 613 667 600.5 Q670 588 672 574 Q674 559 674.5 544 Q675 529 673 514 Q671 474 662.5 436 Q654 398 643 361 Q628 309 609.5 259 Q591 209 570 159 Q526 54 471 -41 Q454 -71 435.5 -99.5 Q417 -128 395 -154 Q384 -167 373 -178.5 Q362 -190 349 -200 Q342 -205 335 -208.5 Q328 -212 320 -213 Q302 -217 289 -198 Q284 -190 282 -182 Q280 -174 278 -164 Q276 -148 276 -132.5 Q276 -117 278 -100 Q282 -65 289.5 -30 Q297 5 305 40 Q319 91 334 140 Q349 189 366 238 Q375 264 384 288.5 Q393 313 402 339 Q402 342 402 342 Q399 337 395.5 331.5 Q392 326 389 321 Q351 261 314.5 200 Q278 139 242 77 Q216 35 191.5 -7 Q167 -49 141 -91 Q114 -138 81 -181 Q75 -189 68.5 -196 Q62 -203 54 -209 Q50 -213 43 -215 Q29 -221 24 -205 Q22 -200 20 -190 Q19 -175 21 -161 Q23 -147 26 -133 Q32 -106 40 -80.5 Q48 -55 57 -29 Q77 28 99 83 Q121 138 144 192 Q170 252 196 310 Q222 368 248 427 Q265 465 281.5 503 Q298 541 312 579 Q320 598 326 616.5 Q332 635 337 655 Q338 661 338.5 667.5 Q339 674 340 680 Q342 690 339 697 Q336 705 328 705 Q319 706 310 701 Q299 696 289 689 Q279 682 269 674 Q227 636 191 593 Q158 553 129 510.5 Q100 468 76 420 Q62 395 51 369.5 Q40 344 32 316 Q30 308 28 299.5 Q26 291 25 282 Q25 277 27 269 Q27 263 33 265 Q35 266 36.5 266.5 Q38 267 40 269 Q45 273 47 268 Q50 263 46 260 Q40 255 34 254 Q20 251 17 266 Q14 275 16 287 Q18 304 22.5 319 Q27 334 32 348 Q43 378 57 406 Q71 434 87 461 Q143 557 214 635 Q229 651 244.5 665.5 Q260 680 277 693 Q286 700 295 705.5 Q304 711 315 714 Q323 717 331 716 Q345 714 348 699 Q352 686 349 669 Q347 652 342 635 Q337 618 331 601 Q319 566 304.5 532 Q290 498 276 464 Q252 410 228 357 Q204 304 180 250 Q156 195 133 140 Q110 85 89 28 Q63 -35 44 -101 Q40 -117 36.5 -132.5 Q33 -148 31 -165 Q30 -172 29.5 -179 Q29 -186 31 -194 Q31 -197 33 -201 Q35 -208 40 -205 Q47 -202 53 -196 Q62 -188 69.5 -179 Q77 -170 85 -159 Q102 -136 117 -112 Q132 -88 147 -63 Q179 -9 210.5 44.5 Q242 98 274 152 Q303 201 333 249 Q363 297 392 345 L407 366 Q408 369 411 370 Q413 373 417 371 Q420 369 420 365 Q420 362 418 356 Q413 344 409 331.5 Q405 319 400 306 Q379 247 359.5 188.5 Q340 130 324 70 Q315 38 307.5 7 Q300 -24 295 -56 Q291 -76 288.5 -96.5 Q286 -117 286 -138 Q286 -148 287 -158 Q288 -168 291 -177 Q293 -185 295 -188 Q304 -209 324 -201 Q332 -199 339 -194 Q346 -189 352 -184 Q365 -173 375.5 -160.5 Q386 -148 397 -134 Q421 -103 441.5 -70 Q462 -37 482 -2 Q520 67 551.5 139.5 Q583 212 609 288 Q620 320 630 351.5 Q640 383 648 416 Q653 437 656.5 458 Q660 479 662 500 Q664 523 663.5 546.5 Q663 570 658 593 Q649 634 629 673 Q627 677 624.5 680.5 Q622 684 620 687 Q619 690 616 691 Z " />
<glyph glyph-name="X" unicode="X" horiz-adv-x="391" d="M578 637 Q581 633 577 629 Q527 591 482 548 Q437 505 395 458 Q338 395 287 326 Q285 324 283 320 Q260 262 238 205 Q216 148 196 90 Q181 48 168 5.5 Q155 -37 144 -80 Q139 -100 135.5 -119 Q132 -138 130 -158 Q129 -169 129 -180 Q129 -191 131 -202 Q132 -205 132.5 -208.5 Q133 -212 135 -216 Q139 -225 149 -222 Q154 -221 158.5 -218.5 Q163 -216 167 -213 Q185 -200 203 -181 Q222 -161 240 -140.5 Q258 -120 276 -100 Q303 -69 329 -38 Q355 -7 381 24 L390 36 L391 38 Q392 39 393 39 Q396 39 398 38 Q400 35 399.5 32.5 Q399 30 398 30 Q389 17 379 5 Q369 -7 359 -19 Q328 -55 297.5 -90.5 Q267 -126 236 -161 Q224 -175 212 -187.5 Q200 -200 186 -211 Q176 -219 164 -227 Q157 -231 150 -232 Q134 -235 126 -220 Q120 -207 120 -191 Q118 -174 120 -158 Q122 -142 124 -125 Q129 -96 136.5 -67.5 Q144 -39 153 -10 Q169 45 188 98 Q207 151 227 204 Q235 225 243 245.5 Q251 266 259 287 Q259 288 259.5 288.5 Q260 289 260 290 L258 288 Q205 216 154 144.5 Q103 73 55 -2 Q35 -33 15.5 -64.5 Q-4 -96 -22 -128 Q-30 -142 -36.5 -157 Q-43 -172 -48 -189 Q-50 -195 -50.5 -201 Q-51 -207 -53 -212 Q-54 -217 -59 -217 Q-63 -216 -63 -210 L-63 -209 Q-57 -179 -45 -152 Q-32 -125 -17 -99 Q-2 -73 14 -47 Q42 -2 71.5 41.5 Q101 85 131 129 Q166 179 201.5 228 Q237 277 273 325 Q274 327 275 328 Q276 329 276 331 Q293 374 310 416.5 Q327 459 342 503 Q351 529 359 555.5 Q367 582 372 609 Q378 634 378 660 Q378 675 373 693 Q361 723 330 730 Q319 733 308.5 733.5 Q298 734 287 732 Q243 726 201 706 Q74 645 2 529 Q-10 509 -19 487.5 Q-28 466 -33 443 Q-38 415 -34 392 Q-30 372 -20 355.5 Q-10 339 8 327 Q12 325 16.5 322.5 Q21 320 26 318 Q32 316 36 316 Q42 316 42 312 Q42 305 37 307 Q33 307 23 309 Q-13 322 -31 356 Q-38 369 -41 381.5 Q-44 394 -45 407 Q-47 429 -42.5 449 Q-38 469 -30 489 Q-11 534 21 574 Q88 660 188 711 Q208 720 227.5 727 Q247 734 269 739 Q282 741 295 742 Q308 743 322 741 Q335 739 346.5 734.5 Q358 730 368 719 Q380 707 385 687 Q388 673 388 659.5 Q388 646 386 632 Q384 609 378.5 588 Q373 567 366 545 Q355 510 342.5 475 Q330 440 317 405 Q312 394 308 383.5 Q304 373 300 362 Q299 361 299 359 L311 374 Q345 416 380.5 456.5 Q416 497 454 535 Q478 558 503 580.5 Q528 603 554 624 Q559 627 562.5 630.5 Q566 634 570 637 Q575 640 578 637 Z " />
<glyph glyph-name="Y" unicode="Y" horiz-adv-x="386" d="M277 -62 Q272 -69 267.5 -76.5 Q263 -84 258 -91 Q244 -112 229.5 -132.5 Q215 -153 198 -173 Q186 -187 173 -200.5 Q160 -214 146 -225 Q140 -230 134.5 -233.5 Q129 -237 122 -240 Q118 -241 114.5 -242 Q111 -243 107 -243 Q87 -245 85 -225 Q83 -217 85 -210 Q87 -203 89 -196 Q95 -181 104.5 -168.5 Q114 -156 126 -145 Q142 -129 161 -117 Q180 -105 200 -95 Q214 -88 229 -82 Q244 -76 259 -69 Q260 -69 263 -66 Q295 -17 323 33 Q351 83 377 135 Q415 210 446 293 Q458 324 468 355.5 Q478 387 486 419 Q487 424 487.5 427.5 Q488 431 489 436 L489 439 L488 440 Q485 436 482 433 Q479 430 476 427 Q463 411 451 396 Q439 381 426 365 Q363 284 302 202 Q241 120 178 37 L103 -59 Q97 -67 90.5 -73 Q84 -79 78 -86 L69 -92 Q63 -95 58.5 -92.5 Q54 -90 54 -84 Q54 -79 54.5 -74 Q55 -69 56 -64 Q60 -48 65.5 -33 Q71 -18 78 -2 Q92 30 106.5 61 Q121 92 136 124 Q168 191 203.5 256 Q239 321 274 386 Q299 431 323 476 Q347 521 370 567 Q381 589 391.5 610.5 Q402 632 410 655 Q415 666 418 677 Q421 688 423 700 L423 717 Q422 731 405 733 Q399 733 393 732 Q387 731 382 729 Q367 724 353.5 717 Q340 710 327 702 Q295 682 266.5 660 Q238 638 211 613 Q188 590 166.5 566.5 Q145 543 126 517 Q114 499 103.5 480.5 Q93 462 85 442 Q81 431 78.5 420.5 Q76 410 74 399 Q74 391 74.5 384 Q75 377 77 369 Q85 341 117 335 Q127 333 136 333.5 Q145 334 154 336 L156 336 Q161 336 161 332 Q162 327 158 326 Q144 324 131.5 323.5 Q119 323 105 328 Q71 340 65 376 Q63 392 65 407 Q67 422 72 436 Q80 458 90.5 478 Q101 498 114 517 Q133 545 155.5 570 Q178 595 203 618 Q232 646 264 670.5 Q296 695 331 716 Q342 723 354 728.5 Q366 734 378 738 Q393 743 404 743 Q420 741 428 731 Q431 727 433 717 Q435 707 433 697.5 Q431 688 429 679 Q424 661 417.5 644.5 Q411 628 403 611 Q387 576 369 542 Q351 508 333 474 L210 246 Q180 190 152 134 Q124 78 98 20 Q90 0 82 -19.5 Q74 -39 68 -59 Q66 -64 65.5 -69.5 Q65 -75 64 -80 L64 -84 Q67 -82 71 -78 Q77 -72 83.5 -66 Q90 -60 95 -53 Q113 -30 131.5 -6.5 Q150 17 167 40 L371 310 Q392 338 413.5 365.5 Q435 393 457 421 Q462 426 467 431.5 Q472 437 477 442 Q479 446 486 450 Q491 452 495 450 Q499 448 499 442 Q499 437 498.5 432.5 Q498 428 497 423 Q492 400 486 378.5 Q480 357 472 335 Q453 277 429 222.5 Q405 168 378 114 Q357 72 334.5 32 Q312 -8 287 -47 L277 -62 Z M171 -188 Q190 -167 206.5 -145.5 Q223 -124 239 -101 Q242 -96 245 -92.5 Q248 -89 251 -84 Q249 -84 249 -85 L207 -103 Q187 -112 169.5 -123.5 Q152 -135 136 -150 Q124 -161 114.5 -173 Q105 -185 99 -200 Q97 -206 95 -212 Q93 -218 95 -224 Q97 -235 106 -233 L110 -233 Q118 -231 123.5 -228 Q129 -225 135 -221 Q154 -206 171 -188 Z " />
<glyph glyph-name="Z" unicode="Z" horiz-adv-x="414" d="M717 730 Q730 723 727 711 Q725 701 721 694 Q717 685 711.5 677.5 Q706 670 700 662 Q686 644 670 627.5 Q654 611 638 594 Q603 556 567 519.5 Q531 483 496 445 Q448 394 401.5 342.5 Q355 291 310 237 Q309 236 309 235.5 Q309 235 307 233 Q318 236 327.5 238.5 Q337 241 347 243 Q364 248 382 251.5 Q400 255 418 257 Q429 259 440.5 260 Q452 261 463 259 Q485 256 494 236 Q496 234 496 231 Q496 227 492 227 Q489 226 486 229 Q486 231 485 232 Q479 245 465 248 Q450 251 431 249 Q408 246 384.5 241 Q361 236 338 231 Q328 228 318.5 225.5 Q309 223 299 220 Q294 218 292 216 Q242 156 195 95 Q148 34 104 -30 Q88 -53 73.5 -76 Q59 -99 46 -123 Q38 -137 32 -151.5 Q26 -166 21 -182 Q19 -189 18 -196 Q17 -203 18 -210 Q21 -231 42 -230 Q47 -229 51.5 -228.5 Q56 -228 61 -226 Q76 -222 89 -215 Q102 -208 115 -200 Q135 -188 154 -174 Q173 -160 191 -145 Q218 -122 244.5 -100 Q271 -78 298 -55 Q321 -35 345 -15.5 Q369 4 392 24 Q397 28 402.5 31.5 Q408 35 413 38 Q413 39 414 39 Q417 39 419 38 Q422 34 419 31 L418 30 L410 24 Q399 16 388.5 7 Q378 -2 367 -10 Q329 -42 291.5 -73.5 Q254 -105 216 -137 Q195 -155 173.5 -172 Q152 -189 129 -204 Q100 -223 71 -234 Q63 -236 56.5 -238 Q50 -240 42 -240 Q27 -241 18 -232.5 Q9 -224 8 -209 Q7 -193 13 -175 Q18 -158 25 -143 Q32 -128 40 -113 Q54 -87 69 -63 Q84 -39 101 -16 Q135 33 170.5 80 Q206 127 244 173 Q251 182 258 190.5 Q265 199 273 208 Q274 209 276 213 Q274 213 273.5 212.5 Q273 212 272 212 Q240 202 208 191.5 Q176 181 145 168 Q131 162 118.5 156 Q106 150 93 144 Q92 143 91.5 143 Q91 143 90 142 Q85 140 83 144 Q81 147 85 151 L91 154 Q120 169 150 180.5 Q180 192 211 203 Q229 209 247.5 215 Q266 221 284 226 Q288 227 292 231 Q357 309 424.5 383 Q492 457 563 530 Q589 557 614.5 584 Q640 611 666 639 Q676 650 685.5 661 Q695 672 703 684 Q710 693 715 705 Q722 721 703 724 Q695 726 687 725.5 Q679 725 671 724 Q644 719 618.5 712 Q593 705 567 695 Q474 659 390 608 Q237 516 111 392 Q88 369 66 344.5 Q44 320 25 294 Q18 285 12.5 276 Q7 267 2 257 Q0 253 -1.5 249 Q-3 245 -5 241 L-5 236 Q-7 233 -2 231 Q4 230 2 225 Q1 221 -4 221 Q-13 221 -15 231 Q-16 234 -15.5 237.5 Q-15 241 -14 244 Q-11 255 -3 269 Q5 284 15 298 Q25 312 36 326 Q62 358 91.5 387.5 Q121 417 152 445 Q221 507 296 559.5 Q371 612 454 655 Q489 673 524 688.5 Q559 704 597 716 Q614 721 631.5 726 Q649 731 666 733 Q677 735 687 735.5 Q697 736 707 734 Q713 732 717 730 Z " />
<glyph glyph-name="backslash" unicode="&#x5c;" horiz-adv-x="172" d="M120 -226 Q121 -231 116 -231 Q111 -231 110 -226 Q108 -192 106.5 -158 Q105 -124 103 -90 Q99 -29 96 31.5 Q93 92 89 153 Q86 214 82.5 274.5 Q79 335 76 396 Q76 401 81 401 Q86 401 86 396 Q88 362 90 328 Q92 294 94 260 Q97 199 100.5 138.5 Q104 78 107 17 Q110 -44 113.5 -104.5 Q117 -165 120 -226 Z " />
<glyph glyph-name="slash" unicode="&#x2f;" horiz-adv-x="156" d="M323 399 Q326 403 330.5 400.5 Q335 398 332 394 Q307 359 282 325.5 Q257 292 232 257 Q187 196 143 135.5 Q99 75 54 14 Q9 -47 -35.5 -107.5 Q-80 -168 -125 -229 Q-127 -233 -131.5 -230.5 Q-136 -228 -133 -224 Q-108 -189 -83 -155.5 Q-58 -122 -33 -87 Q12 -26 56 34.5 Q100 95 145 156 Q190 217 234 277.5 Q278 338 323 399 Z " />
<glyph glyph-name="bar" unicode="&#x7c;" horiz-adv-x="100" d="M200 399 Q202 404 206.5 401.5 Q211 399 209 394 Q194 359 179 325 Q164 291 149 257 Q122 196 95.5 135.5 Q69 75 43 15 Q16 -46 -10.5 -107 Q-37 -168 -64 -229 Q-66 -234 -70 -231.5 Q-74 -229 -72 -224 L-12 -86 Q14 -26 40.5 34.5 Q67 95 94 155 Q120 217 147 277.5 Q174 338 200 399 Z " />
<glyph glyph-name="quotesingle" unicode="&#x27;" horiz-adv-x="92" d="M214 497 Q216 502 221 500.5 Q226 499 224 494 Q219 483 214.5 472.5 Q210 462 205 451 Q203 446 198.5 448.5 Q194 451 196 456 Q206 475 214 497 Z " />
<glyph glyph-name="quotedbl" unicode="&#x22;" horiz-adv-x="100" d="M228 497 Q230 502 234.5 500.5 Q239 499 237 494 Q232 483 227.5 472.5 Q223 462 218 451 Q216 446 211.5 448.5 Q207 451 209 456 Q214 466 218.5 476 Q223 486 228 497 Z M206 497 Q208 502 213 500.5 Q218 499 216 494 Q211 483 206.5 472.5 Q202 462 197 451 Q195 446 190.5 448.5 Q186 451 188 456 Q198 475 206 497 Z " />
<glyph glyph-name="colon" unicode="&#x3a;" horiz-adv-x="80" d="M48 46 Q51 44 51 41 Q51 38 48 35.5 Q45 33 42 33 Q38 33 38 36 Q37 40 40 43 Q42 43 42 45 Q46 47 48 46 Z M29 3 Q32 1 32 -2 Q32 -5 29 -7.5 Q26 -10 23 -10 Q20 -10 19 -7 Q17 -3 21 -1 L24 2 Q25 3 29 3 Z " />
<glyph glyph-name="semicolon" unicode="&#x3b;" horiz-adv-x="82" d="M29 3 Q32 1 32 -2 L32 -4 Q27 -15 22 -26 Q17 -37 12 -48 Q10 -51 9.5 -54 Q9 -57 7 -60 Q4 -64 0 -63 Q-4 -61 -2 -56 Q3 -44 8.5 -31.5 Q14 -19 20 -6 L23 0 Q25 3 29 3 Z M49 46 Q53 44 51 41 Q51 33 42 33 Q39 33 38 36 Q37 40 40 43 Q41 43 43 45 Q47 47 49 46 Z " />
<glyph glyph-name="less" unicode="&#x3c;" horiz-adv-x="132" d="M106 69 Q110 72 113.5 68.5 Q117 65 113 62 Q84 37 52 20 Q48 17 44 14.5 Q40 12 36 10 L35 10 Q35 9 35.5 9 Q36 9 36 8 Q36 7 37 7 Q39 4 44 -1 Q50 -8 56.5 -15 Q63 -22 71 -29 Q74 -33 70.5 -36.5 Q67 -40 64 -36 Q56 -28 48.5 -20 Q41 -12 33 -4 Q31 -1 27 3 Q23 7 24 12 Q25 16 29 18 Q33 20 36 22 Q55 33 72 44 Q89 55 106 69 Z " />
<glyph glyph-name="greater" unicode="&#x3e;" horiz-adv-x="124" d="M86 18 Q88 15 88 11 Q88 9 87 9 Q41 -14 -4 -38 Q-9 -40 -11.5 -35.5 Q-14 -31 -9 -29 Q12 -18 33 -7.5 Q54 3 75 14 L53 38 Q51 41 48.5 43.5 Q46 46 44 49 L43 49 Q41 53 38 56.5 Q35 60 32 64 Q30 68 34 70.5 Q38 73 41 69 Q49 57 61 45 L61 44 L62 44 L61 45 L85 18 L86 18 L86 18 Z " />
<glyph glyph-name="question" unicode="&#x3f;" horiz-adv-x="124" d="M209 315 Q207 306 204 297 Q201 288 196 280 Q188 263 179.5 247.5 Q171 232 162 216 Q149 192 137.5 168 Q126 144 114 119 Q101 93 88 67 Q75 41 62 15 Q51 -7 41.5 -29 Q32 -51 22 -73 Q21 -75 19 -81 Q19 -85 15 -85 Q9 -85 11 -80 Q11 -75 12 -73 Q18 -61 23.5 -48.5 Q29 -36 35 -23 Q51 9 66.5 41 Q82 73 98 105 Q111 131 123 156.5 Q135 182 149 208 Q157 226 166.5 243 Q176 260 185 277 Q195 295 199 310 Q201 320 201 324 Q201 333 192 332 Q188 332 184.5 330.5 Q181 329 178 327 Q163 317 149 304 Q132 288 116.5 270.5 Q101 253 87 233 Q83 227 79.5 220 Q76 213 71 206 Q69 200 69 197 Q70 194 66 192 Q62 190 61 193 Q61 195 60.5 196 Q60 197 60 199 Q62 203 62.5 206 Q63 209 65 212 Q76 235 90 252 Q124 297 165 329 Q170 332 174.5 335 Q179 338 184 340 Q186 342 189.5 342 Q193 342 196 342 Q209 342 209 327 Q210 324 209.5 321 Q209 318 209 315 Z M0 -142 Q-2 -147 -7 -147 Q-11 -145 -10 -141 Q-10 -136 -4 -136 Q0 -136 0 -142 Z " />
<glyph glyph-name="asciitilde" unicode="&#x7e;" horiz-adv-x="128" d="M58 -6 Q60 -3 63 -0.5 Q66 2 68 5 Q76 14 83 23.5 Q90 33 97 42 L103 48 Q108 51 111 48 Q113 44 109 41 Q107 40 105 36 Q97 27 90.5 18 Q84 9 76 0 Q74 -2 72.5 -4 Q71 -6 69 -8 Q65 -12 63 -13 Q56 -18 51.5 -16.5 Q47 -15 47 -8 Q47 -2 49 8 Q50 13 51 17 Q52 21 54 26 Q52 24 51 23.5 Q50 23 49 22 Q44 17 38.5 12.5 Q33 8 28 3 Q26 1 22 -1 Q16 -3 16 4 Q17 10 24 12 Q25 13 26 13 Q27 13 28 14 Q33 19 38.5 24 Q44 29 49 34 Q53 38 55 39 Q60 42 63 40.5 Q66 39 65 34 Q65 30 64 26.5 Q63 23 62 19 Q60 14 59.5 9.5 Q59 5 57 0 L57 -6 L58 -6 Z " />
<glyph glyph-name="at" unicode="&#x40;" horiz-adv-x="186" d="M79 -11 Q76 -13 73 -16 Q70 -19 67 -21 Q60 -26 52 -29 Q46 -31 42 -27.5 Q38 -24 38 -18 Q38 -11 41 -3 Q54 28 76 47 Q78 49 79.5 50 Q81 51 83 53 Q85 54 85.5 54 Q86 54 88 55 Q93 57 96.5 53.5 Q100 50 99 44 Q98 42 97.5 40 Q97 38 95 36 Q93 33 92 29.5 Q91 26 89 23 Q86 19 82 20 Q78 22 79 26 Q80 28 81 29.5 Q82 31 83 33 Q85 36 85.5 38.5 Q86 41 88 43 Q88 44 87 44 Q86 43 85 42.5 Q84 42 83 41 Q69 28 62 15 Q54 3 50 -9 Q48 -11 48 -17 Q48 -21 51 -19 Q53 -17 56 -16 Q59 -15 61 -13 Q67 -8 72.5 -3 Q78 2 83 7 Q85 8 85.5 9 Q86 10 88 12 Q91 14 95 12 Q99 10 97 6 L91 -9 Q89 -15 87 -21 Q85 -27 84 -34 Q84 -38 85 -40 Q85 -44 87 -42 Q93 -38 95 -36 Q100 -30 105 -24.5 Q110 -19 115 -12 Q129 11 141 34 Q153 57 161 83 Q165 94 167 106 Q169 118 167 129 Q165 139 163 144 Q158 161 139 159 Q132 159 125.5 156.5 Q119 154 113 151 Q92 140 73 121 Q47 96 27.5 67 Q8 38 -4 4 Q-21 -45 -18 -94 Q-17 -102 -16 -109.5 Q-15 -117 -12 -125 Q-7 -134 -1 -140 Q5 -146 16 -148 Q31 -152 47 -141 Q51 -138 54.5 -134.5 Q58 -131 62 -128 Q72 -117 80.5 -107 Q89 -97 97 -86 Q100 -82 101.5 -78.5 Q103 -75 105 -72 Q108 -67 112 -68 Q117 -70 115 -75 Q113 -78 112.5 -80.5 Q112 -83 110 -85 Q88 -118 62 -141 Q49 -154 35 -157 Q16 -162 1 -154 Q-14 -146 -21 -128 Q-25 -120 -26 -111 Q-27 -102 -28 -93 Q-30 -51 -19.5 -13 Q-9 25 13 61 Q27 85 44.5 106 Q62 127 84 144 Q94 152 104 158 Q114 164 126 167 Q138 170 147 169 Q168 166 174 145 Q177 136 177.5 126.5 Q178 117 177 107 Q175 90 170 75 Q165 60 158 45 Q149 25 138.5 6 Q128 -13 114 -30 Q110 -35 106 -39 Q102 -43 98 -47 Q92 -51 88 -52 Q78 -54 75 -44 Q72 -35 76 -23 L79 -11 Z " />
<glyph glyph-name="dollar" unicode="&#x24;" horiz-adv-x="170" d="M228 254 Q244 257 240 241 Q239 238 237 234.5 Q235 231 233 227 Q219 207 203 188 Q192 175 181 162.5 Q170 150 159 137 Q156 134 153 130.5 Q150 127 146 124 Q144 123 142.5 122 Q141 121 139 120 Q133 118 133 123 Q133 128 137 129 Q139 131 140.5 132 Q142 133 144 135 Q152 143 160 152 Q168 161 176 170 Q187 183 198 196.5 Q209 210 220 224 Q223 228 225.5 232 Q228 236 230 241 Q233 246 227 244 Q217 242 210 238 Q199 233 189.5 227 Q180 221 170 214 Q169 213 168.5 212 Q168 211 167 210 Q156 188 146 166 Q136 144 125 122 Q118 107 112 92 Q106 77 99 63 Q98 59 100 58 Q121 44 119 15 Q118 2 114.5 -10 Q111 -22 106 -34 Q73 -105 21 -164 Q10 -177 -1 -185 Q-4 -185 -4 -188 Q-6 -193 -7.5 -198.5 Q-9 -204 -11 -209 L-13 -211 Q-15 -213 -18 -213 Q-21 -213 -21 -211 Q-21 -209 -21 -208 Q-19 -204 -18.5 -200 Q-18 -196 -16 -192 L-18 -192 Q-35 -195 -41 -181 Q-47 -170 -45 -156 Q-44 -144 -41 -132.5 Q-38 -121 -33 -110 Q-25 -90 -14 -73 Q-10 -67 -6 -62 Q-2 -57 4 -53 Q12 -48 19.5 -50 Q27 -52 30 -58 Q31 -61 30 -64 Q27 -67 26 -67 Q22 -67 21 -64 Q16 -58 8 -62 Q4 -64 1 -67.5 Q-2 -71 -5 -75 Q-19 -97 -28 -125 Q-30 -133 -32.5 -140.5 Q-35 -148 -35 -156 Q-35 -161 -34.5 -165.5 Q-34 -170 -32 -175 Q-28 -186 -14 -181 Q-11 -180 -10 -177 Q3 -145 15.5 -112 Q28 -79 42 -46 Q53 -22 63 2 Q73 26 83 50 Q85 54 81 56 Q75 58 69 60 Q63 62 56 64 Q54 65 52 65.5 Q50 66 48 68 Q32 77 39 97 Q43 105 48 112 Q53 119 59 127 Q75 146 93 162.5 Q111 179 131 196 L158 217 Q161 220 161 221 Q171 237 179 256 Q180 257 180 258 Q179 258 178 257 Q174 257 173 260 Q171 263 175 265 Q182 272 190 277 Q198 283 198 273 Q198 272 196 268 Q191 259 187.5 250.5 Q184 242 179 234 Q179 234 177 230 Q181 232 181 232 Q189 237 197 242 Q205 247 214 250 Q224 254 228 254 Z M107 31 Q104 42 93 50 Q70 -5 47.5 -59 Q25 -113 4 -168 Q7 -165 10.5 -162 Q14 -159 17 -155 Q37 -132 53.5 -107 Q70 -82 85 -56 Q98 -31 106 -5 Q108 5 109 14 Q110 23 107 31 Z M89 64 Q104 98 119.5 131.5 Q135 165 150 199 Q149 198 148 197.5 Q147 197 146 196 Q132 185 119 173.5 Q106 162 93 150 Q84 141 75 131.5 Q66 122 58 111 Q55 106 52.5 101.5 Q50 97 48 92 Q45 82 52 78 Q56 75 60 74 Q67 72 73 70 Q79 68 85 66 Q86 65 87 65 Q88 65 89 64 Z " />
<glyph glyph-name="grave" unicode="&#x60;" horiz-adv-x="66" d="M131 280 Q135 276 131.5 272.5 Q128 269 124 273 L106 291 Q102 295 105.5 298 Q109 301 113 298 L131 280 L131 280 Z " />
<glyph glyph-name="numbersign" unicode="&#x23;" horiz-adv-x="214" d="M148 71 Q156 73 163 74 Q170 75 177 77 Q189 79 200.5 81 Q212 83 224 83 Q236 83 243 77 Q247 72 249 65 Q251 60 246 58 Q242 57 240 63 Q239 69 231 71 Q219 74 208 71 Q192 69 176 65.5 Q160 62 144 59 Q142 59 142 57 Q129 31 117 4 L117 2 Q119 3 122 3 Q136 5 150.5 5.5 Q165 6 179 8 Q185 8 185 3 Q185 -3 179 -3 Q166 -4 153 -4.5 Q140 -5 127 -7 Q122 -7 114 -9 Q113 -9 111 -11 Q104 -28 98 -44.5 Q92 -61 87 -78 Q87 -82 86 -85 Q86 -90 90 -91 Q94 -93 92 -98 Q90 -102 86 -101 Q82 -99 79 -94.5 Q76 -90 77 -85 Q78 -80 78.5 -74.5 Q79 -69 81 -64 Q86 -51 90 -39 Q94 -27 99 -14 Q100 -13 100 -12 L98 -12 Q92 -13 86 -14 Q80 -15 74 -17 Q72 -17 72 -19 Q68 -28 65 -37.5 Q62 -47 59 -57 Q58 -57 58 -59 Q63 -62 62 -66 Q60 -71 55 -71 Q49 -71 49 -65 Q49 -57 50 -54 Q52 -47 54.5 -40 Q57 -33 59 -26 Q59 -24 59.5 -23.5 Q60 -23 60 -21 L58 -21 Q50 -23 42.5 -26 Q35 -29 27 -31 Q23 -33 22 -33 Q18 -36 15 -31 Q13 -26 17 -24 Q22 -22 27 -20 Q32 -18 37 -16 Q48 -12 63 -9 Q64 -8 64.5 -8 Q65 -8 66 -6 Q71 6 76.5 18 Q82 30 87 43 L87 44 Q84 44 83 43 Q70 39 57.5 35 Q45 31 33 27 L24 24 Q19 21 17 27 Q17 31 21 34 Q38 40 55.5 45.5 Q73 51 90 56 Q92 57 94 59 Q101 75 108 90 Q115 105 123 121 Q124 123 124 123.5 Q124 124 125 126 Q126 129 130 129 Q134 128 134 124 Q134 122 134.5 121.5 Q135 121 135 119 Q132 116 133 116 Q131 115 130.5 113.5 Q130 112 129 110 Q123 99 117.5 87 Q112 75 107 64 Q106 63 106 62.5 Q106 62 105 61 L108 61 Q114 63 120.5 64.5 Q127 66 134 68 Q135 68 137 70 L158 112 Q161 116 165 115 Q169 113 167 107 Q164 101 160.5 94.5 Q157 88 154 82 Q152 79 148 71 Z M130 56 Q129 55 127 55 Q121 53 114.5 52 Q108 51 102 49 Q100 48 98 46 Q93 33 88 21 Q83 9 78 -3 Q78 -4 77 -5 Q84 -3 90.5 -2.5 Q97 -2 104 0 Q106 0 106 3 Q111 13 115 22.5 Q119 32 124 43 Q128 51 130 56 Z " />
<glyph glyph-name="percent" unicode="&#x25;" horiz-adv-x="146" d="M197 235 Q200 236 202.5 233.5 Q205 231 203 228 Q202 226 201 224 Q200 222 198 220 Q192 212 186 204.5 Q180 197 174 189 Q146 154 121 118 Q96 82 73 44 Q42 -7 13 -57.5 Q-16 -108 -42 -161 Q-46 -169 -47 -173 Q-47 -173 -46 -172 Q-23 -152 -1.5 -132 Q20 -112 42 -92 L51 -83 L54 -80 Q58 -79 61 -81 Q63 -83 61 -87 L55 -93 Q36 -112 25 -133 Q24 -135 22 -141 Q38 -138 50 -121 L49 -121 Q45 -118 46 -114 Q47 -110 52 -108 Q56 -107 60 -110 Q62 -114 65 -114 Q69 -116 68 -120 Q66 -124 63 -124 L60 -124 Q53 -135 41 -144 Q37 -146 33.5 -148 Q30 -150 25 -151 Q9 -154 13 -138 Q13 -136 14 -133.5 Q15 -131 16 -129 L13 -132 Q-3 -146 -18 -159.5 Q-33 -173 -48 -187 Q-56 -190 -58.5 -188.5 Q-61 -187 -61 -183 Q-61 -179 -59 -174.5 Q-57 -170 -56 -167 Q-40 -134 -22.5 -102.5 Q-5 -71 13 -39 Q39 7 66.5 51.5 Q94 96 125 139 Q139 158 153 176.5 Q167 195 181 214 L182 215 L182 216 Q175 211 168.5 207 Q162 203 155 199 Q144 192 133.5 186 Q123 180 112 173 L111 171 Q111 164 108 158 Q97 139 78 129 Q75 127 71 126 Q67 125 63 126 Q55 127 53 137 Q52 146 57 155 Q67 177 87 194 Q89 196 94 198 Q98 199 100 196.5 Q102 194 100 191 Q99 188 95 182 Q94 181 92 177 Q96 179 99 178.5 Q102 178 105 180 Q119 187 131.5 195.5 Q144 204 157 212 Q165 217 173.5 222 Q182 227 190 232 Q192 233 193.5 233.5 Q195 234 197 235 Z M100 164 Q100 165 100.5 165.5 Q101 166 101 167 Q98 166 95 165 Q92 164 90 163 Q83 161 80 164 Q79 165 77 169 Q68 159 64 147 Q63 145 63 140 Q63 136 67 136 Q69 136 73 138 Q91 145 100 164 Z " />
<glyph glyph-name="ampersand" unicode="&#x26;" horiz-adv-x="158" d="M89 -30 Q86 -32 83.5 -33.5 Q81 -35 78 -36 Q73 -39 68 -41.5 Q63 -44 58 -46 Q56 -47 51 -47 Q41 -45 43 -32 Q45 -24 47 -21 Q52 -12 58 -3.5 Q64 5 69 13 Q70 14 70 14.5 Q70 15 71 16 Q69 15 69 15 Q62 13 55 11.5 Q48 10 41 8 Q37 7 31 8 Q29 8 26 11 Q20 17 23 23 Q24 28 28 32 Q33 37 38.5 41.5 Q44 46 49 51 Q58 57 67.5 63 Q77 69 86 75 Q87 76 87 78 Q87 84 89 88 Q92 97 95 105 Q98 113 102 121 Q115 152 129 180.5 Q143 209 157 238 Q161 245 164 251.5 Q167 258 171 265 Q172 267 172.5 267.5 Q173 268 174 270 Q178 274 180 268 Q184 261 180 259 L177 253 Q158 215 139.5 178 Q121 141 104 102 Q102 97 100.5 93 Q99 89 97 84 Q97 82 96 81 Q97 80 97 79 Q102 74 99 69 Q97 67 95 66 Q65 50 41 29 Q36 26 33 21 L33 20 L36 20 Q46 21 55.5 24 Q65 27 74 31 Q76 32 78 32.5 Q80 33 82 34 L85 34 Q89 34 90 30 Q92 25 90 22 Q89 20 88 19 Q87 18 86 16 Q79 6 72.5 -3 Q66 -12 59 -22 Q57 -24 55.5 -27.5 Q54 -31 52 -33 Q53 -34 53 -34 Q55 -34 56 -33 Q72 -25 87 -16 Q89 -14 92 -13 Q95 -12 97 -10 Q99 -8 101 -8 Q104 -8 105 -11 Q107 -13 107 -18 Q106 -20 105 -22.5 Q104 -25 103 -27 Q81 -66 62 -108 Q43 -150 25 -194 L13 -224 Q13 -226 12.5 -226.5 Q12 -227 13 -229 Q16 -236 12 -238 Q8 -239 5.5 -234.5 Q3 -230 4 -225 Q4 -222 6 -216 Q11 -204 15.5 -191.5 Q20 -179 25 -168 Q40 -133 55.5 -99 Q71 -65 88 -33 Q89 -32 89 -30 Z " />
<glyph glyph-name="exclam" unicode="&#x21;" horiz-adv-x="76" d="M-4 -65 Q-3 -55 -0.5 -46 Q2 -37 6 -29 Q17 -3 27.5 23.5 Q38 50 49 76 Q75 134 100.5 191 Q126 248 152 306 L179 369 Q180 371 180 373.5 Q180 376 181 378 Q182 384 187 384 Q189 384 190.5 382 Q192 380 191 378 Q191 373 188 367 Q181 350 175 334 Q169 318 161 301 Q129 231 97.5 161.5 Q66 92 36 21 Q29 4 22.5 -12.5 Q16 -29 10 -46 Q8 -51 7.5 -56 Q7 -61 6 -66 Q6 -68 5 -69 Q5 -73 0 -73 Q-4 -73 -4 -69 L-4 -65 Z M-22 -131 Q-27 -129 -28 -127 Q-28 -122 -25 -121 Q-22 -119 -20 -116.5 Q-18 -114 -16 -112 Q-16 -111 -15.5 -110.5 Q-15 -110 -15 -109 Q-12 -106 -8 -108 Q-4 -110 -6 -114 Q-13 -124 -19 -129 Q-22 -132 -22 -131 Z " />
<glyph glyph-name="asciicircum" unicode="&#x5e;" horiz-adv-x="104" d="M185 384 Q180 377 176.5 370.5 Q173 364 168 357 Q160 346 152.5 334.5 Q145 323 137 312 Q136 311 135.5 310 Q135 309 134 308 Q128 304 127 307 Q124 309 126 313 Q141 333 154 353.5 Q167 374 180 394 Q182 397 184 399.5 Q186 402 188 404 Q191 408 194 407.5 Q197 407 198 403 Q198 400 198 400 Q198 396 196 388 Q191 371 187 354.5 Q183 338 179 321 Q177 315 176.5 309 Q176 303 175 297 Q173 292 171 291 Q163 287 165 296 Q166 304 167 311.5 Q168 319 170 327 L185 381 L185 384 Z " />
<glyph glyph-name="bracketright" unicode="&#x5d;" horiz-adv-x="90" d="M199 402 Q205 402 203 395 Q203 393 202 393 Q201 389 197 381 Q183 349 169.5 318 Q156 287 142 256 Q115 194 88.5 133.5 Q62 73 35 11 Q8 -50 -19 -110.5 Q-46 -171 -72 -233 L-73 -233 Q-75 -236 -77 -236 L-97 -236 Q-102 -236 -102 -231 Q-102 -226 -97 -226 L-80 -226 Q-65 -192 -50.5 -158.5 Q-36 -125 -21 -90 Q6 -29 33 31.5 Q60 92 87 154 Q113 214 139 273 Q165 332 191 392 L178 392 Q173 392 173 397 Q173 402 178 402 L199 402 L199 402 Z " />
<glyph glyph-name="bracketleft" unicode="&#x5b;" horiz-adv-x="110" d="M220 402 Q225 402 225 397 Q225 392 220 392 L203 392 Q188 358 173.5 324.5 Q159 291 144 256 Q117 195 90 134.5 Q63 74 36 12 Q10 -48 -16 -107 Q-42 -166 -68 -226 L-55 -226 Q-50 -226 -50 -231 Q-50 -236 -55 -236 L-76 -236 Q-82 -236 -80 -229 Q-80 -227 -79 -227 Q-78 -223 -74 -215 Q-60 -183 -46.5 -152 Q-33 -121 -19 -90 Q8 -28 34.5 32.5 Q61 93 88 154 Q115 216 142 276.5 Q169 337 195 399 L196 399 Q197 402 200 402 L220 402 L220 402 Z " />
<glyph glyph-name="asterisk" unicode="&#x2a;" horiz-adv-x="138" d="M203 374 L218 386 Q220 387 220.5 387.5 Q221 388 223 389 Q227 392 230 388 Q233 385 229 381 Q225 378 221.5 375.5 Q218 373 214 370 L212 368 Q215 369 218 369 Q221 369 224 370 Q228 370 230 369 Q244 367 240 355 Q240 350 234 350 Q230 351 230 356 Q231 360 228 360 Q224 359 220.5 359 Q217 359 214 358 Q209 357 205 356 Q201 355 196 354 Q198 349 201 345 Q204 341 206 337 L212 328 Q215 323 211 321 Q206 318 203 323 Q196 335 189 345 Q189 346 188 346 Q186 340 183 334.5 Q180 329 178 323 Q178 323 176 319 Q174 315 176 312 Q179 307 173 303 Q171 301 167.5 301.5 Q164 302 163 306 Q163 311 164 314 Q165 318 166 321 Q167 324 169 328 Q169 329 169.5 329.5 Q170 330 170 331 Q168 330 168 330 Q163 325 157.5 320.5 Q152 316 147 311 Q146 311 146 310.5 Q146 310 145 310 Q141 306 138 311 Q135 314 139 318 Q144 323 149.5 327.5 Q155 332 161 337 L171 347 Q167 345 161 343 L143 337 Q137 336 135 339 Q133 344 140 346 Q149 350 158.5 353 Q168 356 177 359 Q178 359 178.5 359.5 Q179 360 180 360 Q180 362 179 363 Q177 368 174.5 372 Q172 376 170 380 Q169 382 169 383 Q169 384 168 386 Q166 392 172 392 Q174 393 178 388 Q180 383 182.5 378.5 Q185 374 188 369 Q189 372 191 374 Q193 376 192 380 Q192 381 192.5 381.5 Q193 382 193 383 Q197 389 200 394.5 Q203 400 207 406 Q208 407 208 408 Q211 409 214 408 Q217 406 217 403 Q216 402 216 401 Q216 400 215 399 Q212 393 209 387.5 Q206 382 203 377 Q203 375 202 374 L203 374 Z " />
<glyph glyph-name="plus" unicode="&#x2b;" horiz-adv-x="152" d="M123 22 Q128 22 128 17 Q128 12 123 12 L78 12 Q73 0 68.5 -12 Q64 -24 59 -35 Q57 -40 52 -39 Q47 -38 49 -33 Q54 -22 58.5 -10.5 Q63 1 68 12 L26 12 Q21 12 21 17 Q21 22 26 22 L72 22 Q77 33 80.5 43 Q84 53 89 64 Q91 69 96 68 Q101 67 99 62 Q94 51 90.5 41.5 Q87 32 82 22 L123 22 L123 22 Z " />
<glyph glyph-name="underscore" unicode="&#x5f;" horiz-adv-x="162" d="M98 -31 Q103 -31 103 -36 Q103 -41 98 -41 L2 -41 Q-3 -41 -3 -36 Q-3 -31 2 -31 L98 -31 L98 -31 Z " />
<glyph glyph-name="hyphen" unicode="&#x2d;" horiz-adv-x="120" d="M80 19 Q85 19 85 14 Q85 9 80 9 L28 9 Q23 9 23 14 Q23 19 28 19 L80 19 L80 19 Z " />
<glyph glyph-name="period" unicode="&#x2e;" horiz-adv-x="54" d="M45 121 Q48 119 48 116 Q48 113 45 110.5 Q42 108 39 108 Q36 108 35 111 Q33 115 37 117 L40 120 Q41 121 45 121 Z " />
<glyph glyph-name="comma" unicode="&#x2c;" horiz-adv-x="64" d="M10 -21 Q13 -23 13 -26 Q13 -28 12 -28 Q7 -39 2.5 -50 Q-2 -61 -7 -72 Q-11 -80 -12 -84 Q-15 -89 -19 -87 Q-24 -85 -22 -80 Q-16 -68 -10.5 -55.5 Q-5 -43 0 -30 Q1 -28 2 -27 Q3 -26 4 -24 Q5 -21 10 -21 Z " />
<glyph glyph-name="braceright" unicode="&#x7d;" horiz-adv-x="96" d="M185 399 Q192 403 196.5 401 Q201 399 201 391 Q201 385 199 378.5 Q197 372 195 367 Q185 343 174.5 319.5 Q164 296 153 273 L81 120 Q76 109 71 99 Q66 89 61 78 Q59 73 57 68 Q55 63 53 58 Q52 55 55 53 Q57 53 57.5 52.5 Q58 52 59 52 Q66 49 61 41 Q59 40 58 39 Q57 38 55 37 Q44 29 38 19 Q31 4 24 -11 Q17 -26 10 -42 Q2 -61 -5.5 -80 Q-13 -99 -21 -119 Q-28 -137 -35 -155 Q-42 -173 -50 -191 Q-54 -201 -60 -210 Q-66 -219 -73 -228 Q-74 -230 -75.5 -231 Q-77 -232 -79 -234 Q-83 -238 -88 -235 Q-92 -230 -90 -225 Q-87 -219 -80 -222 Q-74 -214 -68.5 -205 Q-63 -196 -59 -186 Q-50 -164 -41 -142.5 Q-32 -121 -24 -99 Q-15 -76 -6.5 -54 Q2 -32 13 -10 L28 20 Q32 27 36 33 Q40 39 48 43 Q42 46 42 51 Q42 56 44 62 Q49 76 55 88 Q61 100 67 113 Q79 139 90.5 163.5 Q102 188 114 213 Q126 239 138.5 265.5 Q151 292 163 318 Q170 332 175.5 345.5 Q181 359 186 373 Q188 377 190 385 L190 390 Q188 388 185.5 387.5 Q183 387 181 385 Q179 383 176 380.5 Q173 378 171 376 Q166 371 163 375 Q160 378 164 383 Q169 388 174 392 Q179 396 185 399 Z " />
<glyph glyph-name="braceleft" unicode="&#x7b;" horiz-adv-x="124" d="M52 29 Q50 30 48 30 Q46 30 44 31 Q26 34 38 50 Q43 56 48.5 62.5 Q54 69 59 76 Q68 87 74.5 99.5 Q81 112 86 125 Q102 160 117.5 196 Q133 232 150 267 Q161 292 173 316 Q185 340 200 363 Q205 370 209.5 376.5 Q214 383 219 389 Q223 395 232 399 Q240 403 245 400 Q250 397 249 390 L249 387 Q249 381 244 381 Q238 379 238 384 Q237 386 237 391 Q231 387 229 384 Q225 379 221.5 374.5 Q218 370 214 365 Q200 345 189 323.5 Q178 302 168 280 Q152 246 137 212 Q122 178 107 143 Q102 134 98 124.5 Q94 115 89 106 Q78 79 55 53 Q53 51 50.5 48 Q48 45 45 42 Q48 41 50 41 Q52 41 54 40 Q69 37 61 23 Q57 15 52.5 8 Q48 1 43 -7 Q30 -30 19.5 -53.5 Q9 -77 -1 -101 Q-11 -124 -19 -148 Q-27 -172 -34 -195 Q-36 -198 -36 -201 Q-36 -204 -38 -207 Q-39 -217 -32 -223 Q-32 -221 -30 -221 Q-27 -218 -24 -220 Q-21 -222 -21 -225 Q-23 -231 -28 -233.5 Q-33 -236 -38 -233 Q-53 -225 -49 -209 Q-47 -201 -45 -194 Q-43 -187 -41 -179 Q-28 -138 -12 -98.5 Q4 -59 24 -20 Q30 -9 36.5 1.5 Q43 12 49 23 L52 29 Z " />
<glyph glyph-name="parenright" unicode="&#x29;" horiz-adv-x="96" d="M147 330 Q149 345 150.5 358.5 Q152 372 154 385 Q156 390 154 393 Q154 397 158 400 Q160 402 164 400 Q167 397 165 391 Q164 385 164 379 Q164 373 163 368 Q161 354 158.5 340 Q156 326 154 312 Q149 285 141.5 258.5 Q134 232 123 206 Q110 171 95.5 136.5 Q81 102 65 67 Q48 28 30.5 -11 Q13 -50 -7 -88 Q-24 -120 -43.5 -151 Q-63 -182 -86 -211 Q-88 -215 -91.5 -218.5 Q-95 -222 -98 -225 Q-100 -227 -101.5 -227.5 Q-103 -228 -105 -229 Q-111 -231 -111 -224 Q-111 -219 -105 -217 Q-102 -215 -100 -212 Q-96 -208 -92.5 -204 Q-89 -200 -85 -195 Q-59 -158 -36.5 -119.5 Q-14 -81 6 -40 Q34 19 59.5 78 Q85 137 109 197 Q120 225 129.5 253.5 Q139 282 144 311 Q145 316 145.5 321.5 Q146 327 147 330 Z " />
<glyph glyph-name="parenleft" unicode="&#x28;" horiz-adv-x="126" d="M5 -213 L5 -211 Q5 -207 10 -205 Q14 -205 15 -209 Q15 -219 9 -226 Q2 -233 -2 -226 Q-4 -223 -6 -217 Q-8 -207 -8.5 -197 Q-9 -187 -8 -176 Q-8 -120 4 -61 Q9 -38 15 -15 Q21 8 29 31 Q73 159 144 275 Q159 299 175 322 Q191 345 210 367 Q217 375 224 382 Q231 389 239 394 Q243 397 251 401 Q265 404 265 390 Q265 388 265.5 387.5 Q266 387 266 386 Q266 382 262 380 Q258 378 256 381 Q256 383 255.5 383.5 Q255 384 255 386 Q255 391 250 389 Q246 387 243 384.5 Q240 382 236 380 Q226 371 217 361 Q208 351 200 340 Q177 309 156.5 277 Q136 245 118 211 Q72 125 40 32 Q30 3 22.5 -25 Q15 -53 10 -82 Q5 -111 3 -138.5 Q1 -166 2 -194 Q2 -199 2.5 -202.5 Q3 -206 4 -211 L4 -214 L5 -213 Z " />
<glyph glyph-name="equal" unicode="&#x3d;" horiz-adv-x="124" d="M88 25 Q93 25 93 20 Q93 15 88 15 L35 15 Q30 15 30 20 Q30 25 35 25 L88 25 Z M76 1 Q81 1 81 -4 Q81 -9 76 -9 L24 -9 Q19 -9 19 -4 Q19 1 24 1 L76 1 Z " />
<glyph glyph-name="zero" unicode="0" horiz-adv-x="76" d="M55 62 Q60 56 61 49 Q62 42 61 34 Q59 20 50.5 7.5 Q42 -5 33 -15 Q30 -19 25 -24 Q20 -29 14.5 -32 Q9 -35 3 -35.5 Q-3 -36 -8 -31 Q-13 -26 -13 -20 Q-13 -14 -12 -8 Q-11 5 -6 19 Q4 46 24 67 Q26 69 31 67 Q45 74 55 62 Z M44 18 Q47 24 49.5 30.5 Q52 37 51 45 Q51 51 47 56 Q43 61 35 58 Q32 56 30 58 Q12 38 3 13 Q-1 1 -3 -13 Q-3 -15 -3 -18.5 Q-3 -22 -1 -24 Q2 -27 9 -23 Q20 -17 29 -5 Q38 7 44 18 Z " />
<glyph glyph-name="one" unicode="1" horiz-adv-x="48" d="M34 68 Q36 69 38.5 66.5 Q41 64 40 62 Q29 37 18 12.5 Q7 -12 -4 -37 Q-6 -41 -10.5 -38.5 Q-15 -36 -13 -32 Q6 8 23 49 Q23 48 21 46 Q19 41 14.5 43.5 Q10 46 13 51 Q21 64 34 68 Z " />
<glyph glyph-name="two" unicode="2" horiz-adv-x="72" d="M30 0 Q25 -6 18.5 -12.5 Q12 -19 6 -25 Q14 -23 21.5 -22.5 Q29 -22 37 -21 Q42 -21 42 -26 Q42 -31 37 -31 Q25 -32 13 -33.5 Q1 -35 -10 -38 Q-14 -39 -16 -35.5 Q-18 -32 -15 -29 Q1 -16 15 -2 Q29 12 41 29 Q43 32 45.5 35.5 Q48 39 50 43 Q52 45 53.5 49 Q55 53 54 56 Q53 59 49 59 Q45 59 42 58 Q33 56 30 48 Q28 43 23 44.5 Q18 46 20 51 Q24 61 33.5 65.5 Q43 70 53 68 Q64 66 63.5 56 Q63 46 59 38 Q54 27 46 18 Q38 9 30 0 Z " />
<glyph glyph-name="three" unicode="3" horiz-adv-x="80" d="M45 37 Q50 36 55 31 Q60 24 58.5 16 Q57 8 55 1 Q48 -17 36 -27 Q29 -32 20.5 -35.5 Q12 -39 4 -37 Q-5 -34 -6.5 -25 Q-8 -16 -8 -8 Q-8 -3 -3 -3 Q2 -3 2 -8 Q2 -13 2 -17 Q2 -21 4 -25 Q6 -28 9.5 -28 Q13 -28 17 -27 Q34 -20 42 -5 Q45 0 47.5 7.5 Q50 15 48 22 Q46 29 37.5 28 Q29 27 24 25 Q19 23 17.5 28 Q16 33 21 35 Q33 40 41 47 Q44 49 48 53 Q49 54 51 56 Q53 58 53 59 Q52 61 42.5 59.5 Q33 58 32 55 Q31 50 26 51.5 Q21 53 22 58 Q24 64 29.5 66 Q35 68 40 69 Q45 70 51 69.5 Q57 69 61 65 Q66 59 61.5 53.5 Q57 48 53 44 Q51 42 49 40.5 Q47 39 45 37 Z " />
<glyph glyph-name="four" unicode="4" horiz-adv-x="62" d="M51 66 Q53 71 57 68.5 Q61 66 59 61 Q57 56 55 52 Q53 48 51 43 Q53 40 50 37 L47 34 L14 -38 Q12 -43 7.5 -40.5 Q3 -38 5 -33 Q11 -19 17.5 -6 Q24 7 30 21 Q28 20 27.5 19.5 Q27 19 25 18 Q21 15 14.5 12 Q8 9 5 16 Q2 22 7 29 Q12 36 15 41 Q24 55 34 66 Q37 70 40.5 66.5 Q44 63 41 59 L26 41 Q24 36 21 32.5 Q18 29 16 24 L17 24 L26 30 Q29 32 32.5 35 Q36 38 39 40 Q42 47 45 53 Q48 59 51 66 Z " />
<glyph glyph-name="five" unicode="5" horiz-adv-x="70" d="M61 69 Q66 69 66 64 Q66 59 61 59 Q55 58 48.5 57.5 Q42 57 36 56 L24 29 Q33 32 39 30 Q47 27 49 19.5 Q51 12 49 5 Q45 -13 27 -22 Q9 -31 -7 -36 Q-12 -37 -13 -32.5 Q-14 -28 -9 -26 Q3 -23 16 -17 Q29 -11 36 0 Q38 4 40 10.5 Q42 17 37 20 Q32 23 25.5 18.5 Q19 14 15 11 Q11 8 8 10.5 Q5 13 7 17 Q12 27 16.5 36.5 Q21 46 25 56 Q23 58 23 61 Q23 64 27 64 Q28 65 31 65 L32 65 Q40 67 46.5 67.5 Q53 68 61 69 Z " />
<glyph glyph-name="six" unicode="6" horiz-adv-x="62" d="M48 60 Q40 51 33.5 41.5 Q27 32 20 21 Q19 19 18 18 Q17 17 16 15 Q24 17 31.5 15.5 Q39 14 41 4 Q43 -6 35 -15 Q30 -25 21 -31 Q10 -38 1 -34 Q-8 -30 -8 -17 Q-8 -9 -3 3 Q-3 7 -1 8 L0 8 Q2 13 5 16.5 Q8 20 10 25 Q18 36 25.5 46.5 Q33 57 41 67 Q44 71 47.5 67.5 Q51 64 48 60 Z M25 6 Q17 6 7 1 Q2 -9 2 -17 Q2 -24 5 -25 Q9 -27 15 -23 Q24 -16 28 -8 Q29 -6 30 -3.5 Q31 -1 31 1 Q31 6 25 6 Z " />
<glyph glyph-name="seven" unicode="7" horiz-adv-x="70" d="M61 69 Q64 70 65.5 67 Q67 64 65 62 Q59 53 53.5 44 Q48 35 42 26 Q47 28 47 21 Q47 18 42 16 Q38 16 36 15 Q21 -9 9 -33 Q7 -38 3 -35.5 Q-1 -33 1 -28 Q6 -17 11.5 -7 Q17 3 23 14 Q19 14 19 19 Q19 22 24 24 Q28 24 30 25 Q35 33 40.5 41.5 Q46 50 51 59 Q44 58 37 57 Q30 56 22 54 Q17 53 16 58 Q15 63 20 64 Q30 66 40 67 Q50 68 61 69 Z " />
<glyph glyph-name="eight" unicode="8" horiz-adv-x="72" d="M68 68 Q73 68 73.5 64 Q74 60 72 56 Q67 47 57 37 Q52 32 46.5 27 Q41 22 36 17 Q32 13 30 16 Q31 15 33 11 Q35 5 36.5 -1 Q38 -7 34 -13 Q30 -18 24.5 -22.5 Q19 -27 14 -31 Q10 -33 4.5 -35 Q-1 -37 -5 -32 Q-9 -27 -7 -21.5 Q-5 -16 -2 -12 Q8 -1 18 7 Q22 10 24.5 5.5 Q27 1 23 -2 Q16 -6 11 -13 Q9 -15 5 -18.5 Q1 -22 2 -25 Q4 -27 13 -19 Q22 -11 24 -9 Q29 -4 25.5 2.5 Q22 9 20 14 Q17 19 14 24.5 Q11 30 10 36 Q9 50 22 56.5 Q35 63 46 66 Q57 70 68 68 Z M54 48 Q56 50 58 53 Q60 56 62 58 Q55 57 48.5 56 Q42 55 36 52 Q30 50 24.5 45.5 Q19 41 21 33 Q22 30 23.5 26.5 Q25 23 27 20 Q27 22 29 24 Q35 30 41.5 36 Q48 42 54 48 Z " />
<glyph glyph-name="nine" unicode="9" horiz-adv-x="74" d="M55 63 Q57 66 61.5 64 Q66 62 64 57 Q56 39 48.5 21 Q41 3 32 -14 Q30 -19 27.5 -23 Q25 -27 22 -31 Q18 -38 11 -35 Q3 -33 2.5 -23.5 Q2 -14 4 -8 Q5 -3 10 -4.5 Q15 -6 13 -11 Q11 -19 14 -24 L14 -25 Q15 -24 15 -23.5 Q15 -23 16 -22 L19 -16 Q23 -11 25.5 -4.5 Q28 2 31 8 L46 41 L31 29 Q28 27 24.5 24 Q21 21 16 22 Q9 22 7 30 Q6 38 10.5 46.5 Q15 55 20 60 Q25 65 32.5 67.5 Q40 70 45 62 Q47 58 43 55.5 Q39 53 36 57 Q34 61 28.5 54.5 Q23 48 22 46 Q20 43 18 37 Q18 36 17.5 35 Q17 34 17 32 Q17 31 20 33 Q29 39 38 47 Q47 55 55 63 Z " />
<glyph glyph-name="breve" unicode="&#x2d8;" horiz-adv-x="74" d="M94 220 Q97 224 101 221.5 Q105 219 102 214 Q97 206 89 197.5 Q81 189 71 188 Q61 188 56 196 Q52 204 54 216 Q55 221 60 220.5 Q65 220 64 215 Q63 210 64.5 202 Q66 194 75 199 Q81 202 85.5 208.5 Q90 215 94 220 Z " />
<glyph glyph-name="dotaccent" unicode="&#x2d9;" horiz-adv-x="68" d="M91 209 Q86 209 86 214 Q86 219 91 219 Q96 219 96 214 Q96 209 91 209 Z " />
<glyph glyph-name="ring" unicode="&#x2da;" horiz-adv-x="100" d="M124 246 Q130 237 123 227 Q119 222 113 222 Q107 222 102 225 Q96 229 97 235 Q98 241 100 246 Q101 249 104 249 Q105 249 106 250 Q117 256 124 246 Z M116 234 Q118 237 116 240 Q114 243 111 241 L108 241 Q107 239 106.5 237 Q106 235 108 233 Q113 231 116 234 Z " />
<glyph glyph-name="hungarumlaut" unicode="&#x2dd;" horiz-adv-x="119" d="M228 497 Q230 502 234.5 500.5 Q239 499 237 494 Q232 483 227.5 472.5 Q223 462 218 451 Q216 446 211.5 448.5 Q207 451 209 456 Q214 466 218.5 476 Q223 486 228 497 Z M206 497 Q208 502 213 500.5 Q218 499 216 494 Q211 483 206.5 472.5 Q202 462 197 451 Q195 446 190.5 448.5 Q186 451 188 456 Q198 475 206 497 Z " />
<glyph glyph-name="caron" unicode="&#x2c7;" horiz-adv-x="120" d="M179 341 Q181 345 185 342.5 Q189 340 187 335 Q182 327 174 318.5 Q166 310 155 309 Q145 309 140 317 Q136 325 138 337 Q139 342 144 341.5 Q149 341 148 336 Q147 331 148.5 323 Q150 315 159 320 Q165 323 170 329.5 Q175 336 179 341 Z " />
<glyph glyph-name="ogonek" unicode="&#x2db;" horiz-adv-x="88" d="M35 -23 Q39 -20 41.5 -24.5 Q44 -29 40 -32 Q30 -38 22 -42 Q18 -44 13.5 -45 Q9 -46 5 -44 Q0 -41 0.5 -37 Q1 -33 3 -29 Q6 -20 11 -9 Q13 -4 17.5 -6.5 Q22 -9 20 -14 Q18 -17 17 -20.5 Q16 -24 14 -27 Q13 -29 13 -30 Q13 -31 12 -33 Q11 -34 11 -36 Q11 -35 12 -35 Q15 -33 18.5 -32.5 Q22 -32 25 -30 Q27 -28 30 -26.5 Q33 -25 35 -23 Z " />
<glyph glyph-name="dotlessi" unicode="&#x131;" horiz-adv-x="68" d="M80 159 Q85 159 85 154 Q84 146 81.5 139 Q79 132 76 125 Q73 117 69.5 110 Q66 103 63 95 Q40 41 18.5 -13 Q-3 -67 -24 -121 Q-26 -126 -31 -125 Q-36 -124 -34 -119 Q-28 -103 -22 -88 Q-16 -73 -11 -58 Q0 -31 11 -4.5 Q22 22 33 48 Q38 62 44 75 Q50 88 55 101 Q58 108 60.5 114.5 Q63 121 66 127 Q68 132 70 137.5 Q72 143 74 148 Q68 148 62.5 147 Q57 146 51 144 Q46 143 45 147.5 Q44 152 49 154 Q57 156 64.5 157 Q72 158 80 159 Z " />
<glyph glyph-name="fraction" unicode="&#x2044;" horiz-adv-x="145" d="M345 417 Q348 421 352.5 418.5 Q357 416 354 412 Q329 377 304 343.5 Q279 310 254 275 Q209 214 165 153.5 Q121 93 76 32 Q31 -29 -13.5 -89.5 Q-58 -150 -103 -211 Q-105 -215 -109.5 -212.5 Q-114 -210 -111 -206 Q-86 -171 -61 -137.5 Q-36 -104 -11 -69 Q34 -8 78 52.5 Q122 113 167 174 Q212 235 256 295.5 Q300 356 345 417 Z " />
<glyph glyph-name="fi" unicode="&#xfb01;" horiz-adv-x="134" d="M133 38 Q136 42 139.5 38 Q143 34 140 30 Q132 20 124 10.5 Q116 1 107 -9 Q102 -16 93 -23.5 Q84 -31 75 -26 Q64 -21 66.5 -9 Q69 3 72 11 Q72 12 72.5 13 Q73 14 73 15 L69 10 Q27 -34 -12 -77 L-23 -89 Q-25 -90 -26 -92 Q-28 -94 -28.5 -96.5 Q-29 -99 -31 -101 Q-33 -104 -35 -110 Q-36 -113 -36 -117 Q-37 -120 -37 -125 Q-38 -135 -38 -144.5 Q-38 -154 -40 -164 Q-46 -193 -69 -212 Q-71 -214 -74 -216 Q-77 -218 -80 -217 L-81 -217 Q-84 -216 -85 -213 Q-86 -210 -86 -207 Q-86 -203 -84 -199 L-84 -196 L-81 -187 L-69 -154 Q-67 -147 -64.5 -140 Q-62 -133 -59 -125 Q-41 -70 -21 -17 Q-1 36 21 90 Q42 144 65 196 Q88 248 112 301 Q160 404 214 505 Q216 510 220.5 507.5 Q225 505 223 500 L210 476 Q184 427 160 378 Q136 329 113 278 Q90 227 67.5 176 Q45 125 25 74 Q8 32 -7.5 -9.5 Q-23 -51 -38 -93 Q-36 -89 -34 -87 Q-26 -76 -16 -66 Q-6 -56 3 -46 Q23 -24 42.5 -3.5 Q62 17 82 38 L83 39 Q85 43 87 47 Q89 51 91 56 Q93 60 97.5 57.5 Q102 55 100 51 Q95 42 91.5 32.5 Q88 23 84 14 Q83 12 81 7 Q79 2 77.5 -3 Q76 -8 76.5 -12.5 Q77 -17 81 -17 Q85 -18 89 -14 Q93 -10 95 -8 Q99 -5 101.5 -1.5 Q104 2 107 6 Q114 14 120 22 Q126 30 133 38 Z M-48 -151 Q-47 -143 -47.5 -135.5 Q-48 -128 -47 -120 Q-48 -127 -52 -134 L-69 -185 L-75 -205 Q-51 -183 -48 -151 Z M107 98 Q102 96 100.5 101 Q99 106 104 107 L115 110 Q120 112 121.5 107.5 Q123 103 118 101 L107 98 Z " />
<glyph glyph-name="fl" unicode="&#xfb02;" horiz-adv-x="144" d="M302 494 Q305 498 309 495.5 Q313 493 311 489 Q291 457 272 425 Q253 393 235 360 Q171 242 124 119 Q112 90 101 60 Q90 30 83 -1 Q81 -5 81 -8.5 Q81 -12 80 -15 Q80 -17 80 -20.5 Q80 -24 82 -26 Q84 -29 87.5 -25.5 Q91 -22 93 -20 Q96 -18 98.5 -15 Q101 -12 104 -9 Q115 2 124 14 Q133 26 143 38 Q146 41 149.5 37.5 Q153 34 150 31 Q138 17 127 2.5 Q116 -12 103 -25 Q98 -30 91 -35.5 Q84 -41 76 -35 Q71 -30 70.5 -22 Q70 -14 71 -8 Q74 7 78 19 L78 20 L69 10 Q27 -34 -12 -77 L-23 -89 Q-25 -90 -26 -92 Q-28 -94 -28.5 -96.5 Q-29 -99 -31 -101 Q-33 -104 -35 -110 Q-36 -113 -36 -117 Q-37 -120 -37 -125 Q-38 -135 -38 -144.5 Q-38 -154 -40 -164 Q-46 -193 -69 -212 Q-71 -214 -74 -216 Q-77 -218 -80 -217 L-81 -217 Q-84 -216 -85 -213 Q-86 -210 -86 -207 Q-86 -203 -84 -199 L-84 -196 L-81 -187 L-69 -154 Q-67 -147 -64.5 -140 Q-62 -133 -59 -125 Q-41 -70 -21 -17 Q-1 36 21 90 Q42 144 65 196 Q88 248 112 301 Q160 404 214 505 Q216 510 220.5 507.5 Q225 505 223 500 L210 476 Q184 427 160 378 Q136 329 113 278 Q90 227 67.5 176 Q45 125 25 74 Q8 32 -7.5 -9.5 Q-23 -51 -38 -93 Q-36 -89 -34 -87 Q-26 -76 -16 -66 Q-6 -56 3 -46 Q23 -24 42.5 -3.5 Q62 17 82 38 L83 39 L88 52 Q94 69 100 85.5 Q106 102 113 119 Q126 151 139.5 183 Q153 215 167 247 Q197 311 230.5 372.5 Q264 434 302 494 Z M-48 -151 Q-47 -143 -47.5 -135.5 Q-48 -128 -47 -120 Q-48 -127 -52 -134 L-69 -185 L-75 -205 Q-51 -183 -48 -151 Z " />
<glyph glyph-name="Lslash" unicode="&#x141;" horiz-adv-x="170" d="M551 -219 Q553 -222 549 -224 Q548 -225 546.5 -225 Q545 -225 544 -226 Q524 -232 501 -230 Q480 -230 459 -228.5 Q438 -227 418 -225 L349 -219 L271 -210 Q251 -208 230.5 -205.5 Q210 -203 190 -200 Q141 -194 92.5 -187.5 Q44 -181 -4 -170 Q-23 -165 -41.5 -160.5 Q-60 -156 -79 -149 Q-84 -147 -87 -149 Q-100 -156 -113 -157 Q-134 -159 -149 -148 Q-168 -133 -169 -111 L-169 -107 Q-167 -95 -154 -98 Q-151 -99 -145 -103 Q-141 -105 -137.5 -108 Q-134 -111 -130 -113 Q-109 -128 -88 -136 Q-85 -137 -81 -135 Q-72 -130 -64.5 -124 Q-57 -118 -49 -111 Q-32 -96 -18.5 -79 Q-5 -62 8 -45 Q31 -15 52 17 Q73 49 93 81 Q108 106 123 131.5 Q138 157 153 183 L135 183 Q130 183 130 188 Q130 193 135 193 L159 193 Q190 248 219 304 Q248 360 275 418 Q292 453 306.5 487.5 Q321 522 332 558 Q344 593 350 628 Q352 642 352.5 654.5 Q353 667 349 681 Q346 692 340 701 Q334 710 323 715 Q316 719 308.5 720.5 Q301 722 293 723 Q276 724 260 721.5 Q244 719 227 715 Q199 708 173.5 698 Q148 688 122 676 Q17 625 -68 549 Q-87 532 -104.5 513.5 Q-122 495 -137 474 Q-144 463 -150.5 452 Q-157 441 -162 429 Q-163 425 -164 421.5 Q-165 418 -166 414 Q-167 411 -167 405 Q-165 396 -159 395 L-158 395 Q-153 393 -154 389 Q-156 385 -160 386 Q-166 386 -172 392 Q-179 400 -177 411 Q-176 421 -173 429.5 Q-170 438 -165 447 Q-148 480 -120 511 Q-95 539 -67 563.5 Q-39 588 -8 610 Q33 639 75 662.5 Q117 686 164 705 Q184 713 204.5 719 Q225 725 247 729 Q260 731 272.5 732.5 Q285 734 298 732 Q312 730 323.5 726 Q335 722 344 712 Q357 698 360 679 Q364 657 361 631 Q357 602 348.5 574 Q340 546 329 517 Q312 473 292.5 430.5 Q273 388 252 345 Q232 307 212 269 Q192 231 170 193 L187 193 Q192 193 192 188 Q192 183 187 183 L165 183 Q143 144 120 106.5 Q97 69 73 31 Q55 2 36 -24.5 Q17 -51 -4 -77 Q-26 -104 -48 -123 Q-53 -128 -59 -132.5 Q-65 -137 -71 -142 L-59 -145 Q-33 -153 -6.5 -159 Q20 -165 47 -170 Q80 -176 113.5 -180.5 Q147 -185 181 -189 Q212 -193 242.5 -197 Q273 -201 304 -204 Q331 -207 358 -210 Q385 -213 411 -215 Q430 -217 449 -218 Q468 -219 487 -220 Q517 -223 543 -216 Q544 -215 546 -215 Q550 -215 551 -219 Z M-140 -141 Q-122 -153 -97 -143 L-98 -142 Q-99 -141 -100 -141 Q-101 -141 -102 -140 Q-122 -131 -143 -117 Q-145 -115 -148 -113.5 Q-151 -112 -153 -110 Q-155 -109 -156 -108 Q-157 -107 -159 -108 Q-157 -129 -140 -141 Z " />
<glyph glyph-name="lslash" unicode="&#x142;" horiz-adv-x="61" d="M103 223 Q108 223 108 218 Q108 213 103 213 L80 213 Q69 190 59.5 166.5 Q50 143 41 119 Q29 90 18 60 Q7 30 0 -1 Q-2 -5 -2 -8.5 Q-2 -12 -3 -15 Q-3 -17 -3 -20.5 Q-3 -24 -1 -26 Q1 -29 4.5 -25.5 Q8 -22 10 -20 Q13 -18 15.5 -15 Q18 -12 21 -9 Q32 2 41 14 Q50 26 60 38 Q63 41 66.5 37.5 Q70 34 67 31 Q55 17 44 2.5 Q33 -12 20 -25 Q15 -30 8 -35.5 Q1 -41 -7 -35 Q-12 -30 -12.5 -22 Q-13 -14 -12 -8 Q-9 7 -5 19 Q-3 27 -0.5 35.5 Q2 44 5 52 Q11 69 17 85.5 Q23 102 30 119 Q39 142 48.5 166 Q58 190 69 213 L51 213 Q46 213 46 218 Q46 223 51 223 L73 223 Q75 229 78 235 Q81 241 84 247 Q114 311 147.5 372.5 Q181 434 219 494 Q222 498 226 495.5 Q230 493 228 489 Q208 457 189 425 Q170 393 152 360 Q134 326 117 292 Q100 258 84 223 L103 223 L103 223 Z " />
<glyph glyph-name="Zcaron" unicode="&#x17d;" horiz-adv-x="414" d="M717 730 Q730 723 727 711 Q725 701 721 694 Q717 685 711.5 677.5 Q706 670 700 662 Q686 644 670 627.5 Q654 611 638 594 Q603 556 567 519.5 Q531 483 496 445 Q448 394 401.5 342.5 Q355 291 310 237 Q309 236 309 235.5 Q309 235 307 233 Q318 236 327.5 238.5 Q337 241 347 243 Q364 248 382 251.5 Q400 255 418 257 Q429 259 440.5 260 Q452 261 463 259 Q485 256 494 236 Q496 234 496 231 Q496 227 492 227 Q489 226 486 229 Q486 231 485 232 Q479 245 465 248 Q450 251 431 249 Q408 246 384.5 241 Q361 236 338 231 Q328 228 318.5 225.5 Q309 223 299 220 Q294 218 292 216 Q242 156 195 95 Q148 34 104 -30 Q88 -53 73.5 -76 Q59 -99 46 -123 Q38 -137 32 -151.5 Q26 -166 21 -182 Q19 -189 18 -196 Q17 -203 18 -210 Q21 -231 42 -230 Q47 -229 51.5 -228.5 Q56 -228 61 -226 Q76 -222 89 -215 Q102 -208 115 -200 Q135 -188 154 -174 Q173 -160 191 -145 Q218 -122 244.5 -100 Q271 -78 298 -55 Q321 -35 345 -15.5 Q369 4 392 24 Q397 28 402.5 31.5 Q408 35 413 38 Q413 39 414 39 Q417 39 419 38 Q422 34 419 31 L418 30 L410 24 Q399 16 388.5 7 Q378 -2 367 -10 Q329 -42 291.5 -73.5 Q254 -105 216 -137 Q195 -155 173.5 -172 Q152 -189 129 -204 Q100 -223 71 -234 Q63 -236 56.5 -238 Q50 -240 42 -240 Q27 -241 18 -232.5 Q9 -224 8 -209 Q7 -193 13 -175 Q18 -158 25 -143 Q32 -128 40 -113 Q54 -87 69 -63 Q84 -39 101 -16 Q135 33 170.5 80 Q206 127 244 173 Q251 182 258 190.5 Q265 199 273 208 Q274 209 276 213 Q274 213 273.5 212.5 Q273 212 272 212 Q240 202 208 191.5 Q176 181 145 168 Q131 162 118.5 156 Q106 150 93 144 Q92 143 91.5 143 Q91 143 90 142 Q85 140 83 144 Q81 147 85 151 L91 154 Q120 169 150 180.5 Q180 192 211 203 Q229 209 247.5 215 Q266 221 284 226 Q288 227 292 231 Q357 309 424.5 383 Q492 457 563 530 Q589 557 614.5 584 Q640 611 666 639 Q676 650 685.5 661 Q695 672 703 684 Q710 693 715 705 Q722 721 703 724 Q695 726 687 725.5 Q679 725 671 724 Q644 719 618.5 712 Q593 705 567 695 Q474 659 390 608 Q237 516 111 392 Q88 369 66 344.5 Q44 320 25 294 Q18 285 12.5 276 Q7 267 2 257 Q0 253 -1.5 249 Q-3 245 -5 241 L-5 236 Q-7 233 -2 231 Q4 230 2 225 Q1 221 -4 221 Q-13 221 -15 231 Q-16 234 -15.5 237.5 Q-15 241 -14 244 Q-11 255 -3 269 Q5 284 15 298 Q25 312 36 326 Q62 358 91.5 387.5 Q121 417 152 445 Q221 507 296 559.5 Q371 612 454 655 Q489 673 524 688.5 Q559 704 597 716 Q614 721 631.5 726 Q649 731 666 733 Q677 735 687 735.5 Q697 736 707 734 Q713 732 717 730 Z M469 734 Q471 738 475 735.5 Q479 733 477 728 Q472 720 464 711.5 Q456 703 445 702 Q435 702 430 710 Q426 718 428 730 Q429 735 434 734.5 Q439 734 438 729 Q437 724 438.5 716 Q440 708 449 713 Q455 716 460 722.5 Q465 729 469 734 Z " />
<glyph glyph-name="zcaron" unicode="&#x17e;" horiz-adv-x="98" d="M96 38 Q99 41 102.5 37.5 Q106 34 103 30 Q83 6 62.5 -17 Q42 -40 20 -63 Q18 -69 16 -74.5 Q14 -80 12 -85 Q8 -94 4.5 -103 Q1 -112 -4 -121 Q-18 -150 -35.5 -177.5 Q-53 -205 -76 -227 Q-81 -232 -87 -236 Q-93 -240 -101 -237 Q-106 -235 -108 -229.5 Q-110 -224 -109 -219 Q-108 -203 -101.5 -189 Q-95 -175 -86 -163 Q-67 -135 -43.5 -112 Q-20 -89 3 -66 L11 -58 Q13 -50 13 -46 Q14 -40 11 -34.5 Q8 -29 0 -30 Q-5 -31 -10 -32.5 Q-15 -34 -20 -29 Q-25 -25 -21 -21 Q10 2 31 34 Q33 38 35.5 41 Q38 44 39 49 Q39 50 39.5 51.5 Q40 53 39 54 Q38 55 36 53.5 Q34 52 33 51 Q15 41 3 29 Q-1 25 -4.5 28.5 Q-8 32 -5 36 Q5 46 14 51 Q22 58 34 63 Q44 67 48 58 Q50 54 49.5 50 Q49 46 47 42 Q45 37 42 32.5 Q39 28 36 23 L21 5 Q10 -8 -5 -22 Q-3 -21 -2 -21 Q-1 -21 0 -20 Q8 -20 13 -24 Q18 -27 20.5 -33 Q23 -39 23 -45 Q43 -25 61 -4.5 Q79 16 96 38 Z M-8 -105 Q-5 -99 -2.5 -93 Q0 -87 3 -81 Q-17 -101 -37 -120.5 Q-57 -140 -74 -163 Q-82 -174 -89 -186.5 Q-96 -199 -98 -213 Q-99 -218 -99 -224.5 Q-99 -231 -91 -227 Q-88 -225 -85 -222 Q-82 -219 -80 -217 L-70 -207 Q-50 -184 -35 -158 Q-20 -132 -8 -105 Z M77 153 Q79 157 83 154.5 Q87 152 85 147 Q80 139 72 130.5 Q64 122 53 121 Q43 121 38 129 Q34 137 36 149 Q37 154 42 153.5 Q47 153 46 148 Q45 143 46.5 135 Q48 127 57 132 Q63 135 68 141.5 Q73 148 77 153 Z " />
<glyph glyph-name="Euro" unicode="&#x20ac;" horiz-adv-x="170" d="M152 137 Q157 135 158.5 130.5 Q160 126 159 121 Q159 98 143 80 Q139 76 135.5 79.5 Q132 83 136 87 Q144 95 147 106 Q149 114 149 117 Q151 123 149 127 Q146 130 139 127.5 Q132 125 130 123 Q125 121 121 118.5 Q117 116 112 113 Q96 102 83.5 86.5 Q71 71 60 55 Q59 53 58.5 52.5 Q58 52 57 50 Q67 52 76.5 54 Q86 56 96 58 Q101 60 102.5 55 Q104 50 99 49 Q87 46 74.5 43.5 Q62 41 50 39 Q48 35 46 31.5 Q44 28 42 24 Q52 26 61.5 27.5 Q71 29 81 31 Q86 32 87.5 27 Q89 22 84 21 Q72 19 60.5 17 Q49 15 37 13 Q31 -3 29 -20 Q28 -30 29.5 -40 Q31 -50 38 -58 Q42 -61 45.5 -63.5 Q49 -66 54 -66 Q63 -67 72 -60 Q88 -49 98.5 -32.5 Q109 -16 123 -2 Q127 2 130.5 -2 Q134 -6 130 -9 Q121 -18 113 -28.5 Q105 -39 97 -50 Q89 -59 79 -68 Q69 -77 56 -77 Q45 -77 36.5 -70 Q28 -63 23 -53 Q18 -42 18.5 -30 Q19 -18 21 -7 Q22 -2 23 2.5 Q24 7 26 12 Q22 11 18 10.5 Q14 10 10 9 Q5 9 3.5 13.5 Q2 18 7 19 Q13 20 18.5 20.5 Q24 21 30 22 Q32 26 33.5 29.5 Q35 33 37 37 Q33 36 29.5 36 Q26 36 21 35 Q16 34 16 39 Q16 44 21 45 Q27 46 32.5 46.5 Q38 47 44 48 Q53 63 65 78 Q79 95 94.5 111 Q110 127 132 135 Q137 137 142 138 Q147 139 152 137 Z " />
<glyph glyph-name="quotesinglbase" unicode="&#x201a;" horiz-adv-x="61" d="M10 -21 Q13 -23 13 -26 Q13 -28 12 -28 L-7 -72 Q-11 -80 -12 -84 Q-15 -89 -19 -87 Q-24 -85 -22 -80 Q-16 -68 -10.5 -55.5 Q-5 -43 0 -30 L4 -24 Q5 -21 10 -21 Z " />
<glyph glyph-name="florin" unicode="&#x192;" horiz-adv-x="83" d="M214 505 Q216 510 220.5 507.5 Q225 505 223 500 Q220 494 216.5 488 Q213 482 210 476 Q184 427 160 378 Q136 329 113 278 Q90 227 67.5 176 Q45 125 25 74 Q8 32 -7.5 -9.5 Q-23 -51 -38 -93 Q-36 -89 -34 -87 Q-26 -76 -16 -66 Q-6 -56 3 -46 Q23 -24 42.5 -3.5 Q62 17 82 38 Q85 41 88.5 37.5 Q92 34 89 31 Q84 26 79 20.5 Q74 15 69 10 Q27 -34 -12 -77 Q-14 -80 -17 -83 Q-20 -86 -23 -89 Q-25 -90 -26 -92 Q-28 -94 -28.5 -96.5 Q-29 -99 -31 -101 Q-33 -104 -35 -110 Q-36 -113 -36 -117 Q-37 -120 -37 -125 Q-38 -135 -38 -144.5 Q-38 -154 -40 -164 Q-46 -193 -69 -212 Q-71 -214 -74 -216 Q-77 -218 -80 -217 L-81 -217 Q-84 -216 -85 -213 Q-86 -210 -86 -207 Q-86 -203 -84 -199 L-84 -196 L-81 -187 L-69 -154 Q-67 -147 -64.5 -140 Q-62 -133 -59 -125 Q-41 -70 -21 -17 Q-1 36 21 90 Q42 144 65 196 Q88 248 112 301 Q160 404 214 505 Z M-48 -151 Q-47 -143 -47.5 -134.5 Q-48 -126 -47 -118 Q-48 -125 -52 -134 Q-57 -147 -60.5 -159.5 Q-64 -172 -69 -185 L-75 -205 Q-51 -183 -48 -151 Z " />
<glyph glyph-name="quotedblbase" unicode="&#x201e;" horiz-adv-x="81" d="M10 -21 Q13 -23 13 -26 Q13 -28 12 -28 L-7 -72 Q-11 -80 -12 -84 Q-15 -89 -19 -87 Q-24 -85 -22 -80 Q-16 -68 -10.5 -55.5 Q-5 -43 0 -30 L4 -24 Q5 -21 10 -21 Z M38 -21 Q41 -23 41 -26 Q41 -28 40 -28 L21 -72 Q17 -80 16 -84 Q13 -89 9 -87 Q4 -85 6 -80 Q12 -68 17.5 -55.5 Q23 -43 28 -30 L32 -24 Q33 -21 38 -21 Z " />
<glyph glyph-name="ellipsis" unicode="&#x2026;" horiz-adv-x="192" d="M11 -21 Q14 -23 14 -26 Q14 -29 11 -31.5 Q8 -34 5 -34 Q2 -34 1 -31 Q-1 -27 3 -25 L6 -22 Q7 -21 11 -21 Z M75 -21 Q78 -23 78 -26 Q78 -29 75 -31.5 Q72 -34 69 -34 Q66 -34 65 -31 Q63 -27 67 -25 L70 -22 Q71 -21 75 -21 Z M139 -21 Q142 -23 142 -26 Q142 -29 139 -31.5 Q136 -34 133 -34 Q130 -34 129 -31 Q127 -27 131 -25 L134 -22 Q135 -21 139 -21 Z " />
<glyph glyph-name="dagger" unicode="&#x2020;" horiz-adv-x="116" d="M93 77 Q98 77 98 72 Q98 67 93 67 L70 67 L47 15 L-60 -229 Q-62 -234 -66 -231.5 Q-70 -229 -68 -224 L-8 -86 L58 67 L41 67 Q36 67 36 72 Q36 77 41 77 L63 77 Q71 97 80 116 Q89 135 98 155 Q124 217 151 277.5 Q178 338 204 399 Q206 404 210.5 401.5 Q215 399 213 394 L153 257 Q133 212 113.5 167 Q94 122 74 77 L93 77 L93 77 Z " />
<glyph glyph-name="daggerdbl" unicode="&#x2021;" horiz-adv-x="120" d="M93 74 Q98 74 98 69 Q98 64 93 64 L68 64 L47 15 L-60 -229 Q-62 -234 -66 -231.5 Q-70 -229 -68 -224 L-8 -86 L57 64 L41 64 Q36 64 36 69 Q36 74 41 74 L61 74 L68 88 L52 88 Q47 88 47 93 Q47 98 52 98 L72 98 L98 155 Q124 217 151 277.5 Q178 338 204 399 Q206 404 210.5 401.5 Q215 399 213 394 L153 257 Q135 217 117.5 177.5 Q100 138 83 98 L105 98 Q110 98 110 93 Q110 88 105 88 L79 88 L73 74 L93 74 L93 74 Z " />
<glyph glyph-name="circumflex" unicode="&#x2c6;" horiz-adv-x="84" d="M143 296 Q144 291 143.5 286.5 Q143 282 142 277 Q142 272 137 272 Q132 272 132 277 Q132 283 133 286 L133 289 Q132 289 131 288 Q127 286 126 285 Q123 283 120.5 280 Q118 277 116 275 Q113 271 109.5 274.5 Q106 278 109 282 Q121 296 134 300 Q142 302 143 296 Z " />
<glyph glyph-name="perthousand" unicode="&#x2030;" horiz-adv-x="176" d="M193 235 Q197 236 199 233.5 Q201 231 199 228 Q198 226 197 224 Q196 222 194 220 Q188 212 182 204.5 Q176 197 170 189 Q117 121 69 44 Q38 -7 9.5 -57.5 Q-19 -108 -46 -161 Q-50 -169 -51 -173 L-50 -172 Q-27 -152 -5.5 -132 Q16 -112 38 -92 L47 -83 L50 -80 Q54 -79 57 -81 Q59 -83 57 -87 L51 -93 Q33 -111 21 -132 Q19 -138 19 -141 Q34 -138 46 -121 L45 -121 Q41 -118 42 -114 Q43 -110 48 -108 Q54 -108 56 -110 Q60 -114 61 -114 Q62 -114 63 -115 Q70 -113 76 -109 Q82 -100 92 -90 Q94 -88 95 -86.5 Q96 -85 98 -83 Q100 -81 102 -80 Q105 -78 108 -81 L109 -82 Q110 -84 109.5 -85.5 Q109 -87 109 -88 L108 -90 Q106 -95 102 -98.5 Q98 -102 95 -106 Q92 -108 89 -111 Q86 -114 83 -116 Q80 -121 77.5 -124.5 Q75 -128 73 -132 Q70 -137 70 -141 Q79 -139 85.5 -134 Q92 -129 98 -121 L96 -121 Q92 -117 93 -114 Q94 -110 99 -108 Q105 -108 107 -110 Q111 -114 113 -114 Q116 -116 116 -120 Q114 -124 110 -124 L107 -124 Q101 -134 89 -143 Q81 -150 73 -151 Q66 -153 62 -149 Q58 -145 60 -138 Q60 -137 60.5 -136.5 Q61 -136 61 -135 Q62 -133 63 -130.5 Q64 -128 66 -124 Q61 -126 56 -124 Q49 -136 37 -143 Q31 -149 22 -151 Q5 -154 9 -138 L12 -129 Q10 -131 9 -131 Q-7 -145 -22 -159 Q-37 -173 -52 -187 Q-60 -190 -62.5 -188.5 Q-65 -187 -65 -183 Q-65 -179 -63 -174.5 Q-61 -170 -60 -167 Q-44 -134 -26.5 -102.5 Q-9 -71 9 -39 Q35 7 62.5 51.5 Q90 96 121 139 Q135 158 149 176.5 Q163 195 177 214 L178 215 L178 216 Q171 211 164.5 207 Q158 203 151 199 Q140 192 129.5 186 Q119 180 109 173 Q107 173 107 171 Q108 166 104 158 Q93 140 75 129 Q65 125 59 126 Q51 127 49 137 Q48 144 53 155 Q62 177 83 194 Q85 196 90 198 Q94 199 96 196.5 Q98 194 96 191 Q95 188 91 182 Q90 181 88 177 Q92 179 95 178.5 Q98 178 101 180 Q115 187 127.5 195.5 Q140 204 153 212 Q161 217 169.5 222 Q178 227 186 232 Q188 233 189.5 234 Q191 235 193 235 Z M96 164 Q97 165 97 167 Q94 166 91 165 Q88 164 86 163 Q79 161 77 164 Q75 165 73 169 Q64 159 60 147 Q59 145 59 140 Q59 136 63 136 Q65 136 69 138 Q87 145 96 164 Z " />
<glyph glyph-name="Scaron" unicode="&#x160;" horiz-adv-x="410" d="M247 138 Q248 137 248.5 137 Q249 137 250 136 Q267 131 283 126 Q299 121 314 113 Q326 107 337 99.5 Q348 92 357 81 Q378 58 376 24 Q376 8 371 -7 Q366 -22 359 -36 Q357 -40 355 -42 Q353 -46 354 -49 Q356 -54 350 -54 Q348 -56 348 -56 Q322 -96 289 -128 Q256 -160 218 -186 Q201 -197 183.5 -207 Q166 -217 146 -223 Q126 -230 108 -231 Q96 -233 84 -228 Q71 -223 65.5 -213 Q60 -203 65 -189 Q68 -179 73.5 -171.5 Q79 -164 86 -156 Q99 -144 112.5 -134 Q126 -124 140 -114 Q188 -82 238 -61 Q254 -55 269.5 -51 Q285 -47 302 -45 Q312 -44 321.5 -44 Q331 -44 341 -44 Q343 -44 344 -42 Q358 -18 364 6 Q370 35 359 59 Q349 78 330 91 Q317 100 302.5 106.5 Q288 113 273 118 Q252 126 230 131.5 Q208 137 185 143 Q162 148 139 154.5 Q116 161 93 169 Q77 175 62 181.5 Q47 188 33 198 Q24 206 16 214 Q8 222 2 233 Q-10 255 -7 281 Q-5 297 0.5 311.5 Q6 326 14 340 Q26 360 40.5 378.5 Q55 397 72 414 Q100 443 129.5 468 Q159 493 190 516 Q248 558 308 594.5 Q368 631 433 661 Q471 679 509.5 693.5 Q548 708 588 718 Q605 723 622.5 726 Q640 729 657 730 Q671 732 686 731.5 Q701 731 715 726 Q729 721 737 713 Q749 701 746 679 Q744 667 739.5 656 Q735 645 729 634 Q718 617 706 601 Q694 585 681 569 Q653 537 624 506.5 Q595 476 566 445 Q516 394 466.5 344 Q417 294 366 244 Q343 222 320 200 Q297 178 273 158 Q267 153 260.5 148.5 Q254 144 248 139 Q247 138 247 138 Z M236 141 Q237 143 240 146 Q247 151 253.5 156 Q260 161 267 166 Q295 190 321.5 215 Q348 240 374 266 Q425 317 475 367.5 Q525 418 575 469 Q602 498 628.5 526 Q655 554 681 585 Q693 599 704 614.5 Q715 630 724 647 Q733 662 736 679 Q739 695 730 704 Q722 713 712 716 Q702 719 692.5 720 Q683 721 673 721 Q653 720 633 717 Q613 714 593 709 Q553 699 515 684.5 Q477 670 439 653 Q321 597 215 521 Q180 496 147 469 Q114 442 84 411 Q67 395 52.5 377.5 Q38 360 26 340 Q18 326 12 312.5 Q6 299 4 283 Q0 259 12 237 Q23 216 46 203 Q60 193 75.5 186.5 Q91 180 107 175 Q130 167 152 161.5 Q174 156 197 150 L236 141 Z M337 -54 L336 -54 Q327 -54 318 -54 Q309 -54 301 -55 Q283 -57 266.5 -62 Q250 -67 233 -74 Q209 -85 186 -97.5 Q163 -110 141 -126 Q128 -134 116 -144 Q104 -154 93 -165 Q80 -177 74 -193 Q71 -208 81 -214 Q83 -217 88 -218 Q96 -221 104 -221 Q112 -221 120 -219 Q136 -217 150.5 -211.5 Q165 -206 179 -198 Q198 -187 215.5 -175 Q233 -163 250 -149 Q273 -130 293 -109 Q313 -88 330 -64 Q332 -62 333.5 -59 Q335 -56 337 -54 Z M455 734 Q457 738 461 735.5 Q465 733 463 728 Q458 720 450 711.5 Q442 703 431 702 Q421 702 416 710 Q412 718 414 730 Q415 735 420 734.5 Q425 734 424 729 Q423 724 424.5 716 Q426 708 435 713 Q441 716 446 722.5 Q451 729 455 734 Z " />
<glyph glyph-name="guilsinglleft" unicode="&#x2039;" horiz-adv-x="135" d="M106 69 Q110 72 113.5 68.5 Q117 65 113 62 Q84 37 52 20 Q48 17 44 14.5 Q40 12 36 10 L35 10 Q35 9 35.5 9 Q36 9 36 8 Q36 7 37 7 L44 -1 Q50 -8 56.5 -15 Q63 -22 71 -29 Q74 -33 70.5 -36.5 Q67 -40 64 -36 Q56 -28 48.5 -20 Q41 -12 33 -4 Q31 -1 27 3 Q23 7 24 12 Q25 16 29 18 Q33 20 36 22 Q55 33 72 44 Q89 55 106 69 Z " />
<glyph glyph-name="OE" unicode="&#x152;" horiz-adv-x="1143" d="M411 -64 L410 -63 Q398 -52 390 -39 Q382 -26 376 -11 Q371 3 367 17.5 Q363 32 361 47 Q359 59 359.5 71 Q360 83 362 96 Q367 138 379.5 179 Q392 220 408 260 Q440 338 480 412 Q520 486 569 556 Q605 607 645 649 Q656 661 668.5 672.5 Q681 684 695 695 Q704 701 712.5 706 Q721 711 731 714 Q736 716 741.5 717 Q747 718 752 717 Q769 717 779 701 Q784 693 786 684 Q788 675 789 666 Q790 650 788 634.5 Q786 619 783 604 Q776 571 765 539.5 Q754 508 740 477 Q721 432 699.5 388.5 Q678 345 654 303 Q608 219 558.5 138.5 Q509 58 454 -20 Q448 -29 442 -38 Q436 -47 429 -56 Q428 -57 426 -61 Q445 -73 471 -65 Q488 -59 504 -48 Q529 -29 550 -5 Q558 5 566.5 14.5 Q575 24 583 35 Q584 36 584 36.5 Q584 37 585 38 Q589 40 591 38 Q595 36 593 33 Q593 31 591 29 Q573 5 552.5 -17 Q532 -39 508 -58 Q489 -71 472 -76 Q446 -84 424 -72 Q424 -72 420 -70 L419 -70 Q418 -72 417 -72.5 Q416 -73 415 -75 Q397 -99 378 -121.5 Q359 -144 338 -165 Q324 -179 309.5 -191 Q295 -203 278 -213 Q257 -226 232 -231 Q196 -237 167 -217 Q145 -203 130 -177 Q119 -160 111.5 -141 Q104 -122 99 -102 Q93 -80 90 -58 Q87 -36 85 -13 Q83 18 83.5 48.5 Q84 79 86 110 Q89 136 93 162 Q97 188 102 214 Q113 264 128 312 Q143 360 163 408 Q180 447 200 484.5 Q220 522 245 557 Q261 579 278 599.5 Q295 620 315 639 Q331 653 348 665.5 Q365 678 384 687 Q408 698 431 701 Q445 703 456 700 Q486 694 489 661 Q492 636 479 609 Q476 604 472 605 Q467 607 470 613 Q472 617 473 620 Q474 623 475 627 Q481 645 478 663 Q475 688 449 691 Q439 693 429 691 Q419 689 409 686 Q375 675 343 649 Q324 635 308 618 Q292 601 277 583 Q251 551 230.5 517 Q210 483 193 447 Q167 394 148 340 Q129 286 116 229 Q107 188 101.5 147.5 Q96 107 94 65 Q92 24 95 -16 Q98 -56 108 -95 Q113 -115 119.5 -134 Q126 -153 137 -170 Q142 -178 148.5 -186 Q155 -194 163 -201 Q187 -223 219 -222 Q229 -222 238.5 -219.5 Q248 -217 257 -213 Q269 -208 279.5 -200.5 Q290 -193 301 -185 Q334 -158 365 -122 Q376 -108 386.5 -95 Q397 -82 408 -68 Q409 -67 409.5 -66 Q410 -65 411 -64 Z M417 -55 L419 -53 Q425 -45 431 -36.5 Q437 -28 442 -20 Q492 51 537 124 Q582 197 625 272 Q652 320 677 367.5 Q702 415 725 466 Q739 498 751 530 Q763 562 771 595 Q779 629 779 658 Q779 666 778 674 Q777 682 773 690 Q766 711 742 706 Q729 703 714 695 Q700 686 687.5 675.5 Q675 665 664 654 Q638 629 616 601.5 Q594 574 574 545 Q539 495 509 442.5 Q479 390 453 335 Q434 297 418 258.5 Q402 220 390 179 Q383 155 378 130.5 Q373 106 371 81 Q370 70 370 60.5 Q370 51 372 40 Q374 29 377 19 Q380 9 384 -2 Q389 -16 395.5 -28 Q402 -40 413 -51 Q414 -52 415 -52.5 Q416 -53 417 -55 Z M1332 719 Q1345 712 1352.5 701 Q1360 690 1360 674 Q1360 655 1352 634 Q1345 617 1336.5 602 Q1328 587 1319 573 Q1303 548 1285.5 525.5 Q1268 503 1250 480 Q1215 438 1180 398 Q1145 358 1108 320 Q1104 317 1102 312 Q1099 308 1095 309 Q1090 311 1092 316 Q1093 318 1094 319.5 Q1095 321 1096 323 Q1101 328 1105 332 Q1109 336 1113 341 Q1160 390 1203.5 441 Q1247 492 1288 546 Q1302 564 1313.5 582 Q1325 600 1335 620 Q1340 631 1343.5 641.5 Q1347 652 1349 663 Q1354 698 1324 711 Q1313 716 1301.5 718 Q1290 720 1279 720 Q1250 720 1222.5 714 Q1195 708 1168 699 Q1126 685 1088.5 665 Q1051 645 1015 620 Q967 588 924 550 Q881 512 841 469 Q815 440 790 410.5 Q765 381 743 348 Q728 327 715 304.5 Q702 282 692 258 Q682 236 677 211 Q675 201 675 191.5 Q675 182 677 172 Q683 146 709 138 Q719 135 728.5 134.5 Q738 134 748 135 Q768 137 787 142 Q806 147 825 153 Q861 165 897.5 177.5 Q934 190 970 203 Q1005 215 1040.5 227.5 Q1076 240 1111 252 L1120 255 Q1125 257 1127 252 Q1129 247 1123 244 Q1121 242 1118.5 241.5 Q1116 241 1114 239 Q1069 214 1025.5 187 Q982 160 940 130 Q889 93 843.5 52.5 Q798 12 757 -36 Q742 -54 728 -72 Q714 -90 702 -110 Q696 -121 690.5 -132.5 Q685 -144 683 -156 Q680 -167 680 -177 Q682 -203 704 -212 Q714 -216 723.5 -216.5 Q733 -217 743 -216 Q763 -214 781 -208 Q799 -202 816 -194 Q834 -185 851 -174 Q868 -163 885 -151 L996 -67 Q1025 -46 1052.5 -25.5 Q1080 -5 1109 16 Q1110 16 1112 17 Q1114 18 1116 16 Q1118 12 1116 10 Q1115 8 1114 8 Q1110 5 1106 2 Q1102 -1 1097 -4 Q1051 -39 1005.5 -73.5 Q960 -108 913 -143 Q893 -157 873.5 -170.5 Q854 -184 833 -196 Q817 -205 800.5 -212 Q784 -219 766 -223 Q743 -229 719 -226 Q714 -225 710 -224.5 Q706 -224 701 -222 Q667 -208 670 -170 Q673 -145 685 -121 Q693 -104 704 -88 Q715 -72 727 -56 Q762 -12 801.5 26.5 Q841 65 884 100 Q927 135 971.5 164.5 Q1016 194 1063 222 L1069 225 L1069 226 Q1060 223 1051 220 Q1042 217 1034 214 Q991 199 948.5 184 Q906 169 863 155 Q841 147 819.5 140.5 Q798 134 776 129 Q763 127 750.5 125 Q738 123 726 124 Q718 125 711 126.5 Q704 128 698 131 Q670 144 665 179 Q663 202 669 222 Q675 248 686 271.5 Q697 295 711 318 Q731 351 754 381.5 Q777 412 802 441 Q881 532 973 602 Q1010 630 1048.5 653.5 Q1087 677 1129 695 Q1155 706 1182 714 Q1209 722 1238 727 Q1264 732 1291 730 Q1302 728 1312 726 Q1322 724 1332 719 Z " />
<glyph glyph-name="quoteleft" unicode="&#x2018;" horiz-adv-x="97" d="M214 497 Q216 502 221 500.5 Q226 499 224 494 Q219 483 214.5 472.5 Q210 462 205 451 Q203 446 198.5 448.5 Q194 451 196 456 Q206 475 214 497 Z " />
<glyph glyph-name="quoteright" unicode="&#x2019;" horiz-adv-x="105" d="M214 497 Q216 502 221 500.5 Q226 499 224 494 Q219 483 214.5 472.5 Q210 462 205 451 Q203 446 198.5 448.5 Q194 451 196 456 Q206 475 214 497 Z " />
<glyph glyph-name="quotedblleft" unicode="&#x201c;" horiz-adv-x="103" d="M228 497 Q230 502 234.5 500.5 Q239 499 237 494 Q232 483 227.5 472.5 Q223 462 218 451 Q216 446 211.5 448.5 Q207 451 209 456 Q214 466 218.5 476 Q223 486 228 497 Z M206 497 Q208 502 213 500.5 Q218 499 216 494 Q211 483 206.5 472.5 Q202 462 197 451 Q195 446 190.5 448.5 Q186 451 188 456 Q198 475 206 497 Z " />
<glyph glyph-name="quotedblright" unicode="&#x201d;" horiz-adv-x="104" d="M228 497 Q230 502 234.5 500.5 Q239 499 237 494 Q232 483 227.5 472.5 Q223 462 218 451 Q216 446 211.5 448.5 Q207 451 209 456 Q214 466 218.5 476 Q223 486 228 497 Z M206 497 Q208 502 213 500.5 Q218 499 216 494 Q211 483 206.5 472.5 Q202 462 197 451 Q195 446 190.5 448.5 Q186 451 188 456 Q198 475 206 497 Z " />
<glyph glyph-name="bullet" unicode="&#x2022;" horiz-adv-x="100" d="M60 39 Q63 35 61 28 Q59 20 52 17 Q44 14 38 17 Q34 19 34 27 Q34 36 38 40 Q43 45 49.5 44.5 Q56 44 60 39 Z " />
<glyph glyph-name="endash" unicode="&#x2013;" horiz-adv-x="127" d="M80 19 Q85 19 85 14 Q85 9 80 9 L28 9 Q23 9 23 14 Q23 19 28 19 L80 19 L80 19 Z " />
<glyph glyph-name="emdash" unicode="&#x2014;" horiz-adv-x="135" d="M103 19 Q111 19 111 14 Q111 9 103 9 L31 9 Q23 9 23 14 Q23 19 31 19 L103 19 L103 19 Z " />
<glyph glyph-name="tilde" unicode="&#x2dc;" horiz-adv-x="122" d="M139 252 L148 261 L173 293 L178 298 Q183 301 185 298 Q187 295 184 292 Q181 291 180 288 L155 257 L149 250 L144 245 Q130 236 130 250 Q130 254 132 264 Q132 269 136 279 L132 276 L113 259 Q112 258 108 256 Q106 255 104.5 256.5 Q103 258 103 260 Q104 265 110 267 L113 269 L132 286 Q134 290 137 290 Q141 293 143.5 291.5 Q146 290 145 286 Q145 281 143 273 L139 257 L139 252 Z " />
<glyph glyph-name="trademark" unicode="&#x2122;" horiz-adv-x="167" d="M201 415 Q195 401 188.5 386.5 Q182 372 176 358 Q174 353 169.5 355.5 Q165 358 167 363 Q173 376 178.5 389 Q184 402 190 415 L182 415 Q177 415 177 420 Q177 425 182 425 L215 425 Q220 425 220 420 Q220 415 215 415 L201 415 Z M265 427 Q267 426 269 423.5 Q271 421 269 419 Q262 404 255.5 388.5 Q249 373 242 357 Q240 352 235.5 354.5 Q231 357 233 362 Q238 372 241.5 381 Q245 390 250 400 L235 385 L234 385 Q232 383 229 383.5 Q226 384 226 388 Q225 393 225 402 Q220 391 215.5 380.5 Q211 370 206 359 Q204 354 199.5 356.5 Q195 359 197 364 Q204 378 210.5 393 Q217 408 223 423 Q225 426 227 425.5 Q229 425 231 423 Q233 423 233 420 Q234 415 234.5 410 Q235 405 235 400 Q248 412 260 425 Q262 427 265 427 Z " />
<glyph glyph-name="scaron" unicode="&#x161;" horiz-adv-x="93" d="M78 38 Q82 41 85.5 37.5 Q89 34 85 31 Q73 19 61.5 6 Q50 -7 39 -21 Q39 -23 39.5 -23.5 Q40 -24 40 -26 Q40 -36 39 -41 Q39 -43 38.5 -45.5 Q38 -48 38 -50 L35 -59 Q35 -62 33 -68 Q32 -70 31 -72 Q30 -74 29 -76 Q27 -82 25 -84 Q24 -88 21 -92 Q20 -94 19 -95.5 Q18 -97 17 -99 Q2 -122 -16 -136 Q-20 -140 -25 -141.5 Q-30 -143 -35 -139 Q-41 -133 -39 -123 Q-38 -113 -32 -102 Q-29 -96 -26 -90 Q-23 -84 -20 -79 Q-18 -76 -16 -72.5 Q-14 -69 -12 -66 Q-5 -55 6.5 -41.5 Q18 -28 28 -17 Q25 -5 18 3 Q14 8 10 12 Q6 16 3 21 Q-3 32 0 42 Q2 53 10 62 Q18 71 28 76 Q39 80 43 72 Q46 67 44 61.5 Q42 56 39 52 Q37 47 32.5 49.5 Q28 52 31 57 Q32 58 34.5 62 Q37 66 34 67 Q32 68 29 65.5 Q26 63 24 61 Q13 52 10 38 Q9 26 20 16 Q23 12 26.5 8.5 Q30 5 32 0 L36 -8 L43 -1 Q44 1 45 2 Q53 12 61 21 Q69 30 78 38 Z M25 -57 Q27 -52 27 -47 Q27 -42 28 -38 Q28 -34 29 -30 Q29 -30 26 -34 Q23 -38 19 -42.5 Q15 -47 11.5 -51 Q8 -55 8 -56 Q-3 -70 -13 -86.5 Q-23 -103 -28 -121 Q-31 -126 -29 -129 Q-28 -133 -26 -131.5 Q-24 -130 -22 -128 Q-9 -118 1 -105 Q11 -92 19 -76 Q21 -71 22.5 -66.5 Q24 -62 25 -57 Z M101 184 Q103 188 107 185.5 Q111 183 109 178 Q104 170 96 161.5 Q88 153 77 152 Q67 152 62 160 Q58 168 60 180 Q61 185 66 184.5 Q71 184 70 179 Q69 174 70.5 166 Q72 158 81 163 Q87 166 92 172.5 Q97 179 101 184 Z " />
<glyph glyph-name="guilsinglright" unicode="&#x203a;" horiz-adv-x="112" d="M86 18 Q88 15 88 11 Q88 9 87 9 L-4 -38 Q-9 -40 -11.5 -35.5 Q-14 -31 -9 -29 L75 14 L53 38 L44 49 L43 49 Q41 53 38 56.5 Q35 60 32 64 Q30 68 34 70.5 Q38 73 41 69 Q49 57 61 45 L61 44 L62 44 L61 45 L85 18 L86 18 L86 18 Z " />
<glyph glyph-name="oe" unicode="&#x153;" horiz-adv-x="139" d="M138 37 Q141 41 145.5 38.5 Q150 36 147 32 Q137 19 126.5 6.5 Q116 -6 105 -18 Q100 -23 94.5 -28 Q89 -33 81 -35 L75 -35 Q73 -35 69 -33 L65 -29 L62 -24 Q61 -23 61 -22 Q61 -21 60 -19 Q59 -14 59 -3 Q59 4 60 7 Q60 10 62 16 Q58 14 55 12 Q52 10 48 9 L43 9 Q37 -3 28.5 -13.5 Q20 -24 9 -31 Q2 -35 -4.5 -34.5 Q-11 -34 -15 -26 Q-18 -18 -16.5 -9.5 Q-15 -1 -13 6 Q-8 24 0.5 40 Q9 56 20 70 Q22 75 26.5 72.5 Q31 70 28 65 Q20 54 12.5 41.5 Q5 29 0 15 Q-4 3 -6 -10 Q-8 -16 -6 -21 Q-5 -26 2 -24 Q13 -18 20 -8.5 Q27 1 32 11 Q33 12 33 13 L32 14 Q26 21 28 31 Q29 37 33 46 Q37 55 45 53 Q53 50 51.5 39 Q50 28 48 22 Q48 20 47 20 Q49 20 51 21 Q55 23 60 28 Q66 32 70 38 L71 39 Q75 46 83 54 Q85 56 88 58.5 Q91 61 94 63 Q100 67 104 68 Q112 70 119 66.5 Q126 63 123 53 Q120 44 112 36 Q104 28 95 25 Q84 21 80 32 Q78 29 75 23 Q72 17 70 9.5 Q68 2 67.5 -6 Q67 -14 71 -21 Q75 -25 77 -25 L79 -25 Q82 -25 86 -21 Q91 -18 95 -13.5 Q99 -9 104 -4 Q113 6 121.5 16 Q130 26 138 37 Z M92 48 L90 45 L90 41 Q87 38 89 36 Q89 34 91 34 Q97 36 100 39 Q102 41 109 48.5 Q116 56 113 59 Q112 60 110 59.5 Q108 59 107 59 Q104 58 101.5 56.5 Q99 55 97 53 L92 48 Z M41 40 L40 39 Q36 32 38 26 L38 24 Q41 30 41 36 L41 40 Z " />
<glyph glyph-name="dieresis" unicode="&#xa8;" horiz-adv-x="66" d="M120 299 Q123 297 123 294 Q123 291 120 288.5 Q117 286 114 286 Q111 286 110 289 Q108 293 112 295 L115 298 Q116 299 120 299 Z M141 299 Q144 297 144 294 Q144 291 141 288.5 Q138 286 135 286 Q132 286 131 289 Q129 293 133 295 L136 298 Q137 299 141 299 Z " />
<glyph glyph-name="Ydieresis" unicode="&#x178;" horiz-adv-x="386" d="M277 -62 Q272 -69 267.5 -76.5 Q263 -84 258 -91 Q244 -112 229.5 -132.5 Q215 -153 198 -173 Q186 -187 173 -200.5 Q160 -214 146 -225 Q140 -230 134.5 -233.5 Q129 -237 122 -240 Q118 -241 114.5 -242 Q111 -243 107 -243 Q87 -245 85 -225 Q83 -217 85 -210 Q87 -203 89 -196 Q95 -181 104.5 -168.5 Q114 -156 126 -145 Q142 -129 161 -117 Q180 -105 200 -95 Q214 -88 229 -82 Q244 -76 259 -69 Q260 -69 263 -66 Q295 -17 323 33 Q351 83 377 135 Q415 210 446 293 Q458 324 468 355.5 Q478 387 486 419 Q487 424 487.5 427.5 Q488 431 489 436 L489 439 L488 440 Q485 436 482 433 Q479 430 476 427 Q463 411 451 396 Q439 381 426 365 Q363 284 302 202 Q241 120 178 37 L103 -59 Q97 -67 90.5 -73 Q84 -79 78 -86 L69 -92 Q63 -95 58.5 -92.5 Q54 -90 54 -84 Q54 -79 54.5 -74 Q55 -69 56 -64 Q60 -48 65.5 -33 Q71 -18 78 -2 Q92 30 106.5 61 Q121 92 136 124 Q168 191 203.5 256 Q239 321 274 386 Q299 431 323 476 Q347 521 370 567 Q381 589 391.5 610.5 Q402 632 410 655 Q415 666 418 677 Q421 688 423 700 L423 717 Q422 731 405 733 Q399 733 393 732 Q387 731 382 729 Q367 724 353.5 717 Q340 710 327 702 Q295 682 266.5 660 Q238 638 211 613 Q188 590 166.5 566.5 Q145 543 126 517 Q114 499 103.5 480.5 Q93 462 85 442 Q81 431 78.5 420.5 Q76 410 74 399 Q74 391 74.5 384 Q75 377 77 369 Q85 341 117 335 Q127 333 136 333.5 Q145 334 154 336 L156 336 Q161 336 161 332 Q162 327 158 326 Q144 324 131.5 323.5 Q119 323 105 328 Q71 340 65 376 Q63 392 65 407 Q67 422 72 436 Q80 458 90.5 478 Q101 498 114 517 Q133 545 155.5 570 Q178 595 203 618 Q232 646 264 670.5 Q296 695 331 716 Q342 723 354 728.5 Q366 734 378 738 Q393 743 404 743 Q420 741 428 731 Q431 727 433 717 Q435 707 433 697.5 Q431 688 429 679 Q424 661 417.5 644.5 Q411 628 403 611 Q387 576 369 542 Q351 508 333 474 L210 246 Q180 190 152 134 Q124 78 98 20 Q90 0 82 -19.5 Q74 -39 68 -59 Q66 -64 65.5 -69.5 Q65 -75 64 -80 L64 -84 Q67 -82 71 -78 Q77 -72 83.5 -66 Q90 -60 95 -53 Q113 -30 131.5 -6.5 Q150 17 167 40 L371 310 Q392 338 413.5 365.5 Q435 393 457 421 Q462 426 467 431.5 Q472 437 477 442 Q479 446 486 450 Q491 452 495 450 Q499 448 499 442 Q499 437 498.5 432.5 Q498 428 497 423 Q492 400 486 378.5 Q480 357 472 335 Q453 277 429 222.5 Q405 168 378 114 Q357 72 334.5 32 Q312 -8 287 -47 L277 -62 Z M171 -188 Q190 -167 206.5 -145.5 Q223 -124 239 -101 Q242 -96 245 -92.5 Q248 -89 251 -84 Q249 -84 249 -85 L207 -103 Q187 -112 169.5 -123.5 Q152 -135 136 -150 Q124 -161 114.5 -173 Q105 -185 99 -200 Q97 -206 95 -212 Q93 -218 95 -224 Q97 -235 106 -233 L110 -233 Q118 -231 123.5 -228 Q129 -225 135 -221 Q154 -206 171 -188 Z M473 632 Q476 630 476 627 Q476 624 473 621.5 Q470 619 467 619 Q464 619 463 622 Q461 626 465 628 L468 631 Q469 632 473 632 Z M494 632 Q497 630 497 627 Q497 624 494 621.5 Q491 619 488 619 Q485 619 484 622 Q482 626 486 628 L489 631 Q490 632 494 632 Z " />
<glyph glyph-name="exclamdown" unicode="&#xa1;" horiz-adv-x="76" d="M-25 -116 Q-24 -106 -21.5 -97 Q-19 -88 -15 -80 Q-4 -54 6.5 -27.5 Q17 -1 28 25 Q54 83 79.5 140 Q105 197 131 255 L158 318 Q159 320 159 322.5 Q159 325 160 327 Q161 333 166 333 Q168 333 169.5 331 Q171 329 170 327 Q170 322 167 316 Q160 299 154 283 Q148 267 140 250 Q108 180 76.5 110.5 Q45 41 15 -30 Q8 -47 1.5 -63.5 Q-5 -80 -11 -97 Q-13 -102 -13.5 -107 Q-14 -112 -15 -117 Q-15 -119 -16 -120 Q-16 -124 -21 -124 Q-25 -124 -25 -120 L-25 -116 Z M182 365 Q177 367 176 369 Q176 374 179 375 Q182 377 184 379.5 Q186 382 188 384 Q188 385 188.5 385.5 Q189 386 189 387 Q192 390 196 388 Q200 386 198 382 Q191 372 185 367 Q182 364 182 365 Z " />
<glyph glyph-name="cent" unicode="&#xa2;" horiz-adv-x="95" d="M82 163 Q84 168 88 165.5 Q92 163 90 158 L63 95 Q60 89 57 82.5 Q54 76 51 69 Q57 66 60 60 Q62 54 60.5 48 Q59 42 57 37 Q55 32 50.5 34.5 Q46 37 48 42 Q50 46 51 52 Q52 58 47 60 Q37 37 27 14 Q17 -9 7 -32 Q19 -39 29.5 -29.5 Q40 -20 47 -12 Q50 -8 53.5 -12 Q57 -16 54 -20 Q46 -30 33.5 -39 Q21 -48 6 -43 Q5 -42 4.5 -42 Q4 -42 3 -41 Q-7 -62 -16 -83.5 Q-25 -105 -35 -126 Q-37 -131 -41 -128.5 Q-45 -126 -43 -121 L-16 -58 Q-13 -52 -10.5 -46 Q-8 -40 -5 -34 Q-16 -22 -14 -3 Q-11 25 4 44 Q10 53 19.5 60.5 Q29 68 41 70 Q51 93 61 116.5 Q71 140 82 163 Z M-1 12 Q-3 4 -4 -6 Q-5 -16 0 -24 Q9 -4 18 17 Q27 38 36 59 Q31 57 23 51 Q14 43 8 33 Q2 23 -1 12 Z " />
<glyph glyph-name="sterling" unicode="&#xa3;" horiz-adv-x="137" d="M98 74 Q104 81 108.5 89 Q113 97 117 105 Q118 109 119 112 Q120 115 120 119 Q120 127 113 122 Q106 119 101 113 Q96 107 91 102 Q86 96 82.5 89.5 Q79 83 75 76 Q70 65 65.5 54 Q61 43 56 32 L72 32 Q77 32 77 26.5 Q77 21 72 21 L52 21 Q46 7 40 -6.5 Q34 -20 26 -34 Q21 -41 17 -47.5 Q13 -54 8 -61 L7 -62 Q15 -64 21.5 -66.5 Q28 -69 36 -71 Q45 -73 54 -75 Q63 -77 72 -78 Q80 -79 88.5 -78.5 Q97 -78 103 -73 Q107 -70 111 -73.5 Q115 -77 111 -80 Q99 -90 83 -89 Q67 -88 53 -85 Q45 -83 37 -81 Q29 -79 21 -77 Q19 -76 12 -74 Q5 -72 0 -71 Q-8 -77 -12 -79 Q-19 -81 -19 -74 Q-18 -63 -5 -61 L-1 -57 Q2 -52 5 -48 Q8 -44 11 -40 Q16 -32 20.5 -23 Q25 -14 29 -6 L41 21 L24 21 Q19 21 19 26.5 Q19 32 24 32 L45 32 Q47 38 50 44 Q53 50 55 56 Q62 71 69 85.5 Q76 100 87 113 Q92 118 98 124 Q104 130 112 133 Q126 138 130 124 Q132 116 129.5 109 Q127 102 124 96 Q120 88 115 81 Q110 74 105 67 Q102 63 98.5 66.5 Q95 70 98 74 Z " />
<glyph glyph-name="currency" unicode="&#xa4;" horiz-adv-x="115" d="M78 46 Q81 43 77 39 Q74 37 71.5 35.5 Q69 34 67 32 Q67 29 66 28 Q66 25 64 23 Q66 20 67.5 17 Q69 14 71 11 Q74 6 69.5 3.5 Q65 1 63 6 Q60 9 56 17 Q51 14 45 16 L35 6 Q31 3 27.5 6.5 Q24 10 28 13 Q31 15 33.5 18 Q36 21 39 24 Q39 25 38.5 25.5 Q38 26 38 27 Q38 32 41 37 L35 43 Q32 46 35.5 49.5 Q39 53 42 50 Q46 46 48 43 Q57 47 63 41 Q66 44 72 48 Q75 51 78 46 Z " />
<glyph glyph-name="yen" unicode="&#xa5;" horiz-adv-x="117" d="M126 129 Q129 132 132.5 128.5 Q136 125 133 122 Q118 105 106 86 Q94 67 74 56 Q72 55 70.5 54.5 Q69 54 67 53 Q65 48 62 42 Q59 36 57 31 L67 31 Q72 31 72 26 Q72 21 67 21 L53 21 Q51 16 47 8 L63 8 Q68 8 68 3 Q68 -2 63 -2 L43 -2 Q32 -25 22 -48 Q12 -71 2 -94 Q0 -98 -4.5 -95.5 Q-9 -93 -7 -89 L32 -2 L24 -2 Q19 -2 19 3 Q19 8 24 8 L36 8 Q40 16 42 21 L32 21 Q27 21 27 26 Q27 31 32 31 L46 31 Q49 37 51.5 43 Q54 49 57 55 Q57 56 56 56 Q50 63 50 74 Q48 85 50.5 96.5 Q53 108 51 119 Q50 124 55 124 Q60 124 61 119 Q62 109 60.5 100 Q59 91 59 81 Q59 75 60 72 Q61 70 61.5 67.5 Q62 65 64 63 Q66 61 71 65 Q76 69 78 71 Q93 83 103 99 Q113 115 126 129 Z " />
<glyph glyph-name="brokenbar" unicode="&#xa6;" horiz-adv-x="85" d="M109 207 Q111 212 115.5 209.5 Q120 207 118 202 Q98 157 78 112 Q58 67 38 22 Q36 17 32 19.5 Q28 22 30 27 Q50 72 69.5 117 Q89 162 109 207 Z M22 9 Q24 14 28.5 11 Q33 8 31 3 Q11 -42 -9 -86.5 Q-29 -131 -49 -176 Q-51 -181 -55 -178.5 Q-59 -176 -57 -171 Q-37 -126 -17.5 -81 Q2 -36 22 9 Z " />
<glyph glyph-name="section" unicode="&#xa7;" horiz-adv-x="103" d="M83 99 Q92 96 89.5 85 Q87 74 82 68 Q79 64 75 66.5 Q71 69 74 73 Q75 74 76.5 77.5 Q78 81 79 84 Q80 87 79.5 89 Q79 91 76 89 Q71 85 69.5 78 Q68 71 68 66 Q70 56 74.5 47 Q79 38 77 27 Q75 18 68.5 10.5 Q62 3 54 -2 Q53 -3 52.5 -3 Q52 -3 51 -4 L50 -4 Q50 -4 48 -5 Q41 -6 38 -5 L34 -3 L36 -10 L39 -22 Q41 -33 40.5 -43.5 Q40 -54 31 -62 Q23 -68 13.5 -67.5 Q4 -67 -2 -58 Q-8 -48 -3.5 -39 Q1 -30 9 -23 Q12 -20 15.5 -23.5 Q19 -27 16 -30 Q11 -34 7.5 -39.5 Q4 -45 6 -51 Q8 -57 14 -57.5 Q20 -58 24 -55 Q35 -47 31.5 -33.5 Q28 -20 26 -10 Q23 1 20.5 12.5 Q18 24 24 35 Q29 42 39 47.5 Q49 53 58 48 Q62 45 62.5 40 Q63 35 60.5 29.5 Q58 24 55 19 Q52 14 49 11 Q46 7 42.5 10.5 Q39 14 42 18 Q48 26 50 30 Q50 32 52 36 Q52 40 49 40 Q44 40 38.5 36 Q33 32 31 27 Q30 23 30 15 Q30 12 33 8 Q35 6 38 4.5 Q41 3 47 5 Q48 5 48 6 Q53 8 57 11.5 Q61 15 64 19 Q70 27 66 38 Q64 48 60.5 57 Q57 66 59 77 Q61 85 67.5 93.5 Q74 102 83 99 Z " />
<glyph glyph-name="copyright" unicode="&#xa9;" horiz-adv-x="158" d="M78 65 Q89 63 89 52 Q89 41 86 33 Q84 28 79 29.5 Q74 31 76 36 Q78 39 79.5 44.5 Q81 50 79 53 Q77 58 72 55.5 Q67 53 65 51 Q58 45 53.5 37.5 Q49 30 46 22 Q44 17 43.5 12.5 Q43 8 42 3 Q42 -2 42 -7 Q42 -12 44 -15 Q46 -18 49.5 -15.5 Q53 -13 57 -8.5 Q61 -4 64.5 1 Q68 6 69 8 Q71 13 75 10 Q79 7 77 3 Q71 -9 63 -17 Q59 -21 54.5 -24.5 Q50 -28 45 -27 Q34 -25 32.5 -13 Q31 -1 32 7 Q34 18 38 28 Q42 38 47 46 Q52 53 60 60 Q68 67 78 65 Z M99 91 Q116 81 122.5 62.5 Q129 44 126 26 Q128 24 126 22 Q116 -2 103 -27 Q90 -52 63 -61 Q40 -69 19.5 -57.5 Q-1 -46 -7 -23 Q-13 0 -5 24 Q3 48 17 65 Q31 82 54 92.5 Q77 103 99 91 Z M72 -46 Q87 -36 96 -20 Q105 -4 112 13 L112 16 Q117 26 117 37.5 Q117 49 112.5 59.5 Q108 70 100 77.5 Q92 85 80 86 Q60 88 43 75 Q26 62 16 46 Q6 29 1.5 8 Q-3 -13 7 -31 Q12 -39 20 -45 Q28 -51 37 -53 Q46 -55 55 -53 Q64 -51 72 -46 Z " />
<glyph glyph-name="ordfeminine" unicode="&#xaa;" horiz-adv-x="77" d="M191 298 Q193 302 197.5 299.5 Q202 297 199 293 Q191 281 183.5 269 Q176 257 168 245 Q164 240 160.5 234.5 Q157 229 152 224 Q149 221 144.5 220 Q140 219 136 223 Q132 226 131.5 230.5 Q131 235 131 240 Q132 253 137 267 Q137 268 139 272 Q136 269 133.5 265.5 Q131 262 129 259 Q127 257 121 249 Q115 241 109 236 Q104 232 101.5 233.5 Q99 235 97 237 Q94 242 96 249 Q97 253 98 256 Q100 261 104 270 Q108 279 117 294 Q122 302 127 309 Q132 315 137.5 320 Q143 325 148 327 L153 327 Q157 325 160 323 Q162 321 162 319 Q168 319 165 312 Q165 309 163 307 Q163 305 161 301 Q161 300 159 298 Q156 291 153 284.5 Q150 278 148 270 Q146 265 145 259.5 Q144 254 143 249 Q141 241 141 237 Q141 236 140.5 234.5 Q140 233 142 231 Q143 228 146 233 Q149 236 153 242 Q156 247 159.5 251 Q163 255 166 260 Q172 270 178 279 Q184 288 191 298 Z M127 273 Q134 283 140.5 292.5 Q147 302 154 313 Q154 314 152 316 Q150 318 145 313 Q141 308 137.5 303 Q134 298 130 293 Q126 288 123 282.5 Q120 277 117 272 L117 271 Q110 259 109 250 Q109 251 109.5 251 Q110 251 110 252 Q115 257 118.5 262.5 Q122 268 127 273 Z " />
<glyph glyph-name="guillemotleft" unicode="&#xab;" horiz-adv-x="153" d="M94 69 Q98 72 101.5 68.5 Q105 65 101 62 Q72 37 40 20 Q36 17 32 14.5 Q28 12 24 10 L23 10 Q23 9 23.5 9 Q24 9 24 8 Q24 7 25 7 L32 -1 Q38 -8 44.5 -15 Q51 -22 59 -29 Q62 -33 58.5 -36.5 Q55 -40 52 -36 Q44 -28 36.5 -20 Q29 -12 21 -4 Q19 -1 15 3 Q11 7 12 12 Q13 16 17 18 Q21 20 24 22 Q43 33 60 44 Q77 55 94 69 Z M138 69 Q142 72 145.5 68.5 Q149 65 145 62 Q116 37 84 20 Q80 17 76 14.5 Q72 12 68 10 L67 10 Q67 9 67.5 9 Q68 9 68 8 Q68 7 69 7 L76 -1 Q82 -8 88.5 -15 Q95 -22 103 -29 Q106 -33 102.5 -36.5 Q99 -40 96 -36 Q88 -28 80.5 -20 Q73 -12 65 -4 Q63 -1 59 3 Q55 7 56 12 Q57 16 61 18 Q65 20 68 22 Q87 33 104 44 Q121 55 138 69 Z " />
<glyph glyph-name="logicalnot" unicode="&#xac;" horiz-adv-x="173" d="M133 20 Q135 18 134 15 Q133 11 132 7.5 Q131 4 130 0 Q129 -5 124 -3.5 Q119 -2 121 3 Q121 7 123 11 L28 11 Q23 11 23 16 Q23 21 28 21 L130 21 Q133 21 133 20 Z " />
<glyph glyph-name="minus" unicode="&#x2212;" horiz-adv-x="120" d="M80 19 Q85 19 85 14 Q85 9 80 9 L28 9 Q23 9 23 14 Q23 19 28 19 L80 19 L80 19 Z " />
<glyph glyph-name="registered" unicode="&#xae;" horiz-adv-x="156" d="M99 91 Q116 81 122.5 62.5 Q129 44 126 26 Q128 24 126 22 Q117 -2 103.5 -27 Q90 -52 63 -61 Q40 -69 20 -57.5 Q0 -46 -7 -23 Q-13 0 -5 24 Q3 48 17 65 Q31 82 54 92.5 Q77 103 99 91 Z M112 15 Q117 25 117 37 Q117 49 113 59.5 Q109 70 100.5 77.5 Q92 85 80 87 Q60 89 43 75.5 Q26 62 16 46 Q6 29 1.5 8 Q-3 -13 7 -31 Q18 -48 37 -53 Q55 -56 72 -46 Q87 -36 96 -20 Q105 -4 112 13 L112 15 Z M81 62 Q91 59 91 50 Q91 41 86 34 Q80 26 71.5 24 Q63 22 55 22 Q66 -1 82 -27 Q84 -32 79.5 -34 Q75 -36 73 -32 Q65 -19 58 -6.5 Q51 6 44 20 Q41 12 38 5 Q35 -2 31 -10 Q29 -15 24.5 -13 Q20 -11 22 -7 Q26 2 29 11 Q32 20 37 29 Q41 37 44.5 46 Q48 55 52 64 Q54 69 58.5 66.5 Q63 64 61 59 Q60 58 60 56 Q69 63 81 62 Z M77 40 Q81 44 81 49 Q80 52 76.5 52 Q73 52 71 51 Q64 49 59 43.5 Q54 38 50 32 Q58 31 65 32.5 Q72 34 77 40 Z " />
<glyph glyph-name="degree" unicode="&#xb0;" horiz-adv-x="58" d="M50 87 Q50 74 42 67 Q38 63 32.5 62.5 Q27 62 23 67 Q20 73 22 78.5 Q24 84 27 89 Q28 92 33 92 Q33 93 35 94 Q41 98 46 96 Q50 93 50 87 Z M36 75 Q41 80 40 86 L40 85 Q36 85 36 85 L36 84 Q32 80 32 76 Q30 69 36 75 Z " />
<glyph glyph-name="plusminus" unicode="&#xb1;" horiz-adv-x="147" d="M117 22 Q122 22 122 17 Q122 12 117 12 L72 12 L53 -35 Q51 -40 46 -39 Q41 -38 43 -33 Q48 -22 52.5 -10.5 Q57 1 62 12 L20 12 Q15 12 15 17 Q15 22 20 22 L66 22 L83 64 Q85 69 90 68 Q95 67 93 62 L76 22 L117 22 Z M92 -51 Q97 -51 97 -56 Q97 -61 92 -61 L-4 -61 Q-9 -61 -9 -56 Q-9 -51 -4 -51 L92 -51 Z " />
<glyph glyph-name="twosuperior" unicode="&#xb2;" horiz-adv-x="96" d="M124 231 Q119 225 112.5 218.5 Q106 212 100 206 Q108 208 115.5 208.5 Q123 209 131 210 Q136 210 136 205 Q136 200 131 200 Q119 199 107 197.5 Q95 196 84 193 Q80 192 78 195.5 Q76 199 79 202 Q95 215 109 229 Q123 243 135 260 Q137 263 139.5 266.5 Q142 270 144 274 Q146 276 147.5 280 Q149 284 148 287 Q147 290 143 290 Q139 290 136 289 Q127 287 124 279 Q122 274 117 275.5 Q112 277 114 282 Q118 292 127.5 296.5 Q137 301 147 299 Q158 297 157.5 287 Q157 277 153 269 Q148 258 140 249 Q132 240 124 231 Z " />
<glyph glyph-name="threesuperior" unicode="&#xb3;" horiz-adv-x="96" d="M132 267 Q137 266 142 261 Q147 254 145.5 246 Q144 238 142 231 Q135 213 123 203 Q116 198 107.5 194.5 Q99 191 91 193 Q82 196 80.5 205 Q79 214 79 222 Q79 227 84 227 Q89 227 89 222 Q89 217 89 213 Q89 209 91 205 Q93 202 96.5 202 Q100 202 104 203 Q121 210 129 225 Q132 230 134.5 237.5 Q137 245 135 252 Q133 259 124.5 258 Q116 257 111 255 Q106 253 104.5 258 Q103 263 108 265 Q120 270 128 277 Q131 279 135 283 Q136 284 138 286 Q140 288 140 289 Q139 291 129.5 289.5 Q120 288 119 285 Q118 280 113 281.5 Q108 283 109 288 Q111 294 116.5 296 Q122 298 127 299 Q132 300 138 299.5 Q144 299 148 295 Q153 289 148.5 283.5 Q144 278 140 274 Q138 272 136 270.5 Q134 269 132 267 Z " />
<glyph glyph-name="acute" unicode="&#xb4;" horiz-adv-x="119" d="M244 490 Q249 492 252 488 Q255 484 250 482 Q240 476 230 470 Q220 464 209 458 Q204 456 202.5 460.5 Q201 465 205 468 Q224 477 244 490 Z " />
<glyph glyph-name="mu" unicode="&#xb5;" horiz-adv-x="96" d="M75 74 Q77 78 81.5 75.5 Q86 73 84 69 L33 -45 Q31 -50 27 -47.5 Q23 -45 25 -40 Q27 -35 28.5 -31.5 Q30 -28 32 -23 Q27 -29 21.5 -34.5 Q16 -40 8 -43 Q-3 -49 -12 -43 Q-17 -38 -19 -29 Q-24 -40 -27.5 -49.5 Q-31 -59 -36 -69 Q-38 -74 -42.5 -71.5 Q-47 -69 -45 -64 Q-30 -29 -14.5 5 Q1 39 16 74 Q18 78 22.5 75.5 Q27 73 25 69 Q18 52 11 36.5 Q4 21 -3 5 L-4 4 Q-6 -3 -7.5 -9.5 Q-9 -16 -9 -24 Q-9 -27 -8.5 -30 Q-8 -33 -5 -35 Q-1 -37 4 -34.5 Q9 -32 12 -30 Q20 -23 26 -14.5 Q32 -6 37 2 Q43 11 48.5 20 Q54 29 60 39 Q64 48 67.5 56.5 Q71 65 75 74 Z " />
<glyph glyph-name="paragraph" unicode="&#xb6;" horiz-adv-x="126" d="M122 77 Q127 75 124.5 70.5 Q122 66 117 68 Q113 71 103 73 Q96 58 89.5 42.5 Q83 27 76 11 Q52 -45 27.5 -100 Q3 -155 -21 -211 Q-23 -216 -27.5 -213.5 Q-32 -211 -30 -206 L-3 -143 Q21 -88 45 -34 Q69 20 93 75 L74 75 L74 74 Q67 58 60 42.5 Q53 27 46 11 Q46 10 45.5 9.5 Q45 9 45 8 L44 7 Q21 -48 -3 -102 Q-27 -156 -51 -211 Q-53 -216 -57.5 -213.5 Q-62 -211 -60 -206 Q-53 -190 -46.5 -174.5 Q-40 -159 -32 -143 L28 -5 Q14 -8 5 1 Q-3 9 -3 20.5 Q-3 32 1 42 Q8 61 29 74 Q40 80 51.5 82 Q63 84 75 85 Q87 85 99 83.5 Q111 82 122 77 Z " />
<glyph glyph-name="periodcentered" unicode="&#xb7;" horiz-adv-x="833" d="" />
<glyph glyph-name="cedilla" unicode="&#xb8;" horiz-adv-x="84" d="M20 -44 Q25 -46 25.5 -50.5 Q26 -55 24 -60 Q21 -69 9 -71 Q4 -71 0 -69.5 Q-4 -68 -3 -62 Q-3 -59 0 -59 L1 -59 Q4 -57 6 -61 L7 -61 Q9 -61 10 -60 Q14 -59 15 -55 Q16 -51 11 -53 Q6 -53 3 -56 Q-1 -58 -4 -55 Q-7 -52 -5 -49 Q1 -42 6 -28 Q8 -23 12.5 -24.5 Q17 -26 16 -31 Q14 -34 13.5 -37 Q13 -40 11 -42 Q17 -42 20 -44 Z " />
<glyph glyph-name="onesuperior" unicode="&#xb9;" horiz-adv-x="66" d="M124 299 Q126 300 128.5 297.5 Q131 295 130 293 Q119 268 108 243.5 Q97 219 86 194 Q84 190 79.5 192.5 Q75 195 77 199 Q96 239 113 280 Q113 279 111 277 Q109 272 104.5 274.5 Q100 277 103 282 Q111 295 124 299 Z " />
<glyph glyph-name="ordmasculine" unicode="&#xba;" horiz-adv-x="90" d="M171 264 Q175 267 178 263.5 Q181 260 178 256 Q172 250 164.5 243.5 Q157 237 149 235 L148 235 L144 235 Q138 223 129.5 212.5 Q121 202 110 195 Q103 191 96.5 191.5 Q90 192 86 200 Q83 208 84.5 216.5 Q86 225 88 232 Q93 250 101.5 266 Q110 282 121 296 Q123 301 127.5 298.5 Q132 296 129 291 Q121 280 113.5 267.5 Q106 255 101 241 Q97 229 95 216 Q93 210 95 205 Q96 200 103 202 Q114 208 121 217.5 Q128 227 133 237 Q134 238 134 239 L133 240 Q127 247 129 257 Q130 263 134 272 Q138 281 146 279 Q154 276 152.5 265 Q151 254 149 248 Q149 246 148 246 Q150 246 152 247 Q156 249 161 254 Q167 258 171 264 Z M142 266 L141 265 Q137 258 139 252 L139 250 Q142 256 142 262 L142 266 Z " />
<glyph glyph-name="guillemotright" unicode="&#xbb;" horiz-adv-x="183" d="M86 18 Q88 15 88 11 Q88 9 87 9 L-4 -38 Q-9 -40 -11.5 -35.5 Q-14 -31 -9 -29 L75 14 L53 38 L44 49 L43 49 Q41 53 38 56.5 Q35 60 32 64 Q30 68 34 70.5 Q38 73 41 69 Q49 57 61 45 L61 44 L62 44 L61 45 L85 18 L86 18 Z M149 18 Q151 15 151 11 Q151 9 150 9 L59 -38 Q54 -40 51.5 -35.5 Q49 -31 54 -29 L138 14 L116 38 L107 49 L106 49 Q104 53 101 56.5 Q98 60 95 64 Q93 68 97 70.5 Q101 73 104 69 Q112 57 124 45 L124 44 L125 44 L124 45 L148 18 L149 18 Z " />
<glyph glyph-name="onequarter" unicode="&#xbc;" horiz-adv-x="218" d="M189 299 Q191 300 193.5 297.5 Q196 295 195 293 Q184 268 173 243.5 Q162 219 151 194 Q149 190 144.5 192.5 Q140 195 142 199 Q161 239 178 280 Q178 279 176 277 Q174 272 169.5 274.5 Q165 277 168 282 Q176 295 189 299 Z M343 399 Q346 403 350.5 400.5 Q355 398 352 394 Q327 359 302 325.5 Q277 292 252 257 Q207 196 163 135.5 Q119 75 74 14 Q29 -47 -15.5 -107.5 Q-60 -168 -105 -229 Q-107 -233 -111.5 -230.5 Q-116 -228 -113 -224 Q-88 -189 -63 -155.5 Q-38 -122 -13 -87 Q32 -26 76 34.5 Q120 95 165 156 Q210 217 254 277.5 Q298 338 343 399 Z M84 -61 Q86 -56 90 -58.5 Q94 -61 92 -66 Q90 -71 88 -75 Q86 -79 84 -84 Q86 -87 83 -90 L80 -93 L47 -165 Q45 -170 40.5 -167.5 Q36 -165 38 -160 Q44 -146 50.5 -133 Q57 -120 63 -106 Q61 -107 60.5 -107.5 Q60 -108 58 -109 Q54 -112 47.5 -115 Q41 -118 38 -111 Q35 -105 40 -98 Q45 -91 48 -86 Q57 -72 67 -61 Q70 -57 73.5 -60.5 Q77 -64 74 -68 L59 -86 Q57 -91 54 -94.5 Q51 -98 49 -103 L50 -103 L59 -97 Q62 -95 65.5 -92 Q69 -89 72 -87 Q75 -80 78 -74 Q81 -68 84 -61 Z " />
<glyph glyph-name="onehalf" unicode="&#xbd;" horiz-adv-x="210" d="M193 300 Q195 301 197.5 298.5 Q200 296 199 294 Q188 269 177 244.5 Q166 220 155 195 Q153 191 148.5 193.5 Q144 196 146 200 Q165 240 182 281 Q182 280 180 278 Q178 273 173.5 275.5 Q169 278 172 283 Q180 296 193 300 Z M329 399 Q332 403 336.5 400.5 Q341 398 338 394 Q313 359 288 325.5 Q263 292 238 257 Q193 196 149 135.5 Q105 75 60 14 Q15 -47 -29.5 -107.5 Q-74 -168 -119 -229 Q-121 -233 -125.5 -230.5 Q-130 -228 -127 -224 Q-102 -189 -77 -155.5 Q-52 -122 -27 -87 Q18 -26 62 34.5 Q106 95 151 156 Q196 217 240 277.5 Q284 338 329 399 Z M26 -127 Q21 -133 14.5 -139.5 Q8 -146 2 -152 Q10 -150 17.5 -149.5 Q25 -149 33 -148 Q38 -148 38 -153 Q38 -158 33 -158 Q21 -159 9 -160.5 Q-3 -162 -14 -165 Q-18 -166 -20 -162.5 Q-22 -159 -19 -156 Q-3 -143 11 -129 Q25 -115 37 -98 Q39 -95 41.5 -91.5 Q44 -88 46 -84 Q48 -82 49.5 -78 Q51 -74 50 -71 Q49 -68 45 -68 Q41 -68 38 -69 Q29 -71 26 -79 Q24 -84 19 -82.5 Q14 -81 16 -76 Q20 -66 29.5 -61.5 Q39 -57 49 -59 Q60 -61 59.5 -71 Q59 -81 55 -89 Q50 -100 42 -109 Q34 -118 26 -127 Z " />
<glyph glyph-name="threequarters" unicode="&#xbe;" horiz-adv-x="200" d="M159 268 Q164 267 169 262 Q174 255 172.5 247 Q171 239 169 232 Q162 214 150 204 Q143 199 134.5 195.5 Q126 192 118 194 Q109 197 107.5 206 Q106 215 106 223 Q106 228 111 228 Q116 228 116 223 Q116 218 116 214 Q116 210 118 206 Q120 203 123.5 203 Q127 203 131 204 Q148 211 156 226 Q159 231 161.5 238.5 Q164 246 162 253 Q160 260 151.5 259 Q143 258 138 256 Q133 254 131.5 259 Q130 264 135 266 Q147 271 155 278 Q158 280 162 284 Q163 285 165 287 Q167 289 167 290 Q166 292 156.5 290.5 Q147 289 146 286 Q145 281 140 282.5 Q135 284 136 289 Q138 295 143.5 297 Q149 299 154 300 Q159 301 165 300.5 Q171 300 175 296 Q180 290 175.5 284.5 Q171 279 167 275 Q165 273 163 271.5 Q161 270 159 268 Z M325 399 Q328 403 332.5 400.5 Q337 398 334 394 Q309 359 284 325.5 Q259 292 234 257 Q189 196 145 135.5 Q101 75 56 14 Q11 -47 -33.5 -107.5 Q-78 -168 -123 -229 Q-125 -233 -129.5 -230.5 Q-134 -228 -131 -224 Q-106 -189 -81 -155.5 Q-56 -122 -31 -87 Q14 -26 58 34.5 Q102 95 147 156 Q192 217 236 277.5 Q280 338 325 399 Z M47 -66 Q49 -61 53 -63.5 Q57 -66 55 -71 Q53 -76 51 -80 Q49 -84 47 -89 Q49 -92 46 -95 L43 -98 L10 -170 Q8 -175 3.5 -172.5 Q-1 -170 1 -165 Q7 -151 13.5 -138 Q20 -125 26 -111 Q24 -112 23.5 -112.5 Q23 -113 21 -114 Q17 -117 10.5 -120 Q4 -123 1 -116 Q-2 -110 3 -103 Q8 -96 11 -91 Q20 -77 30 -66 Q33 -62 36.5 -65.5 Q40 -69 37 -73 L22 -91 Q20 -96 17 -99.5 Q14 -103 12 -108 L13 -108 L22 -102 Q25 -100 28.5 -97 Q32 -94 35 -92 Q38 -85 41 -79 Q44 -73 47 -66 Z " />
<glyph glyph-name="questiondown" unicode="&#xbf;" horiz-adv-x="152" d="M-48 -114 Q-42 -97 -33 -80 Q-23 -64 -14 -48.5 Q-5 -33 5 -18 Q19 5 32 28.5 Q45 52 59 76 Q73 102 88 126.5 Q103 151 117 177 Q128 198 139.5 219.5 Q151 241 162 262 Q163 264 165 270 Q167 274 170 274 Q175 274 173 268 Q173 263 172 262 Q165 250 159 238 Q153 226 146 213 Q128 181 110.5 150.5 Q93 120 76 89 Q61 63 47.5 38.5 Q34 14 19 -11 Q9 -28 -1 -44.5 Q-11 -61 -21 -78 Q-33 -95 -37 -110 Q-40 -118 -40 -124 Q-42 -134 -32 -132 Q-27 -132 -17 -128 Q-9 -123 -2 -117.5 Q5 -112 13 -107 Q30 -92 47 -75.5 Q64 -59 79 -39 Q83 -34 87.5 -27 Q92 -20 97 -13 Q99 -9 99 -5 Q98 -2 102 0 Q106 2 107 -1 Q107 -3 107.5 -4 Q108 -5 108 -7 Q106 -12 102 -20 Q96 -31 89.5 -40.5 Q83 -50 75 -58 Q39 -101 -5 -131 Q-10 -133 -14.5 -136 Q-19 -139 -24 -141 Q-26 -142 -29.5 -142 Q-33 -142 -36 -142 Q-50 -140 -48 -126 Q-49 -123 -48.5 -120 Q-48 -117 -48 -114 Z M188 330 Q189 334 195 334 Q199 332 198 328 Q198 323 192 323 Q188 324 188 330 Z " />
<glyph glyph-name="Acircumflex" unicode="&#xc2;" horiz-adv-x="414" d="M464 241 L475 241 Q479 240 482 239.5 Q485 239 489 238 Q500 232 495 219 Q489 201 470 198 L468 198 Q464 198 464 204 Q464 207 469 209 Q480 209 485 221 Q488 226 483 228 Q475 232 465 230 Q460 230 459 229.5 Q458 229 456 224 Q413 123 372 23 Q331 -77 291 -179 L288 -185 Q285 -190 281 -191 Q277 -192 275 -189 Q275 -184 277 -182 Q279 -181 279.5 -180 Q280 -179 281 -178 Q296 -139 311.5 -100.5 Q327 -62 343 -23 Q369 38 394 98.5 Q419 159 445 221 Q447 225 448 228 L445 228 Q428 225 410 220 Q392 215 375 210 Q372 210 371 207 Q352 178 333 149.5 Q314 121 294 92 Q268 54 241.5 16.5 Q215 -21 186 -57 Q166 -81 146 -104.5 Q126 -128 103 -149 Q90 -161 76 -172 Q62 -183 46 -191 Q36 -196 26.5 -199.5 Q17 -203 6 -204 Q-30 -207 -41 -172 Q-45 -162 -45.5 -151 Q-46 -140 -44 -129 Q-41 -109 -34 -90 Q-27 -71 -17 -52 Q-1 -19 25 8 Q38 21 55 29 Q77 39 92 28 Q97 24 100 18.5 Q103 13 105 7 Q106 4 108 0 Q110 -3 107 -6 Q105 -13 102 -8 Q99 -6 97 -3 Q96 -1 94 5 L91 11 Q81 28 62 21 Q54 19 48 14.5 Q42 10 36 5 Q25 -6 15.5 -18 Q6 -30 -2 -44 Q-11 -60 -18 -76 Q-25 -92 -30 -109 Q-34 -123 -35 -136.5 Q-36 -150 -33 -163 Q-27 -187 -6 -193 Q2 -195 11 -193.5 Q20 -192 28 -189 Q54 -178 80 -157 Q100 -140 118 -121 Q136 -102 153 -82 Q182 -48 207.5 -13.5 Q233 21 258 57 Q284 94 308 130 Q332 166 357 202 Q357 203 357.5 203.5 Q358 204 358 205 L356 205 Q284 182 214 151.5 Q144 121 76 82 Q64 75 52 69 Q40 63 29 56 Q27 55 24 54.5 Q21 54 19 52 L16 52 Q11 50 11 56 Q11 62 16 62 Q22 64 27.5 67 Q33 70 39 73 Q57 83 75 93 Q93 103 111 113 Q155 136 199.5 156 Q244 176 290 192 Q309 199 327.5 205 Q346 211 365 218 Q367 219 369 221 Q430 314 487.5 406.5 Q545 499 602 593 Q622 625 640.5 658 Q659 691 679 723 L685 732 Q687 736 691 734 Q695 734 693 728 Q692 726 691.5 723 Q691 720 689 718 L644 625 Q606 548 569 471 Q532 394 497 316 Q489 298 481 280 Q473 262 465 244 Q465 243 464.5 242.5 Q464 242 464 241 Z M635 630 Q574 527 511 425.5 Q448 324 382 223 Q383 224 385 224 Q401 229 417 233 Q433 237 449 239 Q452 239 455 243 Q468 272 480.5 300.5 Q493 329 506 358 Q537 426 569 493 Q601 560 634 627 Q635 628 635 630 Z M731 805 Q732 800 731.5 795.5 Q731 791 730 786 Q730 781 725 781 Q720 781 720 786 Q720 792 721 795 L721 798 Q720 798 719 797 Q715 795 714 794 Q711 792 708.5 789 Q706 786 704 784 Q701 780 697.5 783.5 Q694 787 697 791 Q709 805 722 809 Q730 811 731 805 Z " />
<glyph glyph-name="Atilde" unicode="&#xc3;" horiz-adv-x="414" d="M464 241 L475 241 Q479 240 482 239.5 Q485 239 489 238 Q500 232 495 219 Q489 201 470 198 L468 198 Q464 198 464 204 Q464 207 469 209 Q480 209 485 221 Q488 226 483 228 Q475 232 465 230 Q460 230 459 229.5 Q458 229 456 224 Q413 123 372 23 Q331 -77 291 -179 L288 -185 Q285 -190 281 -191 Q277 -192 275 -189 Q275 -184 277 -182 Q279 -181 279.5 -180 Q280 -179 281 -178 Q296 -139 311.5 -100.5 Q327 -62 343 -23 Q369 38 394 98.5 Q419 159 445 221 Q447 225 448 228 L445 228 Q428 225 410 220 Q392 215 375 210 Q372 210 371 207 Q352 178 333 149.5 Q314 121 294 92 Q268 54 241.5 16.5 Q215 -21 186 -57 Q166 -81 146 -104.5 Q126 -128 103 -149 Q90 -161 76 -172 Q62 -183 46 -191 Q36 -196 26.5 -199.5 Q17 -203 6 -204 Q-30 -207 -41 -172 Q-45 -162 -45.5 -151 Q-46 -140 -44 -129 Q-41 -109 -34 -90 Q-27 -71 -17 -52 Q-1 -19 25 8 Q38 21 55 29 Q77 39 92 28 Q97 24 100 18.5 Q103 13 105 7 Q106 4 108 0 Q110 -3 107 -6 Q105 -13 102 -8 Q99 -6 97 -3 Q96 -1 94 5 L91 11 Q81 28 62 21 Q54 19 48 14.5 Q42 10 36 5 Q25 -6 15.5 -18 Q6 -30 -2 -44 Q-11 -60 -18 -76 Q-25 -92 -30 -109 Q-34 -123 -35 -136.5 Q-36 -150 -33 -163 Q-27 -187 -6 -193 Q2 -195 11 -193.5 Q20 -192 28 -189 Q54 -178 80 -157 Q100 -140 118 -121 Q136 -102 153 -82 Q182 -48 207.5 -13.5 Q233 21 258 57 Q284 94 308 130 Q332 166 357 202 Q357 203 357.5 203.5 Q358 204 358 205 L356 205 Q284 182 214 151.5 Q144 121 76 82 Q64 75 52 69 Q40 63 29 56 Q27 55 24 54.5 Q21 54 19 52 L16 52 Q11 50 11 56 Q11 62 16 62 Q22 64 27.5 67 Q33 70 39 73 Q57 83 75 93 Q93 103 111 113 Q155 136 199.5 156 Q244 176 290 192 Q309 199 327.5 205 Q346 211 365 218 Q367 219 369 221 Q430 314 487.5 406.5 Q545 499 602 593 Q622 625 640.5 658 Q659 691 679 723 L685 732 Q687 736 691 734 Q695 734 693 728 Q692 726 691.5 723 Q691 720 689 718 L644 625 Q606 548 569 471 Q532 394 497 316 Q489 298 481 280 Q473 262 465 244 Q465 243 464.5 242.5 Q464 242 464 241 Z M635 630 Q574 527 511 425.5 Q448 324 382 223 Q383 224 385 224 Q401 229 417 233 Q433 237 449 239 Q452 239 455 243 Q468 272 480.5 300.5 Q493 329 506 358 Q537 426 569 493 Q601 560 634 627 Q635 628 635 630 Z M711 787 L720 796 L745 828 L750 833 Q755 836 757 833 Q759 830 756 827 Q753 826 752 823 L727 792 L721 785 L716 780 Q702 771 702 785 Q702 789 704 799 Q704 804 708 814 L704 811 L685 794 Q684 793 680 791 Q678 790 676.5 791.5 Q675 793 675 795 Q676 800 682 802 L685 804 L704 821 Q706 825 709 825 Q713 828 715.5 826.5 Q718 825 717 821 Q717 816 715 808 L711 792 L711 787 Z " />
<glyph glyph-name="Adieresis" unicode="&#xc4;" horiz-adv-x="414" d="M464 241 L475 241 Q479 240 482 239.5 Q485 239 489 238 Q500 232 495 219 Q489 201 470 198 L468 198 Q464 198 464 204 Q464 207 469 209 Q480 209 485 221 Q488 226 483 228 Q475 232 465 230 Q460 230 459 229.5 Q458 229 456 224 Q413 123 372 23 Q331 -77 291 -179 L288 -185 Q285 -190 281 -191 Q277 -192 275 -189 Q275 -184 277 -182 Q279 -181 279.5 -180 Q280 -179 281 -178 Q296 -139 311.5 -100.5 Q327 -62 343 -23 Q369 38 394 98.5 Q419 159 445 221 Q447 225 448 228 L445 228 Q428 225 410 220 Q392 215 375 210 Q372 210 371 207 Q352 178 333 149.5 Q314 121 294 92 Q268 54 241.5 16.5 Q215 -21 186 -57 Q166 -81 146 -104.5 Q126 -128 103 -149 Q90 -161 76 -172 Q62 -183 46 -191 Q36 -196 26.5 -199.5 Q17 -203 6 -204 Q-30 -207 -41 -172 Q-45 -162 -45.5 -151 Q-46 -140 -44 -129 Q-41 -109 -34 -90 Q-27 -71 -17 -52 Q-1 -19 25 8 Q38 21 55 29 Q77 39 92 28 Q97 24 100 18.5 Q103 13 105 7 Q106 4 108 0 Q110 -3 107 -6 Q105 -13 102 -8 Q99 -6 97 -3 Q96 -1 94 5 L91 11 Q81 28 62 21 Q54 19 48 14.5 Q42 10 36 5 Q25 -6 15.5 -18 Q6 -30 -2 -44 Q-11 -60 -18 -76 Q-25 -92 -30 -109 Q-34 -123 -35 -136.5 Q-36 -150 -33 -163 Q-27 -187 -6 -193 Q2 -195 11 -193.5 Q20 -192 28 -189 Q54 -178 80 -157 Q100 -140 118 -121 Q136 -102 153 -82 Q182 -48 207.5 -13.5 Q233 21 258 57 Q284 94 308 130 Q332 166 357 202 Q357 203 357.5 203.5 Q358 204 358 205 L356 205 Q284 182 214 151.5 Q144 121 76 82 Q64 75 52 69 Q40 63 29 56 Q27 55 24 54.5 Q21 54 19 52 L16 52 Q11 50 11 56 Q11 62 16 62 Q22 64 27.5 67 Q33 70 39 73 Q57 83 75 93 Q93 103 111 113 Q155 136 199.5 156 Q244 176 290 192 Q309 199 327.5 205 Q346 211 365 218 Q367 219 369 221 Q430 314 487.5 406.5 Q545 499 602 593 Q622 625 640.5 658 Q659 691 679 723 L685 732 Q687 736 691 734 Q695 734 693 728 Q692 726 691.5 723 Q691 720 689 718 L644 625 Q606 548 569 471 Q532 394 497 316 Q489 298 481 280 Q473 262 465 244 Q465 243 464.5 242.5 Q464 242 464 241 Z M635 630 Q574 527 511 425.5 Q448 324 382 223 Q383 224 385 224 Q401 229 417 233 Q433 237 449 239 Q452 239 455 243 Q468 272 480.5 300.5 Q493 329 506 358 Q537 426 569 493 Q601 560 634 627 Q635 628 635 630 Z M703 787 Q706 785 706 782 Q706 779 703 776.5 Q700 774 697 774 Q694 774 693 777 Q691 781 695 783 L698 786 Q699 787 703 787 Z M724 787 Q727 785 727 782 Q727 779 724 776.5 Q721 774 718 774 Q715 774 714 777 Q712 781 716 783 L719 786 Q720 787 724 787 Z " />
<glyph glyph-name="Aring" unicode="&#xc5;" horiz-adv-x="414" d="M464 241 L475 241 Q479 240 482 239.5 Q485 239 489 238 Q500 232 495 219 Q489 201 470 198 L468 198 Q464 198 464 204 Q464 207 469 209 Q480 209 485 221 Q488 226 483 228 Q475 232 465 230 Q460 230 459 229.5 Q458 229 456 224 Q413 123 372 23 Q331 -77 291 -179 L288 -185 Q285 -190 281 -191 Q277 -192 275 -189 Q275 -184 277 -182 Q279 -181 279.5 -180 Q280 -179 281 -178 Q296 -139 311.5 -100.5 Q327 -62 343 -23 Q369 38 394 98.5 Q419 159 445 221 Q447 225 448 228 L445 228 Q428 225 410 220 Q392 215 375 210 Q372 210 371 207 Q352 178 333 149.5 Q314 121 294 92 Q268 54 241.5 16.5 Q215 -21 186 -57 Q166 -81 146 -104.5 Q126 -128 103 -149 Q90 -161 76 -172 Q62 -183 46 -191 Q36 -196 26.5 -199.5 Q17 -203 6 -204 Q-30 -207 -41 -172 Q-45 -162 -45.5 -151 Q-46 -140 -44 -129 Q-41 -109 -34 -90 Q-27 -71 -17 -52 Q-1 -19 25 8 Q38 21 55 29 Q77 39 92 28 Q97 24 100 18.5 Q103 13 105 7 Q106 4 108 0 Q110 -3 107 -6 Q105 -13 102 -8 Q99 -6 97 -3 Q96 -1 94 5 L91 11 Q81 28 62 21 Q54 19 48 14.5 Q42 10 36 5 Q25 -6 15.5 -18 Q6 -30 -2 -44 Q-11 -60 -18 -76 Q-25 -92 -30 -109 Q-34 -123 -35 -136.5 Q-36 -150 -33 -163 Q-27 -187 -6 -193 Q2 -195 11 -193.5 Q20 -192 28 -189 Q54 -178 80 -157 Q100 -140 118 -121 Q136 -102 153 -82 Q182 -48 207.5 -13.5 Q233 21 258 57 Q284 94 308 130 Q332 166 357 202 Q357 203 357.5 203.5 Q358 204 358 205 L356 205 Q284 182 214 151.5 Q144 121 76 82 Q64 75 52 69 Q40 63 29 56 Q27 55 24 54.5 Q21 54 19 52 L16 52 Q11 50 11 56 Q11 62 16 62 Q22 64 27.5 67 Q33 70 39 73 Q57 83 75 93 Q93 103 111 113 Q155 136 199.5 156 Q244 176 290 192 Q309 199 327.5 205 Q346 211 365 218 Q367 219 369 221 Q430 314 487.5 406.5 Q545 499 602 593 Q622 625 640.5 658 Q659 691 679 723 L685 732 Q687 736 691 734 Q695 734 693 728 Q692 726 691.5 723 Q691 720 689 718 L644 625 Q606 548 569 471 Q532 394 497 316 Q489 298 481 280 Q473 262 465 244 Q465 243 464.5 242.5 Q464 242 464 241 Z M635 630 Q574 527 511 425.5 Q448 324 382 223 Q383 224 385 224 Q401 229 417 233 Q433 237 449 239 Q452 239 455 243 Q468 272 480.5 300.5 Q493 329 506 358 Q537 426 569 493 Q601 560 634 627 Q635 628 635 630 Z M730 794 Q736 785 729 775 Q725 770 719 770 Q713 770 708 773 Q702 777 703 783 Q704 789 706 794 Q707 797 710 797 Q711 797 712 798 Q723 804 730 794 Z M722 782 Q724 785 722 788 Q720 791 717 789 L714 789 Q713 787 712.5 785 Q712 783 714 781 Q719 779 722 782 Z " />
<glyph glyph-name="AE" unicode="&#xc6;" horiz-adv-x="972" d="M464 241 L475 241 Q479 240 482 239.5 Q485 239 489 238 Q500 232 495 219 Q489 201 470 198 L468 198 Q464 198 464 204 Q464 207 469 209 Q480 209 485 221 Q488 226 483 228 Q475 232 465 230 Q460 230 459 229.5 Q458 229 456 224 Q413 123 372 23 Q331 -77 291 -179 L288 -185 Q285 -190 281 -191 Q277 -192 275 -189 Q275 -184 277 -182 Q279 -181 279.5 -180 Q280 -179 281 -178 Q296 -139 311.5 -100.5 Q327 -62 343 -23 Q369 38 394 98.5 Q419 159 445 221 Q447 225 448 228 L445 228 Q428 225 410 220 Q392 215 375 210 Q372 210 371 207 Q352 178 333 149.5 Q314 121 294 92 Q268 54 241.5 16.5 Q215 -21 186 -57 Q166 -81 146 -104.5 Q126 -128 103 -149 Q90 -161 76 -172 Q62 -183 46 -191 Q36 -196 26.5 -199.5 Q17 -203 6 -204 Q-30 -207 -41 -172 Q-45 -162 -45.5 -151 Q-46 -140 -44 -129 Q-41 -109 -34 -90 Q-27 -71 -17 -52 Q-1 -19 25 8 Q38 21 55 29 Q77 39 92 28 Q97 24 100 18.5 Q103 13 105 7 Q106 4 108 0 Q110 -3 107 -6 Q105 -13 102 -8 Q99 -6 97 -3 Q96 -1 94 5 L91 11 Q81 28 62 21 Q54 19 48 14.5 Q42 10 36 5 Q25 -6 15.5 -18 Q6 -30 -2 -44 Q-11 -60 -18 -76 Q-25 -92 -30 -109 Q-34 -123 -35 -136.5 Q-36 -150 -33 -163 Q-27 -187 -6 -193 Q2 -195 11 -193.5 Q20 -192 28 -189 Q54 -178 80 -157 Q100 -140 118 -121 Q136 -102 153 -82 Q182 -48 207.5 -13.5 Q233 21 258 57 Q284 94 308 130 Q332 166 357 202 Q357 203 357.5 203.5 Q358 204 358 205 L356 205 Q284 182 214 151.5 Q144 121 76 82 Q64 75 52 69 Q40 63 29 56 Q27 55 24 54.5 Q21 54 19 52 L16 52 Q11 50 11 56 Q11 62 16 62 Q22 64 27.5 67 Q33 70 39 73 Q57 83 75 93 Q93 103 111 113 Q155 136 199.5 156 Q244 176 290 192 Q309 199 327.5 205 Q346 211 365 218 Q367 219 369 221 Q430 314 487.5 406.5 Q545 499 602 593 Q622 625 640.5 658 Q659 691 679 723 L685 732 Q687 736 691 734 Q695 734 693 728 Q692 726 691.5 723 Q691 720 689 718 L644 625 Q606 548 569 471 Q532 394 497 316 Q489 298 481 280 Q473 262 465 244 Q465 243 464.5 242.5 Q464 242 464 241 Z M635 630 Q574 527 511 425.5 Q448 324 382 223 Q383 224 385 224 Q401 229 417 233 Q433 237 449 239 Q452 239 455 243 Q468 272 480.5 300.5 Q493 329 506 358 Q537 426 569 493 Q601 560 634 627 Q635 628 635 630 Z M1161 719 Q1174 712 1181.5 701 Q1189 690 1189 674 Q1189 655 1181 634 Q1174 617 1165.5 602 Q1157 587 1148 573 Q1132 548 1114.5 525.5 Q1097 503 1079 480 Q1044 438 1009 398 Q974 358 937 320 Q933 317 931 312 Q928 308 924 309 Q919 311 921 316 Q922 318 923 319.5 Q924 321 925 323 Q930 328 934 332 Q938 336 942 341 Q989 390 1032.5 441 Q1076 492 1117 546 Q1131 564 1142.5 582 Q1154 600 1164 620 Q1169 631 1172.5 641.5 Q1176 652 1178 663 Q1183 698 1153 711 Q1142 716 1130.5 718 Q1119 720 1108 720 Q1079 720 1051.5 714 Q1024 708 997 699 Q955 685 917.5 665 Q880 645 844 620 Q796 588 753 550 Q710 512 670 469 Q644 440 619 410.5 Q594 381 572 348 Q557 327 544 304.5 Q531 282 521 258 Q511 236 506 211 Q504 201 504 191.5 Q504 182 506 172 Q512 146 538 138 Q548 135 557.5 134.5 Q567 134 577 135 Q597 137 616 142 Q635 147 654 153 Q690 165 726.5 177.5 Q763 190 799 203 Q834 215 869.5 227.5 Q905 240 940 252 L949 255 Q954 257 956 252 Q958 247 952 244 Q950 242 947.5 241.5 Q945 241 943 239 Q898 214 854.5 187 Q811 160 769 130 Q718 93 672.5 52.5 Q627 12 586 -36 Q571 -54 557 -72 Q543 -90 531 -110 Q525 -121 519.5 -132.5 Q514 -144 512 -156 Q509 -167 509 -177 Q511 -203 533 -212 Q543 -216 552.5 -216.5 Q562 -217 572 -216 Q592 -214 610 -208 Q628 -202 645 -194 Q663 -185 680 -174 Q697 -163 714 -151 L825 -67 Q854 -46 881.5 -25.5 Q909 -5 938 16 Q939 16 941 17 Q943 18 945 16 Q947 12 945 10 Q944 8 943 8 Q939 5 935 2 Q931 -1 926 -4 Q880 -39 834.5 -73.5 Q789 -108 742 -143 Q722 -157 702.5 -170.5 Q683 -184 662 -196 Q646 -205 629.5 -212 Q613 -219 595 -223 Q572 -229 548 -226 Q543 -225 539 -224.5 Q535 -224 530 -222 Q496 -208 499 -170 Q502 -145 514 -121 Q522 -104 533 -88 Q544 -72 556 -56 Q591 -12 630.5 26.5 Q670 65 713 100 Q756 135 800.5 164.5 Q845 194 892 222 L898 225 L898 226 Q889 223 880 220 Q871 217 863 214 Q820 199 777.5 184 Q735 169 692 155 Q670 147 648.5 140.5 Q627 134 605 129 Q592 127 579.5 125 Q567 123 555 124 Q547 125 540 126.5 Q533 128 527 131 Q499 144 494 179 Q492 202 498 222 Q504 248 515 271.5 Q526 295 540 318 Q560 351 583 381.5 Q606 412 631 441 Q710 532 802 602 Q839 630 877.5 653.5 Q916 677 958 695 Q984 706 1011 714 Q1038 722 1067 727 Q1093 732 1120 730 Q1131 728 1141 726 Q1151 724 1161 719 Z " />
<glyph glyph-name="Ccedilla" unicode="&#xc7;" horiz-adv-x="306" d="M522 694 Q525 685 525 675.5 Q525 666 524 657 Q521 635 514 614 Q507 593 499 572 Q487 541 472.5 511.5 Q458 482 441 453 Q423 421 404 390 Q385 359 363 330 Q343 303 321.5 278 Q300 253 275 231 Q270 226 265.5 223 Q261 220 256 216 Q254 214 252 214 Q247 212 247 216 Q244 218 247 221 Q250 225 254 228 Q254 229 255 229 Q258 229 260 230.5 Q262 232 264 234 Q284 251 301.5 271 Q319 291 336 312 Q358 338 377 366.5 Q396 395 413 424 Q429 451 443 477.5 Q457 504 471 532 Q482 555 490.5 577.5 Q499 600 506 623 Q513 645 515 670 Q515 686 510 696 Q504 713 485 713 Q475 714 465.5 711.5 Q456 709 446 705 Q429 697 413 686.5 Q397 676 382 664 Q357 644 335.5 621 Q314 598 294 573 Q258 528 227.5 481 Q197 434 171 384 Q101 250 57 104 Q41 51 30 -6 Q26 -27 23.5 -48.5 Q21 -70 19 -92 Q18 -111 19 -129 Q20 -147 25 -165 Q27 -173 29.5 -180.5 Q32 -188 37 -195 Q47 -209 61 -210 Q72 -212 81 -207 Q97 -202 114 -188 Q141 -167 168 -138 Q183 -122 197.5 -106.5 Q212 -91 227 -74 Q228 -73 230 -72 Q234 -70 236 -71 Q238 -73 237 -75.5 Q236 -78 235 -80 L230 -85 Q212 -105 194 -125 Q176 -145 156 -164 Q145 -175 133.5 -185.5 Q122 -196 108 -204 Q101 -209 94 -213 Q87 -217 79 -219 Q47 -228 28 -200 Q22 -191 18.5 -181 Q15 -171 13 -160 Q7 -126 9 -88 Q10 -84 10 -76 Q12 -54 15 -32 Q18 -10 23 12 Q40 90 65.5 164 Q91 238 124 311 Q164 398 214 478 Q237 514 262 547.5 Q287 581 316 613 Q334 633 353.5 651.5 Q373 670 396 687 Q422 706 448 716 Q467 724 485 724 Q515 722 522 694 Z M69 -245 Q74 -247 74.5 -251.5 Q75 -256 73 -261 Q70 -270 58 -272 Q53 -272 49 -270.5 Q45 -269 46 -263 Q46 -260 49 -260 L50 -260 Q53 -258 55 -262 L56 -262 Q58 -262 59 -261 Q63 -260 64 -256 Q65 -252 60 -254 Q55 -254 52 -257 Q48 -259 45 -256 Q42 -253 44 -250 Q50 -243 55 -229 Q57 -224 61.5 -225.5 Q66 -227 65 -232 Q63 -235 62.5 -238 Q62 -241 60 -243 Q66 -243 69 -245 Z " />
<glyph glyph-name="Egrave" unicode="&#xc8;" horiz-adv-x="558" d="M747 719 Q760 712 767.5 701 Q775 690 775 674 Q775 655 767 634 Q760 617 751.5 602 Q743 587 734 573 Q718 548 700.5 525.5 Q683 503 665 480 Q630 438 595 398 Q560 358 523 320 Q519 317 517 312 Q514 308 510 309 Q505 311 507 316 Q508 318 509 319.5 Q510 321 511 323 Q516 328 520 332 Q524 336 528 341 Q575 390 618.5 441 Q662 492 703 546 Q717 564 728.5 582 Q740 600 750 620 Q755 631 758.5 641.5 Q762 652 764 663 Q769 698 739 711 Q728 716 716.5 718 Q705 720 694 720 Q665 720 637.5 714 Q610 708 583 699 Q541 685 503.5 665 Q466 645 430 620 Q382 588 339 550 Q296 512 256 469 Q230 440 205 410.5 Q180 381 158 348 Q143 327 130 304.5 Q117 282 107 258 Q97 236 92 211 Q90 201 90 191.5 Q90 182 92 172 Q98 146 124 138 Q134 135 143.5 134.5 Q153 134 163 135 Q183 137 202 142 Q221 147 240 153 Q276 165 312.5 177.5 Q349 190 385 203 Q420 215 455.5 227.5 Q491 240 526 252 L535 255 Q540 257 542 252 Q544 247 538 244 Q536 242 533.5 241.5 Q531 241 529 239 Q484 214 440.5 187 Q397 160 355 130 Q304 93 258.5 52.5 Q213 12 172 -36 Q157 -54 143 -72 Q129 -90 117 -110 Q111 -121 105.5 -132.5 Q100 -144 98 -156 Q95 -167 95 -177 Q97 -203 119 -212 Q129 -216 138.5 -216.5 Q148 -217 158 -216 Q178 -214 196 -208 Q214 -202 231 -194 Q249 -185 266 -174 Q283 -163 300 -151 L411 -67 Q440 -46 467.5 -25.5 Q495 -5 524 16 Q525 16 527 17 Q529 18 531 16 Q533 12 531 10 Q530 8 529 8 Q525 5 521 2 Q517 -1 512 -4 Q466 -39 420.5 -73.5 Q375 -108 328 -143 Q308 -157 288.5 -170.5 Q269 -184 248 -196 Q232 -205 215.5 -212 Q199 -219 181 -223 Q158 -229 134 -226 Q129 -225 125 -224.5 Q121 -224 116 -222 Q82 -208 85 -170 Q88 -145 100 -121 Q108 -104 119 -88 Q130 -72 142 -56 Q177 -12 216.5 26.5 Q256 65 299 100 Q342 135 386.5 164.5 Q431 194 478 222 L484 225 L484 226 Q475 223 466 220 Q457 217 449 214 Q406 199 363.5 184 Q321 169 278 155 Q256 147 234.5 140.5 Q213 134 191 129 Q178 127 165.5 125 Q153 123 141 124 Q133 125 126 126.5 Q119 128 113 131 Q85 144 80 179 Q78 202 84 222 Q90 248 101 271.5 Q112 295 126 318 Q146 351 169 381.5 Q192 412 217 441 Q296 532 388 602 Q425 630 463.5 653.5 Q502 677 544 695 Q570 706 597 714 Q624 722 653 727 Q679 732 706 730 Q717 728 727 726 Q737 724 747 719 Z M738 794 Q742 790 738.5 786.5 Q735 783 731 787 L713 805 Q709 809 712.5 812 Q716 815 720 812 L738 794 L738 794 Z " />
<glyph glyph-name="Agrave" unicode="&#xc0;" horiz-adv-x="414" d="M464 241 L475 241 Q479 240 482 239.5 Q485 239 489 238 Q500 232 495 219 Q489 201 470 198 L468 198 Q464 198 464 204 Q464 207 469 209 Q480 209 485 221 Q488 226 483 228 Q475 232 465 230 Q460 230 459 229.5 Q458 229 456 224 Q413 123 372 23 Q331 -77 291 -179 L288 -185 Q285 -190 281 -191 Q277 -192 275 -189 Q275 -184 277 -182 Q279 -181 279.5 -180 Q280 -179 281 -178 Q296 -139 311.5 -100.5 Q327 -62 343 -23 Q369 38 394 98.5 Q419 159 445 221 Q447 225 448 228 L445 228 Q428 225 410 220 Q392 215 375 210 Q372 210 371 207 Q352 178 333 149.5 Q314 121 294 92 Q268 54 241.5 16.5 Q215 -21 186 -57 Q166 -81 146 -104.5 Q126 -128 103 -149 Q90 -161 76 -172 Q62 -183 46 -191 Q36 -196 26.5 -199.5 Q17 -203 6 -204 Q-30 -207 -41 -172 Q-45 -162 -45.5 -151 Q-46 -140 -44 -129 Q-41 -109 -34 -90 Q-27 -71 -17 -52 Q-1 -19 25 8 Q38 21 55 29 Q77 39 92 28 Q97 24 100 18.5 Q103 13 105 7 Q106 4 108 0 Q110 -3 107 -6 Q105 -13 102 -8 Q99 -6 97 -3 Q96 -1 94 5 L91 11 Q81 28 62 21 Q54 19 48 14.5 Q42 10 36 5 Q25 -6 15.5 -18 Q6 -30 -2 -44 Q-11 -60 -18 -76 Q-25 -92 -30 -109 Q-34 -123 -35 -136.5 Q-36 -150 -33 -163 Q-27 -187 -6 -193 Q2 -195 11 -193.5 Q20 -192 28 -189 Q54 -178 80 -157 Q100 -140 118 -121 Q136 -102 153 -82 Q182 -48 207.5 -13.5 Q233 21 258 57 Q284 94 308 130 Q332 166 357 202 Q357 203 357.5 203.5 Q358 204 358 205 L356 205 Q284 182 214 151.5 Q144 121 76 82 Q64 75 52 69 Q40 63 29 56 Q27 55 24 54.5 Q21 54 19 52 L16 52 Q11 50 11 56 Q11 62 16 62 Q22 64 27.5 67 Q33 70 39 73 Q57 83 75 93 Q93 103 111 113 Q155 136 199.5 156 Q244 176 290 192 Q309 199 327.5 205 Q346 211 365 218 Q367 219 369 221 Q430 314 487.5 406.5 Q545 499 602 593 Q622 625 640.5 658 Q659 691 679 723 L685 732 Q687 736 691 734 Q695 734 693 728 Q692 726 691.5 723 Q691 720 689 718 L644 625 Q606 548 569 471 Q532 394 497 316 Q489 298 481 280 Q473 262 465 244 Q465 243 464.5 242.5 Q464 242 464 241 Z M635 630 Q574 527 511 425.5 Q448 324 382 223 Q383 224 385 224 Q401 229 417 233 Q433 237 449 239 Q452 239 455 243 Q468 272 480.5 300.5 Q493 329 506 358 Q537 426 569 493 Q601 560 634 627 Q635 628 635 630 Z M726 783 Q730 779 726.5 775.5 Q723 772 719 776 L701 794 Q697 798 700.5 801 Q704 804 708 801 L726 783 L726 783 Z " />
<glyph glyph-name="Aacute" unicode="&#xc1;" horiz-adv-x="414" d="M464 241 L475 241 Q479 240 482 239.5 Q485 239 489 238 Q500 232 495 219 Q489 201 470 198 L468 198 Q464 198 464 204 Q464 207 469 209 Q480 209 485 221 Q488 226 483 228 Q475 232 465 230 Q460 230 459 229.5 Q458 229 456 224 Q413 123 372 23 Q331 -77 291 -179 L288 -185 Q285 -190 281 -191 Q277 -192 275 -189 Q275 -184 277 -182 Q279 -181 279.5 -180 Q280 -179 281 -178 Q296 -139 311.5 -100.5 Q327 -62 343 -23 Q369 38 394 98.5 Q419 159 445 221 Q447 225 448 228 L445 228 Q428 225 410 220 Q392 215 375 210 Q372 210 371 207 Q352 178 333 149.5 Q314 121 294 92 Q268 54 241.5 16.5 Q215 -21 186 -57 Q166 -81 146 -104.5 Q126 -128 103 -149 Q90 -161 76 -172 Q62 -183 46 -191 Q36 -196 26.5 -199.5 Q17 -203 6 -204 Q-30 -207 -41 -172 Q-45 -162 -45.5 -151 Q-46 -140 -44 -129 Q-41 -109 -34 -90 Q-27 -71 -17 -52 Q-1 -19 25 8 Q38 21 55 29 Q77 39 92 28 Q97 24 100 18.5 Q103 13 105 7 Q106 4 108 0 Q110 -3 107 -6 Q105 -13 102 -8 Q99 -6 97 -3 Q96 -1 94 5 L91 11 Q81 28 62 21 Q54 19 48 14.5 Q42 10 36 5 Q25 -6 15.5 -18 Q6 -30 -2 -44 Q-11 -60 -18 -76 Q-25 -92 -30 -109 Q-34 -123 -35 -136.5 Q-36 -150 -33 -163 Q-27 -187 -6 -193 Q2 -195 11 -193.5 Q20 -192 28 -189 Q54 -178 80 -157 Q100 -140 118 -121 Q136 -102 153 -82 Q182 -48 207.5 -13.5 Q233 21 258 57 Q284 94 308 130 Q332 166 357 202 Q357 203 357.5 203.5 Q358 204 358 205 L356 205 Q284 182 214 151.5 Q144 121 76 82 Q64 75 52 69 Q40 63 29 56 Q27 55 24 54.5 Q21 54 19 52 L16 52 Q11 50 11 56 Q11 62 16 62 Q22 64 27.5 67 Q33 70 39 73 Q57 83 75 93 Q93 103 111 113 Q155 136 199.5 156 Q244 176 290 192 Q309 199 327.5 205 Q346 211 365 218 Q367 219 369 221 Q430 314 487.5 406.5 Q545 499 602 593 Q622 625 640.5 658 Q659 691 679 723 L685 732 Q687 736 691 734 Q695 734 693 728 Q692 726 691.5 723 Q691 720 689 718 L644 625 Q606 548 569 471 Q532 394 497 316 Q489 298 481 280 Q473 262 465 244 Q465 243 464.5 242.5 Q464 242 464 241 Z M635 630 Q574 527 511 425.5 Q448 324 382 223 Q383 224 385 224 Q401 229 417 233 Q433 237 449 239 Q452 239 455 243 Q468 272 480.5 300.5 Q493 329 506 358 Q537 426 569 493 Q601 560 634 627 Q635 628 635 630 Z M723 806 Q728 808 731 804 Q734 800 729 798 Q719 792 709 786 Q699 780 688 774 Q683 772 681.5 776.5 Q680 781 684 784 Q703 793 723 806 Z " />
<glyph glyph-name="Eacute" unicode="&#xc9;" horiz-adv-x="558" d="M747 719 Q760 712 767.5 701 Q775 690 775 674 Q775 655 767 634 Q760 617 751.5 602 Q743 587 734 573 Q718 548 700.5 525.5 Q683 503 665 480 Q630 438 595 398 Q560 358 523 320 Q519 317 517 312 Q514 308 510 309 Q505 311 507 316 Q508 318 509 319.5 Q510 321 511 323 Q516 328 520 332 Q524 336 528 341 Q575 390 618.5 441 Q662 492 703 546 Q717 564 728.5 582 Q740 600 750 620 Q755 631 758.5 641.5 Q762 652 764 663 Q769 698 739 711 Q728 716 716.5 718 Q705 720 694 720 Q665 720 637.5 714 Q610 708 583 699 Q541 685 503.5 665 Q466 645 430 620 Q382 588 339 550 Q296 512 256 469 Q230 440 205 410.5 Q180 381 158 348 Q143 327 130 304.5 Q117 282 107 258 Q97 236 92 211 Q90 201 90 191.5 Q90 182 92 172 Q98 146 124 138 Q134 135 143.5 134.5 Q153 134 163 135 Q183 137 202 142 Q221 147 240 153 Q276 165 312.5 177.5 Q349 190 385 203 Q420 215 455.5 227.5 Q491 240 526 252 L535 255 Q540 257 542 252 Q544 247 538 244 Q536 242 533.5 241.5 Q531 241 529 239 Q484 214 440.5 187 Q397 160 355 130 Q304 93 258.5 52.5 Q213 12 172 -36 Q157 -54 143 -72 Q129 -90 117 -110 Q111 -121 105.5 -132.5 Q100 -144 98 -156 Q95 -167 95 -177 Q97 -203 119 -212 Q129 -216 138.5 -216.5 Q148 -217 158 -216 Q178 -214 196 -208 Q214 -202 231 -194 Q249 -185 266 -174 Q283 -163 300 -151 L411 -67 Q440 -46 467.5 -25.5 Q495 -5 524 16 Q525 16 527 17 Q529 18 531 16 Q533 12 531 10 Q530 8 529 8 Q525 5 521 2 Q517 -1 512 -4 Q466 -39 420.5 -73.5 Q375 -108 328 -143 Q308 -157 288.5 -170.5 Q269 -184 248 -196 Q232 -205 215.5 -212 Q199 -219 181 -223 Q158 -229 134 -226 Q129 -225 125 -224.5 Q121 -224 116 -222 Q82 -208 85 -170 Q88 -145 100 -121 Q108 -104 119 -88 Q130 -72 142 -56 Q177 -12 216.5 26.5 Q256 65 299 100 Q342 135 386.5 164.5 Q431 194 478 222 L484 225 L484 226 Q475 223 466 220 Q457 217 449 214 Q406 199 363.5 184 Q321 169 278 155 Q256 147 234.5 140.5 Q213 134 191 129 Q178 127 165.5 125 Q153 123 141 124 Q133 125 126 126.5 Q119 128 113 131 Q85 144 80 179 Q78 202 84 222 Q90 248 101 271.5 Q112 295 126 318 Q146 351 169 381.5 Q192 412 217 441 Q296 532 388 602 Q425 630 463.5 653.5 Q502 677 544 695 Q570 706 597 714 Q624 722 653 727 Q679 732 706 730 Q717 728 727 726 Q737 724 747 719 Z M748 826 Q753 828 756 824 Q759 820 754 818 Q744 812 734 806 Q724 800 713 794 Q708 792 706.5 796.5 Q705 801 709 804 Q728 813 748 826 Z " />
<glyph glyph-name="Ecircumflex" unicode="&#xca;" horiz-adv-x="558" d="M747 719 Q760 712 767.5 701 Q775 690 775 674 Q775 655 767 634 Q760 617 751.5 602 Q743 587 734 573 Q718 548 700.5 525.5 Q683 503 665 480 Q630 438 595 398 Q560 358 523 320 Q519 317 517 312 Q514 308 510 309 Q505 311 507 316 Q508 318 509 319.5 Q510 321 511 323 Q516 328 520 332 Q524 336 528 341 Q575 390 618.5 441 Q662 492 703 546 Q717 564 728.5 582 Q740 600 750 620 Q755 631 758.5 641.5 Q762 652 764 663 Q769 698 739 711 Q728 716 716.5 718 Q705 720 694 720 Q665 720 637.5 714 Q610 708 583 699 Q541 685 503.5 665 Q466 645 430 620 Q382 588 339 550 Q296 512 256 469 Q230 440 205 410.5 Q180 381 158 348 Q143 327 130 304.5 Q117 282 107 258 Q97 236 92 211 Q90 201 90 191.5 Q90 182 92 172 Q98 146 124 138 Q134 135 143.5 134.5 Q153 134 163 135 Q183 137 202 142 Q221 147 240 153 Q276 165 312.5 177.5 Q349 190 385 203 Q420 215 455.5 227.5 Q491 240 526 252 L535 255 Q540 257 542 252 Q544 247 538 244 Q536 242 533.5 241.5 Q531 241 529 239 Q484 214 440.5 187 Q397 160 355 130 Q304 93 258.5 52.5 Q213 12 172 -36 Q157 -54 143 -72 Q129 -90 117 -110 Q111 -121 105.5 -132.5 Q100 -144 98 -156 Q95 -167 95 -177 Q97 -203 119 -212 Q129 -216 138.5 -216.5 Q148 -217 158 -216 Q178 -214 196 -208 Q214 -202 231 -194 Q249 -185 266 -174 Q283 -163 300 -151 L411 -67 Q440 -46 467.5 -25.5 Q495 -5 524 16 Q525 16 527 17 Q529 18 531 16 Q533 12 531 10 Q530 8 529 8 Q525 5 521 2 Q517 -1 512 -4 Q466 -39 420.5 -73.5 Q375 -108 328 -143 Q308 -157 288.5 -170.5 Q269 -184 248 -196 Q232 -205 215.5 -212 Q199 -219 181 -223 Q158 -229 134 -226 Q129 -225 125 -224.5 Q121 -224 116 -222 Q82 -208 85 -170 Q88 -145 100 -121 Q108 -104 119 -88 Q130 -72 142 -56 Q177 -12 216.5 26.5 Q256 65 299 100 Q342 135 386.5 164.5 Q431 194 478 222 L484 225 L484 226 Q475 223 466 220 Q457 217 449 214 Q406 199 363.5 184 Q321 169 278 155 Q256 147 234.5 140.5 Q213 134 191 129 Q178 127 165.5 125 Q153 123 141 124 Q133 125 126 126.5 Q119 128 113 131 Q85 144 80 179 Q78 202 84 222 Q90 248 101 271.5 Q112 295 126 318 Q146 351 169 381.5 Q192 412 217 441 Q296 532 388 602 Q425 630 463.5 653.5 Q502 677 544 695 Q570 706 597 714 Q624 722 653 727 Q679 732 706 730 Q717 728 727 726 Q737 724 747 719 Z M759 821 Q760 816 759.5 811.5 Q759 807 758 802 Q758 797 753 797 Q748 797 748 802 Q748 808 749 811 L749 814 Q748 814 747 813 Q743 811 742 810 Q739 808 736.5 805 Q734 802 732 800 Q729 796 725.5 799.5 Q722 803 725 807 Q737 821 750 825 Q758 827 759 821 Z " />
<glyph glyph-name="Edieresis" unicode="&#xcb;" horiz-adv-x="558" d="M747 719 Q760 712 767.5 701 Q775 690 775 674 Q775 655 767 634 Q760 617 751.5 602 Q743 587 734 573 Q718 548 700.5 525.5 Q683 503 665 480 Q630 438 595 398 Q560 358 523 320 Q519 317 517 312 Q514 308 510 309 Q505 311 507 316 Q508 318 509 319.5 Q510 321 511 323 Q516 328 520 332 Q524 336 528 341 Q575 390 618.5 441 Q662 492 703 546 Q717 564 728.5 582 Q740 600 750 620 Q755 631 758.5 641.5 Q762 652 764 663 Q769 698 739 711 Q728 716 716.5 718 Q705 720 694 720 Q665 720 637.5 714 Q610 708 583 699 Q541 685 503.5 665 Q466 645 430 620 Q382 588 339 550 Q296 512 256 469 Q230 440 205 410.5 Q180 381 158 348 Q143 327 130 304.5 Q117 282 107 258 Q97 236 92 211 Q90 201 90 191.5 Q90 182 92 172 Q98 146 124 138 Q134 135 143.5 134.5 Q153 134 163 135 Q183 137 202 142 Q221 147 240 153 Q276 165 312.5 177.5 Q349 190 385 203 Q420 215 455.5 227.5 Q491 240 526 252 L535 255 Q540 257 542 252 Q544 247 538 244 Q536 242 533.5 241.5 Q531 241 529 239 Q484 214 440.5 187 Q397 160 355 130 Q304 93 258.5 52.5 Q213 12 172 -36 Q157 -54 143 -72 Q129 -90 117 -110 Q111 -121 105.5 -132.5 Q100 -144 98 -156 Q95 -167 95 -177 Q97 -203 119 -212 Q129 -216 138.5 -216.5 Q148 -217 158 -216 Q178 -214 196 -208 Q214 -202 231 -194 Q249 -185 266 -174 Q283 -163 300 -151 L411 -67 Q440 -46 467.5 -25.5 Q495 -5 524 16 Q525 16 527 17 Q529 18 531 16 Q533 12 531 10 Q530 8 529 8 Q525 5 521 2 Q517 -1 512 -4 Q466 -39 420.5 -73.5 Q375 -108 328 -143 Q308 -157 288.5 -170.5 Q269 -184 248 -196 Q232 -205 215.5 -212 Q199 -219 181 -223 Q158 -229 134 -226 Q129 -225 125 -224.5 Q121 -224 116 -222 Q82 -208 85 -170 Q88 -145 100 -121 Q108 -104 119 -88 Q130 -72 142 -56 Q177 -12 216.5 26.5 Q256 65 299 100 Q342 135 386.5 164.5 Q431 194 478 222 L484 225 L484 226 Q475 223 466 220 Q457 217 449 214 Q406 199 363.5 184 Q321 169 278 155 Q256 147 234.5 140.5 Q213 134 191 129 Q178 127 165.5 125 Q153 123 141 124 Q133 125 126 126.5 Q119 128 113 131 Q85 144 80 179 Q78 202 84 222 Q90 248 101 271.5 Q112 295 126 318 Q146 351 169 381.5 Q192 412 217 441 Q296 532 388 602 Q425 630 463.5 653.5 Q502 677 544 695 Q570 706 597 714 Q624 722 653 727 Q679 732 706 730 Q717 728 727 726 Q737 724 747 719 Z M718 807 Q721 805 721 802 Q721 799 718 796.5 Q715 794 712 794 Q709 794 708 797 Q706 801 710 803 L713 806 Q714 807 718 807 Z M739 807 Q742 805 742 802 Q742 799 739 796.5 Q736 794 733 794 Q730 794 729 797 Q727 801 731 803 L734 806 Q735 807 739 807 Z " />
</font>
</svg>
