<?xml version="1.0" encoding="UTF-8"?>
<svg xmlns="http://www.w3.org/2000/svg" xmlns:xlink="http://www.w3.org/1999/xlink" version="1.2" >
<font id="Solevate">
<font-face  font-family="Solevate" units-per-em="1000" ascent="750" descent="-250" font-style="normal" font-weight="400" font-stretch="normal" cap-height="700" x-height="500" underline-position="-75" underline-thickness="50" />
<missing-glyph  horiz-adv-x="161" d="" />
<glyph glyph-name="NULL" d="" />
<glyph glyph-name="nonmarkingreturn" unicode="&#xd;" horiz-adv-x="161" d="" />
<glyph glyph-name="space" unicode="&#x20;" horiz-adv-x="161" d="" />
<glyph glyph-name="d" unicode="d" horiz-adv-x="212" d="M216 243 Q196 216 180 189 Q172 175 164 160.5 Q156 146 149 132 Q141 118 134.5 103 Q128 88 120 74 Q116 68 112 61.5 Q108 55 103 49 Q99 44 94 40.5 Q89 37 83 38 Q75 39 69 47 Q69 47 68 48 Q67 48 67 49 L66 50 L66 51 Q61 58 58 67.5 Q55 77 53 87 Q51 98 50 110 Q49 124 48.5 138.5 Q48 153 48 168 L48 170 L48 177 L48 188 Q46 182 42 172 Q38 162 31.5 152.5 Q25 143 17 137 Q9 131 0 134 L-1 134 Q-14 138 -18 148 Q-23 158 -23 172 Q-23 199 -12 227 Q-8 236 -3.5 245 Q1 254 8 262 Q9 264 10 264.5 Q11 265 12 267 Q16 271 22 274 Q31 276 39.5 272 Q48 268 50 260 Q50 275 50.5 290 Q51 305 52 316 Q53 329 53 341 Q53 346 53 349.5 Q53 353 54 358 Q56 383 58 408 Q60 433 62 458 Q63 472 64.5 485 Q66 498 68 511 Q68 512 69.5 519.5 Q71 527 73 536.5 Q75 546 77 556 Q79 566 81 572 Q81 572 82 573 Q87 591 93 610 Q99 629 111 643 Q115 648 121 651 Q127 654 131 646 Q133 642 133 640 Q135 635 134.5 628.5 Q134 622 134 616 Q133 610 133 603.5 Q133 597 132 591 Q129 566 124.5 541.5 Q120 517 115 493 Q110 470 106 446 Q102 422 97 398 Q89 362 82.5 326 Q76 290 68 254 Q67 248 67 243 Q67 238 67 234 L67 226 L67 140 L67 119 Q67 115 67.5 109 Q68 103 69 95 Q71 75 75 64 Q78 53 83.5 48.5 Q89 44 97 55 Q98 55 98 56 Q107 67 113.5 79.5 Q120 92 127 105 Q133 118 139 130.5 Q145 143 152 156 Q166 180 180.5 203.5 Q195 227 212 250 Q213 249 215 248 Q218 245 216 243 Z M73 380 Q72 358 71.5 335 Q71 312 70 305 L70 304 Q71 305 71 306 Q80 351 88.5 394.5 Q97 438 106 483 Q110 505 114 526.5 Q118 548 121 571 Q126 596 126 616 Q128 627 126 637 L126 639 Q124 643 121.5 641 Q119 639 117 634.5 Q115 630 113 624.5 Q111 619 110 617 Q108 612 107 607.5 Q106 603 104 598 Q98 572 93 546.5 Q88 521 84 495 Q78 454 75 411 Q75 403 74.5 395.5 Q74 388 73 380 Z M49 206 Q49 215 49 226.5 Q49 238 50 249 Q48 251 47 254.5 Q46 258 44 260 Q39 267 35 267.5 Q31 268 27 265.5 Q23 263 20 257.5 Q17 252 15 247 Q0 216 -2 185 L-2 179 Q-2 178 -2 175.5 Q-2 173 -1 169 Q-1 167 0.5 161.5 Q2 156 5 152 Q12 144 19.5 151.5 Q27 159 34 171 Q42 185 49 206 Z " />
<glyph glyph-name="e" unicode="e" horiz-adv-x="169" d="M173 248 Q176 246 174 244 Q166 236 158.5 227 Q151 218 143 210 L80 138 Q79 138 77 136 Q77 135 76.5 135 Q76 135 76 134 Q61 117 43 109 Q30 102 20 103 Q12 104 5.5 108.5 Q-1 113 -6 119 Q-13 129 -15 136 Q-23 159 -21 180 Q-19 201 -18 204 L-18 205 Q-14 222 -7.5 236.5 Q-1 251 10 264 Q23 277 38 278 Q64 278 66 254 Q68 227 46 213 Q36 206 25.5 208 Q15 210 10 223 Q1 192 2 162 Q4 140 13 125 Q14 124 14.5 123 Q15 122 16 121 Q16 120 16.5 120 Q17 120 17 119 Q17 119 18 118 Q24 112 33 114.5 Q42 117 50.5 123 Q59 129 65.5 135.5 Q72 142 74 144 Q80 151 85.5 157 Q91 163 97 169 L169 250 L173 248 Z M17 237 Q17 234 18 230 Q19 226 20 222 Q22 216 24 215 Q27 212 32 214 Q39 216 43 220 Q51 228 54.5 239.5 Q58 251 54 262 Q54 264 53 265 Q52 266 51 268 Q49 271 43 271 Q37 270 31 264 Q26 259 23 254 Q20 249 17 244 L17 237 Z " />
<glyph glyph-name="f" unicode="f" horiz-adv-x="192" d="M192 250 Q194 249 195 246.5 Q196 244 193 242 Q184 236 175 230 Q166 224 157 217 Q121 192 85 166.5 Q49 141 10 121 Q12 116 14 112 Q16 108 17 105.5 Q18 103 19 101 Q24 87 29 74.5 Q34 62 39 48 Q46 28 51 8.5 Q56 -11 61 -31 Q63 -42 65 -52 Q67 -62 69 -73 L72 -100 Q73 -105 73.5 -111 Q74 -117 74 -123 Q75 -134 75.5 -146 Q76 -158 75 -169 Q75 -180 74 -190 Q73 -200 69 -211 Q65 -219 63 -222 Q57 -231 48 -232 Q39 -233 31 -226 Q21 -216 15 -202 Q7 -185 2 -167.5 Q-3 -150 -7 -132 Q-12 -109 -14.5 -86.5 Q-17 -64 -18 -41 Q-20 -9 -19.5 22.5 Q-19 54 -17 86 Q-15 113 -13 140.5 Q-11 168 -7 195 Q-6 205 -5 214.5 Q-4 224 -2 234 Q-1 240 0 249 Q1 258 2.5 266.5 Q4 275 5 281 Q6 287 6 288 Q14 333 23.5 377 Q33 421 44 466 Q50 491 57 515.5 Q64 540 73 565 Q75 569 76 572.5 Q77 576 79 581 Q81 587 85.5 595.5 Q90 604 97 611.5 Q104 619 112 623 Q120 627 130 622 Q141 616 144 604 Q147 596 148 587.5 Q149 579 149 571 Q150 560 149.5 550.5 Q149 541 148 531 Q145 505 137.5 480 Q130 455 119 431 Q108 407 96 384 Q84 361 71 338 Q60 320 49.5 301.5 Q39 283 27 265 Q26 260 26 256 Q26 252 25 250 Q24 242 23 233 Q22 224 20 215 L12 138 L11 130 Q19 134 25.5 138 Q32 142 39 146 Q79 170 116 197 Q153 224 192 250 Z M32 295 Q31 293 31 290 Q31 287 30 284 L66 344 Q89 386 109.5 429.5 Q130 473 138 520 Q141 541 141 561 Q142 569 141.5 577 Q141 585 139 593 Q138 598 134 605.5 Q130 613 125 615 Q118 618 112 610.5 Q106 603 103 597 Q99 590 98 583 Q88 560 81.5 536 Q75 512 70 487 Q60 445 51.5 402.5 Q43 360 35 318 L32 295 Z M17 79 Q15 85 12 91 Q10 95 9 98 L9 96 Q8 89 8 82 Q8 75 7 67 Q5 32 5 -2.5 Q5 -37 8 -72 Q10 -95 13 -119 Q16 -143 21 -166 Q24 -178 27.5 -189.5 Q31 -201 38 -212 L38 -213 Q40 -215 43 -218.5 Q46 -222 50 -220 Q51 -220 53 -218 Q56 -213 58 -208 Q60 -200 61 -195 Q64 -183 64 -169 Q65 -157 64.5 -144.5 Q64 -132 63 -120 Q63 -114 62.5 -108 Q62 -102 62 -96 Q60 -88 59.5 -80.5 Q59 -73 57 -65 Q54 -50 51 -35 Q48 -20 45 -6 Q40 14 34 33.5 Q28 53 20 73 L17 79 Z " />
<glyph glyph-name="g" unicode="g" horiz-adv-x="189" d="M194 243 Q192 241 191.5 240 Q191 239 189 237 Q165 205 141 173.5 Q117 142 94 109 Q92 67 87.5 14 Q83 -39 73.5 -86.5 Q64 -134 48 -167 Q32 -200 7 -200 L6 -200 Q-2 -200 -6 -198 Q-17 -194 -25 -185.5 Q-33 -177 -38 -167 Q-50 -144 -48.5 -121 Q-47 -98 -37 -77 Q-32 -66 -25.5 -55.5 Q-19 -45 -12 -34 Q-5 -23 1.5 -12 Q8 -1 16 10 L67 85 Q67 111 67.5 133.5 Q68 156 68 173 L68 210 Q66 208 64.5 205.5 Q63 203 61 200 Q59 196 57 193 Q54 189 49 183.5 Q44 178 38 173.5 Q32 169 24.5 167 Q17 165 9 169 Q-5 176 -10 187 Q-15 201 -14.5 212.5 Q-14 224 -10.5 233 Q-7 242 -3 247 Q1 252 3 254 Q12 265 26 259 Q34 256 38.5 248 Q43 240 41 232 Q39 227 35 228 Q32 230 32 234 Q33 238 33 246 Q31 253 26 254 Q21 256 18 251 Q14 247 12.5 242 Q11 237 9 232 Q7 221 6.5 210.5 Q6 200 11 189 Q14 180 18 178 Q22 175 27 177.5 Q32 180 37 185.5 Q42 191 46 197 Q50 203 52 207 Q57 215 59 223.5 Q61 232 63 239 Q65 247 65 254 L65 255 Q65 263 73 261 Q91 258 92 242 Q92 240 92.5 237.5 Q93 235 93 233 Q94 220 94.5 207.5 Q95 195 95 183 L95 167 Q95 159 94.5 148 Q94 137 94 124 Q117 156 141 187.5 Q165 219 189 250 L193 248 Q196 247 194 243 Z M59 -76 Q62 -47 64 -8 Q66 31 67 70 Q54 52 41.5 33.5 Q29 15 17 -4 Q10 -15 3.5 -25.5 Q-3 -36 -10 -47 Q-16 -56 -21.5 -65.5 Q-27 -75 -32 -86 Q-37 -97 -39.5 -108 Q-42 -119 -41 -131 Q-38 -157 -22 -176 Q-15 -185 -5 -190 Q5 -195 16 -190 Q25 -185 31 -176 Q37 -167 41 -157 Q49 -138 53 -117.5 Q57 -97 59 -76 Z " />
<glyph glyph-name="h" unicode="h" horiz-adv-x="212" d="M212 250 Q213 250 216.5 249.5 Q220 249 218 245 Q213 234 207.5 223.5 Q202 213 197 202 Q190 188 184 175 Q178 162 172 149 Q166 135 160.5 122 Q155 109 149 96 Q146 90 143 84 Q140 78 136 73 Q131 65 123.5 58.5 Q116 52 105 57 Q94 61 91 72 Q88 83 86 93 Q81 111 79 129 Q77 147 75 166 Q73 181 71.5 196.5 Q70 212 68 227 Q68 231 66 239 Q58 229 54 218 Q50 207 45 196 Q31 161 25 128 Q24 123 23.5 117 Q23 111 22 106 Q21 101 16 98 Q11 95 6 97 Q4 97 4 100 Q3 104 3 107.5 Q3 111 2 115 Q0 150 -1.5 184.5 Q-3 219 -1 254 Q0 274 0.5 294.5 Q1 315 3 335 Q4 353 5.5 371 Q7 389 9 407 Q16 492 39 576 Q42 589 46 602 Q50 615 55 628 Q57 630 62.5 640.5 Q68 651 70 652 Q78 658 87 654 Q93 652 96.5 646.5 Q100 641 102 636 Q110 613 109 589 Q108 565 106 542 Q103 516 99 490 Q95 464 89 438 Q78 393 61.5 349.5 Q45 306 20 266 L20 265 Q20 264 19.5 263.5 Q19 263 19 262 L19 161 L19 158 L19 154 Q27 178 35 198 Q42 215 50 230.5 Q58 246 66 249 Q66 249 68 250 Q78 248 81.5 238.5 Q85 229 87 221 Q89 209 89.5 197.5 Q90 186 92 175 Q94 161 95 148.5 Q96 136 98 123 Q99 105 104 85 Q105 81 109 71 Q111 68 114.5 66.5 Q118 65 126 74 Q131 79 133 84 Q140 94 144 104.5 Q148 115 153 126 Q158 138 163.5 149.5 Q169 161 174 173 Q183 193 192.5 212 Q202 231 212 250 Z M20 281 Q30 298 38 315.5 Q46 333 54 351 Q87 436 96 528 Q99 550 101 572.5 Q103 595 98 617 Q97 625 95 632.5 Q93 640 87 645 L86 646 Q81 650 77 642 Q73 634 70 627 Q70 626 69.5 625.5 Q69 625 69 624 Q61 604 56.5 583 Q52 562 47 541 Q41 511 37 481 Q33 451 30 421 Q28 405 27 389 Q26 373 24 357 Q22 339 21.5 321 Q21 303 20 285 L20 281 Z " />
<glyph glyph-name="i" unicode="i" horiz-adv-x="111" d="M21 311 Q18 309 14 310.5 Q10 312 9 316 Q9 318 8.5 319 Q8 320 8 322 Q9 330 9.5 336.5 Q10 343 10 350 Q11 355 11.5 360.5 Q12 366 13 372 Q13 376 15 380 Q17 385 21 384 Q26 382 26 378 L23 357 L20 330 Q19 327 19 319 Q19 315 22 314 Q23 313 21 311 Z M111 250 Q113 250 115 249 Q118 247 116 245 Q106 229 96.5 214 Q87 199 76 184 Q73 179 70 175 Q67 171 65 166 Q60 158 54.5 151 Q49 144 43 137 Q36 130 29 126 Q17 122 10 129 Q3 135 0 144.5 Q-3 154 -5 162 Q-10 183 -8.5 204 Q-7 225 -2 246 Q-1 248 -0.5 251 Q0 254 2 256 Q5 261 12 259 Q15 256 15 252 Q14 244 14 237.5 Q14 231 13 223 Q12 206 12.5 188.5 Q13 171 18 154 Q19 152 19 150.5 Q19 149 20 147 Q20 147 21 145 Q25 136 32 140.5 Q39 145 43 150 Q47 154 51 160 Q58 171 64.5 181 Q71 191 78 201 Q86 213 94.5 225.5 Q103 238 111 250 Z " />
<glyph glyph-name="j" unicode="j" horiz-adv-x="123" d="M20 311 Q17 309 12.5 310.5 Q8 312 7 316 Q6 318 6 319 Q6 320 5 322 L5 350 L5 372 Q5 374 5.5 376 Q6 378 6 380 Q8 386 13 384 Q17 383 17 378 Q18 373 17.5 367.5 Q17 362 17 357 Q17 350 16.5 343.5 Q16 337 16 330 Q16 323 17 319 Q17 315 20 314 Q21 312 20 311 Z M127 248 Q130 247 128 243 Q126 241 125.5 240 Q125 239 123 237 Q99 205 75.5 173.5 Q52 142 29 109 Q28 67 24 14 Q20 -39 11 -86.5 Q2 -134 -13.5 -167 Q-29 -200 -54 -200 L-55 -200 Q-63 -200 -67 -198 Q-78 -194 -86 -185.5 Q-94 -177 -99 -167 Q-112 -144 -111 -121 Q-110 -98 -100 -77 Q-95 -66 -88.5 -55.5 Q-82 -45 -75 -34 Q-68 -23 -61.5 -12 Q-55 -1 -48 10 Q-35 29 -23 47.5 Q-11 66 3 85 Q3 122 2.5 152.5 Q2 183 2 199 L2 210 Q1 221 0.5 236 Q0 251 -2 254 L-2 255 Q-1 262 7 261 Q23 258 26 242 Q26 236 27 233 Q28 220 28.5 207.5 Q29 195 30 183 L30 167 Q30 159 29.5 148 Q29 137 29 124 Q52 156 75.5 187.5 Q99 219 123 250 L127 248 Z M-3 -76 Q-1 -47 0.5 -8 Q2 31 2 70 Q-10 52 -22.5 33.5 Q-35 15 -47 -4 Q-54 -15 -60 -25.5 Q-66 -36 -73 -47 Q-79 -56 -84.5 -65.5 Q-90 -75 -95 -86 Q-105 -109 -102 -131 Q-101 -155 -84 -176 Q-76 -185 -66 -190 Q-56 -195 -45 -190 Q-36 -185 -30.5 -176 Q-25 -167 -21 -157 Q-13 -138 -9.5 -117.5 Q-6 -97 -3 -76 Z " />
<glyph glyph-name="k" unicode="k" horiz-adv-x="225" d="M225 250 Q227 250 229 249 Q231 248 230 245 L182 173 Q172 158 162 143 Q152 128 141 114 Q130 99 117 91 Q111 86 104 83 Q97 80 90 83 Q83 86 79.5 92 Q76 98 74 105 Q72 112 70 118.5 Q68 125 66 132 Q64 140 61.5 146.5 Q59 153 55 159 Q53 161 50 165 Q47 169 44 171 L43 171 Q41 173 39.5 172.5 Q38 172 37 172 Q34 171 33 165 Q31 151 29 136.5 Q27 122 26 108 Q26 103 23 102 Q17 98 12 98 Q6 97 5 104 Q4 111 3.5 117.5 Q3 124 3 131 Q0 166 -0.5 202 Q-1 238 0 274 Q0 300 0.5 324.5 Q1 349 2 375 Q4 397 5 418 Q6 439 8 461 Q10 478 12 493.5 Q14 509 16 526 Q19 549 23.5 571 Q28 593 36 616 Q37 618 37.5 621 Q38 624 40 626 Q41 627 43 631.5 Q45 636 48.5 640 Q52 644 56.5 647 Q61 650 67 649 L70 649 Q72 648 73.5 647.5 Q75 647 77 645 Q82 640 84 633 Q86 626 87 620 Q89 610 89.5 600.5 Q90 591 91 580 Q93 566 93.5 553 Q94 540 93 526 Q93 500 89.5 474 Q86 448 81 422 Q76 399 70 376.5 Q64 354 56 332 Q50 315 43 299 Q36 283 26 269 Q25 256 25 243.5 Q25 231 25 217 L25 205 L25 200 L25 197 Q31 216 38 236 Q44 253 52.5 273 Q61 293 71 311 Q74 316 78.5 322 Q83 328 88 332.5 Q93 337 98 339 Q103 341 108 338 Q109 338 110 337 Q114 333 114 325 Q114 318 114 312 Q114 306 113 300 Q111 273 103.5 248.5 Q96 224 80 203 Q77 199 74 195.5 Q71 192 68 189 L56 180 L50 176 L54 172 Q59 167 62.5 161.5 Q66 156 69 149 Q74 136 76.5 122 Q79 108 87 96 Q93 87 103 91 Q107 93 110.5 95.5 Q114 98 117 100 Q129 110 140 125 Q151 140 161 155 Q171 170 181 185 Q192 202 203 218 Q214 234 225 250 Z M26 284 Q41 310 50 340 Q64 382 73.5 424.5 Q83 467 85 511 Q87 534 85 558 Q83 582 81 605 Q80 611 79.5 617 Q79 623 77 629 Q76 632 74 636 Q69 641 66 639 Q63 637 61 633 Q59 628 57.5 623 Q56 618 54 613 Q47 589 43 564.5 Q39 540 37 515 Q36 512 36 509 Q36 506 35 503 Q28 422 26 340 L26 284 Z M41 205 Q39 200 38.5 194 Q38 188 36 183 Q43 183 52 190 Q53 191 54 191 Q61 198 66.5 206 Q72 214 74 219 L80 231 Q90 251 94 272.5 Q98 294 100 317 L100 320 L100 331 L99 331 Q97 329 94.5 326 Q92 323 91 322 Q73 298 60 266 Q49 238 41 205 Z " />
<glyph glyph-name="l" unicode="l" horiz-adv-x="177" d="M177 250 Q178 250 181.5 249 Q185 248 183 243 Q176 232 171 219.5 Q166 207 161 195 Q151 168 142 141 Q133 114 118 90 Q113 83 108.5 75.5 Q104 68 97 63 Q94 61 89.5 58.5 Q85 56 80 56 Q79 55 77 55 Q64 55 51 67 Q44 73 39.5 80.5 Q35 88 31 96 Q21 115 15.5 135 Q10 155 6 175 Q4 186 3 196 Q2 206 1 217 Q-2 244 -2 271 Q-2 298 -2 315 L1 378 Q3 399 5.5 420 Q8 441 11 462 Q15 491 20 519 Q25 547 34 575 Q37 586 41 596 Q45 606 51 615 Q52 617 58.5 625 Q65 633 75 638 L76 638 Q77 639 78 639 Q79 639 81 640 Q88 640 90 639 Q94 639 97 636 Q107 629 112 615 Q119 592 117.5 567 Q116 542 111 519 Q106 495 100 471 Q94 447 87 424 Q79 401 71 378 Q63 355 54 333 Q49 322 44 310.5 Q39 299 34 288 Q31 281 27.5 274 Q24 267 19 261 Q20 216 28 171 Q31 152 35 133.5 Q39 115 47 97 L53 85 Q55 82 57 79 Q59 76 61 74 Q63 72 65.5 69.5 Q68 67 71 66 Q77 63 83 64.5 Q89 66 94 71 Q103 80 110 91.5 Q117 103 122 114 Q128 126 132.5 138 Q137 150 142 163 Q150 186 158 208 Q166 230 177 250 Z M19 333 Q19 319 18.5 304 Q18 289 19 275 Q22 280 24.5 286 Q27 292 29 297 Q34 308 39 319.5 Q44 331 49 343 Q66 384 79 425.5 Q92 467 101 510 Q106 533 108.5 556 Q111 579 106 602 Q105 607 103.5 613.5 Q102 620 98 625 Q91 633 85 631 Q79 629 74 625 L74 624 Q69 619 65 612 Q61 605 58 598 Q50 581 46 563 Q42 545 38 526 Q35 506 32 486.5 Q29 467 27 447 Q25 418 23 390 Q21 362 19 333 Z " />
<glyph glyph-name="m" unicode="m" horiz-adv-x="316" d="M321 243 Q313 235 306.5 226 Q300 217 293 208 Q275 182 259.5 156 Q244 130 229 103 L214 76 Q210 69 206 62.5 Q202 56 197 51 Q197 50 196 50 L196 49 Q194 47 187 42 Q180 37 172 42 L172 43 L171 43 Q169 45 168 47 Q167 48 165 52 Q163 60 162 67 Q161 74 160 82 Q157 117 162 157 Q166 213 177 269 Q179 276 179.5 282.5 Q180 289 182 297 Q177 292 175 289 Q164 274 156 257 Q148 240 140 223 Q133 206 127 190 Q121 174 115 157 Q113 155 111 149 Q108 144 100 143 Q92 142 87 146 Q85 148 84.5 149.5 Q84 151 83 153 Q79 166 79 183 Q77 205 79.5 226.5 Q82 248 86 270 L86 272 Q82 268 81 264 Q72 250 65 234.5 Q58 219 53 203 Q45 180 37.5 157.5 Q30 135 22 112 Q17 96 1 103 Q-6 106 -6 114 Q-7 122 -7.5 130.5 Q-8 139 -8 147 Q-7 164 -7 180.5 Q-7 197 -5 214 Q-3 228 -1.5 242 Q0 256 2 270 Q3 272 3 274 Q3 276 4 278 Q5 283 12 283 Q18 283 20 277 Q22 271 22 267 Q22 256 22 246 Q22 236 21 226 Q21 207 20.5 188.5 Q20 170 19 151 L19 145 L20 145 Q22 150 23.5 154.5 Q25 159 27 164 Q35 183 43 202 Q51 221 59 240 Q64 251 70.5 262 Q77 273 82 284 L85 287 Q89 293 96 290 Q103 289 103 280 Q104 272 103.5 263 Q103 254 103 246 Q102 227 101.5 208.5 Q101 190 103 170 Q103 168 104 167 Q106 171 107 174 Q108 177 110 181 Q118 198 126.5 216 Q135 234 143 251 Q150 265 158 278 Q166 291 176 304 Q182 313 191 308 Q199 305 199 295 Q199 288 198.5 281.5 Q198 275 197 268 Q195 245 191.5 222 Q188 199 186 176 Q184 156 182.5 136.5 Q181 117 181 97 Q181 87 181.5 77.5 Q182 68 184 59 Q184 57 184.5 55.5 Q185 54 185 52 L186 50 Q191 55 192 57 Q197 63 201 70 Q205 77 209 84 Q234 127 259 169.5 Q284 212 316 250 Q317 250 320.5 248.5 Q324 247 321 243 Z " />
<glyph glyph-name="n" unicode="n" horiz-adv-x="232" d="M236 248 Q238 247 237 244 Q227 230 218 217.5 Q209 205 200 191 Q183 166 168 140 Q153 114 139 87 Q136 80 133 74 Q130 68 127 61 Q124 56 120.5 51 Q117 46 112 43 Q106 41 102 41 Q99 39 96 41 Q89 41 84 49 Q79 58 77 74 Q75 88 75 102.5 Q75 117 77 131 Q79 166 84.5 200.5 Q90 235 96 270 Q96 272 96.5 272.5 Q97 273 97 275 Q97 277 97.5 278 Q98 279 98 281 L98 284 Q95 284 91 278 Q91 278 90 277 Q90 276 89.5 276 Q89 276 89 275 Q88 274 87.5 273 Q87 272 86 271 Q82 266 79 260.5 Q76 255 73 250 Q68 239 63.5 228 Q59 217 54 206 Q46 186 39.5 165.5 Q33 145 25 125 Q24 123 23 120 Q22 117 21 114 Q19 111 14.5 102 Q10 93 2 97 Q-5 100 -7 111 L-7 120 Q-8 128 -8 135 Q-8 142 -8 150 Q-8 181 -5 211 Q-3 227 -1.5 242.5 Q0 258 4 273 L7 285 Q9 290 14 290 Q20 290 23 284 Q23 282 23.5 279.5 Q24 277 24 275 Q24 265 24.5 255 Q25 245 24 235 L18 130 L18 129 L30 162 Q38 184 45.5 206 Q53 228 63 249 Q68 259 73.5 268 Q79 277 87 285 Q93 291 98 292 Q106 294 109 286 Q111 284 111.5 281 Q112 278 113 276 Q114 268 113.5 259.5 Q113 251 112 243 Q109 220 106 198 Q103 176 101 153 Q99 133 98 114.5 Q97 96 99 76 Q99 71 100 68 Q101 63 103 56 Q105 49 110 51 Q114 55 117 59.5 Q120 64 122 69 Q167 166 232 250 L236 248 Z " />
<glyph glyph-name="o" unicode="o" horiz-adv-x="181" d="M181 250 Q183 249 184 248 Q187 245 184 242 Q173 231 161 220.5 Q149 210 137 199 Q125 190 112 180 Q99 170 83 167 Q77 139 62 115 Q57 107 50 101 Q43 95 34 93 Q16 87 0 97 Q-12 106 -16 119 Q-22 135 -22 153 Q-22 203 -3 245 Q2 259 11 268 Q16 273 21 270 Q25 270 23 266 Q12 245 8 221 Q0 189 -1 157 Q-1 146 0 136.5 Q1 127 6 116 Q10 106 14 103 Q20 99 25 100 Q33 102 38.5 107 Q44 112 49 117 Q64 136 70 161 Q71 163 71 164 Q71 165 72 167 Q61 168 51.5 173.5 Q42 179 37 191 Q33 198 32 205.5 Q31 213 31 220 Q31 236 36 254 Q38 262 43.5 269.5 Q49 277 59 276 Q64 276 70 272 Q77 266 81 253 Q84 245 85 238.5 Q86 232 87 224 Q87 219 88 217 L88 209 Q88 205 87.5 201 Q87 197 87 193 Q86 188 85.5 184.5 Q85 181 84 176 Q93 179 102 184 Q114 192 124.5 200.5 Q135 209 146 218 Q155 226 163.5 234 Q172 242 181 250 Z M78 222 Q78 229 76 239 Q74 249 72 256 Q71 259 67 265 Q63 269 60 269 Q57 269 55 268 Q53 267 51 265 Q49 263 47.5 260.5 Q46 258 45 255 Q40 242 40 229 Q39 217 41 202.5 Q43 188 55 180 Q64 174 74 174 Q76 181 76.5 187 Q77 193 78 199 L78 200 L78 222 Z " />
<glyph glyph-name="p" unicode="p" horiz-adv-x="243" d="M243 250 Q244 250 246 249 Q249 246 247 244 Q234 227 217 213.5 Q200 200 183 188 Q179 186 176 183.5 Q173 181 169 179 Q163 175 157 171.5 Q151 168 144 165 L143 165 Q138 162 132 161 Q127 159 123 158 Q119 157 116 156 Q112 155 109 154 L108 153 Q102 151 99 147 Q76 126 50 119 Q45 118 41.5 117.5 Q38 117 33 119 Q27 121 26 124 Q23 129 27 133 Q33 139 41 142 Q50 147 60 149.5 Q70 152 80 154 Q86 155 87 159 Q115 196 118 240 Q119 245 118.5 255 Q118 265 110 265 Q104 266 99 264 Q94 262 89 260 Q73 250 62 234 Q44 210 28 175 Q12 140 12 110 Q10 89 8.5 68.5 Q7 48 6 28 Q4 8 3 -11 Q2 -30 1 -50 Q0 -70 -0.5 -88.5 Q-1 -107 -3 -126 Q-4 -137 -4.5 -148.5 Q-5 -160 -7 -171 Q-7 -178 -12 -182 Q-17 -186 -24 -184 Q-29 -184 -29.5 -175.5 Q-30 -167 -31 -163 Q-31 -107 -29.5 -52 Q-28 3 -16 58 Q-11 113 -5.5 165 Q0 217 0 273 Q2 277 8 277 Q13 277 15 273 Q16 270 16 264 Q16 256 16 249.5 Q16 243 17 236 Q17 226 16.5 217 Q16 208 16 199 L16 174 Q16 176 17 178 Q27 208 47 235 Q60 254 76 265 Q86 274 97 275 Q107 277 117.5 270.5 Q128 264 133 250 Q135 242 135 234 Q135 226 133 218 Q128 186 113 164 Q112 164 112 163 Q130 167 147 175.5 Q164 184 179 195 Q196 207 212.5 220 Q229 233 243 250 Z M35 124 Q47 126 56.5 131.5 Q66 137 75 145 L73 145 Q68 143 63.5 142 Q59 141 54 139 Q45 138 37 131 Q34 128 35 124 Z " />
<glyph glyph-name="q" unicode="q" horiz-adv-x="209" d="M213 248 Q217 246 214 243 Q205 232 196 220.5 Q187 209 179 197 L104 101 Q96 89 87 77.5 Q78 66 69 55 Q63 47 57 40 Q51 33 44 26 Q51 13 56 -2 Q61 -15 65.5 -31.5 Q70 -48 72 -65 Q73 -69 73 -72.5 Q73 -76 74 -81 Q76 -106 74.5 -130 Q73 -154 67 -178 Q60 -206 47 -225 Q43 -231 40 -234 Q34 -240 25 -240 Q18 -240 14 -236 Q11 -232 9.5 -228 Q8 -224 6 -219 Q1 -203 -0.5 -187 Q-2 -171 -2 -155 Q-2 -127 1 -99.5 Q4 -72 9 -45 Q17 5 28 53.5 Q39 102 53 151 Q57 167 61 182.5 Q65 198 69 214 L72 228 Q67 220 61.5 212.5 Q56 205 50 198 Q43 191 35.5 184.5 Q28 178 18 176 Q7 174 -2.5 179.5 Q-12 185 -14 196 Q-18 211 -11 228 Q-5 247 10 264 Q15 269 20 272 Q25 275 33 276 Q44 277 51 272.5 Q58 268 58 257 Q58 254 56 250 Q56 248 54 248 Q53 249 52.5 249 Q52 249 51 250 L51 253 Q49 260 47 267 Q45 274 35 269 Q27 265 22 255 Q9 235 6 210 Q4 199 9 190 L10 189 Q12 187 17.5 185.5 Q23 184 35 197 Q39 201 42 205 Q45 209 48 214 Q60 231 69.5 249.5 Q79 268 87 286 Q88 290 94 290 Q95 290 95.5 289.5 Q96 289 98 289 Q105 286 104 281 Q99 264 95.5 246.5 Q92 229 87 211 Q79 182 72 153 Q65 124 57 95 Q56 90 55 86 Q54 82 53 77 Q51 71 49.5 64 Q48 57 47 51 Q45 44 45 38 Q56 51 67 66 Q103 112 138.5 158 Q174 204 209 250 L213 248 Z M55 -27 Q53 -18 50 -9 Q47 0 42 8 Q41 10 40 12 Q39 14 38 16 L38 14 Q36 7 34.5 0.5 Q33 -6 32 -13 Q29 -27 26.5 -41.5 Q24 -56 22 -70 Q20 -82 19 -94.5 Q18 -107 17 -120 Q16 -130 16 -139.5 Q16 -149 16 -159 Q17 -173 18.5 -186 Q20 -199 23 -213 Q25 -218 26.5 -222 Q28 -226 31 -230 Q33 -228 34 -227.5 Q35 -227 36 -225 Q48 -207 55 -184 Q62 -157 64 -130 Q65 -118 65 -106 Q65 -94 65 -82 Q64 -68 61.5 -54.5 Q59 -41 55 -27 Z " />
<glyph glyph-name="r" unicode="r" horiz-adv-x="173" d="M173 250 Q176 250 177 246.5 Q178 243 176 241 Q168 234 162 227 Q156 220 149 212 Q133 192 119 171 Q105 150 88 130 Q84 125 80 120 Q76 115 71 110 Q67 106 62 101 Q57 96 52 94 Q51 94 50.5 93.5 Q50 93 48 93 Q40 92 36 102 Q34 106 34 113 Q33 122 34 131 Q35 140 37 149 Q39 160 42 171.5 Q45 183 47 195 Q48 200 48 204 Q48 208 48 213 Q47 221 42 225 Q37 229 29 231 Q27 232 21 234 Q12 239 4.5 243.5 Q-3 248 -5 253 Q-7 258 -8 266.5 Q-9 275 -8 283.5 Q-7 292 -4 299 Q-1 306 5 308 Q9 310 12.5 309.5 Q16 309 18 305 Q19 302 19 298.5 Q19 295 19 292 Q19 286 17 276 Q16 273 15.5 269.5 Q15 266 14 263 Q14 261 13.5 260 Q13 259 13 257 Q13 252 19 248 Q22 245 25 244 Q29 242 33 241 Q37 240 41 238 Q45 236 48.5 234 Q52 232 56 230 Q67 221 69 206 Q69 195 67 185 Q65 175 63 164 Q61 156 60 148 Q59 140 57 132 Q57 129 56 126 Q55 124 55 122 L55 115 L55 114 Q55 107 57 107 Q60 110 63.5 113.5 Q67 117 70 121 Q98 152 120.5 186.5 Q143 221 173 250 Z M9 267 Q14 285 11 300 Q5 283 9 267 Z " />
<glyph glyph-name="s" unicode="s" horiz-adv-x="220" d="M220 250 Q221 249 223 248 Q226 245 224 242 Q205 220 185 199.5 Q165 179 142 160 Q139 158 136 155 Q133 152 129 150 Q131 148 131 147 Q134 142 136.5 131.5 Q139 121 137 103 Q131 62 106 33 Q105 32 99 25.5 Q93 19 84 11 Q75 3 63.5 -4 Q52 -11 40 -14 L39 -14 Q33 -16 30 -16 Q10 -16 0 2 Q-7 15 -4.5 28 Q-2 41 6 52 Q14 64 23.5 74.5 Q33 85 44 94 Q60 108 76.5 120.5 Q93 133 110 145 Q104 153 96 159 L93 162 Q81 170 67.5 174 Q54 178 40 182 Q33 184 27 186 Q21 188 14 190 Q6 192 2 195.5 Q-2 199 -5 204 Q-8 210 -8 218 Q-8 225 -6.5 234 Q-5 243 2 255 Q9 261 17 256 Q22 255 20 248 Q19 242 17.5 235.5 Q16 229 15 223 Q14 221 14.5 218 Q15 215 15 212 Q17 201 27 198 Q38 194 49 191.5 Q60 189 71 185 Q85 180 97.5 174.5 Q110 169 121 159 L124 156 L139 168 Q162 187 182 207.5 Q202 228 220 250 Z M80 21 Q103 44 111 65.5 Q119 87 120 103 Q121 121 114 138 Q100 127 84.5 116.5 Q69 106 55 94 Q45 85 35.5 75.5 Q26 66 18 55 Q10 44 5 30 Q0 16 9 3 Q13 -3 16 -4 Q20 -8 28 -8 Q41 -10 54.5 -0.5 Q68 9 80 21 Z " />
<glyph glyph-name="t" unicode="t" horiz-adv-x="225" d="M412 467 Q412 467 417 467 Q416 465 416.5 464.5 Q417 464 416 463 Q411 458 405.5 456.5 Q400 455 395 454 Q380 452 365 450 Q350 448 335 446 Q316 444 297 443 Q278 442 259 440 Q245 438 231.5 437.5 Q218 437 204 435 Q190 434 177 433 Q164 432 150 431 Q138 430 126.5 429 Q115 428 103 427 Q86 426 70.5 425.5 Q55 425 38 423 Q37 418 37 414 Q37 410 36 405 Q34 390 33 375.5 Q32 361 31 347 Q29 334 28.5 321.5 Q28 309 27 296 Q22 234 24 172 Q24 135 26.5 98.5 Q29 62 35 26 Q38 6 43 -13 Q48 -32 57 -50 Q66 -67 76 -79 L77 -79 L78 -80 L79 -80 Q92 -91 103 -86 Q114 -81 119 -76 Q124 -70 128 -63.5 Q132 -57 135 -51 Q143 -34 149.5 -16 Q156 2 161 20 Q167 39 171.5 58 Q176 77 181 97 Q191 136 200.5 174.5 Q210 213 225 250 Q226 249 228 249 Q231 247 231 246 Q215 205 204 160 Q193 118 183.5 76.5 Q174 35 160 -6 Q155 -23 148 -41 Q141 -59 130 -73 Q123 -82 114 -88.5 Q105 -95 94 -94 Q81 -94 70 -87 Q62 -81 55.5 -73.5 Q49 -66 44 -58 Q33 -39 26 -19 Q19 1 14 23 Q9 42 6.5 60.5 Q4 79 2 98 Q0 123 -1 147 Q-2 171 -2 196 L-2 197 Q-2 208 -1 213 Q-1 227 -0.5 241 Q0 255 0 264 Q0 270 1 272 L1 273 Q1 278 1 282.5 Q1 287 2 292 Q3 306 3.5 319.5 Q4 333 5 347 Q6 358 7 367.5 Q8 377 9 388 Q10 395 10.5 401.5 Q11 408 12 416 L12 422 L8 422 Q-24 420 -56.5 419.5 Q-89 419 -121 417 Q-139 416 -157.5 416 Q-176 416 -194 414 Q-208 414 -221 413.5 Q-234 413 -248 412 L-249 412 Q-253 411 -253 414 L-253 416 Q-250 419 -246 420 Q-243 420 -218.5 422 Q-194 424 -158.5 426 Q-123 428 -82 430 Q-41 432 -4 433 Q0 433 3.5 433.5 Q7 434 10 434 Q14 434 14 438 Q19 479 27 518.5 Q35 558 46 597 Q49 608 51.5 619 Q54 630 58 641 Q59 646 61 650 Q63 654 65 659 Q67 666 74 666 Q82 664 83 658 Q83 657 83.5 656.5 Q84 656 84 655 Q83 655 82.5 654.5 Q82 654 80 654 Q69 600 57 546 Q45 492 40 436 Q45 436 49.5 435.5 Q54 435 59 436 Q73 436 86.5 436.5 Q100 437 114 438 Q136 439 157 439.5 Q178 440 199 442 Q217 444 235 444.5 Q253 445 270 447 Q290 449 310 450.5 Q330 452 350 454 Q361 456 373 457 Q385 458 396 460 Q405 462 412 467 Z " />
<glyph glyph-name="u" unicode="u" horiz-adv-x="219" d="M224 242 Q217 231 210.5 219 Q204 207 198 195 Q184 166 172 135.5 Q160 105 149 73 Q144 61 139.5 49.5 Q135 38 127 27 Q123 23 116 18.5 Q109 14 100 19 Q97 20 94 25 Q90 30 88.5 36 Q87 42 85 49 Q81 63 80.5 77.5 Q80 92 80 106 Q80 115 80 124 Q80 133 81 142 L81 150 Q82 155 82 159 Q82 163 83 168 Q83 172 83.5 175.5 Q84 179 84 183 L87 208 L80 195 Q75 184 70.5 172.5 Q66 161 61 150 Q56 140 50 131 Q44 122 36 114 Q34 112 33 112 Q19 101 10.5 106.5 Q2 112 0 115 L0 116 Q-3 118 -4 123 Q-9 138 -9 152 Q-10 168 -9.5 183.5 Q-9 199 -7 215 Q-5 224 -4 233 Q-3 242 -1 250 Q1 256 4.5 267 Q8 278 18 275 Q22 273 21 269 Q20 259 19 249.5 Q18 240 16 230 Q10 186 13 142 Q14 137 15 131.5 Q16 126 18 121 L18 120 Q20 118 22 117 Q24 116 28 119 Q30 121 31 121 Q31 122 32 122 Q40 130 41 132 Q51 148 59 167 Q68 189 77 210.5 Q86 232 96 254 L96 255 Q98 257 101 258.5 Q104 260 106 258 Q108 256 108 250 L105 199 Q103 178 102.5 157 Q102 136 102 116 Q102 89 105 62 Q105 46 112 33 Q114 29 115 29 Q119 32 122 36.5 Q125 41 127 43 L127 44 Q131 50 132 54 Q138 66 142 79 Q146 92 151 105 Q156 119 161.5 132.5 Q167 146 173 160 Q183 183 194 205.5 Q205 228 219 250 Q221 250 223 249 Q227 247 224 242 Z " />
<glyph glyph-name="v" unicode="v" horiz-adv-x="247" d="M172 193 Q172 182 172 172.5 Q172 163 171 152 Q170 139 169.5 126.5 Q169 114 167 101 Q165 86 164 71.5 Q163 57 161 42 Q156 11 150.5 -19.5 Q145 -50 137 -80 Q132 -97 126.5 -113 Q121 -129 113 -143 Q108 -151 103.5 -158 Q99 -165 91 -170 Q77 -180 62 -178.5 Q47 -177 35 -165 Q27 -156 21.5 -146 Q16 -136 11 -125 Q0 -92 -5 -55 Q-10 -23 -10.5 8 Q-11 39 -10 71 Q-9 92 -8 112.5 Q-7 133 -5 153 L-5 155 Q-4 166 -4 176 Q-4 186 -2 197 Q-1 207 -1 217 Q-1 227 -1 237 L-1 245 Q-1 254 7 251 Q12 250 14 243 Q18 220 17.5 198.5 Q17 177 16 154 Q14 117 12 80.5 Q10 44 12 7 Q13 -20 15.5 -47 Q18 -74 25 -101 Q31 -128 44 -149 Q53 -161 61 -166 Q72 -173 82 -164 Q90 -157 94.5 -149 Q99 -141 103 -133 Q111 -116 117 -97.5 Q123 -79 128 -60 Q133 -39 137 -17.5 Q141 4 144 26 Q146 39 147 51 Q148 63 150 76 Q152 90 152.5 105 Q153 120 155 134 Q156 142 156 150.5 Q156 159 157 168 Q158 180 158.5 192 Q159 204 159 217 Q160 244 160 271.5 Q160 299 160 326 L160 363 Q159 371 159 380 Q159 389 158 397 Q158 399 157 402 Q156 405 155 407 Q161 409 164 404 L167 395 Q167 390 167.5 384 Q168 378 168 373 Q169 359 169 346.5 Q169 334 170 321 L170 296 Q171 281 171 265.5 Q171 250 172 235 L172 193 Z " />
<glyph glyph-name="w" unicode="w" horiz-adv-x="286" d="M286 250 Q288 249 289 247 Q291 243 288 242 Q268 228 244 222 Q220 216 197 229 Q196 210 193.5 192 Q191 174 187 156 Q186 154 183.5 146 Q181 138 178 127 Q173 117 169 107 Q165 97 160 87 Q158 83 156.5 79.5 Q155 76 153 72 Q149 64 140.5 51 Q132 38 123 33 Q121 31 119 31 Q117 30 113 30 Q112 30 111 31 L109 31 Q103 33 98 40 Q91 49 88 63 Q83 82 82.5 100 Q82 118 83 137 Q83 174 91 214 Q91 215 92 216 L91 216 Q81 201 73 184.5 Q65 168 57 151 Q52 142 47.5 133.5 Q43 125 37 117 Q36 116 35.5 115 Q35 114 34 113 Q32 111 26.5 106 Q21 101 11 106 Q7 108 2 115 Q-3 126 -5 141 Q-9 164 -8 185.5 Q-7 207 -4 228 Q-3 236 -2 242.5 Q-1 249 1 257 Q3 264 9 264 Q18 264 18 256 L18 229 Q17 215 16.5 202 Q16 189 16 175 Q14 148 20 124 Q20 121 22 115 L23 113 L24 114 L28 118 L27 118 Q29 120 29.5 121 Q30 122 32 124 L41 139 Q49 152 57 170 Q65 184 72 198 Q79 212 88 226 L91 229 Q95 233 98 233 L99 233 L100 233 Q104 231 106 227 Q106 223 106.5 219.5 Q107 216 107 211 Q105 185 104 159.5 Q103 134 105 108 Q106 95 107.5 82.5 Q109 70 113 57 Q113 56 115 52 Q117 46 121 43 L122 43 Q124 45 130 52 Q136 59 147 79 Q153 91 158.5 103 Q164 115 169 127 Q170 133 173 138 Q175 142 177 152 Q187 189 189 230 L189 231 L189 236 Q189 239 192 239 L193 239 L196 239 Q219 224 242.5 230.5 Q266 237 286 250 Z " />
<glyph glyph-name="x" unicode="x" horiz-adv-x="232" d="M236 243 Q229 234 222.5 225 Q216 216 210 206 Q194 183 180 160.5 Q166 138 149 116 Q141 105 133 95 Q125 85 116 75 Q112 71 107.5 67.5 Q103 64 98 63 Q93 62 89 64.5 Q85 67 82 70 Q78 74 75 78 Q73 82 70.5 86 Q68 90 66 95 Q61 106 58 117 Q55 128 52 139 Q51 140 51 143 Q49 139 46.5 135.5 Q44 132 42 129 Q31 109 20.5 89 Q10 69 -1 49 Q-6 40 -10 31.5 Q-14 23 -17 13 Q-17 10 -18 8 Q-18 4 -15 3 Q-14 3 -14 1 Q-14 1 -16 0 Q-24 0 -25 6 Q-26 7 -26 8 L-26 11 Q-25 14 -25 17 Q-25 20 -23 22 Q-18 33 -13.5 44 Q-9 55 -4 66 Q8 89 20.5 112 Q33 135 45 158 Q47 162 46 164 Q43 183 39.5 201.5 Q36 220 33 238 Q31 243 30 247.5 Q29 252 28 257 Q26 261 25 264 Q23 261 21 258.5 Q19 256 17 254 Q13 249 10 243 Q7 237 4 232 Q2 230 1 228.5 Q0 227 -2 228 Q-5 229 -5 234 Q-4 236 -4 239 Q-4 242 -3 244 Q-1 249 1.5 254 Q4 259 6 264 Q11 275 19.5 276 Q28 277 37 272 Q41 270 43.5 267 Q46 264 48 260 Q52 252 54 243 Q56 234 58 225 Q60 217 60.5 210 Q61 203 62 195 Q63 194 63 190 Q64 192 64.5 192.5 Q65 193 66 195 Q94 238 124 277 Q126 282 131 282 Q138 280 135 274 Q133 270 131 266.5 Q129 263 127 259 Q116 242 104.5 225 Q93 208 82 191 Q78 186 75 181 Q72 176 68 171 Q66 167 67 165 Q69 148 72.5 131.5 Q76 115 82 99 Q84 94 86 89.5 Q88 85 90 80 Q91 78 95 74 L98 71 Q101 73 104 75.5 Q107 78 109 80 Q114 85 118 90 Q122 95 127 100 Q156 135 179.5 174.5 Q203 214 232 250 Q233 249 235 248 Q238 245 236 243 Z " />
<glyph glyph-name="y" unicode="y" horiz-adv-x="228" d="M233 244 Q227 236 221 228 Q215 220 208 212 Q186 183 164 155.5 Q142 128 122 99 Q122 94 121.5 90.5 Q121 87 121 83 L121 81 Q120 73 119 65.5 Q118 58 117 50 Q114 18 108 -13 Q105 -31 102 -49.5 Q99 -68 94 -86 Q88 -116 75 -140 Q59 -171 31 -189 Q11 -203 -11 -201 Q-19 -200 -27 -197.5 Q-35 -195 -41 -189 Q-52 -176 -52 -162 Q-53 -142 -42 -121 Q-34 -104 -24 -88 Q-14 -72 -3 -57 Q10 -40 22.5 -24.5 Q35 -9 47 8 Q58 22 67 36.5 Q76 51 87 65 Q87 66 88 67 Q94 74 94 84 Q94 95 95 105.5 Q96 116 97 127 Q98 146 99 164.5 Q100 183 102 203 Q102 205 102 208 Q102 211 103 214 Q103 218 104 222 L100 212 Q95 198 89 185.5 Q83 173 77 159 Q71 148 64.5 137 Q58 126 50 116 Q49 113 45 109 Q42 107 36.5 103.5 Q31 100 23 102 L21 102 L21 103 L19 103 Q11 107 7 111 Q2 117 -1.5 124 Q-5 131 -7 139 Q-14 162 -12 190 Q-11 203 -9.5 215.5 Q-8 228 -4 241 Q-2 247 0 251 Q3 257 11 255 Q18 254 18 247 L18 216 Q17 202 16.5 188 Q16 174 18 160 Q19 140 27 120 Q28 118 30 116 Q31 114 33.5 112.5 Q36 111 39 114 Q44 119 48 125.5 Q52 132 54 135 Q59 144 64.5 153.5 Q70 163 75 173 Q84 193 92 213.5 Q100 234 108 254 Q109 256 110 257 Q112 259 118 259 Q125 259 126 254 Q128 244 128 238 Q128 217 127.5 195.5 Q127 174 126 153 Q126 148 125.5 142 Q125 136 125 131 Q124 129 124 126 L124 114 Q149 149 175.5 182.5 Q202 216 228 250 Q230 250 232 249 Q236 247 233 244 Z M75 -77 Q81 -44 85 -10.5 Q89 23 92 57 L90 55 Q79 39 69.5 24 Q60 9 49 -6 Q35 -26 21 -44.5 Q7 -63 -7 -83 Q-15 -94 -21.5 -105 Q-28 -116 -33 -129 Q-37 -137 -39 -146 Q-41 -155 -39 -164 Q-37 -184 -20 -190 Q3 -199 24 -183 Q37 -175 45.5 -163.5 Q54 -152 59 -138 Q66 -123 69.5 -108 Q73 -93 75 -77 Z " />
<glyph glyph-name="z" unicode="z" horiz-adv-x="210" d="M210 250 Q212 250 214 249 Q217 247 214 243 Q200 224 185.5 205.5 Q171 187 156 168 Q142 151 129 135 Q116 119 102 103 Q104 98 105 91.5 Q106 85 106 77 Q108 62 106 47.5 Q104 33 101 19 Q90 -19 75.5 -55.5 Q61 -92 39 -126 Q31 -140 21 -151.5 Q11 -163 -1 -172 Q-4 -175 -6 -176 Q-20 -186 -35 -190 Q-52 -193 -67.5 -185.5 Q-83 -178 -89 -161 Q-91 -154 -91.5 -147 Q-92 -140 -91 -132 Q-89 -120 -83.5 -108 Q-78 -96 -72 -85 Q-58 -61 -41 -42 Q-25 -24 -8.5 -6.5 Q8 11 25 28 Q39 44 53.5 59.5 Q68 75 82 92 Q79 113 68 131.5 Q57 150 34 155 Q31 156 27.5 156.5 Q24 157 22 159 Q11 165 15 175 Q18 183 21.5 190.5 Q25 198 29 206 Q35 217 40.5 227.5 Q46 238 52 249 Q56 258 58 269 Q58 277 56.5 277.5 Q55 278 48 276 Q40 274 34 270 Q28 266 22 261 Q13 252 6 242.5 Q-1 233 -6 221 Q-6 219 -7 218 Q-7 216 -10 216 Q-15 216 -13 219 Q-12 224 -11.5 227.5 Q-11 231 -9 235 Q7 270 40 284 Q52 287 60 285 Q79 280 76 258 Q75 242 65 224 Q60 212 54 200.5 Q48 189 42 178 Q40 174 38 168 Q36 165 40 164 Q45 162 49.5 160.5 Q54 159 59 157 Q85 145 98 118 Q98 118 100 112 Q129 146 156.5 180.5 Q184 215 210 250 Z M65 -32 Q75 -5 80.5 24 Q86 53 84 82 Q70 65 55 49.5 Q40 34 26 18 Q9 0 -7.5 -17 Q-24 -34 -40 -52 Q-65 -82 -79 -120 Q-80 -123 -81 -129.5 Q-82 -136 -81 -143 Q-80 -156 -75 -165 Q-70 -173 -62 -178 Q-54 -183 -37 -178 L-36 -178 Q-34 -178 -30 -176 Q-22 -173 -14 -167 Q-6 -161 0 -153.5 Q6 -146 12 -138 Q31 -112 45 -79 Q55 -58 62 -39 Q63 -36 65 -32 Z " />
<glyph glyph-name="A" unicode="A" horiz-adv-x="511" d="M442 175 Q442 173 441 161 Q440 149 438.5 134 Q437 119 435.5 102.5 Q434 86 433 75 Q429 51 427 26.5 Q425 2 423 -22 Q419 -67 416.5 -110 Q414 -153 412 -198 Q411 -203 410.5 -208.5 Q410 -214 410 -219 Q407 -234 394 -228 Q391 -227 392 -223 Q393 -220 393 -214 Q394 -191 394.5 -167 Q395 -143 397 -119 Q400 -77 400 -36 Q402 -10 402.5 16 Q403 42 404 68 Q405 82 406 96.5 Q407 111 409 125 Q409 126 408.5 126.5 Q408 127 408 128 L406 128 L288 128 Q274 128 262 127 Q250 126 236 125 Q232 125 231 121 Q222 83 211.5 47 Q201 11 188 -24 Q177 -50 165.5 -75 Q154 -100 138 -123 Q126 -143 112 -160.5 Q98 -178 80 -191 Q59 -207 37 -211 Q9 -216 -14.5 -200 Q-38 -184 -51 -152 Q-61 -127 -61 -105 Q-64 -70 -55 -41 Q-46 -12 -28 13 Q-15 33 1.5 48.5 Q18 64 38 76 Q61 92 86.5 102 Q112 112 138 119 Q152 123 167 125.5 Q182 128 197 131 Q202 132 206.5 132.5 Q211 133 215 134 Q217 134 218 136 Q224 166 229.5 196 Q235 226 240 257 Q250 315 259 373 Q268 431 278 489 Q287 549 299 605 Q304 629 309 653 Q314 677 322 701 Q323 709 325.5 715.5 Q328 722 331 730 Q326 731 322.5 731.5 Q319 732 315 732 Q289 734 264.5 729 Q240 724 217 713 Q156 686 115 634 Q93 608 76 578 Q59 548 48 514 Q34 472 31 430 Q30 423 29.5 416 Q29 409 30 402 Q31 392 31 382.5 Q31 373 33 363 Q38 334 48 306.5 Q58 279 77 256 Q102 223 137 217 Q161 214 182 226 Q199 236 211 248 Q215 250 216 250 Q216 250 219 250 L219 247 Q216 241 212 237 Q191 216 160 211 Q112 205 73 249 Q46 279 32 321 Q29 331 26.5 341 Q24 351 22 362 Q21 370 20 377 Q19 384 18 392 Q15 429 23 468 Q27 491 33 513 Q39 535 49 555 Q98 661 190 715 Q207 725 224.5 732 Q242 739 262 743 Q282 747 302.5 746.5 Q323 746 343 739 Q407 717 435 641 Q440 627 443.5 612.5 Q447 598 450 584 Q452 567 454 550.5 Q456 534 456 517 Q458 498 458 479.5 Q458 461 458 442 Q458 392 455.5 343.5 Q453 295 448 246 Q447 228 445.5 210 Q444 192 442 175 Z M211 108 Q212 112 213 115 Q214 118 214 122 L213 122 Q201 120 190 118.5 Q179 117 168 115 Q124 106 82 87 Q60 76 40 62.5 Q20 49 2 31 Q-15 14 -27 -6 Q-39 -26 -45 -51 Q-54 -84 -49 -121 Q-45 -146 -32 -168 Q-10 -205 24 -204 Q34 -204 42.5 -201.5 Q51 -199 60 -194 Q88 -177 108 -148 Q125 -125 139 -99.5 Q153 -74 164 -46 Q179 -9 190.5 29.5 Q202 68 211 108 Z M407 135 Q410 135 410 138 Q414 184 418 229 Q422 274 425 319 Q429 361 432 403 Q435 445 434 488 Q433 502 433 516.5 Q433 531 432 545 Q431 562 429.5 579.5 Q428 597 425 614 Q422 628 418 641 Q414 654 409 666 Q387 715 340 727 Q340 726 339.5 725 Q339 724 340 722 Q337 710 334 697.5 Q331 685 329 672 Q308 576 293 477 Q287 436 281 396 Q275 356 267 315 Q255 232 237 150 Q237 146 236 143 Q235 140 235 135 Q237 136 240 136 Q255 137 270 137.5 Q285 138 300 138 Q327 137 353.5 136.5 Q380 136 407 135 Z " />
<glyph glyph-name="B" unicode="B" horiz-adv-x="624" d="M220 94 Q221 99 222 104 Q223 109 224 114 Q231 155 240 195 Q249 235 260 275 Q262 282 263 288.5 Q264 295 265 302 Q268 332 271.5 361.5 Q275 391 278 421 Q280 447 281.5 474 Q283 501 285 528 Q286 546 286 564 Q286 582 284 601 Q282 618 278.5 634 Q275 650 268 667 Q264 679 254 694 Q234 719 202 724 Q182 727 164.5 722.5 Q147 718 130 709 Q97 690 72 659 Q22 600 6 524 Q-7 472 -1 423 Q3 392 13 363.5 Q23 335 41 309 Q54 288 76 272 Q87 264 99.5 259.5 Q112 255 125 257 Q137 258 148 262 Q159 266 167 274 Q170 277 174 276 Q172 272 171 271 Q165 264 158.5 260 Q152 256 144 253 Q104 237 64 265 Q50 275 38.5 288 Q27 301 18 316 Q8 333 1 351 Q-6 369 -11 388 Q-19 420 -19 452.5 Q-19 485 -14 517 Q-1 599 51 664 Q62 678 74.5 690.5 Q87 703 102 713 Q113 721 125.5 727.5 Q138 734 152 737 Q181 743 208 736.5 Q235 730 258 707 Q270 696 278 682 Q286 668 292 654 Q298 638 301 622 Q304 606 306 589 Q309 567 309.5 545.5 Q310 524 309 502 Q306 450 300 395 Q300 394 300.5 394 Q301 394 301 392 Q302 394 302.5 396 Q303 398 304 400 Q318 432 333 461.5 Q348 491 368 520 Q383 542 400.5 562 Q418 582 438 599 Q461 619 488 629 Q499 633 510.5 634 Q522 635 535 632 Q556 626 570.5 609 Q585 592 587 569 Q589 555 587 541.5 Q585 528 581 515 Q568 479 545 445 Q534 428 522 412.5 Q510 397 496 383 Q474 357 451 333 Q428 309 404 286 Q390 271 375 257 Q360 243 346 228 Q341 223 337 219 Q333 215 329 210 Q323 202 321 198 Q319 193 325 193 Q333 191 338 191 Q352 191 365.5 191 Q379 191 393 190 Q418 189 442.5 185 Q467 181 492 170 Q518 159 539 140 Q553 126 560.5 110.5 Q568 95 572 77 Q576 56 573 36.5 Q570 17 563 -2 Q556 -20 546.5 -36 Q537 -52 526 -66 Q500 -98 469.5 -124 Q439 -150 404 -170 Q375 -187 345.5 -200 Q316 -213 284 -221 Q268 -226 252.5 -229 Q237 -232 220 -234 Q207 -235 194 -236 Q181 -237 167 -235 Q147 -234 128 -230.5 Q109 -227 90 -219 Q17 -188 -9 -117 Q-19 -91 -18.5 -65.5 Q-18 -40 -10 -14 Q4 26 30.5 51.5 Q57 77 95 91 Q115 99 135 101 Q155 103 175 102 Q197 100 216 95 Q217 94 220 94 Z M248 84 Q250 83 252 81 Q311 54 349 1 Q358 -11 366 -24 Q374 -37 382 -50 Q385 -54 387 -57.5 Q389 -61 391 -66 L394 -72 Q396 -75 391 -77 Q384 -79 382 -72 Q380 -70 380 -68 Q369 -48 356.5 -29.5 Q344 -11 330 6 Q313 26 294 42 Q275 58 252 70 L246 73 Q246 71 245.5 70.5 Q245 70 245 69 L224 -18 Q222 -24 220.5 -30 Q219 -36 217 -41 Q214 -50 205 -48 Q201 -47 201 -43 L201 -33 Q205 -7 208.5 19 Q212 45 217 71 Q217 74 217.5 77.5 Q218 81 218 84 Q217 84 216.5 84.5 Q216 85 215 85 Q194 91 174 91 Q145 93 122 86 Q39 64 8 -16 Q-8 -59 4 -103 Q21 -168 80 -200 Q101 -212 124 -217.5 Q147 -223 171 -224 Q182 -225 192 -224.5 Q202 -224 213 -223 Q229 -222 244 -219.5 Q259 -217 274 -213 Q339 -196 396 -162 Q427 -144 453.5 -122 Q480 -100 503 -73 Q515 -59 525 -43.5 Q535 -28 542 -10 Q550 8 553 27 Q556 46 552 67 Q546 109 512 140 Q499 152 484 159.5 Q469 167 453 172 Q433 177 414 179 Q395 181 375 182 Q364 183 352.5 183 Q341 183 330 183 Q319 183 311 187 Q301 193 305 203 Q307 207 308 208 Q314 217 321 224 Q329 234 338 243 Q347 252 356 261 Q379 284 402 307.5 Q425 331 447 355 Q466 375 483.5 395.5 Q501 416 516 438 Q529 457 539.5 476 Q550 495 558 517 Q562 529 564.5 541 Q567 553 567 567 Q567 586 560 601 Q553 616 538 619 Q535 620 528 620 Q508 621 488 612 Q471 605 456.5 594 Q442 583 428 570 Q410 552 395.5 532.5 Q381 513 367 491 Q346 456 328.5 418.5 Q311 381 297 342 Q295 338 294 334.5 Q293 331 292 326 Q284 272 275 219.5 Q266 167 255 114 Q253 106 251.5 99 Q250 92 248 84 Z " />
<glyph glyph-name="C" unicode="C" horiz-adv-x="537" d="M507 595 Q508 592 508 588.5 Q508 585 509 582 Q508 576 508 569.5 Q508 563 508 556 Q508 555 507.5 554.5 Q507 554 507 553 Q505 531 499 511 Q493 491 483 472 Q453 414 405 375 Q372 346 335 327.5 Q298 309 257 300 Q221 291 183 293 Q159 295 135 300.5 Q111 306 88 318 Q83 320 79 323 Q75 326 70 328 Q69 327 69 326.5 Q69 326 68 325 Q63 302 59 280 Q55 258 52 235 Q48 208 46.5 180.5 Q45 153 45 126 Q47 68 57.5 14.5 Q68 -39 93 -90 Q107 -117 124 -140.5 Q141 -164 163 -182 Q183 -199 205 -209 Q227 -219 251 -223 Q317 -234 373 -200 Q435 -162 460 -83 Q478 -29 472 29 Q470 50 464.5 68.5 Q459 87 448 104 Q440 116 429.5 125 Q419 134 406 138 Q382 144 358 135 Q302 115 275 53 Q273 46 271 39.5 Q269 33 268 25 Q267 15 270 5 Q266 1 264 4 Q262 6 261 9.5 Q260 13 259 16 Q258 28 261 43 Q266 60 273 73.5 Q280 87 290 100 Q326 142 372 148 Q410 154 439.5 133.5 Q469 113 483 71 Q488 58 489.5 45 Q491 32 492 18 Q497 -59 460 -124 Q444 -155 421.5 -176.5 Q399 -198 371 -213 Q337 -232 301 -236 Q192 -249 115 -159 Q96 -136 82 -109.5 Q68 -83 57 -54 Q45 -22 38 11 Q31 44 28 79 Q26 101 25.5 123 Q25 145 27 168 Q29 211 35.5 253 Q42 295 52 337 Q52 338 52.5 338.5 Q53 339 53 340 L53 341 Q52 342 51 342.5 Q50 343 49 344 Q49 345 48 345 Q46 347 43.5 350 Q41 353 38 355 Q18 376 7.5 399.5 Q-3 423 -8 434 Q-14 452 -17 472 Q-18 477 -18 482.5 Q-18 488 -18 493 Q-18 497 -17 498 Q-15 499 -13 499 Q-11 498 -9.5 496 Q-8 494 -8 488 Q-7 487 -7 486 Q-6 474 -3 463 Q0 452 3 441 Q10 415 23.5 395.5 Q37 376 55 359 L56 358 L57 358 Q58 359 58 360 Q58 361 59 362 Q83 453 125 535 Q143 569 163.5 600 Q184 631 210 658 Q245 698 286 721 Q301 729 316 734.5 Q331 740 348 742 Q391 747 429 726 Q467 705 490 659 Q504 628 507 595 Z M485 565 Q488 619 467 664 Q437 726 374 728 Q360 728 347.5 725.5 Q335 723 322 718 Q277 699 238 660 Q216 639 198 614.5 Q180 590 163 563 Q138 521 119 477.5 Q100 434 85 387 Q82 376 79 365.5 Q76 355 73 344 Q78 340 82.5 337 Q87 334 92 331 Q153 298 226 307 Q240 309 253 312 Q266 315 280 320 Q378 353 443 446 Q461 472 472 501.5 Q483 531 485 565 Z " />
<glyph glyph-name="D" unicode="D" horiz-adv-x="740" d="M-30 350 Q-30 357 -29 360 Q-30 392 -26 422.5 Q-22 453 -16 483 Q-9 520 2.5 554 Q14 588 31 619 Q44 643 60 663.5 Q76 684 98 700 Q116 714 138 718 Q173 723 203 700 Q217 691 226.5 678 Q236 665 244 651 Q253 633 259.5 613.5 Q266 594 271 574 Q280 538 284 501.5 Q288 465 290 428 Q292 421 292 414.5 Q292 408 293 401 L293 398 Q293 403 295 409 Q302 438 310.5 465.5 Q319 493 329 519 Q351 573 377 620 Q391 641 405 660 Q419 679 436 696 Q451 710 466.5 720.5 Q482 731 500 736 Q526 744 551 739 Q576 734 599 717 Q623 700 640.5 677.5 Q658 655 670 627 Q678 605 684 582.5 Q690 560 692 537 Q699 466 687 394 Q679 350 667 308.5 Q655 267 640 227 Q610 147 570 75.5 Q530 4 478 -59 Q426 -123 364 -169 Q343 -185 321 -198 Q299 -211 273 -220 Q236 -234 199 -233 Q176 -232 155 -226 Q134 -220 114 -206 Q87 -187 72 -161.5 Q57 -136 51 -103 Q42 -50 59 0 Q70 35 88.5 64 Q107 93 131 117 Q149 135 170 149.5 Q191 164 215 172 Q235 180 259 182 Q262 182 262 185 Q264 201 265 216 Q266 231 268 247 Q268 255 268.5 263 Q269 271 269 279 Q269 297 269.5 315 Q270 333 269 351 Q269 368 268.5 385.5 Q268 403 268 421 Q266 453 262.5 486 Q259 519 254 551 Q250 574 245 595.5 Q240 617 231 638 Q226 650 220.5 661 Q215 672 207 681 Q188 702 168 706 Q150 709 133 701 Q119 696 107.5 687 Q96 678 85 667 Q68 648 55 626 Q42 604 32 580 Q19 552 10.5 523 Q2 494 -5 463 Q-9 446 -11.5 428.5 Q-14 411 -16 393 Q-17 384 -17 375 Q-17 366 -17 358 Q-18 350 -17.5 343.5 Q-17 337 -17 330 Q-17 323 -16.5 317 Q-16 311 -16 305 Q-14 292 -11.5 280 Q-9 268 -4 257 Q-3 256 -2.5 255 Q-2 254 -1 253 Q1 249 4 250 Q5 250 5 249.5 Q5 249 6 249 Q4 243 -2 247 Q-6 251 -8 254 Q-13 260 -16 267 Q-19 274 -21 282 Q-23 290 -24 297.5 Q-25 305 -27 313 L-28 314 Q-29 323 -29 332 Q-29 341 -30 350 Z M261 172 L259 172 Q242 169 220 161 Q155 132 113 72 Q85 33 72 -13 Q66 -36 64.5 -59.5 Q63 -83 69 -108 Q81 -162 121 -193 Q140 -207 160 -213.5 Q180 -220 201 -221 Q231 -221 260 -212 Q284 -204 306.5 -191.5 Q329 -179 350 -165 Q390 -136 424.5 -100.5 Q459 -65 489 -23 Q532 36 566 101 Q600 166 625 238 Q645 291 657.5 345.5 Q670 400 672 459 Q673 480 672.5 500.5 Q672 521 670 542 Q665 576 655 611 Q649 631 640 649.5 Q631 668 618 684 Q610 695 601 703 Q592 711 580 717 Q549 734 512 724 Q495 719 480 710 Q465 701 451 689 Q431 672 415.5 650.5 Q400 629 386 606 Q376 588 367 569.5 Q358 551 350 532 Q342 512 335 491 Q328 470 322 449 Q315 425 309 400.5 Q303 376 298 351 Q296 344 295.5 337.5 Q295 331 294 323 Q293 314 293 305 Q293 296 293 287 Q292 265 292 244 Q292 223 291 202 Q290 197 290 191.5 Q290 186 290 181 L294 181 Q297 180 300 180 Q303 180 307 179 Q315 178 322.5 177 Q330 176 338 174 Q364 169 383 161 Q391 158 397 152 Q404 149 404 141 Q404 137 402 137 Q397 137 396 140 Q395 150 385 153 Q378 155 371.5 158 Q365 161 357 163 Q332 169 305 172 Q301 172 297 172.5 Q293 173 289 173 Q290 172 290 171 Q288 155 287.5 139 Q287 123 285 107 Q283 96 282 86.5 Q281 77 280 66 Q277 56 266 54 Q258 54 257 63 L257 66 Q257 73 257 80 Q257 87 256 94 L259 145 Q259 152 259.5 158.5 Q260 165 261 172 Z " />
<glyph glyph-name="E" unicode="E" horiz-adv-x="480" d="M49 537 Q48 535 47 532.5 Q46 530 45 528 Q38 511 34 493 Q30 475 30 457 Q30 388 85 352 Q113 334 151 326 Q171 321 191.5 320 Q212 319 233 320 Q251 320 269 321 Q287 322 305 323 Q316 324 326.5 324 Q337 324 348 325 Q359 325 367 318 Q373 308 365 304 Q358 300 351.5 297 Q345 294 338 291 Q317 283 296 275 Q275 267 255 259 Q226 247 199 232 Q172 217 147 199 Q115 176 89 149.5 Q63 123 43 91 Q29 68 18.5 44.5 Q8 21 3 -5 Q-3 -37 -2 -66 Q-1 -97 8.5 -122.5 Q18 -148 33.5 -167.5 Q49 -187 68 -200.5 Q87 -214 106 -221 Q133 -231 165 -231 Q196 -230 224 -221.5 Q252 -213 279 -198 Q315 -178 344 -151.5 Q373 -125 395 -90 Q419 -51 427 -10 Q430 7 430 23 Q430 39 425 56 Q409 104 359 106 Q319 107 285 81 Q277 75 269.5 68 Q262 61 257 53 Q254 48 252 43 Q251 42 251 41 L251 38 Q248 38 246 39 Q245 39 245 40 L245 42 Q246 49 249 54.5 Q252 60 257 65 Q287 104 334 113 Q365 118 392.5 106.5 Q420 95 435 67 Q441 57 443.5 46.5 Q446 36 447 25 Q449 3 444 -18 Q439 -39 430 -59 Q412 -99 384.5 -130 Q357 -161 322 -186 Q273 -221 216 -233 Q209 -235 201.5 -236 Q194 -237 186 -238 Q177 -239 168 -239.5 Q159 -240 150 -239 Q95 -236 53 -203 Q10 -171 -7 -122 Q-11 -109 -13 -96 Q-15 -83 -17 -69 Q-20 -23 -6 25 Q4 59 24 91 Q58 149 113 194 Q136 214 161.5 229 Q187 244 213 257 Q236 269 259.5 278.5 Q283 288 306 297 Q315 300 323.5 303.5 Q332 307 340 310 Q341 311 343 311 L343 312 Q337 312 331 311.5 Q325 311 320 311 L281 308 Q268 308 255.5 307.5 Q243 307 230 307 Q207 307 184.5 309.5 Q162 312 140 318 Q95 330 63 358 Q25 390 18 438 Q13 474 24 510 Q26 519 29.5 528 Q33 537 36 546 Q36 549 36 549 L30 555 Q1 586 -16 613 Q-33 640 -40 652 Q-40 653 -40.5 653 Q-41 653 -41 654 L-44 660 Q-45 662 -45 663 Q-45 664 -46 666 Q-44 667 -42 667 Q-38 667 -35 662 L-35 661 Q-34 659 -32.5 656.5 Q-31 654 -29 649 Q-27 646 -24.5 642.5 Q-22 639 -20 635 Q-20 635 -19 633 Q-16 629 -13.5 625 Q-11 621 -8 617 Q11 589 35 562 Q37 560 37.5 559 Q38 558 40 556 Q43 561 45.5 566 Q48 571 51 576 Q59 589 67 600.5 Q75 612 86 623 Q94 632 102.5 640.5 Q111 649 119 657 Q190 718 275 739 Q315 749 350 743 Q374 741 395.5 731.5 Q417 722 434 705 Q447 691 454.5 675.5 Q462 660 463 641 Q464 614 452 589 Q447 579 441 570.5 Q435 562 428 554 Q409 533 386 518.5 Q363 504 337 493 Q317 485 296 480.5 Q275 476 253 474 Q226 471 199 474 Q176 477 154 482.5 Q132 488 110 498 Q78 513 49 537 Z M54 548 Q53 544 55 543 Q62 538 68.5 533 Q75 528 82 523 Q114 504 148 495.5 Q182 487 221 486 Q227 487 235.5 487 Q244 487 252 489 Q314 498 365 529 Q383 540 398.5 553.5 Q414 567 426 585 Q435 599 440.5 613 Q446 627 447 644 Q448 677 425 699 Q403 717 375 724 Q353 729 331 728.5 Q309 728 287 723 Q238 712 197 689 Q154 667 120 635 Q105 620 92 604 Q69 578 54 548 Z " />
<glyph glyph-name="F" unicode="F" horiz-adv-x="640" d="M645 535 Q647 532 643 530 Q637 530 636 536 Q631 537 626 538 Q621 539 616 540 Q604 541 592 542.5 Q580 544 568 544 Q487 547 408 510 Q404 509 396 505 Q394 503 395 502 Q397 491 398.5 480 Q400 469 402 458 Q404 445 405 432.5 Q406 420 408 408 Q411 366 411 324 Q411 313 410.5 301.5 Q410 290 410 279 L410 277 Q417 281 429 284 L495 305 Q506 308 518 311.5 Q530 315 541 318 Q546 320 550 317 Q551 316 551.5 315 Q552 314 553 313 Q551 311 549 311 L507 296 Q483 288 459.5 280.5 Q436 273 412 265 Q409 263 409 260 Q406 214 400 172 Q397 146 392 119.5 Q387 93 381 67 Q373 30 362 -5 Q351 -40 336 -73 Q325 -99 311 -123.5 Q297 -148 279 -170 Q257 -198 229 -216 Q206 -229 184 -229 Q151 -229 127 -205 Q104 -180 91 -144 Q77 -107 73 -66 Q69 -33 70 0 Q71 33 76 66 Q87 133 110 194 L110 196 Q106 198 102 199 Q98 200 94 202 Q63 213 39 235 Q15 257 -2 287 Q-25 329 -31 373 Q-33 381 -33 388 Q-33 395 -34 403 Q-34 405 -34.5 405.5 Q-35 406 -35 407 L-35 433 Q-34 437 -34 445 Q-33 459 -31 471.5 Q-29 484 -26 497 Q-19 530 -7.5 560 Q4 590 21 619 Q57 678 113 714 Q143 735 178 741 Q240 751 292 710 Q309 697 322 680.5 Q335 664 346 644 Q359 621 368 596 Q377 571 384 545 Q386 539 387.5 532.5 Q389 526 391 520 Q395 522 399 523.5 Q403 525 407 527 Q426 535 445 540.5 Q464 546 484 549 Q498 551 512 552.5 Q526 554 540 554 L541 554 L560 554 Q576 553 596.5 550.5 Q617 548 632 543 Q633 543 633.5 542.5 Q634 542 635 542 Q636 541 639 539.5 Q642 538 644 536 L645 536 L645 535 Z M87 216 Q94 212 100.5 209.5 Q107 207 114 204 L114 206 L115 207 Q119 217 123 226.5 Q127 236 132 246 Q158 300 190.5 347 Q223 394 265 433 Q289 455 314.5 474 Q340 493 368 508 Q374 510 375 512 Q376 514 375 516 Q374 518 374 520 Q368 547 360.5 572.5 Q353 598 342 623 Q333 643 322 661.5 Q311 680 296 695 Q251 738 193 731 Q175 729 158.5 722.5 Q142 716 126 707 Q99 690 77 667.5 Q55 645 38 618 Q-14 536 -20 434 Q-21 420 -20.5 407 Q-20 394 -18 380 Q-12 337 6 300 Q20 271 40 250 Q60 229 87 216 Z M391 303 Q392 326 391.5 348 Q391 370 390 393 Q388 414 386.5 435 Q385 456 381 477 Q380 482 379.5 486.5 Q379 491 378 496 Q291 447 231.5 372 Q172 297 132 200 L134 200 Q179 192 219 205 Q236 211 252.5 219 Q269 227 283 241 Q284 242 286 242 L289 242 Q289 240 288 239 Q284 232 275 226 Q223 189 165 189 Q156 189 147 190 Q138 191 129 191 Q129 191 128 189 Q120 169 114 148 Q108 127 103 106 Q98 81 94.5 57 Q91 33 90 8 Q87 -43 96 -92 Q104 -134 121 -167 Q128 -179 136.5 -189.5 Q145 -200 156 -208 Q179 -223 201 -217 Q210 -215 218.5 -210.5 Q227 -206 235 -199 Q249 -187 261.5 -172 Q274 -157 285 -140 Q302 -114 314 -86.5 Q326 -59 337 -30 Q348 1 355.5 32.5 Q363 64 369 96 Q372 114 375 132.5 Q378 151 381 170 Q383 187 384.5 204 Q386 221 388 238 Q388 243 388.5 247 Q389 251 389 256 Q379 254 377.5 254 Q376 254 374 257 Q375 257 377 259 L386 265 Q390 268 390 272 Q390 280 390.5 287.5 Q391 295 391 303 Z " />
<glyph glyph-name="G" unicode="G" horiz-adv-x="574" d="M527 176 L527 157 Q526 150 526 143.5 Q526 137 524 130 Q520 107 512.5 86 Q505 65 494 45 Q472 3 443 -30.5 Q414 -64 379 -92 Q360 -106 340.5 -118.5 Q321 -131 301 -141 Q300 -142 299.5 -142 Q299 -142 298 -143 Q300 -147 302 -150.5 Q304 -154 306 -158 Q313 -170 319.5 -182 Q326 -194 334 -205 Q343 -219 355 -229 L355 -232 Q354 -232 353 -232.5 Q352 -233 351 -233 Q343 -233 334 -224 Q325 -216 318 -206 Q311 -196 305 -185 Q300 -176 295 -167 Q290 -158 285 -149 Q281 -151 271 -155 Q255 -161 239.5 -165.5 Q224 -170 207 -172 Q170 -178 135 -172.5 Q100 -167 66 -148 Q10 -115 -18 -56 Q-43 -7 -50 46 Q-57 94 -56 143 Q-53 191 -44 237 Q-32 296 -9 355 Q19 428 62 496 Q65 499 62 502 Q60 506 60 506 Q46 529 38 554 Q30 579 25 605 Q21 623 20 636 Q19 649 19 659 L21 659 Q23 659 26 656 Q28 654 28 652.5 Q28 651 29 649 Q29 647 30 646 Q32 618 38 594 Q44 570 52 552 Q61 531 72 512 Q76 517 79.5 522 Q83 527 86 532 Q129 591 184 640 Q206 660 229 676.5 Q252 693 278 707 Q317 728 359 737 Q380 742 401 742 Q422 742 443 735 Q504 715 521 651 Q527 632 526 613.5 Q525 595 520 575 Q514 553 504 534 Q494 515 480 498 Q457 468 428 448 Q399 428 365 415 Q329 401 295 398 Q285 397 275 396.5 Q265 396 254 397 Q224 399 195 407 Q166 415 138 431 Q121 441 105.5 453 Q90 465 77 481 Q77 482 76.5 482 Q76 482 76 483 Q74 482 74 481 Q74 480 73 479 Q56 453 42.5 427 Q29 401 17 373 Q8 352 0.5 330.5 Q-7 309 -14 287 Q-19 267 -24 247.5 Q-29 228 -32 208 Q-34 196 -35 184.5 Q-36 173 -38 161 Q-40 145 -40.5 130 Q-41 115 -40 99 Q-38 61 -30.5 25.5 Q-23 -10 -7 -44 Q36 -134 127 -158 Q143 -163 159 -164 Q175 -165 192 -163 Q215 -161 236.5 -154.5 Q258 -148 278 -139 Q279 -139 280 -138 Q279 -135 278 -132 Q277 -129 275 -125 Q250 -70 238 -5 Q236 6 235 16 Q234 26 233 37 Q232 47 232 56.5 Q232 66 232 77 Q234 120 245 159 Q254 190 268 216.5 Q282 243 304 266 Q320 282 338 293 Q356 304 377 309 Q421 319 459.5 297.5 Q498 276 515 231 Q525 207 527 180 L527 176 Z M85 498 Q82 495 85 493 Q101 471 127 452 Q159 429 193.5 419 Q228 409 269 408 Q274 408 281 408.5 Q288 409 296 410 Q314 413 331.5 418.5 Q349 424 366 432 Q394 445 418.5 463 Q443 481 463 507 Q481 531 493 557.5 Q505 584 508 616 Q510 647 500 672 Q486 709 447 721 Q428 727 409 727 Q390 727 370 723 Q349 719 329.5 711.5 Q310 704 291 694 Q256 676 225.5 652 Q195 628 166 599 Q122 554 85 498 Z M499 112 Q510 159 503 202 Q497 238 477 265 Q463 282 446.5 291 Q430 300 410 300 Q396 301 384 297.5 Q372 294 360 289 Q337 277 319 259 Q301 241 287 218 Q268 186 258.5 150 Q249 114 247 76 Q247 64 247 51.5 Q247 39 249 27 Q251 16 252 5.5 Q253 -5 255 -16 Q266 -68 285 -114 Q287 -119 289 -123 Q291 -127 293 -132 L294 -131 Q339 -107 377 -75 Q415 -43 446 1 Q483 52 499 112 Z " />
<glyph glyph-name="H" unicode="H" horiz-adv-x="640" d="M-39 -18 Q-38 -16 -38 -16 L-35 23 Q-30 54 -22 82 Q-11 114 3.5 143.5 Q18 173 38 199 Q67 237 102 265.5 Q137 294 179 314 Q203 326 228.5 334.5 Q254 343 280 349 Q307 356 338 361 Q340 362 340 364 Q341 373 342 382.5 Q343 392 344 402 Q346 431 345.5 459.5 Q345 488 342 517 Q339 546 333.5 574 Q328 602 317 629 Q311 645 303.5 659.5 Q296 674 285 687 Q256 722 215 729 Q190 732 166.5 728 Q143 724 120 714 Q73 693 39 654 Q26 640 15 624.5 Q4 609 -4 592 Q-14 572 -18 553 Q-20 546 -20 540 Q-20 534 -20 528 Q-20 525 -19 524 Q-19 521 -20 521 Q-23 521 -24 522 Q-26 528 -27 532 Q-29 543 -27.5 553.5 Q-26 564 -22 575 Q-7 622 28 659 Q70 705 122 727 Q159 741 194 740 Q256 739 299 688 Q313 671 322.5 652 Q332 633 340 612 Q348 589 353 565.5 Q358 542 361 517 Q364 495 365 474 Q366 453 365 431 Q364 415 363.5 399.5 Q363 384 361 367 L361 365 Q365 365 368 365.5 Q371 366 374 366 Q383 367 391.5 368 Q400 369 409 370 Q421 371 433.5 371.5 Q446 372 458 373 Q471 374 484 374.5 Q497 375 510 375 Q514 376 515 380 Q519 403 522.5 427 Q526 451 531 474 Q543 543 561 608 Q566 628 572 647 Q578 666 586 685 Q588 693 591.5 699.5 Q595 706 598 713 Q601 717 605 720 Q611 725 620 720 Q627 715 625 705 Q624 700 622 696.5 Q620 693 618 689 Q616 687 615 688 Q614 688 614 691 Q617 703 615 713 L615 714 Q612 712 610 709 Q605 702 602 694 Q599 686 596 678 Q592 666 588 653.5 Q584 641 581 628 Q570 591 563 555 Q558 535 554.5 515.5 Q551 496 547 476 Q543 456 540 436.5 Q537 417 534 397 Q533 392 532.5 387 Q532 382 531 377 L552 377 Q568 378 583.5 378.5 Q599 379 616 379 Q618 379 621 378.5 Q624 378 627 378 Q629 376 631 376 Q631 375 631.5 374.5 Q632 374 632 373 Q631 373 630.5 372.5 Q630 372 629 372 Q628 372 627 372.5 Q626 373 624 372 Q611 372 598 371.5 Q585 371 572 370 Q562 370 552.5 369.5 Q543 369 533 368 L530 368 L527 347 Q525 336 524.5 324 Q524 312 522 301 Q520 290 519.5 278 Q519 266 518 254 Q516 242 515.5 230 Q515 218 513 206 Q512 195 511.5 183 Q511 171 510 160 Q509 143 508 125.5 Q507 108 506 90 Q506 73 505.5 55.5 Q505 38 506 21 Q506 4 507 -12.5 Q508 -29 510 -46 Q511 -57 511.5 -68.5 Q512 -80 514 -92 Q520 -148 536 -197 Q542 -214 553 -230 Q553 -230 556 -233 Q557 -235 557 -235 Q557 -236 555 -238 Q552 -240 549 -237 Q543 -229 541 -225 Q536 -217 531 -209.5 Q526 -202 522 -193 Q518 -182 514.5 -170.5 Q511 -159 509 -148 Q500 -111 497 -73 Q492 -35 490.5 2 Q489 39 490 77 Q491 96 491 115 Q491 134 493 153 Q495 183 497.5 212.5 Q500 242 502 272 Q504 295 507 318.5 Q510 342 513 365 L513 367 Q510 367 506.5 366.5 Q503 366 499 366 L460 363 Q451 362 442 361.5 Q433 361 424 359 Q416 358 408 358 Q400 358 392 356 L362 353 Q360 353 359 350 Q338 181 264 25 Q248 -8 230 -39 Q212 -70 189 -99 Q175 -118 159 -134.5 Q143 -151 123 -165 Q100 -183 72 -189 Q23 -197 -6 -157 Q-17 -143 -23 -126.5 Q-29 -110 -33 -92 Q-35 -84 -35.5 -75 Q-36 -66 -38 -57 Q-38 -54 -38.5 -51 Q-39 -48 -39 -45 L-39 -18 Z M339 349 L336 349 Q319 345 303 342 Q287 339 271 334 Q241 326 212.5 314.5 Q184 303 157 287 Q94 250 50 193 Q30 167 16 138.5 Q2 110 -8 78 Q-16 55 -19.5 32 Q-23 9 -25 -15 Q-26 -45 -22 -76 Q-17 -104 -7 -129 Q-2 -140 5 -150 Q12 -160 21 -168 Q50 -190 84 -176 Q99 -171 111.5 -161.5 Q124 -152 135 -141 Q170 -106 198 -61 Q220 -26 238 10.5 Q256 47 271 85 Q294 143 310 202.5 Q326 262 335 325 Q336 331 336.5 337 Q337 343 339 349 Z " />
<glyph glyph-name="I" unicode="I" horiz-adv-x="307" d="M248 344 Q248 330 246.5 306.5 Q245 283 243 257 Q239 212 233 167.5 Q227 123 218 78 Q210 37 200 -3 Q190 -43 176 -82 Q168 -106 158 -129.5 Q148 -153 134 -175 Q126 -188 117 -199 Q108 -210 97 -219 Q90 -225 83 -229 Q76 -233 67 -234 Q42 -237 33 -212 Q28 -198 26 -181 Q25 -100 79 -39 Q89 -28 101 -20 Q113 -12 127 -7 Q139 -1 152 2 Q157 4 163 2 Q171 0 166 -9 Q166 -10 163 -10 Q162 -10 162 -7 Q164 0 158 -1 Q153 -3 148 -4.5 Q143 -6 138 -8 Q109 -20 89.5 -42 Q70 -64 56 -93 Q45 -119 40 -148 Q39 -153 38.5 -158.5 Q38 -164 38 -169 Q37 -187 43 -206 Q46 -217 52 -222 Q60 -230 69 -225 Q76 -223 84 -215 Q95 -206 102.5 -194.5 Q110 -183 118 -171 Q130 -150 139.5 -127 Q149 -104 157 -80 Q170 -44 179 -7.5 Q188 29 195 67 Q200 93 204 118 Q208 143 212 169 Q214 188 216 206 Q218 224 220 242 Q225 286 227 329 Q229 372 228 416 Q228 436 227 455.5 Q226 475 224 495 Q222 522 218 549 Q214 576 207 602 Q198 641 180 677 Q173 688 166 698.5 Q159 709 149 717 Q133 731 116.5 733 Q100 735 82 728 Q56 717 35 691 Q9 658 -5 612 Q-7 604 -8.5 595.5 Q-10 587 -9 578 Q-9 573 -8 568.5 Q-7 564 -3 560 Q-1 558 -4 558 L-9 558 Q-15 561 -18 569 Q-20 574 -20.5 579 Q-21 584 -21 589 Q-21 603 -17.5 615.5 Q-14 628 -9 640 Q-2 657 5.5 671 Q13 685 24 699 Q34 712 46 722 Q58 732 73 738 Q93 746 112 743 Q131 740 149 729 Q163 719 174 706 Q185 693 193 677 Q204 657 212 636.5 Q220 616 226 593 Q231 573 234.5 553 Q238 533 241 512 Q246 474 247.5 434 Q249 394 248 344 Z " />
<glyph glyph-name="J" unicode="J" horiz-adv-x="570" d="M-67 454 Q-67 459 -66 462 Q-63 491 -54.5 516.5 Q-46 542 -32 567 Q-8 611 25.5 644 Q59 677 101 701 Q147 728 199 737 Q233 743 269 740 Q375 729 446 648 Q471 620 487.5 587 Q504 554 514 517 Q519 497 522.5 476.5 Q526 456 528 435 Q530 415 530.5 394.5 Q531 374 530 354 Q528 324 524 294 Q520 264 514 234 Q497 154 468 82 Q457 53 443.5 26 Q430 -1 415 -27 Q414 -28 414 -28.5 Q414 -29 413 -30 L431 -48 Q435 -53 439 -57 Q443 -61 446 -66 Q448 -68 449 -71 Q450 -74 452 -77 Q453 -79 452 -80 Q451 -81 449 -80 Q445 -80 443 -78 Q436 -67 428 -59 Q420 -51 412 -43 Q411 -42 410.5 -41 Q410 -40 408 -39 L402 -48 Q377 -86 347.5 -119.5 Q318 -153 282 -181 Q240 -214 189 -232 Q162 -241 133 -244 Q129 -245 125.5 -245 Q122 -245 118 -246 L102 -246 Q99 -245 91 -245 Q63 -242 39 -231 Q15 -220 -5 -199 Q-40 -163 -47 -114 Q-53 -76 -40 -36 Q-27 5 -2.5 33 Q22 61 57 80 Q92 99 134 105 Q229 118 315 61 Q332 50 346.5 36.5 Q361 23 375 9 L399 -15 Q401 -17 401 -17 L410 -2 Q434 43 451.5 91 Q469 139 482 190 Q490 216 495 243 Q500 270 504 298 Q508 331 509.5 364 Q511 397 509 430 Q507 466 500.5 500.5 Q494 535 480 568 Q447 649 376 695 Q339 717 301 724 Q289 726 277.5 727 Q266 728 254 728 Q195 728 138 702 Q69 671 15 608 Q-23 563 -42 506 Q-46 495 -48.5 483.5 Q-51 472 -53 460 Q-54 452 -54.5 445 Q-55 438 -55 430 Q-54 418 -52 406.5 Q-50 395 -45 384 Q-41 378 -39 374 Q-41 371 -44 374 Q-51 378 -53 383 Q-58 389 -60.5 397 Q-63 405 -65 413 Q-66 417 -66 421 Q-66 425 -67 430 L-67 431 L-67 454 Z M396 -27 Q394 -24 393 -24 Q385 -16 377.5 -8.5 Q370 -1 362 6 Q343 24 322.5 40 Q302 56 279 68 Q240 90 195 95 Q182 96 170 96 Q158 96 145 94 Q109 89 76 73 Q17 45 -12 -13 Q-23 -34 -27.5 -56.5 Q-32 -79 -30 -103 Q-24 -164 19 -201 Q58 -232 110 -234 Q138 -235 168 -228 Q193 -221 215.5 -209.5 Q238 -198 260 -182 Q297 -155 327.5 -121 Q358 -87 384 -47 Q387 -42 390 -37 Q393 -32 396 -27 Z " />
<glyph glyph-name="K" unicode="K" horiz-adv-x="647" d="M621 698 Q621 693 621.5 689.5 Q622 686 621 681 Q621 658 618 634 Q617 597 606 561 Q601 544 595.5 528 Q590 512 583 495 Q565 451 542 410 Q519 369 493 329 Q450 263 401 205 Q393 194 384 184 Q375 174 366 163 Q364 161 364 159 Q360 142 356.5 124 Q353 106 349 89 L349 86 Q353 86 357 85.5 Q361 85 365 85 Q388 83 411 79.5 Q434 76 457 70 Q472 65 486 59 Q500 53 513 44 Q532 30 543.5 12.5 Q555 -5 562 -27 Q565 -36 566.5 -46 Q568 -56 570 -66 Q572 -85 572.5 -104 Q573 -123 572 -143 L569 -194 Q569 -202 569 -208.5 Q569 -215 571 -223 L571 -224 L569 -224 Q564 -225 562 -222 Q560 -219 560 -217 Q559 -215 559 -209 Q558 -189 558 -170 Q558 -151 558 -131 Q558 -99 555 -67 Q553 -52 549.5 -37 Q546 -22 540 -8 Q530 14 514 29 Q498 44 476 55 Q462 61 448.5 64.5 Q435 68 421 71 Q385 77 349 80 L347 80 Q346 75 344 67 Q333 29 319.5 -8.5 Q306 -46 289 -81 Q276 -107 261 -131 Q246 -155 226 -178 Q213 -193 197.5 -206.5 Q182 -220 164 -230 Q153 -235 142 -239 Q131 -243 119 -244 Q93 -247 76 -232 Q66 -222 64 -206 Q62 -191 65.5 -176.5 Q69 -162 75 -148 Q82 -131 91.5 -115.5 Q101 -100 112 -86 Q127 -66 144 -47.5 Q161 -29 178 -11 L272 83 Q274 85 276 86 Q275 86 275 87 L254 90 Q221 96 191 107 Q161 118 133 136 Q112 150 95 167.5 Q78 185 64 205 Q28 253 8 311 Q0 337 -5 367 Q-6 377 -7 386.5 Q-8 396 -9 406 L-9 438 Q-9 446 -8 454.5 Q-7 463 -6 471 Q-3 497 4 521.5 Q11 546 21 569 Q28 586 36.5 602.5 Q45 619 55 635 Q62 646 68.5 656.5 Q75 667 83 677 Q87 682 95.5 691 Q104 700 115.5 709.5 Q127 719 141.5 728 Q156 737 172 741 Q179 743 191 745 Q201 745 206 744 L209 744 Q241 740 268 719 Q285 706 297 690.5 Q309 675 319 658 Q331 638 339 616.5 Q347 595 354 572 Q361 546 366 519.5 Q371 493 374 466 Q379 431 380 396.5 Q381 362 380 327 Q379 293 376.5 259.5 Q374 226 369 192 L369 189 Q373 194 376.5 198.5 Q380 203 384 208 Q415 246 443 285 Q471 324 497 366 Q514 394 530 423 Q546 452 560 482 Q584 535 599 591 Q605 615 608 639 Q609 647 609.5 654.5 Q610 662 611 670 Q612 677 612 683.5 Q612 690 613 696 Q613 696 611 700 Q611 703 611 703 Q611 705 614 705 Q619 705 621 698 Z M320 56 Q322 62 323 68.5 Q324 75 326 81 Q325 82 324 82 Q317 83 311 83 Q305 83 298 84 Q293 85 288 80 Q263 55 238 30.5 Q213 6 187 -20 Q169 -38 151.5 -57 Q134 -76 119 -97 Q108 -112 98.5 -127.5 Q89 -143 83 -161 Q79 -172 77.5 -183 Q76 -194 78 -205 Q81 -220 93 -229 Q105 -238 120 -236 Q130 -235 139 -232 Q148 -229 157 -224 Q173 -215 186 -203 Q199 -191 210 -177 Q226 -158 239 -138 Q252 -118 263 -96 Q282 -60 295.5 -21.5 Q309 17 320 56 Z M328 88 Q330 99 332 109 Q334 119 336 129 L336 130 Q326 120 317 110.5 Q308 101 298 90 Q306 90 313 89.5 Q320 89 328 88 Z M356 298 Q357 316 357.5 332.5 Q358 349 358 359 Q358 389 357 411.5 Q356 434 354 456 Q351 482 347 507.5 Q343 533 338 559 Q333 582 326 604 Q319 626 309 647 Q301 664 290 679.5 Q279 695 265 708 Q255 718 244 723.5 Q233 729 221 732 Q194 738 171 730 Q148 722 128.5 707.5 Q109 693 95 676 Q81 659 72 646 Q55 620 42 590 Q28 561 19 530.5 Q10 500 7 468 Q4 451 4 436 L4 410 Q5 399 5.5 389.5 Q6 380 8 369 Q10 351 15 333 Q20 315 27 297 Q49 242 89 191 Q103 173 120 158 Q137 143 157 132 Q186 115 216 106 Q246 97 278 93 Q281 93 282 94 Q296 109 310.5 124 Q325 139 339 155 Q341 157 341 160 Q343 177 345.5 193.5 Q348 210 350 227 Q354 263 356 298 Z " />
<glyph glyph-name="L" unicode="L" horiz-adv-x="414" d="M663 -180 Q672 -199 655 -216 Q649 -224 636 -229 Q612 -240 588 -241 Q559 -244 531 -240.5 Q503 -237 475 -229 Q444 -221 415 -209.5 Q386 -198 358 -184 Q330 -169 302 -154 Q274 -139 246 -124 Q229 -115 212.5 -106.5 Q196 -98 178 -91 Q177 -91 176.5 -90.5 Q176 -90 175 -90 L166 -108 Q151 -141 130 -171 Q117 -189 102 -200 Q91 -207 80.5 -211 Q70 -215 57 -214 Q37 -212 21 -198.5 Q5 -185 1 -167 Q-2 -151 2.5 -137.5 Q7 -124 17 -113 Q38 -86 75 -75 Q114 -63 157 -73 Q159 -74 163 -74 Q165 -69 167 -63.5 Q169 -58 171 -53 Q208 52 231 156 Q245 216 255 274 Q258 291 261 307.5 Q264 324 266 341 Q270 369 272.5 396.5 Q275 424 276 452 Q277 472 277 490.5 Q277 509 277 529 Q276 558 272.5 587 Q269 616 260 645 Q255 660 249 674 Q243 688 232 701 Q219 719 201 727 Q175 736 151 727 Q137 723 125 716 Q113 709 102 700 Q85 686 72 670.5 Q59 655 48 638 Q21 599 7 557 Q4 547 2 536.5 Q0 526 -2 515 Q-5 495 -4 479 Q-3 471 -1.5 463 Q0 455 4 447 Q8 441 12 440 L13 439 L13 438 Q12 438 11 437.5 Q10 437 9 437 Q0 438 -7 447 Q-14 457 -16 471 Q-18 477 -18 482.5 Q-18 488 -19 493 L-19 495 L-19 504 Q-19 512 -18 516 Q-15 552 1 589 Q14 619 31.5 645.5 Q49 672 72 696 Q85 709 99.5 719 Q114 729 131 736 Q155 746 177 743 Q201 740 221 726 Q237 715 248.5 699.5 Q260 684 268 667 Q282 635 290 595 Q296 561 298 527 Q300 493 299 458 Q298 426 295.5 394.5 Q293 363 288 331 Q273 224 246 121 Q235 80 222.5 40 Q210 0 195 -39 Q192 -49 188 -58.5 Q184 -68 180 -77 L180 -79 Q185 -81 190.5 -83 Q196 -85 201 -87 Q221 -95 240.5 -105 Q260 -115 280 -126 Q306 -140 332.5 -154.5 Q359 -169 386 -182 Q410 -193 435.5 -203 Q461 -213 487 -221 Q501 -225 515.5 -227.5 Q530 -230 545 -232 Q564 -235 585 -233 Q609 -232 630 -221 Q637 -217 642.5 -212.5 Q648 -208 650 -201 Q657 -186 649 -174 Q646 -169 641 -166 Q641 -164 643 -164 Q645 -164 648 -165 Q649 -165 649 -165.5 Q649 -166 650 -166 Q651 -167 651.5 -167 Q652 -167 653 -168 L655 -170 L657 -172 Q659 -174 659 -174 Q660 -175 660 -175.5 Q660 -176 661 -177 Q661 -178 663 -180 Z M145 -118 Q149 -110 152.5 -101.5 Q156 -93 159 -85 Q149 -82 139.5 -80 Q130 -78 120 -78 Q99 -78 77 -86 Q61 -92 48 -101.5 Q35 -111 25 -125 Q13 -145 16 -164 Q19 -185 38 -199 Q52 -208 67 -207 Q78 -206 92 -197 Q105 -187 116 -171 Q125 -159 132 -145.5 Q139 -132 145 -118 Z " />
<glyph glyph-name="M" unicode="M" horiz-adv-x="587" d="M593 696 Q602 692 602 682 Q602 674 601.5 666.5 Q601 659 601 651 Q597 631 593 613 Q589 595 584 576 Q576 543 567.5 509.5 Q559 476 551 442 Q543 405 534 368 Q525 331 517 294 Q507 249 499.5 204 Q492 159 486 114 Q482 84 479.5 54 Q477 24 475 -6 Q473 -41 475 -77 Q477 -90 478 -102.5 Q479 -115 481 -128 Q483 -145 487.5 -161 Q492 -177 499 -193 Q504 -201 508.5 -208 Q513 -215 520 -221 L526 -227 Q534 -231 538 -232 L539 -232 Q548 -235 560 -232 Q571 -229 582 -220 Q593 -211 601 -202 Q611 -191 620 -179 Q625 -183 621 -190 Q615 -198 608.5 -205.5 Q602 -213 594 -219 Q587 -226 579.5 -231.5 Q572 -237 561 -239 Q525 -250 497 -213 Q483 -195 477 -173 Q469 -152 465.5 -131 Q462 -110 460 -89 Q454 -25 460 37 Q465 103 474.5 167.5 Q484 232 497 295 Q508 349 521 401.5 Q534 454 548 508 L578 631 Q580 643 582.5 655 Q585 667 585 679 Q586 681 585.5 682 Q585 683 585 684 Q586 685 586 686 Q582 684 579.5 681 Q577 678 575 676 Q565 665 557 654 Q549 643 541 632 Q524 606 509 579 Q494 552 480 524 Q461 490 446.5 455.5 Q432 421 418 386 Q401 346 387 306.5 Q373 267 361 225 Q347 177 337 131 Q329 97 321.5 63 Q314 29 307 -6 Q305 -14 303.5 -22 Q302 -30 300 -38 Q300 -40 298 -44 Q295 -51 287 -49 Q284 -49 280 -45 Q280 -41 279 -38 Q278 -35 277 -32 Q274 -15 272 1.5 Q270 18 269 35 Q266 80 267 123.5 Q268 167 271 211 Q275 258 282 303.5 Q289 349 299 395 Q307 445 318.5 494 Q330 543 341 592 Q346 613 349.5 633.5 Q353 654 356 676 Q356 682 357 687.5 Q358 693 356 699 L356 703 Q355 702 354.5 702 Q354 702 353 701 Q347 696 341 689 Q335 682 330 674 Q312 648 297.5 621 Q283 594 269 566 Q249 523 232 479.5 Q215 436 200 391 Q189 358 179.5 324 Q170 290 162 256 Q151 214 142.5 172 Q134 130 128 87 Q125 77 123.5 67 Q122 57 119 47 Q117 43 117 41 Q115 33 105 36 Q99 37 98 43 Q98 48 97.5 54 Q97 60 97 65 Q95 77 94.5 89 Q94 101 94 113 Q95 131 95 148.5 Q95 166 95 184 Q99 230 103.5 275 Q108 320 113 365 Q120 407 124.5 449 Q129 491 134 534 Q136 555 137 576.5 Q138 598 138 620 Q138 636 137 652 Q136 668 132 684 Q132 692 129 700 Q126 708 122 716 Q121 718 121 719 Q121 720 120 721 Q110 734 95 734 Q84 734 76.5 731.5 Q69 729 60 724 Q43 716 30.5 704.5 Q18 693 7 679 Q-8 659 -20 636.5 Q-32 614 -40 588 Q-45 572 -48.5 556 Q-52 540 -53 523 Q-55 511 -53 500 Q-53 495 -52 489 Q-51 483 -52 478 Q-49 470 -46.5 463 Q-44 456 -40 448 Q-38 445 -32 439 Q-33 438 -36 439 Q-41 440 -44 443 Q-47 446 -50 450 Q-57 464 -61 477 Q-63 482 -63 485.5 Q-63 489 -64 494 Q-66 505 -65.5 516.5 Q-65 528 -65 539 Q-61 571 -51 600.5 Q-41 630 -25 656 Q-11 679 4.5 697.5 Q20 716 42 730 Q55 739 74 744 Q94 748 111.5 738.5 Q129 729 139 710 Q146 698 148.5 685.5 Q151 673 153 659 Q156 636 156.5 613 Q157 590 156 567 Q153 526 149.5 487 Q146 448 141 409 Q136 371 132 334.5 Q128 298 123 260 Q119 228 117 195 Q115 162 113 129 Q111 118 112 108 Q113 98 112 87 Q112 86 113 85 Q113 93 114 97 Q124 154 136 209.5 Q148 265 164 320 Q175 362 188.5 402.5 Q202 443 217 484 Q234 524 252 562 Q270 600 290 637 Q299 652 308 666.5 Q317 681 328 694 Q334 704 343 712 Q352 718 361 712 Q371 707 371 697 Q373 689 373 682 Q373 675 371 668 Q369 647 366 626.5 Q363 606 358 586 Q348 541 338.5 496.5 Q329 452 320 407 Q313 369 307 331 Q301 293 296 255 Q287 192 284 128 Q284 105 283 82.5 Q282 60 284 37 Q284 21 285 5.5 Q286 -10 289 -26 Q290 -27 290 -29 Q291 -27 291 -23 Q295 -1 299 20 Q303 41 308 63 Q313 98 321.5 132 Q330 166 339 201 Q348 236 359.5 269.5 Q371 303 382 337 Q394 370 407.5 402 Q421 434 435 465 Q450 501 468 535.5 Q486 570 506 603 Q517 622 529 640 Q541 658 555 675 Q559 681 564 686.5 Q569 692 574 697 Q584 704 593 696 Z " />
<glyph glyph-name="N" unicode="N" horiz-adv-x="567" d="M585 -210 Q587 -212 588 -214 Q591 -219 588 -222 Q575 -235 558 -239 Q524 -248 495 -220 Q484 -211 477 -200 Q470 -189 464 -178 Q458 -166 454.5 -154 Q451 -142 447 -130 Q443 -113 440.5 -95.5 Q438 -78 436 -61 Q433 -10 436 41 Q440 92 446.5 142 Q453 192 462 242 Q470 284 478.5 324.5 Q487 365 498 407 Q506 442 515 475.5 Q524 509 532 544 Q540 570 547.5 596.5 Q555 623 560 649 Q562 660 563 670.5 Q564 681 564 692 Q564 697 562 707 Q562 710 558 709 Q552 707 547 704.5 Q542 702 537 699 Q526 691 517 681.5 Q508 672 500 662 Q488 649 478.5 635.5 Q469 622 458 608 Q437 576 419 544 Q401 512 384 477 Q372 452 360.5 426.5 Q349 401 339 375 Q328 347 318 319 Q308 291 299 262 Q289 230 279 197.5 Q269 165 261 132 Q256 109 250.5 86 Q245 63 240 40 Q234 9 227.5 -22 Q221 -53 215 -85 Q213 -96 210.5 -106 Q208 -116 205 -127 Q205 -129 204 -132 Q203 -135 200 -136 Q195 -138 191 -136 Q186 -136 186 -130 Q183 -118 186 -106 Q188 -66 191.5 -26.5 Q195 13 200 52 Q215 175 233 298 Q245 388 254 478 Q256 507 258 535 Q260 563 261 592 Q261 612 259 631.5 Q257 651 254 671 Q251 691 242 709 Q235 722 227 727 Q217 735 203 733 Q191 733 181.5 729 Q172 725 162 719 Q145 709 131 695.5 Q117 682 105 665 Q90 645 79.5 623 Q69 601 61 577 Q50 543 47 511 Q45 503 45.5 494.5 Q46 486 46 478 Q45 469 46.5 460 Q48 451 50 441 Q54 427 59.5 413.5 Q65 400 73 387 Q75 385 77 383 Q79 381 81 379 Q81 379 82 378 Q81 377 79 377 Q74 378 72 380 Q70 382 67 385 Q52 400 44 423 L35 453 L35 455 Q35 459 34 462.5 Q33 466 33 471 Q32 474 32 481 Q28 518 37 554 Q58 650 124 713 Q146 733 173 742 Q185 745 197.5 744.5 Q210 744 224 738 Q248 727 261 699 Q266 687 269 674.5 Q272 662 274 650 Q277 633 278 616 Q279 599 279 582 Q280 535 275.5 489.5 Q271 444 266 398 Q260 352 254.5 306.5 Q249 261 242 216 Q234 162 227.5 110 Q221 58 215 4 Q213 -4 212.5 -12 Q212 -20 210 -28 Q210 -29 211 -30 Q211 -25 212 -21.5 Q213 -18 213 -13 Q218 7 222 27 Q226 47 231 67 Q237 93 243 117.5 Q249 142 255 167 Q267 212 280.5 255 Q294 298 310 340 Q318 366 328 391 Q338 416 349 441 Q361 465 372 489 Q383 513 397 537 Q417 575 444 614 Q455 631 467.5 647.5 Q480 664 494 680 Q511 700 532 714 Q536 716 539.5 718 Q543 720 548 720 Q558 722 566.5 716 Q575 710 578 701 Q582 688 580 671 Q579 651 575.5 632 Q572 613 567 594 Q561 568 554.5 542 Q548 516 541 490 Q527 437 514 384 Q501 331 490 277 Q483 244 477.5 211.5 Q472 179 467 145 Q462 107 458.5 69 Q455 31 455 -8 Q456 -32 456.5 -56.5 Q457 -81 462 -106 Q464 -124 469 -142 Q474 -160 481 -177 Q486 -188 492.5 -197.5 Q499 -207 507 -215 Q515 -222 522.5 -226.5 Q530 -231 540 -233 Q550 -235 558 -230 Q566 -226 572.5 -221 Q579 -216 585 -210 Z " />
<glyph glyph-name="O" unicode="O" horiz-adv-x="627" d="M222 272 Q220 267 219.5 261 Q219 255 218 249 Q215 232 221 215 Q230 194 250 193 Q272 193 292 204 Q322 221 343 244 Q366 267 382.5 294 Q399 321 412 351 Q430 392 436 436 Q439 457 438.5 478 Q438 499 435 520 Q433 535 429 549 Q425 563 417 577 Q400 609 369 617 Q358 620 347.5 620 Q337 620 326 618 Q306 614 288.5 605 Q271 596 254 584 Q233 570 216.5 553 Q200 536 184 517 Q170 499 157.5 480.5 Q145 462 134 442 Q119 415 106.5 386 Q94 357 83 327 Q53 240 44 145 Q42 125 42 104.5 Q42 84 42 64 Q42 22 48 -18 Q53 -44 59.5 -69 Q66 -94 77 -119 Q87 -141 99.5 -160.5 Q112 -180 129 -197 Q160 -225 197 -232 Q212 -235 231 -233 Q255 -230 275.5 -221 Q296 -212 314 -198 Q337 -182 356 -163 Q375 -144 392 -121 Q415 -91 434 -59 Q453 -27 470 8 Q493 59 511.5 111.5 Q530 164 543 220 Q560 293 563 363 Q565 393 563.5 422.5 Q562 452 557 482 Q550 520 538 556 Q526 592 504 627 Q493 644 480.5 659.5 Q468 675 452 688 Q416 718 372 728 Q336 736 304 733 Q264 729 230 716 Q196 703 165 681 Q148 669 134 656 Q120 643 108 627 Q62 568 47 498 Q45 487 44 477 Q43 467 43 456 Q43 442 44.5 429 Q46 416 51 403 Q54 394 59 392 Q60 391 60 390 L59 389 Q56 389 55 390 Q46 393 42 404 Q37 412 35 424 Q33 432 32 438.5 Q31 445 30 453 Q29 464 30 474.5 Q31 485 33 496 Q47 580 98 640 Q155 709 243 736 Q281 748 327 746 Q372 743 412 724 Q452 705 485 670 Q506 647 521 621.5 Q536 596 548 568 Q557 548 563 527 Q569 506 574 485 Q580 446 583 411 Q585 377 583.5 344 Q582 311 577 279 Q570 233 558.5 189 Q547 145 532 103 Q516 59 497 18 Q478 -23 455 -62 Q438 -91 418 -117.5 Q398 -144 374 -167 Q355 -185 334.5 -200 Q314 -215 290 -226 Q266 -237 245 -240 Q222 -244 198.5 -241 Q175 -238 152 -227 Q133 -217 118 -202.5 Q103 -188 90 -171 Q76 -153 66.5 -133 Q57 -113 50 -92 Q42 -69 37.5 -46 Q33 -23 29 0 Q20 77 27 147 Q30 189 38 229 Q46 269 57 307 Q66 339 78 368 Q90 397 104 426 Q111 441 119 455 Q127 469 136 483 Q157 515 181.5 542.5 Q206 570 235 593 Q265 616 298 628 Q322 635 346 634 Q373 631 396 615 Q426 592 440 553 Q447 536 450 519 Q453 502 455 484 Q457 429 442 381 Q430 339 409 304 Q390 271 362 241 Q348 227 333 214.5 Q318 202 299 194 Q279 185 256 185 Q249 186 242.5 187.5 Q236 189 229 193 Q211 205 208 226 Q206 235 207.5 243.5 Q209 252 210 260 Q212 265 212.5 268.5 Q213 272 215 276 Q217 280 221 279.5 Q225 279 227 275 Q227 275 227 271 L223 271 Q223 272 222 272 Z " />
<glyph glyph-name="P" unicode="P" horiz-adv-x="703" d="M-27 486 L-26 487 Q-28 501 -27.5 513.5 Q-27 526 -25 539 Q-20 579 -7 615 Q21 686 78 724 Q91 733 105.5 738.5 Q120 744 137 745 Q208 753 261 692 Q292 657 312 610 Q326 578 337 542 Q337 541 338 540 Q338 539 339 539 Q339 541 340 542 Q360 567 381.5 589 Q403 611 428 630 Q445 643 462.5 652.5 Q480 662 501 667 Q524 673 547 672 Q603 668 643 617 Q667 587 678 548 Q684 529 687 510.5 Q690 492 692 472 Q696 390 675 310 Q666 274 651.5 240.5 Q637 207 617 177 Q587 128 541 94 Q514 75 485 69 Q475 67 465.5 67 Q456 67 445 71 Q437 73 430.5 78 Q424 83 418 88 Q413 91 410.5 94 Q408 97 404 101 Q400 105 400 110 Q402 118 407 115 Q407 113 406.5 111.5 Q406 110 406 108 Q406 107 407 106 Q408 105 409 103 Q418 94 427 88 Q446 74 465 75 Q471 76 477 76.5 Q483 77 488 79 Q505 83 518.5 91.5 Q532 100 544 111 Q595 155 626 223 Q666 309 672 411 Q674 437 672.5 461.5 Q671 486 667 512 Q663 533 657.5 553 Q652 573 642 592 Q633 612 617 628 Q587 661 544 661 Q527 660 512.5 656 Q498 652 484 645 Q463 634 444.5 620.5 Q426 607 408 591 Q391 575 375 557 Q359 539 345 520 Q344 519 344 515 Q352 480 357.5 445.5 Q363 411 366 376 Q369 335 369 297 Q371 160 342 29 Q334 -13 321.5 -52 Q309 -91 292 -129 Q277 -168 253 -200 Q242 -217 222 -230 Q215 -234 208.5 -236.5 Q202 -239 194 -238 Q184 -237 176.5 -231.5 Q169 -226 163 -218 Q156 -207 152 -195.5 Q148 -184 145 -173 Q142 -158 140.5 -142.5 Q139 -127 137 -112 Q135 -81 137 -49 Q140 20 152 88 Q160 136 171.5 181.5 Q183 227 199 272 Q214 320 234 363.5 Q254 407 277 449 Q288 466 298.5 483 Q309 500 321 516 Q323 518 322.5 519 Q322 520 322 522 Q314 551 305 578.5 Q296 606 283 632 Q275 649 265.5 664 Q256 679 244 693 Q230 709 215.5 719 Q201 729 182 733 Q163 738 146.5 736 Q130 734 114 728 Q97 721 82.5 710.5 Q68 700 55 687 Q30 661 15 629 Q0 597 -8 560 Q-13 537 -15 508 Q-16 485 -13 457 Q-11 449 -8.5 441.5 Q-6 434 -4 426 Q-4 425 0 421 Q-1 418 -5 420 Q-7 422 -11 427 Q-14 432 -16.5 438.5 Q-19 445 -21 451 L-24 469 L-25 470 Q-26 474 -26 478 Q-26 482 -27 486 Z M328 496 Q326 494 326 493.5 Q326 493 325 492 Q311 470 297 447.5 Q283 425 271 401 Q218 297 188 181 Q177 139 169 96.5 Q161 54 156 9 Q153 -19 151.5 -46 Q150 -73 151 -101 Q152 -118 153.5 -135.5 Q155 -153 160 -170 Q165 -192 175 -209 Q183 -221 194 -225.5 Q205 -230 217 -222 Q224 -218 228.5 -212.5 Q233 -207 238 -201 Q249 -188 256 -174.5 Q263 -161 271 -146 Q286 -114 297.5 -80 Q309 -46 317 -11 Q335 67 343.5 146 Q352 225 350 307 Q349 330 347.5 352 Q346 374 343 397 Q338 437 331 478 Q330 483 329.5 487 Q329 491 328 496 Z " />
<glyph glyph-name="Q" unicode="Q" horiz-adv-x="523" d="M448 596 Q470 545 477 495 Q485 448 484 403 Q483 358 477 313 Q462 176 404 52 Q375 -11 332 -61 Q316 -79 298 -94.5 Q280 -110 257 -121 Q249 -126 240.5 -129 Q232 -132 224 -136 Q228 -147 233 -158.5 Q238 -170 246 -181 Q276 -224 328 -232 Q333 -233 342 -233 Q364 -234 383.5 -225.5 Q403 -217 420 -206 Q424 -203 428 -200 Q432 -197 435 -194 Q442 -189 448 -183.5 Q454 -178 458 -174 L466 -166 Q467 -167 468 -169 Q470 -173 468 -175 L468 -176 Q458 -186 447.5 -194.5 Q437 -203 426 -211 Q425 -211 424 -212 Q419 -216 413 -219 Q407 -222 401 -225 Q391 -230 380 -234.5 Q369 -239 358 -241 Q345 -243 331.5 -243 Q318 -243 303 -239 Q291 -236 278 -230 Q265 -224 254 -215 Q224 -191 208 -157 Q206 -152 204.5 -148 Q203 -144 201 -139 L195 -139 Q144 -142 103 -100 Q89 -86 78.5 -69 Q68 -52 60 -33 Q49 -8 43 16.5 Q37 41 33 67 Q29 97 27 126.5 Q25 156 27 185 Q30 210 33 234 Q36 258 41 281 Q56 341 84 392 Q97 415 111.5 436.5 Q126 458 146 476 Q158 487 171.5 496.5 Q185 506 201 511 Q226 520 254 510 Q291 497 302 457 Q307 443 307 429.5 Q307 416 306 402 Q304 380 299 360 Q294 340 288 320 Q277 285 267.5 251.5 Q258 218 247 183 Q237 148 229 112 Q221 76 216 39 Q214 18 212 -3.5 Q210 -25 210 -47 Q211 -65 212.5 -83.5 Q214 -102 219 -120 Q219 -122 221 -124 Q223 -123 225 -122.5 Q227 -122 229 -121 Q247 -115 261.5 -105 Q276 -95 289 -83 Q310 -63 328 -38.5 Q346 -14 360 12 Q380 50 396.5 91 Q413 132 424 177 Q451 273 457 377 Q458 396 457 414.5 Q456 433 455 453 Q453 474 451 495.5 Q449 517 444 538 Q439 562 431 585.5 Q423 609 410 632 Q394 658 374 678 Q354 698 328 711 Q317 717 305 720 Q293 723 281 725 Q249 729 222.5 722 Q196 715 171 701 Q126 673 98 633 Q66 589 50 539 Q45 521 41.5 502.5 Q38 484 37 464 Q36 453 36 442.5 Q36 432 38 421 Q38 417 39 416 Q39 413 39 413 Q38 411 36 412.5 Q34 414 33 416 Q32 419 31 422 Q30 425 30 428 Q29 433 28.5 438 Q28 443 27 448 Q26 468 29 491 Q31 507 34 522.5 Q37 538 42 553 Q51 583 65 610.5 Q79 638 99 661 Q119 684 143 701.5 Q167 719 196 729 Q226 741 261 739 Q329 734 382 687 Q404 667 420 644.5 Q436 622 448 596 Z M189 -81 Q187 -58 186.5 -35.5 Q186 -13 188 9 Q190 43 196.5 75 Q203 107 210 139 Q219 176 229.5 212 Q240 248 251 284 Q259 310 265.5 335.5 Q272 361 277 388 Q281 404 282.5 420 Q284 436 281 453 Q281 469 272 484 Q264 496 251 499 Q242 502 231 500 Q220 498 209.5 494 Q199 490 189 485 Q170 473 154.5 457 Q139 441 126 423 Q101 390 85 352.5 Q69 315 58 273 Q54 254 51 235 Q48 216 46 196 Q44 171 43.5 146.5 Q43 122 45 96 Q48 69 54 40 Q57 26 61 11 Q65 -4 71 -18 Q79 -35 87 -51 Q95 -67 108 -82 Q122 -99 139 -111 Q156 -123 178 -127 Q183 -128 188 -128 Q193 -128 198 -128 Q191 -104 189 -81 Z " />
<glyph glyph-name="S" unicode="S" horiz-adv-x="560" d="M482 222 Q493 197 497.5 171.5 Q502 146 500 118 Q497 59 472 4 Q435 -77 381 -132 Q327 -187 255 -219 Q240 -226 224 -229.5 Q208 -233 191 -235 Q154 -238 122 -222 Q97 -210 82 -188 Q67 -166 60 -137 Q55 -117 54 -98 Q53 -79 55 -59 Q58 -22 68 12.5 Q78 47 92 80 Q125 153 174 211 Q190 230 207 246 Q224 262 244 275 Q257 284 270.5 290.5 Q284 297 299 300 Q310 302 320 300.5 Q330 299 340 294 Q368 277 373 240 Q375 225 373.5 210.5 Q372 196 369 182 Q364 163 357 146.5 Q350 130 341 113 Q330 92 318 72.5 Q306 53 293 33 Q276 9 257 -14 Q238 -37 218 -58 Q214 -63 210 -66.5 Q206 -70 201 -75 Q197 -77 195 -74 Q195 -72 196 -71 Q201 -62 207 -55 Q267 18 315 104 Q337 140 350 179 Q358 203 360 231 Q360 251 353 268 Q346 283 331 286 Q319 288 308 285.5 Q297 283 286 278 Q268 270 251.5 258 Q235 246 220 232 Q196 209 176.5 183 Q157 157 140 128 Q126 104 114 79 Q102 54 94 26 Q75 -28 74 -83 Q74 -105 77 -126.5 Q80 -148 90 -168 Q111 -212 156 -220 Q173 -222 189.5 -219 Q206 -216 222 -211 Q250 -201 274.5 -186.5 Q299 -172 323 -153 Q357 -126 385 -93 Q413 -60 436 -19 Q467 38 477 102 Q485 143 478 181 Q474 205 464.5 225.5 Q455 246 441 264 Q427 281 411 294.5 Q395 308 378 320 Q358 334 337 346.5 Q316 359 294 371 L267 386 Q265 388 263 386 Q233 364 203 341.5 Q173 319 144 296 Q119 275 95.5 253 Q72 231 50 205 Q30 182 12.5 157 Q-5 132 -19 103 Q-39 61 -50 12 Q-53 -3 -54.5 -18 Q-56 -33 -57 -49 Q-58 -81 -52 -112 Q-46 -143 -31 -171 Q-15 -198 0 -220 Q5 -225 8.5 -231 Q12 -237 17 -242 Q11 -243 8.5 -241.5 Q6 -240 5 -239 Q3 -237 2 -235 Q-11 -218 -23 -201 Q-35 -184 -46 -165 Q-66 -127 -71 -80 Q-73 -65 -73 -49.5 Q-73 -34 -72 -18 Q-66 40 -45 92 Q-34 118 -20.5 142 Q-7 166 9 188 Q28 213 48.5 235 Q69 257 91 278 Q121 307 153 332 Q185 357 218 381 Q225 386 231 390.5 Q237 395 244 400 Q231 408 219 416.5 Q207 425 196 435 Q183 446 171.5 459 Q160 472 152 489 Q144 505 139.5 522 Q135 539 137 558 Q140 591 157 621 Q165 636 175.5 648.5 Q186 661 198 672 Q229 700 264 716 Q299 732 337 739 Q353 742 368.5 742.5 Q384 743 401 741 Q418 738 434 732.5 Q450 727 465 716 Q475 708 482.5 697.5 Q490 687 495 673 Q500 656 498.5 641 Q497 626 492 610 Q487 596 479 583 Q471 570 462 558 Q451 543 439 530 Q427 517 414 505 Q387 479 358 457 Q329 435 300 413 Q295 408 289.5 404.5 Q284 401 279 397 Q278 397 276 395 Q278 393 280 392.5 Q282 392 284 390 Q305 378 326.5 366.5 Q348 355 369 342 Q408 318 441 282 Q467 256 482 222 Z M257 409 Q267 417 276.5 423.5 Q286 430 296 438 Q322 457 347 476.5 Q372 496 395 518 Q409 531 422.5 544.5 Q436 558 448 574 Q457 586 465.5 599 Q474 612 479 627 Q483 636 485 645.5 Q487 655 485 666 Q484 676 479.5 683.5 Q475 691 468 697 Q448 714 420 719 Q386 726 352 722 Q293 713 243 682 Q223 669 206.5 653 Q190 637 176 616 Q155 584 154 549 Q153 527 159 508 Q164 491 173 478 Q182 465 193 454 Q207 440 222 429.5 Q237 419 253 409 Q253 409 257 409 Z " />
<glyph glyph-name="T" unicode="T" horiz-adv-x="223" d="M533 693 Q550 672 551 647 Q549 624 540 609 Q528 584 500 568 Q482 557 463.5 550 Q445 543 425 538 Q380 527 333 526 Q314 525 295.5 525.5 Q277 526 260 528 Q246 529 232.5 530 Q219 531 206 533 Q202 533 201 530 Q184 494 173.5 456 Q163 418 153 378 Q146 340 139.5 302 Q133 264 129 225 Q124 185 119.5 145.5 Q115 106 110 66 Q105 27 99 -11 Q93 -49 82 -87 Q69 -139 41 -189 Q33 -203 25 -214 Q7 -234 -5.5 -235.5 Q-18 -237 -19 -237 Q-24 -236 -22 -231 Q-18 -227 -15 -230 Q-13 -233 -10 -230 Q-7 -228 -5 -226 Q-3 -224 0 -222 Q10 -212 16.5 -200.5 Q23 -189 28 -177 Q39 -155 46.5 -131 Q54 -107 61 -83 Q69 -48 74.5 -13 Q80 22 85 58 Q90 102 94.5 145.5 Q99 189 104 233 Q110 289 120 343 Q130 397 147 450 Q154 472 161 493 Q168 514 177 534 Q177 534 179 536 Q174 537 171 537.5 Q168 538 165 538 Q142 543 119 546.5 Q96 550 73 555 Q36 563 -0.5 571.5 Q-37 580 -75 588 Q-94 592 -112.5 595.5 Q-131 599 -150 602 Q-183 607 -216 605 Q-238 604 -258.5 599.5 Q-279 595 -296 584 Q-337 561 -353 519 Q-362 501 -360 479 Q-361 419 -309 384 Q-295 375 -280 371.5 Q-265 368 -250 369 Q-248 369 -247 369.5 Q-246 370 -244 369 Q-243 369 -242.5 368.5 Q-242 368 -241 368 Q-242 367 -243 367 Q-244 367 -244 366 Q-250 365 -255.5 364.5 Q-261 364 -266 365 Q-287 366 -306 375 Q-325 384 -340 399 Q-353 412 -362 427.5 Q-371 443 -374 461 Q-374 463 -375 464 Q-376 466 -375.5 468 Q-375 470 -375 472 Q-375 476 -375.5 479 Q-376 482 -375 486 Q-374 499 -371 511 Q-368 523 -363 534 Q-348 564 -324.5 582.5 Q-301 601 -270 610 Q-251 615 -232 616.5 Q-213 618 -193 617 Q-166 615 -140 611 Q-114 607 -86 601 Q-53 594 -20 587 Q13 580 47 573 Q68 568 90 564 Q112 560 135 556 Q146 554 158 552.5 Q170 551 182 549 Q184 549 185 551 Q192 565 199 578.5 Q206 592 214 606 Q232 634 252.5 658 Q273 682 300 701 Q340 731 392 740 Q413 743 434 742 Q455 741 477 733 Q509 721 533 693 Z M533 642 Q538 659 533 672 Q531 683 524 690.5 Q517 698 509 704 Q494 715 477 720 Q460 725 442 726 Q392 729 345 704 Q317 690 295 669.5 Q273 649 255 624 Q230 592 214 556 Q212 554 211 551.5 Q210 549 208 546 Q222 544 235.5 543.5 Q249 543 263 542 Q313 539 361 545 Q397 548 435 559 Q456 566 475.5 575.5 Q495 585 512 602 Q520 610 525.5 620 Q531 630 533 642 Z " />
<glyph glyph-name="U" unicode="U" horiz-adv-x="585" d="M-98 485 Q-100 491 -98 497 Q-100 517 -97 535.5 Q-94 554 -89 572 Q-54 688 50 734 Q64 740 79.5 743.5 Q95 747 112 746 Q132 745 150 739.5 Q168 734 185 721 Q201 709 211 692 Q221 675 228 655 Q233 639 234.5 623 Q236 607 237 590 Q238 555 235 520.5 Q232 486 226 451 Q220 411 213.5 371.5 Q207 332 200 292 Q192 247 184.5 202 Q177 157 172 111 Q167 78 165 44.5 Q163 11 161 -23 Q159 -73 164 -123 Q166 -140 170 -156.5 Q174 -173 181 -189 Q188 -207 199 -217 Q205 -223 208 -225 Q218 -231 228 -225 Q232 -222 236.5 -219 Q241 -216 245 -212 Q256 -200 265 -186.5 Q274 -173 282 -158 Q295 -135 305.5 -111 Q316 -87 326 -62 Q338 -29 349 4 Q360 37 372 70 Q389 117 405 163.5 Q421 210 437 257 Q447 286 457.5 315.5 Q468 345 478 375 Q492 414 505.5 453.5 Q519 493 533 533 Q544 562 553.5 591.5 Q563 621 574 650 Q578 661 581.5 671.5 Q585 682 589 693 Q592 700 598 697 Q599 697 599.5 696.5 Q600 696 601 696 Q610 691 609 681 Q607 670 604.5 660.5 Q602 651 599 640 Q588 602 578 563 Q568 524 558 485 Q546 442 535 399.5 Q524 357 515 313 Q501 247 490 182 Q479 117 471 49 Q468 17 466.5 -14 Q465 -45 467 -77 Q467 -117 476 -156 Q480 -169 484.5 -180 Q489 -191 497 -202 Q502 -210 513 -217 Q520 -222 530 -219 Q538 -216 543 -211 Q548 -206 553 -201 Q575 -171 578 -136 Q581 -116 570 -97 Q567 -93 563 -85 Q561 -82 563 -81 Q567 -80 571 -83 Q576 -91 581 -99 Q586 -107 589 -117 Q592 -128 590 -142 Q587 -178 567 -206 Q561 -214 554 -220 Q547 -226 537 -228 Q508 -237 483 -210 Q466 -190 458 -161 Q453 -144 450.5 -128 Q448 -112 446 -96 Q444 -72 443.5 -48 Q443 -24 445 -1 Q449 57 456.5 113 Q464 169 474 226 Q483 279 494.5 330 Q506 381 520 432 Q520 436 521 439.5 Q522 443 523 447 L523 449 Q521 444 520 440.5 Q519 437 517 432 Q509 410 502 389 Q495 368 487 346 Q470 296 453.5 247 Q437 198 420 147 Q402 93 383.5 39 Q365 -15 344 -69 Q333 -95 322 -120.5 Q311 -146 297 -170 Q288 -184 278.5 -197 Q269 -210 258 -221 Q250 -229 241.5 -234 Q233 -239 222 -241 Q191 -247 170 -215 Q158 -194 152 -170 Q146 -148 143 -126.5 Q140 -105 138 -82 Q136 -40 138 0.5 Q140 41 145 83 Q150 136 158 187.5 Q166 239 175 291 Q183 333 189 374.5 Q195 416 203 458 Q208 484 210.5 511 Q213 538 214 565 Q215 583 214.5 600.5 Q214 618 212 636 Q210 648 206.5 660 Q203 672 197 684 Q179 721 141 729 Q121 733 101.5 730 Q82 727 64 719 Q-3 691 -42 629 Q-56 606 -65.5 581.5 Q-75 557 -78 529 Q-84 490 -77 454 Q-74 436 -68 419 Q-62 402 -51 387 Q-34 362 -9 354 Q5 350 15 354 Q17 354 18 355 Q19 356 21 357 Q23 359 26 357 Q26 353 22 351 Q12 342 -3 344 Q-18 345 -30.5 352 Q-43 359 -55 370 Q-75 391 -86 425 Q-90 436 -93 448 Q-96 460 -97 472 L-97 476 Q-98 479 -98 485 Z " />
<glyph glyph-name="V" unicode="V" horiz-adv-x="460" d="M71 742 Q76 741 79.5 740.5 Q83 740 87 739 Q110 734 128 719 Q154 697 166 661 Q176 633 178 603 Q182 568 181 535 Q180 502 177 469 Q173 427 169 387 Q165 347 160 305 Q146 198 139 91 Q136 53 134.5 14 Q133 -25 134 -66 Q135 -91 137.5 -115.5 Q140 -140 146 -166 Q148 -176 151 -185 Q154 -194 159 -203 Q161 -208 163.5 -212 Q166 -216 169 -220 Q179 -231 190 -226 Q198 -221 204 -214 Q215 -203 222 -191 Q229 -179 236 -165 Q251 -134 263 -102 Q275 -70 286 -37 Q311 42 332.5 122.5 Q354 203 372 286 Q380 322 388 358.5 Q396 395 404 431 Q426 532 429 646 Q430 666 430.5 684.5 Q431 703 432 723 Q432 729 436 729 Q444 727 443 720 Q444 714 444 708 Q444 702 444 696 Q443 664 443 633 Q443 602 441 571 Q439 532 434.5 494.5 Q430 457 423 420 Q413 364 401 310 Q389 256 375 202 Q363 151 350 101.5 Q337 52 322 3 Q311 -34 298.5 -69 Q286 -104 271 -138 Q263 -157 253 -174.5 Q243 -192 231 -208 Q221 -224 208 -232 Q201 -237 194.5 -239.5 Q188 -242 180 -242 Q161 -241 147 -222 Q139 -208 132 -188 Q127 -171 124 -155 Q121 -139 119 -123 Q115 -81 114.5 -41 Q114 -1 116 40 Q118 94 123 147 Q128 200 133 253 Q138 301 144 348.5 Q150 396 155 444 Q159 473 160.5 503 Q162 533 162 563 Q162 583 160.5 603.5 Q159 624 155 645 Q152 656 148.5 666 Q145 676 140 686 Q122 723 89 727 Q60 731 32 719 Q-13 700 -45.5 665 Q-78 630 -96 577 Q-110 538 -107 495 Q-105 475 -100.5 455.5 Q-96 436 -86 417 Q-69 385 -44 373 Q-30 364 -19 370 Q-15 372 -13 372 Q-10 374 -7 370 Q-8 370 -8 368 Q-13 366 -18.5 364 Q-24 362 -30 362 Q-46 362 -63 374 Q-82 386 -98 412 Q-103 422 -107.5 431.5 Q-112 441 -115 452 Q-116 454 -116.5 456 Q-117 458 -119 460 Q-120 467 -121 473.5 Q-122 480 -124 487 Q-123 488 -123 491 Q-123 495 -123.5 499 Q-124 503 -124 508 Q-125 529 -121.5 548.5 Q-118 568 -112 586 Q-84 670 -17 714 Q12 735 45 739 Q55 741 59 742 L71 742 Z " />
<glyph glyph-name="W" unicode="W" horiz-adv-x="733" d="M672 539 Q672 534 672 529 Q672 524 674 519 Q678 488 677 458 Q681 373 668 292 Q658 221 639 155.5 Q620 90 591 29 Q577 3 562.5 -21 Q548 -45 530 -67 Q519 -79 507 -89.5 Q495 -100 479 -108 Q464 -117 446 -118 Q416 -121 392 -94 Q375 -75 368 -49 Q358 -27 353 -4.5 Q348 18 345 41 Q338 98 339 152.5 Q340 207 345 262 Q347 274 348 286 Q349 298 350 310 Q350 314 350 314 Q348 312 349 309 Q327 240 306.5 172.5 Q286 105 266 36 Q254 -4 241 -43 Q228 -82 212 -120 Q204 -139 196.5 -157.5 Q189 -176 178 -193 Q172 -202 165.5 -210 Q159 -218 151 -225 Q144 -230 137.5 -233.5 Q131 -237 122 -239 Q102 -241 86 -224 Q81 -219 78 -213 Q75 -207 72 -201 Q67 -190 64 -179 Q61 -168 59 -157 Q54 -131 50.5 -106.5 Q47 -82 45 -57 Q43 -15 44 26 Q45 67 47 108 Q52 171 58 233 Q64 295 73 358 Q78 400 84 440.5 Q90 481 95 522 Q98 548 101.5 574.5 Q105 601 106 627 Q108 659 103 691 Q101 696 99.5 701.5 Q98 707 96 712 Q92 723 82 722 Q77 722 73.5 721 Q70 720 66 718 Q56 713 48 705.5 Q40 698 32 690 Q15 673 2 653 Q-11 633 -22 611 Q-42 576 -55 537.5 Q-68 499 -74 457 Q-78 440 -79 423 Q-80 406 -79 389 Q-78 374 -76.5 359 Q-75 344 -70 329 Q-68 326 -66.5 322.5 Q-65 319 -63 316 Q-62 314 -61 313 Q-60 312 -59 310 Q-55 310 -53.5 314 Q-52 318 -48 316 Q-51 305 -58.5 305 Q-66 305 -72 313 Q-76 320 -80 326 Q-91 353 -91 377 Q-96 434 -86 484.5 Q-76 535 -56 583 Q-42 615 -25 643 Q-8 671 15 696 Q31 713 46 724 Q52 728 56.5 730 Q61 732 67 734 Q79 737 95 729 Q110 721 117 701 Q123 680 123 659 Q125 629 123.5 600.5 Q122 572 118 544 Q113 502 107.5 461 Q102 420 96 378 Q88 321 80.5 264.5 Q73 208 68 151 Q64 113 63 74.5 Q62 36 60 -2 Q60 -25 61 -47.5 Q62 -70 64 -93 Q66 -133 79 -172 Q82 -182 86 -191.5 Q90 -201 96 -209 Q99 -215 105 -221 Q118 -232 131 -226 Q137 -223 141.5 -219 Q146 -215 151 -210 Q160 -199 168 -186 Q176 -173 181 -159 Q194 -134 203.5 -108 Q213 -82 222 -56 Q236 -11 249.5 34 Q263 79 277 124 Q292 175 307 225 Q322 275 337 325 Q345 348 352 370.5 Q359 393 367 416 Q367 417 367.5 418 Q368 419 368 421 Q371 429 381 426 Q385 423 385 419 Q385 416 383 410 Q373 363 368 315.5 Q363 268 358 218 Q356 189 356 159.5 Q356 130 356 100 Q358 76 360.5 52 Q363 28 367 4 Q372 -13 377 -29.5 Q382 -46 390 -62 Q398 -77 409 -90 Q426 -107 443 -107 Q449 -108 454.5 -107 Q460 -106 465 -104 Q476 -99 485 -92.5 Q494 -86 503 -78 Q519 -62 531.5 -44 Q544 -26 555 -6 Q575 29 590.5 67 Q606 105 618 146 Q633 199 643.5 252.5 Q654 306 659 363 Q661 391 661 418.5 Q661 446 661 475 Q659 502 656 529.5 Q653 557 648 585 Q640 631 619 675 Q615 681 612 686.5 Q609 692 605 698 Q604 700 603 701.5 Q602 703 600 705 Q591 715 582 708 Q579 706 575 702 Q571 697 568 692.5 Q565 688 560 683 Q560 681 559 681 L555 681 Q554 682 554 685 Q554 686 554.5 686 Q555 686 555 687 Q558 692 562 698 Q566 704 570 709 Q576 717 586.5 717 Q597 717 605 710 Q616 701 622 691 Q630 679 636 666 Q642 653 648 639 Q661 603 666 567 Q666 565 666.5 562 Q667 559 667 557 Q669 552 669.5 548 Q670 544 672 539 Z " />
<glyph glyph-name="X" unicode="X" horiz-adv-x="422" d="M549 -205 Q549 -206 548 -207 Q543 -213 537.5 -218.5 Q532 -224 525 -229 Q492 -251 455 -228 Q444 -220 435.5 -211.5 Q427 -203 419 -192 Q396 -160 382 -122 Q373 -101 366.5 -80 Q360 -59 355 -38 Q348 -12 342.5 14.5 Q337 41 333 67 Q329 89 326 111 Q323 133 319 156 Q315 175 312.5 193 Q310 211 308 230 Q306 241 304 251 Q302 261 300 272 Q300 274 299.5 276 Q299 278 299 280 L298 280 Q270 217 242 154.5 Q214 92 181 32 Q181 31 182 31 Q197 13 207 -6.5 Q217 -26 225 -46 Q232 -63 237 -80.5 Q242 -98 247 -115 Q254 -138 260.5 -162 Q267 -186 275 -209 L272 -209 Q268 -209 267 -205 Q264 -197 261.5 -188 Q259 -179 257 -171 Q247 -143 239 -115 Q231 -87 221 -60 Q216 -44 208.5 -28.5 Q201 -13 193 2 Q190 7 186 13 Q182 19 178 24 Q176 22 174 18 Q157 -13 138.5 -42.5 Q120 -72 98 -100 Q72 -137 34 -168 Q23 -177 11.5 -184 Q0 -191 -14 -196 Q-22 -198 -30.5 -199.5 Q-39 -201 -48 -199 Q-77 -195 -94 -169 Q-104 -150 -107 -134 Q-112 -108 -109 -84.5 Q-106 -61 -98 -38 Q-82 13 -41 49 Q-24 63 -4.5 72 Q15 81 37 84 Q100 92 152 57 Q156 55 159 52 Q162 49 167 46 Q167 48 168 49 Q169 50 170 52 Q188 88 204.5 124.5 Q221 161 238 198 Q251 227 263.5 256 Q276 285 288 314 Q291 320 290 325 Q282 364 273 403 Q264 442 251 480 Q241 510 229.5 539 Q218 568 203 596 Q194 613 183.5 629 Q173 645 159 659 Q154 663 150 667 Q146 671 141 675 Q100 708 55 696 Q-3 683 -34 633 Q-45 615 -44 596 Q-44 593 -46 593 Q-49 593 -49 595 Q-51 597 -51 599 Q-52 610 -49 622 Q-42 644 -24 664 Q1 689 36 702 Q65 712 92.5 706.5 Q120 701 146 683 Q177 661 196 632 Q212 611 223.5 588.5 Q235 566 246 543 Q258 514 267.5 485.5 Q277 457 285 428 L303 356 L304 355 Q304 354 305 353 L308 359 Q325 399 342 439 Q359 479 377 520 Q389 548 402 576 Q415 604 429 631 Q440 651 451.5 669 Q463 687 477 704 Q490 722 506 732 Q509 734 513 735 Q517 736 521 738 Q529 740 532 732 Q518 725 507.5 714 Q497 703 489 691 Q473 670 460 647 Q447 624 436 601 Q416 558 397 515 Q378 472 360 428 Q348 401 336.5 374 Q325 347 314 319 Q311 316 313 311 Q316 294 319 278 Q322 262 325 246 Q328 229 330.5 211.5 Q333 194 336 177 Q339 156 342 135 Q345 114 349 93 Q353 66 357.5 38.5 Q362 11 368 -17 Q376 -46 384 -74.5 Q392 -103 403 -131 Q410 -148 418.5 -164 Q427 -180 438 -195 Q444 -202 450 -208.5 Q456 -215 464 -220 Q472 -226 477 -228 Q494 -237 511 -228 Q517 -225 521.5 -221 Q526 -217 531 -212 Q536 -207 539 -203.5 Q542 -200 546 -195 Q548 -196 549 -198 Q551 -202 549 -205 Z M162 37 Q163 38 163 39 L163 41 Q161 43 160 43 Q152 50 143.5 55.5 Q135 61 125 66 Q81 86 35 76 Q10 71 -9 60 Q-28 49 -45 32 Q-63 13 -74.5 -9.5 Q-86 -32 -93 -58 Q-98 -78 -99 -97.5 Q-100 -117 -95 -137 Q-93 -148 -89 -158 Q-85 -168 -77 -176 Q-62 -195 -39 -193 Q-31 -193 -25 -191 Q-19 -189 -13 -186 Q0 -181 10 -173.5 Q20 -166 30 -158 Q47 -143 60 -126 Q73 -109 87 -91 Q128 -31 162 37 Z " />
<glyph glyph-name="Y" unicode="Y" horiz-adv-x="578" d="M112 409 Q107 404 101 406 Q89 407 76 419 Q68 426 61.5 435 Q55 444 50 454 Q43 473 38 495 Q36 511 36.5 526 Q37 541 40 555 Q50 612 83 657 Q114 700 158 725 Q173 733 190 738 Q207 743 227 742 Q241 742 254 738 Q267 734 281 723 Q292 715 299.5 703.5 Q307 692 312 678 Q317 664 318.5 649.5 Q320 635 322 620 Q322 594 319 569.5 Q316 545 311 520 Q304 488 296.5 456 Q289 424 280 392 Q270 352 261.5 312.5 Q253 273 246 231 Q235 181 235 131 Q235 120 235 109.5 Q235 99 237 88 Q239 77 241 66 Q243 55 248 44 Q253 35 258 28 Q268 19 276 23 Q284 26 289 31 Q294 36 299 42 Q310 55 319 70 Q328 85 336 101 Q351 133 364.5 165.5 Q378 198 389 233 Q403 272 416 311 Q429 350 442 389 Q455 429 468.5 468 Q482 507 497 545 Q501 555 504.5 564.5 Q508 574 513 583 Q513 586 514.5 588.5 Q516 591 518 593 Q522 598 530 594 Q538 591 539 584 Q541 576 541 569.5 Q541 563 542 556 Q542 459 536 363 Q534 315 530.5 268.5 Q527 222 522 174 Q517 129 509 86.5 Q501 44 489 2 Q482 -21 473.5 -42.5 Q465 -64 455 -85 Q454 -86 454 -86 Q454 -87 456 -87 Q479 -98 503.5 -107 Q528 -116 553 -121 Q559 -123 564.5 -124 Q570 -125 576 -126 Q576 -126 581 -126 Q583 -126 583 -126 Q583 -126 587 -128 Q584 -131 584 -131 Q582 -131 579.5 -131.5 Q577 -132 575 -131 Q558 -128 543 -124 Q528 -120 511 -115 Q496 -111 482 -105.5 Q468 -100 453 -94 Q450 -93 448 -95 Q429 -130 405 -158.5 Q381 -187 349 -210 Q334 -221 317.5 -228.5 Q301 -236 282 -239 Q268 -242 253.5 -241.5 Q239 -241 224 -236 Q186 -222 171 -183 Q160 -153 168 -126 Q173 -106 183 -92 Q193 -78 208 -67 Q248 -38 298 -39 Q319 -40 340.5 -45 Q362 -50 383 -58 Q397 -63 410.5 -68.5 Q424 -74 438 -80 Q441 -81 442 -78 Q456 -51 465.5 -21.5 Q475 8 482 40 Q490 76 495.5 113 Q501 150 505 188 Q510 230 512.5 271 Q515 312 517 354 Q519 399 521 443 Q523 487 525 532 Q525 543 525.5 555 Q526 567 526 578 Q524 576 523 574 Q522 572 521 570 Q516 557 511.5 544.5 Q507 532 502 519 Q491 484 479 448.5 Q467 413 456 378 Q445 347 434.5 316.5 Q424 286 413 255 Q399 216 384 177.5 Q369 139 351 101 Q343 86 335 71.5 Q327 57 316 43 Q311 36 305.5 30.5 Q300 25 292 20 Q279 12 264 13 Q252 16 241 28 Q231 42 226 61 Q221 80 219 98.5 Q217 117 217 136 Q217 171 221 204 Q225 237 231 269 Q239 310 248.5 349 Q258 388 269 428 Q274 451 280 473 Q286 495 291 518 Q303 566 306 619 Q308 646 302 670 Q297 691 287 707 Q271 728 247 732 Q233 736 219 734.5 Q205 733 192 729 Q172 723 156.5 713 Q141 703 127 689 Q79 646 60 584 Q49 549 49 515 Q50 510 50.5 505 Q51 500 51 495 Q52 484 55 474.5 Q58 465 61 456 Q66 446 72 437.5 Q78 429 86 421 Q89 418 93 416 Q97 414 100 412 Q103 411 108 411 Q111 411 112 410 L112 409 Z M438 -87 Q436 -86 436 -86 Q428 -83 422 -80.5 Q416 -78 409 -75 Q386 -66 364.5 -58.5 Q343 -51 321 -48 Q310 -46 299.5 -46 Q289 -46 280 -47 Q261 -49 245 -56 Q229 -63 215 -74 Q203 -84 194 -96.5 Q185 -109 180 -126 Q171 -152 182 -181 Q196 -222 235 -231 Q264 -238 293 -228 Q310 -223 324 -215 Q338 -207 352 -196 Q397 -159 429 -105 Q431 -100 433.5 -96 Q436 -92 438 -87 Z " />
<glyph glyph-name="Z" unicode="Z" horiz-adv-x="504" d="M539 -148 Q543 -156 542 -162.5 Q541 -169 539 -176 Q535 -193 518 -207 Q496 -226 465 -234 Q463 -235 461.5 -235 Q460 -235 458 -236 Q444 -239 429 -239 Q414 -239 402 -237 Q400 -237 397 -236.5 Q394 -236 392 -236 Q366 -232 338 -221 Q312 -211 288.5 -198.5 Q265 -186 241 -171 Q220 -158 198.5 -145 Q177 -132 156 -118 Q150 -115 146 -119 Q112 -139 77 -148 Q63 -152 48 -152.5 Q33 -153 17 -148 Q9 -146 2.5 -141.5 Q-4 -137 -9 -129 Q-12 -126 -12.5 -122 Q-13 -118 -15 -114 L-15 -109 Q-13 -99 -8 -94 Q0 -80 19 -75 Q30 -71 42 -70.5 Q54 -70 65 -72 Q85 -75 104.5 -82.5 Q124 -90 144 -100 Q147 -102 150 -100 Q218 -51 270 19 Q300 61 325.5 106 Q351 151 372 199 Q375 207 378.5 214.5 Q382 222 385 230 Q383 231 382.5 231 Q382 231 380 232 Q363 239 347 245.5 Q331 252 315 259 Q303 264 291.5 266.5 Q280 269 268 269 Q230 271 208 235 Q206 232 205 228.5 Q204 225 202 221 Q202 221 202 215 Q200 214 197 219 Q196 223 198 231 Q201 242 207.5 249.5 Q214 257 222 263 Q245 280 270 277 Q287 275 303 270.5 Q319 266 335 259 Q347 254 359 249 Q371 244 384 239 Q385 239 386 238.5 Q387 238 388 238 Q388 239 388.5 239.5 Q389 240 389 241 Q403 278 414.5 315.5 Q426 353 434 391 Q442 426 446 461.5 Q450 497 448 534 Q448 557 445 580 Q442 603 433 625 Q422 658 401.5 680 Q381 702 352 715 Q307 732 263 729 Q208 726 161 701 Q110 677 76 631 Q62 615 52.5 597.5 Q43 580 35 560 Q30 548 27 536 Q24 524 22 510 Q20 501 19.5 492 Q19 483 19 474 Q19 440 33 413 Q44 390 67 385 Q69 383 71 382 Q69 382 68.5 381 Q68 380 67 381 Q43 385 30 406 Q16 429 11 459 Q11 467 10.5 474 Q10 481 10 488 Q10 501 12 513.5 Q14 526 16 539 Q28 579 51 616 Q65 637 80.5 655.5 Q96 674 116 688 Q164 723 221 737 Q256 745 289 742 Q316 740 340.5 731.5 Q365 723 386 706 Q415 686 432 658.5 Q449 631 459 596 Q462 579 464.5 563 Q467 547 467 530 Q470 483 464.5 438 Q459 393 448 348 Q441 319 431.5 290.5 Q422 262 411 233 Q411 233 409 229 Q418 227 426 226 Q434 225 442 224 Q456 222 471 222.5 Q486 223 500 225 Q502 226 506 226 Q505 226 508 223 Q507 223 506.5 222 Q506 221 505 221 Q501 220 497 219.5 Q493 219 488 218 Q483 217 479 216.5 Q475 216 470 216 Q455 214 439.5 216 Q424 218 410 222 Q408 223 406 220 Q389 181 371 143.5 Q353 106 330 71 Q300 23 264 -18 Q228 -59 183 -92 Q180 -95 172 -101 Q169 -103 167 -105 Q165 -107 161 -109 Q162 -109 162 -110 Q185 -124 208.5 -138 Q232 -152 255 -166 Q276 -179 297 -190.5 Q318 -202 340 -211 Q368 -222 401 -227 Q404 -228 411 -228 Q413 -229 415 -226 Q418 -218 421.5 -211 Q425 -204 429 -196 Q430 -194 435 -186 Q440 -178 447.5 -168 Q455 -158 465 -148 Q475 -138 487 -133 Q493 -131 498 -129.5 Q503 -128 510 -129 Q531 -131 539 -148 Z M135 -110 Q136 -110 136 -109.5 Q136 -109 137 -109 Q135 -107 135 -107 Q123 -102 111 -97 Q99 -92 87 -88 Q75 -83 62 -81.5 Q49 -80 35 -82 Q27 -84 20.5 -86.5 Q14 -89 9 -94 Q-1 -102 -0.5 -113 Q0 -124 10 -132 Q15 -137 23 -140 Q35 -144 46.5 -143 Q58 -142 69 -140 Q86 -135 102.5 -127.5 Q119 -120 135 -110 Z M530 -163 Q532 -155 528 -146.5 Q524 -138 516 -136 L504 -136 Q487 -140 473 -154 Q454 -168 442 -187.5 Q430 -207 420 -229 L424 -229 Q430 -228 436 -228 Q442 -228 449 -227 L452 -227 Q452 -226 454 -226 Q482 -221 507 -201 Q516 -193 522 -184.5 Q528 -176 530 -163 Z " />
<glyph glyph-name="c" unicode="c" horiz-adv-x="137" d="M137 250 Q138 250 141 248 Q144 246 141 243 Q122 224 106 205 Q89 185 73.5 166 Q58 147 41 128 Q36 123 30 116.5 Q24 110 23 110 Q7 96 -2.5 99.5 Q-12 103 -17.5 114 Q-23 125 -24.5 137 Q-26 149 -25 151 Q-24 172 -19.5 192.5 Q-15 213 -7 234 Q-4 243 0 251 Q4 259 11 267 Q20 276 28 276 Q34 276 39 270 Q44 261 44 246 Q44 242 44 238.5 Q44 235 42 231 Q40 225 36 228 Q40 234 40 240 Q40 246 39 251 Q37 262 33 266 Q30 269 27.5 266 Q25 263 23 259 Q16 248 10 228 Q4 208 0 186 Q-4 164 -3.5 143.5 Q-3 123 3 112 Q6 109 11 112 Q16 114 20 118 Q24 122 28 126 Q47 145 64 168 Q82 189 99.5 210 Q117 231 137 250 Z " />
<glyph glyph-name="grave" unicode="&#x60;" horiz-adv-x="62" d="M18 661 Q23 661 26 655 Q30 642 37 626 Q38 622 39 619 Q40 616 41 613 Q43 609 41 608 Q37 604 34 609 Q30 612 29 617 Q24 626 20.5 635 Q17 644 13 653 Q10 659 18 661 Z " />
<glyph glyph-name="asciitilde" unicode="&#x7e;" horiz-adv-x="155" d="M16 189 Q19 200 24.5 210 Q30 220 37 230 Q42 236 48 241 Q54 246 63 244 Q73 242 76 234 Q78 229 79 223 Q80 217 82 212 L88 191 Q89 189 89.5 188 Q90 187 91 185 Q93 187 93.5 188 Q94 189 95 191 Q105 210 114 229 L114 233 Q114 236 116 237 Q120 237 121 236 Q125 232 123 227 Q121 220 118 213.5 Q115 207 112 200 Q111 196 107 188 Q99 173 84 176 Q77 178 74 184 Q70 194 67 207 L61 231 Q61 233 60.5 234 Q60 235 59 237 Q57 235 56 234.5 Q55 234 53 232 Q46 227 41.5 220 Q37 213 33 205 Q30 200 27.5 194.5 Q25 189 23 184 Q22 183 20 183 Q18 183 16 185 L16 186 L16 189 Z " />
<glyph glyph-name="exclam" unicode="&#x21;" horiz-adv-x="87" d="M58 632 Q61 612 60 597 L54 492 Q53 469 52.5 447 Q52 425 50 403 Q49 379 48.5 355.5 Q48 332 48 309 Q47 287 46.5 265 Q46 243 46 221 Q45 203 45 185 Q45 167 44 149 L44 127 Q43 125 42.5 122 Q42 119 40 117 Q39 113 34 115 Q34 134 33.5 152 Q33 170 33 189 Q33 204 33.5 219 Q34 234 34 249 L34 308 Q34 321 34.5 334 Q35 347 35 361 L35 407 Q36 420 36 433 Q36 446 37 460 Q38 478 38.5 496 Q39 514 41 532 Q43 552 44.5 572.5 Q46 593 48 613 Q48 618 48.5 623 Q49 628 49 633 Q49 637 53 637 Q56 637 58 632 Z M34 48 Q40 50 40 46 Q43 41 36 39 L35 39 Q31 39 30 42 Q28 47 32 47 Q33 48 34 48 Z " />
<glyph glyph-name="at" unicode="&#x40;" horiz-adv-x="210" d="M107 195 Q106 193 105.5 191.5 Q105 190 104 188 Q100 180 96 173 Q92 166 86 159 Q79 148 69 146 Q47 141 38 162 Q38 165 37.5 167.5 Q37 170 37 172 Q31 209 46 244 Q48 249 51.5 254 Q55 259 60 262 Q68 268 77 267 Q88 265 91 255 Q95 245 96 240 Q96 236 96 232 Q96 228 97 223 Q97 220 96.5 217.5 Q96 215 95 212 Q95 211 93 207 Q92 206 88 206 Q87 206 87 207 L87 209 Q87 214 87 218 Q87 222 86 226 Q85 233 84 239 Q83 245 80 252 Q80 253 79.5 253.5 Q79 254 79 256 Q77 259 75.5 259.5 Q74 260 71 257 Q67 254 65 249 Q60 240 57 231 Q54 222 52 212 Q51 204 50.5 195 Q50 186 52 178 Q52 167 56 160 Q60 152 63 152.5 Q66 153 70 156 Q75 161 79 166.5 Q83 172 87 178 Q101 201 112 232 Q115 240 123 240 Q128 238 128 235 Q127 230 127 226.5 Q127 223 126 218 Q121 197 123 174 Q123 167 126 161 Q130 153 136 159 Q141 162 143.5 166.5 Q146 171 148 176 Q157 198 160 223 Q161 233 162 242.5 Q163 252 161 263 Q156 296 138 320 Q114 346 83 335 Q66 329 54 315 Q33 294 22 263 Q14 243 10 223 Q6 203 6 181 Q6 164 8.5 147.5 Q11 131 18 115 Q28 93 44 81 Q54 73 67.5 72 Q81 71 92 80 Q98 86 102 89 Q108 96 114 102.5 Q120 109 127 116 Q129 118 129.5 119.5 Q130 121 131 123 Q134 126 136 126 Q139 126 139 123 Q138 121 137.5 119.5 Q137 118 135 116 Q130 109 124.5 102.5 Q119 96 113 89 Q109 85 106.5 81.5 Q104 78 99 75 Q82 61 58.5 62.5 Q35 64 17 84 Q8 95 2.5 108 Q-3 121 -7 135 Q-17 180 -6 229 Q-1 248 5.5 265.5 Q12 283 23 299 Q31 309 38.5 317.5 Q46 326 57 333 Q79 348 106 345 Q129 342 147 323 Q170 300 176 267 Q178 253 176.5 240 Q175 227 172 213 Q170 202 166.5 191.5 Q163 181 158 170 Q155 166 152.5 162.5 Q150 159 146 156 Q137 147 127 149 Q116 150 110 162 Q108 167 107.5 173 Q107 179 107 184 L107 195 Z " />
<glyph glyph-name="numbersign" unicode="&#x23;" horiz-adv-x="180" d="M85 183 Q78 181 71.5 180 Q65 179 59 177 Q57 177 57 175 Q56 170 55.5 165 Q55 160 54 155 Q52 146 51 137.5 Q50 129 48 121 Q46 114 40 118 Q39 118 39 119 L39 120 Q39 125 39.5 130 Q40 135 40 140 Q41 147 42 153.5 Q43 160 44 167 Q44 169 44.5 170.5 Q45 172 45 174 Q43 174 41 173.5 Q39 173 37 173 Q35 173 33 173.5 Q31 174 29 174 Q28 175 28 175.5 Q28 176 27 177 Q29 177 29 179 Q34 181 44 183 Q47 184 47 187 Q48 195 48.5 201.5 Q49 208 51 216 Q46 215 43 214.5 Q40 214 36 214 Q26 212 21 212 Q18 211 13 213 Q13 213 11 215 L13 217 Q21 219 28 221 Q35 223 43 225 Q45 226 46 226 Q47 226 49 227 Q52 227 52 230 Q54 240 56 249.5 Q58 259 60 268 Q60 270 60.5 270 Q61 270 61 272 Q62 276 67 276 Q73 276 73 270 Q74 261 73 252.5 Q72 244 70 236 Q69 234 69 230 Q79 232 84 232 L86 232 Q91 233 91.5 233.5 Q92 234 94 239 Q96 247 97.5 255 Q99 263 101 271 Q103 280 110 276 Q113 274 113 270 Q114 264 113 257.5 Q112 251 110 244 Q110 242 108 234 Q112 235 115.5 235 Q119 235 124 236 Q130 237 136.5 237.5 Q143 238 150 238 Q152 239 158 237 Q157 237 160 234 Q158 232 157 232 Q152 231 147.5 230.5 Q143 230 138 229 Q130 227 122.5 226.5 Q115 226 107 224 Q105 223 105 223 Q101 212 98 195 Q102 196 105 196.5 Q108 197 112 197 Q120 199 124 199 Q127 199 131 197 Q131 196 131.5 195.5 Q132 195 132 194 Q132 194 130 192 L115 189 Q110 188 106.5 187.5 Q103 187 98 186 Q96 186 95 183 Q93 170 90 157.5 Q87 145 85 132 Q83 126 78 127 Q76 127 76 130 Q78 139 79 148.5 Q80 158 82 168 Q84 176 84 179 Q84 181 85 183 Z M60 188 Q66 190 72 191 Q78 192 85 193 Q87 195 87 196 Q87 198 87.5 200.5 Q88 203 88 205 Q89 210 89.5 213.5 Q90 217 90 221 Q85 220 79.5 219.5 Q74 219 68 219 Q66 218 65 216 Q64 212 63.5 209 Q63 206 62 202 Q61 198 60.5 195 Q60 192 60 188 Z " />
<glyph glyph-name="dollar" unicode="&#x24;" horiz-adv-x="270" d="M220 393 Q222 387 222 384 Q226 362 223 340 Q220 328 216 316.5 Q212 305 204 296 Q191 283 175 280 Q150 278 133 300 Q127 308 123 316 Q119 324 116 332 Q114 336 113 339 Q112 342 110 347 Q109 344 110 341 Q111 338 110 335 Q110 315 109 295 Q108 275 106 255 Q106 252 111 251 Q125 246 139 241 Q153 236 168 231 Q179 226 189.5 220 Q200 214 211 206 Q222 197 229.5 186.5 Q237 176 241 162 Q247 139 244 118 Q242 99 236 82.5 Q230 66 221 50 Q189 -6 133 -34 Q128 -37 122 -39.5 Q116 -42 110 -44 Q109 -44 106 -47 L106 -139 Q106 -143 107 -145 Q107 -148 103 -148 Q100 -148 100 -145 Q97 -136 97 -127 Q95 -107 94 -88.5 Q93 -70 91 -51 L91 -49 Q83 -51 78 -51 Q47 -57 15 -49 Q-2 -42 -17 -30 Q-32 -18 -43 2 Q-62 35 -50 60 Q-41 80 -25.5 92.5 Q-10 105 9 112 Q18 115 29 115.5 Q40 116 51 114 Q61 112 70.5 111 Q80 110 91 108 Q90 112 90 116 Q90 120 90 124 Q90 155 90.5 185.5 Q91 216 90 247 Q90 250 87 251 Q76 255 66 259 Q56 263 45 269 Q18 284 5 312 Q3 320 1 329 Q-1 338 -3 347 Q-5 373 0 396 Q5 419 15 439 Q31 470 55 485 Q67 493 81 497 Q95 501 112 499 Q146 496 174 472 Q199 449 214 417 Q215 413 216.5 409 Q218 405 220 402 L220 393 Z M90 258 L90 259 Q92 284 93 308 Q94 332 95 356 Q96 366 96 375.5 Q96 385 98 395 Q101 405 112 400 Q113 398 113.5 397 Q114 396 115 394 Q115 390 116 386 Q117 382 118 378 Q120 370 121 363.5 Q122 357 124 349 Q126 344 127 338.5 Q128 333 130 328 Q134 316 144 301 Q158 280 179 289 Q191 294 199 306 Q222 343 213 391 Q210 411 197 436 Q181 461 159 478 Q128 500 95 492 Q79 488 67.5 479.5 Q56 471 46 460 Q32 443 23.5 422.5 Q15 402 11 379 Q8 347 18 315 Q28 293 43 281 Q54 273 66 268 Q78 263 90 258 Z M106 244 Q107 209 106.5 173.5 Q106 138 107 103 Q112 101 117 100 Q122 99 126 97 Q133 94 140 89 Q146 85 146 80 Q146 79 145.5 78.5 Q145 78 145 77 Q143 78 141 80 Q140 84 137 86.5 Q134 89 131 91 Q126 93 121.5 94.5 Q117 96 112 98 Q108 99 108 95 Q106 31 108 -32 L108 -36 Q113 -33 118 -31 Q123 -29 128 -27 Q157 -12 176.5 10.5 Q196 33 210 62 Q225 92 228 128 Q228 149 221 169 Q210 200 179 216 Q168 223 156 227.5 Q144 232 131 237 Q125 239 119 240.5 Q113 242 106 244 Z M90 103 Q88 103 87 104 Q79 105 72 106 Q65 107 57 108 Q37 111 22 108 Q-15 98 -32 68 Q-47 50 -41 24 Q-40 13 -34.5 3 Q-29 -7 -21 -16 Q-7 -30 7 -37 Q21 -44 38 -46 Q51 -48 64.5 -46 Q78 -44 91 -41 Q93 -41 93 -38 Q92 -10 92 18 Q92 46 91 74 Q91 81 91 88 Q91 95 90 103 Z " />
<glyph glyph-name="percent" unicode="&#x25;" horiz-adv-x="230" d="M-105 -100 Q-103 -95 -101 -90.5 Q-99 -86 -97 -81 Q-82 -46 -66 -12 Q-50 22 -33 57 Q-2 120 31.5 181 Q65 242 102 302 Q122 334 142.5 365.5 Q163 397 184 429 Q191 439 197.5 448.5 Q204 458 210 468 Q212 471 214 477 Q215 480 212 480 Q206 478 200 477.5 Q194 477 189 476 Q172 471 155.5 467 Q139 463 122 458 Q117 456 111.5 455.5 Q106 455 101 454 Q100 453 100 453 Q100 452 99 452 Q100 446 99 440 Q98 434 96 429 Q89 412 79.5 398 Q70 384 53 373 Q48 371 43.5 369 Q39 367 33 367 Q8 367 5 391 Q3 399 4.5 407.5 Q6 416 8 424 Q19 459 42 483 Q44 486 47.5 489 Q51 492 55 495 Q61 499 66 496 Q67 496 69 494 L69 492 L67 492 Q65 491 65 491 Q62 487 58.5 483.5 Q55 480 53 475 Q34 450 25 419 Q18 402 21 387 Q22 385 23 382.5 Q24 380 25 377 Q27 375 30 376 Q37 378 42.5 381 Q48 384 53 388 Q78 410 87 444 Q88 447 88 453 Q86 454 84 454 Q82 454 80 455 Q66 462 71 473 Q73 481 83 479 Q92 476 97 465 Q97 464 99 458 Q101 459 104 459 Q107 459 109 460 Q122 463 135 466.5 Q148 470 160 473 Q171 476 180.5 478.5 Q190 481 200 483 Q208 486 216 483 Q224 480 223 472 Q220 461 214 452 Q203 435 192 418 Q181 401 170 384 Q129 319 90.5 254 Q52 189 16 122 Q-7 78 -28.5 35 Q-50 -8 -72 -53 Q-73 -54 -73 -57 Q-72 -55 -71 -53 Q-70 -51 -68 -49 Q-54 -32 -40 -15 Q-26 2 -10 18 Q17 46 47 65 Q60 73 73 76 Q82 78 89 75 Q106 72 109 56 Q113 44 108 29 Q99 -10 67 -30 Q56 -40 41 -41 Q38 -41 34.5 -41 Q31 -41 27 -39 Q16 -36 14 -23 Q11 -10 20 5 Q32 21 47 35 Q49 37 53 39 Q55 40 60 40 Q61 40 62 39 Q64 37 64 36 L64 35 Q63 34 63 34 Q62 35 59 35 Q59 36 58 37 L49 28 Q43 22 37.5 15 Q32 8 27 0 Q22 -11 23 -21 Q23 -23 25 -27 Q30 -38 41 -35 Q55 -31 66 -20 Q92 4 98 41 Q99 46 98.5 50 Q98 54 97 59 Q93 73 78 70 Q70 68 64 65.5 Q58 63 51 59 Q40 53 30.5 45 Q21 37 12 29 Q-11 8 -30 -15 Q-49 -38 -67 -63 L-91 -99 Q-94 -103 -99 -103 Q-102 -103 -104 -101 Q-105 -100 -105 -100 Z M83 473 Q77 471 79 463 Q82 458 88 458 Q88 468 83 473 Z " />
<glyph glyph-name="asciicircum" unicode="&#x5e;" horiz-adv-x="80" d="M47 634 Q47 631 45 623 Q42 607 36 595 Q32 587 29.5 579 Q27 571 24 563 Q24 559 18 563 Q17 563 17 566 Q17 568 17.5 570 Q18 572 18 574 Q21 588 24.5 603 Q28 618 31 632 Q33 636 33.5 639.5 Q34 643 36 648 Q38 653 41 653 Q53 653 56 641 Q57 636 58 630 Q59 624 59 618 Q61 603 62.5 588.5 Q64 574 63 559 Q63 559 63 557 Q63 556 60 556 Q59 557 59 557.5 Q59 558 58 559 Q57 564 56.5 569 Q56 574 55 580 Q53 593 52 605.5 Q51 618 48 632 Q48 633 47 634 Z " />
<glyph glyph-name="ampersand" unicode="&#x26;" horiz-adv-x="237" d="M214 107 Q216 89 213 73.5 Q210 58 204.5 45.5 Q199 33 192.5 24.5 Q186 16 183 12 Q163 -11 132 -25 Q117 -31 100 -34 Q95 -35 90.5 -35 Q86 -35 81 -35 Q74 -35 68.5 -34.5 Q63 -34 57 -33 Q29 -25 9 -2 Q-8 18 -18 47 Q-29 85 -20 124 Q-11 163 15 196 Q40 228 78 254 Q85 258 91.5 262 Q98 266 105 270 Q105 270 107 271 Q112 273 115 275.5 Q118 278 121 280 Q124 282 127 283 Q116 285 104.5 286 Q93 287 82 289 Q76 291 70 292.5 Q64 294 59 296 Q54 298 48.5 300.5 Q43 303 38 306 Q38 306 37 307 L36 307 Q25 314 20 323 Q15 332 13 341 Q11 350 12 358 Q13 366 14 371 Q20 391 34 410 Q51 435 78 450 Q105 465 136 467 L152 467 Q154 467 161 466.5 Q168 466 177 463.5 Q186 461 194 456 Q202 451 207 443 Q210 437 211 427 Q212 417 204 401 Q201 396 191.5 385.5 Q182 375 161 363 Q149 356 137 350.5 Q125 345 111 340 Q103 337 98.5 341.5 Q94 346 93 347 L91 350 L94 351 Q140 366 172 391 Q187 402 197 415 Q202 424 203 431 Q203 440 198 445 Q192 449 187 451 Q174 458 154 458 Q132 458 111 451 Q79 439 55 413 Q50 407 45.5 400.5 Q41 394 36 387 Q26 368 25 352 Q23 342 26 335 Q27 332 30 326 Q33 320 40 314 Q50 305 62.5 301 Q75 297 88 295 Q99 293 111 291.5 Q123 290 134 288 Q141 286 142 279 L142 278 Q142 274 139 273 Q131 267 126 265 Q117 259 105 252 Q93 245 81 236 Q66 225 54 214 Q42 203 32 190 Q11 164 1 136 Q-8 110 -8 85 Q-8 46 13 15 Q26 -6 45 -15 Q53 -20 60.5 -21.5 Q68 -23 76 -24 Q107 -25 135 -9 Q189 24 201 84 Q205 101 201 119 Q198 134 190 144 Q177 157 164 157 Q162 157 160 156.5 Q158 156 156 156 L153 156 Q153 156 152 155 Q145 151 138 146.5 Q131 142 125 137 Q120 132 117 126 Q105 108 102 86 Q102 81 101 78 L101 75 L105 74 L103 72 L103 71 L101 69 Q100 69 99 68.5 Q98 68 96 68 Q94 67 91 70 Q91 72 90 73 Q89 74 89 76 Q88 80 88 84 Q88 88 88 92 Q90 114 101 131 Q107 141 118 149 L119 151 Q122 153 125.5 155.5 Q129 158 132 160 Q137 163 141.5 166 Q146 169 151 172 Q158 175 164 180 Q177 188 187.5 199 Q198 210 200 227 Q201 233 198.5 238.5 Q196 244 189 246 Q174 250 160 240 Q155 235 150.5 229 Q146 223 148 215 Q149 215 149 214 Q150 212 150 211.5 Q150 211 151 209 Q151 210 151.5 210 Q152 210 152 211 Q154 211 154.5 210.5 Q155 210 156 210 Q160 207 158 204 Q156 199 151.5 200 Q147 201 145 204 Q137 212 137.5 223.5 Q138 235 146 243 Q154 252 166.5 254 Q179 256 191 251 Q204 245 208 233 Q212 225 210 212 Q206 192 187 178 Q184 176 180.5 173.5 Q177 171 173 168 L163 162 Q175 162 186 157 Q195 152 203 140.5 Q211 129 214 107 Z " />
<glyph glyph-name="asterisk" unicode="&#x2a;" horiz-adv-x="152" d="M63 581 Q56 579 50.5 578 Q45 577 39 575 Q35 574 25 572 Q21 572 19 573 Q15 575 19 577 Q23 579 24 579 Q34 581 43 583.5 Q52 586 62 588 Q63 589 66 589 Q64 593 62 596 Q60 599 58 602 Q55 607 53 610.5 Q51 614 49 619 Q45 623 48 625 Q52 629 57 625 Q58 624 58 623.5 Q58 623 59 622 Q62 617 64.5 612 Q67 607 70 602 Q70 601 70.5 601 Q71 601 71 600 Q72 604 72 607 Q72 610 73 613 Q75 624 76 633.5 Q77 643 79 654 Q78 658 82 658 L85 658 Q93 655 92 648 Q90 637 88.5 627 Q87 617 85 606 L85 604 L97 616 Q108 627 119.5 637.5 Q131 648 142 659 Q151 666 158 666 Q162 666 165 663 Q164 663 163.5 662.5 Q163 662 162 662 Q155 661 150 654 Q138 643 125.5 631 Q113 619 101 607 Q98 604 95 600.5 Q92 597 88 593 Q93 594 97 594.5 Q101 595 106 596 Q125 599 145 599 Q150 598 154.5 597 Q159 596 164 591 Q166 589 166 587 Q165 588 164 587.5 Q163 587 161 588 Q155 592 152 593 Q143 594 136 593 Q123 591 110.5 589.5 Q98 588 85 586 Q79 584 82 580 Q87 572 90.5 563.5 Q94 555 99 547 Q102 542 104 536.5 Q106 531 108 526 Q108 522 107 522 Q103 521 101 524 Q96 534 91 543.5 Q86 553 81 563 Q80 564 79 566 Q78 562 78 559 Q78 556 77 553 Q75 540 73.5 528 Q72 516 70 503 Q69 497 64 499 Q61 499 61 503 Q62 506 61.5 509.5 Q61 513 62 516 Q62 523 62.5 529 Q63 535 64 541 Q65 549 65.5 556.5 Q66 564 67 572 Q66 570 64 568 Q59 563 54 558.5 Q49 554 44 549 Q38 545 34 545 Q34 545 30 547 Q31 548 31 548.5 Q31 549 32 550 Q40 558 47 565 Q54 572 62 580 L63 581 Z " />
<glyph glyph-name="parenleft" unicode="&#x28;" horiz-adv-x="142" d="M15 113 Q17 102 18.5 94.5 Q20 87 22 79 Q25 59 33 38 Q45 -6 66 -46 Q77 -64 88.5 -81 Q100 -98 115 -114 Q128 -128 142 -138.5 Q156 -149 173 -157 Q176 -158 179 -159 Q182 -160 184 -161 Q187 -162 184 -165 Q182 -167 178 -165 Q166 -163 154 -157.5 Q142 -152 131 -144 Q115 -133 102 -119.5 Q89 -106 78 -90 Q55 -57 38 -17 Q32 -4 27 8.5 Q22 21 17 35 L8 71 Q4 85 2 99 Q0 113 -2 127 Q-5 147 -6 167.5 Q-7 188 -7 208 Q-6 275 10 342 Q32 430 76 501 Q90 523 107 542.5 Q124 562 144 579 Q155 588 167.5 595 Q180 602 194 607 Q214 615 238 623 Q242 624 245 624.5 Q248 625 252 625 Q255 625 259 623 L259 621 Q259 620 260 620 Q260 618 258 618 Q258 618 254 618 Q252 620 251 619.5 Q250 619 248 619 Q234 615 221 609.5 Q208 604 195 598 Q177 590 162 578 Q147 566 133 552 Q116 534 103 514.5 Q90 495 78 474 Q34 393 18 300 Q7 250 9 199 Q9 187 9 174.5 Q9 162 11 150 Q11 139 12.5 130 Q14 121 15 113 Z " />
<glyph glyph-name="parenright" unicode="&#x29;" horiz-adv-x="190" d="M-126 -163 Q-124 -158 -120 -160 Q-114 -162 -110 -159 Q-102 -154 -95 -148.5 Q-88 -143 -81 -138 Q-59 -121 -38 -102.5 Q-17 -84 3 -65 Q70 1 97 93 Q119 171 118 256 Q117 286 113 316.5 Q109 347 101 378 Q93 410 80.5 441 Q68 472 51 503 Q43 517 34 530.5 Q25 544 13 557 Q-26 601 -76 615 Q-79 616 -82 617 Q-85 618 -87 619 Q-89 620 -91 622 L-91 623 L-87 623 Q-61 619 -37.5 607 Q-14 595 7 577 Q40 547 63 509 Q77 489 87 468 Q97 447 105 425 Q114 399 120.5 373 Q127 347 131 321 Q136 295 137 269 Q138 243 136 217 Q133 160 118 106 Q105 58 81.5 16.5 Q58 -25 23 -60 Q-3 -85 -29.5 -108.5 Q-56 -132 -87 -153 Q-96 -160 -105 -164 Q-112 -168 -121 -165 Q-122 -165 -126 -163 Z " />
<glyph glyph-name="braceleft" unicode="&#x7b;" horiz-adv-x="168" d="M165 615 Q164 613 163 612.5 Q162 612 161 611 Q154 604 150 597 Q146 590 142 582 Q122 539 113 492 Q111 478 109.5 464 Q108 450 106 436 Q103 413 99.5 391.5 Q96 370 89 349 Q84 333 77.5 318.5 Q71 304 63 290 Q59 282 57 277 Q55 273 55 272 Q54 267 60 262 Q62 261 63.5 260.5 Q65 260 67 259 Q89 248 96 229 Q101 220 102.5 210.5 Q104 201 104 192 Q106 172 104.5 153 Q103 134 102 114 Q101 92 100 71 Q99 50 99 28 Q99 16 99 3.5 Q99 -9 100 -22 Q102 -55 109 -86 Q112 -98 116 -110 Q120 -122 127 -133 Q129 -136 131 -138.5 Q133 -141 135 -144 Q139 -149 144.5 -152 Q150 -155 156 -158 Q160 -159 166 -161 Q167 -162 168 -162 Q168 -165 164 -165 Q159 -165 156 -164 Q150 -161 143.5 -158.5 Q137 -156 130 -153 Q119 -147 113 -136 Q107 -128 103 -119 Q99 -110 96 -100 Q91 -81 88 -62 Q85 -43 83 -23 Q80 3 80 28.5 Q80 54 82 80 Q84 100 85 119.5 Q86 139 87 159 Q88 170 88.5 181.5 Q89 193 87 205 Q85 213 83 221.5 Q81 230 76 238 Q70 249 58 255 Q54 256 48 260 Q38 265 40 273 Q41 278 43 282.5 Q45 287 47 292 Q70 337 81 390 Q87 423 90 456 Q92 473 93.5 488.5 Q95 504 100 520 Q105 541 113 561 Q121 581 132 600 Q139 612 146 618 Q153 623 158 623 Q172 623 175 613 Q176 607 172 601 L169 601 Q167 603 167 603 L167 610 Q166 611 166 614 Q165 615 165 615 Z " />
<glyph glyph-name="braceright" unicode="&#x7d;" horiz-adv-x="127" d="M-39 -165 Q-40 -165 -41 -164 L-43 -164 Q-44 -164 -45 -163 Q-45 -160 -43 -160 Q-39 -158 -37.5 -156 Q-36 -154 -34 -152 Q-9 -123 3 -86 Q13 -55 20 -23.5 Q27 8 29 40 Q32 71 32 105 Q33 122 33 140 Q33 158 34 176 Q35 189 35.5 201.5 Q36 214 39 226 Q41 236 45 244.5 Q49 253 57 261 Q59 263 62.5 265.5 Q66 268 69 270 Q73 272 70 275 L50 295 Q29 317 29 344 Q29 352 29 361 Q29 370 31 379 Q34 402 38 424 Q42 446 45 469 Q49 489 52 508 Q55 527 58 547 Q60 559 59.5 571.5 Q59 584 56 596 Q54 604 51 607 Q47 613 43.5 615 Q40 617 29 615 Q22 615 16.5 612.5 Q11 610 5 607 Q4 607 3.5 606.5 Q3 606 2 606 Q-2 606 -2 608 Q-3 609 -1 611 Q7 618 22 621 Q47 624 61 609 Q66 602 68.5 596 Q71 590 73 583 Q76 564 74 541 Q72 527 70.5 512 Q69 497 66 483 Q63 463 59.5 442 Q56 421 52 401 Q50 388 49 375.5 Q48 363 47 351 Q44 328 56 306 Q60 298 66 292 Q72 286 79 279 L85 273 Q89 269 84 266 Q81 264 78 261.5 Q75 259 72 256 Q61 245 58 229 Q56 219 55 209.5 Q54 200 54 191 L54 136 Q54 113 54 90.5 Q54 68 52 45 Q47 -6 34 -54 L22 -93 Q14 -116 -7 -140 L-25 -158 Q-29 -164 -38 -165 L-39 -165 Z " />
<glyph glyph-name="plus" unicode="&#x2b;" horiz-adv-x="220" d="M105 205 Q104 193 103.5 181.5 Q103 170 102 158 Q102 151 102 144 Q102 137 101 130 Q101 128 103 124 Q103 120 101 120 Q95 117 89 126 Q87 129 86.5 133 Q86 137 87 140 Q87 151 87 160.5 Q87 170 88 181 Q88 186 88 190.5 Q88 195 89 200 L89 205 L84 205 L38 205 L30 205 Q28 203 27 205 Q25 205 23 207 L26 210 Q31 211 36.5 211.5 Q42 212 47 212 Q57 213 66.5 212.5 Q76 212 85 212 L89 212 Q90 217 90 221 Q90 225 90 230 Q91 240 91.5 249.5 Q92 259 93 270 Q93 271 93.5 271.5 Q94 272 94 273 Q96 278 100 277 Q105 277 107 271 Q110 262 108 251 Q108 241 107.5 231.5 Q107 222 106 212 L122 212 Q133 213 143 213 Q153 213 164 213 Q169 213 177 211 Q180 210 184 206 Q186 205 185.5 204 Q185 203 183 203 Q180 203 178 204 Q176 204 174.5 204.5 Q173 205 171 205 L124 205 L105 205 Z " />
<glyph glyph-name="underscore" unicode="&#x5f;" horiz-adv-x="197" d="M54 123 Q46 123 38 123 Q30 123 22 124 Q20 124 16 126 Q12 129 17 131 Q27 133 33 133 Q69 134 105 133 Q116 132 125.5 132 Q135 132 145 132 Q146 132 146.5 132.5 Q147 133 148 133 Q150 133 150.5 132.5 Q151 132 153 132 Q155 128 155 127 Q155 125 151 125 Q144 124 137.5 123.5 Q131 123 124 123 Q115 122 106 122 Q97 122 88 122 L54 122 L54 123 Z " />
<glyph glyph-name="hyphen" unicode="&#x2d;" horiz-adv-x="167" d="M54 193 Q48 193 42 193.5 Q36 194 30 194 Q26 194 25 197 Q21 201 25 201 Q30 202 38 204 Q52 205 66.5 205 Q81 205 96 203 L126 203 L129 203 Q132 203 133 202 Q134 201 134 200 Q134 199 135 198 Q135 196 132 196 Q126 195 120.5 194.5 Q115 194 110 193 Q102 193 95.5 192.5 Q89 192 81 192 Q74 192 67.5 192.5 Q61 193 54 193 Z " />
<glyph glyph-name="equal" unicode="&#x3d;" horiz-adv-x="170" d="M56 214 Q49 214 43 214 Q37 214 31 215 Q28 215 26 217 Q22 220 27 222 Q35 224 39 224 Q67 225 96 224 Q104 223 111.5 223.5 Q119 224 127 224 L130 224 Q133 224 134 223 Q136 221 136 218 Q136 217 135 217 Q133 216 133 216 Q128 215 122 215 Q116 215 111 214 Q104 214 97 213.5 Q90 213 82 213 Q76 213 69 213 Q62 213 56 214 Z M50 182 Q44 182 37.5 182 Q31 182 25 183 Q22 183 20 185 Q16 188 21 190 Q29 192 33 192 Q61 193 91 192 Q99 191 106.5 191 Q114 191 122 191 Q123 191 123 191.5 Q123 192 124 192 Q126 192 126.5 191.5 Q127 191 128 191 Q130 187 130 186 Q130 184 127 184 Q122 183 116.5 182.5 Q111 182 105 182 Q98 181 91 181 Q84 181 76 181 L50 181 L50 182 Z " />
<glyph glyph-name="bracketleft" unicode="&#x5b;" horiz-adv-x="95" d="M83 -147 Q82 -148 81.5 -148 Q81 -148 80 -149 Q69 -152 58 -155 Q47 -158 36 -161 Q35 -161 33 -163 Q33 -165 31 -165.5 Q29 -166 27 -165 Q25 -165 25 -164 Q22 -164 21 -163 Q22 -162 23 -160 Q18 -154 17.5 -147 Q17 -140 16 -133 Q15 -117 14.5 -101.5 Q14 -86 14 -70 Q13 -54 13 -38.5 Q13 -23 12 -7 L12 53 Q11 67 11 81.5 Q11 96 11 110 L11 178 Q10 192 10 206 Q10 220 10 234 L10 282 Q10 298 10 313 Q10 328 11 343 Q11 360 11 375.5 Q11 391 12 408 Q13 433 13.5 458 Q14 483 15 508 Q16 528 16 546.5 Q16 565 17 584 Q18 593 18.5 602 Q19 611 19 619 Q20 622 22 622 Q49 622 78 619 Q83 618 87.5 617.5 Q92 617 97 617 Q101 617 102 614 L99 614 Q89 615 80 615 Q71 615 62 616 Q54 617 45 617 Q36 617 28 618 Q28 613 28.5 609 Q29 605 29 601 L29 574 Q29 568 29.5 562 Q30 556 30 550 L30 519 L30 463 Q29 446 29 430 Q29 414 28 397 Q28 381 27.5 365.5 Q27 350 27 334 Q26 312 25.5 290 Q25 268 25 246 Q24 227 24 208.5 Q24 190 24 171 L24 102 L24 25 L24 -31 Q25 -46 25 -61.5 Q25 -77 25 -92 L28 -143 Q28 -146 29 -149.5 Q30 -153 31 -156 Q31 -157 32 -158 L62 -149 L80 -146 L83 -146 L83 -147 Z " />
<glyph glyph-name="bracketright" unicode="&#x5d;" horiz-adv-x="105" d="M23 -157 Q23 -150 23 -144 Q23 -138 24 -131 Q26 -118 27 -105.5 Q28 -93 29 -79 Q31 -62 31.5 -44 Q32 -26 33 -9 Q34 6 34 21 Q34 36 34 51 L34 105 Q34 123 34 140.5 Q34 158 35 175 Q35 201 35.5 226.5 Q36 252 36 278 Q37 305 37.5 332 Q38 359 40 386 Q41 410 41.5 433.5 Q42 457 43 480 Q44 499 44.5 517 Q45 535 46 554 L46 593 L46 616 L46 620 Q44 620 43.5 620.5 Q43 621 42 621 Q33 620 25 620 Q17 620 9 619 Q-2 619 -11.5 618.5 Q-21 618 -32 618 Q-34 618 -36 618.5 Q-38 619 -40 619 Q-40 620 -40.5 620.5 Q-41 621 -41 622 Q-40 623 -39 623 Q-36 623 -32.5 622.5 Q-29 622 -26 622 Q-11 623 3.5 623.5 Q18 624 33 624 Q37 624 40 623.5 Q43 623 47 622 Q55 620 55 613 Q56 607 56.5 600.5 Q57 594 58 588 Q59 581 59 575 Q59 569 60 563 L60 529 L60 483 Q59 467 59 451 Q59 435 58 419 Q57 398 56.5 377.5 Q56 357 56 336 Q55 320 54.5 304.5 Q54 289 54 273 Q53 256 53 239 Q53 222 52 205 Q52 188 51.5 172 Q51 156 50 139 L50 87 Q49 74 49 61.5 Q49 49 48 36 Q48 19 47.5 2.5 Q47 -14 46 -31 Q44 -57 42.5 -81 Q41 -105 37 -130 Q36 -136 35.5 -141.5 Q35 -147 33 -153 Q33 -154 35 -155 Q37 -156 35 -158 Q33 -160 30.5 -161.5 Q28 -163 24 -162 Q22 -162 19 -162.5 Q16 -163 13 -163 Q6 -164 -0.5 -164 Q-7 -164 -15 -164 Q-17 -164 -19.5 -164.5 Q-22 -165 -24 -165 L-26 -165 Q-27 -164 -28 -164 Q-27 -162 -27 -162 Q-21 -160 -18 -160 Q-10 -159 -3 -159 Q4 -159 12 -158 Q14 -158 17 -157.5 Q20 -157 23 -157 Z " />
<glyph glyph-name="backslash" unicode="&#x5c;" horiz-adv-x="228" d="M219 -219 Q216 -209 213 -200 Q210 -191 208 -182 Q206 -175 204 -168.5 Q202 -162 200 -155 Q197 -145 194.5 -135.5 Q192 -126 189 -116 Q187 -109 185 -102 Q183 -95 181 -87 L169 -45 Q167 -36 164 -27 Q161 -18 159 -9 Q156 1 153.5 10.5 Q151 20 149 30 L137 78 Q134 88 131.5 98 Q129 108 127 119 Q124 131 121 142.5 Q118 154 115 166 Q112 180 108.5 195 Q105 210 101 224 Q98 238 94.5 253 Q91 268 87 283 Q82 302 78 321 Q74 340 69 359 L42 476 Q38 493 34 511 Q30 529 26 546 Q23 557 20.5 567.5 Q18 578 15 589 Q12 603 9 617 Q6 631 3 645 Q1 656 -1 666 Q-3 676 -5 687 Q-7 697 -8.5 707 Q-10 717 -12 727 Q-13 729 -12.5 730.5 Q-12 732 -10 731 Q-6 731 -4 726 Q-2 719 0 712.5 Q2 706 4 698 Q8 687 9 678 Q11 672 12 665.5 Q13 659 15 653 Q16 648 17 643.5 Q18 639 19 634 L25 613 Q26 609 26.5 605 Q27 601 29 596 Q31 589 32.5 582.5 Q34 576 36 568 Q37 564 38 560 Q39 556 40 551 Q42 544 43.5 537.5 Q45 531 47 523 Q49 518 50 512.5 Q51 507 52 502 Q54 493 56.5 484.5 Q59 476 61 467 Q63 458 65 449.5 Q67 441 69 432 Q73 417 76.5 401.5 Q80 386 84 371 L96 323 Q99 310 102 297.5 Q105 285 108 271 Q111 260 114 248 Q117 236 119 224 Q122 213 124.5 202.5 Q127 192 130 181 Q132 170 135 159.5 Q138 149 140 138 Q142 127 145 116.5 Q148 106 150 95 Q152 85 155 75.5 Q158 66 160 56 Q162 47 164.5 37.5 Q167 28 169 18 Q171 10 172.5 2 Q174 -6 176 -14 Q178 -22 180 -31 Q182 -40 184 -48 L193 -81 Q195 -89 197 -97.5 Q199 -106 201 -114 Q203 -122 205 -129.5 Q207 -137 209 -145 Q211 -153 213.5 -161 Q216 -169 218 -177 Q220 -185 222 -191.5 Q224 -198 226 -205 Q227 -210 228 -214 Q229 -218 230 -223 Q231 -225 231.5 -225.5 Q232 -226 233 -228 L233 -230 Q231 -230 230 -230.5 Q229 -231 227 -231 Q223 -229 222 -227 Q220 -221 219 -219 Z " />
<glyph glyph-name="slash" unicode="&#x2f;" horiz-adv-x="185" d="M-58 -219 Q-56 -209 -54 -200 Q-52 -191 -50 -182 L-44 -155 Q-42 -145 -40 -135.5 Q-38 -126 -36 -116 Q-34 -109 -32.5 -102 Q-31 -95 -29 -87 Q-27 -76 -24 -66 Q-21 -56 -19 -45 Q-17 -36 -15 -27 Q-13 -18 -11 -9 L-2 30 L10 78 Q13 88 15.5 98 Q18 108 21 119 Q24 131 27 142.5 Q30 154 33 166 Q38 180 41.5 195 Q45 210 49 224 Q53 238 56.5 253 Q60 268 64 283 Q69 302 74.5 321 Q80 340 85 359 Q93 388 101 417.5 Q109 447 117 476 Q122 493 126.5 511 Q131 529 136 546 Q139 557 141.5 567.5 Q144 578 147 589 Q152 603 155.5 617 Q159 631 163 645 Q166 656 169.5 666 Q173 676 176 687 Q182 705 190 727 Q190 732 194 731 Q198 731 198 726 Q196 719 194.5 712.5 Q193 706 191 698 Q190 693 189 688 Q188 683 186 678 Q184 672 182.5 665.5 Q181 659 179 653 Q178 648 177 643.5 Q176 639 174 634 Q173 629 172 623.5 Q171 618 169 613 Q167 609 166.5 605 Q166 601 165 596 Q163 589 161 582.5 Q159 576 157 568 Q156 564 155.5 560 Q155 556 153 551 Q151 544 149.5 537.5 Q148 531 146 523 L140 502 Q138 493 135.5 484.5 Q133 476 131 467 Q129 458 126.5 449.5 Q124 441 122 432 Q118 417 114 401.5 Q110 386 106 371 Q103 359 99.5 347 Q96 335 93 323 Q90 310 86.5 297.5 Q83 285 79 271 Q76 260 73 248 Q70 236 67 224 Q64 213 61 202.5 Q58 192 55 181 Q53 170 50 159.5 Q47 149 44 138 Q41 127 38 116.5 Q35 106 32 95 Q30 85 27.5 75.5 Q25 66 22 56 Q20 47 17 37.5 Q14 28 12 18 Q10 10 7.5 2 Q5 -6 3 -14 Q1 -22 -1 -31 Q-3 -40 -5 -48 L-14 -81 Q-16 -89 -18 -97.5 Q-20 -106 -22 -114 Q-24 -122 -26 -129.5 Q-28 -137 -30 -145 Q-32 -153 -34 -161 Q-36 -169 -38 -177 Q-40 -185 -41 -191.5 Q-42 -198 -44 -205 Q-45 -210 -46 -214 Q-47 -218 -48 -223 L-48 -228 Q-48 -229 -49 -230 Q-51 -230 -52 -230.5 Q-53 -231 -55 -231 Q-58 -230 -58 -227 L-58 -219 Z " />
<glyph glyph-name="colon" unicode="&#x3a;" horiz-adv-x="68" d="M34 206 Q40 204 39 198 Q39 190 31 188 L24 188 Q21 189 21 193 Q21 198 24 203 Q27 206 31 206 L34 206 Z M23 223 Q21 224 21 227 Q21 233 27 236 Q31 238 35 237 Q40 235 39 231 Q39 223 30 221 Q25 221 23 223 Z " />
<glyph glyph-name="semicolon" unicode="&#x3b;" horiz-adv-x="78" d="M44 180 Q44 178 43 177 Q39 170 36 164 Q33 158 29 152 Q27 150 25 148 Q23 146 21 144 Q18 142 14 145 Q11 148 13 151 Q21 165 27 179 Q29 185 29 187 Q32 192 36 191 Q44 188 44 180 Z M31 223 Q28 224 28 227 Q30 234 34 236 Q39 238 42 237 Q47 236 47 231 Q45 223 37 221 Q33 221 31 223 Z " />
<glyph glyph-name="comma" unicode="&#x2c;" horiz-adv-x="70" d="M40 162 Q40 161 39.5 160.5 Q39 160 39 159 Q35 152 32 146 Q29 140 25 134 Q23 132 21 130 Q19 128 17 126 Q14 124 10 127 Q7 130 9 133 Q13 140 16 147 Q19 154 23 161 Q24 163 24 165 Q24 167 25 169 Q26 175 32 172 Q40 170 40 162 Z " />
<glyph glyph-name="period" unicode="&#x2e;" horiz-adv-x="75" d="M29 155 Q27 156 27 159 Q27 165 33 168 Q37 170 40 169 Q45 168 45 163 Q45 155 36 153 Q31 153 29 155 Z " />
<glyph glyph-name="quotedbl" unicode="&#x22;" horiz-adv-x="85" d="M41 662 Q45 659 45 654 Q44 646 43.5 638.5 Q43 631 42 623 Q42 619 41.5 615.5 Q41 612 41 609 Q41 605 38 604 Q33 604 33 608 Q32 611 32 618 L32 657 Q33 665 41 662 Z M60 662 Q65 659 64 654 Q63 646 63 638.5 Q63 631 62 623 Q61 619 61 615.5 Q61 612 60 609 Q60 605 58 604 Q56 604 54 605 Q52 606 52 608 Q52 610 51.5 612.5 Q51 615 51 618 Q51 628 51 637.5 Q51 647 52 657 Q52 665 60 662 Z " />
<glyph glyph-name="quotesingle" unicode="&#x27;" horiz-adv-x="73" d="M47 662 Q52 659 51 654 Q50 646 50 638.5 Q50 631 49 623 Q48 619 48 615.5 Q48 612 47 609 Q47 605 45 604 Q43 604 41 605 Q39 606 39 608 Q39 610 38.5 612.5 Q38 615 38 618 Q38 628 38 637.5 Q38 647 39 657 Q39 665 47 662 Z " />
<glyph glyph-name="bar" unicode="&#x7c;" horiz-adv-x="88" d="M41 -219 Q40 -209 39.5 -200 Q39 -191 38 -182 Q38 -175 37.5 -168.5 Q37 -162 37 -155 Q36 -145 36 -135.5 Q36 -126 35 -116 Q35 -109 34.5 -102 Q34 -95 34 -87 Q33 -76 33 -66 Q33 -56 32 -45 Q32 -36 31.5 -27 Q31 -18 31 -9 Q30 1 30 10.5 Q30 20 29 30 L29 78 Q29 88 29 98 Q29 108 28 119 L28 166 L28 224 L28 283 L28 359 L28 476 L28 546 L28 589 Q28 603 28.5 617 Q29 631 29 645 Q29 656 29.5 666 Q30 676 31 687 Q31 697 31.5 707 Q32 717 33 727 Q33 732 37 731 Q41 731 41 726 Q42 719 42 712.5 Q42 706 43 698 L43 678 L43 653 L43 634 L43 613 L43 596 Q43 589 43 582.5 Q43 576 44 568 L44 551 L44 523 Q44 518 44.5 512.5 Q45 507 45 502 L45 467 L45 432 L45 371 L45 323 Q46 310 46 297.5 Q46 285 46 271 L46 224 L46 181 L46 138 L46 95 Q46 85 46.5 75.5 Q47 66 47 56 L47 18 L47 -14 L47 -48 L47 -81 Q47 -89 47 -97.5 Q47 -106 48 -114 Q48 -122 48 -129.5 Q48 -137 49 -145 L49 -177 Q50 -185 50 -191.5 Q50 -198 51 -205 L51 -223 Q51 -224 53 -228 L53 -230 Q51 -230 49.5 -230.5 Q48 -231 46 -231 Q43 -230 42 -227 Q42 -225 41.5 -223 Q41 -221 41 -219 Z " />
<glyph glyph-name="less" unicode="&#x3c;" horiz-adv-x="150" d="M45 189 L28 172 L114 104 Q113 104 112 103.5 Q111 103 110 103 Q109 103 105 105 L99 108 L16 168 Q15 170 14 171.5 Q13 173 12 175 Q7 186 16 196 Q18 200 21 203 Q24 206 27 209 Q37 217 46 225.5 Q55 234 65 242 Q87 260 109 274 Q116 280 124 275 Q131 270 124 263 Q118 255 110 249 Q96 236 82.5 224 Q69 212 55 199 Q55 197 53 197 L45 189 Z " />
<glyph glyph-name="greater" unicode="&#x3e;" horiz-adv-x="143" d="M115 183 Q115 182 114.5 181.5 Q114 181 114 180 L34 101 Q29 96 23.5 98 Q18 100 14 107 Q18 113 19 114 Q23 119 26.5 122.5 Q30 126 34 131 Q39 136 43 141 Q47 146 52 151 L98 205 L15 274 Q15 278 18 277 Q23 277 28 274 Q33 271 36.5 268 Q40 265 45 262 Q60 250 75 238 Q90 226 104 214 Q110 209 113 205 Q121 194 115 183 Z " />
<glyph glyph-name="question" unicode="&#x3f;" horiz-adv-x="210" d="M66 105 Q60 104 60 109 Q60 112 60 115.5 Q60 119 61 123 Q66 146 70 169 Q74 192 78 215 Q84 249 93 284 Q100 310 108.5 336 Q117 362 127 388 Q136 411 145 435 Q154 459 163 482 Q169 498 174 514 Q179 530 182 547 Q184 557 185 566.5 Q186 576 184 587 Q184 598 179 608 Q169 626 147 631 Q126 635 103 629 Q77 621 54.5 608 Q32 595 14 575 Q-1 560 -6 538 Q-8 529 -3 524 Q-6 522 -11 525 Q-15 530 -15 537 Q-16 547 -11 559 Q-4 577 11 590 Q46 627 95 640 Q121 648 146 642 Q170 636 185.5 619 Q201 602 203 579 Q206 557 199 532 Q194 511 187 491.5 Q180 472 172 452 Q159 420 146.5 387.5 Q134 355 123 322 Q113 294 104.5 267 Q96 240 89 211 Q82 186 77 161 Q72 136 66 111 L66 105 Z M55 50 Q55 55 55 59.5 Q55 64 56 69 Q56 77 64 77 Q68 76 68 73 L68 68 Q66 60 65 51.5 Q64 43 66 35 Q66 32 64 31 Q60 29 58 32 Q57 34 55 40 Q54 43 54.5 45.5 Q55 48 55 50 Z " />
<glyph glyph-name="zero" unicode="0" horiz-adv-x="162" d="M18 197 Q18 213 19.5 235 Q21 257 26 280 Q28 290 30.5 299.5 Q33 309 38 317 Q45 333 57 336 Q67 340 73 331 L76 331 Q82 336 88 331 Q93 327 98.5 323 Q104 319 109 314 Q112 310 113.5 305 Q115 300 117 295 Q122 281 123.5 266.5 Q125 252 125 238 Q124 206 118.5 176.5 Q113 147 102 120 Q91 93 74 79 Q64 71 54 72 Q41 75 32 91 Q24 107 21 125 Q19 141 18 157.5 Q17 174 18 197 Z M65 326 Q61 324 59.5 320 Q58 316 56 314 Q53 306 50.5 298 Q48 290 46 281 Q42 263 40.5 244.5 Q39 226 38 206 Q38 173 41 139 Q42 131 44 124 Q46 117 48 110 Q50 105 52.5 101.5 Q55 98 58 94 Q67 85 75 95 Q78 97 82 104 Q86 111 89.5 119 Q93 127 95 136 Q109 181 109 224 Q110 239 109 254 Q108 269 104 283 Q99 310 82 324 Q81 324 80 325 Q79 321 78.5 318 Q78 315 76 311 Q74 307 72 311 Q70 315 70 316 Q68 324 65 326 Z " />
<glyph glyph-name="one" unicode="1" horiz-adv-x="102" d="M36 79 Q34 109 32.5 138.5 Q31 168 31 197 Q32 229 32 258 Q32 287 33 318 L30 315 Q28 313 26.5 311.5 Q25 310 22 307 Q17 304 15 307 Q15 311 16 312 Q19 317 23 321.5 Q27 326 30 331 Q35 337 42.5 336.5 Q50 336 53 329 Q54 325 55 322 Q56 319 56 315 Q58 307 58 300 Q58 293 58 285 Q56 258 56 231 Q56 204 54 175 Q53 163 52 150.5 Q51 138 50 124 Q49 113 49 101.5 Q49 90 48 79 L56 79 Q58 78 59 78 Q60 78 61 74 Q60 74 59.5 72.5 Q59 71 58 71 Q50 71 42.5 71 Q35 71 27 70 Q26 70 25 70.5 Q24 71 22 71 Q25 77 29 77 Q33 77 36 79 Z " />
<glyph glyph-name="two" unicode="2" horiz-adv-x="142" d="M33 248 Q29 244 27 249 Q22 254 22 260 Q22 265 22 269 Q22 273 23 278 Q27 291 32 302.5 Q37 314 45 324 Q58 342 78 334 Q94 325 99 300 Q101 291 100.5 280.5 Q100 270 99 262 Q97 245 93.5 229.5 Q90 214 85 198 Q68 147 43 102 Q42 98 39 92 Q41 92 41.5 91.5 Q42 91 43 91 Q51 91 58 91.5 Q65 92 73 91 Q80 91 85.5 90 Q91 89 98 89 Q100 87 102 87 Q104 87 106 86 Q110 82 107 76 Q102 71 97 73 Q92 75 88.5 75.5 Q85 76 80 76 Q75 78 70.5 77 Q66 76 61 76 Q54 75 47 75.5 Q40 76 33 76 Q31 76 28.5 77 Q26 78 23 79 Q20 82 21 91 Q23 93 24 95.5 Q25 98 27 102 Q40 126 51 154 Q62 182 69 212 Q74 229 76 247 Q78 265 79 283 Q79 298 76 313 Q73 321 71 322 Q69 323 63 319 Q57 315 55 313 Q41 295 33 269 Q32 264 31.5 258.5 Q31 253 33 248 Z " />
<glyph glyph-name="three" unicode="3" horiz-adv-x="130" d="M50 218 Q51 216 51.5 216 Q52 216 53 215 Q67 208 74 194.5 Q81 181 85 163 Q88 147 87 133 Q86 110 71.5 91 Q57 72 38 72 Q28 71 20 77.5 Q12 84 6 95 Q6 96 5.5 97.5 Q5 99 5 101 Q3 107 7 109 Q10 112 14 110 Q14 109 15 108 Q16 107 16 105 Q14 102 15 100 Q16 98 18 95 Q20 93 22 91 Q24 89 26 87 Q28 85 34 85 Q47 90 57 105 Q67 120 68 139 Q70 152 68.5 163.5 Q67 175 62 186 Q57 194 53.5 198.5 Q50 203 44 206 Q39 209 37 213 Q27 217 32 228 Q36 233 38.5 238.5 Q41 244 43 249 Q48 259 52 267.5 Q56 276 61 285 Q66 293 68 310 Q70 315 69 318 Q68 321 66 325 Q64 325 62 323 Q60 321 56 319 Q50 315 42 301 Q38 293 33.5 285 Q29 277 27 268 Q23 264 21 264 Q18 267 17 272 Q17 274 18 276 Q18 281 19 285 Q24 299 31 310.5 Q38 322 48 330 Q56 339 67 336 Q87 328 84 303 Q84 293 79 281 Q75 268 70 257 Q65 246 60 235 Q56 230 54 226.5 Q52 223 50 218 Z " />
<glyph glyph-name="four" unicode="4" horiz-adv-x="145" d="M75 235 Q74 233 73.5 231 Q73 229 72 228 Q68 221 65 217 Q62 213 58 209 Q47 200 34.5 205.5 Q22 211 16 222 Q11 233 13 245 Q13 255 15 263 Q17 271 19 280 Q24 293 28.5 305.5 Q33 318 39 329 Q39 331 40 334 Q42 339 47 336 Q52 334 50 328 Q50 325 49 321.5 Q48 318 47 315 Q44 301 40.5 288.5 Q37 276 34 264 Q32 256 31.5 249.5 Q31 243 31 235 Q31 230 32 227 Q33 224 34 221 Q36 214 40 218 Q46 218 48 219 Q52 223 55.5 226 Q59 229 62 234 Q73 252 79 273 Q80 277 81 282.5 Q82 288 82 293 Q84 299 84.5 305 Q85 311 86 317 Q90 329 95 326 Q97 326 99.5 322.5 Q102 319 102 315 L102 309 L99 204 Q97 180 96.5 155.5 Q96 131 95 106 L95 85 Q94 79 88.5 76 Q83 73 79 78 Q78 80 78 82 Q77 107 77 131 Q77 155 77 178 Q77 184 76 189.5 Q75 195 75 201 L75 229 L75 235 Z " />
<glyph glyph-name="five" unicode="5" horiz-adv-x="145" d="M30 101 Q30 96 29 94 Q31 92 32 90 Q34 88 36.5 86.5 Q39 85 41 84 Q46 83 50 85 Q64 93 71 112 Q78 128 81 150 Q83 167 83.5 182.5 Q84 198 82 215 Q81 220 80.5 225 Q80 230 79 234 Q75 241 73 242.5 Q71 244 67 242 Q63 240 59.5 237.5 Q56 235 52 232 Q50 230 47 226 Q44 222 40 219 Q34 211 25 214 Q17 216 17 229 Q17 238 17 246.5 Q17 255 18 264 Q19 275 20 286 Q21 297 23 307 Q24 310 24.5 313.5 Q25 317 27 320 Q30 334 40 338 Q45 338 48.5 338.5 Q52 339 56 338 Q67 338 71 336 Q72 336 78 333 Q79 330 78 327 Q76 326 72 326 Q70 325 66 325 L52 325 Q47 325 45 314 Q40 300 39 286 Q38 275 37.5 264 Q37 253 36 242 L36 236 Q37 238 38 239 Q47 244 55 252 Q69 259 79 254 Q93 248 99 225 Q102 210 102 195 Q102 178 100 162.5 Q98 147 93 133 Q84 89 53 75 Q39 70 24 85 Q23 88 21.5 90 Q20 92 20 94 Q22 101 27 101 L30 101 Z " />
<glyph glyph-name="six" unicode="6" horiz-adv-x="152" d="M72 327 Q68 324 63 316 Q58 309 56 300.5 Q54 292 52 283 Q47 263 44.5 242 Q42 221 42 199 Q42 188 42 176.5 Q42 165 44 154 Q44 149 45 147 Q49 160 51 173 Q54 185 59 195.5 Q64 206 69 215 Q76 225 85 228 Q100 232 106 213 Q109 205 109.5 198 Q110 191 110 182 Q108 144 97 111 Q95 104 92 97.5 Q89 91 84 86 Q71 70 54 74 Q41 76 36 90 Q29 99 26.5 110 Q24 121 22 132 Q21 145 20.5 157 Q20 169 20 182 Q21 205 23.5 228.5 Q26 252 31 273 Q33 284 35.5 293.5 Q38 303 40 312 Q44 317 46.5 321 Q49 325 52 330 Q58 340 69 338 Q80 338 86 322 Q93 310 91 294 Q91 292 90.5 289.5 Q90 287 90 285 Q87 282 85 282 Q81 282 81 287 Q81 292 80 295 Q79 301 78.5 307 Q78 313 76 318 Q76 321 72 327 Z M87 217 Q81 212 76 202 Q66 185 60 165 Q54 145 49 125 L49 118 Q50 112 51.5 106.5 Q53 101 56 98 Q62 92 64 89 Q69 87 70 90 Q73 93 75 96.5 Q77 100 79 102 Q81 109 82.5 115.5 Q84 122 86 129 Q97 163 93 198 Q93 211 87 217 Z " />
<glyph glyph-name="seven" unicode="7" horiz-adv-x="115" d="M42 206 Q46 223 50.5 241 Q55 259 60 276 Q66 294 72 315 Q72 317 72.5 319 Q73 321 73 325 L68 325 Q57 324 47.5 322.5 Q38 321 29 320 L20 320 Q15 320 14 324 Q15 326 16 326 Q17 326 19 328 L37 331 Q43 333 49 334 Q55 335 62 336 Q74 339 84 335 Q96 328 95 315 Q94 309 93 304 Q92 299 90 295 Q85 281 81 266.5 Q77 252 73 238 Q67 222 64 206 Q65 204 67.5 204.5 Q70 205 70 201 L63 201 Q62 200 62 199 L62 197 Q55 171 50 146 Q45 121 41 95 Q40 92 40 88 Q40 84 38 80 Q38 75 35 73 Q32 71 29 72 Q26 72 26 77 Q26 81 27 85.5 Q28 90 28 94 Q30 109 31.5 124 Q33 139 35 154 Q36 165 37 175.5 Q38 186 41 197 L41 201 Q36 201 33 200 Q30 200 28 201 L27 201 Q26 201 26 202 L28 204 Q30 204 32 204.5 Q34 205 37 205 Q40 205 42 206 Z " />
<glyph glyph-name="eight" unicode="8" horiz-adv-x="147" d="M55 211 Q57 213 57 213.5 Q57 214 59 216 Q56 219 53 221.5 Q50 224 47 228 Q37 245 31 261 Q25 297 46 325 Q47 326 47 327 Q64 343 81.5 337 Q99 331 106 317 Q112 306 112 291 Q110 272 101.5 254.5 Q93 237 80 222 Q80 220 79 219.5 Q78 219 77 217 Q78 216 78 215 Q78 214 80 214 Q85 206 88.5 200.5 Q92 195 97 188 Q104 183 105 176 Q126 144 104 112 Q83 80 47 73 Q37 72 27 75 Q18 80 14 85.5 Q10 91 7 100 Q5 118 11 135 Q20 166 35 195 Q37 199 38 201.5 Q39 204 41 207 Q48 214 53 211 Q54 209 55 206 Q50 207 49 204.5 Q48 202 46 198 Q39 181 33.5 164 Q28 147 25 129 Q23 121 23.5 113 Q24 105 27 97 Q27 93 31 87 Q35 80 39 84 Q62 90 77 109 Q83 116 86.5 124 Q90 132 93 141 Q95 160 88 176 Q83 184 76.5 191.5 Q70 199 64 207 L63 207 Q61 207 61 209 Q59 209 58.5 210 Q58 211 55 211 Z M70 226 Q72 228 72 228.5 Q72 229 73 231 Q79 241 83.5 251 Q88 261 90 272 Q96 287 96 304 Q96 314 90 322 Q83 332 72 325 Q65 321 62 316 Q57 309 55 301 Q53 293 51 285 Q48 252 69 228 L70 226 Z " />
<glyph glyph-name="nine" unicode="9" horiz-adv-x="130" d="M32 234 Q37 234 39 240 Q43 245 45.5 249.5 Q48 254 52 259 Q57 270 61.5 282.5 Q66 295 71 308 Q73 314 75 317 Q76 322 84 322 Q86 321 89 320 Q92 319 92 314 Q93 309 93 302 Q93 280 92.5 257.5 Q92 235 92 212 Q92 190 89 166 Q89 153 86.5 141 Q84 129 80 116 Q77 105 72 96.5 Q67 88 59 82 Q54 78 48 75 Q42 72 34 72 Q27 72 23 77 Q17 83 17 90 Q17 94 16.5 98.5 Q16 103 16 108 Q16 116 24 120 Q26 120 28 118 Q26 117 26 117 L26 116 Q23 115 23 108 Q23 104 23.5 101.5 Q24 99 24 95 Q25 93 26.5 90.5 Q28 88 30 85 Q37 80 44 85 Q48 89 51 93 Q54 97 56 103 Q61 112 63 120.5 Q65 129 67 140 Q69 159 69.5 178.5 Q70 198 71 218 Q72 233 72.5 248 Q73 263 75 278 Q75 283 73 285 Q72 285 72 284 L72 281 Q68 273 65 265 Q62 257 57 249 Q55 244 51.5 239 Q48 234 45 229 Q39 223 30 225 Q21 227 16 236 Q14 239 13 243 Q12 247 10 250 Q6 291 25 325 Q37 342 54 335 Q66 329 68 311 Q68 308 67 307 Q65 305 62 308 Q62 312 59 317 Q57 320 54 326 Q52 328 49.5 328 Q47 328 45 326 Q43 325 41.5 322.5 Q40 320 38 318 Q31 302 26 280 Q25 271 25.5 262 Q26 253 28 245 Q29 241 29.5 238.5 Q30 236 32 234 Z " />
<glyph glyph-name="quoteleft" unicode="&#x2018;" horiz-adv-x="78" d="M47 662 Q52 659 51 654 L49 623 L47 609 Q47 605 45 604 Q43 604 41 605 Q39 606 39 608 Q39 610 38.5 612.5 Q38 615 38 618 Q38 628 38 637.5 Q38 647 39 657 Q39 665 47 662 Z " />
<glyph glyph-name="quoteright" unicode="&#x2019;" horiz-adv-x="80" d="M47 662 Q52 659 51 654 L49 623 L47 609 Q47 605 45 604 Q43 604 41 605 Q39 606 39 608 Q39 610 38.5 612.5 Q38 615 38 618 Q38 628 38 637.5 Q38 647 39 657 Q39 665 47 662 Z " />
<glyph glyph-name="quotedblleft" unicode="&#x201c;" horiz-adv-x="91" d="M41 662 Q45 659 45 654 L42 623 Q42 619 41.5 615.5 Q41 612 41 609 Q41 605 38 604 Q33 604 33 608 Q32 611 32 618 L32 657 Q33 665 41 662 Z M60 662 Q65 659 64 654 L62 623 L60 609 Q60 605 58 604 Q56 604 54 605 Q52 606 52 608 Q52 610 51.5 612.5 Q51 615 51 618 Q51 628 51 637.5 Q51 647 52 657 Q52 665 60 662 Z " />
<glyph glyph-name="quotedblright" unicode="&#x201d;" horiz-adv-x="95" d="M41 662 Q45 659 45 654 L42 623 Q42 619 41.5 615.5 Q41 612 41 609 Q41 605 38 604 Q33 604 33 608 Q32 611 32 618 L32 657 Q33 665 41 662 Z M60 662 Q65 659 64 654 L62 623 L60 609 Q60 605 58 604 Q56 604 54 605 Q52 606 52 608 Q52 610 51.5 612.5 Q51 615 51 618 Q51 628 51 637.5 Q51 647 52 657 Q52 665 60 662 Z " />
<glyph glyph-name="a" unicode="a" horiz-adv-x="207" d="M207 250 Q209 250 211 249 Q213 248 211 245 Q195 221 184 199 Q177 186 171 173.5 Q165 161 159 149 Q153 137 147 124.5 Q141 112 133 101 Q130 96 126.5 91.5 Q123 87 118 83 Q118 83 116 81 L113 78 Q103 69 94 69 Q85 69 78 74.5 Q71 80 67 90 Q63 100 63 112 Q61 132 62 151 Q63 170 65 189 Q66 192 66 195 Q66 198 67 201 L71 232 Q69 227 66 223 Q63 219 61 214 L52 199 Q48 193 42 185.5 Q36 178 29.5 171.5 Q23 165 16 160.5 Q9 156 3 158 Q2 158 1.5 158.5 Q1 159 0 159 Q-7 163 -9.5 171.5 Q-12 180 -12 190 Q-12 200 -11 209.5 Q-10 219 -9 224 Q-4 242 5 257.5 Q14 273 34 269 Q40 267 44 260.5 Q48 254 46 247 Q45 243 40 243 Q38 243 36 248 Q32 262 28 260.5 Q24 259 16 247 Q2 217 6 187 Q7 182 8.5 176.5 Q10 171 13 168 Q19 171 26.5 179.5 Q34 188 40 197.5 Q46 207 51 215 Q56 223 58 226 L82 271 Q87 281 97 276 Q101 272 101 270 Q101 261 98 252 Q91 222 87 192 Q83 162 83 131 L83 130 Q82 122 82.5 115 Q83 108 84 101 Q85 93 89 84 Q91 80 94.5 77.5 Q98 75 106 81 Q108 83 110.5 85.5 Q113 88 115 90 Q123 98 129 107.5 Q135 117 140 127 Q146 138 151.5 149 Q157 160 162 171 Q173 191 183 211 Q193 231 207 250 Z " />
<glyph glyph-name="b" unicode="b" horiz-adv-x="197" d="M197 250 Q199 249 200 248 Q202 245 200 243 Q156 200 103 174 Q101 163 97 151 Q96 150 96 148 L95 148 Q95 147 94 146 L94 145 Q90 138 86 132 Q67 108 41 104 Q33 102 27 104 Q16 106 15 116 L15 109 Q14 106 14 101 L14 72 Q14 69 13 68 Q11 65 7 63 Q3 61 1 63 Q-1 65 -1 67 Q-2 76 -2 85 Q-2 94 -3 103 Q-3 116 -3.5 128.5 Q-4 141 -4 154 Q-3 173 -3 191.5 Q-3 210 -2 229 Q0 271 1 312 Q2 353 4 395 Q9 486 28 574 Q30 582 31.5 588.5 Q33 595 35 603 Q37 609 41.5 619 Q46 629 52 637.5 Q58 646 65 650 Q72 654 81 647 Q89 640 92 629.5 Q95 619 97 610 Q102 587 101.5 563 Q101 539 99 516 Q97 493 93 470.5 Q89 448 83 425 Q60 339 17 263 L17 246 Q16 231 16 216 Q16 201 16 185 Q15 181 15 177.5 Q15 174 15 171 Q16 172 16 173 Q16 174 17 175 Q27 206 41 230 L50 242 Q58 252 69.5 252.5 Q81 253 89 245 Q96 239 99 231 Q102 223 104 214 Q105 210 105.5 202 Q106 194 105 183 Q130 197 153 213.5 Q176 230 197 250 Z M18 281 Q26 296 33 311.5 Q40 327 47 343 Q63 381 74 422 Q85 463 90 505 Q92 526 93 547 Q94 568 92 589 Q91 600 89.5 610.5 Q88 621 83 631 Q81 635 79 638 Q78 638 78 639 Q73 644 69 639 Q65 634 63 629 Q60 621 57.5 614 Q55 607 53 599 Q48 580 44 561 Q40 542 37 523 Q28 471 25 417 Q23 394 22 371.5 Q21 349 19 326 L19 322 L19 316 L19 314 Q19 309 19 303 Q19 297 18 294 L18 281 Z M76 148 Q78 152 78.5 155.5 Q79 159 81 162 L80 162 Q78 161 76 160 Q74 159 72 158 Q67 156 63.5 153 Q60 150 55 148 Q50 145 46.5 142 Q43 139 39 136 Q37 134 36 131.5 Q35 129 33 127 Q30 121 35 116 Q38 112 45 114 Q48 116 51.5 118 Q55 120 57 122 Q64 127 68 133.5 Q72 140 76 148 Z M83 176 Q85 190 85.5 203 Q86 216 81 228 Q78 235 73 242 Q71 246 65 242 Q60 239 57 234 Q49 224 43.5 212.5 Q38 201 33 190 Q29 179 25.5 168 Q22 157 20 146 Q19 141 18 137 Q17 133 16 128 Q16 127 17 127 Q21 136 28 141 L28 142 Q32 145 35.5 148 Q39 151 44 153 L50 156 Q58 161 65.5 165 Q73 169 81 174 Q83 174 83 176 Z " />
<glyph glyph-name="R" unicode="R" horiz-adv-x="440" d="M-160 473 L-159 474 Q-161 494 -159 512 Q-156 555 -141 592 Q-126 634 -102.5 666 Q-79 698 -45 721 Q-23 737 2 741 Q59 750 102 698 Q111 684 118 669 Q125 654 130 637 Q135 621 139 605 Q143 589 146 573 Q155 517 155 463 L155 379 Q155 377 156 376 Q157 378 157 380 Q157 382 158 384 Q173 425 191 464 Q209 503 231 540 Q245 564 260.5 586.5 Q276 609 295 629 Q306 642 318 653 Q330 664 345 672 Q364 683 383 683 Q402 683 421.5 669.5 Q441 656 449 626 Q456 597 453 566 Q450 541 443.5 518.5 Q437 496 428 473 Q411 431 386.5 395 Q362 359 332 327 Q301 293 267 264 Q233 235 196 208 Q190 204 185 200 Q180 196 174 191 Q165 183 170 166 Q171 162 172.5 158.5 Q174 155 176 151 Q182 138 189.5 126.5 Q197 115 205 104 Q243 54 282 12 Q295 -2 308 -15 Q321 -28 334 -41 Q351 -58 369 -73.5 Q387 -89 406 -104 Q426 -120 446 -134.5 Q466 -149 487 -162 Q514 -179 541 -195 Q568 -211 596 -225 Q600 -227 603 -228 L605 -228 Q606 -227 608 -228 Q609 -228 609 -231 Q609 -235 606 -237 Q603 -239 600 -238 Q594 -236 592 -235 Q575 -227 559.5 -219 Q544 -211 528 -203 Q511 -194 495 -185 Q479 -176 462 -166 Q442 -155 424 -143 Q406 -131 388 -117 Q336 -78 288 -27 Q229 33 177 107 Q169 118 163 130 Q157 142 153 155 Q151 160 150.5 165 Q150 170 149 175 Q149 188 159 198 Q165 205 175 212 Q190 224 205.5 236 Q221 248 237 260 Q263 281 287.5 304 Q312 327 333 353 Q359 385 380 421.5 Q401 458 415 500 Q422 520 426 540.5 Q430 561 432 583 Q432 597 431.5 612 Q431 627 426 641 Q424 643 423.5 644.5 Q423 646 422 648 Q413 668 395 668 Q385 668 375.5 665 Q366 662 357 657 Q344 650 333 640 Q322 630 311 619 Q296 603 283 585 Q270 567 256 547 Q236 514 219 479 Q202 444 186 407 Q178 384 169.5 361.5 Q161 339 153 316 Q151 312 151.5 308.5 Q152 305 151 300 Q148 251 144 202 Q140 153 134 105 Q125 13 113 -74 Q109 -104 105 -134 Q101 -164 94 -193 L85 -223 Q83 -227 80.5 -229 Q78 -231 76 -233 Q74 -234 71 -234 Q65 -235 62 -228 Q60 -221 59 -214.5 Q58 -208 58 -200 Q56 -172 56.5 -145 Q57 -118 59 -90 Q63 -28 71.5 31 Q80 90 92 150 Q100 183 108 215 Q116 247 124 279 Q125 284 125.5 289.5 Q126 295 126 300 Q127 322 128 343.5 Q129 365 130 388 Q130 405 130.5 422.5 Q131 440 131 457 Q130 483 129 508.5 Q128 534 125 560 Q122 584 118 607.5 Q114 631 107 654 Q103 665 98.5 675.5 Q94 686 87 696 Q62 732 24 730 Q-2 729 -29 713 Q-48 701 -64 685 Q-80 669 -94 650 Q-108 630 -118.5 608 Q-129 586 -137 562 Q-147 528 -150 489 Q-151 484 -150.5 478.5 Q-150 473 -150 468 Q-149 463 -149 459 Q-149 455 -149 450 Q-147 444 -147 439 Q-146 437 -145 436 Q-144 435 -142 433 Q-144 429 -148 433 Q-152 436 -154 441 Q-155 445 -156 448.5 Q-157 452 -158 457 L-158 459 Q-160 464 -160 473 Z M117 188 Q116 187 116 185 Q113 166 109 147.5 Q105 129 101 110 Q93 68 87 26.5 Q81 -15 78 -58 Q76 -79 75 -100 Q74 -121 72 -142 Q72 -155 72.5 -168 Q73 -181 73 -195 Q73 -203 74 -207 Q75 -207 75 -205 Q76 -200 77 -195 Q78 -190 78 -185 Q83 -142 89 -99.5 Q95 -57 100 -14 Q105 31 109 76 Q113 121 116 167 Q116 172 116.5 177.5 Q117 183 117 188 Z " />
</font>
</svg>
