<?xml version="1.0" encoding="UTF-8"?>
<svg xmlns="http://www.w3.org/2000/svg" xmlns:xlink="http://www.w3.org/1999/xlink" version="1.2" >
<font id="Aervish">
<font-face  font-family="Aervish" units-per-em="1000" ascent="750" descent="-250" font-style="normal" font-weight="400" font-stretch="normal" cap-height="700" x-height="500" underline-position="-75" underline-thickness="50" />
<missing-glyph  horiz-adv-x="185" d="" />
<glyph glyph-name="NULL" d="" />
<glyph glyph-name="nonmarkingreturn" unicode="&#xd;" horiz-adv-x="185" d="" />
<glyph glyph-name="space" unicode="&#x20;" horiz-adv-x="185" d="" />
<glyph glyph-name="e" unicode="e" horiz-adv-x="161" d="M161 214 Q165 211 167 207 Q169 204 169 200 Q169 196 164 192 L164 191 Q150 178 136.5 165.5 Q123 153 109 139 Q107 137 106 136.5 Q105 136 104 134 Q100 130 98 129 Q84 116 69.5 104 Q55 92 38 83 Q27 77 16.5 76.5 Q6 76 -5 79 Q-31 88 -31 118 Q-29 146 -21 168 Q-13 187 -4.5 205 Q4 223 17 240 Q33 262 57 277 Q73 287 86 282 Q99 277 98 264 Q98 255 95 248 Q87 225 71 206 Q60 195 48.5 189 Q37 183 21 186 Q13 169 8 153 Q3 137 2 120 Q2 109 5 100 Q7 91 17 95 Q22 98 28 101 Q34 104 39 108 L51 117 Q67 128 81.5 141.5 Q96 155 111 168 Q116 173 120 176.5 Q124 180 129 185 L161 214 Z M72 260 Q45 236 29 204 Q36 207 44 214.5 Q52 222 58.5 230.5 Q65 239 69 247 Q73 255 72 260 Z " />
<glyph glyph-name="f" unicode="f" horiz-adv-x="163" d="M217 686 Q223 676 221 663 Q218 639 210 615 Q187 534 154.5 453 Q122 372 92 306 Q57 229 20 158 Q25 160 31 161.5 Q37 163 42 165 Q65 173 86.5 181.5 Q108 190 130 199 L164 214 Q167 211 168 207 Q170 200 163 197 Q151 191 133 182 Q115 173 104 168 Q90 162 76.5 156.5 Q63 151 50 145 Q35 139 24 136 Q29 112 28.5 62.5 Q28 13 10 -61 Q3 -94 -4.5 -126 Q-12 -158 -22 -190 Q-24 -196 -28.5 -209 Q-33 -222 -40 -233 Q-49 -244 -55.5 -247 Q-62 -250 -67 -248.5 Q-72 -247 -75.5 -243.5 Q-79 -240 -80 -238 Q-88 -226 -89 -207 Q-90 -188 -88 -168 Q-86 -145 -82 -122.5 Q-78 -100 -74 -77 Q-57 14 -33 101 Q-9 188 18 273 Q23 284 26.5 295.5 Q30 307 34 318 Q45 347 55 377 Q65 407 76 436 Q87 465 98.5 494.5 Q110 524 121 553 Q129 573 137.5 594 Q146 615 156 635 Q161 646 165.5 655.5 Q170 665 176 674 Q180 679 184.5 684 Q189 689 195 693 Q202 698 211 693 Q216 690 217 686 Z M-12 -60 Q-11 -56 -7.5 -37 Q-4 -18 0 8 Q4 34 6 62.5 Q8 91 6 114 Q1 94 -4 75.5 Q-9 57 -14 37 Q-25 -4 -33.5 -44.5 Q-42 -85 -49 -126 Q-53 -149 -56 -170.5 Q-59 -192 -58 -215 Q-44 -178 -33 -139.5 Q-22 -101 -12 -60 Z M178 597 Q181 606 184 615.5 Q187 625 189 634 Q160 566 134 500 Q123 472 110.5 441.5 Q98 411 86 380.5 Q74 350 63 321 Q52 292 43 268 Q60 299 78.5 341.5 Q97 384 114 429 Q123 449 133 474 Q143 499 153 525 Q153 526 156.5 535.5 Q160 545 164.5 557 Q169 569 172.5 580.5 Q176 592 178 597 Z " />
<glyph glyph-name="g" unicode="g" horiz-adv-x="210" d="M210 214 Q213 212 215 208 Q217 205 217.5 201.5 Q218 198 216 196 Q214 196 213 193 L204 184 Q199 180 194 175 Q189 170 183 164 Q170 152 156.5 139 Q143 126 135 119 L73 61 Q71 55 69 49 Q67 43 65 37 Q51 -2 36.5 -40 Q22 -78 4 -115 Q-7 -138 -19 -159 Q-31 -180 -46 -199 Q-52 -207 -58.5 -214 Q-65 -221 -73 -226 Q-82 -233 -91.5 -238 Q-101 -243 -112 -242 Q-122 -242 -128.5 -235.5 Q-135 -229 -138 -220 Q-140 -214 -141 -208.5 Q-142 -203 -143 -197 Q-144 -167 -133.5 -138.5 Q-123 -110 -106 -85 Q-86 -53 -59.5 -28 Q-33 -3 -6 22 Q4 30 13 38 Q22 46 31 54 Q35 57 37 63 L76 189 Q77 193 79 197 Q80 201 81 204.5 Q82 208 83 211 L63 186 L42 158 Q39 154 35.5 151 Q32 148 29 144 Q24 139 18 133.5 Q12 128 4 128 Q-5 127 -10 136 Q-15 145 -14 154 Q-13 162 -12.5 169 Q-12 176 -10 184 Q1 226 25 260 Q32 269 42 278 Q52 287 65 280 Q77 274 76 260 Q76 252 75 244.5 Q74 237 73 229 Q74 231 75 231.5 Q76 232 77 234 Q84 245 91 256.5 Q98 268 105 279 Q112 290 121 286 Q134 281 132 269 Q131 264 130 258.5 Q129 253 128 248 Q123 230 118 212.5 Q113 195 108 177 L84 97 L210 214 Z M14 155 Q28 170 40.5 185 Q53 200 65 217 L58 217 Q44 218 50 234 Q52 240 54 247 Q56 254 57 262 Q49 253 41 238.5 Q33 224 26.5 208 Q20 192 16.5 177.5 Q13 163 14 155 Z M24 21 Q-11 -5 -40 -36 Q-65 -62 -88.5 -96 Q-112 -130 -120 -166 Q-125 -197 -122 -208 Q-119 -219 -113 -221 Q-106 -223 -96 -214 Q-79 -198 -65.5 -178 Q-52 -158 -41 -137 Q-24 -105 -11 -72.5 Q2 -40 14 -6 Q15 -4 15.5 -1 Q16 2 18 4 L24 21 Z " />
<glyph glyph-name="h" unicode="h" horiz-adv-x="218" d="M219 214 Q222 213 225 211 Q231 207 227 199 Q225 196 219 187.5 Q213 179 204 167 Q185 143 168 123 Q154 105 139.5 87.5 Q125 70 117 61 Q112 56 108 51 Q104 46 99 41 Q94 36 90 32 Q86 28 81 24 Q74 17 67 14 Q56 11 49.5 12.5 Q43 14 40 18 Q37 22 36.5 27 Q36 32 36 34 Q38 59 45 81 Q49 92 52.5 103 Q56 114 60 125 L98 232 L61 184 L52 172 L51 171 Q41 158 32 145.5 Q23 133 13 119 Q10 114 7 110.5 Q4 107 1 103 Q-4 98 -13 96 Q-22 94 -26 102 Q-28 106 -28 110.5 Q-28 115 -27 120 Q-25 128 -23 136.5 Q-21 145 -19 153 Q-2 208 14.5 262.5 Q31 317 48 371 Q51 382 54.5 392.5 Q58 403 61 414 L62 415 Q64 421 66 427 Q68 433 70 440 L158 706 Q166 706 172 703 Q185 698 181 685 Q179 680 171 655 Q163 630 152 595.5 Q141 561 128 521 Q115 481 104 446 L69 333 L54 285 L14 161 Q15 162 17 165 Q20 168 24 174 Q51 207 79 244 L91 256 Q99 263 110.5 262 Q122 261 126 250 Q129 242 125 230 L94 130 L65 39 Q74 49 83 59 Q90 67 97 75.5 Q104 84 108 89 Q135 120 162.5 150.5 Q190 181 217 211 Q218 212 218 212.5 Q218 213 219 214 Z " />
<glyph glyph-name="i" unicode="i" horiz-adv-x="117" d="M57 341 Q45 341 45 354 Q45 359 48.5 362.5 Q52 366 57 366 Q62 366 65.5 362.5 Q69 359 69 354 Q69 349 65.5 345 Q62 341 57 341 Z M117 214 Q120 213 122 210 Q126 204 119 197 Q105 180 89.5 164.5 Q74 149 58 133 Q47 122 36 111 Q25 100 13 89 Q10 87 6.5 84 Q3 81 0 79 Q-12 72 -23 77 Q-32 80 -33 89 Q-34 98 -33 106 Q-30 123 -25 138.5 Q-20 154 -15 170 Q-10 184 -5.5 198.5 Q-1 213 4 227 L11 249 Q10 250 13 250.5 Q16 251 20 250.5 Q24 250 27.5 248.5 Q31 247 33 244 Q39 237 33 221 Q31 215 25.5 196 Q20 177 14 157 Q7 133 -1 105 Q4 110 8.5 113.5 Q13 117 18 122 L117 214 Z " />
<glyph glyph-name="j" unicode="j" horiz-adv-x="124" d="M52 354 Q42 354 40 366 Q40 371 43.5 374.5 Q47 378 52 378 Q57 378 60.5 374.5 Q64 371 65 366 Q65 354 52 354 Z M124 214 Q127 212 129 208 Q131 205 131.5 201.5 Q132 198 130 196 Q128 196 127 193 L118 184 Q113 180 108 175 Q103 170 97 164 Q84 152 70.5 139 Q57 126 49 119 L-13 61 Q-15 55 -17 49 Q-19 43 -21 37 Q-35 -2 -49.5 -40 Q-64 -78 -82 -115 Q-93 -138 -105 -159 Q-117 -180 -132 -199 Q-138 -207 -144.5 -214 Q-151 -221 -159 -226 Q-168 -233 -177.5 -238 Q-187 -243 -198 -242 Q-208 -242 -214.5 -235.5 Q-221 -229 -224 -220 Q-226 -214 -227 -208.5 Q-228 -203 -229 -197 Q-230 -167 -219.5 -138.5 Q-209 -110 -192 -85 Q-172 -53 -145.5 -28 Q-119 -3 -92 22 Q-82 30 -73 38 Q-64 46 -55 54 Q-51 57 -49 63 Q-47 71 -44.5 77.5 Q-42 84 -40 92 L9 247 Q11 251 12 254 Q13 257 14 261 Q19 272 33 267 Q46 262 43 251 Q41 247 41 245 L37 232 Q33 218 29.5 204.5 Q26 191 22 177 L-2 97 L124 214 Z M-62 21 Q-97 -5 -126 -36 Q-151 -62 -174.5 -96 Q-198 -130 -206 -166 Q-211 -197 -208 -208 Q-205 -219 -199 -221 Q-192 -223 -182 -214 Q-165 -198 -151.5 -178 Q-138 -158 -127 -137 Q-110 -105 -97 -72.5 Q-84 -40 -72 -6 Q-71 -4 -70.5 -1 Q-70 2 -68 4 L-62 21 Z " />
<glyph glyph-name="k" unicode="k" horiz-adv-x="215" d="M215 214 Q219 212 222 209 Q227 203 223 196 L219 189 L111 48 Q107 42 102.5 37 Q98 32 93 27 Q88 22 82.5 20 Q77 18 72 17 Q56 14 50 30 Q48 38 46 46 Q44 54 43 62 Q39 85 38 107 Q37 129 36 152 Q30 144 24.5 135.5 Q19 127 13 119 Q7 110 0 103 Q-4 98 -13.5 96 Q-23 94 -27 102 Q-30 109 -28 120 Q-26 128 -24 136.5 Q-22 145 -19 153 Q-2 208 14 262.5 Q30 317 47 371 Q51 382 54 392.5 Q57 403 61 414 L61 415 Q63 421 65 427 Q67 433 69 440 L157 706 Q165 706 171 703 Q176 701 179.5 697 Q183 693 180 685 Q178 680 170.5 655 Q163 630 151.5 595.5 Q140 561 127.5 521 Q115 481 104 446 L69 333 Q65 321 61.5 309 Q58 297 53 285 L14 161 Q15 162 17 165 Q20 168 24 174 Q35 188 45.5 201 Q56 214 67 228 L98 269 Q103 266 107 262 Q110 259 111 254.5 Q112 250 107 244 L63 187 L63 179 L63 166 L63 165 Q64 157 64 149 Q64 141 65 133 Q66 113 67.5 93.5 Q69 74 74 54 Q76 48 77 43 Q79 46 83 50 Q106 80 130 110 Q154 140 177 170 L180 173 L181 174 Q183 176 185.5 179 Q188 182 190 184 L215 214 L215 214 Z " />
<glyph glyph-name="l" unicode="l" horiz-adv-x="145" d="M69 333 Q50 274 37 223 Q26 179 17.5 138 Q9 97 12 80 Q14 82 15 82.5 Q16 83 18 85 Q34 101 49.5 116.5 Q65 132 81 149 L145 214 Q148 213 150 210 Q153 205 148 197 Q146 195 145 193.5 Q144 192 142 190 L44 83 Q34 73 24 67 Q16 62 6 60 Q-4 58 -12 65 Q-17 70 -19 76.5 Q-21 83 -21 89 Q-23 111 -17.5 141 Q-12 171 -5 197 Q3 228 13 260 Q22 288 30.5 315.5 Q39 343 47 371 Q51 382 54 392.5 Q57 403 61 414 L62 415 Q64 421 66 427 Q68 433 70 440 L157 706 Q165 706 171 703 Q176 701 179.5 697 Q183 693 180 685 Q178 680 170.5 655 Q163 630 152 595.5 Q141 561 128 521 Q115 481 104 446 L69 333 Z " />
<glyph glyph-name="m" unicode="m" horiz-adv-x="344" d="M344 214 Q347 212 349 210 Q351 208 351.5 205.5 Q352 203 349 198 L348 198 Q341 187 334.5 177 Q328 167 320 156 Q312 147 305.5 138 Q299 129 292 120 L290 119 Q286 113 280 105 L247 62 Q240 54 233.5 46.5 Q227 39 220 31 Q212 23 203.5 14.5 Q195 6 182 6 Q162 8 160 28 Q159 33 160 39 Q161 45 163 50 L214 212 L197 194 Q197 193 196 193 Q187 182 177.5 171 Q168 160 164 155 Q148 136 133 117 Q118 98 102 79 Q98 74 94 69.5 Q90 65 85 60 Q68 45 51 62 Q45 67 46 74 Q47 80 47.5 86 Q48 92 50 98 Q55 115 60.5 131.5 Q66 148 72 165 Q72 167 72.5 169 Q73 171 73 174 Q71 172 70.5 170.5 Q70 169 68 167 Q54 148 40 129 Q26 110 12 91 Q10 87 7 84 Q4 81 2 77 Q-6 67 -15 69 Q-24 71 -32 76 Q-38 80 -36 88 Q-35 95 -34.5 101.5 Q-34 108 -32 115 Q-25 146 -15 175 Q-5 204 6 233 Q8 240 11 246 Q14 252 16 258 Q21 269 31 264 Q43 260 40 249 Q34 232 28 214 Q22 196 17 179 Q13 168 10 156 Q7 144 3 133 Q3 131 2.5 129.5 Q2 128 1 124 Q6 129 7 131 Q28 159 48.5 186 Q69 213 90 241 Q92 244 94.5 247.5 Q97 251 99 254 Q105 261 114.5 260 Q124 259 129 250 Q132 246 130 238 Q128 232 126.5 226.5 Q125 221 123 215 Q114 189 105 164 Q96 139 88 114 Q86 108 87 104 Q88 106 89 106.5 Q90 107 92 109 Q123 147 154 184.5 Q185 222 216 260 Q221 265 225.5 270 Q230 275 235 280 Q244 290 258 282 Q270 274 266 263 L194 39 Q213 54 228 73 Q243 92 258 110 L344 214 L344 214 Z " />
<glyph glyph-name="n" unicode="n" horiz-adv-x="214" d="M214 214 Q218 213 220 211 Q224 207 219 200 Q211 191 203 182 Q195 173 187 165 Q173 151 159.5 137.5 Q146 124 132 110 L114 92 Q106 84 99 76.5 Q92 69 83 63 Q77 58 70 57 Q63 56 54 61 Q48 65 47.5 73 Q47 81 48 87 Q49 90 49.5 92.5 Q50 95 51 98 Q56 115 61.5 131.5 Q67 148 72 165 Q73 167 73.5 169 Q74 171 74 174 Q70 170 68 167 Q54 148 40 129 Q26 110 12 91 Q10 87 7 84 Q4 81 2 77 Q-6 67 -15 69 Q-24 71 -31 76 Q-36 80 -36 88 Q-35 95 -34 101.5 Q-33 108 -31 115 Q-24 146 -14 175 Q-4 204 7 233 Q12 248 17 258 Q21 269 32 264 Q43 260 40 249 Q35 232 29 214.5 Q23 197 17 179 Q14 168 10.5 156 Q7 144 4 133 Q4 132 2 124 Q5 128 8 131 Q28 159 49 186 Q70 213 90 241 Q92 245 94.5 248 Q97 251 99 254 Q105 262 114.5 260.5 Q124 259 129 250 Q132 246 130 238 Q129 232 127 226.5 Q125 221 123 215 L96 137 Q96 136 94 130.5 Q92 125 90 118 Q88 111 85.5 104 Q83 97 82 92 Q92 100 101 109 Q110 118 119 126 L214 214 L214 214 Z " />
<glyph glyph-name="o" unicode="o" horiz-adv-x="175" d="M175 214 Q179 212 183 209 Q191 203 185 195 Q179 187 173 180 Q167 173 160 166 Q150 155 140 145.5 Q130 136 119 127 Q108 118 95 110 Q82 102 66 100 Q52 98 43 106 Q41 102 39.5 98.5 Q38 95 36 93 Q34 90 33 88 Q30 83 27 78 Q24 73 21 68 Q18 63 15 60 Q12 57 8 53 Q0 46 -9 46 Q-18 46 -26 51 Q-35 55 -37 67 Q-38 85 -35 105 Q-30 134 -20.5 161 Q-11 188 0 215 Q16 253 36 286 L42 295 Q46 299 52 298 Q66 295 60 283 Q21 206 1 127 Q-2 116 -4 104.5 Q-6 93 -7 81 L-7 76 Q-5 79 -2 82 Q5 93 11 103 Q17 113 24 124 Q26 128 25 131 Q17 162 28 194 Q32 203 36 211 Q40 219 46 226 Q48 229 52 233 Q62 242 75 235 Q87 229 87 216 Q87 203 80 187 Q75 174 69.5 161.5 Q64 149 59 137 Q56 132 53 125 Q56 120 61 119 Q66 118 71.5 120.5 Q77 123 82 125 Q102 136 121 154 Q136 168 149 183 Q162 198 175 214 Z M67 212 Q65 213 59 204.5 Q53 196 45 164 L57 188 Q62 197 65 204.5 Q68 212 67 212 Z " />
<glyph glyph-name="p" unicode="p" horiz-adv-x="199" d="M199 214 Q204 212 208 209 Q215 203 208 196 L208 195 L158 144 Q158 144 157 143 L128 114 Q109 95 88 78.5 Q67 62 43 50 Q33 45 22 41 Q11 37 -1 38 Q-6 39 -11.5 40.5 Q-17 42 -21 47 Q-23 48 -25 52 Q-27 46 -27 45 Q-47 -12 -65 -69 Q-83 -126 -100 -184 Q-104 -197 -107.5 -210 Q-111 -223 -115 -236 Q-117 -243 -125.5 -245 Q-134 -247 -139 -242 Q-141 -240 -141 -236 Q-139 -229 -137.5 -223 Q-136 -217 -134 -211 Q-118 -156 -102.5 -101.5 Q-87 -47 -72 8 Q-58 56 -42.5 102 Q-27 148 -10 194 Q-1 217 9 239 Q19 261 29 284 Q33 292 41 288 Q52 283 49 271 L28 211 Q26 207 27 203 L38 214 Q43 218 48.5 222 Q54 226 59 230 Q70 238 83 231 Q96 224 96 210 Q96 195 90 180 Q82 161 71 144.5 Q60 128 48 112 Q40 101 30.5 91 Q21 81 10 72 Q5 69 1.5 66 Q-2 63 -7 60 Q-6 60 -5 59 Q1 57 9 58.5 Q17 60 23 62 Q31 65 38.5 69 Q46 73 54 78 Q79 95 105 119 Q130 142 152.5 166.5 Q175 191 199 214 Z M-14 84 Q-13 85 -12 85 Q-8 88 -2 94 Q39 138 68 194 Q70 199 71.5 203.5 Q73 208 75 213 Q76 215 76 220 Q71 217 67.5 214.5 Q64 212 61 209 Q34 187 12 158 Q8 154 6 147 Q1 133 -3.5 118.5 Q-8 104 -13 90 Q-13 88 -13.5 87 Q-14 86 -14 84 Z " />
<glyph glyph-name="q" unicode="q" horiz-adv-x="185" d="M169 290 Q169 286 168 284 Q168 283 166 279 Q134 216 108.5 150.5 Q83 85 63 16 Q59 5 56 -5.5 Q53 -16 50 -27 Q47 -35 41 -55 Q35 -75 28 -98 Q21 -121 14 -144.5 Q7 -168 3 -183 Q0 -192 -1.5 -198 Q-3 -204 -4 -206 Q-5 -209 -5.5 -212.5 Q-6 -216 -8 -219 Q-9 -221 -9.5 -224 Q-10 -227 -11 -229 Q-15 -244 -32 -242 Q-37 -241 -39 -239.5 Q-41 -238 -39 -233 Q-37 -225 -35.5 -218.5 Q-34 -212 -32 -205 L79 166 L71 156 Q69 154 66 150 Q63 146 59 142 Q55 138 50 132 Q45 127 41.5 122.5 Q38 118 33 113 Q29 110 24.5 106.5 Q20 103 15 102 Q7 100 0 102 Q-22 109 -24 130 Q-27 153 -19 177 Q-14 193 -6 207.5 Q2 222 14 233 Q18 237 22.5 240 Q27 243 32 246 Q45 252 59 242 Q68 235 65 226 Q63 221 61 216 Q59 211 57 206 Q55 204 51 204 Q42 204 39 212 Q41 216 43 220 Q45 224 47 229 Q37 222 28 208.5 Q19 195 13 180 Q7 165 4.5 150 Q2 135 5 124 Q7 126 9 127 Q11 128 13 130 Q43 160 67 191 Q87 216 105 242.5 Q123 269 141 296 Q143 299 145 302 Q147 305 152 303 Q157 301 162 298.5 Q167 296 169 290 Z " />
<glyph glyph-name="r" unicode="r" horiz-adv-x="145" d="M140 264 Q143 257 134 257 Q134 258 133 258 Q132 259 131.5 259 Q131 259 130 260 Q126 261 122 258 Q118 255 115 253 Q114 252 113.5 251 Q113 250 112 249 Q103 241 93.5 232 Q84 223 76 214 Q24 159 -7 86 Q-9 81 -13 80 Q-18 78 -25.5 79.5 Q-33 81 -36 86 Q-38 88 -38 93 Q-36 103 -34 107 Q-23 143 -11.5 178.5 Q0 214 11 250 Q13 256 15.5 262 Q18 268 20 275 Q24 283 33 280 Q46 276 44 267 Q43 262 42 258.5 Q41 255 39 250 Q35 238 31.5 225.5 Q28 213 23 201 Q23 198 21 194 Q22 194 22 193 L30 201 Q54 227 80 251 Q88 259 96 265 Q103 270 110 274 Q117 278 124 276 Q127 275 129.5 274 Q132 273 135 271 Q138 268 140 264 Z " />
<glyph glyph-name="s" unicode="s" horiz-adv-x="221" d="M225 193 Q220 190 216.5 187 Q213 184 208 181 Q170 152 134 123 Q98 94 63 62 Q57 51 51 42 Q45 33 40 26 Q32 14 23.5 2.5 Q15 -9 6 -20 Q-1 -27 -7 -33 Q-13 -39 -21 -43 Q-32 -49 -41 -44 Q-58 -36 -50 -19 Q-48 -15 -45.5 -11.5 Q-43 -8 -41 -5 Q-34 2 -28 9 Q-22 16 -15 22 Q-5 31 5 39.5 Q15 48 25 57 Q29 61 31 64 Q43 83 54.5 102 Q66 121 77 141 Q79 145 81.5 149 Q84 153 86 158 Q82 159 77 159 Q66 160 54 160 Q42 160 30 162 Q14 162 4 174 Q1 177 -5 185 Q-10 195 -6 204 Q-4 208 -2.5 211.5 Q-1 215 2 219 Q33 258 76 271 Q87 275 96 272 Q98 270 101 269 Q104 268 106 266 Q122 253 113 235 Q111 231 108.5 227.5 Q106 224 104 220 Q101 214 93 220 Q90 223 91 230 Q93 235 95 240.5 Q97 246 97 252 L92 252 Q89 250 86 249.5 Q83 249 80 247 Q66 239 53 228.5 Q40 218 27 206 Q25 203 22.5 200 Q20 197 18 193 Q15 189 14 182 Q18 181 24 179 Q33 179 41.5 178.5 Q50 178 59 178 L82 178 Q94 176 103 166 Q111 156 108 146 Q106 142 105.5 138.5 Q105 135 103 131 Q102 129 100 126 Q98 123 94 115 Q125 141 156.5 165.5 Q188 190 221 214 Q224 211 227 207 Q229 204 229.5 200 Q230 196 225 193 Z " />
<glyph glyph-name="t" unicode="t" horiz-adv-x="166" d="M471 446 Q474 439 471 434 Q469 431 464 431 Q461 432 459 435 Q457 438 456 441 L456 445 Q452 445 449 445.5 Q446 446 442 446 Q426 445 410.5 445 Q395 445 379 443 Q343 438 307.5 433.5 Q272 429 237 424 Q202 419 168.5 413 Q135 407 100 401 Q93 401 90 392 Q74 349 60.5 305.5 Q47 262 35 217 Q28 193 22.5 169 Q17 145 12 120 Q9 106 7 93 Q5 80 5 66 L5 55 Q10 59 13.5 62 Q17 65 20 68 Q46 94 72.5 120 Q99 146 125 172 Q135 183 145 193 Q155 203 166 214 Q171 212 175 209 Q183 203 175 194 Q159 177 143 160.5 Q127 144 111 127 Q84 97 56 69 Q43 56 28 44 Q15 32 -1 31 Q-3 31 -6 30.5 Q-9 30 -11 31 Q-24 34 -27 48 Q-29 59 -28.5 70.5 Q-28 82 -26 93 Q-19 144 -7 191 Q5 238 21 286 Q29 312 38 337 Q47 362 56 388 Q56 391 57 393 Q54 392 51.5 392 Q49 392 47 391 Q18 384 -11.5 378 Q-41 372 -70 365 Q-75 364 -79.5 363.5 Q-84 363 -89 362 Q-102 360 -109 371 Q-109 371 -110 372 L-110 373 Q-73 384 -36 393 Q1 402 39 410 Q44 411 49.5 412 Q55 413 60 414 Q66 414 68 421 Q81 455 95.5 488.5 Q110 522 126 554 Q128 559 130.5 563.5 Q133 568 136 573 Q140 581 149 577 Q159 573 155 563 Q153 555 150 548 Q147 541 144 533 L105 431 Q102 428 101 421 Q106 423 110.5 423 Q115 423 119 424 Q157 430 194.5 436 Q232 442 270 447 Q293 451 317 453.5 Q341 456 364 458 Q383 460 401.5 461.5 Q420 463 438 461 Q450 459 457 457 Q464 456 471 446 Z " />
<glyph glyph-name="u" unicode="u" horiz-adv-x="223" d="M223 214 Q226 213 228 211 Q230 209 230 207.5 Q230 206 227 203 L227 202 Q221 195 214.5 188 Q208 181 201 173 Q190 162 178 150.5 Q166 139 155 128 L128 101 L127 100 Q122 95 116 91 Q104 83 92 81 Q81 80 77 87.5 Q73 95 72.5 105.5 Q72 116 74 126.5 Q76 137 78 142 Q81 156 85 169 Q89 182 93 195 Q94 197 94.5 200 Q95 203 96 205 L82 189 Q76 182 70.5 176 Q65 170 63 167 L62 167 Q59 163 56 160 Q53 157 50 153 Q41 142 30 133 Q16 122 0 128 Q-14 132 -14 150 Q-14 173 -6 197 Q-1 214 4.5 229.5 Q10 245 16 262 Q19 270 26.5 271.5 Q34 273 39 266 Q42 262 40 256 Q37 244 33.5 232.5 Q30 221 27 209 Q24 198 21.5 187 Q19 176 17 165 Q16 162 16 153 Q21 158 22 160 Q36 175 49 190.5 Q62 206 76 222 Q83 230 89.5 236.5 Q96 243 102 251 Q113 264 129 256 Q137 251 135 240 Q133 233 131 227 Q129 221 127 215 Q120 195 114.5 175 Q109 155 104 135 Q102 127 101.5 121 Q101 115 101 111 Q101 107 102 103 Q105 105 107 106.5 Q109 108 111 110 Q119 118 127.5 125.5 Q136 133 144 141 L223 214 L223 214 Z " />
<glyph glyph-name="v" unicode="v" horiz-adv-x="154" d="M147 264 Q152 261 151 256 Q149 251 145 252 Q142 252 140 250 Q138 248 136 246 Q119 229 104.5 209.5 Q90 190 76 170 Q63 152 51 134 Q39 116 26 98 Q23 93 19 89 Q15 86 10 84 Q5 82 0 84 Q-1 84 -1 84.5 Q-1 85 -2 85 Q-15 89 -15 103 Q-15 111 -15 119 Q-15 127 -14 135 Q-12 166 -5.5 195 Q1 224 9 253 L15 274 Q16 282 24 281 Q26 280 27.5 279.5 Q29 279 31 277 Q38 274 36 265 Q34 258 33.5 251.5 Q33 245 31 238 Q29 226 26.5 214.5 Q24 203 22 191 L22 190 Q21 187 20.5 183.5 Q20 180 19 177 Q17 166 16.5 156 Q16 146 15 138 Q14 128 14 120 Q23 133 31 144 Q38 154 45 163 Q52 172 55 176 L67 194 Q78 209 90 222.5 Q102 236 114 250 Q118 254 121.5 257.5 Q125 261 130 264 Q137 271 147 264 Z " />
<glyph glyph-name="w" unicode="w" horiz-adv-x="268" d="M272 208 Q274 202 270 200 Q260 198 250.5 197.5 Q241 197 232 195 Q221 194 210 194.5 Q199 195 188 198 Q187 198 179.5 200.5 Q172 203 173 204 L167 194 Q158 179 144.5 156.5 Q131 134 123 122 Q121 119 119.5 116 Q118 113 116 110 Q111 104 107 97.5 Q103 91 98 85 Q95 81 91.5 78 Q88 75 84 72 Q77 66 65 66 L63 66 Q61 67 60.5 67 Q60 67 58 68 Q51 70 49 75 Q47 80 47 85 Q47 91 48 99 L73 191 L67 185 L66 184 L30 145 Q27 141 19 135 Q7 126 -9 133 Q-10 133 -11 134 Q-15 136 -16 141.5 Q-17 147 -17 153 Q-16 158 -15.5 163.5 Q-15 169 -13 174 Q-8 194 -0.5 213 Q7 232 16 251 Q23 266 38 257 Q45 252 43 245 Q39 234 35 223.5 Q31 213 28 202 Q25 194 22.5 186 Q20 178 18 170 Q17 169 16 165 Q19 167 23 171 Q36 185 48.5 199 Q61 213 74 227 Q77 230 79.5 233.5 Q82 237 85 240 Q90 246 98 245.5 Q106 245 111 239 Q115 235 113 230 Q113 228 111 224 Q110 222 106.5 208 Q103 194 98 177 Q93 158 85 133 Q83 126 81.5 120.5 Q80 115 79 110 Q77 105 77 101 Q79 103 79.5 104 Q80 105 82 107 Q93 125 102.5 143 Q112 161 123 179 Q131 193 139 206 Q147 219 155 232 Q159 238 166 238 Q168 237 170.5 237 Q173 237 175 236 Q183 232 183 225 Q185 222 190 218 Q195 215 203 212.5 Q211 210 225 211 Q241 211 270 214 L272 208 Z " />
<glyph glyph-name="x" unicode="x" horiz-adv-x="141" d="M141 214 Q144 213 145 211 Q147 207 143 202 Q141 199 128.5 187.5 Q116 176 99 162 Q98 162 90 155.5 Q82 149 71.5 140 Q61 131 49.5 122.5 Q38 114 31 109 Q29 108 28.5 107.5 Q28 107 26 106 L25 106 Q20 104 16 102 Q12 100 7 100 Q-6 102 -9 112 Q-10 114 -12 119 Q-14 124 -12 126 L-29 103 Q-43 84 -56 66 Q-69 48 -82 29 Q-87 23 -90 16.5 Q-93 10 -96 4 Q-99 -3 -105 -1 Q-113 2 -112 9 Q-110 14 -108.5 18.5 Q-107 23 -104 27 Q-95 41 -86 55.5 Q-77 70 -67 84 Q-54 103 -40.5 121.5 Q-27 140 -13 158 Q-10 162 -8 171 Q-6 187 -3 202.5 Q0 218 3 233 Q3 235 3.5 237 Q4 239 4 241 Q-2 242 -7 246 Q-12 249 -9 255 Q-5 260 -1 263.5 Q3 267 7 271 Q8 273 13 273 Q20 274 25.5 268.5 Q31 263 31 256 Q31 248 30 240.5 Q29 233 27 225 Q27 221 25 213 L24 207 Q24 208 25 209 Q26 210 26.5 211 Q27 212 28 213 Q32 219 35 222 Q43 231 50.5 240 Q58 249 66 259 Q68 261 70.5 263 Q73 265 76 267 Q85 274 94 264 Q97 260 94 257 Q74 237 56.5 215 Q39 193 21 170 Q16 165 16 158 Q16 150 15.5 143.5 Q15 137 15 130 L15 120 L141 214 L141 214 Z " />
<glyph glyph-name="y" unicode="y" horiz-adv-x="199" d="M199 214 Q203 212 205 208 Q209 200 205 196 L202 193 L193 184 Q189 180 183.5 175 Q178 170 172 164 Q159 152 146 139 Q133 126 125 119 L63 61 Q61 55 59 49 Q57 43 55 37 Q41 -2 26 -40 Q11 -78 -6 -115 Q-17 -138 -29.5 -159 Q-42 -180 -57 -199 Q-63 -207 -69.5 -214 Q-76 -221 -84 -226 Q-92 -233 -102 -238 Q-112 -243 -122 -242 Q-132 -242 -138.5 -235.5 Q-145 -229 -149 -220 Q-153 -209 -153 -197 Q-155 -167 -144 -138.5 Q-133 -110 -117 -85 Q-96 -53 -70 -28 Q-44 -3 -16 22 Q-7 30 2 38 Q11 46 20 54 Q25 57 27 63 Q29 71 31.5 77.5 Q34 84 36 92 L70 202 Q65 195 60 189 Q55 183 49 176 Q45 170 36 165 Q24 156 10 162 Q-4 167 -4 180 Q-4 187 -4 193.5 Q-4 200 -2 207 Q0 219 4.5 230.5 Q9 242 14 253 Q18 260 25.5 260 Q33 260 37 254 Q38 252 38 247 Q36 242 34.5 237 Q33 232 31 227 Q29 219 27 211 Q25 203 23 195 Q22 190 23 183 Q24 185 25 185.5 Q26 186 28 188 Q43 204 57 221 Q71 238 85 255 Q87 259 90 262 Q91 264 95 268 Q97 269 99 269 Q101 269 103 269 Q112 267 116 263 Q120 258 118 251 Q117 249 117 248 Q117 247 116 245 L113 232 Q109 218 105.5 204.5 Q102 191 98 177 L74 97 L199 214 Z M13 21 Q-22 -5 -51 -36 Q-76 -62 -99 -96 Q-122 -130 -130 -166 Q-135 -197 -131.5 -208 Q-128 -219 -123 -221 Q-117 -223 -107 -214 Q-90 -198 -76 -178 Q-62 -158 -51 -137 Q-34 -105 -21 -72.5 Q-8 -40 4 -6 Q5 -4 5.5 -1 Q6 2 7 4 L13 21 Z " />
<glyph glyph-name="z" unicode="z" horiz-adv-x="194" d="M200 208 Q202 206 202.5 202.5 Q203 199 201 197 Q201 196 199 194 Q194 189 190 184 Q186 179 181 174 Q176 169 170 163 Q167 159 164 155.5 Q161 152 158 149 Q138 127 118 105.5 Q98 84 77 64 Q75 55 72 46 Q69 37 66 26 Q64 19 61 12.5 Q58 6 56 -1 Q53 -9 50.5 -15.5 Q48 -22 46 -28 Q37 -51 28 -72.5 Q19 -94 9 -115 Q-2 -138 -14.5 -159 Q-27 -180 -42 -199 Q-48 -207 -54.5 -214 Q-61 -221 -69 -226 Q-77 -233 -87 -238 Q-97 -243 -107 -242 Q-117 -242 -123.5 -235.5 Q-130 -229 -134 -220 Q-138 -209 -138 -197 Q-140 -167 -129 -138.5 Q-118 -110 -102 -85 Q-81 -53 -55 -28 Q-29 -3 -1 22 Q7 29 15 35.5 Q23 42 31 50 Q34 53 38 56 Q39 58 39.5 58.5 Q40 59 41 61 Q42 63 42.5 66 Q43 69 44 71 Q46 76 47 80.5 Q48 85 50 90 Q57 115 58 132.5 Q59 150 56.5 160.5 Q54 171 49.5 176 Q45 181 42 183 Q41 184 40.5 184 Q40 184 39 185 Q35 187 33 189 L33 190 Q32 190 32 190.5 Q32 191 31 191 Q30 192 30 192.5 Q30 193 29 194 L29 195 Q28 197 29 199 Q30 201 31 203 L33 207 Q37 212 44.5 223 Q52 234 56 243 Q50 238 44.5 232.5 Q39 227 37 225 Q25 211 16 199 Q16 198 15 197 Q9 190 -3 195 Q-5 196 -6 198 Q-7 200 -7 202 Q-7 204 -6 206 Q4 225 25 247 Q27 249 27.5 250 Q28 251 30 252 Q37 259 50 266.5 Q63 274 77 267 Q88 262 84 250 Q80 238 73 227 L53 198 Q53 197 54 197 Q54 197 56 196 Q59 194 65 188.5 Q71 183 76 171.5 Q81 160 83.5 142.5 Q86 125 83 99 Q91 107 98.5 114 Q106 121 111 126 L194 214 L200 208 Z M28 21 Q-7 -5 -36 -36 Q-61 -62 -84 -96 Q-107 -130 -115 -166 Q-120 -197 -116.5 -208 Q-113 -219 -108 -221 Q-102 -223 -92 -214 Q-75 -198 -61 -178 Q-47 -158 -36 -137 Q-19 -105 -6 -72.5 Q7 -40 19 -6 Q20 -4 20.5 -1 Q21 2 22 4 L28 21 Z " />
<glyph glyph-name="A" unicode="A" horiz-adv-x="481" d="M502 535 Q491 493 479.5 451.5 Q468 410 457 368 L450 347 Q452 348 454 348 Q457 348 458 349 Q460 349 462 349.5 Q464 350 466 350 Q471 351 481 351 Q486 351 492 350.5 Q498 350 501 345 Q504 341 503.5 336 Q503 331 501 326 Q501 325 500.5 324.5 Q500 324 500 323 Q494 314 486 317 Q484 318 483 319 Q482 320 480 321 L478 323 L439 312 L428 276 Q368 84 299 -105 Q297 -112 294 -118 Q291 -124 289 -131 Q284 -140 275 -143.5 Q266 -147 259 -142 Q256 -140 256 -136.5 Q256 -133 257 -130 Q259 -116 261.5 -101.5 Q264 -87 266 -73 Q268 -64 268 -54.5 Q268 -45 268 -36 Q264 23 216 51 Q199 60 181.5 65 Q164 70 145 73 Q116 78 86.5 78.5 Q57 79 27 78 Q24 78 22 77 Q11 57 0 38 Q-11 19 -22 -1 Q-48 -50 -72.5 -98 Q-97 -146 -123 -195 Q-127 -203 -130 -211 Q-133 -219 -136 -227 Q-140 -237 -146 -237 Q-153 -239 -159 -236 Q-160 -236 -159.5 -231.5 Q-159 -227 -157 -225 Q-140 -185 -122 -146 Q-104 -107 -84 -69 Q-67 -35 -49 -2 Q-31 31 -13 65 Q-11 68 -10 70.5 Q-9 73 -7 77 L-32 77 Q-50 76 -67.5 76.5 Q-85 77 -102 81 Q-116 84 -126 93 Q-141 104 -125 120 Q-115 130 -100 140 Q-79 154 -56.5 165 Q-34 176 -11 186 Q9 195 28.5 203 Q48 211 68 219 Q79 223 85 233 Q147 333 213 428.5 Q279 524 352 615 Q370 638 389 661 Q408 684 429 705 Q436 711 443 717.5 Q450 724 458 729 Q478 743 495 738 Q512 733 520 712 Q524 700 524.5 688 Q525 676 524 663 Q521 631 516 599 Q511 567 502 535 Z M5 99 Q16 118 27 136.5 Q38 155 50 175 Q45 174 41 172 Q18 161 -5 150.5 Q-28 140 -51 129 Q-58 126 -65 121.5 Q-72 117 -79 112 Q-82 110 -90 102 Q-65 98 -41.5 98.5 Q-18 99 5 99 Z M401 301 Q399 300 397 300 L388 297 Q319 275 252 251.5 Q185 228 117 203 Q102 198 91.5 189.5 Q81 181 73 165 Q65 148 55 132 Q45 116 34 98 L52 98 Q81 97 109 95 Q137 93 165 88 Q187 83 207.5 76.5 Q228 70 246 57 Q281 35 294 -5 Q294 -7 295 -8.5 Q296 -10 297 -12 Q323 67 349 144.5 Q375 222 401 301 Z M415 342 Q445 426 466 515 Q473 541 478.5 567 Q484 593 489 619 Q498 661 495 704 Q495 708 494 711 Q493 714 492 718 Q475 712 462 698 Q449 685 436 672 Q423 659 411 645 Q331 550 260 450 Q189 350 123 245 L120 239 Q194 264 266.5 288 Q339 312 413 337 Q415 339 415 342 Z " />
<glyph glyph-name="asciitilde" unicode="&#x7e;" horiz-adv-x="193" d="M66 179 Q63 176 60 173 Q57 170 54 168 Q50 164 47 162 Q44 159 39 159 Q34 159 30 161 Q26 164 29 167 Q36 174 43 180 Q50 186 57 193 Q66 200 73 199 Q81 199 86 195 Q92 192 92 185 Q92 180 91.5 176.5 Q91 173 90 168 Q92 169 92.5 169.5 Q93 170 95 171 Q103 177 110.5 183 Q118 189 126 195 Q128 197 131 198.5 Q134 200 136 202 Q140 205 145 203 Q155 200 148 193 Q139 185 129.5 177 Q120 169 111 161 Q103 155 100 152 Q93 147 84.5 147.5 Q76 148 70 153 Q66 157 66 162 Q67 167 67 170.5 Q67 174 68 178 Q67 179 66 179 Z " />
<glyph glyph-name="at" unicode="&#x40;" horiz-adv-x="263" d="M122 177 Q120 175 118 173.5 Q116 172 114 170 Q111 167 108 164 Q105 161 101 158 Q91 150 76 155 Q65 158 65 170 Q63 184 68 198 Q77 232 99 258 Q101 260 103.5 263 Q106 266 109 268 Q112 270 118 272 Q128 275 138 267 Q142 263 141.5 258.5 Q141 254 139 250 Q137 245 134.5 240.5 Q132 236 129 231 Q125 222 114 227 Q109 229 110 235 Q105 229 101 221 Q97 213 94 204 Q91 195 90 187 Q89 179 90 174 Q92 176 93 176.5 Q94 177 95 179 Q103 188 110 196.5 Q117 205 125 213 Q130 218 134.5 220 Q139 222 147 219 Q155 215 154 206 Q152 201 151 195.5 Q150 190 149 184 Q148 179 148 169 Q150 170 151 170 Q152 170 153 171 Q161 176 166.5 182 Q172 188 177 195 Q201 228 217 264.5 Q233 301 240 342 Q242 352 242.5 361 Q243 370 241 380 Q238 395 231 401 Q224 407 209 406 Q198 406 187 403 Q176 400 166 395 Q143 384 125.5 369.5 Q108 355 92 336 Q67 307 51 274.5 Q35 242 25 206 Q9 155 8 106 Q8 92 10 79.5 Q12 67 17 54 Q19 49 21.5 44 Q24 39 28 34 Q33 28 43 21 Q57 12 72 19 Q83 24 91.5 30 Q100 36 108 44 Q120 57 130.5 71 Q141 85 151 100 Q157 109 162.5 118.5 Q168 128 174 137 Q180 147 192 144 Q197 141 196 136 Q195 134 195 132.5 Q195 131 194 129 Q183 109 172 90 Q161 71 147 54 Q139 44 130 35.5 Q121 27 110 20 Q86 4 61 1 Q22 -2 1 28 Q-7 39 -11.5 51.5 Q-16 64 -18 78 Q-21 101 -19.5 122.5 Q-18 144 -14 165 Q-6 201 6 235.5 Q18 270 37 302 Q65 351 113 388 Q129 399 146 407 Q163 415 183 419 Q194 421 203.5 420.5 Q213 420 224 417 Q248 408 257 383 Q262 368 262 354 Q262 337 259.5 321 Q257 305 252 289 Q244 263 232.5 238 Q221 213 204 191 Q199 183 192.5 176.5 Q186 170 179 164 Q165 150 145 153 Q142 153 139 154 Q136 155 133 156 Q125 160 123 170 Q122 172 122 177 Z " />
<glyph glyph-name="exclam" unicode="&#x21;" horiz-adv-x="110" d="M20 54 Q18 49 15 48.5 Q12 48 8 48 Q4 48 0.5 48.5 Q-3 49 -5 53 Q-7 60 -6 64 Q-4 73 -2.5 82 Q-1 91 2 99 Q16 147 29.5 194 Q43 241 58 289 Q77 350 96 410 Q115 470 135 530 Q146 562 157 592.5 Q168 623 179 655 L180 656 Q182 664 184 665.5 Q186 667 189 666 Q193 665 197 661.5 Q201 658 199 652 Q198 647 197.5 642.5 Q197 638 196 634 Q185 599 174 565 Q163 531 152 497 Q120 402 89.5 307.5 Q59 213 31 116 Q27 105 24.5 93.5 Q22 82 19 71 Q17 64 17.5 62 Q18 60 20 54 Z M-13 -10 Q-5 -11 -7 -20 L-10 -29 Q-16 -40 -25 -33 Q-28 -30 -27 -25 L-24 -19 Q-20 -10 -13 -10 Z " />
<glyph glyph-name="dollar" unicode="&#x24;" horiz-adv-x="243" d="M17 41 Q27 42 35 49 Q38 50 38 55 Q47 85 56.5 115.5 Q66 146 75 177 Q79 189 82.5 201 Q86 213 90 226 Q91 227 91 231 L76 231 Q70 230 64.5 229.5 Q59 229 53 228 Q39 227 26 238 Q16 248 23 260 Q31 273 43 287 Q56 301 70.5 313 Q85 325 100 336 Q107 341 113 345 Q119 349 126 354 Q132 357 134 365 Q144 392 153.5 419 Q163 446 172 474 Q174 480 176 481.5 Q178 483 182 482 Q187 480 190 476.5 Q193 473 192 468 Q191 465 190.5 462.5 Q190 460 189 457 Q184 439 178 421.5 Q172 404 166 386 Q165 384 165 383 Q165 382 164 380 Q167 381 168.5 382 Q170 383 172 384 Q179 388 185.5 391.5 Q192 395 200 398 Q213 405 227 394 Q252 374 252 343 Q255 307 231 275 Q229 273 227.5 271 Q226 269 223 271 Q217 272 214 279 Q212 281 213 282.5 Q214 284 215 286 Q228 307 233 331 Q235 348 232 362 Q232 365 230 369 Q228 377 225 378 Q222 379 215 377 Q206 374 196 369 Q186 364 176.5 358 Q167 352 157 346 Q151 344 150 339 Q143 318 136.5 296.5 Q130 275 122 254 L122 251 L137 248 Q147 246 156.5 242 Q166 238 174 231 Q199 211 192 180 Q190 172 186.5 165 Q183 158 179 151 Q169 135 157.5 121.5 Q146 108 133 95 Q116 78 97.5 62.5 Q79 47 57 36 Q53 34 52 30 Q48 14 44.5 -1 Q41 -16 36 -32 Q35 -36 35 -39.5 Q35 -43 37 -48 Q40 -53 34 -53 Q25 -57 19.5 -52 Q14 -47 14 -39 Q15 -35 15.5 -31 Q16 -27 17 -22 Q19 -13 22 -3.5 Q25 6 27 15 Q28 17 28 19.5 Q28 22 29 25 L22 25 Q9 23 1 29 Q-14 35 -14 52 Q-15 65 -10 81 Q0 118 22 154 Q24 158 26 160 Q31 166 39 165.5 Q47 165 52 158 Q54 156 52 151 Q49 145 46.5 139.5 Q44 134 41 129 Q39 123 37 117.5 Q35 112 34 105 Q34 102 33 102 Q30 101 29 98 Q28 95 27 93 Q23 83 20.5 74 Q18 65 16 54 Q16 51 15.5 48 Q15 45 17 41 Z M64 69 L65 68 Q66 70 67 70 Q68 70 69 72 Q115 109 150 159 Q155 167 159 174.5 Q163 182 165 191 Q168 202 167 211 Q167 220 158 223 Q148 227 143 228 Q136 229 129 230 Q122 231 115 231 L64 69 Z M120 319 Q119 319 118 320 Q99 305 81.5 288.5 Q64 272 50 250 Q63 251 75 251.5 Q87 252 99 253 L120 319 Z " />
<glyph glyph-name="numbersign" unicode="&#x23;" horiz-adv-x="240" d="M222 222 Q224 217 223 214 Q222 213 216 213 Q214 213 212 215 Q208 220 204 220 Q200 220 196 220 Q190 219 184 218.5 Q178 218 173 217 L172 217 Q166 217 163 216 Q161 207 157.5 197 Q154 187 151 176 L154 176 L166 176 Q170 175 174 174 Q178 173 181 169 Q184 167 184 163 Q182 161 179 161 Q171 163 162.5 162 Q154 161 146 161 Q144 153 142 146.5 Q140 140 138 135 Q136 129 135 125 Q133 120 132 116 Q131 112 130 107 Q128 102 128.5 97.5 Q129 93 128 88 Q126 84 124 83 Q117 81 111 86 Q105 91 106 99 L112 129 Q113 133 115.5 140.5 Q118 148 121 158 L103 157 Q95 157 92 147 Q90 137 86.5 127 Q83 117 81 107 Q80 102 80 97.5 Q80 93 79 88 Q79 85 75 83 Q68 81 62.5 86 Q57 91 58 99 Q59 107 60.5 115 Q62 123 64 131 Q65 136 66 141 Q67 146 69 152 Q66 151 61 151 Q57 151 53 150.5 Q49 150 45 151 Q41 152 37.5 154 Q34 156 31 162 Q34 163 36 164 Q38 165 40 165 Q48 167 54.5 167.5 Q61 168 69 169 Q74 171 75 173 Q77 181 79.5 188.5 Q82 196 84 204 Q78 202 72 201.5 Q66 201 61 200 Q57 200 54 199.5 Q51 199 47 199 Q38 197 29 206 Q27 208 27 211 Q29 213 31 213 Q45 212 57.5 215 Q70 218 83 219 Q89 220 92 227 Q97 243 102.5 258.5 Q108 274 114 289 Q117 297 124 297 Q131 297 136 290 Q138 286 137 282 Q135 275 133 269 Q131 263 129 256 Q126 248 123 241 Q120 234 118 226 L138 228 L139 228 Q140 228 140 228.5 Q140 229 142 229 Q142 231 142.5 232 Q143 233 143 235 Q143 237 144 238 Q149 251 153.5 263.5 Q158 276 163 289 Q165 297 172 297 Q179 297 184 290 Q187 286 186 282 Q184 275 181.5 269 Q179 263 177 256 Q175 252 174 248.5 Q173 245 172 240 Q171 239 170.5 236.5 Q170 234 168 232 L170 232 Q178 232 185 232.5 Q192 233 200 233 Q204 233 214 229 Q218 228 222 222 Z M125 174 Q128 184 131 194 Q134 204 137 212 L127 211 Q123 210 120 210 Q117 210 114 209 Q111 209 111 206 Q108 198 105.5 190 Q103 182 100 173 L111 173 L112 173 L113 173 L125 174 Z " />
<glyph glyph-name="percent" unicode="&#x25;" horiz-adv-x="236" d="M314 468 Q287 464 260.5 457.5 Q234 451 206 446 Q213 435 210.5 425.5 Q208 416 202 406 Q194 393 183 382.5 Q172 372 160 363 Q149 353 137 345 Q125 337 111 332 Q104 330 97.5 328.5 Q91 327 84 329 Q55 338 63 367 Q67 380 73 392 Q79 404 87 415 Q95 426 104 436.5 Q113 447 124 455 Q137 466 147 453 Q149 450 149.5 448 Q150 446 147 443 Q144 440 141 437.5 Q138 435 136 433 Q124 419 112.5 404 Q101 389 93 372 Q86 358 86 347 Q90 349 93.5 350 Q97 351 100 353 Q141 376 173 409 Q177 414 180 418 Q183 422 186 427 Q190 435 191 439 Q182 445 176 451 Q174 452 174.5 453.5 Q175 455 174 457 Q180 459 185.5 459.5 Q191 460 196 461 Q228 466 260 473 Q292 480 324 488 Q330 490 332 490 Q341 493 349 487 Q363 476 351 462 Q343 453 334.5 444.5 Q326 436 318 428 Q267 376 218.5 322.5 Q170 269 127 210 Q95 165 63.5 120 Q32 75 1 29 Q-20 -2 -40.5 -33.5 Q-61 -65 -81 -97 Q-83 -99 -85 -103 Q-92 -114 -106 -111 Q-115 -109 -110 -101 Q-106 -91 -103 -87 Q-83 -55 -64 -24.5 Q-45 6 -25 37 Q10 88 44.5 139 Q79 190 115 241 Q157 302 206 356.5 Q255 411 310 462 Q311 463 311.5 464 Q312 465 314 466 L314 468 Z M65 46 Q65 46 67 48 Q75 61 88 57 Q103 54 101 38 Q98 17 87 0 Q76 -17 56 -28 Q39 -37 22 -29 Q4 -21 11 -1 Q21 26 42 42 Q48 47 52 47.5 Q56 48 65 46 Z M69 30 Q67 28 63.5 26.5 Q60 25 58 23 Q53 18 49 11.5 Q45 5 41 -1 Q39 -3 38.5 -6 Q38 -9 36 -12 Q38 -12 38 -13 Q62 5 69 30 Z " />
<glyph glyph-name="asciicircum" unicode="&#x5e;" horiz-adv-x="156" d="M183 655 Q178 650 176 647 Q165 634 155 621.5 Q145 609 135 596 Q132 592 129 588.5 Q126 585 122 581 Q114 573 107 572.5 Q100 572 95 580 Q110 596 125 616 L173 679 Q176 683 178.5 686.5 Q181 690 185 693 Q187 695 190 696.5 Q193 698 195 699 Q205 702 212 697 Q219 692 218 682 Q217 674 215 665.5 Q213 657 211 649 Q208 635 205 621 Q202 607 199 593 Q198 590 198 586.5 Q198 583 200 581 Q204 575 195 572 Q187 570 180 574.5 Q173 579 173 587 Q174 595 174.5 603.5 Q175 612 177 620 Q179 628 180.5 637 Q182 646 184 654 Q183 654 183 655 Z " />
<glyph glyph-name="parenleft" unicode="&#x28;" horiz-adv-x="130" d="M4 -101 Q-3 -106 -11 -100 Q-22 -93 -31 -79 Q-39 -67 -42 -53 Q-45 -39 -47 -25 Q-49 -2 -47.5 21.5 Q-46 45 -41 69 Q-29 132 -7.5 191.5 Q14 251 39 311 Q59 359 82 404.5 Q105 450 128 497 Q148 534 167 570.5 Q186 607 205 644 Q207 648 209.5 652 Q212 656 215 660 Q225 672 239 664 Q245 661 242 654 Q227 625 213 596 Q180 530 147.5 465 Q115 400 85 333 Q60 277 39.5 221 Q19 165 3 107 Q-5 79 -11 51 Q-17 23 -19 -6 Q-20 -21 -19.5 -35.5 Q-19 -50 -16 -64 Q-13 -83 -1 -92 Q1 -94 1.5 -96.5 Q2 -99 4 -101 Z " />
<glyph glyph-name="parenright" unicode="&#x29;" horiz-adv-x="130" d="M132 665 Q137 668 140.5 667 Q144 666 147 664 Q160 654 167 643 Q175 630 178 616.5 Q181 603 183 589 Q185 565 183.5 541.5 Q182 518 177 495 Q165 432 143.5 372.5 Q122 313 97 253 Q77 205 54 159 Q31 113 8 67 Q-12 30 -31 -6.5 Q-50 -43 -69 -80 Q-74 -89 -79 -96 Q-89 -108 -103 -101 Q-110 -97 -106 -90 Q-98 -76 -91 -61.5 Q-84 -47 -77 -33 Q-44 33 -11.5 98.5 Q21 164 51 230 Q76 286 96.5 342 Q117 398 133 457 Q141 485 147 513 Q153 541 155 570 Q156 584 155.5 599 Q155 614 152 628 Q150 636 146.5 643 Q143 650 137 656 Q135 658 134.5 660.5 Q134 663 132 665 Z " />
<glyph glyph-name="ampersand" unicode="&#x26;" horiz-adv-x="209" d="M264 674 Q268 674 268.5 664.5 Q269 655 266.5 642.5 Q264 630 260.5 615.5 Q257 601 254 591 Q253 588 251 580 Q231 517 212 455 Q193 393 173 330 L161 297 L159 291 Q158 289 157 287 Q156 285 156 284 Q151 273 141 276 Q131 278 127 286 Q123 292 119 289 Q107 286 100 282 Q60 259 32 218 Q28 212 25 205 Q22 198 19 190 Q17 188 17 184.5 Q17 181 16 176 Q20 178 23 179 Q26 180 29 182 Q37 187 46 193 Q55 199 63 205 Q67 208 70.5 210.5 Q74 213 77 215 Q88 222 100 212 Q108 205 104 193 Q101 186 98 179 Q95 172 92 164 Q87 153 83 142 Q79 131 75 120 Q73 116 71 106 Q74 106 75 107.5 Q76 109 78 111 Q89 122 98.5 134.5 Q108 147 119 159 Q124 164 128 169 Q132 174 137 179 Q142 184 148.5 184.5 Q155 185 160 180 Q167 175 164 165 Q162 158 159.5 152.5 Q157 147 155 141 Q132 81 112.5 20.5 Q93 -40 74 -103 Q66 -132 57 -159.5 Q48 -187 40 -216 Q40 -218 35 -221 Q30 -224 23 -225 Q16 -225 15.5 -221 Q15 -217 16 -216 Q18 -206 20 -201 Q38 -138 56.5 -75 Q75 -12 94 51 Q99 67 105 82.5 Q111 98 117 114 Q117 117 119 120 Q117 118 115.5 117 Q114 116 113 115 Q106 108 99.5 101.5 Q93 95 86 89 Q78 81 68 81 Q63 81 57 84 Q46 90 47 106 Q49 118 52 130 Q55 142 60 153 Q62 159 64 165 Q66 171 69 179 Q65 176 62 174.5 Q59 173 56 171 Q48 166 40.5 162.5 Q33 159 25 158 Q13 158 5 165 Q-10 176 -6 194.5 Q-2 213 6 227 Q22 255 42 275.5 Q62 296 87 307 Q109 318 130 309 Q131 309 131 308 L135 306 L138 312 Q149 341 158.5 369.5 Q168 398 178 427 L248 662 Q248 665 251 668 Q255 674 264 674 Z " />
<glyph glyph-name="braceleft" unicode="&#x7b;" horiz-adv-x="156" d="M266 660 Q267 659 267 658 Q267 657 268 656 Q255 644 244 648 Q239 650 233 650.5 Q227 651 220 653 Q215 644 214 642 Q210 632 206 622.5 Q202 613 200 603 Q187 545 175 487.5 Q163 430 149 373 Q146 358 142.5 343.5 Q139 329 135 314 Q126 285 93 264 Q89 262 85 259 Q81 256 77 254 Q75 252 73 251 Q71 250 69 248 Q72 244 73 240 Q78 231 79 221 Q80 211 75 199 Q70 185 65.5 171.5 Q61 158 56 144 Q48 121 39 98 Q30 75 22 52 Q20 47 18 41 Q16 35 14 29 Q8 9 3 -18 Q-2 -45 4 -65 Q4 -65 5 -67 L10 -80 Q25 -73 30 -82 Q33 -90 24 -98 Q15 -105 7 -102 Q5 -101 3 -101 Q1 -101 -1 -99 Q-5 -95 -9.5 -91 Q-14 -87 -16 -82 Q-20 -74 -21 -69 Q-22 -69 -22 -68 L-22 -67 Q-30 -49 -29 -26.5 Q-28 -4 -23.5 17.5 Q-19 39 -13 57 Q-7 75 -4 83 Q-2 85 -2 88 Q10 115 21.5 142 Q33 169 44 197 Q51 215 45 229 Q41 237 40 241 Q37 248 48 255 Q53 258 58 261 Q63 264 68 268 Q92 285 101 305 L107 323 Q110 337 113 351 Q116 365 118 379 Q128 429 138 478.5 Q148 528 163 579 Q168 594 173 609.5 Q178 625 189 641 Q194 649 206 658 Q222 667 236 667 Q245 667 252 665 Q259 663 266 660 Z " />
<glyph glyph-name="braceright" unicode="&#x7d;" horiz-adv-x="143" d="M199 658 Q206 649 206 641 Q206 625 202 609.5 Q198 594 193 579 Q175 528 154.5 478.5 Q134 429 111 379 Q105 365 99 351 Q93 337 88 323 Q83 314 82 305 Q78 284 91 268 Q94 264 97 261 Q100 258 103 255 Q110 248 103 241 Q100 238 96.5 235 Q93 232 90 229 Q74 215 71 197 Q66 172 60 147.5 Q54 123 49 98 Q49 94 47 88 Q47 86 46.5 85 Q46 84 46 82 Q43 70 38 53 Q33 36 24.5 16.5 Q16 -3 4.5 -23 Q-7 -43 -23 -60 Q-30 -69 -39 -76 Q-41 -78 -43 -79.5 Q-45 -81 -47 -83 Q-52 -88 -58.5 -91.5 Q-65 -95 -71 -99 Q-73 -101 -76 -101 Q-79 -101 -81 -102 Q-92 -105 -95 -98 Q-97 -95 -96 -90.5 Q-95 -86 -92 -82 Q-81 -72 -69 -81 Q-68 -79 -65 -76 Q-61 -70 -52.5 -57.5 Q-44 -45 -34 -28 Q-24 -11 -14.5 10 Q-5 31 2 55 Q4 60 5 65.5 Q6 71 7 76 Q12 93 15.5 110 Q19 127 24 144 Q28 158 32 171.5 Q36 185 41 199 Q44 211 51 221 Q58 231 68 240 Q70 242 72.5 244 Q75 246 78 248 Q76 250 74 254 L64 264 Q45 285 54 314 Q59 329 64.5 343.5 Q70 358 76 373 Q99 430 123 487.5 Q147 545 170 603 Q174 613 176.5 622.5 Q179 632 182 642 Q183 644 182.5 646.5 Q182 649 183 653 Q175 651 168.5 650.5 Q162 650 155 648 Q141 644 136 656 Q138 657 138.5 658 Q139 659 141 660 Q149 663 157.5 665 Q166 667 175 667 Q188 667 199 658 Z " />
<glyph glyph-name="plus" unicode="&#x2b;" horiz-adv-x="230" d="M136 205 Q145 206 154 206.5 Q163 207 171 208 Q178 208 184.5 207.5 Q191 207 198 207 Q204 207 206 201 Q204 197 201.5 197 Q199 197 197 196 Q186 195 175.5 194.5 Q165 194 154 193 Q149 192 143 192 Q137 192 131 191 Q129 184 126 177 Q123 170 121 163 L94 79 Q92 75 91.5 71.5 Q91 68 89 65 Q86 58 77.5 57 Q69 56 65 61 Q64 63 64 65 Q64 67 64 69 Q66 78 68.5 87.5 Q71 97 74 106 Q79 125 85 143.5 Q91 162 96 180 Q97 182 97 184 Q97 186 98 188 Q90 187 83 186.5 Q76 186 68 185 Q60 185 52.5 183.5 Q45 182 37 184 Q32 185 30.5 186 Q29 187 26 192 Q28 195 30.5 195.5 Q33 196 35 197 L62 200 Q70 201 78.5 201 Q87 201 95 202 Q101 202 102 203.5 Q103 205 105 210 Q110 225 114.5 240 Q119 255 124 270 Q125 274 126 277 Q127 280 129 284 Q132 290 140 292 Q150 294 155 288 Q160 282 158 273 Q153 257 148 242 Q143 227 138 211 Q138 211 136 205 Z " />
<glyph glyph-name="equal" unicode="&#x3d;" horiz-adv-x="203" d="M171 213 Q170 208 162 208 Q138 207 114 207 Q90 207 66 207 Q62 207 59 208 Q56 209 52 210 Q48 211 45 216 Q40 221 47 224 Q55 226 60 226 Q74 227 86.5 227 Q99 227 113 227 Q121 227 129.5 227 Q138 227 146 226 Q151 226 155 225 Q159 224 164 222 Q171 220 171 213 Z M160 176 Q157 171 150 171 Q127 170 103 170 Q79 170 55 170 Q51 170 47.5 171 Q44 172 41 173 Q37 174 34 179 Q29 184 36 187 Q44 189 49 189 Q62 190 75 190 Q88 190 102 190 Q110 190 118.5 190 Q127 190 135 189 Q142 189 152 185 Q159 183 160 176 Z " />
<glyph glyph-name="asterisk" unicode="&#x2a;" horiz-adv-x="223" d="M84 157 Q78 150 72 144 Q66 138 60 132 Q48 120 37 135 Q48 152 63 166.5 Q78 181 95 195 Q78 194 61 192 Q55 191 49.5 190.5 Q44 190 38 190 Q27 190 23 199 Q25 202 28 202 Q31 202 34 202 Q48 204 62 205 Q76 206 90 207 Q85 221 77.5 233 Q70 245 65 258 Q78 264 85 254 Q87 251 88.5 247.5 Q90 244 92 241 Q95 234 98.5 228 Q102 222 106 214 Q109 223 111.5 230 Q114 237 117 245 Q119 251 121.5 257.5 Q124 264 126 270 Q128 277 137 276 Q143 274 146 272 Q154 267 151 260 Q149 255 147.5 250 Q146 245 144 240 Q142 236 142 232 Q148 236 154 240 Q160 244 165 248 Q170 251 174 254 Q178 257 182 259 Q192 263 200 257 Q206 253 201 248 Q199 246 196 244.5 Q193 243 191 241 Q184 236 177.5 231.5 Q171 227 164 222 Q162 221 161.5 220 Q161 219 159 217 Q171 218 182 218 Q193 218 203 207 Q197 205 196 205 Q186 207 176.5 206 Q167 205 158 204 Q153 204 143 202 Q137 201 133 198 Q129 195 125 191 Q121 186 124 178 Q129 170 133 162 Q137 154 142 146 Q143 144 143.5 142 Q144 140 145 138 Q136 132 129 141 Q127 143 125.5 146.5 Q124 150 122 153 Q118 159 115 163 Q113 159 113 157 Q110 149 107 140 Q104 131 101 122 Q100 119 100 115.5 Q100 112 99 107 Q97 104 93 104.5 Q89 105 85 107 Q76 111 76 119 L79 134 Q81 140 82.5 145.5 Q84 151 86 156 Q84 156 84 157 Z " />
<glyph glyph-name="bracketleft" unicode="&#x5b;" horiz-adv-x="143" d="M235 665 Q237 663 236 659 Q234 654 223 654 Q218 653 211 654 L205 639 L204 636 L204 634 L200 623 Q180 568 160.5 514 Q141 460 123 404 Q105 348 88.5 292.5 Q72 237 56 180 Q40 124 24.5 68.5 Q9 13 -7 -44 Q-9 -52 -10.5 -60.5 Q-12 -69 -10 -77 Q-8 -77 -7.5 -76.5 Q-7 -76 -6 -76 Q-4 -77 -2 -77 Q0 -77 1 -79 Q1 -82 -1 -90 Q-3 -94 -5 -95 Q-13 -104 -22 -103 Q-31 -102 -35 -93 Q-38 -86 -38.5 -76.5 Q-39 -67 -38 -58 Q-37 -49 -35.5 -42 Q-34 -35 -33 -32 L-33 -30 Q1 106 39 239 Q77 372 122 505 L167 631 Q172 644 177 653 Q185 667 196 667 L233 667 L235 665 Z " />
<glyph glyph-name="bracketright" unicode="&#x5d;" horiz-adv-x="120" d="M147 667 L184 667 Q196 667 194 653 Q194 648 193 642.5 Q192 637 190 631 Q182 599 174.5 568 Q167 537 158 505 Q121 372 77.5 239 Q34 106 -16 -30 L-16 -32 Q-18 -38 -27.5 -58 Q-37 -78 -52 -93 Q-62 -102 -71.5 -103 Q-81 -104 -84 -95 Q-84 -94 -84.5 -93 Q-85 -92 -84 -90 Q-82 -82 -79 -79 Q-78 -77 -75.5 -77 Q-73 -77 -71 -76 Q-70 -76 -69.5 -76.5 Q-69 -77 -68 -77 Q-60 -69 -56.5 -60.5 Q-53 -52 -50 -44 Q-31 13 -12.5 68.5 Q6 124 25 180 Q44 237 61.5 292.5 Q79 348 95 404 Q111 460 125 514 Q139 568 153 623 L156 634 L156 636 L157 639 L161 654 Q154 653 149 654 Q144 654 141 655.5 Q138 657 139 659 Q140 663 144 665 Q146 666 147 667 Z " />
<glyph glyph-name="bar" unicode="&#x7c;" horiz-adv-x="110" d="M-57 -101 Q-46 -59 -34.5 -17.5 Q-23 24 -11 66 Q1 108 13 149.5 Q25 191 36 233 Q46 265 55 297 Q64 329 73 361 Q84 396 95.5 430 Q107 464 120 499 Q134 537 147.5 575.5 Q161 614 175 652 Q176 654 177 657 Q178 660 179 662 Q180 667 187 667 Q200 665 197 652 Q195 645 193.5 638.5 Q192 632 190 625 Q176 584 163 543.5 Q150 503 136 462 Q112 393 89.5 325 Q67 257 47 188 Q30 128 13 70 Q-4 12 -21 -47 Q-24 -56 -27 -65.5 Q-30 -75 -33 -85 Q-35 -92 -39 -96 Q-46 -108 -57 -101 Z " />
<glyph glyph-name="backslash" unicode="&#x5c;" horiz-adv-x="150" d="M91 -101 Q86 -59 81 -17.5 Q76 24 71 66 Q66 108 62 149.5 Q58 191 53 233 Q49 265 46 297 Q43 329 40 361 Q36 396 34.5 430 Q33 464 32 499 L26 652 Q26 654 26.5 657 Q27 660 27 662 Q26 667 33 667 Q46 665 49 652 Q50 645 51 638.5 Q52 632 52 625 Q55 584 57.5 543.5 Q60 503 62 462 Q66 393 70 325 Q74 257 82 188 Q88 128 93.5 70 Q99 12 105 -47 Q106 -56 107 -65.5 Q108 -75 109 -85 Q109 -93 108 -96 Q105 -108 91 -101 Z " />
<glyph glyph-name="slash" unicode="&#x2f;" horiz-adv-x="200" d="M-112 -101 Q-90 -59 -69 -17.5 Q-48 24 -27 66 Q-5 108 16 149.5 Q37 191 59 233 Q76 265 92 297 Q108 329 125 361 Q143 396 163 430 Q183 464 204 499 L294 652 Q296 654 297 657 Q298 660 300 662 Q304 667 309 667 Q322 665 316 652 Q313 645 310 638.5 Q307 632 303 625 Q280 584 257 543.5 Q234 503 211 462 Q172 393 133.5 325 Q95 257 59 188 Q29 128 -1.5 70 Q-32 12 -63 -47 Q-68 -56 -73 -65.5 Q-78 -75 -83 -85 Q-89 -93 -92 -96 Q-101 -107 -112 -101 Z " />
<glyph glyph-name="less" unicode="&#x3c;" horiz-adv-x="230" d="M69 177 Q75 173 77 172 Q91 164 104 157.5 Q117 151 131 143 Q137 139 143 135 Q149 131 157 129 Q165 127 166 120 Q166 118 162 116 Q158 114 153 116 Q148 117 143 119 Q138 121 133 123 Q116 131 100 139.5 Q84 148 67 157 Q62 159 57 161 Q52 163 47 165 Q42 167 37.5 170 Q33 173 30 178 Q24 187 32 193 Q40 197 46.5 201 Q53 205 61 209 Q88 221 115 232.5 Q142 244 170 255 Q175 257 183 259 Q194 262 202 252 Q206 246 200 242 Q198 240 195.5 239 Q193 238 191 236 Q163 223 136 210 Q109 197 82 184 Q79 182 76 180.5 Q73 179 69 177 Z " />
<glyph glyph-name="greater" unicode="&#x3e;" horiz-adv-x="230" d="M144 200 Q142 202 140 202.5 Q138 203 136 205 L82 232 Q75 236 69 239.5 Q63 243 55 245 Q52 246 49 247.5 Q46 249 46 254 Q46 261 59 259 Q64 257 69.5 255.5 Q75 254 80 252 Q97 244 113.5 236 Q130 228 147 220 Q152 218 156.5 216 Q161 214 166 212 Q171 210 176 207.5 Q181 205 184 200 Q191 191 182 185 Q174 180 167.5 176 Q161 172 153 169 Q125 156 97.5 144.5 Q70 133 43 121 Q37 119 29 117 Q17 114 10 124 Q5 129 11 134 Q13 136 16 136.5 Q19 137 21 139 Q49 153 76.5 166 Q104 179 131 193 Q134 195 137 196.5 Q140 198 144 200 Z " />
<glyph glyph-name="quotedbl" unicode="&#x22;" horiz-adv-x="123" d="M105 601 Q107 609 108.5 616.5 Q110 624 112 632 Q114 640 116.5 646.5 Q119 653 121 661 Q124 669 131 666 Q142 663 139 652 Q135 641 131.5 629 Q128 617 125 606 Q124 604 123.5 602 Q123 600 122 598 Q120 591 115 592 Q105 594 105 601 Z M137 601 Q139 609 140.5 616.5 Q142 624 144 632 Q146 640 148.5 646.5 Q151 653 153 661 Q155 668 163 666 Q175 663 170 652 Q167 641 163.5 629 Q160 617 156 606 Q156 604 154 598 Q152 591 146 592 Q137 594 137 601 Z " />
<glyph glyph-name="comma" unicode="&#x2c;" horiz-adv-x="110" d="M27 86 Q25 87 21 87 Q13 89 16 95 Q18 102 20.5 108 Q23 114 25 121 Q27 126 28.5 132 Q30 138 32 143 Q35 152 48 150 Q59 147 56 139 L38 94 Q35 86 27 86 Z " />
<glyph glyph-name="period" unicode="&#x2e;" horiz-adv-x="100" d="M33 157 Q47 157 47 143 Q47 137 43 132.5 Q39 128 33 128 Q27 128 22.5 132.5 Q18 137 18 143 Q18 148 22.5 152.5 Q27 157 33 157 Z " />
<glyph glyph-name="semicolon" unicode="&#x3b;" horiz-adv-x="107" d="M22 109 L17 109 Q9 112 12 117 Q14 124 16.5 130.5 Q19 137 21 143 Q24 157 28 165 Q31 174 43 172 Q55 170 52 161 L34 116 Q31 108 22 109 Z M56 237 Q62 237 66.5 233 Q71 229 71 223 Q71 217 66.5 212.5 Q62 208 56 208 Q50 208 45.5 212.5 Q41 217 41 223 Q41 229 45.5 233 Q50 237 56 237 Z " />
<glyph glyph-name="question" unicode="&#x3f;" horiz-adv-x="208" d="M282 666 Q296 663 304.5 651.5 Q313 640 310 627 Q308 621 306.5 615.5 Q305 610 302 605 Q294 588 284 573 Q274 558 264 542 Q206 459 159 376 Q133 329 111.5 282 Q90 235 70 186 Q59 158 48 130.5 Q37 103 26 75 Q24 70 23 65.5 Q22 61 21 56 Q21 55 20 55 Q18 48 5 50 Q-3 50 -3 57 Q-3 64 -2 67 Q4 84 9.5 100.5 Q15 117 22 134 Q42 184 62 233 Q82 282 104 331 Q134 399 171 461.5 Q208 524 250 586 Q258 597 264.5 608 Q271 619 278 630 Q282 638 284 643 Q283 643 283 644 Q277 644 269 642 Q262 639 255.5 636.5 Q249 634 242 631 Q216 617 193 599.5 Q170 582 151 559 Q147 554 143.5 548 Q140 542 136 536 Q128 523 129 509 Q122 506 115 509 Q108 512 106 519 Q103 527 107 536 Q114 552 120 564 Q135 587 155 604.5 Q175 622 198 636 Q212 644 226 651.5 Q240 659 256 664 Q262 666 268.5 667 Q275 668 282 666 Z M2 -1 Q1 -4 0.5 -7.5 Q0 -11 -1 -14 Q-2 -19 -1 -26 Q2 -38 -11 -36 Q-17 -36 -24 -33 Q-23 -19 -16 -6 Q-12 4 2 -1 Z " />
<glyph glyph-name="colon" unicode="&#x3a;" horiz-adv-x="96" d="M51 237 Q65 237 65 223 Q65 217 61 212.5 Q57 208 51 208 Q45 208 40.5 212.5 Q36 217 36 223 Q36 229 40.5 233 Q45 237 51 237 Z M29 170 Q35 170 39.5 165.5 Q44 161 44 155 Q44 149 39.5 144.5 Q35 140 29 140 Q23 140 19 144.5 Q15 149 15 155 Q15 161 19.5 165.5 Q24 170 29 170 Z " />
<glyph glyph-name="underscore" unicode="&#x5f;" horiz-adv-x="180" d="M123 94 Q122 91 119 90 Q116 89 113 89 Q90 88 66 88 Q42 88 18 88 Q12 88 4 92 Q1 93 -3 97 Q-8 102 -1 105 Q7 107 12 107 Q26 108 38.5 108 Q51 108 65 108 Q73 108 81.5 108 Q90 108 98 107 Q103 107 107 106 Q111 105 116 103 Q123 101 123 94 Z " />
<glyph glyph-name="hyphen" unicode="&#x2d;" horiz-adv-x="193" d="M159 186 Q157 180 149 180 Q125 180 101 179.5 Q77 179 53 179 Q49 179 39 183 Q35 185 32 188 Q27 194 34 196 Q37 198 40.5 198 Q44 198 47 199 Q61 199 74 199.5 Q87 200 100 200 Q108 200 116.5 200 Q125 200 134 199 Q138 198 142 197.5 Q146 197 151 195 Q158 192 159 186 Z " />
<glyph glyph-name="quotesingle" unicode="&#x27;" horiz-adv-x="130" d="M114 601 Q116 609 117.5 616.5 Q119 624 121 632 Q123 640 125 646.5 Q127 653 129 661 Q132 669 140 666 Q150 663 147 652 Q143 641 140 629 Q137 617 133 606 Q132 604 132 602 Q132 600 131 598 Q129 596 128 593.5 Q127 591 123 592 Q114 594 114 601 Z " />
<glyph glyph-name="grave" unicode="&#x60;" horiz-adv-x="120" d="M124 599 Q120 606 117 613 Q114 620 111 627 Q104 642 100 655 Q97 663 105 666 Q115 669 119 659 Q124 648 128 636.5 Q132 625 136 614 Q137 612 137.5 610 Q138 608 139 606 Q141 599 137 597 Q127 593 124 599 Z " />
<glyph glyph-name="zero" unicode="0" horiz-adv-x="187" d="M-8 -9 Q-3 -4 0 -2 Q8 6 14.5 15 Q21 24 28 34 Q52 69 71.5 107.5 Q91 146 107 188 Q116 211 124 233.5 Q132 256 139 279 Q141 286 142 293 Q143 300 145 307 Q145 311 145.5 314.5 Q146 318 144 323 Q136 321 129.5 317 Q123 313 118 305 Q117 303 115 301 Q109 288 99 298 Q96 301 98 306 Q99 308 99.5 309.5 Q100 311 101 313 Q107 328 125 334 Q143 340 152 335 Q160 331 162.5 324.5 Q165 318 166 309 Q166 298 164 287.5 Q162 277 160 267 Q155 243 146.5 220.5 Q138 198 129 175 Q118 149 106 122.5 Q94 96 82 70 Q72 50 60.5 30.5 Q49 11 34 -6 Q30 -11 25 -15.5 Q20 -20 15 -25 Q2 -35 -15 -29.5 Q-32 -24 -37 -5 Q-41 8 -41 26 Q-41 59 -35 92 Q-20 176 18 257 Q25 270 32 282.5 Q39 295 48 306 Q50 308 51 309.5 Q52 311 54 313 Q62 322 71 316 Q78 313 74 305 Q70 299 66.5 293 Q63 287 59 280 Q41 246 28 210 Q15 174 4 136 Q-2 113 -6 90 Q-10 67 -12 44 Q-13 33 -13 22.5 Q-13 12 -11 1 Q-9 -5 -8 -9 Z " />
<glyph glyph-name="one" unicode="1" horiz-adv-x="107" d="M0 -3 Q11 2 15.5 1.5 Q20 1 25 -4 Q24 -9 16 -13 Q3 -18 -9.5 -22 Q-22 -26 -35 -29 Q-47 -32 -55 -22 Q-53 -19 -50 -18.5 Q-47 -18 -44 -17 Q-34 -15 -32 -13 Q-30 -11 -28 -2 Q-12 52 3 105 Q18 158 34 212 Q41 234 47.5 255 Q54 276 62 298 Q64 304 64 307 Q62 309 60.5 310.5 Q59 312 57 314 Q61 319 64.5 324 Q68 329 71 334 Q73 336 74 336 Q84 339 93 332 Q100 327 99 318 Q96 305 93 293 Q90 281 86 269 Q65 202 44 136.5 Q23 71 2 5 Q2 3 0 -3 Z " />
<glyph glyph-name="two" unicode="2" horiz-adv-x="127" d="M10 267 Q8 267 5.5 267 Q3 267 1 268 Q-14 272 -5 286 Q4 302 24 315 Q34 323 44.5 328.5 Q55 334 67 336 Q85 339 97 331 Q110 325 113 307 Q115 294 112 282 Q109 270 104 258 Q95 235 84 213.5 Q73 192 61 170 Q38 127 13 85.5 Q-12 44 -38 3 Q-42 -2 -46 -9 Q-35 -8 -25.5 -7.5 Q-16 -7 -7 -5 Q5 -3 16.5 -2 Q28 -1 39 1 Q52 3 58 -7 Q56 -12 52.5 -13 Q49 -14 44 -16 Q34 -18 27 -18 Q7 -20 -12 -22 Q-31 -24 -51 -26 Q-60 -27 -71 -22 Q-84 -15 -77 -3 Q-74 3 -70.5 8.5 Q-67 14 -63 19 Q-32 70 -1.5 120 Q29 170 57 223 Q65 239 73 255 Q81 271 86 288 Q88 293 88.5 298.5 Q89 304 90 309 Q91 311 90.5 313.5 Q90 316 90 318 Q89 324 81 323 Q78 322 74.5 321.5 Q71 321 67 319 Q38 307 18 281 Q16 279 14 275.5 Q12 272 10 267 Z " />
<glyph glyph-name="three" unicode="3" horiz-adv-x="173" d="M88 304 Q67 290 49 274 L31 256 Q26 251 17.5 251.5 Q9 252 7 258 Q6 260 8 264 Q14 272 18 276 Q49 305 89 330 Q97 334 101 335 Q113 339 123 335 Q137 328 130 313 Q124 299 115 286 Q106 273 97 259 Q92 253 88 247 Q84 241 79 234 Q77 232 75.5 229 Q74 226 72 223 Q78 221 78 221 Q127 215 124 169 Q122 153 118 137.5 Q114 122 109 106 Q101 83 89.5 60.5 Q78 38 61 18 Q44 -3 25 -16 Q4 -30 -17.5 -29.5 Q-39 -29 -58 -19 Q-62 -17 -65 -14 Q-68 -11 -70 -8 Q-76 -1 -69 9 Q-65 17 -55 22 Q-45 27 -37 27 Q-32 27 -31 26 Q-27 25 -25 21 Q-25 20 -26.5 18.5 Q-28 17 -30 15 Q-33 13 -36.5 10.5 Q-40 8 -42 5 Q-48 -4 -40 -9 Q-30 -15 -19 -11 Q-9 -8 -1.5 -3 Q6 2 14 9 Q33 28 45 49 Q82 110 90 178 Q90 183 89.5 187.5 Q89 192 88 197 Q88 205 79 205 Q70 205 65 206 Q58 207 51.5 208.5 Q45 210 40 215 Q32 223 37 232 Q40 237 42.5 241 Q45 245 48 249 Q56 260 65 271 Q74 282 82 293 Q84 296 90 302 L88 304 Z " />
<glyph glyph-name="four" unicode="4" horiz-adv-x="170" d="M134 236 Q146 239 153 236 Q156 236 159 233 Q166 229 158 224 Q154 222 151 222 Q146 220 142 218.5 Q138 217 133 216 Q125 214 124 208 Q113 176 102.5 144 Q92 112 81 80 Q74 57 68 35 Q62 13 55 -10 Q54 -14 52 -24 Q51 -33 40 -31 Q38 -30 37 -30 Q36 -30 34 -29 Q24 -25 25 -16 Q26 -9 26.5 -3 Q27 3 29 10 Q40 57 53 103 Q66 149 80 195 Q82 199 82 202 Q79 201 76.5 201 Q74 201 72 200 Q64 198 56 196.5 Q48 195 40 193 Q24 190 9 196 Q6 197 3.5 198 Q1 199 -2 201 Q-10 207 -7 216 Q-5 220 -3 224 Q-1 228 2 232 Q16 256 35 278 Q54 300 75 320 Q83 329 96 323 Q104 319 99 312 Q92 304 86 296 Q80 288 74 280 Q65 269 56.5 257.5 Q48 246 40 235 Q37 230 34 224.5 Q31 219 29 213 Q45 215 60 218 Q75 221 90 224 Q90 225 90.5 225.5 Q91 226 91 227 Q100 250 108.5 273 Q117 296 126 319 Q127 322 127.5 325.5 Q128 329 130 332 Q131 339 139 337 Q153 334 155 322 Q155 311 152.5 300.5 Q150 290 147 279 Q145 270 141.5 260.5 Q138 251 135 242 Q135 239 134 236 Z " />
<glyph glyph-name="five" unicode="5" horiz-adv-x="187" d="M48 192 Q54 194 59 197 Q64 200 69 202 Q78 205 86.5 206.5 Q95 208 105 206 Q129 200 136 177 Q138 170 139 163.5 Q140 157 140 150 Q139 87 104 31 Q92 12 73 -4 Q58 -17 41 -22.5 Q24 -28 5 -29 Q-7 -31 -15 -25 Q-29 -19 -17 -9 Q-9 -3 -4 -1 Q2 3 10 -1 Q15 -5 11 -9 Q9 -11 8 -11 Q7 -12 7 -12.5 Q7 -13 6 -14 Q17 -14 29 -7 Q54 6 72 30 Q85 47 93.5 65.5 Q102 84 107 104 Q110 116 112 128 Q114 140 115 152 Q115 170 110 183 Q105 197 91 192 Q80 189 70 183.5 Q60 178 51 171 Q49 169 48 168.5 Q47 168 45 166 Q35 157 20 162 Q9 165 12 176 Q16 200 24 225 Q30 245 36.5 263.5 Q43 282 49 302 Q56 325 79 331 Q107 337 135 337 Q138 337 141 336 Q144 335 147 334 Q151 332 151 328 Q149 324 145 324 Q138 322 132 321.5 Q126 321 119 319 Q114 318 110 317 Q106 316 101 315 Q86 312 82 297 L61 234 Q58 225 55.5 216.5 Q53 208 50 200 Q49 198 49 196 Q49 194 48 192 Z " />
<glyph glyph-name="six" unicode="6" horiz-adv-x="180" d="M16 102 Q19 105 21 106 Q35 117 48.5 128 Q62 139 76 150 Q79 152 82.5 153.5 Q86 155 89 157 Q102 163 115 152 Q127 144 123 131 Q119 114 111 97 Q102 76 89.5 58 Q77 40 63 23 Q55 15 47.5 6.5 Q40 -2 32 -10 Q29 -14 26 -16.5 Q23 -19 19 -22 Q8 -29 -3 -25 Q-14 -21 -22 -8 Q-28 2 -30 16 Q-30 24 -30 31 Q-30 38 -29 45 Q-27 59 -24 72.5 Q-21 86 -18 100 Q-6 146 12.5 188 Q31 230 55 268 Q64 283 74.5 297.5 Q85 312 98 324 Q101 327 109 333 Q114 336 119.5 333.5 Q125 331 127 324 Q128 320 125 317 Q117 308 110 299 Q103 290 96 280 Q78 253 63 223.5 Q48 194 35 162 Q30 149 25.5 136.5 Q21 124 16 110 Q16 108 15.5 106.5 Q15 105 15 103 Q15 102 16 102 Z M99 137 Q97 136 96 135 Q95 134 93 133 Q78 123 64 113 Q50 103 36 91 L6 61 Q2 57 2 52 Q-3 34 -4 16 Q-6 6 -3 -5 Q32 21 58 56 Q84 91 99 137 Z " />
<glyph glyph-name="seven" unicode="7" horiz-adv-x="163" d="M46 168 Q40 168 34 167.5 Q28 167 23 166 Q18 166 13.5 166.5 Q9 167 6 171 Q9 174 14 174 Q22 176 29 177 Q36 178 44 179 Q51 179 54 185 Q67 210 79.5 234.5 Q92 259 106 284 Q111 293 116.5 301.5 Q122 310 127 319 Q131 325 133 329 Q129 329 126.5 329.5 Q124 330 122 329 Q109 328 96.5 327.5 Q84 327 71 327 Q67 326 63 326.5 Q59 327 54 328 Q51 328 48.5 329 Q46 330 43 332 Q39 336 41 338 Q43 340 50 340 Q52 340 53 339 Q60 336 70 338 Q84 339 97.5 339.5 Q111 340 125 341 Q127 341 129.5 340.5 Q132 340 134 340 Q165 335 157 315 Q155 310 152.5 304.5 Q150 299 147 294 Q131 268 118 242.5 Q105 217 92 191 Q90 187 89 184 L116 187 Q119 187 122 187.5 Q125 188 127 188 L132 188 Q135 188 138.5 187.5 Q142 187 142 184 Q142 182 139 181 Q136 180 134 180 Q125 178 116 177.5 Q107 177 98 175 Q87 174 84.5 173 Q82 172 78 164 Q60 125 42 86 Q24 47 5 9 Q-2 -7 -12 -26 Q-13 -28 -17 -30 Q-25 -33 -35 -29 Q-38 -26 -37 -24 Q-28 -4 -18.5 16 Q-9 36 0 56 Q11 83 22 110 Q33 137 44 164 Q45 165 45 166 Q45 167 46 168 Z " />
<glyph glyph-name="eight" unicode="8" horiz-adv-x="173" d="M83 111 Q87 107 90 103.5 Q93 100 96 97 Q116 71 97 41 Q83 18 58 1 Q44 -8 29.5 -15 Q15 -22 -2 -24 Q-21 -27 -37 -23 Q-67 -14 -58 17 Q-56 24 -52.5 31 Q-49 38 -45 45 Q-37 59 -27.5 72.5 Q-18 86 -7 99 Q-6 101 -5 101.5 Q-4 102 -2 104 Q10 116 21 106 Q26 102 22 97 Q11 81 0.5 65.5 Q-10 50 -18 33 Q-24 21 -27 7 Q-30 -4 -26.5 -7 Q-23 -10 -11 -8 Q8 -3 22 5 Q53 21 73 49 Q75 51 75.5 52.5 Q76 54 78 56 Q91 79 73 97 Q68 102 62 107.5 Q56 113 50 118 Q45 124 39 130 Q33 136 28 143 Q10 169 24 200 Q29 213 37 224.5 Q45 236 55 247 Q70 264 86.5 280.5 Q103 297 120 313 Q125 318 130.5 322.5 Q136 327 141 332 Q145 334 148.5 336 Q152 338 156 336 Q161 334 165 330 Q169 326 168 321 Q168 316 167 311 Q166 306 164 301 Q153 272 141 243.5 Q129 215 117 186 Q112 172 106 157.5 Q100 143 95 129 Q92 121 90 118 Q88 115 83 111 Z M135 294 Q134 294 133 295 Q128 290 124 286.5 Q120 283 116 278 Q102 264 89.5 250.5 Q77 237 66 222 Q54 207 48 190 Q40 170 46 153 Q52 136 69 125 Q83 168 100.5 209.5 Q118 251 135 294 Z " />
<glyph glyph-name="nine" unicode="9" horiz-adv-x="157" d="M-26 31 Q-32 29 -34 28 Q-42 27 -43 17 Q-43 8 -40.5 2 Q-38 -4 -33 -9 Q-31 -12 -28 -9 Q-19 -4 -12 1 Q-6 8 -0.5 15 Q5 22 10 30 Q27 55 39.5 82 Q52 109 63 138 Q74 167 83.5 196.5 Q93 226 103 255 Q104 256 104 260 L97 253 Q86 240 75.5 227.5 Q65 215 54 203 Q49 198 44 193 Q39 188 33 184 Q20 174 10 180.5 Q0 187 0 205 Q-1 221 5 237 Q20 286 53 318 Q69 334 87 337 Q103 339 112 324 Q116 317 114 303 L117 303 Q125 303 130 296 Q135 289 133 278 Q131 269 129.5 259.5 Q128 250 126 240 Q116 202 104 165 Q92 128 76 92 Q62 57 42 28 Q29 6 14 -7 Q-9 -29 -32 -26 Q-43 -24 -49 -17 Q-54 -10 -58 -2.5 Q-62 5 -62 16 Q-62 35 -48 40 Q-40 43 -31 40 Q-29 39 -27.5 37.5 Q-26 36 -26 31 Z M19 198 Q43 218 63 242 Q83 266 103 290 Q99 295 98.5 297.5 Q98 300 100 308 Q100 315 101 318 Q89 318 74.5 306 Q60 294 47.5 276 Q35 258 27 237 Q19 216 19 198 Z " />
<glyph glyph-name="B" unicode="B" horiz-adv-x="460" d="M230 330 Q223 321 216.5 312.5 Q210 304 202 295 Q200 293 198 290.5 Q196 288 193 283 Q204 284 214 285 Q224 286 234 286 Q263 288 292 283.5 Q321 279 350 265 Q372 255 390 235 Q419 203 414 154 Q412 134 406.5 117 Q401 100 393 83 Q379 54 361 28 Q343 2 323 -22 Q297 -53 267.5 -79 Q238 -105 204 -124 Q189 -133 173 -139.5 Q157 -146 140 -148 Q127 -150 114.5 -149.5 Q102 -149 89 -142 Q77 -135 68 -126 Q59 -116 56.5 -104 Q54 -92 56 -79 Q58 -70 61 -61 Q64 -52 69 -45 Q104 12 146.5 58 Q189 104 241 138 Q255 147 270 154 Q285 161 301 164 Q338 172 371 153 Q379 173 374.5 200.5 Q370 228 350 242 Q331 254 307 259 Q284 264 261 263 Q238 262 215 259 Q207 258 200.5 257.5 Q194 257 187 257 Q173 256 160 267 Q148 276 156 288 Q163 301 169 309 Q194 340 218.5 370.5 Q243 401 268 431 Q297 466 324 501.5 Q351 537 376 576 Q385 589 391 606 Q389 605 387.5 604.5 Q386 604 384 602 Q365 590 348 576 Q331 562 314 546 Q276 510 243 469.5 Q210 429 178 385 Q127 315 81.5 240 Q36 165 -3 84 L-84 -171 Q-86 -179 -89 -186.5 Q-92 -194 -95 -202 Q-97 -210 -100 -218 Q-103 -226 -106 -234 Q-111 -244 -118.5 -246 Q-126 -248 -134 -240 Q-139 -235 -138 -230 Q-137 -228 -136.5 -226 Q-136 -224 -135 -222 Q-102 -107 -67 5.5 Q-32 118 5 231 L32 314 Q61 401 89 486.5 Q117 572 145 659 Q150 673 153.5 687.5 Q157 702 160 716 Q161 721 161.5 726.5 Q162 732 161 737 Q161 745 167 745 Q174 746 179 740 Q184 734 184 725 Q184 710 181 697 Q176 674 170.5 650.5 Q165 627 158 604 L47 244 Q81 302 118 355.5 Q155 409 197 459 Q230 500 265.5 536.5 Q301 573 340 605 Q351 613 363 620 Q375 627 386 634 Q401 641 416 631 Q433 618 426 598 Q421 582 414 569 Q401 546 387 524.5 Q373 503 357 483 Q325 445 293.5 406.5 Q262 368 230 330 Z M362 115 Q364 120 365 124.5 Q366 129 368 134 Q363 139 357.5 141 Q352 143 347 144 Q338 146 328.5 145 Q319 144 311 141 Q291 135 274 125 Q257 115 240 101 Q178 53 132 -13 Q116 -36 103 -57 Q90 -76 92 -100 Q92 -123 111 -124 Q118 -125 128 -123 Q147 -120 163.5 -111 Q180 -102 195 -91 Q264 -42 315 32 Q343 70 362 115 Z " />
<glyph glyph-name="C" unicode="C" horiz-adv-x="329" d="M294 -81 Q288 -89 282.5 -96 Q277 -103 271 -110 Q245 -139 216.5 -164 Q188 -189 156 -208 Q139 -219 120.5 -226.5 Q102 -234 82 -237 Q47 -241 19.5 -229 Q-8 -217 -27 -185 Q-41 -163 -46.5 -137.5 Q-52 -112 -54 -86 Q-58 -42 -53.5 0.5 Q-49 43 -39 86 Q-16 183 21.5 271.5 Q59 360 107 445 Q139 502 175.5 553 Q212 604 255 651 Q271 669 287.5 685.5 Q304 702 323 716 Q345 734 369 741 Q379 744 389 740.5 Q399 737 406.5 730.5 Q414 724 419 715 Q424 706 425 697 Q426 687 425 677 Q424 667 420 658 Q415 641 409.5 625 Q404 609 397 593 Q352 489 304.5 388 Q257 287 204 187 Q198 176 192.5 174.5 Q187 173 179 178 Q169 186 174 197 Q184 224 198 252 Q243 343 286 434.5 Q329 526 367 620 Q374 637 379 653.5 Q384 670 389 687 Q391 692 391 697.5 Q391 703 392 708 Q387 710 382.5 708.5 Q378 707 373 705 Q357 697 343 686.5 Q329 676 315 664 Q285 638 259 607 Q233 576 209 543 Q140 447 88.5 343.5 Q37 240 5 125 Q-6 85 -13 44.5 Q-20 4 -22 -38 Q-23 -64 -21 -89.5 Q-19 -115 -12 -140 Q-6 -163 8 -186 Q36 -228 84 -213 Q100 -208 115 -201 Q130 -194 144 -185 Q212 -140 262 -80 Q279 -62 294 -81 Z " />
<glyph glyph-name="D" unicode="D" horiz-adv-x="530" d="M545 519 Q549 495 546.5 472 Q544 449 539 426 Q531 388 518.5 353 Q506 318 490 284 Q439 172 377.5 70 Q316 -32 241 -125 Q223 -148 204 -167.5 Q185 -187 163 -205 Q151 -214 138.5 -222.5 Q126 -231 112 -236 Q101 -241 87 -243 Q69 -245 55.5 -238.5 Q42 -232 32.5 -221.5 Q23 -211 17 -199.5 Q11 -188 8 -181 Q-7 -142 -8 -100 Q-10 -67 -2.5 -38 Q5 -9 23 16 Q43 42 71 57 Q88 65 99 43 L90 37 Q55 12 39 -24 Q23 -60 23 -108 Q25 -161 48 -206 Q54 -217 58.5 -220 Q63 -223 74 -220 Q82 -217 90 -214 Q98 -211 106 -206 Q125 -195 141 -180 Q157 -165 172 -148 Q206 -110 235 -70 Q264 -30 292 13 Q334 79 372 146.5 Q410 214 442 286 Q459 323 473 361 Q487 399 497 439 Q503 461 506.5 483 Q510 505 509 528 Q509 544 504 564 Q500 586 478 595 Q467 601 455 603.5 Q443 606 431 607 Q397 609 365.5 602 Q334 595 303 584 Q291 579 279 573.5 Q267 568 255 563 Q246 560 243 549 Q221 477 199.5 407 Q178 337 156 265 Q154 258 151.5 251 Q149 244 146 236 Q174 251 194 268 Q200 274 203 276 Q216 285 229 269 Q227 263 223 258.5 Q219 254 214 249 Q183 222 143 207 Q134 204 130 194 Q124 177 117.5 161 Q111 145 105 128 Q103 124 101 120.5 Q99 117 97 113 Q93 104 82 106 Q68 109 64.5 115 Q61 121 64 132 Q67 145 70.5 157 Q74 169 77 182 Q78 186 81 195 Q77 195 71 197 Q62 199 53.5 201 Q45 203 37 207 Q-7 228 -10 280 Q-12 296 -9.5 311 Q-7 326 -2 340 Q8 372 24.5 398.5 Q41 425 61 450 Q91 485 125.5 513.5 Q160 542 199 565 Q208 570 213 583 Q225 620 237.5 657 Q250 694 263 731 Q266 739 268 741 Q270 743 275 741 Q292 736 292 722 Q292 717 290 709 Q283 686 277 663.5 Q271 641 264 618 Q262 613 261 608.5 Q260 604 258 598 Q261 599 263 599.5 Q265 600 267 601 Q291 612 316 620 Q341 628 367 633 Q388 636 408.5 636.5 Q429 637 451 631 Q489 621 514.5 591 Q540 561 545 519 Z M190 517 Q191 519 191 520.5 Q191 522 192 524 Q192 524 190 526 Q188 524 182 520 Q162 506 142.5 490.5 Q123 475 106 457 Q85 435 67.5 410.5 Q50 386 36 357 Q28 339 23 320 Q18 301 18 280 Q19 249 36.5 230.5 Q54 212 81 215 Q89 216 92 225 Q94 231 97 237 Q100 243 103 249 Q105 255 107 256 Q112 258 113.5 262.5 Q115 267 117 272 Q134 335 152 396 Q170 457 190 517 Z " />
<glyph glyph-name="E" unicode="E" horiz-adv-x="580" d="M39 161 Q37 159 34 158.5 Q31 158 29 156 Q8 145 -12.5 135 Q-33 125 -54 114 Q-72 105 -84 126 Q-81 129 -79 130 Q-47 148 -16 165 Q15 182 50 196 Q57 199 60 207 Q89 281 117.5 355 Q146 429 171 506 Q179 532 186 558 Q193 584 197 612 Q198 617 198.5 621.5 Q199 626 199 631 Q180 618 175 574 Q165 571 156 579 Q149 585 149 593 Q152 613 160 629.5 Q168 646 182 657 Q193 666 207 659 Q221 652 225 637 Q228 620 227 607 Q226 584 221.5 562.5 Q217 541 212 520 Q196 457 175 398.5 Q154 340 133 280 Q128 266 122.5 252 Q117 238 112 222 Q121 225 125 226 Q175 244 224 261.5 Q273 279 324 296 Q343 303 362.5 307.5 Q382 312 402 317 Q407 318 413 318 Q419 318 424 318 Q435 318 447 306 Q453 298 450 293 Q445 287 438 292 Q428 300 420 298 Q412 296 404 294 Q378 287 352.5 279.5 Q327 272 301 263 Q253 246 206.5 228 Q160 210 112 193 Q100 188 94 174 L13 -51 Q3 -78 -4.5 -106 Q-12 -134 -16 -164 Q-17 -175 -16.5 -185.5 Q-16 -196 -16 -207 Q-16 -209 -15 -211.5 Q-14 -214 -12 -218 Q-7 -215 -2 -213 Q3 -211 7 -208 Q24 -197 41 -186 Q58 -175 74 -163 Q159 -100 243.5 -36.5 Q328 27 413 90 Q446 115 483 142 Q491 147 499.5 151.5 Q508 156 516 161 Q529 168 539 156 Q546 151 540 145 Q540 145 538 143 Q472 93 406.5 44 Q341 -5 275 -55 Q229 -90 183.5 -124.5 Q138 -159 91 -193 Q78 -203 64 -211.5 Q50 -220 36 -228 Q30 -232 23 -234 Q16 -236 9 -239 Q1 -242 -8.5 -240.5 Q-18 -239 -28 -236 Q-51 -228 -56 -204 Q-57 -195 -57.5 -186 Q-58 -177 -57 -168 Q-55 -138 -48.5 -110 Q-42 -82 -34 -54 Q-18 -2 -0.5 48 Q17 98 37 148 Q38 154 41 159 Q39 159 39 161 Z M23 648 Q84 668 147 683 Q210 698 274 709 Q309 715 344 721.5 Q379 728 414 733 Q440 737 466.5 740 Q493 743 520 741 Q533 741 547 738 Q568 735 586 714 Q593 705 592 697 Q584 694 580 702 Q572 713 562 716 Q552 719 541 719 Q525 718 509.5 717.5 Q494 717 478 715 Q443 710 408.5 705 Q374 700 339 693 Q302 687 265.5 679.5 Q229 672 193 664 Q160 656 126.5 648 Q93 640 60 632 Q52 630 48 630 Q30 628 23 648 Z " />
<glyph glyph-name="F" unicode="F" horiz-adv-x="430" d="M974 646 Q985 635 982 625 Q980 616 972 620 Q961 623 958 636 Q944 638 931 636.5 Q918 635 904 633 Q846 625 789 614.5 Q732 604 675 592 Q583 572 492.5 552 Q402 532 311 512 Q294 508 277 504 Q260 500 243 495 Q235 493 234 487 Q217 432 199.5 377.5 Q182 323 165 269 Q164 268 164 264 Q174 266 178 267 Q213 277 247.5 286 Q282 295 317 304 Q328 307 340 308 Q352 309 363 311 Q371 313 379.5 311.5 Q388 310 395 305 Q403 299 408 290 Q410 287 408 284.5 Q406 282 402 283 Q399 284 395.5 285 Q392 286 390 288 Q385 293 380.5 293.5 Q376 294 371 293 Q354 289 338 286 Q322 283 305 279 Q270 269 234 258.5 Q198 248 163 238 Q157 236 154.5 232.5 Q152 229 150 224 Q121 134 92 45 Q63 -44 34 -135 Q26 -159 17 -182.5 Q8 -206 0 -230 Q-5 -243 -20 -240 Q-32 -239 -29 -227 Q-27 -221 -25 -215 Q-23 -209 -21 -202 Q-16 -189 -12.5 -176 Q-9 -163 -2 -151 Q1 -146 2 -141 Q3 -136 5 -131 Q32 -50 55 32.5 Q78 115 103 198 Q106 207 109 219 Q106 218 103.5 218 Q101 218 99 217 Q80 211 62 204.5 Q44 198 25 192 L4 186 Q-9 183 -21 189 Q-24 191 -26.5 193.5 Q-29 196 -34 199 Q-29 201 -26.5 202 Q-24 203 -22 204 Q-17 206 -13 206 Q-9 206 -5 208 Q24 218 52.5 227.5 Q81 237 110 247 Q119 250 121 257 Q138 311 154.5 363.5 Q171 416 188 470 Q189 472 189 475 Q189 478 190 481 Q187 480 184 480 Q181 480 179 479 Q132 466 85.5 454 Q39 442 -8 429 L-38 423 Q-64 417 -84 435 L-84 437 Q-82 438 -80 439 Q-78 440 -76 440 Q-59 441 -44 445.5 Q-29 450 -13 455 Q39 469 90.5 483.5 Q142 498 193 512 Q203 515 205 522 Q206 526 208 532 L210 536 Q215 550 219 563.5 Q223 577 228 591 L256 676 L256 678 Q252 674 250 671 Q239 653 227.5 635 Q216 617 205 600 Q199 591 188 597 Q178 601 182 611 Q186 619 190 626.5 Q194 634 199 642 Q213 663 227.5 683.5 Q242 704 256 725 L265 734 Q274 745 287 739 Q302 731 301 717 Q300 715 300 712 Q299 706 297.5 698 Q296 690 294 682 Q291 673 289 663 L253 548 Q253 545 251 541 Q250 537 249 534 Q248 531 247 526 Q256 527 262 529 Q385 558 507 584 Q629 610 754 633 Q792 641 831 646.5 Q870 652 909 657 Q917 658 925.5 658 Q934 658 942 658 Q960 658 974 646 Z " />
<glyph glyph-name="G" unicode="G" horiz-adv-x="540" d="M468 221 Q463 219 458.5 218 Q454 217 449 215 Q383 191 319.5 162.5 Q256 134 196 99 Q168 80 137 58 Q115 42 106 16 Q104 9 101.5 7.5 Q99 6 93 8 Q86 9 81.5 13 Q77 17 79 22 Q82 37 89 49 Q95 60 103.5 67.5 Q112 75 122 83 Q142 99 164.5 112.5 Q187 126 210 138 Q262 167 315.5 191 Q369 215 425 236 Q433 239 441 241 Q449 243 457 244 Q467 245 479 242 Q513 231 502 199 Q496 183 486 166 Q472 141 454.5 118.5 Q437 96 417 74 Q360 11 299.5 -47.5 Q239 -106 170 -158 Q153 -172 135 -183.5 Q117 -195 99 -207 Q64 -229 19 -238 Q-14 -244 -44 -237 Q-82 -228 -97 -195 Q-104 -181 -106.5 -166.5 Q-109 -152 -109 -138 Q-111 -108 -106 -79 Q-101 -50 -94 -21 Q-79 37 -56.5 92.5 Q-34 148 -8 202 Q37 296 90.5 383 Q144 470 208 554 Q234 586 261 617.5 Q288 649 319 677 Q330 688 342.5 697.5 Q355 707 368 717 Q381 725 397 732 Q417 738 431 727 Q445 716 440 696 Q438 685 435 675 Q432 665 427 655 Q412 623 397 590.5 Q382 558 366 526 Q350 494 334 461 Q318 428 306 394 Q301 382 298 369.5 Q295 357 292 344 Q290 337 290 330 Q290 323 289 315 Q278 309 269.5 313 Q261 317 261 328 Q261 350 267 371 Q274 400 286 426.5 Q298 453 311 480 Q333 526 355 571.5 Q377 617 400 663 Q404 671 407 679.5 Q410 688 413 697 Q415 704 416 713 Q410 710 405.5 707.5 Q401 705 396 702 Q379 690 363.5 676 Q348 662 334 647 Q302 615 273 580 Q244 545 218 509 Q147 412 89 310 Q31 208 -14 98 Q-29 62 -41 24.5 Q-53 -13 -61 -51 Q-66 -77 -69 -101.5 Q-72 -126 -68 -152 Q-66 -164 -63 -174.5 Q-60 -185 -53 -196 Q-32 -230 6 -218 Q27 -211 49 -200 Q84 -183 114.5 -161 Q145 -139 175 -116 Q247 -59 310.5 5 Q374 69 428 143 Q437 157 445.5 170 Q454 183 462 197 Q465 202 467 208 Q469 214 471 219 Q470 219 468 221 Z " />
<glyph glyph-name="H" unicode="H" horiz-adv-x="325" d="M538 405 Q545 397 535 394 Q530 392 524.5 391 Q519 390 514 392 Q500 397 487.5 395.5 Q475 394 462 392 Q431 389 400.5 385.5 Q370 382 339 379 Q337 379 336 378.5 Q335 378 334 378 L301 374 Q266 262 231.5 151.5 Q197 41 162 -71 Q151 -109 141 -147.5 Q131 -186 124 -226 Q121 -242 103 -241 Q100 -241 97 -240 Q94 -239 91 -238 Q89 -227 90 -217.5 Q91 -208 93 -198 Q97 -172 103.5 -146.5 Q110 -121 118 -95 Q153 20 188.5 134 Q224 248 260 363 Q260 365 260.5 366 Q261 367 261 369 L259 369 L85 345 Q74 343 72 335 Q42 241 12.5 147.5 Q-17 54 -46 -40 Q-51 -56 -53 -74 Q-55 -83 -62 -83 Q-70 -83 -79 -80 Q-86 -78 -84 -70 Q-83 -65 -82.5 -59 Q-82 -53 -80 -47 Q-66 -1 -53.5 44.5 Q-41 90 -27 135 Q-13 182 2 228 Q17 274 31 321 Q34 328 35 337 Q24 335 13.5 333.5 Q3 332 -7 330 Q-53 322 -98 313 Q-143 304 -189 296 Q-203 294 -218 292.5 Q-233 291 -248 295 Q-253 296 -263 300 Q-265 302 -267 304.5 Q-269 307 -272 310 Q-267 311 -263.5 312 Q-260 313 -258 312 Q-244 309 -231.5 311 Q-219 313 -206 315 Q-167 323 -128 331 Q-89 339 -51 346 Q-28 351 -4.5 354 Q19 357 44 361 Q55 395 66.5 429 Q78 463 89 498 Q87 499 85 501 Q78 506 77.5 507.5 Q77 509 80 517 Q90 541 102 563.5 Q114 586 127 609 Q135 621 141 633.5 Q147 646 154 658 Q159 667 162.5 668.5 Q166 670 172 667 Q188 660 182 644 Q172 620 162.5 595.5 Q153 571 144 547 Q129 504 114.5 461.5 Q100 419 85 376 Q84 374 84 371.5 Q84 369 83 366 Q87 367 95 367 Q130 372 166 376 Q202 380 237 385 Q244 386 251 387 Q258 388 266 389 Q272 409 278.5 429.5 Q285 450 292 470 Q308 520 324.5 568.5 Q341 617 358 667 Q361 676 361 685 Q361 691 363 697 Q365 703 367 708 Q369 716 372 722.5 Q375 729 378 736 Q384 746 393 739 Q406 733 404 719 Q402 712 401 705.5 Q400 699 398 692 Q378 627 358.5 562.5 Q339 498 319 433 Q316 423 312.5 413 Q309 403 306 393 L371 401 L378 401 L504 413 Q509 413 513 413 Q517 413 522 412 Q526 411 530 409 Q534 407 538 405 Z " />
<glyph glyph-name="I" unicode="I" horiz-adv-x="195" d="M389 653 Q394 651 397.5 646.5 Q401 642 400 638 Q398 636 393 634 Q388 632 383 634 Q379 634 378 635 Q372 640 365.5 640.5 Q359 641 352 640 Q329 640 307 639.5 Q285 639 262 638 L-2 -167 Q6 -165 12.5 -164 Q19 -163 25 -162 Q58 -156 91 -150.5 Q124 -145 158 -144 Q177 -144 197 -147 Q213 -150 228 -166 Q231 -169 233 -173 Q235 -177 233 -179.5 Q231 -182 228 -180 Q224 -178 220 -176.5 Q216 -175 214 -172 Q205 -162 190 -160 Q170 -159 151.5 -161 Q133 -163 114 -166 Q85 -171 57 -176.5 Q29 -182 0 -188 Q-4 -188 -6 -189 L-12 -219 Q-14 -227 -16.5 -229 Q-19 -231 -26 -230 Q-41 -227 -41 -214 Q-40 -209 -40 -205.5 Q-40 -202 -39 -197 Q-44 -198 -48 -198.5 Q-52 -199 -56 -200 Q-93 -210 -129.5 -219.5 Q-166 -229 -204 -239 Q-212 -241 -216 -241 Q-232 -244 -241 -228 Q-238 -225 -237 -225 Q-218 -220 -199.5 -215.5 Q-181 -211 -163 -206 Q-133 -198 -103.5 -191 Q-74 -184 -44 -177 Q-35 -174 -33 -169 L203 585 L219 636 Q207 634 196.5 633 Q186 632 175 630 Q140 625 105.5 618.5 Q71 612 37 601 Q35 600 32.5 600 Q30 600 27 598 Q18 595 12 598 Q6 601 1 612 Q4 614 7.5 615.5 Q11 617 14 618 Q37 627 60.5 633 Q84 639 108 644 Q163 655 215 655 Q223 656 227.5 658 Q232 660 234 667 Q236 673 238 677 Q234 679 230.5 681 Q227 683 225 685 Q216 692 223 699 Q231 709 239.5 718.5 Q248 728 257 738 Q265 746 276 738 Q292 729 287 712 Q284 701 280.5 691 Q277 681 274 670 Q273 668 272.5 665 Q272 662 270 658 L283 658 L367 658 Q377 658 389 653 Z " />
<glyph glyph-name="J" unicode="J" horiz-adv-x="455" d="M241 -63 Q253 -72 264 -80.5 Q275 -89 286 -98 Q288 -99 287.5 -101 Q287 -103 288 -105 Q283 -109 278 -107.5 Q273 -106 268 -103 Q261 -99 255 -95 Q249 -91 243 -87 Q239 -85 236 -83 Q233 -81 229 -79 Q227 -82 225 -84.5 Q223 -87 221 -90 Q198 -119 173.5 -144 Q149 -169 121 -191 Q98 -208 74.5 -220.5 Q51 -233 25 -238 Q2 -242 -19.5 -240.5 Q-41 -239 -62 -229 Q-118 -200 -122 -133 Q-127 -86 -89 -69 Q-44 -46 8 -38 Q41 -32 74 -31 Q107 -30 141 -35 Q155 -37 168 -40.5 Q181 -44 195 -47 Q203 -49 208 -50 Q214 -42 216 -37 Q252 19 281.5 78 Q311 137 337 199 Q369 276 395.5 354.5 Q422 433 442 515 Q449 545 453.5 575.5 Q458 606 460 638 Q460 650 459 662 Q458 674 456 686 Q452 714 427 709 Q409 706 391 698 Q367 687 345 671.5 Q323 656 302 639 Q224 573 156.5 496.5 Q89 420 32 329 Q24 316 17 303 Q10 290 3 277 Q-5 264 -17 271 Q-24 274 -21 281 L-18 290 Q-7 316 6.5 338.5 Q20 361 36 382 Q92 461 154 532 Q216 603 288 663 Q309 680 331 695.5 Q353 711 376 722 Q386 727 396 730 Q406 733 417 734 Q461 736 480 689 Q488 668 490 641 Q492 608 488.5 576 Q485 544 480 512 Q467 440 446 373 Q425 306 399 240 Q371 168 338 101 Q305 34 264 -29 Q258 -37 252 -46 Q246 -55 241 -63 Z M196 -65 Q182 -63 169 -60.5 Q156 -58 143 -56 Q112 -51 82 -53 Q52 -55 21 -60 Q-24 -69 -63 -88 Q-86 -100 -88 -131 Q-91 -174 -60 -202 Q-33 -226 5 -220 Q25 -217 44.5 -208.5 Q64 -200 81 -188 Q115 -165 142 -135.5 Q169 -106 194 -71 Q194 -69 196 -65 Z " />
<glyph glyph-name="K" unicode="K" horiz-adv-x="447" d="M181 721 Q174 720 169.5 717 Q165 714 161 710 Q141 693 125.5 673 Q110 653 97 630 Q93 623 84.5 622.5 Q76 622 71 630 Q68 633 70 635 Q70 639 73 642 Q87 662 101.5 682 Q116 702 133 719 Q138 724 143.5 728.5 Q149 733 154 737 Q172 748 189 738 Q206 728 211 713 Q214 702 214.5 692 Q215 682 215 671 Q214 643 209.5 616 Q205 589 198 562 Q182 491 160.5 423 Q139 355 115 287 Q93 225 70 165.5 Q47 106 21 46 Q19 42 18 38 Q22 42 22 41 Q71 95 122.5 144.5 Q174 194 228 243 Q304 315 381 383.5 Q458 452 538 519 Q573 549 609.5 578.5 Q646 608 684 634 Q693 641 703 646.5 Q713 652 724 656 Q740 660 752 650 Q761 643 757 635 Q755 631 751 629.5 Q747 628 742 631 Q735 635 730.5 633 Q726 631 722 628 Q699 611 676 594 Q653 577 630 559 Q521 468 416.5 374.5 Q312 281 209 183 Q199 174 190 165 Q181 156 172 147 Q171 146 171 145.5 Q171 145 170 144 Q186 135 198 125 Q215 111 231.5 98 Q248 85 265 71 Q347 4 430 -59.5 Q513 -123 600 -183 Q617 -195 633.5 -205.5 Q650 -216 668 -224 Q671 -226 674.5 -227.5 Q678 -229 677 -234 Q675 -238 671.5 -238.5 Q668 -239 665 -239 Q655 -237 651 -235 Q640 -230 629 -225.5 Q618 -221 608 -214 Q576 -193 544.5 -172 Q513 -151 482 -128 Q418 -80 354.5 -31 Q291 18 228 67 Q215 77 202.5 87.5 Q190 98 177 109 Q172 114 166 118.5 Q160 123 153 128 L144 119 Q118 92 92 65 Q66 38 40 10 Q31 0 21.5 -9.5 Q12 -19 2 -30 Q-12 -44 -31 -36 Q-48 -29 -42 -14 Q-37 1 -31 15.5 Q-25 30 -19 44 Q26 157 66.5 270 Q107 383 142 500 Q154 540 164 579.5 Q174 619 180 661 Q182 676 183 690.5 Q184 705 181 721 Z " />
<glyph glyph-name="L" unicode="L" horiz-adv-x="224" d="M-43 -205 Q-37 -201 -33 -198 Q-29 -195 -24 -192 Q65 -132 157 -81 Q249 -30 345 12 Q374 25 402.5 35 Q431 45 460 50 Q475 53 489.5 53.5 Q504 54 519 49 Q523 47 527 45.5 Q531 44 535 41 Q555 26 552 -2 Q551 -8 549 -13.5 Q547 -19 541 -21 Q533 -26 522 -12 L525 0 Q533 31 507 33 Q493 34 479.5 31.5 Q466 29 452 24 Q414 13 377.5 -2.5 Q341 -18 304 -36 Q230 -73 159 -114.5 Q88 -156 19 -205 Q10 -212 0 -218 Q-10 -224 -20 -230 Q-37 -241 -59 -238 Q-65 -238 -73 -234 Q-85 -227 -82 -214 Q-80 -204 -79 -194.5 Q-78 -185 -75 -175 Q-64 -134 -52.5 -94 Q-41 -54 -28 -14 Q10 104 48.5 220.5 Q87 337 125 455 Q140 503 154 549.5 Q168 596 179 645 Q181 657 182.5 669 Q184 681 186 693 Q187 700 187 706.5 Q187 713 183 719 Q169 715 154 700 Q132 680 112.5 656.5 Q93 633 75 607 Q66 592 53 602 Q45 607 51 617 Q51 618 51.5 618.5 Q52 619 52 620 Q73 650 96.5 678 Q120 706 147 729 Q151 732 154.5 734.5 Q158 737 163 739 Q180 747 195.5 735.5 Q211 724 213 701 Q215 685 214 670 Q213 655 210 639 Q204 600 194.5 562.5 Q185 525 174 488 Q145 398 116.5 310 Q88 222 59 132 Q39 69 17.5 5.5 Q-4 -58 -24 -122 Q-29 -139 -33 -157.5 Q-37 -176 -42 -194 Q-42 -196 -42 -198 Q-42 -200 -43 -205 Z " />
<glyph glyph-name="M" unicode="M" horiz-adv-x="599" d="M683 741 Q700 736 698 721 Q698 709 694 697.5 Q690 686 686 675 Q667 627 648.5 579 Q630 531 613 482 Q590 416 567.5 351 Q545 286 523 220 Q502 156 482.5 93 Q463 30 443 -34 Q431 -72 421 -109 Q411 -146 401 -184 Q398 -195 396.5 -206.5 Q395 -218 400 -229 Q403 -234 398 -237 Q390 -243 381 -242 Q372 -241 368 -233 Q360 -221 363 -201 Q366 -186 369 -170.5 Q372 -155 376 -140 Q404 -31 437 76.5 Q470 184 505 292 Q525 355 545.5 417.5 Q566 480 589 543 Q596 560 602.5 576.5 Q609 593 616 610 Q601 589 582.5 563 Q564 537 544 507.5 Q524 478 503.5 447.5 Q483 417 464 389 Q419 322 371 250 Q348 215 328.5 185 Q309 155 295 132 Q278 106 264 84 Q262 80 259.5 77 Q257 74 255 70 Q248 58 236 44 Q228 36 216.5 34.5 Q205 33 196 39 Q189 43 189 52 Q190 63 190 73.5 Q190 84 192 95 Q199 135 206 174.5 Q213 214 222 254 Q247 371 285 489 Q293 511 298.5 532 Q304 553 310 575 Q312 580 310 586 Q307 583 304 580 Q301 577 299 573 Q279 546 259 519 Q239 492 220 464 Q180 407 143 349.5 Q106 292 74 231 Q57 200 42 168.5 Q27 137 11 105 Q9 101 7 97 Q5 93 3 89 Q-4 79 -16 79 Q-24 79 -27 81.5 Q-30 84 -32 87 Q-34 91 -34 96 L-10 182 Q-9 186 -8 189.5 Q-7 193 -6 198 Q6 239 18 280.5 Q30 322 42 364 Q40 366 40 368 Q35 375 34.5 377.5 Q34 380 37 390 Q49 423 61.5 454.5 Q74 486 88 518 Q96 535 103 552.5 Q110 570 117 587 Q122 599 125.5 601.5 Q129 604 134 600 Q146 589 139 568 Q128 534 117 501 Q106 468 95 434 Q78 379 62 324 Q46 269 30 214 Q47 249 67 282.5 Q87 316 108 349 Q143 405 180.5 459.5 Q218 514 258 568 Q266 579 274 588 Q282 597 290 607 Q292 610 294.5 612.5 Q297 615 299 617 Q313 629 327 625 Q336 623 342.5 618 Q349 613 350 604 Q350 596 350 587.5 Q350 579 348 571 Q343 549 337 527 Q331 505 325 482 Q311 430 296.5 378.5 Q282 327 269 274 Q258 231 250 188.5 Q242 146 232 103 Q232 99 234 97 Q236 100 237.5 102.5 Q239 105 241 108 Q267 150 293 191.5 Q319 233 346 275 Q380 326 414.5 377 Q449 428 484 479 Q519 530 553.5 580 Q588 630 623 681 Q632 694 641.5 706.5 Q651 719 661 732 Q667 740 671.5 741.5 Q676 743 683 741 Z " />
<glyph glyph-name="N" unicode="N" horiz-adv-x="494" d="M486 586 Q486 541 483 498 Q477 415 464 334 Q451 253 428 175.5 Q405 98 369.5 24 Q334 -50 285 -117 Q271 -137 254.5 -155.5 Q238 -174 219 -190 Q201 -205 180.5 -215 Q160 -225 137 -228 Q97 -234 75 -203 Q65 -189 59.5 -174 Q54 -159 51 -143 Q44 -114 42 -85.5 Q40 -57 40 -28 Q40 8 43 43.5 Q46 79 51 114 Q59 177 70 237.5 Q81 298 93 360 Q93 362 93.5 365 Q94 368 94 372 Q90 367 85 356.5 Q80 346 75 336 Q68 321 61.5 305.5 Q55 290 49 274 Q11 180 -19 83.5 Q-49 -13 -72 -113 Q-74 -119 -75.5 -125 Q-77 -131 -79 -136 Q-82 -147 -87.5 -149.5 Q-93 -152 -104 -149 L-107 -149 Q-108 -146 -108 -140 Q-103 -140 -103 -137 Q-103 -134 -103 -131 L-91 -77 Q-72 8 -46 88.5 Q-20 169 12 249 L51 345 Q55 354 61 366.5 Q67 379 74 391 Q81 403 88.5 411.5 Q96 420 103 420 L104 420 L106 420 Q109 419 112 418 Q115 417 118 416 Q120 414 121 414 Q126 410 128 404 Q130 398 130 391 Q130 383 129 374 Q126 351 122.5 329 Q119 307 116 284 Q110 244 103.5 204 Q97 164 92 123 Q86 81 83.5 41 Q81 1 82 -41 Q83 -67 85.5 -93 Q88 -119 96 -144 Q99 -153 103 -162.5 Q107 -172 112 -180 Q117 -189 128 -198 Q143 -208 158 -199 Q163 -195 167.5 -192 Q172 -189 177 -185 Q196 -170 211.5 -152.5 Q227 -135 241 -116 Q293 -50 330 24.5 Q367 99 391.5 178 Q416 257 430 339 Q444 421 452 504 Q456 546 457 587 Q458 628 452 670 Q451 681 448.5 691 Q446 701 441 710 Q437 718 433.5 719 Q430 720 423 714 Q420 711 417.5 707.5 Q415 704 413 700 Q408 691 401 693 Q387 695 387 705 Q389 715 392 719 Q398 729 409 734 Q420 739 432 737 Q457 732 467 712 Q480 688 481 664 Q483 644 484.5 625 Q486 606 486 586 Z " />
<glyph glyph-name="O" unicode="O" horiz-adv-x="397" d="M381 705 Q377 701 373 703 Q369 705 366 707 Q346 719 330 716 Q317 714 307 710 Q296 705 287.5 698 Q279 691 271 683 Q264 675 258 667.5 Q252 660 245 652 Q243 650 242 648 Q241 646 239 644 Q242 643 244 641 Q286 630 313.5 603 Q341 576 358 536 Q368 512 373.5 487.5 Q379 463 381 437 Q384 395 381 355.5 Q378 316 371 277 Q351 175 315 83 Q279 -9 225 -94 Q208 -120 189 -143 Q170 -166 148 -187 Q134 -198 120.5 -208.5 Q107 -219 91 -227 Q77 -234 62.5 -238.5 Q48 -243 31 -242 Q-3 -240 -26 -223 Q-49 -206 -62 -176 Q-71 -156 -74.5 -135 Q-78 -114 -79 -93 Q-81 -39 -73 10.5 Q-65 60 -50 108 Q-33 162 -12.5 213 Q8 264 29 316 Q57 382 87.5 447 Q118 512 153 574 Q158 583 163 591.5 Q168 600 174 610 Q163 605 156 600 Q149 595 142 589 Q133 581 124 589 Q116 594 120 600 Q124 607 131 614 Q156 636 188 642 Q196 644 203 653 Q214 667 225 680 Q236 693 248 706 Q256 714 264.5 720 Q273 726 283 731 Q305 742 327 738.5 Q349 735 371 720 Q380 713 381 705 Z M340 479 Q338 485 336.5 495.5 Q335 506 333 517 Q329 534 323 549.5 Q317 565 307 579 Q282 618 235 623 Q224 625 220 616 Q209 599 199 582 Q189 565 179 548 Q122 442 76 333 Q30 224 -8 109 Q-24 62 -33 14 Q-42 -34 -42 -85 Q-42 -106 -39.5 -127 Q-37 -148 -30 -168 Q-26 -178 -21.5 -186.5 Q-17 -195 -10 -203 Q-2 -211 6 -216 Q14 -221 25 -219 Q33 -217 40.5 -215.5 Q48 -214 56 -211 Q72 -204 85 -194 Q98 -184 110 -173 Q149 -137 180 -89 Q298 89 333 310 Q340 350 342.5 391 Q345 432 340 479 Z " />
<glyph glyph-name="P" unicode="P" horiz-adv-x="494" d="M14 20 Q12 17 11.5 14 Q11 11 10 9 L-65 -228 Q-66 -230 -66 -231.5 Q-66 -233 -67 -235 Q-71 -246 -83 -243 Q-94 -241 -97 -236.5 Q-100 -232 -97 -221 Q-84 -178 -71.5 -135 Q-59 -92 -46 -49 Q-38 -26 -31.5 -2.5 Q-25 21 -17 45 Q-23 51 -25 54 Q-43 74 -49 95 Q-57 119 -46 139 Q-35 159 -15 171 Q-6 176 5 168 Q13 161 6 155 Q-11 144 -20 128 Q-37 97 -12 65 Q-11 68 -9 72 Q23 174 55 274 Q87 374 119 476 Q123 485 124 492 Q126 496 125 498 Q121 507 125 513.5 Q129 520 131 527 Q132 534 142 532 Q150 529 154.5 523 Q159 517 157 508 Q156 500 155 491.5 Q154 483 152 475 Q140 432 128.5 390 Q117 348 104 306 Q84 240 63 175.5 Q42 111 22 46 Q20 40 19 36 Q23 32 27 31 Q31 30 36 29 Q57 24 77 25.5 Q97 27 117 32 Q153 40 184 57 Q215 74 244 96 Q285 126 321 162 Q357 198 389 238 Q429 286 462 338.5 Q495 391 520 451 Q534 483 544.5 517 Q555 551 559 588 Q563 617 557 648 Q549 686 517 699 Q495 708 473.5 710.5 Q452 713 431 712 Q400 711 370.5 705.5 Q341 700 312 692 Q261 678 214 656.5 Q167 635 125 604 Q113 595 101.5 585.5 Q90 576 82 563 Q76 554 65 563 Q56 569 62 578 Q67 586 72.5 593 Q78 600 84 607 Q99 622 116.5 633.5 Q134 645 153 656 Q200 682 249.5 701 Q299 720 353 730 Q382 735 411.5 737 Q441 739 472 733 Q488 730 503.5 725 Q519 720 534 709 Q578 678 587 626 Q592 599 589.5 573 Q587 547 581 522 Q570 475 552.5 432.5 Q535 390 512 350 Q466 271 409.5 204 Q353 137 283 83 Q254 60 223.5 43 Q193 26 158 16 Q138 10 116.5 6.5 Q95 3 73 4 Q59 5 45.5 7.5 Q32 10 18 18 Q18 18 14 20 Z " />
<glyph glyph-name="Q" unicode="Q" horiz-adv-x="510" d="M215 -53 Q223 -54 230 -54.5 Q237 -55 244 -57 Q278 -62 311.5 -69 Q345 -76 377 -87 Q399 -94 419 -103 Q439 -112 459 -127 Q480 -142 493 -166 Q509 -191 503 -221 Q502 -228 498 -235 Q491 -248 482 -235 Q474 -222 479 -209 Q485 -195 483 -185 Q481 -175 470 -166 Q461 -158 451 -151.5 Q441 -145 431 -140 Q406 -127 380 -119.5 Q354 -112 327 -106 Q288 -97 248.5 -92 Q209 -87 168 -83 Q157 -82 147 -85 Q137 -88 126 -90 Q108 -94 90 -92.5 Q72 -91 54 -83 Q48 -81 45 -81 Q13 -84 -18.5 -90.5 Q-50 -97 -80 -111 Q-83 -112 -87 -114 Q-92 -116 -95.5 -119 Q-99 -122 -98 -129 Q-106 -130 -111.5 -125 Q-117 -120 -119 -112 Q-121 -103 -116 -96 Q-112 -93 -108.5 -89.5 Q-105 -86 -101 -84 Q-83 -73 -64.5 -66 Q-46 -59 -26 -54 Q-15 -52 -4 -49.5 Q7 -47 19 -45 Q8 -18 6.5 9 Q5 36 8 63 Q11 107 20 147 Q31 202 47.5 253 Q64 304 84 355 Q117 439 157 516.5 Q197 594 245 665 Q258 684 272 701 Q286 718 300 735 Q306 743 311 742.5 Q316 742 323 737 Q335 727 326 714 Q316 700 306.5 685 Q297 670 287 656 Q148 450 75 199 Q66 166 58.5 132 Q51 98 47 63 Q45 44 44.5 25.5 Q44 7 46 -12 Q46 -14 46.5 -16.5 Q47 -19 47 -22 Q51 -38 53.5 -40 Q56 -42 69 -43 Q88 -44 107 -44.5 Q126 -45 145 -46 Q153 -47 162 -42 Q196 -22 225.5 3.5 Q255 29 283 59 Q337 119 384 186 Q431 253 470 329 Q493 373 510 418 Q527 463 538 514 Q546 549 547 584 Q548 615 538 641 Q528 667 511 690 Q502 703 490 704.5 Q478 706 467 697 Q460 692 454.5 686 Q449 680 444 672 Q431 653 422.5 631 Q414 609 407 585 Q401 561 384 579 Q380 585 381 592 Q387 624 397.5 652.5 Q408 681 425 705 Q436 719 448 726.5 Q460 734 477 732 Q499 729 518 712 Q538 694 549 673 Q566 642 576 611 Q583 590 582.5 568.5 Q582 547 579 526 Q573 486 561.5 449.5 Q550 413 535 378 Q505 307 468 244.5 Q431 182 387 124 Q355 82 321.5 45 Q288 8 250 -23 Q242 -30 233 -36.5 Q224 -43 215 -50 L215 -53 Z " />
<glyph glyph-name="R" unicode="R" horiz-adv-x="400" d="M71 216 Q65 197 59 179.5 Q53 162 48 145 Q22 60 -3.5 -23 Q-29 -106 -55 -191 Q-57 -196 -57.5 -199.5 Q-58 -203 -59 -207 Q-62 -219 -62 -222.5 Q-62 -226 -60 -236 Q-65 -241 -69.5 -240.5 Q-74 -240 -79 -238 Q-91 -233 -91 -221 Q-91 -211 -89 -206 Q-80 -171 -70.5 -136 Q-61 -101 -50 -66 Q-27 10 -3.5 85 Q20 160 43 236 Q45 241 45 245.5 Q45 250 47 255 Q49 258 50.5 261.5 Q52 265 54 269 Q77 342 100.5 414 Q124 486 147 559 Q147 560 149 568 Q144 567 141 564 Q112 546 84.5 526.5 Q57 507 31 486 Q4 464 -18 437 Q-22 432 -24 428 Q-26 424 -24 418 Q-38 409 -50 421 Q-56 428 -52 437 Q-49 442 -46 447.5 Q-43 453 -39 458 Q-26 474 -12 487 Q2 500 17 513 Q49 541 84 564.5 Q119 588 155 610 Q166 617 169 628 Q171 636 173 643.5 Q175 651 175 659 Q177 673 180 686 Q183 699 194 710 Q196 714 196 717 Q198 722 198.5 726 Q199 730 201 735 Q204 744 213 741 Q229 736 226 718 Q223 704 219.5 689.5 Q216 675 213 661 Q211 656 210.5 651.5 Q210 647 208 642 Q212 640 214.5 642 Q217 644 219 645 Q258 665 297 681.5 Q336 698 377 709 Q397 715 416.5 719.5 Q436 724 456 725 Q467 725 477 724 Q487 723 497 721 Q505 719 512 715.5 Q519 712 525 707 Q559 681 544 638 Q540 627 534.5 616 Q529 605 523 594 Q511 574 496 555 Q481 536 466 518 Q416 461 362 409.5 Q308 358 248 313 Q222 293 195.5 276.5 Q169 260 140 247 Q130 243 120 240 Q110 237 99 234 Q100 234 94 232 Q97 229 99 226 Q101 223 103 221 Q148 160 199 108 Q250 56 305 6 Q351 -36 398.5 -75.5 Q446 -115 497 -150 Q515 -163 534 -174 Q553 -185 573 -196 Q590 -206 609 -211 Q628 -216 647 -220 Q655 -221 663 -226 Q665 -227 666 -229.5 Q667 -232 669 -234 Q667 -236 664.5 -237.5 Q662 -239 660 -239 Q656 -240 652.5 -239.5 Q649 -239 645 -239 Q613 -234 584.5 -223.5 Q556 -213 529 -197 Q491 -175 455.5 -149.5 Q420 -124 385 -96 Q325 -48 268.5 3 Q212 54 158 108 Q117 151 81 202 Q79 205 76.5 208 Q74 211 71 216 Z M86 262 Q91 264 94.5 265 Q98 266 102 268 Q126 278 148 291.5 Q170 305 192 320 Q251 363 304 411 Q357 459 408 513 Q428 534 446 556 Q464 578 481 602 Q489 614 497 626.5 Q505 639 510 653 Q514 664 516 678 Q517 689 509 691 Q498 694 489 694 Q466 696 444 692.5 Q422 689 400 683 Q352 669 305.5 649.5 Q259 630 214 607 Q194 597 187 574 Q166 508 144.5 443 Q123 378 102 312 Q98 301 94.5 288.5 Q91 276 86 262 Z " />
<glyph glyph-name="S" unicode="S" horiz-adv-x="514" d="M453 321 Q490 276 475 211 Q468 185 456.5 160 Q445 135 431 112 Q406 71 377 34.5 Q348 -2 316 -36 Q275 -79 232.5 -117.5 Q190 -156 143 -189 Q119 -206 94 -220 Q69 -234 43 -243 Q25 -249 7.5 -251.5 Q-10 -254 -27 -249 Q-45 -244 -56.5 -232 Q-68 -220 -70 -198 Q-71 -186 -68.5 -174 Q-66 -162 -61 -150 Q-46 -113 -27.5 -78.5 Q-9 -44 11 -9 Q54 63 103.5 128 Q153 193 211 253 Q235 277 260.5 299 Q286 321 313 341 Q316 343 322 349 Q311 350 301 350.5 Q291 351 280 352 Q276 353 268 353 Q227 355 186.5 355.5 Q146 356 105 358 Q90 359 75 361 Q60 363 45 366 Q26 369 13 384 Q-8 406 10 436 Q18 450 28 461.5 Q38 473 49 484 Q89 523 132 557.5 Q175 592 220 625 Q289 676 364 718 Q368 720 371.5 722.5 Q375 725 380 727 Q388 731 395 724 Q407 714 391 705 Q313 657 240.5 602 Q168 547 98 486 Q84 475 71.5 462 Q59 449 47 435 Q37 425 30 408 Q23 395 36 392 Q45 390 54.5 388 Q64 386 73 386 Q119 383 165 383 Q197 383 230 382.5 Q263 382 295 378 Q302 378 311 377 Q319 376 329 374.5 Q339 373 350 371 Q359 371 366 375 Q408 397 453 411 Q457 407 457 403 Q457 399 454 395.5 Q451 392 440 387 Q423 380 392 360 Q397 358 401 356.5 Q405 355 409 353 Q410 353 410 352 L412 352 Q432 342 445 329 Q447 327 449 325 Q451 323 453 321 Z M451 241 Q460 291 431 313 Q425 317 415 322 Q407 326 394.5 331 Q382 336 365 341 Q322 312 287 280 L287 279 Q271 266 256 252 Q241 238 227 223 Q164 157 111.5 84 Q59 11 14 -70 Q0 -95 -11.5 -120 Q-23 -145 -34 -171 Q-37 -179 -39 -188 Q-41 -197 -40 -206 Q-40 -227 -20 -227 Q-18 -227 -15.5 -226.5 Q-13 -226 -11 -226 Q1 -224 13 -220 Q25 -216 36 -211 Q56 -201 74.5 -189.5 Q93 -178 111 -165 Q174 -120 229.5 -66.5 Q285 -13 336 47 Q360 76 382.5 106.5 Q405 137 423 171 Q433 189 440.5 206.5 Q448 224 451 241 Z " />
<glyph glyph-name="T" unicode="T" horiz-adv-x="106" d="M132 624 Q114 621 97.5 618.5 Q81 616 64 614 Q20 606 -23 598.5 Q-66 591 -110 583 Q-164 573 -217 561 Q-270 549 -324 536 Q-353 529 -385 524 Q-401 523 -408 540 Q-406 541 -405.5 542 Q-405 543 -403 543 Q-372 551 -341.5 559.5 Q-311 568 -279 576 Q-216 593 -152.5 606.5 Q-89 620 -24 631 Q42 642 107 652 Q172 662 238 672 Q299 680 360 688 Q421 696 482 704 Q527 710 570 715 Q613 720 657 725 Q665 726 672 726.5 Q679 727 687 727 Q689 733 691 737 Q694 737 694 737 Q700 733 706 730 Q712 727 717 724 Q721 722 723 718.5 Q725 715 727 711 Q733 700 720 698 L716 698 Q700 702 684.5 700 Q669 698 653 696 Q597 689 541.5 682 Q486 675 430 667 Q380 660 331.5 653 Q283 646 233 639 Q219 637 206 635 Q193 633 179 631 Q178 608 170.5 586.5 Q163 565 155 545 Q107 421 64.5 297 Q22 173 -19 45 Q-40 -22 -61 -89.5 Q-82 -157 -104 -225 Q-110 -247 -129 -239 Q-139 -236 -136 -226 Q-134 -218 -131.5 -209 Q-129 -200 -126 -191 L-27 130 Q4 230 36 329 Q68 428 104 527 Q106 534 108.5 540 Q111 546 113 553 Q108 555 103 556.5 Q98 558 96 566 Q100 573 103.5 580 Q107 587 112 595 Q117 602 121.5 609 Q126 616 132 624 Z " />
<glyph glyph-name="U" unicode="U" horiz-adv-x="414" d="M478 641 Q488 631 484 616 Q479 599 474.5 581.5 Q470 564 464 547 Q440 473 415 400.5 Q390 328 366 254 Q333 154 301 55 Q269 -44 239 -144 L219 -214 Q218 -215 218 -218 Q222 -220 223 -222 Q232 -229 222 -237 Q217 -242 208 -242 Q199 -242 194 -235 Q191 -231 191 -226 Q191 -221 191 -216 Q192 -210 192.5 -204.5 Q193 -199 195 -193 Q200 -167 207 -142.5 Q214 -118 222 -93 Q265 51 308.5 192.5 Q352 334 400 476 Q401 479 401.5 481.5 Q402 484 402 487 Q400 483 397 479 Q394 475 392 470 Q330 358 265.5 249.5 Q201 141 132 34 Q118 14 104.5 -6 Q91 -26 76 -44 Q66 -55 54.5 -62.5 Q43 -70 29 -72 Q12 -74 3.5 -60 Q-5 -46 -9 -26.5 Q-13 -7 -13.5 13 Q-14 33 -14 44 Q-14 61 -12.5 77.5 Q-11 94 -9 111 Q4 229 30 345.5 Q56 462 92 575 Q103 611 116.5 646.5 Q130 682 149 715 Q152 720 156 725.5 Q160 731 165 735 Q170 739 177 740 Q184 741 190 738 Q198 733 200 724 Q202 715 201 706 Q198 656 182 614 Q180 608 177 607 Q173 604 169 606.5 Q165 609 164 614 Q162 621 166 631 Q178 667 178 705 Q131 614 104.5 513 Q78 412 58 312 Q53 286 48.5 261.5 Q44 237 39 212 Q36 195 31.5 160.5 Q27 126 25 88 Q23 50 24.5 14.5 Q26 -21 37 -41 Q40 -37 46 -31 Q58 -14 70 1.5 Q82 17 93 34 Q160 135 223 238.5 Q286 342 345 451 Q367 491 388.5 531 Q410 571 432 611 Q436 619 440 625.5 Q444 632 449 640 Q456 651 466 647 Q472 645 478 641 Z " />
<glyph glyph-name="V" unicode="V" horiz-adv-x="360" d="M542 716 Q537 709 532.5 704 Q528 699 525 693 Q496 642 468 592 Q440 542 411 491 Q340 361 269.5 233.5 Q199 106 128 -24 Q108 -61 87.5 -98.5 Q67 -136 46 -173 Q39 -186 30.5 -197.5 Q22 -209 14 -220 Q3 -233 -9 -234 Q-21 -235 -33 -228 Q-48 -220 -51 -197 Q-53 -179 -53 -160.5 Q-53 -142 -51 -124 Q-46 -70 -38.5 -18.5 Q-31 33 -22 84 Q0 205 26.5 321.5 Q53 438 83 554 Q87 567 90.5 579 Q94 591 97 604 Q99 610 98 616 Q96 612 94 608.5 Q92 605 90 600 Q84 592 77 599 Q69 609 74 616 Q83 630 92 644.5 Q101 659 111 673 Q114 678 118 678 Q122 678 126 675 Q130 672 133.5 667 Q137 662 136 654 Q134 634 130 615 Q120 576 110 537 Q100 498 91 458 Q80 414 71 371.5 Q62 329 53 285 Q44 243 36 201.5 Q28 160 21 118 Q10 58 1 -1.5 Q-8 -61 -13 -123 Q-14 -138 -14.5 -154 Q-15 -170 -13 -187 Q-11 -185 -10 -184.5 Q-9 -184 -8 -182 Q0 -169 8 -156.5 Q16 -144 23 -130 Q96 -2 168 125.5 Q240 253 312 382 Q357 461 400.5 539.5 Q444 618 489 696 Q499 714 511 731 Q519 742 529.5 736 Q540 730 542 716 Z " />
<glyph glyph-name="W" unicode="W" horiz-adv-x="620" d="M630 707 Q624 702 620 699.5 Q616 697 612 693 Q591 671 581 637 Q577 621 565 628 Q558 633 554.5 638 Q551 643 555 657 Q560 677 569 694 Q578 711 592 724 Q611 741 632 733 Q653 725 661 697 Q667 674 667 649 Q666 620 662.5 591 Q659 562 654 533 Q643 470 627.5 410.5 Q612 351 593 291 Q583 259 570 229.5 Q557 200 542 171 Q495 83 441.5 5.5 Q388 -72 325 -141 Q297 -173 263 -198 Q228 -223 193 -227 Q148 -231 139 -181 Q137 -169 136 -156 Q135 -143 135 -129 Q135 -93 139.5 -57.5 Q144 -22 151 14 Q168 108 192 198.5 Q216 289 245 378 L248 387 Q248 388 247.5 388.5 Q247 389 247 391 Q246 389 245 388.5 Q244 388 243 386 Q186 301 130.5 217.5 Q75 134 22 44 Q13 29 4 13.5 Q-5 -2 -15 -18 Q-25 -35 -42 -30 Q-57 -26 -53 -6 Q-46 34 -35 76 Q-4 197 31.5 314.5 Q67 432 109 548 Q109 550 110 552 Q106 558 104 563 Q107 570 109.5 576.5 Q112 583 116 590 Q122 604 128.5 617 Q135 630 142 644 Q146 652 148.5 653 Q151 654 156 652 Q168 646 165 631 Q163 626 162 621 Q161 616 159 611 Q112 480 72.5 347.5 Q33 215 -2 78 Q-3 75 -3.5 71 Q-4 67 -6 61 Q-2 68 1 71 Q42 141 86 207.5 Q130 274 175 340 Q231 423 287 508 Q289 510 293 516 Q298 524 301.5 525 Q305 526 310 522 Q324 514 321 498 Q321 492 317 482 Q300 428 283 376 Q266 324 249 271 Q210 140 186 6 Q181 -22 177 -49.5 Q173 -77 172 -106 Q171 -118 171.5 -130 Q172 -142 174 -154 Q175 -168 182 -183 Q193 -207 212 -193 Q236 -175 257 -154 Q297 -113 332.5 -68 Q368 -23 402 25 Q435 73 465 121.5 Q495 170 521 224 Q544 270 560 318.5 Q576 367 590 418 Q601 460 610 501.5 Q619 543 626 585 Q629 608 631.5 631 Q634 654 633 677 Q632 684 631.5 691 Q631 698 630 707 Z " />
<glyph glyph-name="X" unicode="X" horiz-adv-x="467" d="M555 730 Q562 722 555 714 Q545 703 535 692 Q525 681 515 670 Q477 628 442.5 584 Q408 540 375 495 Q337 443 299 391 Q261 339 223 286 L154 190 Q152 184 152 183 Q154 163 157 143.5 Q160 124 168 105 Q175 87 184 69.5 Q193 52 206 37 Q211 29 218 23 Q225 17 233 11 Q248 -3 269 7 Q283 13 293 21.5 Q303 30 313 40 Q339 66 359.5 95 Q380 124 398 156 Q400 161 403 165.5 Q406 170 409 175 Q413 182 421 183 Q429 184 435 179 Q440 176 438 171 L435 165 Q418 129 396.5 96 Q375 63 347 34 Q333 18 312 4 Q286 -16 253 -15 Q220 -14 196 5 Q192 8 186 14 Q185 14 183 16 L182 17 L180 19 L179 20 L177 22 L175 24 Q175 24 174 25 L165 37 L163 39 L163 40 Q148 60 137 85.5 Q126 111 118 140 L94 106 Q47 39 1 -28 Q-45 -95 -90 -164 Q-100 -179 -109.5 -194.5 Q-119 -210 -125 -227 Q-128 -236 -142 -233 Q-152 -230 -149 -221 Q-146 -213 -143.5 -205.5 Q-141 -198 -136 -191 Q-102 -134 -64 -77 Q-26 -20 13 35.5 Q52 91 90 148 L110 176 Q109 181 108 187 Q107 193 106 198 Q94 271 94.5 349 Q95 427 100 492 Q106 568 118 639 Q110 629 103 619.5 Q96 610 89 600 Q85 595 82.5 594.5 Q80 594 74 596 Q63 602 67 612 Q69 617 74 623 Q82 634 90.5 644.5 Q99 655 107 666 Q119 681 136 670 Q150 663 152 645 Q153 637 153.5 630.5 Q154 624 153 616 Q151 583 149.5 550 Q148 517 146 484 Q144 445 143 405.5 Q142 366 144 327 Q144 307 145 286 Q146 265 147 245 Q147 243 147.5 240 Q148 237 148 232 Q151 236 153 238.5 Q155 241 157 243 Q205 310 252 376.5 Q299 443 347 510 Q378 552 410.5 592 Q443 632 478 670 Q492 686 507 700.5 Q522 715 536 730 Q547 739 555 730 Z " />
<glyph glyph-name="Y" unicode="Y" horiz-adv-x="394" d="M188 -234 Q185 -231 183 -230 Q175 -226 172 -221.5 Q169 -217 170 -208 Q172 -197 173.5 -186.5 Q175 -176 178 -165 Q193 -111 208 -57.5 Q223 -4 240 50 Q278 175 317.5 296.5 Q357 418 399 541 Q406 561 413 582 Q420 603 428 623 Q430 629 430 633 Q428 631 424 625 Q378 559 332.5 494 Q287 429 241 364 Q223 338 202.5 313 Q182 288 159 266 Q149 257 138 249.5 Q127 242 113 238 Q69 229 51 270 Q46 283 43 296 Q40 309 38 322 Q33 370 37 416.5 Q41 463 50 509 Q58 549 70 587.5 Q82 626 100 661 Q105 672 111.5 681.5 Q118 691 124 700 Q127 705 131 708.5 Q135 712 139 716 Q147 724 158 717 Q167 714 167 704 Q166 699 165.5 693 Q165 687 163 681 Q163 679 160.5 678 Q158 677 157 678 Q153 679 150 681 Q147 683 142 685 Q135 671 128 657 Q121 643 115 629 Q95 580 82.5 529.5 Q70 479 65 425 Q63 400 62.5 375.5 Q62 351 66 326 Q68 312 71 299.5 Q74 287 80 275 Q85 265 92 258 Q97 250 106 256 Q115 260 124 268 Q139 282 152 297 Q165 312 177 328 Q246 413 307.5 501.5 Q369 590 426 684 Q434 696 441.5 707.5 Q449 719 457 731 Q465 741 476 740 Q487 739 495 728 Q499 721 498 716 Q498 710 497 703.5 Q496 697 494 691 Q486 659 475.5 627.5 Q465 596 454 565 Q398 410 347.5 255.5 Q297 101 249 -57 Q239 -89 230.5 -121.5 Q222 -154 213 -187 Q211 -193 210.5 -199.5 Q210 -206 209 -211 Q210 -213 210 -213 Q210 -214 211 -214 Q226 -223 212 -230 Q210 -231 207.5 -232 Q205 -233 203 -234 L188 -234 Z " />
<glyph glyph-name="Z" unicode="Z" horiz-adv-x="580" d="M322 -30 Q329 -39 337 -46 Q345 -53 346 -66 Q338 -71 334 -69 Q330 -67 326 -64 Q323 -62 320.5 -58.5 Q318 -55 315 -52 Q313 -50 310.5 -48 Q308 -46 306 -44 Q287 -59 269 -73.5 Q251 -88 233 -102 Q196 -130 157.5 -155 Q119 -180 78 -201 Q53 -214 28 -223.5 Q3 -233 -23 -238 Q-46 -242 -67.5 -240.5 Q-89 -239 -108 -228 Q-125 -218 -134 -203 Q-143 -188 -138 -165 Q-134 -146 -119 -128 Q-111 -119 -103 -111 Q-95 -103 -86 -97 Q-29 -62 29 -36 Q87 -10 150 1 Q183 7 211.5 8 Q240 9 281 -4 Q281 -4 285 -2 Q326 34 364 72 Q402 110 435 153 Q457 182 475 212 Q493 242 504 275 Q509 289 512 303.5 Q515 318 513 332 Q508 368 479 379 Q456 389 431 391 Q379 394 325 385 Q306 382 287.5 378.5 Q269 375 251 372 Q227 368 211 384 Q197 398 213 414 Q226 430 243 444 Q284 478 324 511 Q364 544 405 579 Q455 620 506 665 Q515 673 522.5 683 Q530 693 538 702 Q541 706 545 714 Q529 716 514.5 714.5 Q500 713 485 709 Q408 690 336 658 Q264 626 196 579 Q188 574 181 567.5 Q174 561 166 555 Q164 553 161.5 550 Q159 547 158 545 Q156 540 153 539 Q150 538 145 538 Q122 543 138 562 Q145 570 152 576.5 Q159 583 167 590 Q198 614 231.5 633.5 Q265 653 300 670 Q340 689 381 705.5 Q422 722 464 733 Q492 740 521 742 Q553 745 570 725 Q584 708 572 687 Q567 678 561 669.5 Q555 661 548 653 Q529 633 509.5 614 Q490 595 470 577 Q428 538 383.5 501.5 Q339 465 294 430 Q289 425 283.5 420 Q278 415 272 409 Q280 411 287 411.5 Q294 412 302 414 Q363 424 423 420 Q466 417 500 396 Q533 376 545 340.5 Q557 305 545 263 Q534 225 514 190.5 Q494 156 469 124 Q439 85 405 49.5 Q371 14 333 -20 Q331 -22 328 -24.5 Q325 -27 322 -30 Z M259 -22 Q235 -19 211.5 -21 Q188 -23 164 -28 Q110 -39 59 -62 Q8 -85 -41 -117 Q-67 -133 -82 -154 Q-95 -172 -98 -190 Q-99 -206 -83 -210 Q-78 -211 -73.5 -211.5 Q-69 -212 -64 -211 Q-53 -209 -41.5 -206.5 Q-30 -204 -19 -201 Q7 -192 31 -179.5 Q55 -167 79 -153 Q167 -99 251 -30 L259 -22 Z " />
<glyph glyph-name="d" unicode="d" horiz-adv-x="213" d="M213 214 Q217 212 220 208 Q225 201 218 190 Q217 188 215.5 185.5 Q214 183 212 180 L173 127 L126 61 Q121 54 115 48 Q109 42 104 36 Q92 23 74 26 Q57 28 54 43 Q52 51 52.5 58 Q53 65 54 72 Q54 75 54.5 78 Q55 81 55 85 Q56 87 56 92 Q59 107 66 132.5 Q73 158 82.5 189 Q92 220 102.5 254 Q113 288 124 320 L99 258 Q93 243 87 230 Q82 218 76 205.5 Q70 193 65 184 Q61 178 60 176 Q57 173 57 171 Q45 154 31.5 143.5 Q18 133 5 139 Q-6 147 -6 162 Q-6 170 -5.5 178 Q-5 186 -4 194 Q0 226 16 254 Q18 260 21.5 264.5 Q25 269 29 274 Q41 287 58 278 Q69 273 70 261 Q70 258 71 257 Q71 256 72 256 L241 694 Q243 704 250 703 Q255 702 260 700 Q265 698 267 693 Q269 691 268.5 687.5 Q268 684 268 682 Q264 672 261 659 L138 277 Q120 218 107 170 Q101 150 96 130 Q91 110 88 94 Q85 78 84 67 Q83 56 86 54 Q90 58 92.5 61 Q95 64 98 67 Q115 89 132 110.5 Q149 132 166 155 Q171 160 175 166 Q179 172 184 177 L213 214 Z M52 218 L50 220 Q45 223 44 225 Q43 227 44 233 Q45 236 45 241 Q45 242 44 242 Q37 226 32.5 209.5 Q28 193 26 176 L52 218 Z " />
<glyph glyph-name="quotedblleft" unicode="&#x201c;" horiz-adv-x="121" d="M105 601 Q107 609 108.5 616.5 Q110 624 112 632 L121 661 Q124 669 131 666 Q142 663 139 652 Q135 641 131.5 629 Q128 617 125 606 L122 598 Q120 591 115 592 Q105 594 105 601 Z M137 601 Q139 609 140.5 616.5 Q142 624 144 632 L153 661 Q155 668 163 666 Q175 663 170 652 Q167 641 163.5 629 Q160 617 156 606 Q156 604 154 598 Q152 591 146 592 Q137 594 137 601 Z " />
<glyph glyph-name="quotedblright" unicode="&#x201d;" horiz-adv-x="121" d="M105 601 Q107 609 108.5 616.5 Q110 624 112 632 L121 661 Q124 669 131 666 Q142 663 139 652 Q135 641 131.5 629 Q128 617 125 606 L122 598 Q120 591 115 592 Q105 594 105 601 Z M137 601 Q139 609 140.5 616.5 Q142 624 144 632 L153 661 Q155 668 163 666 Q175 663 170 652 Q167 641 163.5 629 Q160 617 156 606 Q156 604 154 598 Q152 591 146 592 Q137 594 137 601 Z " />
<glyph glyph-name="quoteleft" unicode="&#x2018;" horiz-adv-x="133" d="M114 601 Q116 609 117.5 616.5 Q119 624 121 632 Q123 640 125 646.5 Q127 653 129 661 Q132 669 140 666 Q150 663 147 652 L133 606 L131 598 Q129 596 128 593.5 Q127 591 123 592 Q114 594 114 601 Z " />
<glyph glyph-name="quoteright" unicode="&#x2019;" horiz-adv-x="132" d="M114 601 Q116 609 117.5 616.5 Q119 624 121 632 Q123 640 125 646.5 Q127 653 129 661 Q132 669 140 666 Q150 663 147 652 L133 606 L131 598 Q129 596 128 593.5 Q127 591 123 592 Q114 594 114 601 Z " />
<glyph glyph-name="b" unicode="b" horiz-adv-x="222" d="M144 134 Q136 129 131 125 Q126 121 121 119 Q116 116 112 114 Q111 114 111 113.5 Q111 113 110 113 Q103 109 96 99 Q89 88 81 77.5 Q73 67 62 59 Q51 49 34 43 Q17 37 3 48 Q-5 55 -7 66 Q-8 76 -1 87 Q5 96 14.5 101 Q24 106 34 109 Q43 112 51.5 114.5 Q60 117 69 119 Q76 121 77 125 Q89 145 98.5 167 Q108 189 114 212 Q116 220 117 227.5 Q118 235 117 243 L115 244 Q110 241 106 238 Q102 235 98 231 Q77 214 59.5 193.5 Q42 173 26 151 Q20 143 16 137 Q11 130 2 129 Q-7 128 -15 133 Q-21 138 -20 145 Q-18 153 -16 161 Q-14 169 -12 177 Q28 319 75 459 Q77 462 77.5 465.5 Q78 469 80 472 Q91 510 103.5 547.5 Q116 585 128 623 Q134 641 140 658.5 Q146 676 152 694 Q154 698 155.5 701 Q157 704 162 703 Q174 701 179 693 Q181 687 179 682 Q175 671 172 660 Q169 649 165 638 Q160 619 154 600.5 Q148 582 143 563 L33 201 Q34 203 35 203.5 Q36 204 37 205 Q47 215 56.5 224.5 Q66 234 77 244 Q82 248 87 251.5 Q92 255 97 259 Q104 264 118 264 Q144 261 147 236 Q148 228 147 220 Q146 212 144 204 Q140 188 134.5 174 Q129 160 123 146 Q122 145 122 144.5 Q122 144 121 143 Q126 146 130.5 149 Q135 152 139 154 Q144 158 150 162 Q156 166 161 170 Q171 177 180.5 184 Q190 191 200 198 L222 214 L226 210 Q229 205 225 200 Q224 199 223 198.5 Q222 198 221 196 L219 194 Q218 193 217 192.5 Q216 192 214 190 Q213 189 212.5 188 Q212 187 210 186 Q199 176 188 167 Q178 159 166.5 150.5 Q155 142 144 134 Z M18 57 Q32 63 41.5 73.5 Q51 84 60 97 Q38 92 26 80.5 Q14 69 18 57 Z " />
<glyph glyph-name="c" unicode="c" horiz-adv-x="170" d="M170 214 Q174 213 176 210 Q180 204 174 199 L166 192 L161 187 Q150 178 138.5 168 Q127 158 119 151 L71 112 Q57 101 39 91 Q16 78 -9 84 Q-33 90 -34 113 Q-35 124 -32.5 135.5 Q-30 147 -26 158 Q-16 184 -3 209 Q10 234 28 257 Q33 263 39 268.5 Q45 274 51 279 Q64 291 80 284 Q93 278 87 265 Q83 257 77.5 251 Q72 245 65 240 Q62 238 59.5 237 Q57 236 49 238 Q41 227 35 215 Q29 203 23 191 Q23 190 22.5 189.5 Q22 189 22 187 Q13 169 7 151 Q5 142 3 132.5 Q1 123 2 113 Q2 108 3 105 L6 99 Q11 101 15.5 103 Q20 105 24 107 Q32 112 40.5 117 Q49 122 57 128 Q77 143 97 158 Q117 173 137 188 L157 203 L170 214 L170 214 Z " />
<glyph glyph-name="a" unicode="a" horiz-adv-x="202" d="M202 214 Q205 212 207 210 Q209 208 209.5 205.5 Q210 203 207 198 Q202 190 197 183 Q192 177 187.5 169.5 Q183 162 178 156 Q165 140 152.5 124.5 Q140 109 128 92 Q120 82 113 72.5 Q106 63 98 54 L98 53 Q90 44 83 38 Q76 33 69 28.5 Q62 24 54 26 Q36 28 35 43 Q33 54 34.5 64 Q36 74 38 85 Q43 108 49 130.5 Q55 153 63 176 L66 185 Q60 179 56 174 Q52 169 48 165 Q44 161 43 160 L42 160 Q41 157 38 156 Q30 149 19.5 149 Q9 149 1 156 Q-10 165 -8 178 Q-4 228 29 268 Q31 271 34.5 274 Q38 277 41 279 Q47 284 57 284 Q76 281 76 263 L76 261 Q75 257 75.5 253.5 Q76 250 72 248 Q63 245 56 252 Q54 254 53 257 Q42 238 34.5 219.5 Q27 201 24 181 Q27 183 32 188 Q37 193 43.5 200.5 Q50 208 61 221 Q68 230 75 238.5 Q82 247 89 256 Q92 259 94.5 262.5 Q97 266 100 269 Q105 275 115.5 273.5 Q126 272 130 264 Q132 260 130 253 Q128 247 126 241 Q124 235 122 229 Q107 194 94.5 158 Q82 122 73 85 Q71 78 70 72 Q69 66 68 59 Q68 59 68 54 Q72 58 74.5 61 Q77 64 80 67 Q89 78 98 88.5 Q107 99 116 110 L202 214 L202 214 Z " />
</font>
</svg>
