<?xml version="1.0" encoding="UTF-8"?>
<svg xmlns="http://www.w3.org/2000/svg" xmlns:xlink="http://www.w3.org/1999/xlink" version="1.2" >
<font id="Stampson">
<font-face  font-family="Stampson" units-per-em="1000" ascent="750" descent="-250" font-style="normal" font-weight="400" font-stretch="normal" cap-height="700" x-height="500" underline-position="-75" underline-thickness="50" />
<missing-glyph  horiz-adv-x="176" d="" />
<glyph glyph-name="NULL" d="" />
<glyph glyph-name="nonmarkingreturn" unicode="&#xd;" horiz-adv-x="176" d="" />
<glyph glyph-name="space" unicode="&#x20;" horiz-adv-x="176" d="" />
<glyph glyph-name="e" unicode="e" horiz-adv-x="117" d="M117 160 Q121 165 125 161 Q129 157 125 152 Q121 146 119 144 L99 120 Q97 117 93 113 L78 98 Q65 83 52 72 Q51 70 50 69.5 Q49 69 47 67 Q47 67 45 65 Q40 60 34 55 Q28 50 23 45 Q15 37 6 30 Q-3 23 -14 20 Q-18 18 -22 18 Q-37 16 -45 20.5 Q-53 25 -57 31 Q-59 34 -59.5 37 Q-60 40 -61 42 L-61 43 Q-63 55 -58 66 Q-58 67 -57.5 68 Q-57 69 -57 70 Q-51 88 -42.5 104 Q-34 120 -26 131.5 Q-18 143 -12 149.5 Q-6 156 -5 157 Q2 164 9.5 170.5 Q17 177 25 182 Q30 186 38 189 Q46 192 53 188.5 Q60 185 59 177 Q58 164 50 152 Q40 136 28 125 Q24 122 20.5 119 Q17 116 12 114 Q10 113 7.5 112 Q5 111 2 110 L0 110 Q-7 109 -13 111 Q-16 112 -17 114 L-18 114 Q-25 103 -32.5 88.5 Q-40 74 -44 60 Q-44 58 -44.5 57 Q-45 56 -45 54 Q-47 41 -41 35 Q-36 30 -30 30 Q-19 29 -9 35 Q2 41 11 49.5 Q20 58 29 66 Q38 74 47 83 Q56 92 65 101 Q73 110 81.5 119.5 Q90 129 97 137 Q105 147 113 156 Q115 157 115.5 158 Q116 159 117 160 Z M37 177 Q11 157 -5 132 Q-8 129 -10 125 Q-12 121 -12 121 Q-11 120 -9.5 118.5 Q-8 117 0 120 Q7 123 15 129 Q36 148 44 169 Q46 173 46 178 L46 182 Q44 180 41.5 179.5 Q39 179 37 177 Z " />
<glyph glyph-name="f" unicode="f" horiz-adv-x="114" d="M349 587 Q350 578 347 566 Q338 535 321 504 Q301 467 277.5 432 Q254 397 227 363 Q210 342 193 321.5 Q176 301 158 281 Q153 276 148.5 271 Q144 266 140 262 Q136 258 132 253 Q116 237 87 209 Q58 181 26 157 Q24 155 21.5 153.5 Q19 152 17 150 L16 150 L14 149 Q13 148 12 147.5 Q11 147 10 146 L8 144 L1 133 L-15 107 L-48 52 L-57 37 Q-76 6 -93 -22.5 Q-110 -51 -119 -68 Q-120 -70 -121 -72.5 Q-122 -75 -123 -77 Q-121 -76 -119 -76 Q-117 -76 -115 -75 Q-111 -74 -101 -70 Q-85 -63 -70 -51 Q-55 -39 -42.5 -27.5 Q-30 -16 -22 -7 Q-14 2 -12 4 Q-10 7 -8 9 Q-6 11 -5 12 Q25 50 54.5 86.5 Q84 123 114 160 Q118 165 122 161 Q126 157 122 152 Q105 130 88 109 Q71 88 54 67 L11 14 Q-9 -12 -31 -33 Q-50 -51 -74 -67.5 Q-98 -84 -124 -89 Q-121 -91 -118 -95 L-115 -101 Q-115 -102 -114 -103 Q-114 -104 -113 -105 Q-108 -121 -111 -137 Q-113 -149 -117 -159.5 Q-121 -170 -127 -181 Q-127 -182 -133.5 -193.5 Q-140 -205 -147 -214 Q-151 -219 -154 -222.5 Q-157 -226 -161 -230 Q-171 -240 -181 -240 Q-191 -240 -193 -230 Q-195 -220 -192 -203 Q-190 -189 -185 -176 Q-180 -163 -174 -149 Q-166 -130 -157.5 -111.5 Q-149 -93 -139 -74 Q-130 -57 -121 -41 Q-112 -25 -103 -9 L-102 -8 Q-97 2 -91 11.5 Q-85 21 -79 31 L-16 136 Q6 171 28 207 Q47 238 68.5 273.5 Q90 309 110 341 Q124 363 137 384 Q148 402 161 421.5 Q174 441 185 457 Q190 462 193 468 Q207 489 222 510 Q237 531 254 551 Q262 561 271 570.5 Q280 580 291 588 Q296 592 301.5 595.5 Q307 599 313 602 Q329 610 339 604 Q349 598 349 587 Z M-135 -173 Q-127 -156 -122.5 -138.5 Q-118 -121 -126 -107 Q-127 -106 -128 -103.5 Q-129 -101 -131 -99 L-132 -99 Q-132 -97 -134 -97 Q-136 -100 -137.5 -103.5 Q-139 -107 -141 -111 Q-151 -131 -159 -150 Q-167 -169 -173 -189 Q-178 -204 -180 -221 Q-180 -228 -177 -231 Q-173 -229 -170.5 -226 Q-168 -223 -166 -220 Q-159 -212 -153.5 -204 Q-148 -196 -143 -187 Q-141 -184 -139 -180.5 Q-137 -177 -135 -173 Z M335 569 Q338 582 337 592 Q336 597 329 596 Q326 595 318 591 Q310 587 304 582 Q298 577 292 571 Q281 560 271 548.5 Q261 537 252 526 Q236 505 221 484 Q206 463 192 441 Q149 375 108 309.5 Q67 244 28 177 Q27 174 23 168 Q37 181 51 193 Q63 204 76 215.5 Q89 227 99 237 Q112 250 125 262.5 Q138 275 149 288 Q169 311 187.5 333.5 Q206 356 224 379 Q250 412 272.5 447 Q295 482 315 518 Q329 545 335 569 Z " />
<glyph glyph-name="g" unicode="g" horiz-adv-x="143" d="M143 160 Q146 165 150 161 Q154 157 151 152 Q141 140 132 128.5 Q123 117 113 105 Q108 99 104 94 Q100 89 96 83.5 Q92 78 87 73 Q64 47 41 24 Q21 4 -1 -14 Q-23 -32 -46 -50 L-57 -71 Q-62 -79 -66 -87 Q-70 -95 -72 -100 Q-77 -107 -80.5 -114 Q-84 -121 -88 -129 Q-96 -143 -104.5 -156.5 Q-113 -170 -122 -184 Q-124 -187 -129.5 -194.5 Q-135 -202 -143 -210 Q-145 -212 -150 -217 Q-155 -222 -162 -227 Q-176 -237 -182.5 -234 Q-189 -231 -191 -227 Q-191 -226 -191.5 -225.5 Q-192 -225 -192 -224 Q-197 -213 -191.5 -200.5 Q-186 -188 -181 -178 Q-159 -140 -127.5 -108.5 Q-96 -77 -61 -48 L-43 -15 L21 104 L8 91 Q-3 79 -15 68 Q-19 64 -22.5 61.5 Q-26 59 -30 57 Q-38 52 -44 60 Q-49 66 -46 76 Q-45 88 -38 101 Q-14 153 20 182 Q30 190 39 190 Q45 190 50 183 Q54 177 52 164 L52 161 Q55 166 60 175.5 Q65 185 66 187 Q69 190 72 190 L75 190 Q82 190 82 186 Q83 185 81 181 Q79 176 76 172.5 Q73 169 71 164 L35 98 Q24 78 13 57.5 Q2 37 -9 17 Q-11 13 -13 10 Q-15 7 -17 3 Q-17 3 -18 1 Q-19 -1 -20 -3.5 Q-21 -6 -23 -9 L-24 -10 L-24 -11 Q-24 -11 -26 -15 L-31 -23 Q-14 -9 2 4.5 Q18 18 33 33 Q43 42 52 52 L56 56 Q64 66 73 75.5 Q82 85 90 95 L91 96 L106 114 Q124 139 143 160 Z M-35 69 Q-31 71 -23 77.5 Q-15 84 -5.5 93 Q4 102 13.5 112 Q23 122 29 130 Q28 135 31 140 Q33 145 35.5 149 Q38 153 40 158 Q42 162 44 172 Q44 174 43.5 177.5 Q43 181 35 176 Q30 172 20 161.5 Q10 151 -1 136 Q-12 121 -21.5 103.5 Q-31 86 -35 69 Z M-77 -77 Q-83 -82 -89 -87.5 Q-95 -93 -100 -98 Q-116 -113 -130.5 -129.5 Q-145 -146 -158 -164 Q-164 -173 -169.5 -182 Q-175 -191 -179 -202 Q-181 -206 -181 -208 Q-182 -210 -182 -215 Q-182 -220 -174 -217 Q-164 -211 -148.5 -190.5 Q-133 -170 -119 -147 Q-102 -121 -84 -88 L-77 -77 Z " />
<glyph glyph-name="h" unicode="h" horiz-adv-x="144" d="M297 589 Q300 582 298 574 Q297 559 290 541 Q274 496 250 453.5 Q226 411 194 369 Q160 324 122.5 280.5 Q85 237 43 195 L25 177 Q22 176 20 171 Q13 158 6.5 145 Q0 132 -7 118 L-19 92 L-4 109 Q-4 110 -3 110 Q14 127 31 142.5 Q48 158 67 172 Q69 174 72.5 176 Q76 178 79 180 Q80 180 81 180.5 Q82 181 84 181 Q87 181 89 180 Q91 179 93 177 Q94 175 94 170 Q94 167 92 165 Q89 158 85.5 151 Q82 144 80 142 Q79 141 79 140 Q78 139 77.5 138 Q77 137 76 136 Q69 123 61.5 107.5 Q54 92 46 77 Q42 69 38 60 Q35 52 32.5 44 Q30 36 28 31 Q29 31 32 33.5 Q35 36 37 38 Q39 40 41 41 Q43 42 45 44 Q59 57 71.5 72 Q84 87 91 95 L97 101 Q119 130 144 160 Q148 165 152 161 Q156 157 152 152 L89 74 L88 73 Q88 72 87.5 72 Q87 72 87 71 Q80 63 73 55 Q67 48 59 40.5 Q51 33 44 28 Q41 26 38 24.5 Q35 23 33 22 Q31 20 29.5 20 Q28 20 26 19 L21 19 Q17 21 16 23 L15 24 L15 25 Q13 28 13.5 31 Q14 34 14 36 Q15 46 22 62 Q29 78 37.5 95 Q46 112 55 128 Q64 144 69 154 L75 164 Q72 162 66.5 157.5 Q61 153 58 151 Q47 143 37.5 133.5 Q28 124 18 114 Q10 106 3 98 Q-4 90 -12 82 L-21 73 Q-26 69 -33 73 Q-39 77 -38 82 Q-26 108 -15 132 Q-5 152 5 172.5 Q15 193 21 205 Q44 251 69 296 Q94 341 120 386 Q140 419 159.5 452.5 Q179 486 201 518 Q210 532 219.5 545 Q229 558 240 571 Q243 575 246.5 578.5 Q250 582 254 586 Q262 592 266 594 Q276 600 284.5 598.5 Q293 597 297 589 Z M285 566 Q288 578 287 587 Q286 592 279 590 Q274 588 270.5 585.5 Q267 583 263 580 Q255 574 249 567 Q243 560 238 552 Q225 535 214.5 518.5 Q204 502 193 485 Q176 455 158.5 424.5 Q141 394 124 364 Q102 326 81 287.5 Q60 249 40 210 Q39 209 39 208 Q39 207 38 206 L40 206 Q42 209 45 211.5 Q48 214 50 217 Q80 247 107 278.5 Q134 310 160 342 Q177 363 193 385 Q209 407 223 430 Q237 452 248 474.5 Q259 497 269 520 Q274 531 278.5 542.5 Q283 554 285 566 Z " />
<glyph glyph-name="i" unicode="i" horiz-adv-x="70" d="M57 249 Q49 249 49 258 Q49 267 57 267 Q65 267 65 258 Q65 249 57 249 Z M69 160 Q73 165 77 161 Q81 157 78 152 L15 74 L12 71 Q5 63 -2 55 Q-8 48 -16 40.5 Q-24 33 -31 28 Q-33 26 -36 24.5 Q-39 23 -42 22 Q-44 20 -45 20 Q-46 20 -48 19 L-53 19 L-54 19 Q-56 20 -58 22 Q-63 29 -58.5 43 Q-54 57 -52 63 Q-44 81 -33 102 Q-22 123 -14 139 Q-9 147 -4 156 Q1 165 2 165 L5 171 L7 174 L10 177 Q11 178 12 178 Q15 178 17 176 Q17 175 17.5 175 Q18 175 18 174 Q21 169 18 163 Q16 161 14 157 L14 156 Q14 156 13 155 L11 152 L8 146 Q6 144 2.5 137 Q-1 130 -5 122.5 Q-9 115 -12 109 Q-15 103 -15 103 Q-19 97 -22 91 Q-25 85 -28 79 Q-28 78 -30.5 72.5 Q-33 67 -36 59.5 Q-39 52 -41.5 44 Q-44 36 -45 32 Q-43 34 -37 38 Q-35 40 -33.5 41 Q-32 42 -30 44 Q-16 57 -3 72 Q10 87 17 95 Q19 97 19.5 98 Q20 99 22 101 Q34 116 46 131 Q58 146 69 160 Z " />
<glyph glyph-name="j" unicode="j" horiz-adv-x="91" d="M52 249 Q44 249 44 258 Q44 267 52 267 Q61 267 61 258 Q61 249 52 249 Z M90 160 Q93 165 97.5 161 Q102 157 98 152 Q89 140 79.5 128.5 Q70 117 61 105 Q56 99 52 94 Q48 89 43.5 83.5 Q39 78 34 73 Q11 47 -12 24 Q-32 4 -54 -14 Q-76 -32 -98 -50 L-110 -71 Q-115 -79 -119 -87 Q-123 -95 -125 -100 Q-129 -107 -133 -114 Q-137 -121 -141 -129 Q-149 -143 -157.5 -156.5 Q-166 -170 -175 -184 Q-177 -187 -182.5 -194.5 Q-188 -202 -196 -210 Q-198 -212 -203 -217 Q-208 -222 -215 -227 Q-229 -237 -235.5 -234 Q-242 -231 -244 -227 Q-244 -226 -244.5 -225.5 Q-245 -225 -245 -224 Q-250 -213 -244.5 -200.5 Q-239 -188 -233 -178 Q-211 -139 -178.5 -107 Q-146 -75 -111 -46 L-74 27 L-10 144 Q-8 149 -4.5 154.5 Q-1 160 2 165 Q6 170 8 175 L9 176 L12 180 Q13 181 14 181 Q16 181 18 179 Q19 179 19 178 L20 177 Q23 172 20 165 Q18 163 16 159 Q15 158 11.5 151.5 Q8 145 5 140 Q0 129 -6 119 Q-12 109 -18 98 Q-29 78 -40 57.5 Q-51 37 -62 17 Q-64 13 -65.5 10 Q-67 7 -69 3 Q-69 3 -70 1 Q-74 -5 -76 -9 L-76 -10 Q-77 -10 -77 -11 Q-77 -11 -79 -15 L-83 -23 Q-66 -9 -50 4.5 Q-34 18 -19 33 Q-14 38 -10 42.5 Q-6 47 -1 52 L3 56 Q12 66 20.5 75.5 Q29 85 37 95 L38 96 L53 114 Q62 126 71.5 137.5 Q81 149 90 160 Z M-235 -219 Q-232 -224 -223 -215.5 Q-214 -207 -202 -191 Q-190 -175 -177 -155 Q-164 -135 -152.5 -117 Q-141 -99 -134 -87 Q-127 -75 -126 -74 Q-140 -85 -153 -98 Q-169 -113 -183.5 -129.5 Q-198 -146 -210 -164 Q-216 -173 -222 -182 Q-228 -191 -232 -202 Q-234 -205 -235 -209 Q-236 -213 -235 -218 L-235 -219 Z " />
<glyph glyph-name="k" unicode="k" horiz-adv-x="135" d="M297 589 Q299 584 299 574 Q298 566 295.5 557.5 Q293 549 290 541 Q274 496 250 453.5 Q226 411 194 369 Q160 324 123 280.5 Q86 237 44 195 Q39 190 34.5 186 Q30 182 25 177 Q22 176 20 171 Q13 158 7 145 Q1 132 -6 118 L-19 92 L-4 109 Q-4 110 -3 110 Q14 127 31 142.5 Q48 158 67 172 Q69 174 72.5 176 Q76 178 79 180 Q80 180 81 180.5 Q82 181 84 181 Q88 181 89 180 Q91 179 93 177 Q94 176 94 173 Q86 168 76 160.5 Q66 153 55 144 Q50 136 41 115 Q32 94 24 69 Q21 61 19.5 54 Q18 47 17 42 Q16 39 16 32 Q17 27 21 28 Q25 29 29 32.5 Q33 36 36.5 40 Q40 44 41 45 Q64 74 87.5 102.5 Q111 131 134 160 Q137 165 141.5 161 Q146 157 142 152 Q125 130 107.5 109 Q90 88 73 67 Q67 59 61 52 Q55 45 50 37 Q49 37 49 36 Q47 34 42 28.5 Q37 23 30 19 Q23 14 15 13.5 Q7 13 3 22 Q0 27 -0.5 33 Q-1 39 0 45 Q0 46 0.5 46.5 Q1 47 1 48 Q1 52 2 54 Q2 58 4 64 Q9 80 15.5 96.5 Q22 113 24 118 L15 109 Q13 107 11 106 Q8 103 6 100.5 Q4 98 2 96 Q0 93 -2 92 L-12 82 L-21 73 Q-26 69 -33 73 Q-39 77 -38 82 Q-26 108 -15 132 Q-5 152 5 172.5 Q15 193 21 205 Q44 251 69 296 Q94 341 120 386 Q140 419 159.5 452.5 Q179 486 201 518 Q210 532 219.5 545 Q229 558 240 571 Q246 578 255 586 Q260 591 267 594 Q277 600 285 598.5 Q293 597 297 589 Z M285 566 Q288 578 287 587 Q286 592 280 590 Q272 587 263 580 Q255 574 249 567 Q243 560 238 552 Q225 535 214.5 518.5 Q204 502 193 485 Q176 455 158.5 424.5 Q141 394 124 364 Q102 326 81 287.5 Q60 249 40 210 Q39 209 39 208 Q39 207 38 206 L40 206 L51 217 Q80 247 107 278.5 Q134 310 160 342 Q177 363 193 385 Q209 407 223 430 Q237 452 248.5 474.5 Q260 497 270 520 Q275 531 279 542.5 Q283 554 285 566 Z " />
<glyph glyph-name="l" unicode="l" horiz-adv-x="112" d="M280 588 Q280 576 277 566 Q271 545 262 524 Q248 492 231 462 Q214 432 195 402 Q169 360 141 319 Q113 278 84 236 Q80 231 77 226 Q74 221 70 216 Q62 205 50.5 190.5 Q39 176 28 162 Q16 146 2 130 L-1 120 Q-11 98 -17 79 Q-18 77 -22 64 Q-26 51 -26 41 Q-26 38 -23.5 34.5 Q-21 31 -12 37 Q-2 43 6.5 50.5 Q15 58 23 66 Q33 74 41.5 83 Q50 92 59 101 Q67 110 75.5 119.5 Q84 129 92 137 Q100 147 108 156 Q109 157 109.5 158 Q110 159 111 160 Q115 165 119 161 Q123 157 120 152 Q118 150 116.5 148 Q115 146 113 144 L93 120 Q91 117 87 113 L72 98 Q66 91 59 84 Q52 77 47 72 L46 72 Q45 70 44 69.5 Q43 69 41 67 Q41 67 39 65 Q34 60 28 55 Q22 50 17 45 Q13 41 9 37.5 Q5 34 1 31 Q0 30 -0.5 30 Q-1 30 -2 29 L-11 23 Q-18 20 -22.5 20.5 Q-27 21 -30 23 Q-38 29 -40 42 Q-41 54 -37.5 67 Q-34 80 -33 82 Q-27 101 -19 121 Q-11 141 -3 158 Q6 177 15 196 Q30 226 45 256 Q60 286 76 316 Q96 356 118 394.5 Q140 433 165 471 Q179 493 192.5 514 Q206 535 222 556 Q229 564 236 572.5 Q243 581 251 589 Q253 592 259 596 Q268 601 273 597 Q278 594 280 588 Z M268 588 Q267 588 267 588.5 Q267 589 266 589 Q264 587 263 585 Q258 582 255 577 Q243 563 233 549 Q223 535 213 521 Q181 473 153 425.5 Q125 378 99 329 Q82 297 66.5 264.5 Q51 232 34 200 Q32 195 29.5 190 Q27 185 24 180 Q30 187 36 195 Q41 201 46 208 Q51 215 55 220 Q59 225 62.5 229.5 Q66 234 69 239 Q100 281 129.5 323.5 Q159 366 187 410 Q208 444 226 478.5 Q244 513 258 548 Q261 557 263.5 566 Q266 575 268 584 L268 588 Z " />
<glyph glyph-name="m" unicode="m" horiz-adv-x="190" d="M190 160 Q194 165 198 161 Q202 157 198 152 Q181 130 164 109 Q147 88 130 67 Q122 58 116 49.5 Q110 41 102 33 L102 32 Q100 30 97.5 27 Q95 24 92 21 L90 19 Q88 17 85 15.5 Q82 14 79 13 Q74 11 68 13 Q67 13 66.5 13.5 Q66 14 65 14 Q55 18 54 32 L54 39 Q55 43 55.5 47 Q56 51 58 55 Q63 68 70.5 83 Q78 98 81 103 L82 105 L95 127 Q100 135 106.5 145.5 Q113 156 119 166 Q126 177 134 189 L128 184 Q127 184 125 182 Q71 135 24 80 Q19 74 14 68 Q9 62 4 56 Q0 52 -3 50 Q-5 48 -8 48 Q-18 48 -13 60 Q-9 71 -2 84 Q9 104 20 123 Q31 142 43 161 Q44 163 44.5 163.5 Q45 164 46 166 Q36 158 18.5 137 Q1 116 -17 93 Q-35 70 -49.5 49.5 Q-64 29 -67 23 Q-69 20 -70.5 17 Q-72 14 -74 12 Q-76 9 -78 7 Q-81 1 -87 6 Q-90 8 -87 11 Q-87 12 -86.5 12.5 Q-86 13 -86 14 Q-84 17 -83 19.5 Q-82 22 -80 25 Q-72 39 -65 51.5 Q-58 64 -50 78 Q-47 83 -36.5 100.5 Q-26 118 -15 137 Q-15 136 -13 140 Q-6 152 -1 161 Q4 170 6 173 L13 185 Q14 187 16 188 Q20 190 24 189 Q26 187 26 183 Q26 181 25 179 L22 175 L-23 99 Q-20 102 -19 104 Q-6 121 6.5 136.5 Q19 152 33 167 Q43 179 55 189 Q60 194 65 192 Q72 188 67 180 Q65 175 62.5 171 Q60 167 57 163 Q48 148 38.5 133 Q29 118 20 102 Q17 97 14 91 Q11 85 8 80 Q4 74 2 68 Q3 69 3.5 70 Q4 71 5 72 Q16 84 26.5 96.5 Q37 109 48 121 Q70 145 93 166 Q116 187 139 207 Q141 209 142.5 209.5 Q144 210 146 212 Q148 214 153 212 L154 211 L156 209 Q158 207 157.5 205 Q157 203 157 201 Q156 199 156 197 L124 144 L124 145 Q122 141 120 137.5 Q118 134 116 131 Q106 116 97.5 100 Q89 84 81 67 Q79 63 76.5 57 Q74 51 72 45 Q70 40 68.5 31.5 Q67 23 73 23 L74 23 L75 23 Q79 24 82.5 27.5 Q86 31 88 34 L190 160 L190 160 Z " />
<glyph glyph-name="n" unicode="n" horiz-adv-x="148" d="M147 160 Q151 165 155 161 Q159 157 155 152 Q138 130 121 109 Q104 88 87 67 Q79 58 72.5 49.5 Q66 41 59 33 L59 32 Q57 30 54.5 27 Q52 24 49 21 L47 19 Q45 17 42 15.5 Q39 14 36 13 Q31 11 25 13 Q24 13 23.5 13.5 Q23 14 22 14 Q12 18 11 32 L11 39 L12 39 Q12 47 15 55 Q20 68 27.5 83 Q35 98 38 103 L39 105 L52 127 Q57 135 63.5 145.5 Q70 156 76 166 Q83 177 91 189 L85 184 Q84 184 82 182 Q28 135 -19 80 Q-24 74 -29 68 Q-34 62 -39 56 Q-43 52 -46 50 Q-48 48 -51 48 Q-61 48 -56 60 Q-52 71 -45 84 Q-40 95 -35 103 Q-32 109 -28 116 Q-24 123 -20 129 Q-18 134 -13.5 141.5 Q-9 149 -4.5 155.5 Q0 162 2.5 166.5 Q5 171 4 170 L6 173 L7 175 L8 176 L11 181 Q12 183 14 184 Q18 186 22 185 Q24 184 24 180 Q24 178 23 176 L21 173 L20 172 L-2 135 Q-9 123 -15 112 Q-20 102 -26 91.5 Q-32 81 -37 73 L5 121 Q27 145 49.5 166 Q72 187 96 207 Q98 209 99.5 209.5 Q101 210 103 212 Q105 214 110 212 L111 211 L113 209 Q115 207 114.5 205 Q114 203 114 201 Q113 199 113 197 L81 144 L81 145 Q79 141 76.5 137.5 Q74 134 72 131 Q63 116 54.5 100 Q46 84 38 67 Q36 63 33.5 57 Q31 51 29 45 Q27 40 25.5 31.5 Q24 23 30 23 L31 23 L32 23 Q36 24 39.5 27.5 Q43 31 45 34 L147 160 L147 160 Z " />
<glyph glyph-name="o" unicode="o" horiz-adv-x="117" d="M116 160 Q120 165 124.5 161 Q129 157 125 152 L112 137 Q98 120 85 108 Q72 96 64 90 Q60 87 56.5 83.5 Q53 80 48 77 Q42 73 36.5 69.5 Q31 66 24 62 Q18 51 10 42 Q3 34 -6 27 Q-15 20 -26 18 Q-30 18 -32 17 Q-39 17 -42 18 Q-48 20 -50 22 Q-55 24 -59 31 Q-63 39 -63 42 L-63 43 Q-65 51 -63 59 Q-61 67 -58 74 Q-37 128 8 170 Q22 182 33 187 Q42 191 51 190.5 Q60 190 65 180 Q68 174 68 165 Q68 154 62 140.5 Q56 127 50 118 Q43 108 31.5 93 Q20 78 6 66 Q27 76 42 88 Q57 99 70.5 111 Q84 123 97 137 L116 160 Z M-13 36 Q-7 39 -2.5 44 Q2 49 6 54 Q-5 49 -18 47 Q-23 45 -25 50 Q-27 55 -23 57 Q-16 61 -7 69 Q2 77 9.5 85.5 Q17 94 23 101.5 Q29 109 31 112 Q44 130 51 148 Q52 150 53 152.5 Q54 155 55 158 Q56 160 56.5 168.5 Q57 177 50 181 Q48 183 43.5 181 Q39 179 38 179 Q32 176 27.5 172 Q23 168 18 163 Q-21 124 -41 75 Q-43 70 -45 64.5 Q-47 59 -47 54 Q-49 41 -44 35 Q-43 34 -42 33.5 Q-41 33 -40 32 Q-35 29 -29.5 29.5 Q-24 30 -18 32 Q-14 34 -13 36 Z " />
<glyph glyph-name="p" unicode="p" horiz-adv-x="152" d="M152 160 Q156 165 160 161 Q164 157 160 152 L148 137 Q146 135 144 132 Q142 129 137 124 Q132 119 125 111.5 Q118 104 110 96 L104 90 Q103 90 103 89 Q101 87 98 84.5 Q95 82 93 79 L92 79 Q83 70 73 62 Q63 54 52 47 Q28 31 0 25 Q-5 24 -12 23.5 Q-19 23 -25.5 24.5 Q-32 26 -36.5 29.5 Q-41 33 -41 41 Q-41 47 -35.5 47 Q-30 47 -29 41 Q-29 39 -28 38 Q-28 34 -15 38 Q-8 41 -0.5 46.5 Q7 52 15 58 Q19 61 25 67 Q41 83 50 95 Q55 102 60 109 Q67 119 73 129.5 Q79 140 84 152 Q86 157 87 161.5 Q88 166 88 171 L88 175 Q87 178 83.5 177.5 Q80 177 75.5 175.5 Q71 174 67.5 171.5 Q64 169 64 169 Q49 161 35 148 Q21 135 8 123 Q2 116 -4 110 Q-10 104 -16 97 Q-21 92 -27 85 Q-33 78 -35 76 Q-58 40 -80.5 3.5 Q-103 -33 -125 -70 L-131 -79 L-206 -204 L-223 -233 L-223 -234 Q-227 -240 -232 -240 Q-240 -238 -236 -232 Q-230 -218 -223 -205 Q-216 -192 -208 -179 Q-194 -155 -180 -131 Q-166 -107 -151 -84 Q-125 -40 -99 3 Q-73 46 -47 90 Q-33 113 -18.5 135.5 Q-4 158 12 180 Q15 184 17.5 187.5 Q20 191 23 195 Q29 201 34 198 Q39 196 36 190 Q32 183 28.5 177 Q25 171 21 164 L0 131 Q11 142 23 153 Q35 164 48 172 Q53 175 57.5 178 Q62 181 67 183 Q71 185 78.5 186.5 Q86 188 93 183 Q101 176 100 162 Q98 156 96.5 150.5 Q95 145 92 140 Q87 129 82 121 Q76 112 69 102 Q63 94 56 84.5 Q49 75 42 68 Q34 60 26 53 Q18 46 9 39 Q11 40 13 40.5 Q15 41 17 42 Q28 46 38.5 52 Q49 58 58 66 Q74 77 87.5 90.5 Q101 104 115 118 Q131 135 140 146.5 Q149 158 152 160 Z " />
<glyph glyph-name="q" unicode="q" horiz-adv-x="169" d="M168 160 Q172 165 176.5 161 Q181 157 177 152 Q160 130 142.5 109 Q125 88 108 67 L65 14 Q45 -12 23 -33 Q4 -51 -20 -67.5 Q-44 -84 -70 -89 Q-67 -91 -64 -95 L-59 -105 Q-54 -121 -57 -137 Q-59 -149 -63 -159.5 Q-67 -170 -73 -181 Q-73 -182 -79.5 -193.5 Q-86 -205 -93 -214 Q-97 -219 -100 -222.5 Q-103 -226 -107 -230 Q-117 -240 -127 -240 Q-137 -240 -139 -230 Q-141 -220 -138 -203 Q-136 -189 -131 -176 Q-126 -163 -120 -149 Q-112 -130 -103.5 -111.5 Q-95 -93 -85 -74 Q-76 -57 -67 -41 Q-58 -25 -49 -9 L-48 -8 Q-43 2 -37 11.5 Q-31 21 -25 31 L-10 56 L20 104 Q18 103 16 100 Q14 98 11.5 95 Q9 92 7 90 L-8 75 Q-13 71 -20.5 66 Q-28 61 -34.5 59 Q-41 57 -45 60 Q-49 63 -47 76 Q-45 83 -43 89 Q-41 95 -39 101 Q-27 127 -12.5 147 Q2 167 19 182 Q29 190 38 190 Q44 190 49 183 Q54 175 52 164 L51 157 L56 165 L58 168 Q58 169 60 169 Q64 169 66 168 L68 166 Q72 162 68 156 Q66 154 65.5 152 Q65 150 63 148 L61 144 Q60 142 58.5 139.5 Q57 137 55 134 L27 87 L18 72 L6 52 L6 51 Q5 50 2 45 Q-1 40 -4.5 34 Q-8 28 -12 22 Q-16 16 -18 12 Q-32 -13 -44.5 -34 Q-57 -55 -65 -68 Q-66 -70 -67 -72.5 Q-68 -75 -69 -77 Q-67 -76 -65.5 -76 Q-64 -76 -62 -75 Q-57 -74 -47 -70 Q-31 -63 -16 -51 Q-1 -39 11.5 -27.5 Q24 -16 32 -7 Q40 2 42 4 Q44 7 46 9 Q48 11 49 12 Q79 50 108.5 86.5 Q138 123 168 160 Z M-35 69 Q-31 71 -23 77.5 Q-15 84 -5.5 93 Q4 102 13.5 112 Q23 122 29 130 Q27 134 31 140 L40 158 Q41 161 42 164.5 Q43 168 43 172 Q44 174 43 177.5 Q42 181 34 176 Q29 172 19.5 161.5 Q10 151 -1 136 Q-12 121 -21.5 103.5 Q-31 86 -35 69 Z M-81 -173 Q-73 -156 -68.5 -138.5 Q-64 -121 -72 -107 Q-73 -104 -75 -102 L-80 -97 Q-82 -100 -83.5 -103.5 Q-85 -107 -87 -111 Q-97 -131 -105 -150 Q-113 -169 -119 -189 Q-124 -204 -126 -221 Q-126 -228 -123 -231 Q-119 -229 -116.5 -226 Q-114 -223 -112 -220 Q-97 -204 -89 -187 Q-87 -184 -85 -180.5 Q-83 -177 -81 -173 Z " />
<glyph glyph-name="r" unicode="r" horiz-adv-x="140" d="M139 160 Q143 165 147.5 161 Q152 157 148 152 Q131 130 113.5 109 Q96 88 79 67 Q71 58 64.5 49.5 Q58 41 51 33 L51 32 Q49 30 46.5 27 Q44 24 41 21 Q41 21 39 19 Q37 17 34 15.5 Q31 14 28 13 Q23 11 17 13 Q16 13 15.5 13.5 Q15 14 14 14 Q4 18 3 32 L3 39 Q4 43 4.5 47 Q5 51 7 56 Q8 58 9.5 62 Q11 66 12 68 Q12 70 14 74 Q16 78 18 82 Q20 86 22 89 Q24 93 26 96 Q36 112 33 120 Q30 128 27 130 Q25 131 22.5 133 Q20 135 9 140 Q6 142 2 146 Q-2 150 -4.5 157 Q-7 164 -7 174 Q-7 184 -1 199 Q0 202 1 204.5 Q2 207 3 209 Q10 223 19.5 235 Q29 247 40 258 Q45 263 51 266 Q58 269 64 266 Q72 263 71 254.5 Q70 246 68 242 Q63 231 51.5 210 Q40 189 14 157 Q12 155 12 155 L12 154 Q14 148 23 143 Q25 142 28 140.5 Q31 139 38 135 Q49 127 49 118 Q49 109 47 104 Q47 102 46 101 L46 99 L35 78 Q31 70 30 67 Q28 63 25.5 57 Q23 51 21 45 Q19 40 17.5 31.5 Q16 23 22 23 L23 23 L24 23 Q28 24 31.5 27.5 Q35 31 37 34 L139 160 Z M9 169 Q26 191 38 209 Q49 225 56.5 239 Q64 253 61 258 Q56 257 50.5 251.5 Q45 246 43 244 Q29 228 20 212 Q16 205 14 198 Q12 191 10 184 L10 183 Q9 181 9 176 L9 175 Q8 173 8.5 171.5 Q9 170 9 169 Z " />
<glyph glyph-name="s" unicode="s" horiz-adv-x="112" d="M111 160 Q115 165 119 161 Q123 157 120 152 Q119 151 117.5 149 Q116 147 108 137 Q108 136 101 128 Q94 120 83 109 Q80 106 76 103 Q73 100 69 97 Q65 94 61 91 Q59 89 56 87.5 Q53 86 50 84 Q45 81 39 77.5 Q33 74 26 72 Q23 70 17 68 Q16 68 15.5 64.5 Q15 61 14 60 Q0 25 -27 1 Q-39 -10 -54 -17 Q-62 -19 -69.5 -21.5 Q-77 -24 -85 -22 Q-97 -19 -96 -7 Q-94 4 -86.5 13.5 Q-79 23 -71 30 Q-55 45 -30 58 Q-17 66 1 74 Q3 81 4 88 Q5 95 5 103 Q4 111 3.5 120 Q3 129 1 137 Q0 142 -0.5 148 Q-1 154 -1 159 Q-1 162 -1 165.5 Q-1 169 0 172 Q3 196 23 215 Q25 217 27.5 218.5 Q30 220 33 222 Q41 228 45 229 Q54 233 60 228 Q63 226 63 222 Q63 218 61 214 Q59 207 55 201 Q51 195 47 190 Q42 185 37.5 180 Q33 175 28 170 Q26 168 23.5 166 Q21 164 19 162 L13 157 Q16 138 19.5 119.5 Q23 101 20 81 Q43 92 55.5 101.5 Q68 111 71 115 Q77 121 82.5 126 Q88 131 92 136 Q96 141 100 146 L111 160 Z M51 221 Q44 218 37.5 212 Q31 206 25.5 199 Q20 192 17 185 Q14 178 15 173 Q26 184 35.5 195.5 Q45 207 51 221 Z M-5 58 Q-5 58 -4 60 Q-18 53 -30.5 46 Q-43 39 -55 30 Q-69 20 -76 10 Q-81 5 -84 -1 L-84 -3 L-84 -4 L-85 -4 L-85 -5 Q-87 -11 -82 -13 Q-81 -13 -80.5 -13.5 Q-80 -14 -79 -14 Q-75 -14 -65 -10 Q-63 -9 -61.5 -8 Q-60 -7 -58 -6 L-57 -5 Q-56 -5 -54 -3 Q-45 2 -38 9 Q-31 16 -25 24 Q-16 36 -10 48 Q-7 53 -5 58 Z " />
<glyph glyph-name="u" unicode="u" horiz-adv-x="139" d="M138 160 Q142 165 146 161 Q150 157 147 152 Q130 130 112.5 109 Q95 88 78 67 Q71 58 64.5 49.5 Q58 41 51 33 L50 32 Q49 30 46 27 Q43 24 41 21 Q39 21 39 19 L38 19 Q36 17 33 15.5 Q30 14 27 13 Q22 11 16 13 Q15 13 14 14 Q4 17 3 32 L3 39 Q3 43 4 47 Q5 51 7 56 Q8 59 9 62 Q10 65 11 68 Q13 71 14.5 74.5 Q16 78 18 82 Q21 89 27 100 Q22 94 16 88.5 Q10 83 5 77 Q3 75 0.5 73 Q-2 71 -4 69 Q-6 67 -8 65.5 Q-10 64 -12 62 L-13 62 Q-13 62 -15 61 L-15 60 Q-27 52 -32.5 55 Q-38 58 -40 60 Q-45 71 -40.5 83 Q-36 95 -32 104 Q-27 116 -20.5 127.5 Q-14 139 -8 150 Q-1 161 5.5 171.5 Q12 182 18 193 Q21 199 27.5 195.5 Q34 192 31 186 Q22 168 11.5 152 Q1 136 -8 119 Q-13 110 -17.5 101 Q-22 92 -25 82 Q-26 81 -27.5 76 Q-29 71 -28 69 Q-28 67 -26 67 Q-26 68 -25 68 Q-24 69 -23 69.5 Q-22 70 -21 71 Q-15 75 -13 77 Q-9 80 -6 83 Q-3 86 1 89 Q4 93 7.5 96 Q11 99 14 103 L28 117 Q34 125 39 130 Q44 137 48 142 Q52 147 55 151 Q58 155 60 157 L65 165 L67 168 Q67 169 68 169 L72 169 Q75 169 77 168 L78 168 Q78 167 79 166 Q84 163 79 156 Q75 149 71.5 143 Q68 137 64 131 Q48 105 37 82 Q35 79 33 73 Q31 70 27.5 62 Q24 54 22 49 Q20 45 20 45 Q18 40 17 31.5 Q16 23 22 23 L24 23 Q27 24 31 27.5 Q35 31 37 34 Q62 66 87 97 Q112 128 138 160 Z " />
<glyph glyph-name="v" unicode="v" horiz-adv-x="153" d="M152 160 Q156 165 160 161 Q164 157 161 152 L130 113 Q130 113 128 111 Q123 105 117 98 Q111 91 105 86 Q101 82 98 80 L97 80 Q85 70 71 71 Q57 73 52 87 L52 91 Q50 89 49 87 L48 87 Q29 61 7 41 Q2 37 -2 33.5 Q-6 30 -11 27 Q-21 20 -32 21 Q-48 23 -48 38 Q-47 46 -45 53.5 Q-43 61 -41 69 Q-36 83 -30 97 Q-24 111 -18 125 L6 175 Q15 179 17 171 Q18 169 16 165 Q11 154 7 144.5 Q3 135 -2 124 Q-16 96 -25 69 Q-27 61 -29 54.5 Q-31 48 -32 40 Q-32 33 -30 29 Q-28 31 -25 32.5 Q-22 34 -20 36 Q-5 46 8 60 Q19 71 28.5 83 Q38 95 47 107 Q48 109 52 113 Q53 120 53.5 126.5 Q54 133 56 139 Q60 162 70 186 Q77 207 91 225 Q93 227 95 231 Q98 235 101 238.5 Q104 242 108 245 L111 248 Q113 250 117 252 Q123 255 128.5 252 Q134 249 133 242 Q132 234 129.5 227 Q127 220 124 213 Q118 196 109.5 180.5 Q101 165 92 149 Q89 145 86.5 141 Q84 137 81 133 Q81 132 79 130 Q77 126 73.5 120.5 Q70 115 66 109 L63 106 Q62 99 63 93 Q64 88 65.5 83.5 Q67 79 71 79 Q75 78 80.5 82 Q86 86 91 91 Q97 96 104 103 Q113 111 120 119.5 Q127 128 129 131 L130 132 Q130 133 131 133 L152 160 Z M93 206 Q90 201 82 183.5 Q74 166 67 135 L73 144 Q75 146 76 148 Q78 150 78.5 152.5 Q79 155 81 157 Q81 158 81.5 158 Q82 158 82 159 L83 160 Q87 167 90.5 173 Q94 179 98 186 Q111 208 120 235 Q120 237 120.5 238 Q121 239 121 241 Q119 241 115 237 Q111 233 107 228 Q107 227 102.5 220.5 Q98 214 93 206 Z " />
<glyph glyph-name="w" unicode="w" horiz-adv-x="224" d="M223 160 Q227 165 231 161 Q235 157 232 152 L200 113 Q200 113 199 111 Q194 105 187.5 98 Q181 91 176 86 Q174 84 172.5 83 Q171 82 169 80 L168 80 Q156 70 142 71 Q128 73 123 87 Q123 89 122 91 Q122 91 120 87 L119 87 Q109 75 99 63.5 Q89 52 78 41 Q73 37 68.5 33.5 Q64 30 59 27 Q50 19 39 21 Q23 23 23 38 Q25 55 30 69 Q41 102 59 137 Q59 138 60 139 Q57 136 54 132.5 Q51 129 48 126 Q35 112 22.5 98 Q10 84 -3 70 Q-7 66 -10.5 63 Q-14 60 -18 57 Q-22 53 -29 51 Q-34 51 -38.5 53.5 Q-43 56 -42 63 Q-40 74 -36 86 Q-29 105 -20 123 Q-11 141 0 159 Q2 163 4.5 166.5 Q7 170 9 173 Q10 177 15 177 Q21 175 22 172 Q22 171 21.5 170.5 Q21 170 21 169 Q16 160 11 151 Q6 142 1 133 Q-6 119 -12 105.5 Q-18 92 -23 78 Q-25 75 -25.5 71.5 Q-26 68 -27 65 L-26 65 Q-26 65 -24 67 Q-13 76 -3.5 86 Q6 96 16 107 Q29 121 41 136 Q53 151 66 165 Q68 167 69.5 169 Q71 171 73 173 Q77 176 82 175.5 Q87 175 88 171 Q88 167 87 165 Q78 144 68 124 Q62 110 56.5 96.5 Q51 83 46 69 Q41 55 39 40 Q39 33 40 29 Q48 33 51 36 Q64 45 79 60 Q90 71 99.5 83 Q109 95 118 107 Q119 109 123 113 Q123 120 124 126.5 Q125 133 127 139 Q129 151 132.5 163 Q136 175 141 186 Q148 207 162 225 Q163 227 164 228 Q165 229 166 231 Q169 235 172 238.5 Q175 242 179 245 L182 248 Q184 250 188 252 Q194 255 199.5 252 Q205 249 204 242 Q203 234 200.5 227 Q198 220 195 213 Q182 181 162 149 Q160 145 157.5 141 Q155 137 152 133 Q151 132 151 131.5 Q151 131 150 130 Q148 126 144.5 120.5 Q141 115 136 109 Q136 108 134 106 Q133 99 134 93 Q135 88 136.5 83.5 Q138 79 142 79 Q146 78 151.5 82 Q157 86 162 91 Q168 96 175 103 Q184 112 194 124 Q204 136 223 160 Z M164 206 Q161 201 152.5 183.5 Q144 166 138 135 L144 144 Q146 146 147 148 Q148 151 152 157 Q152 158 152.5 158 Q153 158 153 159 L154 160 Q158 167 161.5 173 Q165 179 169 186 Q182 208 191 235 Q191 239 192 241 Q190 241 186 237 Q182 233 178 228 Q178 227 173.5 220.5 Q169 214 164 206 Z " />
<glyph glyph-name="x" unicode="x" horiz-adv-x="139" d="M139 160 Q143 165 147 161 Q151 157 147 152 Q130 130 113 109 Q96 88 79 67 Q72 58 65.5 49.5 Q59 41 52 33 Q51 33 51 32 Q50 30 47 27 Q44 24 41 21 L39 19 Q37 17 34 15.5 Q31 14 28 13 Q23 11 17 13 Q16 13 15.5 13.5 Q15 14 14 14 Q13 15 12.5 15 Q12 15 11 16 L9 18 Q6 21 4 30 Q2 40 3.5 53.5 Q5 67 8 79 Q8 81 10 87 Q12 95 13 98 Q14 101 14 102 Q9 98 5.5 95 Q2 92 -1 89 Q-17 75 -32 60.5 Q-47 46 -62 32 Q-66 28 -69.5 24.5 Q-73 21 -76 16 Q-76 14 -79 14 Q-89 16 -83 24 Q-77 32 -72 37 L-15 91 Q-6 99 3 107 Q12 115 21 123 Q23 125 23 127 Q31 144 35 157 Q39 168 41 177.5 Q43 187 40 187 Q37 186 32 181 Q27 176 26 175 Q21 169 17 163 Q13 157 8 152 Q8 151 7 151 Q5 151 5 151 Q3 152 -0.5 153.5 Q-4 155 -1 160 Q4 165 7.5 170 Q11 175 16 180 Q16 181 16.5 181 Q17 181 17 182 Q20 185 25.5 189.5 Q31 194 38 196 L39 196 Q47 196 52 190 Q57 185 55 174 Q53 162 49 150 Q49 150 48 148 Q53 152 56.5 155 Q60 158 65 162 Q78 173 90.5 182.5 Q103 192 117 203 Q122 208 127 204 Q131 201 126 197 Q119 192 112 186 Q105 180 98 174 Q84 163 69.5 150.5 Q55 138 41 127 Q38 118 35 107.5 Q32 97 29 86 Q25 68 22 55 Q20 43 19 33.5 Q18 24 22 23 L23 23 L24 23 Q28 24 31.5 27.5 Q35 31 37 34 L139 160 L139 160 Z " />
<glyph glyph-name="y" unicode="y" horiz-adv-x="154" d="M153 160 Q157 165 161 161 Q165 157 162 152 Q152 140 143 128.5 Q134 117 124 105 Q119 99 115 94 Q111 89 107 83.5 Q103 78 98 73 Q75 47 52 24 Q32 4 10 -14 Q-12 -32 -35 -50 L-46 -71 Q-51 -79 -55 -87 Q-59 -95 -62 -100 Q-66 -107 -69.5 -114 Q-73 -121 -78 -129 Q-86 -143 -94 -156.5 Q-102 -170 -112 -184 Q-114 -187 -119 -194.5 Q-124 -202 -132 -210 Q-134 -212 -139.5 -217 Q-145 -222 -151 -227 Q-165 -237 -171.5 -234 Q-178 -231 -180 -227 Q-181 -226 -181 -225.5 Q-181 -225 -182 -224 Q-186 -213 -180.5 -200.5 Q-175 -188 -170 -178 Q-148 -140 -116.5 -108.5 Q-85 -77 -51 -48 L-32 -15 L8 61 L33 106 L26 99 L24 96 Q19 91 14.5 86.5 Q10 82 5 77 Q3 75 0.5 73 Q-2 71 -4 69 Q-9 64 -19 57.5 Q-29 51 -35 55 Q-38 57 -40 60 Q-46 71 -41 83 Q-36 95 -32 104 Q-27 116 -20.5 127.5 Q-14 139 -8 150 Q-1 161 5.5 171.5 Q12 182 18 193 Q21 199 27.5 195.5 Q34 192 31 186 Q22 168 11.5 152 Q1 136 -8 119 Q-13 110 -17.5 101 Q-22 92 -25 82 Q-26 81 -27.5 76 Q-29 71 -28 69 Q-28 67 -26 67 Q-26 68 -25 68 Q-24 69 -23 69.5 Q-22 70 -21 71 Q-15 75 -13 77 Q-9 80 -6 83 Q-3 86 1 89 Q5 93 8 96 Q11 99 14 103 L28 117 Q34 125 39 130 Q44 137 48 142 Q52 147 55 151 Q58 155 60 157 L64 163 L69 173 Q71 178 73.5 181.5 Q76 185 77 187 Q80 190 82 190 L86 190 Q92 190 93 186 Q94 184 91 181 Q89 176 86.5 172.5 Q84 169 82 164 L46 98 Q35 78 24 57.5 Q13 37 2 17 Q0 13 -2 10 Q-4 7 -6 3 Q-6 3 -7 1 Q-9 -1 -9.5 -3.5 Q-10 -6 -12 -9 L-13 -10 L-13 -11 Q-15 -13 -16 -15 L-20 -23 Q-3 -9 13 4.5 Q29 18 44 33 Q54 42 63 52 L67 56 Q75 66 83.5 75.5 Q92 85 101 95 Q101 95 102 96 Q106 101 109.5 105 Q113 109 116 114 Q126 126 135 137.5 Q144 149 153 160 Z M-67 -77 Q-72 -82 -78 -87.5 Q-84 -93 -89 -98 Q-105 -113 -119.5 -129.5 Q-134 -146 -147 -164 Q-153 -173 -158.5 -182 Q-164 -191 -168 -202 L-171 -208 Q-171 -210 -171 -215 Q-171 -220 -163 -217 Q-153 -211 -137.5 -190.5 Q-122 -170 -108 -147 Q-91 -121 -73 -88 L-67 -77 Z " />
<glyph glyph-name="z" unicode="z" horiz-adv-x="180" d="M179 160 Q183 165 187 161 Q191 157 187 152 Q178 140 168.5 128.5 Q159 117 150 105 Q145 99 141 94 Q137 89 132.5 83.5 Q128 78 123 73 Q112 60 101 48 Q90 36 78 24 Q57 4 35 -14 Q13 -32 -9 -50 L-20 -71 Q-25 -79 -29 -87 Q-33 -95 -36 -100 Q-40 -107 -44 -114 Q-48 -121 -52 -129 Q-60 -143 -68 -156.5 Q-76 -170 -86 -184 Q-102 -208 -121 -224 Q-126 -229 -133.5 -232 Q-141 -235 -148 -233 Q-154 -229 -155 -225 Q-160 -216 -157 -206.5 Q-154 -197 -150 -189 Q-145 -180 -139.5 -171 Q-134 -162 -128 -154 Q-107 -123 -80.5 -97.5 Q-54 -72 -25 -48 L-9 -19 Q-6 -13 0 -0.5 Q6 12 10.5 27 Q15 42 15.5 56 Q16 70 8 78 Q2 84 -6 84 Q-10 85 -11.5 88 Q-13 91 -10 94 Q3 108 14.5 122.5 Q26 137 37 152 Q40 157 43 161 Q46 165 48 170 Q50 178 43 177.5 Q36 177 32 175 Q24 170 20 166 Q17 163 15 160 L8 152 L7 151 Q5 151 5 151 Q-5 154 1 162 Q4 166 7.5 169.5 Q11 173 15 177 Q23 183 32 187 Q41 191 51 189 Q58 187 60 183 Q62 179 61.5 173.5 Q61 168 58.5 163 Q56 158 53 154 Q50 149 42 139.5 Q34 130 26 119 Q16 107 5 93 Q19 87 27 71 Q32 59 31 46.5 Q30 34 26.5 22 Q23 10 17 -1.5 Q11 -13 6 -23 Q17 -13 28.5 -3.5 Q40 6 51 16 Q52 17 59.5 24 Q67 31 78 42 Q89 53 102 67 Q115 81 128 97 L179 160 Z M-41 -77 Q-46 -82 -52 -87.5 Q-58 -93 -63 -98 Q-79 -113 -93.5 -129.5 Q-108 -146 -121 -164 Q-127 -173 -132.5 -182 Q-138 -191 -143 -202 Q-143 -204 -145 -208 Q-145 -210 -145 -215 Q-145 -220 -137 -217 Q-127 -211 -111.5 -190.5 Q-96 -170 -82 -147 Q-65 -121 -47 -88 L-41 -77 Z " />
<glyph glyph-name="t" unicode="t" horiz-adv-x="121" d="M409 329 Q414 330 414 325 Q414 320 409 319 Q386 317 362 316 Q338 315 315 313 Q275 310 236 307 Q197 304 157 302 Q149 288 142 277 Q135 266 130 259 Q128 256 122.5 246.5 Q117 237 110.5 226.5 Q104 216 98.5 206.5 Q93 197 92 195 Q80 173 68.5 152 Q57 131 45 109 Q19 61 -5.5 14 Q-30 -33 -54 -82 Q-56 -86 -57.5 -89.5 Q-59 -93 -61 -97 Q-63 -101 -64 -104 Q-65 -107 -66 -111 Q-68 -119 -72 -124 Q-73 -130 -81 -130 Q-87 -129 -85 -123 Q-83 -119 -82 -115.5 Q-81 -112 -79 -107 Q-78 -105 -78 -104 Q-78 -103 -77 -101 L-77 -99 Q-72 -93 -69 -86.5 Q-66 -80 -63 -73 Q-27 1 11 73.5 Q49 146 89 218 L138 300 Q130 300 127 299 Q97 262 67.5 225.5 Q38 189 8 152 L7 151 Q5 151 5 151 Q3 152 -0.5 153.5 Q-4 155 0 160 L111 298 Q78 296 45 293.5 Q12 291 -20 289 Q-25 288 -25 293 Q-25 298 -20 299 Q3 301 27 302.5 Q51 304 74 306 Q85 307 96.5 307.5 Q108 308 120 309 Q125 315 130 321.5 Q135 328 140 334 L194 400 L203 411 L223 436 Q231 445 238 453.5 Q245 462 252 471 Q256 475 260 481 Q266 487 271 482 Q276 478 271 473 Q266 465 260 456.5 Q254 448 248 440 Q234 421 210 384 Q186 347 164 312 Q226 317 286.5 321 Q347 325 409 329 Z M135 310 Q141 310 144 311 L166 348 Q158 338 150.5 329 Q143 320 135 310 Z " />
<glyph glyph-name="d" unicode="d" horiz-adv-x="143" d="M332 588 Q332 576 329 566 Q323 545 314 524 Q300 492 283 462 Q266 432 248 402 Q222 360 194 319 Q166 278 137 236 Q117 208 96.5 180.5 Q76 153 54 127 Q54 126 53 125 Q44 102 35.5 79 Q27 56 24 42 L24 32 Q25 27 29 28 Q33 29 37 32.5 Q41 36 44.5 40 Q48 44 49 45 Q72 74 95.5 102.5 Q119 131 142 160 Q145 165 149 161 Q153 157 150 152 Q133 130 115.5 109 Q98 88 81 67 L57 37 L57 36 Q55 34 50 28.5 Q45 23 38 19 Q31 14 23 13.5 Q15 13 11 22 Q7 30 7.5 38 Q8 46 10 54 Q13 73 20 88 Q18 86 16 84.5 Q14 83 12 81 Q6 76 0 71 Q-6 66 -14 61 Q-17 59 -21 57.5 Q-25 56 -29 54 Q-30 53 -32 53 Q-34 52 -37 52 L-39 52 L-40 52 Q-48 52 -52 56 Q-58 62 -57.5 70.5 Q-57 79 -54 87.5 Q-51 96 -47 103.5 Q-43 111 -41 114 Q-27 136 -8 155 Q-3 160 2 163.5 Q7 167 12 172 Q19 178 28 179 Q45 184 53 174 Q54 174 54 173.5 Q54 173 55 173 L56 173 Q58 178 60 182 Q62 186 64 191 Q81 223 96.5 254 Q112 285 128 316 Q148 356 170.5 394.5 Q193 433 217 471 Q245 515 275 556 Q282 564 288.5 572.5 Q295 581 303 589 Q308 594 311 596 Q319 601 326 597 Q332 594 332 588 Z M43 147 Q41 149 43 153 Q46 163 44 170 Q44 171 43.5 171.5 Q43 172 43 173 L42 173 L42 174 L41 174 Q37 175 31 171 Q25 167 17 161 Q-6 140 -19 120 Q-32 100 -34 97 Q-37 89 -40 82 Q-42 76 -43.5 70 Q-45 64 -43 60 Q-39 58 -34 62 Q-20 68 -10 78 Q2 88 12.5 99 Q23 110 33 122 Q33 122 35 126 Q37 131 39 135 Q41 139 43 144 Q43 147 43 147 Z M320 588 L319 589 Q317 587 316 585 Q313 583 307 577 Q295 563 285 549 Q275 535 265 521 Q233 473 205.5 425.5 Q178 378 152 329 Q135 297 119 264.5 Q103 232 86 200 Q84 195 81.5 190 Q79 185 77 180 Q83 187 89 195 Q94 201 99 208 Q104 215 108 220 Q111 225 114.5 229.5 Q118 234 122 239 Q153 281 182.5 323.5 Q212 366 239 410 Q260 444 278.5 478.5 Q297 513 310 548 Q314 557 316.5 566 Q319 575 320 584 L320 588 Z " />
<glyph glyph-name="S" unicode="S" horiz-adv-x="407" d="M718 686 Q720 677 719.5 668.5 Q719 660 717 652 Q713 638 706.5 625.5 Q700 613 692 602 Q679 584 664.5 568 Q650 552 634 537 Q598 503 560 471.5 Q522 440 483 410 L408 353 L379 329 Q376 327 373 326 Q368 324 365 327 Q363 329 363.5 331 Q364 333 365 335 Q366 337 368 339 Q395 360 421.5 380.5 Q448 401 475 422 Q515 454 553.5 486.5 Q592 519 628 555 Q643 569 657 584.5 Q671 600 682 617 Q689 628 695 638.5 Q701 649 704 661 Q707 675 706 687 Q704 702 692 713 Q678 724 657 729 Q640 734 622 734.5 Q604 735 586 733 Q535 729 487.5 714.5 Q440 700 394 679 Q340 654 290 623.5 Q240 593 194 555 Q171 535 149.5 514 Q128 493 110 467 Q99 451 89.5 434.5 Q80 418 74 399 Q65 372 66 347 Q67 304 100 276 Q108 268 117.5 262.5 Q127 257 137 252 Q151 246 164 239.5 Q177 233 190 227 Q205 220 219.5 212.5 Q234 205 247 194 Q251 191 254 188.5 Q257 186 260 183 Q261 182 268.5 174.5 Q276 167 284 156 Q292 144 296.5 131 Q301 118 303 103 Q308 71 300 39 L300 35 Q298 29 298 25 L406 160 Q410 165 414 160.5 Q418 156 414 151 Q397 129 380 108.5 Q363 88 346 67 Q332 49 317.5 31 Q303 13 289 -4 L286 -10 Q284 -16 282 -20 Q280 -24 280 -26 Q272 -45 262 -62.5 Q252 -80 240 -96 Q228 -111 218 -120 Q216 -122 214 -123 Q212 -124 210 -125 Q207 -126 201 -126 Q192 -124 195 -115 Q198 -107 202 -102 Q210 -91 218.5 -79 Q227 -67 235 -56 L268 -11 Q270 -8 272 -2 Q283 28 288 62 Q290 85 287.5 106 Q285 127 274 147 L274 149 Q271 155 266 160 Q257 174 244 185 Q230 198 215 205 Q201 213 188 219 Q175 225 162 232 Q151 237 141 242 Q131 247 121 252 Q110 258 100.5 265 Q91 272 83 281 Q48 316 53 368 Q55 394 65 417.5 Q75 441 89 463 Q105 488 124 509 Q143 530 165 549 Q201 582 241.5 609.5 Q282 637 325 660 Q362 680 400 696 Q438 712 479 724 Q499 730 519.5 734.5 Q540 739 561 741 Q581 744 602 744.5 Q623 745 643 741 Q656 738 668 734 Q680 730 691 723 Q701 715 708 706.5 Q715 698 718 686 Z M218 -102 Q230 -89 239 -72 Q227 -87 218 -102 Z " />
<glyph glyph-name="A" unicode="A" horiz-adv-x="492" d="M655 684 Q656 661 652 639 Q647 605 637 573 Q627 541 615 509 Q597 461 576 416.5 Q555 372 532 328 Q508 282 483 237.5 Q458 193 431 148 Q429 144 423.5 134.5 Q418 125 410 114 Q405 106 400 97 Q395 89 389 80 Q383 71 378 62 Q350 17 321 -26.5 Q292 -70 263 -115 Q259 -120 256 -125 Q253 -130 249 -135 Q243 -143 235 -136 Q235 -136 237 -132 Q248 -115 257.5 -99 Q267 -83 278 -66 L359 63 Q333 58 306.5 54 Q280 50 254 47 Q203 40 152.5 35 Q102 30 51 25 Q49 21 47 19 Q45 17 43 15 Q19 -17 -7 -44 Q-21 -58 -34.5 -71.5 Q-48 -85 -63 -96 Q-72 -103 -81 -108.5 Q-90 -114 -100 -119 L-121 -125 Q-126 -126 -131 -125 Q-136 -124 -141 -122 Q-149 -118 -152.5 -110 Q-156 -102 -155 -94 Q-151 -69 -131 -46 Q-107 -17 -70 1 Q-50 11 -29.5 17.5 Q-9 24 12 29 Q17 30 21.5 31 Q26 32 31 33 Q36 33 39 38 Q53 57 66.5 75.5 Q80 94 94 113 Q127 161 158.5 209 Q190 257 222 306 Q255 357 287.5 407 Q320 457 355 507 Q377 539 400 570 Q423 601 448 630 Q466 652 485.5 672.5 Q505 693 527 711 Q538 719 548.5 726.5 Q559 734 571 739 Q577 741 583 743 Q589 745 596 746 Q613 748 627 739.5 Q641 731 648 715 Q651 707 652.5 699.5 Q654 692 655 684 Z M26 21 Q7 16 -12 10 Q-29 5 -48 -4 Q-67 -13 -84 -24 Q-98 -32 -111 -47 Q-119 -55 -125 -64.5 Q-131 -74 -135 -85 Q-139 -94 -138 -104 Q-137 -116 -125 -115 Q-123 -114 -121.5 -114 Q-120 -114 -118 -113 Q-113 -111 -108.5 -108.5 Q-104 -106 -99 -103 Q-84 -95 -71 -84 Q-58 -73 -45 -61 Q-27 -44 -11 -25 Q5 -6 21 14 L26 21 Z M640 676 Q640 687 639 697 Q638 707 634 717 Q627 736 607 733 L604 733 Q590 730 575 722 Q562 715 550 706 Q538 697 527 687 Q506 667 487 645 Q468 623 449 600 Q392 526 342 451 Q306 397 269.5 342 Q233 287 197 233 Q165 185 133.5 139 Q102 93 69 48 Q67 45 64.5 42 Q62 39 59 36 Q84 38 108.5 40.5 Q133 43 158 46 Q209 51 259 57 Q309 63 360 74 Q362 75 363.5 75 Q365 75 367 76 Q369 78 370 81 Q371 84 373 86 L374 87 L390 113 Q390 114 391 115 L469 247 Q499 300 526.5 353.5 Q554 407 578 463 Q606 526 626 592 Q631 613 635 634 Q639 655 640 676 Z " />
<glyph glyph-name="B" unicode="B" horiz-adv-x="485" d="M453 198 Q451 189 443.5 165 Q436 141 418 109 Q407 88 393 68.5 Q379 49 363 30 Q284 -64 169 -122 Q149 -132 129 -139.5 Q109 -147 87 -152 Q73 -155 59 -157 Q45 -159 31 -158 Q-6 -156 -33 -135 Q-70 -106 -59 -58 Q-55 -42 -47.5 -28.5 Q-40 -15 -29 -3 Q-16 11 -1 22.5 Q14 34 31 43 Q52 54 74 62 Q96 70 119 76 Q142 83 165.5 88 Q189 93 212 98 Q243 104 274 111 Q305 118 336 127 Q382 141 422 157 Q427 160 428 164 Q438 194 440 226 Q440 291 389 325 Q370 337 347 345 Q342 347 336.5 349 Q331 351 326 353 Q318 357 315 360 Q305 367 312 377 Q315 381 317.5 384 Q320 387 324 389 Q339 404 359 419 Q385 439 410 459 Q435 479 460 499 Q487 520 513 542 Q539 564 564 587 Q573 596 581.5 605 Q590 614 598 623 Q602 628 605 633 Q608 638 612 643 Q614 647 614.5 650 Q615 653 615 656 Q610 658 606 657.5 Q602 657 597 656 Q586 654 576 650.5 Q566 647 555 643 Q529 632 505 618.5 Q481 605 458 590 Q416 563 378 532 Q340 501 304 467 Q252 419 206.5 365.5 Q161 312 119 254 Q117 249 113.5 245.5 Q110 242 108 238 Q105 234 99 234 Q90 235 94 243 Q100 257 106.5 269.5 Q113 282 120 296 Q146 346 174 394.5 Q202 443 231 491 Q258 537 286 581.5 Q314 626 342 671 Q350 683 356.5 695 Q363 707 370 718 Q372 722 372 722 Q376 726 379 724 Q385 721 383 716 L368 689 Q347 655 326.5 621.5 Q306 588 286 554 Q251 496 217 437.5 Q183 379 150 320 Q149 319 149 316 Q149 315 151 319 Q228 417 324 502 Q363 537 404 567 Q445 597 490 623 Q507 634 525 643 Q543 652 563 659 Q579 666 595 667 Q608 669 617 665 Q634 656 627 638 Q624 631 620 625.5 Q616 620 611 614 Q587 587 560 563 Q536 540 510.5 519 Q485 498 459 478 L354 397 L330 376 Q326 373 324 368 Q320 364 325 362 Q327 360 330 359.5 Q333 359 335 357 Q346 353 355.5 349.5 Q365 346 375 341 Q403 329 424 307 Q453 276 455 233 Q456 224 455.5 215.5 Q455 207 453 198 Z M341 22 Q382 68 409 120 Q412 126 415 132 Q418 138 420 144 L420 145 Q419 144 417 144 Q375 127 332.5 115 Q290 103 245 94 Q218 88 191.5 82 Q165 76 138 70 Q117 65 96 58 Q75 51 55 41 Q38 33 23 24 Q8 15 -6 2 Q-22 -12 -32.5 -29.5 Q-43 -47 -46 -68 Q-48 -81 -46 -93 Q-44 -105 -36 -116 Q-27 -130 -14 -137 Q-1 -144 15 -148 Q30 -151 45 -150 Q60 -149 74 -146 Q93 -143 110.5 -137 Q128 -131 145 -123 Q257 -71 341 22 Z " />
<glyph glyph-name="C" unicode="C" horiz-adv-x="419" d="M611 679 Q611 677 611.5 676 Q612 675 612 673 Q611 670 611 667 Q611 664 610 661 Q609 658 609 655 Q609 652 608 649 Q601 625 587 602 Q576 582 562.5 565 Q549 548 534 531 Q505 499 473.5 469.5 Q442 440 407 414 Q392 401 373 389 Q366 384 359 381 Q352 378 349 386 Q357 389 364.5 394 Q372 399 379 404 Q390 413 401.5 422.5 Q413 432 424 441 Q472 483 516 530 Q532 546 545.5 563 Q559 580 571 598 Q588 625 597 652 Q604 675 601 694 Q597 727 562 730 Q537 731 508 720 Q470 705 436 679 Q408 659 383.5 635.5 Q359 612 336 587 Q307 555 281.5 520.5 Q256 486 232 451 Q186 383 148.5 313 Q111 243 79 169 Q68 141 57.5 112.5 Q47 84 39 55 Q32 32 27 8.5 Q22 -15 20 -38 Q19 -52 19.5 -65.5 Q20 -79 24 -93 Q26 -101 29.5 -108.5 Q33 -116 39 -121 Q52 -133 72 -131 Q82 -130 91 -127.5 Q100 -125 109 -121 Q127 -113 143.5 -103.5 Q160 -94 176 -83 Q205 -63 232 -40 Q259 -17 285 7 Q294 18 305 27 Q318 41 331.5 56 Q345 71 356 84 Q367 97 375.5 107.5 Q384 118 389 124 Q397 133 404 142 Q411 151 418 160 Q422 165 426 161 Q430 157 427 152 Q419 142 411 132 Q403 122 395 112 Q367 77 344 52.5 Q321 28 305 11 Q297 3 289.5 -4 Q282 -11 274 -19 Q261 -30 249 -41 Q237 -52 223 -63 Q203 -79 183.5 -93 Q164 -107 142 -118 Q115 -133 90 -138 Q69 -143 49 -138 Q20 -131 9 -102 Q5 -92 3.5 -81.5 Q2 -71 2 -60 Q1 -40 3.5 -21.5 Q6 -3 11 17 Q19 53 31 88 Q43 123 57 158 Q59 162 59 164 Q61 166 61 168 Q66 178 69.5 187 Q73 196 78 205 Q78 206 80 210 L79 210 Q81 214 82.5 217.5 Q84 221 86 224 Q88 228 89 229 Q106 264 124 299 Q142 334 162 368 Q197 426 235.5 481 Q274 536 319 587 Q361 635 407 674 Q426 689 446 702 Q466 715 488 725 Q500 730 512 734 Q524 738 537 740 Q548 742 559 740.5 Q570 739 580 734 Q613 718 611 679 Z " />
<glyph glyph-name="D" unicode="D" horiz-adv-x="586" d="M725 578 Q727 562 726 546.5 Q725 531 723 515 Q717 482 705 450.5 Q693 419 678 389 Q654 339 624 293.5 Q594 248 560 204 Q554 198 552 194 Q545 186 534.5 173 Q524 160 511 146 L508 143 Q504 138 500.5 134.5 Q497 131 493 126 L491 124 Q489 121 486 118.5 Q483 116 481 113 Q480 113 480 112.5 Q480 112 479 112 Q456 88 432 65.5 Q408 43 382 23 Q357 3 331.5 -13.5 Q306 -30 278 -44 Q258 -53 239 -60 Q220 -67 200 -71 Q177 -75 155.5 -73 Q134 -71 114 -60 Q97 -51 88 -34 Q80 -19 80.5 -3 Q81 13 89 30 Q97 46 107.5 58 Q118 70 132 81 Q149 94 168 102.5 Q187 111 207 117 Q223 122 239 125 Q255 128 272 130 Q288 132 304 134.5 Q320 137 336 139 L393 145 Q421 149 449 153.5 Q477 158 506 166 Q508 167 510 169 Q548 214 581 261.5 Q614 309 643 360 Q674 415 693 473 Q698 489 702.5 504.5 Q707 520 709 537 Q711 553 711.5 568.5 Q712 584 708 600 Q696 652 648 667 Q619 676 591 673 Q560 671 530 662.5 Q500 654 471 640 Q441 626 411 610 L408 607 Q392 581 376 555.5 Q360 530 343 504 Q312 454 281.5 405 Q251 356 220 305 Q205 280 189.5 255.5 Q174 231 159 205 Q134 165 109.5 125.5 Q85 86 61 46 Q35 4 10.5 -37 Q-14 -78 -40 -119 Q-45 -127 -49 -133.5 Q-53 -140 -58 -147 Q-65 -158 -71 -149 Q-72 -149 -72 -148 L-72 -147 L-51 -111 L18 3 Q38 38 58.5 71.5 Q79 105 100 139 Q123 177 145.5 213.5 Q168 250 191 288 Q214 326 237 363 Q260 400 283 438 Q306 476 330 513 Q354 550 377 588 L378 589 Q377 589 376 588 Q356 575 337 561.5 Q318 548 299 533 Q278 517 258.5 500 Q239 483 219 464 Q193 438 168.5 411.5 Q144 385 122 356 Q114 345 106 331 Q104 329 104 326 Q104 324 103 323 Q102 322 101 323 Q96 323 93 326 Q92 326 92 330 Q94 337 98 342.5 Q102 348 106 353 Q118 370 131 386 Q144 402 158 418 Q178 441 198.5 461 Q219 481 242 501 Q296 550 356 591 Q366 597 375 602.5 Q384 608 393 614 Q396 617 396 617 Q409 635 421.5 653.5 Q434 672 447 691 Q457 705 466.5 719 Q476 733 486 747 Q490 746 493 745 Q499 743 495 737 Q492 732 488.5 727.5 Q485 723 482 718 L428 637 Q426 635 425 631 Q427 633 428 633 Q455 647 482.5 658.5 Q510 670 539 677 Q575 686 606 685 Q626 684 644 679 Q662 674 679 663 Q719 633 725 578 Z M469 123 Q476 130 482.5 137 Q489 144 496 152 L495 152 L493 152 Q464 144 435 140 Q406 136 377 133 Q363 131 350.5 130 Q338 129 325 127 Q310 125 295 123 Q280 121 265 119 Q249 116 233.5 112.5 Q218 109 202 104 Q184 97 167 88 Q150 79 135 65 Q121 54 111.5 40 Q102 26 97 9 Q92 -11 100 -28 Q104 -38 111.5 -44.5 Q119 -51 128 -56 Q143 -63 159 -64 Q175 -65 192 -62 Q226 -56 259 -41 Q288 -27 315.5 -9 Q343 9 369 30 Q421 71 469 123 Z " />
<glyph glyph-name="E" unicode="E" horiz-adv-x="420" d="M508 737 Q522 737 534 727.5 Q546 718 544 696 Q543 682 538.5 670 Q534 658 528 646 Q520 632 511.5 619 Q503 606 494 593 Q479 573 463 553.5 Q447 534 430 516 Q415 499 399.5 482.5 Q384 466 369 449 Q349 427 329 403 Q323 397 318 403 Q317 404 319 406 Q326 418 336 429 Q357 455 379 479 Q401 503 423 527 Q443 549 462 571.5 Q481 594 498 620 Q507 634 515 649 Q523 664 528 680 Q530 688 531.5 695.5 Q533 703 531 711 Q530 726 515 726 Q507 727 500.5 725 Q494 723 486 721 Q472 716 458.5 708.5 Q445 701 431 692 Q408 676 386.5 658 Q365 640 344 620 Q318 594 294 566.5 Q270 539 247 510 Q227 484 209 458 Q191 432 175 403 Q168 391 162.5 379 Q157 367 153 354 Q151 348 150 342 Q149 336 149 330 Q149 311 165 307 Q178 304 193 304 Q214 304 235.5 306 Q257 308 278 310 L301 310 Q308 310 312 306 Q320 299 312 293 Q307 289 303 285.5 Q299 282 294 280 Q274 268 255 256.5 Q236 245 216 234 Q156 199 99 151 Q45 106 4 55 Q-10 37 -22 18 Q-34 -1 -43 -22 Q-54 -44 -57 -67 L-57 -69 Q-57 -71 -57.5 -73 Q-58 -75 -58 -77 Q-58 -83 -57 -91.5 Q-56 -100 -52 -109 Q-49 -116 -35 -130 Q-21 -144 11 -145 Q31 -145 64.5 -138 Q98 -131 143.5 -106 Q189 -81 245 -33.5 Q301 14 367 94 L367 95 Q368 95 368 96 Q368 97 369 98 L371 100 Q372 100 372 100.5 Q372 101 373 101 Q395 130 420 160 Q424 165 428 161 Q432 157 428 152 Q423 147 419 141 Q415 135 410 130 L401 118 L386 100 Q330 27 268 -29 Q242 -53 212 -76 Q182 -99 150 -117.5 Q118 -136 85 -147 Q52 -158 19 -158 Q6 -159 -7 -156 Q-18 -154 -31 -149.5 Q-44 -145 -54 -135 Q-54 -135 -55 -134 Q-65 -124 -69 -113 Q-75 -101 -75 -86 Q-76 -62 -67 -37 Q-58 -10 -43.5 14 Q-29 38 -12 60 Q9 88 33 111.5 Q57 135 83 158 Q118 187 155.5 212 Q193 237 232 260 Q246 268 260.5 277 Q275 286 290 294 Q294 298 297 299 L297 300 Q292 300 286 299.5 Q280 299 275 299 Q258 297 241.5 296 Q225 295 208 294 Q191 293 171 296 Q158 299 147 306 Q138 312 135 321.5 Q132 331 133 342 Q135 354 138.5 366 Q142 378 147 389 Q160 415 175 439.5 Q190 464 207 487 Q255 553 312 610 Q358 658 409 694 Q425 705 441.5 714.5 Q458 724 475 731 Q491 737 508 737 Z " />
<glyph glyph-name="F" unicode="F" horiz-adv-x="560" d="M35 224 Q36 222 36 221 Q36 220 37 218 Q31 216 29 216 Q24 216 20 216.5 Q16 217 13 219 Q6 225 15 228 Q31 235 44 239 Q74 248 104 255.5 Q134 263 165 270 Q177 272 189.5 274.5 Q202 277 214 280 Q220 280 223 286 Q258 342 292 397.5 Q326 453 361 510 Q361 511 363 513 L356 513 Q332 511 309 516 Q286 523 275 539 Q264 555 266 578 Q268 594 273.5 609 Q279 624 287 639 Q296 653 304 664 Q310 672 314 675 Q318 679 322.5 679 Q327 679 329 674 Q330 673 330 670 Q325 669 322.5 666.5 Q320 664 318 661 Q302 641 292 619 Q282 597 279 574 Q277 566 279 559 Q282 529 316 524 Q328 522 340.5 522 Q353 522 365 524 Q370 524 373 529 Q404 577 434.5 624 Q465 671 496 719 Q498 724 501 728 Q504 732 507 737 Q509 743 514 742 Q524 740 522 733 Q520 730 518 726.5 Q516 723 514 719 Q500 697 486 675.5 Q472 654 458 631 Q442 607 426 583 Q410 559 394 534 Q394 534 390 528 Q398 530 400 530 Q429 537 456 545 Q483 553 510 562 Q573 583 636.5 603 Q700 623 763 641 Q811 655 857 666.5 Q903 678 951 689 Q974 694 996 698 Q1018 702 1041 704 Q1058 706 1074 707 Q1090 708 1106 706 Q1114 705 1121.5 703.5 Q1129 702 1136 698 Q1147 692 1152 685 Q1160 670 1149 656 Q1124 626 1092 606 Q1080 600 1067 597 Q1057 594 1057 605 Q1059 607 1061 607 Q1072 609 1080.5 614 Q1089 619 1097 625 Q1120 642 1136 662 Q1142 670 1143 674 Q1146 682 1139 685 Q1135 687 1132 688.5 Q1129 690 1124 691 Q1119 692 1113 692.5 Q1107 693 1102 693 Q1079 695 1057.5 692.5 Q1036 690 1013 687 Q962 679 913 667 Q864 655 814 641 Q746 623 679 602.5 Q612 582 545 560 Q516 550 486.5 541.5 Q457 533 428 525 Q418 523 408.5 521 Q399 519 389 517 Q381 515 379 511 Q347 457 314 404.5 Q281 352 248 298 Q246 295 244 292 Q242 289 240 285 Q245 286 249 286 Q253 286 257 287 Q329 299 398 311 Q427 315 454.5 319 Q482 323 509 327 Q529 330 548.5 332.5 Q568 335 587 335 Q592 335 596.5 335 Q601 335 606 334 Q611 333 614.5 330.5 Q618 328 621 325 Q622 323 623 322 Q624 321 623 318 Q620 316 618.5 317 Q617 318 615 319 Q608 325 596 323 Q567 322 535 317 Q513 314 491 311 Q469 308 446 304 Q422 301 398 297 Q374 293 349 289 Q323 284 296 280 Q269 276 242 271 Q234 269 232 268 Q230 267 226 260 Q191 201 156 143 Q121 85 86 25 Q60 -20 35.5 -64.5 Q11 -109 -14 -154 Q-16 -157 -17 -161 Q-18 -165 -20 -168 Q-21 -170 -22 -172.5 Q-23 -175 -24 -177 Q-27 -182 -34 -182 Q-42 -181 -39 -175 Q-37 -169 -35 -166 Q-33 -160 -33 -157 Q-33 -155 -31 -153.5 Q-29 -152 -27 -150 Q-17 -131 -7 -112.5 Q3 -94 14 -74 Q56 1 98 74.5 Q140 148 185 222 Q197 242 207 260 Q209 262 210 264 L204 264 Q171 256 138 249.5 Q105 243 73 235 Q63 233 54 230 Q45 227 35 224 Z " />
<glyph glyph-name="G" unicode="G" horiz-adv-x="448" d="M718 678 Q725 656 720 627 Q717 607 709 588.5 Q701 570 690 552 Q666 516 636 483 Q612 457 586 432 Q560 407 532 384 Q510 365 488 346.5 Q466 328 443 311 Q442 310 436 306 Q433 304 431.5 304 Q430 304 427 308 Q429 310 430.5 311.5 Q432 313 434 315 Q455 332 476 349.5 Q497 367 517 385 Q546 410 573 435.5 Q600 461 625 489 Q640 506 654.5 524 Q669 542 681 562 Q691 579 698.5 596 Q706 613 709 632 Q711 640 711.5 649 Q712 658 711 666 Q708 693 684 711 Q674 719 663 723.5 Q652 728 639 730 Q616 735 592.5 733 Q569 731 545 726 Q494 715 448.5 693 Q403 671 359 640 Q267 573 204 481 Q187 456 174 430 Q161 404 152 377 Q144 354 141 330.5 Q138 307 142 284 Q148 245 176 220 Q198 200 230 200 Q248 199 265.5 202.5 Q283 206 300 211 Q348 226 397 247 Q406 251 413 252 Q422 255 427 249.5 Q432 244 430 236 Q428 227 424 218.5 Q420 210 416 202 Q404 177 391 153.5 Q378 130 365 107 Q363 103 363 103 Q359 97 355 90 Q351 83 346 75 Q346 74 344 72 Q340 66 336.5 59.5 Q333 53 329 47 Q329 47 328 46 Q311 19 293.5 -7.5 Q276 -34 256 -60 Q236 -86 214.5 -111.5 Q193 -137 169 -160 Q143 -186 116 -203 Q105 -211 93 -216.5 Q81 -222 67 -224 Q53 -227 41 -224 Q17 -217 14 -191 Q14 -187 12 -179 L15 -161 Q16 -158 17 -155 Q18 -152 19 -150 Q32 -115 63 -85 Q78 -70 95 -57.5 Q112 -45 131 -34 Q159 -17 187 -1.5 Q215 14 244 30 Q264 41 283 52 Q302 63 322 74 Q326 77 329 81 Q349 113 367.5 145.5 Q386 178 403 212 Q410 225 416 241 Q414 240 413 239.5 Q412 239 410 239 Q384 230 359.5 221 Q335 212 309 203 Q280 194 252 191 Q180 186 145 239 Q125 270 125 312 Q125 337 131 361 Q137 385 147 409 Q172 469 215 522 Q290 617 393 678 Q464 720 538 737 Q554 741 570 742.5 Q586 744 603 744 Q642 744 674 728 Q690 720 701.5 707.5 Q713 695 718 678 Z M312 53 Q313 54 313 54.5 Q313 55 314 56 L313 56 Q312 56 311.5 55.5 Q311 55 310 55 Q291 44 273 34.5 Q255 25 236 14 Q213 0 189.5 -12.5 Q166 -25 143 -39 Q128 -47 114 -57.5 Q100 -68 86 -79 Q66 -96 50.5 -117 Q35 -138 29 -164 Q24 -183 30 -199 Q33 -209 41 -214 Q49 -219 63 -216 Q71 -214 77.5 -211 Q84 -208 91 -205 Q102 -199 111.5 -192 Q121 -185 130 -177 Q147 -162 163 -145.5 Q179 -129 194 -112 Q227 -73 256 -31.5 Q285 10 312 53 Z " />
<glyph glyph-name="H" unicode="H" horiz-adv-x="388" d="M482 738 Q475 738 472 733 Q464 723 455.5 713.5 Q447 704 439 693 Q398 640 366 586 Q321 514 278 443 Q235 372 191 300 Q179 280 166.5 259.5 Q154 239 142 219 Q141 218 140.5 217 Q140 216 138 214 Q143 214 146.5 213.5 Q150 213 153 214 Q173 215 191 219.5 Q209 224 227 231 Q256 242 283 255.5 Q310 269 336 285 Q342 289 348 292.5 Q354 296 360 301 Q364 302 367 307 Q395 351 424 392.5 Q453 434 484 476 Q511 511 539.5 546 Q568 581 599 615 Q614 631 630 646.5 Q646 662 664 676 Q674 684 686 692 Q689 694 692 694.5 Q695 695 698 697 Q706 699 712 696.5 Q718 694 720 686 Q722 681 720 671 Q718 660 713 650.5 Q708 641 703 630 Q691 607 675.5 585 Q660 563 643 541 Q616 508 586.5 477 Q557 446 525 417 Q495 389 463.5 363 Q432 337 397 314 Q393 310 387 302 Q343 234 303.5 165.5 Q264 97 229 26 Q203 -24 181.5 -74.5 Q160 -125 140 -176 Q138 -184 135.5 -190.5 Q133 -197 131 -205 Q129 -208 132 -211 Q135 -214 132 -217 Q130 -220 125 -220 Q114 -220 116 -211 Q118 -198 122 -186 Q131 -159 141.5 -132.5 Q152 -106 163 -80 Q182 -35 201.5 8.5 Q221 52 244 96 Q267 142 293 186 Q319 230 347 275 Q349 279 349 281 Q348 280 347 279.5 Q346 279 345 278 Q319 263 292.5 250 Q266 237 237 226 Q221 220 204.5 215 Q188 210 170 208 Q163 207 156 207 Q149 207 141 207 L135 207 L132 204 Q88 131 45 59 Q2 -13 -42 -85 Q-51 -100 -61 -119 Q-64 -124 -61 -126 Q-67 -130 -73 -127 Q-77 -124 -75 -119 Q-71 -112 -67.5 -105 Q-64 -98 -59 -90 Q-15 -15 28 58 Q71 131 115 205 L118 211 Q115 212 111 214 Q80 227 75 258 Q71 291 91 322 Q95 328 101 322 Q92 310 87 292 Q84 280 83.5 268 Q83 256 88 245 Q98 224 118 217 L121 217 Q124 220 125 222 L278 474 Q304 515 329.5 555 Q355 595 383 635 Q417 686 461 734 Q464 739 470 742 Q479 750 482 738 Z M711 688 Q705 688 698 683 Q689 678 681.5 672 Q674 666 666 659 Q646 641 627.5 621.5 Q609 602 592 582 Q542 524 497.5 463 Q453 402 411 339 Q411 338 409 336 Q411 337 412 337.5 Q413 338 415 339 Q440 358 464 378 Q488 398 511 419 Q569 471 619 530 Q654 570 683 615 Q691 628 697 641 Q703 654 708 668 Q710 673 711 678 Q712 683 711 688 Z " />
<glyph glyph-name="I" unicode="I" horiz-adv-x="248" d="M282 725 Q275 720 272.5 714.5 Q270 709 268 703 Q265 692 274 688 Q284 682 299 684 Q314 686 328.5 690 Q343 694 358 700 Q377 708 395.5 716 Q414 724 433 732 Q443 736 452.5 740 Q462 744 472 746 Q475 747 478.5 747 Q482 747 485 747 Q494 748 499.5 741.5 Q505 735 503 725 Q502 717 500 710.5 Q498 704 496 697 Q480 661 462 630 Q442 595 421.5 560.5 Q401 526 381 491 Q324 392 264 293 Q226 230 186.5 167.5 Q147 105 105 43 Q90 21 74.5 0 Q59 -21 43 -42 Q39 -46 41 -49 Q33 -53 28.5 -59 Q24 -65 19 -71 Q5 -88 -9.5 -104.5 Q-24 -121 -41 -137 Q-56 -152 -72.5 -166 Q-89 -180 -107 -191 Q-118 -198 -128.5 -203.5 Q-139 -209 -150 -212 Q-164 -216 -174 -212 Q-185 -209 -188.5 -200 Q-192 -191 -188 -179 Q-184 -171 -179 -164 Q-174 -157 -168 -150 Q-150 -134 -133 -126 Q-119 -118 -104 -111 Q-89 -104 -74 -96 Q-33 -77 5 -61 Q11 -57 13 -54 Q36 -25 57 4.5 Q78 34 98 65 Q139 125 177.5 186 Q216 247 254 310 Q281 356 308 401 Q335 446 363 491 Q382 523 401 554.5 Q420 586 439 618 Q451 638 462.5 658.5 Q474 679 484 700 Q487 706 489.5 712.5 Q492 719 494 726 Q496 734 494.5 736 Q493 738 485 738 Q480 737 474.5 736 Q469 735 464 733 Q450 727 436 721 Q422 715 408 709 Q390 701 372 693.5 Q354 686 335 681 Q324 678 314 675.5 Q304 673 293 674 Q278 674 270 681 Q265 686 262 690.5 Q259 695 260 703 Q260 716 270 726 Q279 735 282 725 Z M0 -70 Q-2 -71 -3 -71 Q-4 -71 -5 -72 L-77 -105 Q-90 -111 -102.5 -117.5 Q-115 -124 -128 -131 Q-146 -140 -162 -156 Q-173 -167 -177 -178 Q-182 -187 -180 -196 Q-178 -206 -170 -206 Q-162 -206 -158 -205 Q-149 -203 -141 -199.5 Q-133 -196 -125 -191 Q-103 -176 -79 -155 Q-58 -136 -39 -116 Q-20 -96 -2 -74 Q-2 -74 0 -70 Z " />
<glyph glyph-name="J" unicode="J" horiz-adv-x="508" d="M-54 -32 Q-53 -26 -52 -19.5 Q-51 -13 -49 -6 Q-36 56 -2 108 Q41 174 101 209 Q123 222 145 230.5 Q167 239 190 244 Q219 251 246.5 252 Q274 253 302 251 Q311 251 319.5 250.5 Q328 250 336 250 Q362 248 388 247.5 Q414 247 440 246 L456 246 Q462 246 469 251 Q474 254 476 247 Q470 239 461 239 Q450 238 440 238 Q430 238 420 238 Q418 238 417 238.5 Q416 239 415 239 Q379 240 343.5 241 Q308 242 272 242 Q211 242 155 222 Q131 212 108 199.5 Q85 187 63 167 Q17 127 -13 66 Q-41 7 -44 -54 Q-46 -86 -40.5 -114 Q-35 -142 -21 -165 Q3 -203 42 -210 Q62 -214 82 -209.5 Q102 -205 122 -194 Q143 -183 162 -168.5 Q181 -154 200 -137 Q229 -111 255.5 -80.5 Q282 -50 308 -18 Q353 39 394 100.5 Q435 162 474 226 Q511 286 545.5 347 Q580 408 612 471 Q627 501 640.5 531.5 Q654 562 666 594 Q677 624 684 652 Q686 663 687.5 674 Q689 685 688 696 Q686 725 667 731 Q659 733 651.5 734.5 Q644 736 636 735 Q613 733 591 726.5 Q569 720 546 712 Q520 704 494 693.5 Q468 683 442 672 Q425 664 408 657.5 Q391 651 374 645 Q364 642 355 639.5 Q346 637 336 638 Q325 640 319 646 Q312 653 315 666 Q315 670 318 670 Q321 670 321 665 L321 663 Q318 652 326 647 Q333 643 341 645 Q349 646 356.5 647.5 Q364 649 372 653 L453 686 Q482 699 510.5 710.5 Q539 722 568 731 Q582 736 596.5 739.5 Q611 743 625 745 Q636 747 646.5 746.5 Q657 746 667 742 Q683 736 691.5 720 Q700 704 699 681 Q699 665 696.5 650 Q694 635 689 620 Q681 590 670 562 Q659 534 646 507 Q622 453 595.5 403 Q569 353 540 303 Q504 241 466.5 181.5 Q429 122 389 65 Q361 24 331.5 -14 Q302 -52 270 -87 Q247 -113 223 -135.5 Q199 -158 173 -177 Q155 -190 136.5 -200 Q118 -210 98 -215 Q75 -223 53 -221 Q23 -218 -0.5 -201.5 Q-24 -185 -39 -152 Q-55 -116 -55 -68 L-55 -46 L-55 -40 Q-55 -38 -54.5 -36 Q-54 -34 -54 -32 Z " />
<glyph glyph-name="K" unicode="K" horiz-adv-x="372" d="M722 728 Q720 726 717 727 Q714 729 710 725 L683 707 Q658 689 634 669 Q610 649 587 629 Q553 601 520.5 572.5 Q488 544 455 515 Q431 495 408 474 Q385 453 362 431 Q334 406 308 380 Q282 354 256 328 Q229 299 202.5 270.5 Q176 242 150 213 L147 210 L153 201 Q167 180 181 161 Q195 142 211 123 Q239 88 267 54.5 Q295 21 323 -13 Q347 -42 371 -70 Q395 -98 419 -126 Q435 -144 450.5 -161 Q466 -178 482 -196 Q483 -198 487 -202 Q486 -203 486 -204 L486 -205 Q482 -211 478 -207 Q463 -194 450 -179 Q429 -155 408 -131.5 Q387 -108 366 -84 Q339 -53 312.5 -22 Q286 9 259 41 Q237 67 216 92.5 Q195 118 175 146 Q166 159 157 171.5 Q148 184 140 198 Q139 199 139 200 Q137 199 136.5 198 Q136 197 135 196 Q101 158 69 118.5 Q37 79 5 38 Q-19 7 -43 -24.5 Q-67 -56 -91 -87 Q-95 -92 -99 -97.5 Q-103 -103 -108 -108 Q-112 -114 -118 -111 Q-120 -110 -119 -106 Q-117 -102 -113 -96 Q-88 -53 -63 -10.5 Q-38 32 -12 74 Q39 160 90.5 244.5 Q142 329 193 414 Q238 487 277 564 Q288 584 297 605 Q306 626 314 647 Q318 659 320.5 670.5 Q323 682 324 694 Q325 701 324 708 Q322 727 307 733 Q292 739 276 738 Q236 735 193 716 Q192 716 188 714 Q184 712 183 711 Q182 710 180 706 Q175 706 174 710 Q174 713 178 717 Q180 719 182 719.5 Q184 720 186 722 Q204 730 222.5 736.5 Q241 743 260 746 Q283 749 300 745 Q317 740 326.5 726 Q336 712 336 691 Q336 677 333.5 664.5 Q331 652 326 638 Q318 611 307 586 Q296 561 283 535 Q261 492 238 451 Q215 410 190 368 Q154 308 117.5 250 Q81 192 44 133 Q22 97 0 61.5 Q-22 26 -45 -9 Q-47 -11 -47 -13 Q-4 45 40.5 101 Q85 157 131 212 Q132 213 132 213 Q131 221 137 221 Q139 221 142 224 Q164 248 185 271.5 Q206 295 227 318 Q275 370 326 417 Q360 449 394 479.5 Q428 510 463 540 Q502 574 541 607 Q580 640 620 672 Q635 684 650.5 696 Q666 708 681 720 Q686 724 691.5 727 Q697 730 702 734 Q704 735 705.5 735.5 Q707 736 709 737 Q719 742 723 731 Q723 730 722.5 729.5 Q722 729 722 728 Z " />
<glyph glyph-name="L" unicode="L" horiz-adv-x="385" d="M539 -220 Q540 -222 539.5 -222 Q539 -222 539 -223 L538 -224 Q534 -226 530 -226.5 Q526 -227 522 -228 Q461 -239 412 -233 Q363 -227 337 -219 Q311 -211 285.5 -200.5 Q260 -190 235 -177 Q203 -160 173.5 -142 Q144 -124 114 -105 Q110 -103 106.5 -100 Q103 -97 98 -95 Q96 -97 90 -101 Q43 -141 -11 -169 Q-31 -178 -50.5 -185.5 Q-70 -193 -92 -197 Q-118 -202 -144 -200 Q-170 -198 -195 -187 Q-214 -178 -229 -165 Q-244 -152 -254 -133 Q-260 -122 -263.5 -110 Q-267 -98 -265 -85 Q-263 -56 -246 -33 Q-220 2 -174 13 Q-154 17 -135.5 16.5 Q-117 16 -97 12 Q-71 7 -47 -3 Q-23 -13 1 -25 Q23 -37 44 -49.5 Q65 -62 86 -76 Q90 -78 92 -80 Q94 -78 95 -77.5 Q96 -77 98 -75 Q131 -43 160.5 -9 Q190 25 218 62 Q266 128 307 197 Q348 266 384 339 Q402 377 417.5 414.5 Q433 452 447 491 Q463 537 470 580 Q473 600 474 619.5 Q475 639 472 659 Q471 675 463 690 Q446 725 409 731 Q393 734 378 733 Q363 732 347 728 Q326 723 306.5 715 Q287 707 267 697 Q238 680 210.5 661 Q183 642 159 617 Q151 609 144 600.5 Q137 592 131 582 Q121 563 122 546 L122 544 Q114 543 113 548 Q111 557 113 566 Q115 575 119 583 Q124 594 131.5 603.5 Q139 613 147 622 Q164 639 182.5 654 Q201 669 221 683 Q244 698 268 711 Q292 724 318 733 Q335 739 351.5 742.5 Q368 746 386 745 Q453 744 480 681 Q485 668 487.5 654.5 Q490 641 491 627 Q493 599 489 572 Q485 545 477 518 Q467 478 452 439.5 Q437 401 420 364 Q378 275 328 192.5 Q278 110 218 32 Q193 0 166 -29 Q139 -58 109 -85 L106 -88 L108 -90 Q140 -110 171 -130 Q202 -150 235 -167 Q262 -181 290 -193.5 Q318 -206 348 -214 Q376 -221 414.5 -225 Q453 -229 499 -223 L535 -217 L537 -217 Q537 -217 539 -220 Z M57 -110 Q64 -105 70.5 -99 Q77 -93 85 -87 Q84 -85 83.5 -85 Q83 -85 82 -84 Q64 -73 46.5 -62.5 Q29 -52 11 -41 Q-10 -29 -31 -19 Q-52 -9 -75 -2 Q-96 5 -117 7.5 Q-138 10 -160 6 Q-198 0 -222 -26 Q-247 -50 -250 -82 Q-253 -114 -233 -142 Q-224 -155 -211.5 -164 Q-199 -173 -185 -180 Q-169 -187 -152.5 -189 Q-136 -191 -119 -190 Q-99 -189 -80 -184 Q-61 -179 -43 -171 Q-16 -160 9 -144.5 Q34 -129 57 -110 Z " />
<glyph glyph-name="M" unicode="M" horiz-adv-x="634" d="M767 535 Q768 533 768 530.5 Q768 528 769 526 L768 521 Q766 517 765 513 Q764 509 762 504 Q754 486 745 468 Q736 450 726 432 Q700 387 674 343 Q648 299 622 254 Q583 187 546 120 Q509 53 474 -16 Q455 -54 438 -91.5 Q421 -129 405 -167 Q405 -168 401.5 -176.5 Q398 -185 394 -195.5 Q390 -206 386.5 -217 Q383 -228 382 -235 Q383 -235 383 -236 Q385 -237 385 -240 Q385 -243 380 -245 Q375 -247 372.5 -245.5 Q370 -244 369 -243 L368 -243 L368 -242 Q366 -240 366 -235 Q368 -229 369 -223 Q370 -217 372 -212 Q383 -177 396 -147 Q401 -136 405 -127 Q408 -119 411 -112.5 Q414 -106 415 -104 Q430 -68 446 -33 Q462 2 480 37 Q503 84 528.5 129 Q554 174 580 220 Q606 266 633 311 Q660 356 687 402 Q701 427 715 451.5 Q729 476 742 502 Q747 512 750 521 Q751 522 751 523 Q751 524 752 526 Q746 522 746 522 Q733 513 722.5 503.5 Q712 494 701 483 Q665 449 631 413.5 Q597 378 565 342 Q499 270 438.5 195.5 Q378 121 318 46 Q290 11 262.5 -23.5 Q235 -58 207 -93 Q200 -102 192 -111 Q184 -120 176 -129 Q174 -131 171 -134 Q168 -137 165 -139 Q156 -144 150 -142 Q143 -141 144 -134 Q145 -127 149 -118 Q157 -98 166 -78.5 Q175 -59 185 -40 Q210 8 238 53 Q266 98 295 144 Q345 221 397.5 295.5 Q450 370 506 444 Q535 483 564 521 Q593 559 622 597 Q633 611 642 625 Q651 639 661 653 Q663 655 665 661 L664 661 L658 658 Q647 650 636.5 641.5 Q626 633 615 624 Q591 603 568.5 581 Q546 559 523 536 Q475 487 429 437.5 Q383 388 338 337 Q244 229 159 119 Q119 68 80 16.5 Q41 -35 1 -86 Q-11 -102 -24 -117.5 Q-37 -133 -51 -147 Q-55 -151 -59 -155 Q-63 -159 -68 -162 Q-76 -168 -83 -168 Q-96 -168 -95 -155 Q-94 -147 -90 -136 Q-82 -111 -71 -87 Q-60 -63 -48 -39 Q-15 29 22 94.5 Q59 160 100 225 Q135 282 171.5 338 Q208 394 244 451 Q264 483 284 514.5 Q304 546 322 578 Q332 595 340 612 Q348 629 355 646 Q360 658 362.5 670 Q365 682 365 694 Q364 722 339 731 Q330 734 320.5 735 Q311 736 301 736 Q284 735 266.5 731.5 Q249 728 232 723 Q148 696 74 643 Q51 628 30.5 610.5 Q10 593 -9 573 Q-32 548 -47 520 Q-49 515 -50.5 510.5 Q-52 506 -54 501 Q-55 497 -54 494 Q-54 489 -49 489 Q-47 489 -46 488.5 Q-45 488 -43 487 Q-44 486 -48 484 Q-62 480 -64 496 Q-64 501 -63 504.5 Q-62 508 -60 513 Q-56 524 -51 533 Q-46 542 -39 552 Q-14 585 20 615 Q111 693 219 730 Q255 742 290 745 Q304 747 318 745.5 Q332 744 345 739 Q380 723 379 681 Q378 666 374 650.5 Q370 635 364 620 Q354 597 342 575.5 Q330 554 317 532 Q293 491 268 452 Q243 413 217 373 Q176 310 137 248 Q98 186 61 123 Q32 75 5.5 27 Q-21 -21 -45 -70 Q-53 -87 -61 -104 Q-69 -121 -74 -138 Q-76 -143 -76.5 -146.5 Q-77 -150 -79 -155 Q-75 -155 -73 -151 Q-65 -143 -57.5 -135.5 Q-50 -128 -43 -120 Q-28 -101 -12.5 -82 Q3 -63 18 -44 Q59 9 99 61 Q139 113 181 165 Q300 317 431 457 Q463 492 496 526 Q529 560 563 593 Q580 609 596.5 624 Q613 639 630 653 Q635 657 640.5 661 Q646 665 652 669 Q654 671 657 671.5 Q660 672 662 674 Q670 679 676.5 673.5 Q683 668 680 660 Q679 656 675 648 Q669 637 663 627.5 Q657 618 649 608 Q621 570 593 532 Q565 494 536 456 Q471 369 409.5 282.5 Q348 196 291 105 Q266 67 242.5 28 Q219 -11 198 -50 Q189 -67 180.5 -83.5 Q172 -100 165 -117 Q164 -119 164 -125 Q165 -123 166 -122.5 Q167 -122 168 -120 Q182 -103 196.5 -86 Q211 -69 225 -52 Q258 -11 290 30 Q322 71 355 112 Q408 178 462 243 Q516 308 573 371 Q603 404 634 436.5 Q665 469 698 500 Q706 508 715 515 Q724 522 733 530 Q736 532 739 534.5 Q742 537 746 539 Q760 546 767 535 Z " />
<glyph glyph-name="N" unicode="N" horiz-adv-x="416" d="M-39 1 Q-37 5 -36 8 Q-31 22 -24.5 34.5 Q-18 47 -11 60 Q12 101 35.5 141 Q59 181 83 221 Q106 261 130 300 Q154 339 177 378 Q195 408 213 438.5 Q231 469 248 500 Q265 529 281.5 558.5 Q298 588 312 619 Q320 633 326 648 Q332 663 336 678 Q342 697 341 713 Q340 724 335.5 729.5 Q331 735 318 737 Q305 739 293 737 Q281 735 268 730 Q251 724 235 716 Q219 708 203 698 Q163 672 130 639 Q119 628 110 617.5 Q101 607 93 594 Q91 590 89 586 Q87 582 86 577 L86 574 Q87 571 84 571 Q76 571 78 579 Q80 585 82.5 590.5 Q85 596 88 601 Q96 612 104 621.5 Q112 631 121 641 Q154 675 193 701 Q212 714 232 724 Q252 734 273 740 Q294 747 314 746 Q325 744 334 740 Q343 736 348 727 Q352 720 353 712.5 Q354 705 354 697 Q353 683 349 669.5 Q345 656 339 642 Q331 622 322.5 603.5 Q314 585 304 566 Q284 527 262 489 Q240 451 217 413 Q196 377 174.5 341 Q153 305 131 269 Q107 228 82.5 188 Q58 148 34 108 Q20 85 7 62 Q-6 39 -18 16 Q-18 14 -18.5 13.5 Q-19 13 -19 11 Q-15 15 -11 19 Q-7 23 -4 27 Q13 47 30.5 66.5 Q48 86 65 106 Q84 129 103 151 Q122 173 142 196 Q159 215 175 233 Q191 251 208 270 Q222 284 234.5 298 Q247 312 261 326 Q276 342 291 357.5 Q306 373 321 388 Q338 405 355.5 422 Q373 439 391 456 Q416 481 442 504.5 Q468 528 494 551 Q521 574 548 596.5 Q575 619 604 641 Q616 649 627.5 657 Q639 665 652 672 Q657 676 663 677 Q673 682 679 674 Q685 669 681 658 Q678 650 673.5 643 Q669 636 664 628 Q644 598 622 569 Q600 540 578 511 Q547 469 516 427.5 Q485 386 455 343 Q412 283 371.5 221.5 Q331 160 293 96 Q276 68 260.5 40.5 Q245 13 229 -15 Q215 -39 202.5 -63 Q190 -87 177 -111 Q168 -130 159 -148.5 Q150 -167 141 -185 Q139 -190 136.5 -196 Q134 -202 132 -207 L132 -214 Q134 -214 136 -216 Q139 -217 136 -220 Q131 -222 125.5 -220 Q120 -218 119 -213 Q119 -207 123 -197 Q130 -178 138.5 -160.5 Q147 -143 156 -125 Q181 -75 207.5 -26.5 Q234 22 261 71 Q290 125 322.5 175.5 Q355 226 388 277 Q428 337 469.5 394 Q511 451 555 508 Q573 533 591.5 557.5 Q610 582 628 606 Q638 619 647 632 Q656 645 664 659 L667 665 L667 666 Q663 664 659.5 662 Q656 660 652 658 Q637 650 623.5 640 Q610 630 596 619 Q574 603 553 586 Q532 569 512 552 Q487 531 463.5 509.5 Q440 488 417 466 Q397 447 378.5 429 Q360 411 341 392 Q323 374 305 355.5 Q287 337 269 318 Q252 301 236 283 Q220 265 203 247 Q183 226 164.5 204.5 Q146 183 127 161 L16 32 Q9 24 2.5 17.5 Q-4 11 -11 4 Q-13 1 -16 -1.5 Q-19 -4 -21 -6 Q-28 -10 -36 -7 Q-39 -6 -39 -1 L-39 1 Z " />
<glyph glyph-name="O" unicode="O" horiz-adv-x="585" d="M674 469 Q673 465 672.5 461.5 Q672 458 671 453 Q666 433 659.5 414 Q653 395 645 375 Q630 337 610.5 300 Q591 263 568 226 Q527 161 480 102 Q433 43 379 -14 Q351 -43 322 -70 Q293 -97 261 -122 Q217 -157 163 -185 Q126 -204 89 -211 Q84 -213 79 -213 Q74 -213 69 -214 Q68 -215 67 -215 L40 -215 Q35 -215 27 -213 Q-14 -207 -36 -171 Q-44 -157 -48.5 -141 Q-53 -125 -55 -108 Q-58 -71 -54 -37 Q-51 -11 -45 15 Q-42 32 -37.5 47.5 Q-33 63 -28 80 Q-7 147 24 211.5 Q55 276 93 339 Q114 374 137 407 Q160 440 185 472 Q211 505 239 536.5 Q267 568 298 597 Q318 615 338 631.5 Q358 648 381 662 Q394 670 406.5 676 Q419 682 433 686 Q467 695 491 677 Q499 671 503 662 Q507 653 509 642 Q512 624 507 602 Q504 592 500.5 583 Q497 574 489 566 Q486 563 484 562 Q480 558 476 563 Q476 565 477 566 Q484 572 487.5 579.5 Q491 587 493 595 Q501 621 495 650 Q492 663 484 671 Q480 675 475 676 Q470 677 464 678 Q453 679 442 675.5 Q431 672 420 667 Q401 658 384 646.5 Q367 635 351 622 Q325 600 301 576.5 Q277 553 254 528 Q237 508 220.5 488.5 Q204 469 189 449 Q171 425 154.5 400.5 Q138 376 121 351 Q106 326 92 301.5 Q78 277 64 251 Q46 216 30 181 Q14 146 1 110 Q-4 94 -9 78.5 Q-14 63 -19 46 Q-24 29 -27.5 13 Q-31 -3 -33 -20 Q-37 -47 -37.5 -73 Q-38 -99 -33 -125 Q-28 -154 -13 -175 Q6 -202 39 -205 Q68 -209 102 -198 Q147 -185 189 -157 Q246 -122 297 -74 Q342 -32 382 11.5 Q422 55 460 102 Q480 128 499.5 154 Q519 180 537 208 Q561 246 582.5 284 Q604 322 621 362 Q630 382 637 401 Q644 420 650 440 Q655 458 658.5 476 Q662 494 664 512 Q666 532 665.5 550.5 Q665 569 660 588 Q651 634 615 661 Q605 669 594.5 674 Q584 679 572 684 L570 684 Q565 685 564 681 Q564 679 561 679 Q555 679 555 684 Q556 690 562 691 Q569 692 577 689 Q587 686 595.5 681.5 Q604 677 613 672 Q642 656 658 630.5 Q674 605 679 572 Q681 559 681.5 546.5 Q682 534 681 520 Q680 512 679.5 504 Q679 496 677 488 Q677 487 678 487 Q677 482 676.5 478 Q676 474 674 469 Z " />
<glyph glyph-name="P" unicode="P" horiz-adv-x="252" d="M572 614 Q573 611 573 608.5 Q573 606 574 603 L574 583 Q573 583 573 581 Q572 566 567.5 552 Q563 538 556 524 Q547 507 536 492.5 Q525 478 513 464 Q491 439 466.5 418.5 Q442 398 416 378 Q345 327 273.5 278.5 Q202 230 128 184 Q127 184 127 183.5 Q127 183 126 183 Q113 175 100 167 Q89 160 76.5 153.5 Q64 147 53 142 Q26 97 -1 51.5 Q-28 6 -55 -39 Q-78 -77 -99.5 -114 Q-121 -151 -143 -189 Q-145 -191 -145.5 -192.5 Q-146 -194 -147 -196 Q-152 -202 -157 -202 Q-158 -202 -158.5 -201.5 Q-159 -201 -160 -201 Q-164 -200 -162 -196 Q-161 -194 -160 -191.5 Q-159 -189 -158 -187 Q-146 -167 -134.5 -147.5 Q-123 -128 -112 -108 Q-75 -45 -38.5 17 Q-2 79 35 142 Q74 208 113 272.5 Q152 337 191 402 Q238 481 291 560 Q293 562 294.5 565 Q296 568 298 570 Q300 575 305 573 Q310 571 307 566 Q306 564 305 562.5 Q304 561 303 559 Q291 539 279 519.5 Q267 500 255 480 Q225 431 195.5 382.5 Q166 334 137 284 Q120 254 102 224 Q84 194 67 165 Q67 165 68 166 Q73 168 76.5 170 Q80 172 85 174 Q110 188 134 203.5 Q158 219 182 236 Q234 270 284.5 305 Q335 340 385 377 Q408 394 430.5 413 Q453 432 474 452 Q504 480 528 515 Q549 544 556 575 Q564 606 557 631 Q554 645 547.5 655.5 Q541 666 531 676 Q520 688 506 697 Q492 706 476 714 Q438 730 398 735 Q356 741 312 736 Q245 728 186 702 Q113 672 55 621 Q21 592 -2 557 Q-10 545 -15 528 Q-20 514 -14 505 Q-19 502 -22 506 Q-24 512 -25 516 Q-26 520 -25 523.5 Q-24 527 -23 532 Q-18 545 -12 556 Q-6 567 2 578 Q29 613 64 640 Q152 712 265 739 Q297 747 329 748 Q330 748 331 748.5 Q332 749 333 749 L377 749 Q381 748 385 748 Q389 748 393 747 Q412 745 430 741 Q448 737 465 730 Q506 714 534 686 Q565 655 572 614 Z " />
<glyph glyph-name="Q" unicode="Q" horiz-adv-x="526" d="M664 614 Q664 574 655 532 Q649 502 639.5 472.5 Q630 443 618 414 Q596 360 569 310.5 Q542 261 510 213 Q472 156 430.5 104 Q389 52 342 6 Q291 -45 237 -84 Q231 -87 227 -91 L226 -91 L226 -93 Q230 -120 237.5 -145 Q245 -170 257 -191 Q270 -214 292 -228 Q297 -230 302.5 -232 Q308 -234 314 -235 Q327 -237 339 -232.5 Q351 -228 360 -221.5 Q369 -215 375.5 -207.5 Q382 -200 384 -197 Q389 -192 392 -186.5 Q395 -181 399 -175 Q401 -173 401.5 -171 Q402 -169 404 -166 Q405 -165 409 -165 Q414 -167 411 -173 Q410 -178 405 -184 Q401 -189 397.5 -195 Q394 -201 390 -206 Q382 -216 367.5 -229 Q353 -242 333 -245 L332 -245 L331 -245 L329 -245 L328 -245 L315 -245 Q277 -239 250 -204 Q238 -187 230 -167.5 Q222 -148 217 -126 Q215 -120 214 -114 Q213 -108 211 -101 Q209 -102 208.5 -102.5 Q208 -103 206 -104 Q187 -115 167.5 -123.5 Q148 -132 128 -137 Q110 -141 92.5 -141 Q75 -141 59 -135 Q-9 -112 -9 -20 Q-9 -3 -6.5 13.5 Q-4 30 0 47 Q1 49 1 51.5 Q1 54 2 57 Q7 71 10 82 Q14 88 15 91 Q46 169 103 224 Q119 240 135 248 Q159 262 179 255 Q193 251 203 236 Q211 223 216 201 Q219 186 220 171 Q221 156 221 139 Q221 113 221 88 Q221 63 220 37 Q220 11 220.5 -14 Q221 -39 223 -63 Q223 -66 223.5 -69 Q224 -72 224 -76 Q226 -74 227 -73.5 Q228 -73 229 -72 Q278 -36 326 12 Q432 120 517 259 Q536 291 553 322.5 Q570 354 586 388 Q600 419 612.5 450.5 Q625 482 635 515 Q643 542 647.5 568.5 Q652 595 652 621 Q652 663 636 694 Q617 726 580 731 Q560 733 541 727.5 Q522 722 502 712 Q479 701 458 687 Q437 673 417 657 Q377 625 341 589 Q305 553 273 511 Q256 489 241.5 466.5 Q227 444 214 419 Q209 410 204.5 400.5 Q200 391 198 381 Q189 378 192 387 Q196 402 204 418 Q216 445 231.5 469.5 Q247 494 265 517 Q346 625 447 695 Q487 724 527 737 Q555 747 577 744 Q619 740 641 701 Q652 683 657.5 661 Q663 639 664 614 Z M201 -91 Q203 -90 209 -86 Q209 -84 208.5 -83.5 Q208 -83 208 -81 Q207 -71 206 -61 Q205 -51 205 -40 Q203 -16 203 8.5 Q203 33 204 59 Q205 82 205.5 105.5 Q206 129 206 152 Q206 167 204.5 181.5 Q203 196 201 210 Q199 217 196.5 223.5 Q194 230 190 235 Q182 247 168 247 Q154 246 138 236 Q128 229 119 221.5 Q110 214 102 204 Q34 130 12 32 Q8 15 6 -2.5 Q4 -20 6 -37 Q13 -112 73 -128 Q97 -134 125 -126 Q145 -121 163.5 -112 Q182 -103 201 -91 Z " />
<glyph glyph-name="R" unicode="R" horiz-adv-x="328" d="M579 611 Q580 608 580 605 Q580 602 581 600 L581 580 Q581 579 580.5 579 Q580 579 580 578 Q579 562 574.5 548.5 Q570 535 563 521 Q555 504 544 489 Q533 474 520 460 Q498 436 473.5 415 Q449 394 423 375 Q352 324 281 275 Q210 226 135 181 Q126 176 117.5 170.5 Q109 165 100 160 Q95 158 91 156 Q87 154 82 152 Q83 150 85 148 Q113 118 142.5 91 Q172 64 203 38 Q265 -14 327.5 -62.5 Q390 -111 455 -158 Q466 -166 477 -174.5 Q488 -183 499 -191 Q504 -195 500 -201 Q499 -201 497 -199 Q465 -176 433.5 -153.5 Q402 -131 370 -108 Q310 -64 252.5 -18 Q195 28 139 77 Q99 111 67 150 Q38 102 9.5 54 Q-19 6 -48 -42 Q-71 -80 -92.5 -117 Q-114 -154 -136 -192 Q-137 -194 -138 -196 Q-139 -198 -140 -200 Q-143 -205 -150 -205 L-151 -205 Q-153 -205 -153 -204 Q-156 -202 -155 -199 Q-153 -197 -152.5 -194.5 Q-152 -192 -150 -190 Q-139 -170 -127.5 -150.5 Q-116 -131 -104 -111 Q-32 13 43 138 Q81 204 120 268.5 Q159 333 198 399 Q222 439 247 478.5 Q272 518 298 557 Q302 563 305 567 Q309 571 312 570 Q316 567 314 562 Q312 558 310 556 Q298 536 286 516.5 Q274 497 262 477 Q233 427 203 378.5 Q173 330 144 281 Q127 251 109.5 221 Q92 191 74 161 Q75 162 76 162 Q80 164 84 166.5 Q88 169 92 171 Q117 185 141 200.5 Q165 216 189 232 Q241 267 291.5 302 Q342 337 392 374 Q438 408 481 448 Q496 463 510 478.5 Q524 494 535 511 Q556 541 564 572 Q572 601 565 628 Q557 653 539 672 Q527 685 513 694 Q499 703 483 710 Q447 727 405 732 Q364 738 319 733 Q286 729 254.5 720.5 Q223 712 193 699 Q119 668 62 617 Q46 603 31.5 587.5 Q17 572 5 553 Q1 546 -2.5 539.5 Q-6 533 -8 525 Q-13 511 -7 501 Q-12 498 -14 503 Q-16 506 -18 512 Q-18 520 -15 528 Q-8 551 10 574 Q23 592 38.5 607.5 Q54 623 71 637 Q162 710 272 735 L299 741 Q319 745 342 746 Q362 747 387 745.5 Q412 744 438 737 Q446 735 455 732.5 Q464 730 472 727 Q492 719 509.5 708 Q527 697 541 682 Q572 651 579 611 Z " />
<glyph glyph-name="T" unicode="T" horiz-adv-x="188" d="M89 652 Q91 656 92.5 660 Q94 664 96 668 Q100 674 103.5 680 Q107 686 112 691 Q118 697 124 697 Q128 698 130 694 Q133 691 129 691 Q119 691 112 678 Q100 661 96 645 Q87 611 114 600 Q125 595 135.5 594 Q146 593 157 594 Q175 596 193.5 600 Q212 604 231 609 Q266 619 300.5 630.5 Q335 642 370 653 Q388 659 406 665 Q424 671 442 676 Q446 677 448 681 Q448 682 447 683 Q446 686 448 688 Q458 699 468 709 Q478 719 489 730 Q492 735 496 731 Q501 726 497 721 Q491 713 484.5 704.5 Q478 696 472 688 Q471 687 471 686.5 Q471 686 469 685 Q474 686 478 687 Q482 688 486 689 Q524 700 563 709 Q602 718 641 724 Q681 730 724 730 Q757 730 784 723 Q807 717 823 698 Q843 671 827 637 Q822 626 814 616 Q806 606 798 597 Q776 574 751.5 557 Q727 540 701 527 Q668 510 635 503 Q628 502 621.5 501 Q615 500 609 502 Q603 502 599 505 Q596 507 594 510 Q592 514 595 517 Q600 523 606 525 Q609 526 611.5 526 Q614 526 616 527 Q621 527 621 523 Q621 520 619 520 Q617 519 611 519 Q605 517 601 511 Q606 510 611 510.5 Q616 511 621 512 Q652 520 687 538 Q718 554 750 579 Q764 591 778 604 Q792 617 803 633 Q816 647 820 665 Q825 682 814 693 Q802 703 787 708 Q770 713 751.5 714.5 Q733 716 714 716 Q679 715 643.5 710 Q608 705 573 697 Q544 691 516 683 Q488 675 459 667 Q455 667 453 663 Q412 610 374 556.5 Q336 503 299 447 Q270 404 242 361 Q214 318 187 273 Q167 238 146.5 204.5 Q126 171 105 136 L9 -29 Q-5 -55 -19.5 -80.5 Q-34 -106 -48 -132 Q-53 -142 -58 -152.5 Q-63 -163 -68 -174 Q-71 -180 -67 -184 Q-67 -185 -66.5 -185.5 Q-66 -186 -66 -187 Q-68 -188 -68 -188 Q-72 -190 -77 -186.5 Q-82 -183 -80 -176 Q-76 -162 -68 -148 Q-52 -115 -34.5 -83 Q-17 -51 2 -19 Q25 22 48.5 62 Q72 102 96 143 Q113 172 130 201 Q147 230 164 259 Q181 289 199 318.5 Q217 348 236 378 Q291 466 353 552 Q371 578 389.5 603 Q408 628 427 654 Q428 656 431 659 Q424 657 417.5 655 Q411 653 404 651 Q366 639 327.5 627 Q289 615 250 603 Q231 598 212.5 593.5 Q194 589 174 587 Q162 585 150 585.5 Q138 586 126 589 Q108 592 97 605 Q84 620 87 642 L87 645 Q89 649 89 652 Z " />
<glyph glyph-name="U" unicode="U" horiz-adv-x="464" d="M745 688 Q752 686 746 680 Q734 663 721.5 645.5 Q709 628 697 611 Q660 560 625.5 509 Q591 458 558 407 Q520 348 485 290 Q450 232 417 172 Q391 126 368 80.5 Q345 35 322 -11 Q309 -38 296 -65 Q283 -92 271 -120 Q263 -137 256 -153.5 Q249 -170 242 -187 Q240 -193 238 -199.5 Q236 -206 234 -212 Q233 -214 236 -215 Q240 -215 240 -220 Q239 -224 232 -226 Q227 -228 223 -227 Q219 -226 219 -221 Q219 -217 219.5 -214 Q220 -211 221 -207 Q225 -193 230.5 -180 Q236 -167 241 -153 Q254 -123 267.5 -92.5 Q281 -62 296 -32 Q319 17 343.5 65.5 Q368 114 394 163 Q428 227 465.5 290.5 Q503 354 545 418 Q566 450 588 483 Q610 516 633 548 Q633 548 634 550 Q626 540 617 530.5 Q608 521 600 510 Q577 484 555 457 Q533 430 510 403 Q489 377 467.5 351.5 Q446 326 425 300 L269 111 Q227 61 182 12 Q165 -5 147.5 -22.5 Q130 -40 110 -55 Q99 -63 88.5 -70.5 Q78 -78 66 -83 Q54 -88 43.5 -88.5 Q33 -89 25 -84 Q14 -79 11 -63 Q7 -45 10 -22 Q13 6 20.5 34.5 Q28 63 39 92 Q56 140 78 188 Q100 236 123 285 Q155 349 191 412.5 Q227 476 265 539 Q287 575 310 610 Q333 645 358 680 Q366 691 375 703 Q384 715 393 727 Q395 729 396.5 730.5 Q398 732 400 734 Q404 738 409 738 Q414 737 414 733 Q413 728 410.5 727 Q408 726 406 726 Q404 723 401 719.5 Q398 716 396 712 Q382 692 368.5 672.5 Q355 653 342 633 Q324 606 307.5 579.5 Q291 553 274 526 Q242 472 212.5 419.5 Q183 367 155 313 Q135 273 117 233.5 Q99 194 82 154 Q63 109 48 62 Q36 27 30 -7 Q28 -21 27.5 -33.5 Q27 -46 29 -58 Q33 -68 36 -72 Q45 -86 68 -75 Q79 -70 88 -63.5 Q97 -57 106 -49 Q123 -35 139 -19.5 Q155 -4 170 13 Q201 45 229 78 Q257 111 286 145 Q311 176 336 206 Q361 236 386 267 Q414 301 441.5 334 Q469 367 497 400 L683 622 L734 685 Q737 688 740 688 L745 688 L745 688 Z " />
<glyph glyph-name="W" unicode="W" horiz-adv-x="819" d="M445 718 Q437 711 429 705 Q421 699 413 691 Q405 684 398 677 Q391 670 383 663 Q377 657 374 661 Q372 662 375 665 Q390 680 405 694.5 Q420 709 437 722 Q439 723 440.5 724 Q442 725 444 726 Q450 729 454 725 Q458 723 456 716 Q454 708 450 701 Q446 694 441 687 Q410 639 379 591 Q348 543 317 495 Q278 432 242 369.5 Q206 307 173 241 Q150 196 128 152 Q106 108 86 63 Q75 39 65.5 15 Q56 -9 48 -34 Q44 -45 41.5 -57 Q39 -69 38 -81 Q36 -89 39 -96 Q41 -95 41.5 -94 Q42 -93 44 -92 Q52 -85 59 -77.5 Q66 -70 73 -62 Q92 -38 111 -13.5 Q130 11 149 35 Q164 54 178.5 73 Q193 92 208 112 Q231 142 255 172.5 Q279 203 302 234 Q340 281 376.5 327.5 Q413 374 450 422 Q470 447 489.5 471.5 Q509 496 529 521 Q535 529 539 532 Q545 538 553 534 Q561 529 557 522 Q553 509 546 494 Q521 439 497.5 384 Q474 329 452 272 Q438 233 424 194 Q410 155 398 114 Q389 85 381 55.5 Q373 26 367 -4 Q363 -24 360.5 -45 Q358 -66 356 -87 Q356 -104 357 -119.5 Q358 -135 364 -151 Q366 -155 367.5 -159 Q369 -163 371 -167 Q387 -189 417 -182 Q428 -179 437.5 -174 Q447 -169 457 -163 Q474 -152 490.5 -139.5 Q507 -127 522 -113 Q548 -89 572 -63.5 Q596 -38 619 -11 Q657 35 693 82 Q729 129 764 178 Q790 216 815.5 254.5 Q841 293 864 333 Q896 384 920 439 Q942 483 957 533 Q962 551 965.5 569 Q969 587 971 606 Q974 651 954 692 Q952 694 951.5 695.5 Q951 697 949 698 Q948 698 946 700 Q942 710 941 715 Q940 719 944 719 Q948 718 950 714 L962 693 Q967 683 971 673 Q975 663 978 652 Q986 618 980 578 Q975 545 965 513.5 Q955 482 941 451 Q926 416 908 382 Q886 339 860.5 298.5 Q835 258 808 217 Q779 172 747.5 129.5 Q716 87 683 45 Q660 16 636 -13 Q612 -42 586 -69 Q565 -91 543 -111.5 Q521 -132 496 -150 Q482 -161 467 -170 Q452 -179 435 -185 Q426 -188 417 -190 Q408 -192 399 -192 Q365 -192 351 -163 Q345 -152 342.5 -139.5 Q340 -127 339 -114 Q337 -91 339 -69.5 Q341 -48 345 -25 Q353 21 365 65 Q377 109 391 154 Q414 226 441.5 295.5 Q469 365 500 434 Q512 462 526 492 L526 495 Q525 494 525 493.5 Q525 493 524 492 Q509 474 494.5 456 Q480 438 465 419 Q432 377 399 335.5 Q366 294 333 252 Q304 215 275 178 Q246 141 217 103 Q187 65 158 27.5 Q129 -10 99 -48 Q91 -59 82 -68.5 Q73 -78 63 -89 Q61 -92 57.5 -94.5 Q54 -97 51 -99 Q48 -102 40 -104 Q23 -107 23 -89 Q23 -78 25 -68.5 Q27 -59 29 -48 Q38 -14 50.5 19 Q63 52 77 84 Q99 133 122.5 180 Q146 227 171 275 Q191 313 212.5 350.5 Q234 388 257 426 Q286 474 315 520 Q344 566 375 611 Q388 629 400 647 Q412 665 424 683 Q429 691 434 698.5 Q439 706 444 714 Q445 715 445 717 L445 718 Z " />
<glyph glyph-name="V" unicode="V" horiz-adv-x="464" d="M851 701 L839 689 Q823 674 809.5 657.5 Q796 641 782 624 Q778 619 774 613.5 Q770 608 765 603 Q762 599 759 601 Q753 604 759 608 Q776 631 794.5 654 Q813 677 834 698 Q852 717 870 730 Q878 735 883 731 Q888 727 885 720 Q880 713 874.5 706.5 Q869 700 864 694 Q807 628 750 562.5 Q693 497 636 431 Q602 392 567.5 353 Q533 314 499 274 Q461 231 423 188 Q385 145 347 102 Q315 66 283.5 30 Q252 -6 219 -41 Q197 -66 173.5 -89.5 Q150 -113 125 -136 Q112 -147 98.5 -157.5 Q85 -168 70 -176 Q63 -180 56 -183 Q49 -186 41 -187 Q11 -190 2 -167 Q-1 -159 -2 -150.5 Q-3 -142 -5 -133 Q-4 -121 -3 -109 Q-2 -97 0 -86 Q1 -75 3 -64 Q5 -53 8 -42 Q13 -26 17 -10.5 Q21 5 26 21 Q34 47 44 73.5 Q54 100 65 126 Q82 168 100 209 Q118 250 138 292 Q165 349 193 405 Q221 461 249 518 Q262 546 275.5 573.5 Q289 601 302 629 Q309 643 313.5 655.5 Q318 668 322 682 Q324 688 325 694 Q326 700 325 706 Q323 714 319.5 716.5 Q316 719 306 717 Q294 714 277 704 Q263 694 248.5 683 Q234 672 221 659 Q219 657 217.5 654 Q216 651 214 648 Q211 645 207 647 Q204 650 205 652 Q209 657 212.5 661 Q216 665 221 670 Q235 683 249 694 Q263 705 280 714 Q294 722 305 725 Q327 728 334 710 Q335 704 335.5 698 Q336 692 335 685 Q333 675 330 665.5 Q327 656 324 646 Q312 614 298 584 Q284 554 269 523 Q251 485 232.5 448 Q214 411 196 373 Q170 322 147 271 Q124 220 101 167 Q84 128 69 89 Q54 50 42 10 Q31 -21 24 -51 Q19 -68 16 -85.5 Q13 -103 13 -120 Q12 -131 12.5 -141.5 Q13 -152 17 -162 Q21 -170 25 -174 Q31 -182 43 -177 Q51 -175 58 -170.5 Q65 -166 73 -161 Q87 -152 99 -140.5 Q111 -129 125 -117 Q154 -90 180.5 -61.5 Q207 -33 233 -4 Q287 56 339.5 116.5 Q392 177 446 237 Q509 309 571.5 380 Q634 451 697 523 Q726 557 756 590.5 Q786 624 815 658 Q824 669 833 678.5 Q842 688 851 699 L851 701 Z " />
<glyph glyph-name="X" unicode="X" horiz-adv-x="485" d="M577 737 Q581 735 580 731 L577 725 L576 724 L572 724 Q567 718 561 711.5 Q555 705 550 698 Q521 662 491 625.5 Q461 589 432 552 Q378 485 325.5 418.5 Q273 352 219 286 L216 280 L198 193 Q193 164 187.5 134 Q182 104 178 75 Q176 56 174 37.5 Q172 19 171 0 Q170 -22 171 -43.5 Q172 -65 177 -85 Q179 -93 181.5 -101 Q184 -109 189 -117 Q195 -125 198 -128 Q199 -128 199 -129 Q201 -131 203 -132 Q212 -138 223.5 -135 Q235 -132 246 -124.5 Q257 -117 266.5 -107 Q276 -97 282 -90 Q285 -87 289 -81 Q338 -21 386.5 39.5 Q435 100 484 160 Q487 165 491.5 161 Q496 157 492 152 Q475 130 457.5 109 Q440 88 423 67 Q391 26 358.5 -13.5 Q326 -53 294 -94 Q291 -98 283 -106.5 Q275 -115 264 -123.5 Q253 -132 240 -138.5 Q227 -145 214 -144 L213 -144 Q196 -143 185 -131 Q179 -126 175 -119 Q171 -112 167 -104 Q162 -92 160 -78.5 Q158 -65 156 -51 Q153 -15 156 22 Q158 60 163.5 98.5 Q169 137 177 175 Q181 194 184.5 213 Q188 232 192 251 L192 252 Q189 251 188 248 Q168 225 148.5 201.5 Q129 178 109 154 Q69 108 28 63 Q-13 18 -56 -27 Q-87 -59 -117.5 -92 Q-148 -125 -179 -157 Q-187 -166 -196 -174.5 Q-205 -183 -213 -192 Q-217 -196 -220 -198 Q-224 -202 -225.5 -202 Q-227 -202 -231 -199 L-232 -199 L-232 -198 Q-230 -196 -228.5 -195.5 Q-227 -195 -225 -193 Q-213 -180 -200.5 -168 Q-188 -156 -176 -143 Q-95 -58 -19 28 Q57 114 131 204 Q147 223 162.5 242 Q178 261 195 280 Q199 285 201 293 Q203 299 203.5 305 Q204 311 206 316 Q209 330 212 342.5 Q215 355 217 368 Q221 386 225 403.5 Q229 421 232 438 Q237 464 242.5 488.5 Q248 513 253 539 Q256 556 258.5 573 Q261 590 263 607 Q265 626 266 644 Q267 662 265 680 Q263 696 259 709 Q254 721 248 727 Q234 741 214 738 Q191 735 173 725 Q128 699 98 659 Q95 656 95 654 Q89 646 90 640 Q84 639 83 643 Q83 649 85 651 Q88 658 94 666 Q123 704 163 728 Q183 739 206 744 Q238 748 258 727 Q270 712 275 690 Q277 677 278 664 Q279 651 279 637 Q278 605 274 573.5 Q270 542 264 510 Q260 488 256 467 Q252 446 247 424 Q243 407 239.5 390 Q236 373 233 356 Q231 348 229.5 340.5 Q228 333 226 325 Q225 323 225 321 Q225 319 224 316 Q226 318 227 319 Q228 320 229 322 L367 493 Q399 531 429.5 569.5 Q460 608 492 646 Q509 667 527 688 Q545 709 565 729 Q567 732 571 736 Q574 739 577 737 Z " />
<glyph glyph-name="Y" unicode="Y" horiz-adv-x="341" d="M534 619 Q534 617 534.5 616 Q535 615 534 613 Q533 611 532.5 608 Q532 605 531 603 Q521 584 512 565.5 Q503 547 494 529 Q459 460 423 392.5 Q387 325 347 259 Q313 202 276.5 146 Q240 90 200 36 Q193 26 181 10 Q169 -6 153.5 -24.5 Q138 -43 121 -63 Q104 -83 87 -100 Q85 -101 84.5 -102 Q84 -103 82 -105 Q75 -111 69.5 -117 Q64 -123 56 -128 Q40 -143 22.5 -155.5 Q5 -168 -15 -177 Q-26 -182 -36.5 -185 Q-47 -188 -59 -190 Q-76 -192 -90 -188.5 Q-104 -185 -116 -174 Q-133 -157 -131.5 -133 Q-130 -109 -109 -87 Q-95 -73 -76 -62 Q-44 -43 -5 -37 Q9 -34 23.5 -33 Q38 -32 52 -32 L122 -32 Q127 -32 130 -27 Q161 11 189.5 50 Q218 89 245 129 Q287 191 324 253.5 Q361 316 397 380 Q425 430 452.5 480 Q480 530 506 581 Q509 586 511 589.5 Q513 593 515 598 L514 598 Q512 597 510 593 Q468 546 425 496 Q381 447 338.5 398 Q296 349 253 300 Q232 276 210 252.5 Q188 229 164 206 Q153 195 142 185.5 Q131 176 118 168 Q107 160 95 157 Q64 147 55 174 Q53 181 52.5 188.5 Q52 196 52 204 Q53 219 55.5 233.5 Q58 248 63 263 Q77 314 101 367 Q130 430 162.5 490 Q195 550 232 609 Q248 635 264.5 660.5 Q281 686 299 711 Q302 717 306 721 Q308 725 313 723 Q317 720 314 716 Q312 711 308.5 706 Q305 701 303 696 Q280 659 257 622 Q234 585 212 547 Q186 500 161.5 453.5 Q137 407 115 358 Q95 313 79 265 Q75 250 72 235 Q69 220 67 205 Q67 197 67 190 Q67 183 69 176 Q71 171 74 166 Q78 159 88 162 Q99 165 109 172 Q119 178 127.5 185 Q136 192 145 200 Q165 217 182.5 235.5 Q200 254 217 273 Q249 308 279.5 344 Q310 380 341 415 Q382 461 422 507 Q462 553 503 599 Q508 604 512.5 609 Q517 614 522 619 Q529 626 534 619 Z M118 -42 Q120 -40 120 -39 Q119 -39 118 -38.5 Q117 -38 116 -38 Q102 -38 88 -38 Q74 -38 60 -39 Q45 -39 30 -40 Q15 -41 1 -44 Q-16 -47 -32 -52 Q-48 -57 -62 -65 Q-83 -75 -99 -93 Q-110 -106 -115.5 -119.5 Q-121 -133 -117 -148 Q-112 -165 -97 -175.5 Q-82 -186 -59 -182 Q-45 -180 -31.5 -174 Q-18 -168 -6 -160 Q5 -153 15.5 -145.5 Q26 -138 35 -129 Q58 -109 78 -87 Q98 -65 118 -42 Z " />
<glyph glyph-name="Z" unicode="Z" horiz-adv-x="404" d="M530 651 Q532 643 532 628 Q532 613 523 594 Q517 581 510 572 Q508 570 508 569 Q500 558 492 549.5 Q484 541 478 535 Q470 528 464 522 Q460 517 456 513.5 Q452 510 447 505 Q415 474 381.5 447.5 Q348 421 315 396 Q300 385 285 374.5 Q270 364 256 353 L252 351 L250 349 L249 349 L231 336 Q270 339 301 329 Q327 321 349 298.5 Q371 276 371 230 L371 227 L371 221 L371 217 L371 214 Q371 213 370.5 213 Q370 213 370 212 L370 211 L370 208 Q367 185 359 159 Q342 108 311 64 Q296 41 279 21.5 Q262 2 244 -15 Q178 -81 109 -115 Q88 -126 66.5 -132 Q45 -138 25 -138 Q-7 -140 -29 -122 Q-37 -114 -43.5 -104 Q-50 -94 -53 -80 Q-56 -61 -52.5 -41 Q-49 -21 -41 -1 Q-30 26 -15 47 Q0 68 17 85 Q34 102 51.5 114.5 Q69 127 87 138 Q103 148 118.5 156 Q134 164 150 172 L151 172 Q153 173 154.5 174 Q156 175 158 176 Q166 180 178.5 186 Q191 192 208 200 Q240 214 268 225 Q296 236 316 244 Q340 253 359 258 Q359 261 357 265 Q349 288 329 303 Q317 312 303 317 Q289 322 274 324 Q262 326 249.5 326 Q237 326 224 326 Q216 326 216 338 Q215 345 220 349 Q222 351 225 353 Q228 355 230 357 Q261 380 291 402.5 Q321 425 352 448 Q375 465 398 484 Q421 503 444 525 Q458 539 472 553 Q486 567 499 584 Q503 590 506 593 Q509 598 514 607 Q519 616 521.5 625.5 Q524 635 523.5 645.5 Q523 656 516 664 Q510 670 506 672 Q494 680 480 681 Q466 682 450 680 Q396 673 338 624 Q329 616 320 607 Q311 598 303 587 L301 585 Q297 578 293.5 571.5 Q290 565 291 556 Q287 555 286 559 Q285 562 285.5 565 Q286 568 287 573 Q290 583 296 590 Q303 601 310.5 609.5 Q318 618 326 626 L344 641 Q355 650 375.5 662.5 Q396 675 423 683 L424 683 L426 683 Q427 684 429 684 L430 684 Q431 685 434 685 L434 686 Q460 691 476.5 689 Q493 687 504 681 Q517 674 522.5 665.5 Q528 657 530 651 Z M360 207 Q364 230 361 249 Q350 246 299 227.5 Q248 209 176 174 L175 173 Q140 157 104 136 Q87 125 70.5 113.5 Q54 102 37 88 Q22 74 8 57.5 Q-6 41 -19 21 Q-26 8 -31.5 -4.5 Q-37 -17 -41 -31 Q-53 -78 -34 -101 Q-26 -112 -11 -117 Q3 -122 18.5 -122 Q34 -122 51 -118 Q76 -112 100 -99.5 Q124 -87 148 -70 Q222 -20 287 61 Q300 78 312 96.5 Q324 115 335 136 Q344 153 350.5 170.5 Q357 188 360 207 Z " />
<glyph glyph-name="zero" unicode="0" horiz-adv-x="181" d="M-37 76 Q-31 102 -15 134 Q-4 155 8 175 Q20 195 35 213 Q46 226 57 234 Q62 239 67 236 Q69 234 69 232 Q69 231 68 230 Q67 229 66 230 Q64 231 62 229 Q55 223 49.5 216 Q44 209 39 201 Q13 166 -5 128 Q-10 117 -14 107 Q-18 97 -22 86 Q-25 76 -27 66 Q-29 56 -28 46 Q-27 43 -27 40.5 Q-27 38 -26 35 Q-22 23 -7 26 Q1 28 9.5 32.5 Q18 37 26 42 Q38 50 49 61 Q60 72 71 83 Q84 98 95 114.5 Q106 131 117 148 Q125 162 132.5 175.5 Q140 189 146 203 Q156 225 161 248 Q161 253 161.5 257 Q162 261 161 265 Q156 287 133 281 Q122 278 106 268 Q100 264 97 261 Q94 259 91 256.5 Q88 254 86 250 Q81 245 78 248 Q75 249 78 252 Q79 253 79 254 Q89 265 100 273.5 Q111 282 125 287 Q145 293 159 282 Q173 271 171 250 Q170 234 163 216 Q139 155 100 103 Q72 65 39 41 Q29 34 19.5 28.5 Q10 23 -1 20 Q-12 17 -21 20 Q-37 24 -40 42 Q-41 56 -37 76 Z " />
<glyph glyph-name="one" unicode="1" horiz-adv-x="106" d="M115 271 L100 259 Q99 259 97 257 Q95 256 93 256 Q88 258 93 261 Q99 266 105 270.5 Q111 275 117 280 Q122 283 125 282 Q132 281 129 272 Q127 267 124.5 263 Q122 259 119 255 Q108 236 96 217.5 Q84 199 72 180 Q61 162 49.5 144 Q38 126 27 109 Q13 87 -1 65 Q-15 43 -27 20 Q-28 19 -28 18 Q-28 17 -29 16 Q-31 14 -31 14 Q-36 14 -37 16 Q-38 17 -37 20 Q-29 37 -20 54 Q-11 71 -2 87 Q7 103 17 120 Q31 140 44 161 Q57 182 71 202 Q82 219 92 234.5 Q102 250 113 267 L116 270 L115 271 Z " />
<glyph glyph-name="two" unicode="2" horiz-adv-x="176" d="M-11 37 Q1 36 13 36 Q25 36 36 35 Q45 34 54 33 Q63 32 71 30 Q79 28 86.5 27 Q94 26 102 24 Q105 23 107.5 22.5 Q110 22 113 21 L116 18 Q117 17 116 16 Q116 15 114 15 Q112 14 111.5 14.5 Q111 15 109 15 Q92 19 74.5 21.5 Q57 24 38 26 Q27 27 15 27 Q3 27 -9 28 Q-19 28 -24 27 Q-27 27 -28 26 Q-35 22 -41.5 19 Q-48 16 -54 14 Q-63 14 -66 17 Q-73 22 -64 27 Q-59 31 -55 32 Q-51 33 -46 34 Q-44 35 -41.5 35 Q-39 35 -37 36 Q-35 36 -31 38 Q35 82 85 146 Q97 161 108 176 Q119 191 129 208 Q135 219 140 229.5 Q145 240 148 251 Q149 255 149.5 258 Q150 261 150 265 Q150 271 143 273 Q135 274 123 269 Q97 255 79 230 Q77 228 75 224 Q75 222 73 222 Q68 222 70 228 Q72 233 74.5 237 Q77 241 81 246 Q100 268 121 278 Q136 286 148 280 Q165 271 159 244 Q156 230 150 217.5 Q144 205 136 193 Q118 163 96 136 Q74 109 49 86 Q35 73 20.5 61 Q6 49 -9 38 Q-10 38 -11 37 Z " />
<glyph glyph-name="three" unicode="3" horiz-adv-x="170" d="M134 283 Q147 278 143 266 Q142 262 138 254 Q128 241 117 231 Q96 210 67 189 Q61 185 58 182 L57 181 Q62 179 65.5 178 Q69 177 73 175 Q90 168 100 150 Q110 129 101 108 Q94 89 84 72.5 Q74 56 59 42 Q37 22 12 19 L8 19 L6 19 Q-1 19 -4 20 Q-18 23 -21.5 35 Q-25 47 -26 53 L-26 60 Q-25 68 -23 74.5 Q-21 81 -14 86 Q-11 89 -7 87 Q-4 87 -7 84 Q-15 76 -16 66 L-16 54 Q-16 53 -15 49 Q-14 45 -11.5 40 Q-9 35 -5 31 Q-1 27 5 27 Q10 27 12 28 L13 28 Q31 33 45 48 Q56 59 64.5 72.5 Q73 86 80 100 Q83 108 85.5 114.5 Q88 121 89 129 Q89 158 65 169 Q61 171 51 173 Q45 175 42 177 Q36 181 43 187 Q53 197 65 206 Q77 216 88.5 225 Q100 234 111 245 Q116 250 120.5 254.5 Q125 259 128 265 Q130 267 132 273 Q133 277 130 276 Q126 276 118 274 Q110 272 103 268 Q96 264 88 259 Q80 253 72 247 Q64 241 57 233 Q54 231 52 233 Q50 234 51 237 L52 238 Q54 240 60 247 Q66 254 80 263 Q93 273 110 280 Q123 286 134 283 Z " />
<glyph glyph-name="four" unicode="4" horiz-adv-x="142" d="M88 195 Q86 192 83 189.5 Q80 187 78 185 Q65 174 53 167 Q48 165 43.5 163 Q39 161 34 162 Q11 162 16 184 Q18 191 21 197 Q24 203 28 209 Q51 244 84 275 Q86 277 89 279.5 Q92 282 95 284 Q98 287 103 285 Q104 283 102 281 Q98 277 94.5 273 Q91 269 87 264 Q74 250 62 235 Q50 220 40 203 Q36 197 33.5 191.5 Q31 186 29 180 Q29 174 30 171 Q30 169 34 169 Q39 171 44 173.5 Q49 176 54 179 Q63 185 70.5 192 Q78 199 86 207 Q110 230 127 252 Q133 260 138.5 267 Q144 274 149 282 Q150 284 151 284.5 Q152 285 153 287 Q155 289 157 289 Q162 289 165 285 Q165 282 164 281 Q150 261 137 240.5 Q124 220 111 200 Q99 181 88 163 Q77 145 66 126 Q51 100 36 74.5 Q21 49 7 23 L-2 8 Q-4 5 -5 5 Q-6 4 -9 4 Q-17 5 -13 12 Q-5 26 1.5 39 Q8 52 16 66 Q27 85 36.5 103.5 Q46 122 57 141 L87 192 Q89 194 89 194 Q89 195 88 195 Z " />
<glyph glyph-name="five" unicode="5" horiz-adv-x="184" d="M38 161 Q42 163 42 163 Q57 169 71.5 174 Q86 179 101 184 Q107 186 113 186 Q119 186 124 184 Q141 178 139 158 Q138 149 135 140 Q132 131 127 123 Q102 76 64 44 Q46 29 24 21 Q14 18 5 21 Q-4 24 -3 35 Q2 61 17 80 L24 87 Q29 91 34.5 90.5 Q40 90 42 87 Q43 85 43 82 Q42 82 41 81.5 Q40 81 39 81 Q38 81 36 83 Q35 84 32 83 Q25 76 21 69 Q11 52 10 34 Q9 27 16 29 Q26 33 34.5 38.5 Q43 44 51 52 Q67 66 80 82.5 Q93 99 105 117 Q110 125 114.5 133.5 Q119 142 122 151 Q125 158 125 166 Q125 174 122.5 176 Q120 178 112 177 Q103 175 93.5 172 Q84 169 75 165 L39 150 L33 147 Q26 145 22 148 Q16 151 20 158 Q23 163 26.5 168.5 Q30 174 34 179 L88 257 Q89 258 89 258.5 Q89 259 90 260 L78 257 Q73 257 71 260 Q67 262 72 264 Q78 266 84 268 Q90 270 96 272 Q99 273 100 276 Q101 277 101 277 Q104 281 106 281 Q111 281 111 278 Q112 276 113 277 Q149 283 182 283 Q190 283 193 282 Q196 281 200 277 Q202 275 200 273 Q198 270 195 270 Q191 272 190 273 Q188 275 186 275 Q177 274 168 273.5 Q159 273 149 272 Q139 270 129 268.5 Q119 267 109 265 Q106 265 104 261 Q96 248 87.5 235 Q79 222 71 209 Q63 198 55.5 186.5 Q48 175 40 164 Q40 163 38 161 Z " />
<glyph glyph-name="six" unicode="6" horiz-adv-x="164" d="M11 92 Q16 97 20 101.5 Q24 106 28 111 Q39 123 50 134 Q61 145 73 156 Q83 164 93 170 Q104 177 113.5 171.5 Q123 166 121 152 Q119 143 116 134.5 Q113 126 108 118 Q97 98 83.5 79 Q70 60 54 43 Q44 32 30 24 Q14 15 1 20.5 Q-12 26 -14 40 Q-17 54 -12 70 Q-6 95 8 124 Q35 176 74 223 Q85 236 96.5 247.5 Q108 259 122 270 Q128 274 133.5 277 Q139 280 146 282 Q157 284 162 279 Q171 273 163 260 Q162 258 158 254 Q158 252 156 252 Q149 252 153 259 Q157 267 158 271 Q160 276 154 274 Q149 273 145.5 271 Q142 269 138 267 Q130 261 122.5 254 Q115 247 107 239 Q89 220 74 199.5 Q59 179 45 157 Q35 141 27 126 Q19 111 12 94 Q12 93 11 92 Z M110 152 L110 159 Q110 165 108.5 165.5 Q107 166 101 163 Q94 160 88 155.5 Q82 151 76 146 Q65 136 55 125.5 Q45 115 34 104 Q27 96 20.5 88.5 Q14 81 8 72 Q6 68 4 64.5 Q2 61 1 57 Q1 54 0.5 51 Q0 48 0 46 Q0 37 3 31 Q6 26 12 28 Q16 29 19.5 31 Q23 33 27 35 Q35 40 41.5 46.5 Q48 53 54 60 Q78 87 95 118 Q100 126 104 134 Q108 142 110 152 Z " />
<glyph glyph-name="seven" unicode="7" horiz-adv-x="164" d="M153 280 Q163 273 156 262 Q153 256 149 250.5 Q145 245 141 240 Q127 222 113 204 Q99 186 85 168 L82 165 L90 165 Q100 166 109.5 166.5 Q119 167 129 167 Q130 167 130 167.5 Q130 168 131 168 Q133 167 133.5 167 Q134 167 136 166 L136 165 L136 163 Q136 163 134 162 Q129 161 124 161 Q119 161 114 160 Q105 159 96.5 159 Q88 159 79 158 Q78 158 76 156 Q63 139 51 122.5 Q39 106 28 89 Q20 76 12 64 Q4 52 -4 39 L-13 23 Q-13 19 -16 19 Q-21 17 -25 21 L-25 22 Q-27 23 -27 26 Q-27 27 -26 29 L-22 34 L-22 35 Q-20 38 -18.5 40.5 Q-17 43 -15 46 Q-14 48 -13 50 Q-12 52 -10 54 Q-10 55 -9 56 L27 113 Q35 124 41.5 133.5 Q48 143 56 154 Q56 154 58 156 Q45 156 40 155 Q34 155 28.5 154.5 Q23 154 18 154 Q15 154 13 156 Q13 159 15 159 Q17 160 20 160 Q23 160 25 161 Q34 161 43 161.5 Q52 162 60 163 Q62 163 64 165 Q92 204 124 240 Q129 246 134 252.5 Q139 259 144 265 Q146 267 147 269 Q148 271 150 274 Q146 274 144 275 Q136 276 127.5 275.5 Q119 275 111 274 Q102 273 92.5 272.5 Q83 272 74 271 Q66 271 65 275 Q63 276 65 278 Q65 278 67 279 Q73 279 79.5 279.5 Q86 280 92 281 Q104 282 116 283 Q128 284 139 284 Q143 283 146.5 282.5 Q150 282 153 280 Z " />
<glyph glyph-name="eight" unicode="8" horiz-adv-x="156" d="M30 122 Q29 126 28 129.5 Q27 133 27 136 Q26 149 34 162 Q39 173 46.5 182.5 Q54 192 62 201 Q83 224 106 245 Q115 253 124 260.5 Q133 268 142 276 L151 282 Q158 286 164 282.5 Q170 279 168 272 Q166 261 161 253 L137 214 Q129 201 121 189 Q113 177 105 164 Q97 153 90.5 141.5 Q84 130 76 118 Q73 113 69 107 Q67 103 70 100 Q73 97 76.5 94 Q80 91 82 88 Q91 75 77 61 Q69 53 56 45 Q24 28 -7 19 Q-15 17 -21.5 17 Q-28 17 -35 20 Q-51 26 -45 43 Q-41 54 -31 66 Q-7 98 25 119 Q29 121 30 122 Z M36 115 Q35 114 35 114 Q28 108 22 102.5 Q16 97 9 91 Q-10 72 -25 51 Q-27 46 -29 41.5 Q-31 37 -32 32 Q-32 26 -26 26 Q-24 26 -22.5 26.5 Q-21 27 -19 27 Q0 31 17.5 38.5 Q35 46 52 57 Q61 63 67 72 Q72 78 69.5 86 Q67 94 59 95 Q54 96 53 101 L52 102 Q48 106 44 108.5 Q40 111 36 115 Z M151 265 L151 266 Q149 265 146 262 Q138 255 129.5 248 Q121 241 113 233 Q102 223 91.5 212 Q81 201 71 190 Q63 181 57 172 Q51 163 46 153 Q41 141 41 133 Q42 125 46.5 120 Q51 115 57 110 Q101 188 151 265 Z " />
<glyph glyph-name="nine" unicode="9" horiz-adv-x="172" d="M176 259 Q180 256 177 251 Q172 242 166 232.5 Q160 223 155 214 Q145 197 136 180 Q127 163 117 146 Q106 126 93 107 Q80 88 65 70 Q53 55 38 43 Q17 26 -4 21 Q-17 18 -28 24 L-29 25 Q-43 36 -40 44 Q-37 52 -36 52 Q-35 55 -30 55 Q-28 55 -27 54 Q-26 52 -27 51 L-28 51 Q-28 51 -29 50 Q-31 49 -33 46.5 Q-35 44 -33 39 Q-33 38 -32 38 Q-32 37 -31 36 Q-30 33 -27 32 Q-24 30 -17 28.5 Q-10 27 1 33 Q1 33 3 34 Q6 36 9.5 38.5 Q13 41 16 43 Q31 55 42.5 69 Q54 83 65 98 Q79 117 90.5 137 Q102 157 114 177 Q116 181 118 184.5 Q120 188 122 192 Q106 176 91 165 Q78 155 64.5 147.5 Q51 140 42 142 Q40 142 36 144 Q36 145 34 147 Q34 148 33 148 L33 150 Q30 155 30 161.5 Q30 168 30 170 Q32 185 39 199.5 Q46 214 49 219 Q65 245 86 263 Q92 268 98 273 Q104 278 112 281 Q127 287 139 280 Q145 276 145 270 Q145 265 142 264 Q137 262 136 267 Q136 267 135 269 Q135 276 128 275 Q126 275 123.5 274 Q121 273 119 272 Q113 269 107.5 264.5 Q102 260 97 255 Q64 222 47 178 Q42 164 43 153 Q44 147 45 146.5 Q46 146 52 149 Q65 155 76 166 Q86 175 95 183.5 Q104 192 113 202 Q139 230 163 258 Q166 264 172 261 Q174 261 176 259 Z " />
<glyph glyph-name="asterisk" unicode="&#x2a;" horiz-adv-x="158" d="M123 120 Q117 117 114 117 Q106 117 99 116.5 Q92 116 85 116 L68 116 Q69 108 71 101 Q73 94 73 86 Q75 84 74 82.5 Q73 81 74 79 Q73 77 73.5 76 Q74 75 74 74 Q72 69 68 68 Q66 66 65 67 Q64 68 65 70 L59 94 Q59 99 57.5 103 Q56 107 57 112 Q39 97 22 80 Q20 78 19 76.5 Q18 75 16 73 Q14 72 12.5 71 Q11 70 9 69 Q8 69 5.5 68.5 Q3 68 1 68 Q1 70 5 74 Q11 80 17.5 86.5 Q24 93 32 99 Q35 104 39.5 107.5 Q44 111 47 115 L37 115 Q30 115 23.5 115 Q17 115 11 116 Q11 115 10 115 Q2 117 -1 119 L-1 120 L-1 122 Q1 124 3 124 Q13 126 20 126 L55 126 Q51 131 54 135 Q52 140 51.5 146 Q51 152 48 157 L47 157 Q49 160 49.5 163.5 Q50 167 51 170 Q52 172 53 172.5 Q54 173 55 175 Q56 174 57 174 Q58 174 59 173 Q58 170 59.5 166.5 Q61 163 61 160 Q64 146 64 132 Q70 136 73 140 Q81 146 86 151.5 Q91 157 98 162 L99 163 Q104 168 113 172 Q115 173 118 173 Q117 172 116.5 171 Q116 170 114 169 Q109 161 101 154 Q93 147 86.5 140.5 Q80 134 72 126 Q81 126 89.5 126.5 Q98 127 107 127 L115 127 Q119 125 119 125 Q123 123 123 120 Z " />
<glyph glyph-name="parenleft" unicode="&#x28;" horiz-adv-x="90" d="M380 612 Q385 614 386 609 Q387 604 382 602 Q345 589 312.5 567.5 Q280 546 251 520 Q195 469 152.5 406.5 Q110 344 78 276 Q43 205 22 129 Q17 110 13 91.5 Q9 73 6 54 Q4 37 3.5 18.5 Q3 0 11 -16 Q13 -20 8.5 -22.5 Q4 -25 2 -21 Q-7 -2 -6.5 18.5 Q-6 39 -3 59 Q0 81 5 102.5 Q10 124 16 146 Q27 184 42.5 221 Q58 258 75 294 Q92 329 112.5 362 Q133 395 156 427 Q179 459 204.5 487.5 Q230 516 260 541 Q286 564 316 582.5 Q346 601 380 612 Z " />
<glyph glyph-name="parenright" unicode="&#x29;" horiz-adv-x="106" d="M261 610 Q269 596 271.5 581.5 Q274 567 273 552 Q272 532 268 513 Q264 494 257 475 Q246 440 229.5 406 Q213 372 194 340 Q173 305 150 271 Q127 237 103 205 Q55 140 1 82 Q-13 67 -27 52.5 Q-41 38 -56 24 Q-70 10 -85.5 -2 Q-101 -14 -118 -24 Q-122 -26 -124.5 -21.5 Q-127 -17 -123 -15 Q-103 -4 -87 10 Q-71 24 -55 39 Q-39 54 -23.5 70 Q-8 86 7 103 Q33 132 57 162 Q81 192 104 223 Q153 289 191 356 Q210 388 225.5 421.5 Q241 455 251 490 Q256 506 259.5 522 Q263 538 263 555 Q263 568 261 581 Q259 594 253 605 Q251 609 255 611.5 Q259 614 261 610 Z " />
<glyph glyph-name="hyphen" unicode="&#x2d;" horiz-adv-x="200" d="M19 102 Q11 104 6 106 Q4 106 4 107 Q4 108 3 109 Q5 111 6 111 Q11 112 14.5 112.5 Q18 113 22 113 Q44 113 65.5 113 Q87 113 109 114 L117 114 Q119 113 120 113 Q121 113 123 112 Q124 111 125.5 110 Q127 109 127 107 Q127 104 122 104 Q114 104 107.5 103.5 Q101 103 93 103 Q81 103 69 103 Q57 103 46 102 Q39 102 32.5 102 Q26 102 19 103 L19 102 Z " />
<glyph glyph-name="underscore" unicode="&#x5f;" horiz-adv-x="202" d="M97 45 Q102 45 106.5 45 Q111 45 116 44 Q119 43 125 39 Q127 39 127 36 Q125 34 123 34 L110 34 Q93 34 77 33.5 Q61 33 44 33 L5 33 L-33 33 Q-40 33 -44 37 Q-49 40 -43 42 Q-35 44 -30 45 Q-10 47 9.5 47 Q29 47 49 46 Q61 46 73 46 Q85 46 97 45 Z " />
<glyph glyph-name="plus" unicode="&#x2b;" horiz-adv-x="163" d="M120 108 Q120 105 115 105 Q107 105 100.5 104.5 Q94 104 86 104 L61 104 Q56 95 50.5 86 Q45 77 39 68 Q38 66 37.5 64.5 Q37 63 35 61 L31 57 Q29 57 27.5 56.5 Q26 56 25 56 Q22 57 24 62 Q28 68 31.5 74.5 Q35 81 39 87 Q44 96 49 103 L38 103 Q31 103 25 103 Q19 103 12 104 L12 103 Q4 105 -2 107 Q-2 107 -5 110 Q-1 112 -1 112 Q9 114 15 114 L55 114 Q57 118 59 121 Q61 124 63 128 Q67 134 70 139.5 Q73 145 77 150 L77 151 Q83 157 87 160 Q88 161 91 161 Q91 157 91 157 Q89 153 87.5 149.5 Q86 146 84 142 Q80 135 76 128.5 Q72 122 67 114 Q76 114 84.5 114.5 Q93 115 102 115 L110 115 Q112 114 113 114 Q114 114 116 113 Q119 110 120 108 Z " />
<glyph glyph-name="braceleft" unicode="&#x7b;" horiz-adv-x="108" d="M-13 -15 Q-11 -11 -11 -12 Q-6 -5 -1 -8 Q0 -8 0 -11 Q-4 -19 -13 -21 Q-24 -24 -27 -17 Q-29 -9 -27 0 Q-27 13 -24.5 26.5 Q-22 40 -17 54 Q-13 65 -8.5 75 Q-4 85 1 96 Q11 116 21 135 Q31 154 42 173 Q61 205 86 238 Q93 246 98.5 254.5 Q104 263 111 272 Q113 276 115 278 Q116 281 114 281 Q110 281 104 283 Q91 286 102 298 Q107 303 111 307.5 Q115 312 120 317 Q154 351 177 387 Q187 401 196 416.5 Q205 432 213 448 Q224 468 233.5 487.5 Q243 507 254 527 Q263 542 273.5 556.5 Q284 571 296 584 Q304 592 313.5 597.5 Q323 603 334 608 Q353 613 364 601 Q367 596 365 589 L364 588 Q359 588 359 593 Q359 605 344 602 Q338 601 332 597.5 Q326 594 321 591 Q313 586 307 579.5 Q301 573 296 567 Q285 556 277.5 543 Q270 530 263 517 Q253 497 243 477 Q233 457 223 438 Q211 413 196 390 Q181 367 161 344 Q153 333 143.5 324 Q134 315 124 305 Q121 302 118 299.5 Q115 297 112 294 Q107 288 114 288 Q117 288 123 286 Q132 283 127 274 L115 256 L73 199 Q62 183 52.5 167.5 Q43 152 35 135 Q29 124 23 112 Q17 100 11 88 Q7 80 3.5 70.5 Q0 61 -4 51 Q-9 37 -11.5 24 Q-14 11 -15 -2 Q-15 -5 -14.5 -8 Q-14 -11 -14 -13 Q-13 -14 -13 -15 Z " />
<glyph glyph-name="braceright" unicode="&#x7d;" horiz-adv-x="102" d="M281 566 Q278 553 273.5 542.5 Q269 532 264 522 Q256 505 247.5 489.5 Q239 474 231 458 Q206 416 177 381 Q166 367 156.5 354.5 Q147 342 137 329 Q132 323 128 316.5 Q124 310 121 303 Q116 291 128 285 Q131 282 131 282 Q136 279 131 274 Q130 274 130 273 Q128 271 128 271 Q120 263 113.5 255 Q107 247 100 238 Q86 218 74.5 199 Q63 180 51 160 Q37 134 22 109 Q7 84 -9 58 Q-17 44 -28 31.5 Q-39 19 -50 7 Q-56 1 -61.5 -5.5 Q-67 -12 -73 -19 Q-76 -21 -78.5 -22 Q-81 -23 -85 -22 L-87 -22 Q-89 -20 -87 -20 Q-80 -14 -74.5 -6.5 Q-69 1 -62 8 Q-46 25 -33.5 44.5 Q-21 64 -9 84 Q8 114 26 144.5 Q44 175 61 206 Q69 217 75.5 228 Q82 239 90 250 Q95 255 100 261.5 Q105 268 111 273 Q113 274 114 275 Q115 276 117 278 L117 281 Q111 283 108 286 Q99 295 106 306 Q109 315 114.5 323 Q120 331 126 339 Q138 355 149 369.5 Q160 384 172 399 Q188 419 201 439.5 Q214 460 225 481 Q233 494 239.5 507.5 Q246 521 254 534 Q259 544 263 553 Q267 562 269 571 Q270 576 270 586 Q271 597 256 597 Q249 598 242.5 596 Q236 594 230 592 Q226 590 221.5 588.5 Q217 587 214 583 Q213 582 211 582 Q208 582 208 586 Q207 587 209 589 Q213 593 216 594.5 Q219 596 224 598 Q237 604 250 604 Q281 606 283 581 Q283 576 282 572 Q281 568 281 566 Z " />
<glyph glyph-name="bracketleft" unicode="&#x5b;" horiz-adv-x="118" d="M364 612 Q368 612 368 608 Q368 604 364 604 L339 604 Q334 604 329.5 599.5 Q325 595 323 593 Q323 593 322 591 Q320 588 318 584.5 Q316 581 314 579 Q298 555 282.5 531 Q267 507 252 484 Q238 461 223.5 438.5 Q209 416 195 393 Q181 371 168 348 Q155 325 142 301 Q123 269 104.5 235.5 Q86 202 67 169 Q50 137 32 106 Q14 75 -3 44 Q-8 36 -11.5 28.5 Q-15 21 -19 13 L-29 -9 L-32 -14 L-28 -14 L-24 -14 L2 -14 Q5 -14 5 -18 Q5 -22 2 -22 L-45 -22 Q-46 -22 -48 -20 Q-48 -20 -48 -18 Q-48 -17 -47 -16 L-39 4 Q-37 8 -35.5 11.5 Q-34 15 -32 18 Q-31 21 -30 23 Q-29 25 -27 28 Q-13 56 2 84 Q17 112 33 140 Q57 183 82 226 Q107 269 130 313 Q159 364 189.5 415 Q220 466 253 517 Q265 536 277.5 554.5 Q290 573 303 592 Q305 594 306.5 596.5 Q308 599 310 602 L311 603 Q312 604 312.5 604 Q313 604 315 606 Q317 608 319 609 Q322 610 328 612 L329 612 L330 612 L364 612 L364 612 Z " />
<glyph glyph-name="bracketright" unicode="&#x5d;" horiz-adv-x="115" d="M268 600 L301 600 L302 600 L303 600 Q306 599 308 597 L308 594 Q308 592 307.5 592 Q307 592 307 591 L307 590 Q306 587 306 584.5 Q306 582 304 580 Q295 562 285.5 543.5 Q276 525 267 507 Q240 457 211.5 407 Q183 357 151 307 Q125 264 98 221.5 Q71 179 45 137 Q29 110 12.5 82 Q-4 54 -24 27 Q-26 24 -27 22 Q-28 20 -30 17 Q-32 14 -34.5 10.5 Q-37 7 -39 4 L-54 -16 Q-54 -17 -55 -18 Q-57 -20 -58 -20 Q-64 -22 -64 -22 L-110 -22 Q-113 -22 -108.5 -18 Q-104 -14 -100 -14 L-77 -14 L-71 -14 L-68 -14 L-64 -9 L-49 12 Q-39 26 -29 43 Q-9 73 9.5 103.5 Q28 134 47 165 Q66 198 86.5 230.5 Q107 263 127 295 Q141 318 154.5 341 Q168 364 180 385 Q207 432 229 474 Q242 497 254.5 520.5 Q267 544 278 568 Q280 570 281.5 573 Q283 576 285 579 L285 581 Q286 583 286.5 587.5 Q287 592 283 592 L258 592 Q255 592 260 596 Q265 600 268 600 Z " />
<glyph glyph-name="bar" unicode="&#x7c;" horiz-adv-x="116" d="M-61 -17 Q-59 -13 -57 -9.5 Q-55 -6 -52 -2 Q-41 15 -32 31 Q-23 47 -12 64 Q9 99 30 132.5 Q51 166 72 201 Q92 234 112 268 Q132 302 152 335 Q168 362 184 389 Q200 416 216 444 Q236 477 255.5 510 Q275 543 296 576 Q301 584 305.5 591.5 Q310 599 315 607 Q317 611 317 611 Q318 611 318.5 611.5 Q319 612 320 612 Q325 614 325 609 Q325 608 324.5 607 Q324 606 324 604 Q322 602 321.5 601 Q321 600 320 598 Q301 563 280 528.5 Q259 494 238 459 Q223 432 207 405 Q191 378 176 351 Q151 309 126 268.5 Q101 228 75 186 Q57 157 39.5 130 Q22 103 4 74 Q-8 54 -20.5 34 Q-33 14 -44 -6 Q-50 -14 -51 -19 L-52 -20 Q-57 -23 -62 -20 Q-61 -19 -61 -17 Z " />
<glyph glyph-name="slash" unicode="&#x2f;" horiz-adv-x="206" d="M-78 -19 Q-76 -15 -73 -11 Q-70 -7 -66 -3 Q-52 13 -38.5 29.5 Q-25 46 -11 63 Q18 97 46 131 Q74 165 103 200 Q132 233 159.5 266.5 Q187 300 215 334 Q238 362 259.5 389 Q281 416 302 444 Q329 476 356.5 509 Q384 542 413 575 Q420 583 426 590.5 Q432 598 438 606 Q442 610 442 610 L444 610 Q445 610 445 611 Q447 612 449 611 Q451 610 450 609 Q450 607 449 606 Q448 605 448 603 Q445 602 444 600.5 Q443 599 442 597 Q415 562 386.5 527.5 Q358 493 330 458 Q307 431 285.5 404 Q264 377 241 350 Q208 308 173.5 267.5 Q139 227 103 185 Q79 156 55 128 Q31 100 8 72 Q-10 52 -26.5 32 Q-43 12 -60 -8 Q-63 -11 -65 -14 Q-67 -17 -70 -20 L-71 -21 Q-76 -25 -80 -21 Q-78 -19 -78 -19 Z " />
<glyph glyph-name="backslash" unicode="&#x5c;" horiz-adv-x="421" d="M320 -21 Q320 -17 319 -13.5 Q318 -10 316 -5 Q314 11 310.5 27.5 Q307 44 305 61 Q299 96 293 129.5 Q287 163 281 198 Q275 232 268.5 266 Q262 300 255 334 Q250 361 244 388 Q238 415 233 443 Q227 476 221 509.5 Q215 543 209 576 Q207 584 206.5 591.5 Q206 599 204 607 L204 611 Q204 612 205 612 Q208 614 213 609 Q214 608 216 604 Q214 602 215 601 Q216 600 216 598 Q224 563 230.5 528 Q237 493 245 458 Q250 431 255.5 403.5 Q261 376 266 349 Q274 307 282 266 Q290 225 295 183 Q300 155 304.5 127 Q309 99 314 70 Q317 50 320 30 Q323 10 327 -10 Q327 -13 328 -16 Q329 -19 331 -23 Q331 -24 330 -24 Q329 -26 321 -24 Q320 -23 320 -21 Z " />
<glyph glyph-name="question" unicode="&#x3f;" horiz-adv-x="278" d="M401 601 Q387 600 372 596 Q357 592 343 587 Q323 580 305 569.5 Q287 559 268 545 Q254 534 240 522.5 Q226 511 214 497 Q197 479 188 456 Q185 448 184 442 Q183 436 185 428 Q185 427 187 427 Q188 426 188 425.5 Q188 425 189 424 Q188 424 187.5 423.5 Q187 423 186 423 Q180 422 177 426 Q175 428 174.5 431.5 Q174 435 173 438 Q172 448 179 464 Q189 489 211 512 Q271 570 341 598 Q362 606 387 608 Q421 612 444 595 Q457 586 460.5 573 Q464 560 462 543 Q458 519 442 492 Q433 477 421.5 462 Q410 447 398 433 Q382 414 364.5 396 Q347 378 330 360 Q304 333 277 305.5 Q250 278 222 250 Q197 224 174 196.5 Q151 169 128 140 Q115 123 103 106 Q91 89 79 71 Q71 60 63.5 49.5 Q56 39 49 28 Q47 24 44.5 23.5 Q42 23 41 25 Q39 26 41 30 Q42 32 43 35 Q44 38 46 40 Q60 60 74 80 Q88 100 102 120 Q113 135 123.5 150 Q134 165 145 180 Q163 203 182 224.5 Q201 246 222 267 Q243 290 265 313 Q287 336 309 359 Q331 381 351.5 403 Q372 425 392 449 Q404 463 415.5 479 Q427 495 435 511 Q440 521 443.5 530 Q447 539 448 550 Q452 570 443 586 Q438 591 431.5 593.5 Q425 596 418 598 Q414 599 410 599.5 Q406 600 401 601 Z M3 -36 Q5 -37 8 -37 Q9 -38 8 -41 Q6 -43 5 -46 Q4 -49 2 -52 Q-2 -58 -2 -59 Q-6 -63 -9 -62 Q-11 -62 -13 -60 Q-14 -59 -14 -57 Q-12 -52 -10 -47.5 Q-8 -43 -4 -39 Q-1 -36 3 -36 Z " />
<glyph glyph-name="exclam" unicode="&#x21;" horiz-adv-x="109" d="M-50 -20 Q-46 -22 -45 -22 Q-42 -23 -44 -27 Q-46 -30 -50 -38 Q-51 -40 -52 -41.5 Q-53 -43 -54 -45 Q-57 -48 -60 -48 Q-62 -47 -63 -47 Q-64 -47 -66 -46 Q-69 -45 -67 -41 Q-65 -36 -62.5 -32 Q-60 -28 -57 -24 Q-54 -20 -50 -20 Z M327 611 Q329 612 331.5 610.5 Q334 609 334 607 Q334 606 332 600 Q329 598 328.5 596.5 Q328 595 327 593 L315 572 L314 571 Q312 569 311.5 566.5 Q311 564 309 562 L236 435 Q217 404 198 373.5 Q179 343 159 312 Q136 277 114 241 Q92 205 69 169 Q54 144 38.5 119 Q23 94 7 68 Q5 64 2.5 60 Q0 56 -2 52 Q-2 51 -3 50 Q-11 46 -14 51 Q-14 52 -13.5 52.5 Q-13 53 -13 54 Q-10 59 -7.5 63.5 Q-5 68 -2 73 L49 157 Q75 201 102 243.5 Q129 286 155 330 Q177 367 199 403.5 Q221 440 243 477 Q245 481 247 484.5 Q249 488 251 491 Q256 499 259.5 506 Q263 513 268 520 L295 563 Q295 563 296 565 L320 604 Q322 608 324 609 Q324 611 327 611 Z " />
<glyph glyph-name="colon" unicode="&#x3a;" horiz-adv-x="106" d="M43 134 Q47 131 44 125 Q40 118 34 118 L31 118 Q27 118 25 119 Q21 120 24 127 Q26 129 28 131.5 Q30 134 34 135 Q40 135 43 134 Z M10 82 Q17 81 14 76 Q13 72 9.5 69 Q6 66 3 65 Q1 64 -2 64 Q-10 64 -10 68 Q-10 72 -5 78 Q1 86 10 82 Z " />
<glyph glyph-name="semicolon" unicode="&#x3b;" horiz-adv-x="94" d="M14 87 Q10 80 6.5 73.5 Q3 67 -2 60 Q-4 56 -6 54 Q-13 44 -23 44 Q-27 44 -23 48 Q-20 51 -19 53 Q-16 58 -13 63.5 Q-10 69 -6 74 Q-6 75 -4.5 77.5 Q-3 80 -1 82 Q1 83 2 83 Q3 83 5 84 L14 87 Z M31 127 Q35 124 32 118 Q28 111 22 111 L19 111 Q11 112 12 117 Q13 122 14 122 Q17 127 22 128 Q28 128 31 127 Z " />
<glyph glyph-name="less" unicode="&#x3c;" horiz-adv-x="150" d="M57 71 Q55 72 54 72 Q53 72 52 73 Q42 81 33 89 Q24 97 17 107 Q14 111 14 115 Q12 121 19 125 Q22 127 24.5 128 Q27 129 30 131 Q47 141 65 148.5 Q83 156 101 163 Q110 165 113 164 Q115 162 115 162 Q117 160 113 158 L107 155 Q97 150 87 146.5 Q77 143 67 138 L43 126 Q41 124 39.5 123 Q38 122 36 120 Q31 117 33 115 Q35 111 37 109 Q43 101 49 94 Q55 87 62 79 Q62 78 64 76 Q66 72 60 72 Q58 72 57 71 Z " />
<glyph glyph-name="greater" unicode="&#x3e;" horiz-adv-x="144" d="M75 133 Q73 135 69 137 Q63 141 57 144 Q51 147 46 152 Q44 153 43 154.5 Q42 156 40 158 L40 161 Q41 161 42 161.5 Q43 162 44 162 Q48 162 50 161 Q60 156 70 150.5 Q80 145 90 140 Q94 138 95 136 Q98 131 91 127 Q86 123 81.5 119.5 Q77 116 72 113 Q65 109 58.5 105.5 Q52 102 45 97 Q34 91 23.5 85 Q13 79 2 73 Q-9 67 -11 75 Q-11 76 -8 79 L16 94 L67 127 Q69 129 71 130 Q73 131 75 133 Z " />
<glyph glyph-name="asciitilde" unicode="&#x7e;" horiz-adv-x="154" d="M67 105 L80 118 L101 139 Q103 141 106 140.5 Q109 140 111 138 L111 135 Q109 133 108.5 131.5 Q108 130 106 128 Q99 120 92 113.5 Q85 107 78 99 Q75 97 72 95 Q69 93 64 94 Q52 97 51 109 Q50 114 50 118 Q50 122 49 127 L49 131 Q45 129 45 129 Q37 124 30.5 117.5 Q24 111 19 102 Q16 99 13 101 Q9 101 9 106 Q9 108 11 112 Q23 129 40 138 Q48 142 57 138 Q63 136 65 126 L65 110 Q66 109 66 106 Q66 105 67 105 Z " />
<glyph glyph-name="quotedbl" unicode="&#x22;" horiz-adv-x="116" d="M307 607 Q316 607 311 599 Q308 593 304.5 587 Q301 581 298 576 Q296 574 296 572 L287 558 Q285 554 281 548 Q280 546 280 545.5 Q280 545 279 543 Q279 540 275 539 Q266 539 269 549 Q271 553 273 556 Q278 566 284 575.5 Q290 585 296 596 Q297 598 298 599.5 Q299 601 300 603 Q304 607 307 607 Z M278 576 Q278 574 276 572 L267 558 Q265 555 264.5 552.5 Q264 550 262 548 Q260 544 260 543 Q260 541 255 539 Q245 539 250 549 Q252 553 253 556 Q259 566 265 575.5 Q271 585 277 596 Q279 600 281 603 Q285 607 288 607 Q297 607 292 599 Q286 588 278 576 Z " />
<glyph glyph-name="quotesingle" unicode="&#x27;" horiz-adv-x="86" d="M286 607 Q295 607 290 599 Q287 593 283.5 587 Q280 581 277 576 Q275 574 275 572 L266 558 Q264 554 260 548 Q259 546 259 545.5 Q259 545 258 543 Q258 540 254 539 Q245 539 248 549 Q250 553 252 556 Q257 566 263 575.5 Q269 585 275 596 Q276 598 277 599.5 Q278 601 279 603 Q283 607 286 607 Z " />
<glyph glyph-name="at" unicode="&#x40;" horiz-adv-x="234" d="M138 147 Q140 146 141 146 Q142 146 144 145 Q148 141 145 135 Q143 130 140 125 Q137 120 134 115 L116 79 L113 70 Q112 67 116 68 Q122 69 127.5 73 Q133 77 138 82 Q177 118 199 173 Q204 187 206.5 199.5 Q209 212 208 226 Q206 247 195 260 Q187 268 175 268 Q161 270 147.5 264 Q134 258 120 249 Q103 236 89 220 Q75 204 62 185 Q39 153 23 112 Q16 92 11.5 71.5 Q7 51 7 31 Q7 16 10 4 Q18 -17 39 -11 Q52 -8 65 3 Q76 12 87 21 Q98 30 109 40 Q113 44 116.5 47 Q120 50 124 54 Q128 56 131 55 Q134 53 131 50 Q131 47 129 47 Q117 36 105 24.5 Q93 13 80 2 Q72 -5 64 -10.5 Q56 -16 46 -19 Q27 -25 12 -18 Q-4 -6 -7 17 Q-11 36 -6 61 Q4 116 28 160 Q52 204 90 242 Q117 268 145 276 Q158 280 169.5 280 Q181 280 192 273 Q224 252 218 207 Q217 174 196 141 Q173 98 143 71 Q128 59 116 58 Q110 57 104 61 Q97 65 100 74 Q101 85 108 95 Q110 99 112 103 Q114 107 116 112 L116 114 Q114 112 111 109 Q108 106 104 104 Q99 99 93.5 95 Q88 91 82 88 Q74 82 66 85 Q56 89 59 103 Q60 110 62.5 116.5 Q65 123 68 129 Q87 164 111 185 Q118 192 123 193 Q134 198 141 192.5 Q148 187 146 173 Q145 166 143.5 160 Q142 154 138 147 Z M70 93 Q86 101 99.5 112.5 Q113 124 125 136 L125 141 Q127 146 129 150.5 Q131 155 133 160 Q138 172 136 183 Q136 188 132 185 Q125 181 122 177 Q92 150 74 111 Q72 106 71 102 Q70 98 70 93 Z " />
<glyph glyph-name="numbersign" unicode="&#x23;" horiz-adv-x="214" d="M101 156 Q109 157 115.5 157.5 Q122 158 130 160 Q131 160 133 162 Q141 174 147.5 185.5 Q154 197 162 209 Q168 217 174 211 Q176 209 174 205 Q169 197 165.5 190 Q162 183 157 175 Q155 172 152.5 169 Q150 166 148 162 Q163 163 175 165 Q183 166 189.5 166.5 Q196 167 203 167 Q206 167 212 165 Q214 165 214 163 Q214 158 214 158 Q213 157 209 157 Q208 157 206 159 Q205 161 200 161 Q189 159 179 158.5 Q169 158 159 156 Q154 156 146 154 Q144 154 142 152 Q137 144 131.5 135.5 Q126 127 121 118 L121 117 Q129 119 137 120 Q145 121 153 123 Q155 124 157 123.5 Q159 123 161 123 Q163 123 164 122 Q165 121 165 120 Q163 118 162 118 Q157 117 153.5 116.5 Q150 116 145 115 Q138 113 131 112 Q124 111 117 110 Q116 109 115.5 109 Q115 109 114 108 Q103 90 92 72.5 Q81 55 72 36 Q70 32 70 32 Q69 26 62 28 Q58 29 60 34 Q64 48 71 59.5 Q78 71 85 83 Q88 89 91.5 94.5 Q95 100 98 106 Q92 105 86.5 104 Q81 103 75 102 Q72 101 69.5 100 Q67 99 65 95 Q57 80 49.5 65.5 Q42 51 34 36 L32 34 Q27 31 23 35 Q20 38 21 41 Q25 49 27 52 Q32 63 37.5 73 Q43 83 49 94 Q49 95 51 97 Q45 97 37 95 Q29 94 21 93 Q13 92 5 90 Q3 90 -3 92 Q-4 92 -4 94 Q-2 96 -1 96 Q7 98 13.5 98.5 Q20 99 28 101 Q35 102 41 103 Q47 104 53 105 Q56 108 56 107 Q61 116 66 125 Q71 134 76 143 Q76 144 77 145 Q72 144 68.5 143.5 Q65 143 61 142 Q52 141 43 140 Q34 139 25 137 Q19 135 16 138 Q14 140 14 141 Q14 143 17 143 Q18 144 19 144 Q20 144 21 145 Q30 146 38.5 147 Q47 148 55 149 Q61 150 67 151 Q73 152 79 153 Q81 153 83 156 L119 216 Q120 219 124 219 Q134 217 130 207 Q123 193 114 178 Q111 173 108 168 Q105 163 102 158 Q102 157 101 156 Z M73 109 Q81 111 88 111.5 Q95 112 102 114 Q102 114 105 117 Q110 125 115 133 Q120 141 125 149 Q125 151 126 152 Q118 150 111.5 149.5 Q105 149 97 148 Q95 146 95 145 Q92 142 88 134 Q84 128 81 122 Q78 116 73 109 Z " />
<glyph glyph-name="dollar" unicode="&#x24;" horiz-adv-x="204" d="M93 108 Q95 106 98 104.5 Q101 103 104 100 Q117 87 117 71 Q117 59 111 47 Q91 11 55 -9 Q37 -19 21 -16 Q18 -16 18 -19 Q7 -36 -2 -52.5 Q-11 -69 -22 -86 Q-24 -91 -27.5 -95.5 Q-31 -100 -34 -105 Q-36 -109 -39.5 -110 Q-43 -111 -46 -108 Q-48 -106 -46 -104 Q-42 -99 -38.5 -92 Q-35 -85 -32 -78 Q-22 -62 -13 -46 Q-4 -30 6 -14 Q7 -12 7 -12 Q6 -11 6 -11 Q-4 -2 -1 11 Q1 24 5 34.5 Q9 45 15 56 Q20 70 28 79 Q32 81 35.5 83.5 Q39 86 44 86 Q52 86 55 81 Q56 81 56 79 Q55 79 54 78.5 Q53 78 52 78 Q52 78 48 80 Q47 81 44 81 Q42 79 39 76 Q36 73 34 70 Q29 63 26 56.5 Q23 50 20 42 Q17 34 15 26 Q13 18 11 9 Q11 4 14 0 Q29 26 44 52.5 Q59 79 75 106 Q74 106 70 108 Q64 112 57 115.5 Q50 119 44 123 L32 132 Q14 151 27 179 Q32 189 38.5 198 Q45 207 53 215 Q98 261 152 287 Q170 296 188 299 Q191 299 193 303 Q202 319 211 334 Q220 349 230 364 Q232 370 234 372 Q236 377 241 375 Q246 372 243 367 Q240 363 237 357.5 Q234 352 232 347 Q225 336 219 324 Q213 312 206 301 L206 300 Q211 298 216 296.5 Q221 295 224 291 Q230 286 231.5 278.5 Q233 271 231 262 Q228 254 223.5 245.5 Q219 237 213 230 Q203 214 191.5 199 Q180 184 167 171 Q165 168 161.5 165.5 Q158 163 155 161 Q152 158 147 160 Q146 161 147 164 Q158 175 167 186.5 Q176 198 184 209 Q193 221 200 232 Q207 243 213 256 Q218 265 220 276 Q221 287 209 288 L202 288 Q199 288 197 286 Q178 253 159 221.5 Q140 190 121 158 Q113 145 106.5 133.5 Q100 122 93 108 Z M80 115 Q106 158 130 200 Q154 242 180 284 Q179 284 178 283.5 Q177 283 176 283 Q160 276 146 267 Q132 258 118 249 Q85 226 61 197 Q55 189 50 182 Q45 175 43 166 Q33 147 49 133 Q51 132 53.5 131 Q56 130 59 128 Q64 125 69 122 Q74 119 79 116 Q80 115 80 115 Z M86 99 Q71 72 55.5 46 Q40 20 24 -6 Q29 -5 34.5 -3.5 Q40 -2 44 2 Q82 23 95 63 Q101 85 86 99 Z " />
<glyph glyph-name="percent" unicode="&#x25;" horiz-adv-x="152" d="M246 390 Q235 386 220 383 Q206 378 193 374.5 Q180 371 166 369 Q162 369 160 368 Q157 366 157 362 Q158 360 158 358.5 Q158 357 159 355 Q162 342 150 330 Q131 313 112 310 Q103 308 96.5 313 Q90 318 90 326 Q90 332 94 339 Q99 350 111 362 Q123 374 133 379 Q140 384 144 378 Q144 374 144 374 Q143 373 138 370 Q138 369 137.5 369.5 Q137 370 137 369 Q116 356 104 334 Q102 332 102 328.5 Q102 325 101 323 Q99 320 103 320 Q105 320 107 320.5 Q109 321 111 321 Q120 325 128.5 329.5 Q137 334 144 342 Q151 353 149 358 Q148 360 148 362 Q148 364 147 366 Q147 373 153 376 Q157 376 160 377 Q163 378 166 378 Q189 382 212 390 Q220 392 229.5 395 Q239 398 248 400 Q257 403 260 397 Q263 391 259 385 Q254 378 246 368 Q230 350 214 331.5 Q198 313 182 295 Q158 267 134.5 239 Q111 211 88 183 Q46 132 6.5 81.5 Q-33 31 -73 -21 Q-84 -35 -95 -49 Q-106 -63 -117 -78 Q-117 -78 -119 -80 Q-118 -80 -118 -79.5 Q-118 -79 -117 -79 Q-97 -66 -78.5 -53 Q-60 -40 -40 -27 Q-35 -23 -31 -20 Q-27 -17 -22 -14 Q-20 -11 -18 -11.5 Q-16 -12 -14 -13 Q-11 -16 -15 -21 Q-20 -27 -24 -33 Q-28 -39 -33 -46 Q-42 -58 -47 -71 Q-48 -73 -48 -75 Q-48 -77 -49 -79 Q-47 -78 -46 -78 Q-23 -67 -8 -45 Q-7 -43 -6 -41.5 Q-5 -40 -5 -38 Q-3 -34 -5 -29 Q-8 -28 -11 -23 Q-12 -22 -12 -19 Q-10 -19 -9 -18.5 Q-8 -18 -7 -18 Q-4 -20 -1 -22 Q2 -24 4 -26 Q9 -28 4 -30 Q9 -36 7 -42 Q5 -48 1 -55 Q-14 -75 -34 -86 Q-44 -93 -53 -88 Q-65 -82 -59 -65 Q-56 -59 -52.5 -53.5 Q-49 -48 -45 -42 Q-43 -40 -42 -38.5 Q-41 -37 -40 -36 Q-46 -38 -49 -41 L-106 -80 Q-111 -84 -117 -87 Q-123 -90 -128 -93 Q-133 -96 -136 -95 Q-139 -92 -141 -92 Q-144 -89 -141 -85 Q-136 -79 -131.5 -72.5 Q-127 -66 -122 -60 L73 192 Q136 273 207 347 Q216 357 225 366.5 Q234 376 244 386 Q245 387 245 387.5 Q245 388 246 389 L246 390 Z " />
<glyph glyph-name="asciicircum" unicode="&#x5e;" horiz-adv-x="117" d="M275 574 L257 556 Q248 546 239 536.5 Q230 527 220 517 Q219 514 216 513 Q210 511 207 515 Q206 516 208 519 Q219 532 231 545 Q243 558 255 572 Q260 577 265 582.5 Q270 588 275 594 Q277 595 281 599 Q284 602 289 600 Q290 599 291 599 Q292 599 293 598 Q300 593 298 586 Q296 580 294 574 Q292 568 290 562 Q285 547 280 532 Q275 517 272 502 Q272 499 273 498 Q277 494 271 494 Q268 493 262.5 496 Q257 499 258 504 Q259 509 259.5 514.5 Q260 520 262 525 Q265 537 268.5 549 Q272 561 275 573 L275 574 Z " />
<glyph glyph-name="ampersand" unicode="&#x26;" horiz-adv-x="336" d="M389 446 Q401 419 395 387 Q392 370 386 355.5 Q380 341 372 328 Q363 313 353.5 299.5 Q344 286 334 273 Q321 257 308 242 Q295 227 281 214 Q272 205 262.5 198 Q253 191 243 185 Q241 184 239.5 186 Q238 188 238 190 Q238 192 239 193 Q253 204 266 216.5 Q279 229 292 243 Q305 257 317 271.5 Q329 286 340 302 Q360 328 374 356 Q379 368 383 380 Q387 392 389 406 Q392 440 371 457 Q361 465 350 467.5 Q339 470 327 470 Q294 469 259 451 Q228 435 200 413 Q172 391 146 362 Q126 341 109 318 Q92 295 76 268 Q67 253 59.5 237 Q52 221 47 203 Q42 185 42 170 L42 161 Q43 146 55 143 Q63 141 72 140.5 Q81 140 89 141 Q114 143 138.5 148.5 Q163 154 187 162 Q190 164 192.5 164.5 Q195 165 197 167 Q201 169 204.5 165 Q208 161 208 156 Q209 153 206 151 Q169 134 137 106 Q105 78 76 41 Q69 33 63.5 23.5 Q58 14 53 3 Q49 -6 47 -17 Q47 -32 53 -34 Q57 -36 62 -36 Q69 -36 75.5 -33.5 Q82 -31 89 -28 Q98 -23 107 -17.5 Q116 -12 125 -6 Q142 6 157.5 19 Q173 32 186 44 Q194 52 206 65.5 Q218 79 226 93 L225 93 Q224 93 223 92.5 Q222 92 220 92 L219 92 Q210 90 200.5 88.5 Q191 87 182 85 Q177 84 176 89 Q175 94 179 95 Q205 100 230 104.5 Q255 109 281 112 Q286 112 287 107 Q288 102 283 101 Q278 100 274.5 100 Q271 100 266 99 L265 99 Q264 99 263 98.5 Q262 98 260 98 L259 98 L257 98 L245 96 Q238 85 229 73 Q221 62 209.5 48.5 Q198 35 182 21 Q180 19 178.5 18 Q177 17 175 15 L174 15 Q171 12 168 9.5 Q165 7 163 5 Q161 3 161 3 Q155 -2 150.5 -5.5 Q146 -9 142 -11 Q138 -14 135 -16 Q124 -24 113.5 -30.5 Q103 -37 92 -42 Q75 -50 62 -49 Q48 -46 40 -31 Q33 -17 38 1 Q41 12 45 20.5 Q49 29 54 37 Q67 57 81.5 74 Q96 91 112 106 Q119 113 126 119 Q133 125 141 131 Q142 132 142 132.5 Q142 133 143 134 Q142 133 140 133 Q124 130 108.5 127.5 Q93 125 76 126 Q71 127 65.5 128 Q60 129 55 131 Q47 135 40 142 Q33 149 30 163 Q27 176 31 195 Q34 212 39.5 227.5 Q45 243 53 258 Q65 284 80 306 Q95 328 112 348 Q125 364 138 378.5 Q151 393 165 406 Q170 410 187.5 424 Q205 438 229.5 451.5 Q254 465 283.5 474 Q313 483 342 479 Q366 474 376.5 462.5 Q387 451 389 446 Z " />
<glyph glyph-name="grave" unicode="&#x60;" horiz-adv-x="100" d="M250 543 Q251 540 247 539 Q238 539 236 549 L236 556 L236 596 L236 603 Q238 607 241 607 Q250 607 250 599 Q250 593 249.5 587 Q249 581 249 576 L249 572 L249 551 L249 548 Q249 545 250 543 Z " />
<glyph glyph-name="comma" unicode="&#x2c;" horiz-adv-x="140" d="M15 68 Q18 69 21.5 67.5 Q25 66 23 64 Q20 59 17 55 Q14 51 12 46 Q10 44 9.5 42.5 Q9 41 7 39 Q0 29 -10 29 Q-13 30 -10 33 Q-7 36 -6 38 Q-2 43 1 48.5 Q4 54 7 59 Q7 60 8 61 Q9 62 10 64 Q10 65 11 66 Q13 68 15 68 Z " />
<glyph glyph-name="period" unicode="&#x2e;" horiz-adv-x="130" d="M14 60 Q19 58 15 51 Q11 44 5 44 L2 44 Q-5 44 -5 50 Q-5 53 -3 55 Q0 60 5 61 Q10 63 14 60 Z " />
<glyph glyph-name="equal" unicode="&#x3d;" horiz-adv-x="150" d="M12 90 L3 93 Q1 95 1 97 Q3 99 3 99 Q11 101 15 101 Q30 101 45 101 Q60 101 75 102 L80 102 Q84 100 84 100 Q87 97 87 95 Q87 92 84 92 Q79 92 74 91.5 Q69 91 64 91 Q56 91 47.5 90.5 Q39 90 31 90 Q26 90 21.5 90 Q17 90 12 91 L12 90 Z M25 112 Q19 114 16 116 Q17 116 14 119 Q17 122 17 122 Q19 122 22 122.5 Q25 123 28 123 Q43 123 58 123.5 Q73 124 88 124 L94 124 Q95 124 97 122 Q100 120 100 118 Q100 116 99 115.5 Q98 115 97 114 Q92 114 87 114 Q82 114 77 113 L44 113 L26 113 L25 112 Z " />
<glyph glyph-name="quoteleft" unicode="&#x2018;" horiz-adv-x="95" d="M286 607 Q295 607 290 599 L277 576 Q275 574 275 572 L266 558 L260 548 L258 543 Q258 540 254 539 Q245 539 248 549 L252 556 L275 596 Q276 598 277 599.5 Q278 601 279 603 Q283 607 286 607 Z " />
<glyph glyph-name="quoteright" unicode="&#x2019;" horiz-adv-x="98" d="M286 607 Q295 607 290 599 L277 576 Q275 574 275 572 L266 558 L260 548 L258 543 Q258 540 254 539 Q245 539 248 549 L252 556 L275 596 Q276 598 277 599.5 Q278 601 279 603 Q283 607 286 607 Z " />
<glyph glyph-name="quotedblleft" unicode="&#x201c;" horiz-adv-x="114" d="M307 607 Q316 607 311 599 L298 576 Q296 574 296 572 L287 558 L281 548 L279 543 Q279 540 275 539 Q266 539 269 549 L273 556 L296 596 Q297 598 298 599.5 Q299 601 300 603 Q304 607 307 607 Z M278 576 Q278 574 276 572 L267 558 L262 548 Q260 544 260 543 Q260 541 255 539 Q245 539 250 549 L253 556 L277 596 L281 603 Q285 607 288 607 Q297 607 292 599 Q286 588 278 576 Z " />
<glyph glyph-name="quotedblright" unicode="&#x201d;" horiz-adv-x="112" d="M307 607 Q316 607 311 599 L298 576 Q296 574 296 572 L287 558 L281 548 L279 543 Q279 540 275 539 Q266 539 269 549 L273 556 L296 596 Q297 598 298 599.5 Q299 601 300 603 Q304 607 307 607 Z M278 576 Q278 574 276 572 L267 558 L262 548 Q260 544 260 543 Q260 541 255 539 Q245 539 250 549 L253 556 L277 596 L281 603 Q285 607 288 607 Q297 607 292 599 Q286 588 278 576 Z " />
<glyph glyph-name="b" unicode="b" horiz-adv-x="155" d="M255 577 Q260 575 260 570 Q259 569 259 568 Q259 567 258 566 Q248 546 236 525 Q209 480 181 435 Q153 390 126 344 L21 167 Q16 156 9.5 146.5 Q3 137 -2 126 Q-1 127 -0.5 128 Q0 129 1 130 Q13 142 25 152.5 Q37 163 51 172 Q58 177 69 183 Q74 185 81 186.5 Q88 188 95 183 Q104 177 102 162 Q101 156 99 150.5 Q97 145 95 140 Q92 135 89.5 130.5 Q87 126 84 121 Q77 112 71 102 Q65 94 58.5 84.5 Q52 75 44 68 Q36 60 28 53 Q20 46 12 39 Q16 41 19 42 Q30 46 40.5 52 Q51 58 61 66 Q76 77 90 90.5 Q104 104 118 118 Q124 125 130 132.5 Q136 140 141 145 Q146 151 152 157 Q153 158 153 158.5 Q153 159 154 160 Q158 165 162 161 Q166 157 163 152 L151 137 Q148 135 146 132 Q144 130 142.5 128 Q141 126 139 124 Q134 119 127 111.5 Q120 104 112 96 L110 94 L106 90 L106 89 Q102 86 95 79 Q85 70 75.5 62 Q66 54 55 47 Q29 31 2 25 Q-3 24 -10 23.5 Q-17 23 -23.5 24.5 Q-30 26 -34.5 29.5 Q-39 33 -39 41 Q-39 47 -33 47 Q-27 47 -27 41 Q-27 39 -26 38 Q-25 37 -22.5 36.5 Q-20 36 -13 38 Q-6 41 1.5 46.5 Q9 52 17 58 L18 58 L27 67 Q43 83 52 95 Q57 102 62 109 Q77 129 86 152 Q91 162 91 171 L91 175 Q90 178 87 178 Q84 178 82 177 Q77 175 72 172.5 Q67 170 66 169 Q62 167 59 165 Q46 156 34 145 Q22 134 11 123 Q4 116 -2 110 Q-8 104 -14 97 Q-17 94 -20 90 Q-23 86 -26 83 Q-30 79 -33 75 Q-39 75 -42 79 Q-45 80 -43 85 Q-41 89 -39 93 Q-37 97 -35 101 Q-21 124 -8.5 147.5 Q4 171 18 194 Q41 235 65 275 Q89 315 113 355 Q133 391 155.5 425.5 Q178 460 201 495 Q212 513 223 531.5 Q234 550 245 569 Q247 570 249 574 Q251 578 255 577 Z " />
<glyph glyph-name="c" unicode="c" horiz-adv-x="115" d="M115 160 Q118 165 122 161 Q126 157 123 152 Q121 149 116 144 Q114 140 110 136 Q107 132 103.5 128.5 Q100 125 96 120 Q93 117 90 113 Q87 110 84 106.5 Q81 103 76 98 Q69 91 62.5 84 Q56 77 50 72 Q48 70 47 69.5 Q46 69 45 67 Q43 65 43 65 Q37 60 31.5 55 Q26 50 20 45 Q12 37 3.5 30 Q-5 23 -16 20 Q-22 18 -24 18 Q-40 16 -48 20.5 Q-56 25 -59 31 Q-63 39 -63 42 L-63 43 Q-65 51 -63 59 Q-61 67 -58 74 Q-37 128 8 170 Q22 182 33 187 Q43 191 53 190 Q70 187 64 170 Q58 148 36 134 Q29 129 24 132 Q24 132 22 134 Q40 145 50 165 Q52 168 54 176 Q56 178 54 181 Q54 186 49 183 Q41 181 38 179 Q32 176 27.5 172 Q23 168 18 163 Q-21 124 -41 75 Q-46 64 -47 54 Q-49 41 -43 35 Q-40 30 -32 30 Q-22 29 -12 35 Q-1 41 8.5 49.5 Q18 58 27 66 Q45 83 62 101 Q70 110 79 119.5 Q88 129 95 137 Q103 147 111 156 Q112 157 112.5 158 Q113 159 115 160 Z " />
<glyph glyph-name="a" unicode="a" horiz-adv-x="128" d="M127 160 Q130 165 135 161 Q140 157 136 152 Q119 130 101.5 109 Q84 88 67 67 Q60 58 53.5 49.5 Q47 41 40 33 L40 32 Q38 30 35.5 27 Q33 24 30 21 Q30 21 28 19 Q26 17 23 15.5 Q20 14 17 13 Q11 12 6 13 Q5 13 4.5 13.5 Q4 14 3 14 Q-7 18 -8 32 L-8 39 Q-7 43 -6.5 47 Q-6 51 -4 56 Q-3 60 1 68 Q3 74 7 82.5 Q11 91 17 100 Q9 92 1 84 Q-7 76 -15 68 Q-19 64 -22.5 61.5 Q-26 59 -30 57 Q-38 52 -44 60 Q-48 66 -47 76 Q-45 83 -43 89 Q-41 95 -39 101 Q-13 154 20 182 Q30 190 39 190 Q45 190 49 183 Q54 177 52 164 L51 157 L56 165 L59 168 Q60 169 61 169 Q64 169 66 168 L67 168 Q67 167 67.5 167 Q68 167 68 166 Q73 163 68 156 Q64 149 60.5 143 Q57 137 53 131 Q44 116 35.5 100 Q27 84 19 67 Q17 63 14.5 57 Q12 51 10 45 Q8 40 6.5 31.5 Q5 23 11 23 L12 23 L13 23 Q16 24 20 27.5 Q24 31 26 34 Q52 66 76.5 97 Q101 128 127 160 Z M-35 69 Q-31 71 -23 77.5 Q-15 84 -5.5 93 Q4 102 13.5 112 Q23 122 29 130 Q28 135 31 140 L40 158 Q42 162 44 172 Q44 174 43 177.5 Q42 181 34 176 Q29 172 19.5 161.5 Q10 151 -1 136 Q-12 121 -21.5 103.5 Q-31 86 -35 69 Z " />
</font>
</svg>
