<?xml version="1.0" encoding="UTF-8"?>
<svg xmlns="http://www.w3.org/2000/svg" xmlns:xlink="http://www.w3.org/1999/xlink" version="1.2" >
<font id="Motters">
<font-face  font-family="Motters" units-per-em="1000" ascent="750" descent="-250" font-style="normal" font-weight="400" font-stretch="normal" cap-height="700" x-height="332" underline-position="-75" underline-thickness="50" />
<missing-glyph  horiz-adv-x="166" d="" />
<glyph glyph-name="NULL" d="" />
<glyph glyph-name="nonmarkingreturn" unicode="&#xd;" horiz-adv-x="166" d="" />
<glyph glyph-name="space" unicode="&#x20;" horiz-adv-x="166" d="" />
<glyph glyph-name="e" unicode="e" horiz-adv-x="183" d="M183 201 Q190 207 196.5 201 Q203 195 196 188 Q182 174 164.5 159 Q147 144 127.5 131 Q108 118 87 109.5 Q66 101 45 101 Q24 102 13 115.5 Q2 129 -1.5 147.5 Q-5 166 -3 186 Q-1 206 5 220 Q12 235 24.5 249.5 Q37 264 55 267 Q66 269 80.5 266 Q95 263 100 252 Q104 244 101 235.5 Q98 227 90.5 218.5 Q83 210 73 202.5 Q63 195 53 189 L16 164 Q19 139 30.5 130 Q42 121 57.5 122.5 Q73 124 91.5 133 Q110 142 127.5 154.5 Q145 167 159.5 180 Q174 193 183 201 Z M75 249 Q64 254 54.5 249.5 Q45 245 37.5 235.5 Q30 226 25 212.5 Q20 199 18 187 Q20 189 27 194.5 Q34 200 43 206.5 Q52 213 61.5 220.5 Q71 228 77 234 Q80 236 81.5 240.5 Q83 245 75 249 Z " />
<glyph glyph-name="f" unicode="f" horiz-adv-x="174" d="M186 199 Q190 192 182 186 Q147 160 110 136.5 Q73 113 34 93 Q41 88 45 81 Q55 67 62.5 49 Q70 31 75.5 13.5 Q81 -4 84 -18 Q87 -32 88 -39 Q91 -56 93 -73 Q95 -90 94 -107 Q94 -117 93 -128.5 Q92 -140 89 -151 Q86 -162 80.5 -172 Q75 -182 66 -188 Q55 -196 44 -195.5 Q33 -195 24 -185 Q15 -174 11 -162 Q7 -150 5 -136 Q2 -114 1 -92 Q0 -70 -1 -47 Q-2 -24 -2 -0.5 Q-2 23 -2 46 Q-2 52 -2 69 Q-2 86 -1.5 104.5 Q-1 123 -1 138 Q-1 153 -1 155 L-1 159 Q0 165 0 170.5 Q0 176 0 182 L0 201 Q1 223 1.5 244.5 Q2 266 4 288 Q5 307 6 325.5 Q7 344 8 347 Q13 413 23 478.5 Q33 544 51 609 Q55 623 59 636 Q63 649 69 663 Q72 669 81 679.5 Q90 690 105 686 Q106 685 108 685 L108 684 L109 684 Q110 683 114 681 Q122 676 125 668 Q128 661 129 654 Q130 647 131 639 Q132 630 132.5 621.5 Q133 613 133 604 Q134 573 131 542 Q128 511 123 480 Q115 427 102 375 Q90 324 70 277.5 Q50 231 18 189 Q17 177 17 162.5 Q17 148 16 122 L16 112 L16 108 L16 107 Q99 148 173 202 Q176 205 180 203.5 Q184 202 186 199 Z M22 289 Q21 272 20 256.5 Q19 241 19 224 Q39 256 54 291 Q74 336 84.5 384 Q95 432 103 480 Q108 509 111 537 Q114 565 114 594 Q114 608 113.5 621 Q113 634 111 648 Q110 653 108.5 658 Q107 663 103 666 Q102 666 101 667 L100 667 Q95 668 89 659 Q88 658 86 654 Q84 649 82 645.5 Q80 642 80 640 Q61 586 50.5 530 Q40 474 33 417 Q32 412 32 408.5 Q32 405 31 400 L31 399 Q30 391 29.5 383.5 Q29 376 28 368 Q26 351 24.5 329.5 Q23 308 22 290 L22 289 Z M59 1 Q52 21 41.5 44.5 Q31 68 16 82 Q16 54 16 27 Q16 0 17 -27 Q17 -34 16.5 -58.5 Q16 -83 18.5 -109.5 Q21 -136 27 -157 Q33 -178 45 -177 Q55 -177 61 -168.5 Q67 -160 70.5 -148.5 Q74 -137 75 -125.5 Q76 -114 76 -107 Q76 -98 75.5 -89.5 Q75 -81 74 -73 Q73 -71 73 -65 Q72 -59 71.5 -53 Q71 -47 69 -41 Q66 -24 63 -12.5 Q60 -1 59 1 Z " />
<glyph glyph-name="g" unicode="g" horiz-adv-x="224" d="M222 200 Q227 208 234.5 203 Q242 198 237 190 Q208 144 179 99.5 Q150 55 121 8 Q123 -38 123.5 -83.5 Q124 -129 118 -175 Q113 -204 107.5 -233 Q102 -262 94 -290 Q88 -310 81 -331 Q74 -352 61 -369 Q52 -381 41.5 -390.5 Q31 -400 19.5 -404.5 Q8 -409 -4 -405.5 Q-16 -402 -27 -388 Q-45 -364 -42.5 -333.5 Q-40 -303 -33 -276 Q-22 -233 -4.5 -193 Q13 -153 32 -114 Q64 -50 104 13 Q103 31 102 49 Q101 67 100 86 Q100 103 99.5 120.5 Q99 138 99 156 L99 189 L99 221 Q94 201 85.5 183 Q77 165 66 150 Q61 143 51.5 134.5 Q42 126 31 121 Q20 116 9 117 Q-2 118 -10 129 Q-18 141 -18 154 Q-18 167 -13 180.5 Q-8 194 0.5 205.5 Q9 217 17 226 Q23 232 33 237.5 Q43 243 53 245 Q63 247 71.5 245 Q80 243 84 233 Q89 250 92.5 267.5 Q96 285 100 301 Q102 309 110 308 Q118 307 118 299 L118 209 L118 170 L121 41 Q146 81 171 120.5 Q196 160 222 200 Z M48 156 Q58 167 65 181.5 Q72 196 77 212 Q74 211 71 213 Q68 215 68 220 Q68 230 62.5 229.5 Q57 229 50 224.5 Q43 220 36.5 214 Q30 208 29 206 Q25 202 17.5 190 Q10 178 6 166 Q2 154 4.5 144.5 Q7 135 22 137 Q31 138 36.5 144 Q42 150 48 156 Z M106 -110 Q107 -87 106.5 -64.5 Q106 -42 105 -19 Q96 -34 87.5 -49 Q79 -64 71 -80 Q49 -120 29.5 -160.5 Q10 -201 -4 -244 Q-12 -268 -19 -295.5 Q-26 -323 -24 -349 Q-22 -361 -18.5 -367.5 Q-15 -374 -8 -383 Q1 -395 13 -389 Q25 -383 33 -375 Q47 -358 56.5 -339.5 Q66 -321 72 -300 Q86 -253 95 -205.5 Q104 -158 106 -110 Z " />
<glyph glyph-name="h" unicode="h" horiz-adv-x="238" d="M237 201 Q240 204 243 204 Q246 204 248.5 201.5 Q251 199 252 195 Q253 191 250 188 Q242 178 232 166.5 Q222 155 210.5 145 Q199 135 186.5 127 Q174 119 161 115 Q144 110 136.5 119 Q129 128 126.5 142 Q124 156 124.5 171.5 Q125 187 125 195 Q125 202 125 211.5 Q125 221 123 229 Q121 237 116 243 Q111 249 101 251 Q88 253 80.5 244 Q73 235 68 224 Q51 189 44.5 152 Q38 115 28 78 L26 74 Q25 72 24.5 70.5 Q24 69 22 67 Q15 61 11 63.5 Q7 66 6 68 Q3 72 3 77 Q2 90 2 102.5 Q2 115 1 128 Q0 148 -0.5 168.5 Q-1 189 -1 209 Q-1 218 -0.5 229 Q0 240 0.5 250.5 Q1 261 1 269.5 Q1 278 1 281 Q3 333 7 384.5 Q11 436 16 487 Q22 553 31 620 Q32 621 32 623 Q32 628 33 631 Q35 640 38 657.5 Q41 675 47 693 Q50 700 53 706.5 Q56 713 61 718 Q65 722 70 726 Q81 733 95 732 Q97 731 98 731 Q99 731 101 730 Q102 730 106 728 Q114 723 119 714 Q124 705 126 697 Q132 674 133 650 Q134 626 133 603 Q130 496 101 392 Q87 338 66 288 Q45 238 19 190 L18 189 Q18 172 18 156.5 Q18 141 19 124 L22 141 Q26 165 33 190.5 Q40 216 50.5 235.5 Q61 255 76 265 Q91 275 112 268 Q126 263 132.5 252 Q139 241 141.5 228 Q144 215 143.5 201 Q143 187 143 175 Q143 169 143.5 156 Q144 143 149 137 L149 136 Q153 131 160.5 133.5 Q168 136 177 142.5 Q186 149 196 158 Q206 167 214 175 Q219 180 224 185.5 Q229 191 234 197 Q236 199 237 201 Z M18 230 Q38 269 52 308 Q91 405 106 510 Q109 536 111 561.5 Q113 587 113 613 Q114 631 113.5 649.5 Q113 668 109 686 Q109 687 108 688 L105 700 Q103 705 101 707.5 Q99 710 97 712 Q89 719 82 712.5 Q75 706 72 700 Q64 685 59 668.5 Q54 652 52 635 Q42 569 35.5 502.5 Q29 436 24 369 Q23 355 22.5 342 Q22 329 21 316 L21 315 L21 310 Q21 306 20 305 Q20 294 19.5 279.5 Q19 265 19 257 Q19 253 18 251 L18 250 L18 230 Z " />
<glyph glyph-name="i" unicode="i" horiz-adv-x="121" d="M121 199 Q122 203 125.5 203.5 Q129 204 132 202.5 Q135 201 136.5 197.5 Q138 194 136 190 Q127 170 113 151 Q99 132 81 118 Q75 113 67 109 Q59 105 50 103 Q41 101 32 102.5 Q23 104 17 111 Q5 124 1 142 Q-3 160 -2.5 179 Q-2 198 2 217 Q6 236 10 252 Q11 256 14.5 257.5 Q18 259 22 258 Q26 257 28.5 254 Q31 251 30 247 Q24 224 18.5 194 Q13 164 21 141 Q26 125 35 121.5 Q44 118 54 122.5 Q64 127 74.5 137.5 Q85 148 94.5 159.5 Q104 171 111 182 Q118 193 121 199 Z M33 300 Q30 300 27 302.5 Q24 305 24 309 L24 314 Q24 318 27 320.5 Q30 323 33 323 Q43 323 43 314 L43 309 Q43 300 33 300 Z " />
<glyph glyph-name="j" unicode="j" horiz-adv-x="117" d="M116 200 Q119 203 122.5 203.5 Q126 204 129 202.5 Q132 201 133.5 197.5 Q135 194 132 191 Q103 149 80.5 104 Q58 59 35 14 Q33 10 31.5 6.5 Q30 3 28 -1 Q28 -39 27 -77 Q26 -115 22 -153 Q18 -193 13.5 -236.5 Q9 -280 -7 -317 Q-11 -326 -19.5 -332 Q-28 -338 -38 -333 Q-52 -327 -58 -311.5 Q-64 -296 -66 -282 Q-72 -245 -67.5 -209 Q-63 -173 -51.5 -137.5 Q-40 -102 -24.5 -68.5 Q-9 -35 7 -2 Q8 -1 8 0 Q8 1 9 2 Q8 59 5.5 116.5 Q3 174 -2 231 Q-2 235 0.5 237.5 Q3 240 6.5 240 Q10 240 13.5 237.5 Q17 235 17 231 Q23 182 24 134.5 Q25 87 27 39 Q47 81 68.5 121.5 Q90 162 116 200 Z M8 -93 Q8 -79 8.5 -65.5 Q9 -52 9 -38 Q-13 -82 -30.5 -126.5 Q-48 -171 -51 -219 Q-51 -229 -51.5 -241.5 Q-52 -254 -51 -266.5 Q-50 -279 -47 -290.5 Q-44 -302 -37 -311 Q-33 -317 -29 -313 Q-25 -309 -22 -301.5 Q-19 -294 -17 -287 Q-15 -280 -15 -279 Q-13 -271 -12 -263.5 Q-11 -256 -9 -248 Q-2 -210 2 -171 Q6 -132 8 -93 Z M6 289 Q-1 285 -7 292 Q-10 300 -9 308 Q-8 311 -4.5 313 Q-1 315 2 314 Q6 313 8 309.5 Q10 306 9 303 L9 302 Q14 293 6 289 Z " />
<glyph glyph-name="k" unicode="k" horiz-adv-x="206" d="M205 199 Q207 203 210.5 203.5 Q214 204 217 202.5 Q220 201 221.5 197.5 Q223 194 221 190 Q214 175 203.5 158 Q193 141 180 125 Q167 109 151.5 97.5 Q136 86 118 83 Q94 79 78 98 Q73 104 66.5 117 Q60 130 52 137 Q46 110 40.5 83 Q35 56 27 30 Q25 23 18.5 23 Q12 23 10 30 Q4 54 3.5 78.5 Q3 103 1 128 Q0 148 0 168.5 Q0 189 0 209 Q0 218 0 229 Q0 240 0.5 250.5 Q1 261 1 269.5 Q1 278 1 281 Q3 333 7 384.5 Q11 436 16 487 Q20 521 23.5 554 Q27 587 32 620 L32 623 Q33 626 33 631 Q35 640 38 657.5 Q41 675 48 693 Q53 709 62 718 Q66 722 71 726 Q76 729 81.5 731 Q87 733 95 732 Q97 731 98 731 Q99 731 101 730 Q104 730 106 728 Q114 723 119.5 714 Q125 705 127 697 Q133 674 133.5 650 Q134 626 133 603 Q130 496 101 392 Q87 338 66 288 Q45 238 19 190 Q19 189 18 189 Q18 170 18.5 151.5 Q19 133 20 114 Q21 106 21 99.5 Q21 93 22 85 Q24 99 27 112.5 Q30 126 33 140 L33 141 Q30 143 28.5 146.5 Q27 150 29 154 Q34 159 39 167 Q41 176 43.5 185 Q46 194 48 204 Q51 218 54.5 229.5 Q58 241 69 250 Q77 256 82.5 253 Q88 250 91 242 Q95 234 93 225.5 Q91 217 89 212 Q83 198 74.5 185 Q66 172 57 159 Q56 158 56 156 Q63 153 67.5 146 Q72 139 76.5 131.5 Q81 124 86 117 Q91 110 97 105 Q104 99 112 100 Q120 101 128.5 105.5 Q137 110 144 116 Q151 122 156 127 Q171 143 183 161 Q195 179 205 199 Z M68 209 Q68 210 68.5 210.5 Q69 211 69 212 Q71 216 72.5 219.5 Q74 223 76 227 Q76 229 76.5 232.5 Q77 236 77 237 Q77 238 75.5 235 Q74 232 71 221 L68 209 Z M19 250 Q19 245 19 240 Q19 235 18 230 Q28 250 36.5 269 Q45 288 53 308 Q91 407 106 510 Q110 536 111.5 561.5 Q113 587 114 613 Q114 631 114 649.5 Q114 668 109 686 L109 688 Q107 696 105 700 Q103 705 101.5 707.5 Q100 710 98 712 Q90 719 83 712.5 Q76 706 73 700 Q64 685 59.5 668.5 Q55 652 52 635 Q34 503 25 369 Q23 355 22.5 342 Q22 329 21 316 L21 315 L21 310 L21 305 Q20 294 20 279.5 Q20 265 19 257 L19 251 L19 250 Z " />
<glyph glyph-name="l" unicode="l" horiz-adv-x="151" d="M149 198 Q152 206 161 203.5 Q170 201 167 193 Q156 158 136 128.5 Q116 99 87 77 Q87 77 86 76 L85 76 Q80 71 67 66 Q50 61 40.5 67.5 Q31 74 26 82 Q18 96 13 113 Q8 130 6 142 Q0 182 0 199 L0 212 Q-1 238 -1 260.5 Q-1 283 0 298 L0 318 L0 319 Q0 323 0 326.5 Q0 330 1 335 Q1 379 3 424.5 Q5 470 10.5 515 Q16 560 26.5 604 Q37 648 54 690 Q57 697 60.5 705.5 Q64 714 69.5 721.5 Q75 729 82 734 Q89 739 99 739 L104 739 Q109 738 116 733.5 Q123 729 127 715 Q127 714 128 714 L128 712 Q133 695 134 658 Q136 638 134.5 617 Q133 596 131 576 Q124 525 109.5 476 Q95 427 79 378 L19 189 Q21 148 32 114 Q34 109 36 103 Q38 97 42 92 Q50 81 61 85 Q72 89 77 92 Q84 98 91 104 Q98 110 104 118 Q135 152 149 198 Z M19 346 Q19 335 18.5 314.5 Q18 294 19 277 Q19 271 19 264.5 Q19 258 18 251 L33 296 Q48 345 63.5 393 Q79 441 93 490 L96 502 Q98 507 98.5 512 Q99 517 101 522 Q102 527 103 531.5 Q104 536 105 541 Q106 546 107 551 Q108 556 109 561 Q110 566 110.5 571 Q111 576 112 581 Q113 586 113 591 Q113 596 114 601 Q114 604 114.5 606.5 Q115 609 115 611 L115 621 Q115 626 116 629 L116 634 L116 642 L116 651 L116 662 Q116 664 115.5 667 Q115 670 115 673 L115 684 Q114 687 114 689.5 Q114 692 113 695 Q113 697 112.5 699.5 Q112 702 112 705 Q110 709 110 713 L107 719 Q106 722 103 723 L100 723 L98 723 Q93 722 88 715 Q83 708 79 700 Q75 692 72 685 Q69 678 68 677 Q59 654 52 630.5 Q45 607 40 582 Q29 525 25 468 Q21 411 19 353 L19 350 L19 346 Z " />
<glyph glyph-name="m" unicode="m" horiz-adv-x="330" d="M329 201 Q335 208 341 201.5 Q347 195 342 188 Q334 178 324 166.5 Q314 155 302.5 145 Q291 135 278.5 127 Q266 119 253 115 Q236 110 228.5 119 Q221 128 218.5 142 Q216 156 216.5 171.5 Q217 187 217 195 Q217 202 217 211.5 Q217 221 215 229 Q213 237 208.5 243 Q204 249 194 251 Q181 253 173 244 Q165 235 160 224 Q151 205 145 183 Q142 173 139 162 Q136 153 133 142 Q130 131 127 122 Q126 121 125 119 Q123 114 118 116 L117 116 Q110 120 111 125 Q113 142 114 160 Q115 178 116 195 L116 200 L116 206 Q116 213 115 222 Q114 231 110.5 238 Q107 245 100.5 249 Q94 253 84 251 L82 251 L81 250 Q73 247 68 239.5 Q63 232 59 224 Q42 189 36 152 Q30 115 20 78 Q18 73 14 71.5 Q10 70 6 72 Q-2 76 -5 87.5 Q-8 99 -8 112 Q-8 125 -7 137.5 Q-6 150 -5 157 Q-3 190 2.5 223.5 Q8 257 20 289 Q22 293 25.5 294.5 Q29 296 32.5 295 Q36 294 38 291 Q40 288 38 284 Q30 264 26 245 Q25 242 23 232.5 Q21 223 19 208.5 Q17 194 15.5 177 Q14 160 14 143 Q18 167 25 192.5 Q32 218 42.5 237 Q53 256 67.5 265.5 Q82 275 103 268 Q121 261 128 243 Q129 242 129 241 Q129 240 130 239 Q132 231 134 215 Q145 244 162 261 Q179 278 205 268 Q219 263 225.5 252 Q232 241 234 228 Q236 215 235.5 201 Q235 187 235 175 Q235 169 235.5 156 Q236 143 241 137 L242 136 Q246 131 253.5 133.5 Q261 136 270 142.5 Q279 149 288.5 158 Q298 167 306 175 Q311 180 316 185.5 Q321 191 326 197 Q328 199 329 201 Z " />
<glyph glyph-name="n" unicode="n" horiz-adv-x="229" d="M228 201 Q234 208 240 201.5 Q246 195 241 188 Q233 178 223 166.5 Q213 155 201.5 145 Q190 135 177.5 127 Q165 119 152 115 Q135 110 127.5 119 Q120 128 117.5 142 Q115 156 115.5 171.5 Q116 187 116 195 Q116 202 116 211.5 Q116 221 114 229 Q112 237 107.5 243 Q103 249 93 251 Q80 253 72 244 Q64 235 59 224 Q42 189 36 152 Q30 115 20 78 Q18 73 14.5 71.5 Q11 70 7 72 Q-1 76 -4 87.5 Q-7 99 -7.5 112 Q-8 125 -6.5 137.5 Q-5 150 -5 157 Q-2 190 3 223.5 Q8 257 21 289 Q24 297 33 294.5 Q42 292 39 284 Q28 256 22.5 226.5 Q17 197 14 168 Q13 160 13 151.5 Q13 143 12 134 Q16 158 23 185 Q30 212 40.5 233 Q51 254 66.5 265 Q82 276 104 268 Q118 263 124.5 252 Q131 241 133 227.5 Q135 214 134.5 200 Q134 186 134 174 Q134 169 134.5 156 Q135 143 140 137 L141 136 Q145 131 152.5 133.5 Q160 136 169 142.5 Q178 149 187.5 158 Q197 167 205 175 Q210 180 215 185.5 Q220 191 225 197 Q227 199 228 201 Z " />
<glyph glyph-name="o" unicode="o" horiz-adv-x="173" d="M186 203 Q189 201 190.5 197 Q192 193 189 189 Q178 173 165 158 Q152 143 136 131 Q125 123 111.5 117 Q98 111 84 114 Q76 106 65 102 Q44 94 29.5 104 Q15 114 7 133 Q-1 152 -2 176.5 Q-3 201 3.5 223 Q10 245 23 261 Q36 277 57 278 Q77 279 88.5 267.5 Q100 256 105.5 239.5 Q111 223 111 204.5 Q111 186 108 173 Q108 167 103 167 Q103 148 97 133 Q109 135 119 142.5 Q129 150 138 158 Q157 178 173 199 Q178 206 186 203 Z M70 156 Q72 151 73 146.5 Q74 142 78 138 L78 139 Q86 157 85.5 175.5 Q85 194 79 211 Q77 209 76.5 207.5 Q76 206 75 204 L75 203 Q74 202 74 201 Q74 200 73 199 Q73 197 71 193 Q70 190 70 187 Q70 184 69 181 Q68 174 68.5 168 Q69 162 70 156 Z M29 130 Q37 119 46.5 118 Q56 117 65 123 Q55 133 52 147.5 Q49 162 49 176 Q50 190 54.5 205 Q59 220 70 231 Q78 238 85 239 Q80 253 70 258.5 Q60 264 43 252 Q35 247 30.5 237.5 Q26 228 23.5 217.5 Q21 207 20.5 196 Q20 185 20 176 Q20 165 21 152 Q22 139 29 130 Z " />
<glyph glyph-name="p" unicode="p" horiz-adv-x="262" d="M262 203 Q270 206 272.5 197 Q275 188 267 186 Q214 170 163 147.5 Q112 125 63 100 Q56 96 51 102.5 Q46 109 52 114 Q64 124 81.5 136 Q99 148 114.5 162 Q130 176 138.5 192.5 Q147 209 140 228 Q135 243 118.5 246.5 Q102 250 89 242 Q78 234 69 225 Q60 216 55 202 Q47 176 42 149 Q37 122 33 95 Q19 -5 16.5 -105 Q14 -205 12 -306 Q12 -320 11.5 -333 Q11 -346 11 -360 Q11 -368 1.5 -368.5 Q-8 -369 -7 -360 Q-6 -329 -6 -298.5 Q-6 -268 -4 -237 Q-4 -196 -3.5 -156 Q-3 -116 -5 -75 Q-8 40 -3 152.5 Q2 265 19 379 Q20 387 29 384.5 Q38 382 37 374 Q29 305 24 237.5 Q19 170 14 101 Q17 128 22.5 155 Q28 182 37 207 Q45 227 61.5 244 Q78 261 101 265 Q123 268 139 258 Q155 248 160 226 Q165 203 155.5 185 Q146 167 129 152 Q162 167 195 180 Q228 193 262 203 Z " />
<glyph glyph-name="q" unicode="q" horiz-adv-x="205" d="M204 202 Q207 205 210.5 203.5 Q214 202 215.5 199 Q217 196 216.5 192.5 Q216 189 213 186 Q208 183 204 180 Q200 177 195 173 Q166 148 138.5 119.5 Q111 91 90 59 Q89 58 89 57.5 Q89 57 88 56 L85 17 Q85 10 84.5 4 Q84 -2 83 -9 Q84 -11 84 -14 Q84 -17 85 -20 Q87 -35 89 -50 Q91 -65 95 -79 Q112 -145 122 -212 Q132 -279 122 -348 Q119 -368 112 -388.5 Q105 -409 90 -425 Q81 -434 70.5 -428.5 Q60 -423 56 -414 Q45 -393 44.5 -368.5 Q44 -344 44 -321 Q45 -267 50 -211 L65 -7 L65 -1 Q63 15 62 31 Q61 47 70 61 L70 62 Q72 84 73.5 105 Q75 126 77 147 Q74 144 73 142 Q65 133 55.5 126.5 Q46 120 36 119 Q26 118 16.5 122.5 Q7 127 0 140 Q-11 160 -6.5 183.5 Q-2 207 12.5 223.5 Q27 240 48 245.5 Q69 251 90 235 Q90 235 91 233 L97 248 Q100 256 108.5 253.5 Q117 251 114 243 Q111 235 108.5 226 Q106 217 103 208 Q99 189 97.5 170 Q96 151 94 131 Q93 121 92.5 111.5 Q92 102 91 91 Q98 101 107 110 Q129 136 152.5 159 Q176 182 204 202 Z M104 -212 Q101 -178 93.5 -145.5 Q86 -113 78 -81 Q76 -111 73.5 -141.5 Q71 -172 69 -202 Q67 -230 65 -257 Q63 -284 63 -311 Q62 -325 62.5 -338.5 Q63 -352 64 -366 Q64 -369 65.5 -378.5 Q67 -388 69.5 -396.5 Q72 -405 76 -408 Q80 -411 86 -401 Q97 -381 102 -357.5 Q107 -334 108 -309 Q109 -284 107.5 -259.5 Q106 -235 104 -212 Z M86 214 Q87 216 87 218 Q87 220 88 222 Q82 218 77 222 Q66 230 52 227 Q28 217 20.5 197 Q13 177 16 160.5 Q19 144 29.5 137 Q40 130 52 145 Q65 161 72.5 178 Q80 195 86 214 Z " />
<glyph glyph-name="r" unicode="r" horiz-adv-x="193" d="M191 199 Q193 203 197 203.5 Q201 204 204 202 Q207 200 208.5 196.5 Q210 193 208 189 Q200 175 192.5 161.5 Q185 148 175 135 Q159 116 136 104.5 Q113 93 88 102 Q82 104 77 107 Q72 110 67 114 Q63 118 59.5 122.5 Q56 127 53 132 Q51 134 49 137 Q47 140 44 142 Q40 140 36.5 138 Q33 136 29 134 Q24 119 18.5 104 Q13 89 6 74 Q4 70 0 69.5 Q-4 69 -7 71 Q-9 72 -11 74 L-11 75 L-11 76 Q-12 76 -12 77 L-12 83 L-11 95 L-11 94 Q-6 144 -1 192.5 Q4 241 11 290 Q11 294 14.5 295.5 Q18 297 21.5 296.5 Q25 296 27.5 292.5 Q30 289 30 285 Q29 276 28 266 Q27 256 25.5 241 Q24 226 21 203.5 Q18 181 14 147 L28 191 Q36 214 45 236.5 Q54 259 67 280 Q73 291 81 301 Q89 311 103 313 Q117 314 123.5 303.5 Q130 293 132 282 Q134 270 132.5 257.5 Q131 245 129 234 Q124 208 110 190 Q102 180 93 172.5 Q84 165 73 158 Q70 156 67.5 155 Q65 154 62 152 Q69 144 74 136 Q79 128 88 123 Q97 118 107.5 118 Q118 118 128 122 Q151 132 165.5 154.5 Q180 177 191 199 Z M58 172 Q60 174 64 176 Q74 182 83 189 Q92 196 98 207 Q108 224 111 246 Q113 256 113.5 266.5 Q114 277 111 286 Q109 293 104 293 Q99 293 96 289 Q93 285 91 281 Q85 272 79.5 262.5 Q74 253 69 243 Q60 223 53 203 Q46 183 39 162 L41 163 Q42 164 44 164 Q46 164 48 166 Q54 170 58 172 Z " />
<glyph glyph-name="s" unicode="s" horiz-adv-x="107" d="M107 201 Q114 207 120.5 200.5 Q127 194 120 188 Q101 171 82.5 154 Q64 137 45 120 Q42 117 39 114 Q36 111 32 108 Q33 91 32.5 73 Q32 55 28 38.5 Q24 22 16 8 Q8 -6 -7 -15 Q-19 -23 -30 -16 Q-41 -9 -46 2 Q-54 17 -50 34 Q-46 51 -36 64 Q-25 78 -13 91 Q-1 104 13 115 Q13 129 11.5 142 Q10 155 8 169 Q3 193 -4 216 Q-11 239 -19 262 Q-23 276 -24 291.5 Q-25 307 -13 318 Q4 335 26.5 330 Q49 325 57 302 Q59 294 50.5 291.5 Q42 289 39 297 Q36 306 28 309.5 Q20 313 12.5 312 Q5 311 -1 305.5 Q-7 300 -5 290 Q-2 270 4 251.5 Q10 233 16 214.5 Q22 196 26.5 175.5 Q31 155 32 133 Q52 150 69.5 167 Q87 184 107 201 Z M12 65 Q13 72 13 78.5 Q13 85 13 92 Q2 82 -8 71.5 Q-18 61 -25 49 Q-29 41 -32 32 Q-35 23 -31 14 Q-26 2 -16 4 Q-6 6 -1 16 Q6 27 8.5 39.5 Q11 52 12 65 Z " />
<glyph glyph-name="t" unicode="t" horiz-adv-x="150" d="M224 518 Q233 518 233 508.5 Q233 499 224 499 Q186 498 149 497 Q112 496 74 493 Q72 467 69.5 442 Q67 417 63 391 Q49 290 21 194 Q22 186 23 179.5 Q24 173 26 166 L26 165 Q29 152 36.5 129 Q44 106 57 93 Q57 93 58 92 L59 91 Q68 84 76.5 86 Q85 88 92.5 94 Q100 100 105.5 107.5 Q111 115 114 120 Q125 139 134 157.5 Q143 176 150 197 Q151 201 154.5 202.5 Q158 204 161.5 203.5 Q165 203 167.5 199.5 Q170 196 169 192 Q165 180 160.5 168 Q156 156 150 145 Q147 139 144.5 133.5 Q142 128 139 122 Q129 104 121.5 95 Q114 86 109 82 Q106 79 100 75 L99 75 L99 74 Q86 66 75.5 65 Q65 64 56.5 67.5 Q48 71 42 76.5 Q36 82 32 88 Q21 105 15 125.5 Q9 146 6 161 Q5 169 4 175.5 Q3 182 2 190 Q-2 213 -4.5 235.5 Q-7 258 -9 281 Q-10 283 -10 288 L-10 290 Q-13 340 -12.5 388.5 Q-12 437 -8 486 Q-73 479 -137 469 Q-201 459 -266 445 Q-271 444 -274 446.5 Q-277 449 -277.5 452.5 Q-278 456 -277 459.5 Q-276 463 -271 464 Q-139 493 -6 506 Q-4 529 -1.5 552 Q1 575 5 598 Q7 618 11 636.5 Q15 655 26 672 Q28 674 29 676 Q30 678 32 680 Q42 688 50 684 Q58 680 60 678 Q66 671 68.5 662 Q71 653 73 645 Q76 631 76.5 618.5 Q77 606 77 592 Q77 572 77 552.5 Q77 533 75 513 Q113 515 149.5 516.5 Q186 518 224 518 Z M55 492 Q53 492 52.5 491.5 Q52 491 51 491 Q46 491 41 490.5 Q36 490 31 490 L30 490 Q25 489 21 489 Q17 489 12 488 Q10 469 9.5 450 Q9 431 8 412 Q8 401 8 382.5 Q8 364 8.5 342.5 Q9 321 9.5 300 Q10 279 11 265 Q12 259 12.5 253 Q13 247 14 242 Q18 257 21.5 272 Q25 287 28 302 Q47 396 55 491 L55 492 Z M56 511 Q57 531 57.5 549.5 Q58 568 58 587 Q58 598 58 609 Q58 620 56 631 Q55 637 54 642.5 Q53 648 51 653 Q50 655 50 655.5 Q50 656 49 658 Q49 660 48 660 Q46 665 42 663 Q38 658 35 648.5 Q32 639 31 636 Q23 605 19.5 572.5 Q16 540 14 508 Q18 508 21.5 508.5 Q25 509 29 509 Q31 510 39 510 Q47 510 56 511 Z " />
<glyph glyph-name="u" unicode="u" horiz-adv-x="198" d="M176 132 Q151 109 135 108 Q119 107 110 119 Q101 131 97.5 150.5 Q94 170 95 188 Q93 177 90.5 167 Q88 157 85 146 Q80 128 70.5 110 Q61 92 39 89 Q23 87 14 97 Q5 107 1 123.5 Q-3 140 -2.5 161 Q-2 182 -0.5 202 Q1 222 3.5 238.5 Q6 255 7 263 Q8 272 16 272 Q24 272 25 263 Q26 254 23.5 229.5 Q21 205 20 179 Q19 153 21.5 132.5 Q24 112 35 110 L36 110 Q45 108 52.5 118.5 Q60 129 66 145.5 Q72 162 77 183 Q82 204 85 223 Q88 242 90.5 257 Q93 272 94 278 Q96 286 104.5 285 Q113 284 112 276 Q111 264 110.5 243.5 Q110 223 110.5 201.5 Q111 180 114.5 161.5 Q118 143 126 135 Q134 127 146.5 133 Q159 139 179 167 Q184 175 188.5 183.5 Q193 192 198 200 Q203 208 210 202.5 Q217 197 213 189 Q208 181 204 174 Q200 167 196 159 Q193 154 187.5 146.5 Q182 139 176 132 Z " />
<glyph glyph-name="v" unicode="v" horiz-adv-x="178" d="M175 199 Q179 207 188 202 Q197 197 193 189 Q185 170 172 154 Q160 137 144 127 Q129 119 111 121 Q93 123 80 137 Q78 138 76 142 Q74 137 71.5 131.5 Q69 126 67 121 Q62 110 57.5 100 Q53 90 47 81 Q43 76 38.5 73.5 Q34 71 28 73 Q21 75 17.5 79.5 Q14 84 12 90 Q4 114 2.5 139.5 Q1 165 0 190 Q0 216 2 241.5 Q4 267 7 293 Q7 297 10.5 299 Q14 301 18 300 Q22 299 23.5 295.5 Q25 292 25 288 Q25 267 24 242 Q23 217 23 191.5 Q23 166 25 141 Q27 116 33 95 Q41 109 47 123.5 Q53 138 59 153 L65 168 Q63 173 63 178 Q63 183 62 188 Q63 204 65.5 219 Q68 234 72 248 Q78 266 85 283 Q92 300 100 317 Q104 325 112 321.5 Q120 318 118 310 Q115 284 110.5 258.5 Q106 233 99 207 Q96 196 92.5 186 Q89 176 85 165 Q88 157 93 150 Q104 139 117 140 Q130 141 140 149 Q152 159 161 172 Q170 185 175 199 Z " />
<glyph glyph-name="w" unicode="w" horiz-adv-x="314" d="M314 199 Q316 203 320 203.5 Q324 204 327 202.5 Q330 201 331.5 197.5 Q333 194 331 190 Q325 179 317 174 Q299 161 275.5 165 Q252 169 235 180 Q227 185 220 190.5 Q213 196 207 203 L207 201 Q200 169 191 134 Q182 99 160 73 Q148 59 131.5 54 Q115 49 99 61 Q86 70 79 85 Q72 100 69 115 Q65 135 65 156 Q65 177 65 197 Q62 190 57.5 171.5 Q53 153 46 135.5 Q39 118 29 107 Q19 96 4 104 Q-5 109 -6.5 117.5 Q-8 126 -7 134 Q-4 163 -1.5 190.5 Q1 218 4 247 Q4 250 4.5 257 Q5 264 6.5 270 Q8 276 11.5 280 Q15 284 21 281 Q24 280 25 268.5 Q26 257 25.5 240 Q25 223 23.5 203.5 Q22 184 20.5 166.5 Q19 149 17.5 136.5 Q16 124 15 122 Q16 124 17.5 126 Q19 128 21 130 Q23 135 25 140.5 Q27 146 29 151 Q43 189 52.5 227 Q62 265 73 303 Q77 312 85 309 Q94 308 92 297 Q86 254 83.5 210.5 Q81 167 88 124 Q90 112 94.5 98 Q99 84 109 76 Q120 66 129.5 70.5 Q139 75 147.5 88 Q156 101 163 119 Q170 137 175 155 Q180 173 183.5 187.5 Q187 202 188 208 L191 223 Q186 230 183 237 Q175 254 169.5 273 Q164 292 168 310 Q170 321 177.5 327.5 Q185 334 196 331 Q207 329 213.5 320.5 Q220 312 222 301 Q224 289 221 276 Q218 263 216 251 Q215 245 214 239 Q213 233 212 227 Q229 204 255 192 Q269 185 287 184 Q305 183 314 199 Z M191 313 Q186 312 186 303.5 Q186 295 186 291 Q188 281 190 271.5 Q192 262 197 252 Q199 263 201 273 Q203 283 203 293 Q203 303 199 308 Q197 310 193 312 Q192 312 191 312.5 Q190 313 191 313 Z " />
<glyph glyph-name="x" unicode="x" horiz-adv-x="138" d="M138 200 Q143 207 150 203 Q157 199 153 191 Q139 170 126.5 148.5 Q114 127 98 107 Q91 98 83.5 89 Q76 80 65 73 Q64 73 63 72 Q49 64 41 74 Q33 84 30 91 Q27 102 23.5 113 Q20 124 18 135 Q-1 104 -18.5 74 Q-36 44 -56 13 Q-61 5 -68.5 10 Q-76 15 -71 23 Q-49 56 -28 89.5 Q-7 123 12 158 Q7 172 3.5 187 Q0 202 -4 217 Q-5 220 -6.5 228 Q-8 236 -10 244.5 Q-12 253 -14 260 Q-16 267 -17 269 Q-19 277 -12 279.5 Q-5 282 -1 274 Q9 252 16 229.5 Q23 207 27 181 Q41 205 54 228.5 Q67 252 81 277 Q86 285 93.5 280.5 Q101 276 96 268 Q80 239 65 212.5 Q50 186 33 158 Q37 142 40.5 122.5 Q44 103 54 90 Q57 86 63.5 92 Q70 98 72 100 Q79 108 84.5 115.5 Q90 123 96 131 Q107 148 117 165.5 Q127 183 138 200 Z " />
<glyph glyph-name="y" unicode="y" horiz-adv-x="215" d="M215 200 Q217 203 220.5 203.5 Q224 204 227 202 Q230 200 231.5 197 Q233 194 231 190 Q202 144 172.5 99.5 Q143 55 115 8 Q116 -38 116.5 -83.5 Q117 -129 111 -175 Q103 -234 87 -291 Q82 -311 74.5 -331.5 Q67 -352 54 -369 Q45 -381 34.5 -390.5 Q24 -400 12.5 -404.5 Q1 -409 -11 -405.5 Q-23 -402 -34 -388 Q-52 -364 -49.5 -334 Q-47 -304 -40 -276 Q-29 -234 -11.5 -193.5 Q6 -153 26 -114 Q42 -82 60 -50 Q78 -18 97 13 Q96 31 95 49 Q94 67 94 85 Q93 111 92.5 136 Q92 161 93 186 Q91 176 88 166 Q85 156 83 146 Q78 128 68.5 110 Q59 92 37 89 Q25 87 17 92 Q9 97 4.5 105.5 Q0 114 -2 124.5 Q-4 135 -4 144 Q-2 174 0.5 204 Q3 234 5 263 Q6 272 13 271.5 Q20 271 23 263 Q26 254 24 230 Q22 206 20.5 180.5 Q19 155 20.5 134 Q22 113 33 110 L34 110 Q44 109 52 118 Q64 132 68 155 Q72 178 76 196 Q80 216 83.5 237 Q87 258 92 278 Q94 286 102 285 Q110 284 110 276 Q110 270 109.5 264 Q109 258 109 252 Q109 246 109 228.5 Q109 211 110 192 L114 41 Q139 81 164 120 Q189 159 215 200 Z M99 -110 Q100 -87 99.5 -64.5 Q99 -42 98 -19 Q89 -34 80.5 -49 Q72 -64 64 -80 Q43 -120 23 -160.5 Q3 -201 -11 -244 Q-19 -268 -26 -295.5 Q-33 -323 -31 -349 Q-29 -361 -25.5 -367.5 Q-22 -374 -15 -383 Q-6 -394 6 -388.5 Q18 -383 26 -375 Q41 -359 50 -340 Q59 -321 65 -300 Q79 -253 88 -205.5 Q97 -158 99 -110 Z " />
<glyph glyph-name="z" unicode="z" horiz-adv-x="278" d="M278 201 Q285 207 291.5 201 Q298 195 292 189 Q263 162 237 131.5 Q211 101 187 69 Q180 60 169 45.5 Q158 31 145 14 Q145 12 145.5 9.5 Q146 7 146 5 Q146 -3 145.5 -11.5 Q145 -20 144 -29 Q138 -71 128 -112.5 Q118 -154 106 -196 Q98 -227 84.5 -255.5 Q71 -284 55 -312 Q49 -323 40 -337.5 Q31 -352 19.5 -365 Q8 -378 -5 -387 Q-18 -396 -33 -397 Q-53 -398 -62.5 -385.5 Q-72 -373 -74 -355.5 Q-76 -338 -73.5 -319.5 Q-71 -301 -67 -289 Q-51 -244 -27 -203.5 Q-3 -163 23 -124 Q33 -108 43.5 -93 Q54 -78 65 -63 Q73 -51 83 -37 Q91 -25 102 -10 Q113 5 126 22 Q123 45 110 62 Q93 86 70 86 Q47 86 24 73 Q18 69 12.5 74 Q7 79 11 85 Q24 105 37 124 Q50 143 62 163 Q73 180 84.5 197.5 Q96 215 102 235 Q106 245 107.5 256 Q109 267 102 276 Q97 282 91 281 Q85 280 78.5 275.5 Q72 271 67 265.5 Q62 260 59 257 Q45 242 36.5 223.5 Q28 205 18 188 Q15 183 9.5 183.5 Q4 184 1 188 Q0 189 -1 191 Q-3 195 -1 201 Q1 206 8.5 219.5 Q16 233 25 247 Q26 250 28 252.5 Q30 255 33.5 259.5 Q37 264 43 270.5 Q49 277 59 287 Q67 293 76 297 Q85 301 93.5 301.5 Q102 302 109 297 Q116 292 120 280 Q128 256 120.5 234 Q113 212 101 192 Q87 168 72.5 146 Q58 124 43 101 Q59 106 75 105.5 Q91 105 105 95 Q129 76 138 48 Q138 47 140 41 Q154 58 167.5 76 Q181 94 194 109 Q214 133 234.5 156.5 Q255 180 278 201 Z M127 -14 Q127 -12 127.5 -10 Q128 -8 128 -7 Q118 -21 109 -33 Q101 -44 93 -54.5 Q85 -65 81 -70 Q75 -79 68.5 -88.5 Q62 -98 56 -107 Q33 -141 11 -175 Q-11 -209 -29 -246 Q-39 -266 -48 -288.5 Q-57 -311 -58 -334 Q-58 -342 -56 -351.5 Q-54 -361 -49.5 -368 Q-45 -375 -38 -377 Q-31 -379 -21 -373 Q-5 -363 8 -348.5 Q21 -334 31.5 -317.5 Q42 -301 50.5 -283 Q59 -265 67 -248 Q77 -228 83.5 -207.5 Q90 -187 96 -165 Q106 -130 114.5 -93.5 Q123 -57 127 -20 L127 -14 Z " />
<glyph glyph-name="d" unicode="d" horiz-adv-x="218" d="M235 196 Q235 195 234.5 194 Q234 193 234 192 Q232 183 225.5 158.5 Q219 134 211 111 Q209 106 207.5 100.5 Q206 95 204 90 Q203 88 201 82 Q200 81 200 80 Q193 63 185.5 46 Q178 29 167 15 Q162 7 155.5 1 Q149 -5 141 -8 Q131 -12 122.5 -8.5 Q114 -5 108 3 Q102 11 99.5 20.5 Q97 30 95 40 Q93 52 92.5 63.5 Q92 75 91 87 Q90 100 89.5 112.5 Q89 125 89 138 Q81 127 70.5 117 Q60 107 46 105 Q25 100 12.5 107 Q0 114 -5.5 127.5 Q-11 141 -10.5 158 Q-10 175 -5 191 Q-3 198 0.5 207.5 Q4 217 8.5 225.5 Q13 234 19.5 240.5 Q26 247 35 249 Q52 252 61 244.5 Q70 237 78 223 Q80 219 79 216 Q78 213 75 211 Q72 209 68.5 209.5 Q65 210 63 214 Q55 229 46.5 227.5 Q38 226 30 215.5 Q22 205 16.5 188.5 Q11 172 10.5 157 Q10 142 14.5 131 Q19 120 32 121 Q44 122 55.5 129 Q67 136 73 147 L88 174 L88 177 Q87 217 87.5 256.5 Q88 296 89 336 Q91 408 95 480.5 Q99 553 114 625 Q119 648 125.5 670 Q132 692 152 707 Q163 715 177.5 717.5 Q192 720 202 707 Q212 695 215.5 678 Q219 661 218.5 643 Q218 625 215 607.5 Q212 590 211 577 Q206 535 199.5 494 Q193 453 183 411 Q172 366 159.5 321.5 Q147 277 130 234 Q125 220 119.5 206 Q114 192 108 178 Q108 155 108.5 131.5 Q109 108 111 85 Q112 74 112 64 Q112 54 114 44 Q116 36 118 27.5 Q120 19 125 13 Q127 12 128 11 Q129 10 130 10 Q131 9 134 10 Q136 10 138 11.5 Q140 13 142 15 Q147 20 151.5 26.5 Q156 33 160 39 Q171 57 178 76 Q185 95 191 115 Q207 157 218 197 Q221 207 231 203 Q232 203 234 200 Q235 200 235 197 L235 196 Z M123 563 Q112 476 107.5 389.5 Q103 303 105 215 Q112 232 118 250 Q124 268 130 285 Q160 378 178 474 Q186 517 193 561.5 Q200 606 198 650 Q198 660 196 671.5 Q194 683 189.5 690.5 Q185 698 178 699 Q171 700 159 689 Q151 682 147.5 675 Q144 668 141 657 Q134 634 130 610.5 Q126 587 123 563 Z " />
<glyph glyph-name="A" unicode="A" horiz-adv-x="377" d="M340 327 Q345 328 348 325.5 Q351 323 352 319 Q353 315 351.5 312 Q350 309 345 308 Q341 306 336.5 306 Q332 306 327 305 Q328 295 328 285.5 Q328 276 328 267 Q330 195 331 125 Q332 55 334 -16 Q334 -22 331 -23 Q330 -24 329 -24 Q328 -25 326 -25 L324 -25 Q314 -25 314 -16 Q314 3 313.5 22 Q313 41 312 60 Q311 121 311 181.5 Q311 242 309 303 Q290 301 271.5 299 Q253 297 234 294 Q199 287 164 278.5 Q129 270 94 259 Q92 248 91.5 237.5 Q91 227 89 216 L80 129 Q75 75 72 20.5 Q69 -34 69 -89 Q69 -93 66 -96 Q65 -97 64.5 -97 Q64 -97 63 -98 L59 -98 L56 -98 Q53 -95 53 -96 Q49 -92 49 -89 Q50 -34 53 20 Q56 74 61 128 Q64 159 67 190 Q70 221 73 252 Q50 244 27.5 236 Q5 228 -18 220 Q-23 218 -26 220 Q-29 222 -29.5 226 Q-30 230 -29 233.5 Q-28 237 -23 239 Q1 248 25.5 257 Q50 266 76 274 Q78 299 81 323.5 Q84 348 87 373 Q90 393 92.5 413.5 Q95 434 98 454 Q100 460 100.5 466 Q101 472 102 479 Q104 497 107 515.5 Q110 534 115 552 Q119 567 123 582.5 Q127 598 132 614 Q133 616 133.5 619 Q134 622 135 624 Q142 642 148 655 Q152 662 155.5 669 Q159 676 164 682 Q167 687 170 691 Q173 695 177 699 Q179 701 180.5 703 Q182 705 184 707 L190 713 Q198 720 208.5 726 Q219 732 230 733 Q237 734 248 729 Q261 721 269 710 Q276 701 281 690 Q286 679 290 668 Q299 640 304.5 611 Q310 582 314 553 Q318 517 320 479 Q321 468 321.5 457.5 Q322 447 323 436 Q324 408 325 380.5 Q326 353 327 324 Q330 325 333.5 325.5 Q337 326 340 327 Z M229 312 Q249 316 268.5 318 Q288 320 308 322 Q307 371 304.5 419.5 Q302 468 297 516 Q296 528 295 540.5 Q294 553 292 565 Q289 585 285 605.5 Q281 626 276 646 Q274 651 273 656 Q272 661 270 666 Q267 674 263 682 Q259 690 254 697 Q251 701 247 705 Q239 710 230 710 Q226 710 222.5 709 Q219 708 214 706 Q201 698 194 688 Q190 683 186.5 679 Q183 675 180 670 Q158 637 146.5 597.5 Q135 558 128 520 Q117 460 110 400 Q103 340 96 280 Q129 290 162 298.5 Q195 307 229 312 Z " />
<glyph glyph-name="M" unicode="M" horiz-adv-x="537" d="M499 14 Q504 10 503 3 Q501 -8 502 -18 Q503 -28 501 -39 Q499 -47 490.5 -45.5 Q482 -44 481 -36 Q477 35 476.5 105.5 Q476 176 474 247 Q473 277 472 306.5 Q471 336 469 365 Q467 398 464.5 434.5 Q462 471 447 502 Q436 524 420 520 Q404 516 388.5 500 Q373 484 360.5 463.5 Q348 443 344 433 Q337 414 330 396 Q323 378 316 359 Q293 300 272 242 Q251 184 231 125 Q229 117 220 118 Q211 119 212 128 Q219 219 226.5 310.5 Q234 402 230 494 Q230 498 229.5 512.5 Q229 527 226.5 543 Q224 559 219.5 571.5 Q215 584 207 583 Q196 581 186.5 566 Q177 551 172 542 Q155 508 145 470.5 Q135 433 126 396 Q118 361 109.5 325 Q101 289 93 253 Q76 175 70 93.5 Q64 12 56 -68 Q56 -74 48.5 -77.5 Q41 -81 38 -73 Q27 -47 30 -16 Q33 15 35 43 Q37 75 37.5 107.5 Q38 140 40 173 Q42 217 45.5 259.5 Q49 302 55 346 Q67 441 87.5 536 Q108 631 144 720 Q146 724 150 725.5 Q154 727 157.5 726.5 Q161 726 163 722.5 Q165 719 163 715 Q128 628 109 536 Q90 444 77 351 Q66 271 62 193 L62 177 Q71 244 86 308 Q98 358 110 407.5 Q122 457 137 506 Q144 526 152 544.5 Q160 563 173 579 Q181 590 193 598.5 Q205 607 219 600 Q228 595 233.5 585.5 Q239 576 242 565 Q245 554 246 542.5 Q247 531 248 522 Q252 477 250 431.5 Q248 386 246 340 Q244 305 241.5 270 Q239 235 237 200 Q254 248 271.5 294.5 Q289 341 307 389 Q317 416 327 443 Q337 470 356 493 Q365 504 375 514.5 Q385 525 396.5 531.5 Q408 538 421 539 Q434 540 449 532 Q460 526 465.5 511 Q471 496 474 485 Q479 468 480.5 451 Q482 434 484 417 Q492 345 493 272 Q495 207 495.5 143 Q496 79 499 14 Z " />
<glyph glyph-name="B" unicode="B" horiz-adv-x="447" d="M436 552 Q433 520 422 487.5 Q411 455 394.5 424.5 Q378 394 356.5 367.5 Q335 341 309 320 Q329 312 343.5 298 Q358 284 366 264 Q382 220 370 173.5 Q358 127 325 95 Q312 83 294 71 Q276 59 256.5 51 Q237 43 216.5 40.5 Q196 38 177 44 Q168 47 170.5 56.5 Q173 66 182 63 Q194 59 209 60.5 Q224 62 239 66.5 Q254 71 267.5 77.5 Q281 84 290 91 Q311 108 329 135.5 Q347 163 354 193 Q361 223 353 250.5 Q345 278 314 296 Q308 299 302 301.5 Q296 304 290 306 L289 306 Q255 284 219 269 Q183 254 145 243 Q134 239 120.5 234.5 Q107 230 94 228 Q94 156 102.5 84.5 Q111 13 141 -50 Q143 -55 141.5 -58.5 Q140 -62 137 -64 Q134 -66 130 -65.5 Q126 -65 124 -60 Q92 5 83.5 79 Q75 153 74 227 Q71 227 68.5 227.5 Q66 228 63 229 Q55 233 55 240 Q55 247 60 253 Q65 261 74 268 L74 289 Q74 364 77 439 Q80 514 85 589 Q50 547 21 499 Q-8 451 -37 407 Q-42 399 -50.5 404 Q-59 409 -54 417 Q-22 467 11.5 522 Q45 577 87 624 L93 720 Q94 730 103.5 730 Q113 730 113 720 Q111 701 110.5 682.5 Q110 664 108 645 Q131 667 157 683.5 Q183 700 213 711 Q232 718 254.5 722.5 Q277 727 299 727.5 Q321 728 342 722.5 Q363 717 381 703 Q415 675 427.5 635 Q440 595 436 552 Z M228 295 Q236 299 244.5 303 Q253 307 261 312 Q243 314 225 311.5 Q207 309 189 304 Q166 296 139.5 287 Q113 278 93 261 L93 249 Q96 249 100 251 Q112 254 123.5 257 Q135 260 147 264 Q167 271 187.5 278.5 Q208 286 228 295 Z M286 328 Q300 339 314 350.5 Q328 362 339 376 Q365 408 384 447.5 Q403 487 411 527 Q417 556 415 588 Q413 620 400.5 646.5 Q388 673 364 690.5 Q340 708 304 708 Q241 707 193 681 Q145 655 106 613 Q101 534 97.5 455 Q94 376 94 297 L94 284 Q123 304 157.5 316 Q192 328 225 331 Q255 334 286 328 Z " />
<glyph glyph-name="C" unicode="C" horiz-adv-x="460" d="M427 262 Q429 266 433 267 Q437 268 440 266 Q443 264 444.5 260 Q446 256 444 252 Q436 237 428.5 221.5 Q421 206 413 191 Q390 147 360.5 105 Q331 63 289 34 Q271 22 250 12.5 Q229 3 206.5 -1 Q184 -5 161.5 -2.5 Q139 0 118 12 Q98 24 83.5 42.5 Q69 61 59 83.5 Q49 106 43.5 130.5 Q38 155 36 177 Q33 209 35.5 242 Q38 275 40 307 Q42 335 45.5 362.5 Q49 390 54 417 Q64 471 76.5 525 Q89 579 110 630 Q116 644 125.5 662 Q135 680 148 695.5 Q161 711 177 720.5 Q193 730 211 726 Q233 721 247.5 705.5 Q262 690 270.5 669 Q279 648 282.5 625 Q286 602 287 583 Q289 522 284.5 461.5 Q280 401 277 341 Q276 331 266.5 331 Q257 331 257 341 Q260 392 263.5 443.5 Q267 495 268 547 Q268 570 266.5 594.5 Q265 619 258 642 Q255 653 248.5 667.5 Q242 682 232.5 692.5 Q223 703 210.5 707 Q198 711 183 701 Q166 690 153.5 672 Q141 654 131.5 633.5 Q122 613 115.5 591.5 Q109 570 104 552 Q91 506 81 459.5 Q71 413 66 366 Q62 339 60.5 312 Q59 285 57 257 Q55 231 54.5 205 Q54 179 60 153 Q65 130 73 106 Q81 82 94 62.5 Q107 43 126.5 30 Q146 17 174 16 Q223 14 262 38.5 Q301 63 332 100 Q363 137 386 180.5 Q409 224 427 262 Z " />
<glyph glyph-name="D" unicode="D" horiz-adv-x="367" d="M298 662 Q322 630 334.5 589.5 Q347 549 345 509 Q342 463 333 418.5 Q324 374 307 330 Q290 288 265 250 Q240 212 212 177 Q197 159 181.5 142 Q166 125 149 110 Q137 100 123.5 89 Q110 78 96 71 Q98 55 100 40 Q102 25 106 10 Q107 5 104.5 2 Q102 -1 98 -2 Q94 -3 91 -2 Q88 -1 87 4 Q83 20 81 35 Q79 50 77 65 Q62 63 52.5 68 Q43 73 37 83 Q31 93 28.5 105.5 Q26 118 25 130 Q25 135 27.5 137.5 Q30 140 34 140 Q38 140 41.5 137.5 Q45 135 45 130 Q45 122 46 113 Q47 104 50 96 Q54 87 60.5 85 Q67 83 74 85 Q67 155 70.5 225.5 Q74 296 79 366 Q85 443 90 519 Q95 595 105 671 Q81 657 60.5 638 Q40 619 21 599 Q-29 544 -70 481 Q-75 473 -83.5 478 Q-92 483 -87 491 Q-61 531 -31.5 568.5 Q-2 606 33 638 Q50 655 68.5 670 Q87 685 108 695 Q110 703 110.5 710 Q111 717 113 724 Q114 729 117 730.5 Q120 732 124 731 Q128 730 130.5 727 Q133 724 132 719 L129 704 Q140 707 152 709 Q164 711 176 711 Q208 710 242.5 699 Q277 688 298 662 Z M307 393 Q315 426 321.5 461.5 Q328 497 325 532 Q323 548 319.5 567.5 Q316 587 309 605.5 Q302 624 291 639.5 Q280 655 265 665 Q239 682 206 688.5 Q173 695 143 687 Q138 685 134.5 684 Q131 683 126 681 Q115 603 110 524 Q105 445 99 366 Q94 297 90.5 229.5 Q87 162 93 93 Q93 93 94 94 Q127 116 153 142 Q178 167 199.5 194 Q221 221 241 250 Q288 317 307 393 Z " />
<glyph glyph-name="E" unicode="E" horiz-adv-x="337" d="M379 735 Q384 736 387 733.5 Q390 731 391 727 Q392 723 390.5 720 Q389 717 384 716 Q325 707 267.5 692 Q210 677 156 654.5 Q102 632 52.5 600 Q3 568 -41 525 Q-48 518 -55 525 Q-62 532 -55 539 Q-10 583 40.5 615.5 Q91 648 146 671 Q201 694 259.5 709.5 Q318 725 379 735 Z M296 183 Q300 186 304 185.5 Q308 185 310.5 182.5 Q313 180 313.5 176 Q314 172 310 169 Q232 94 144 33 Q138 28 130.5 22.5 Q123 17 115.5 13 Q108 9 99.5 7.5 Q91 6 83 9 Q72 13 68 24 Q64 35 63 47.5 Q62 60 63.5 73 Q65 86 66 94 Q72 164 78 234 Q84 304 90 375 Q69 361 48.5 346.5 Q28 332 8 317 Q4 314 0.5 315 Q-3 316 -4.5 319.5 Q-6 323 -6 327 Q-6 331 -2 334 Q21 351 44.5 367.5 Q68 384 92 399 L113 624 Q113 628 116.5 630.5 Q120 633 123.5 633 Q127 633 130 631 Q133 629 133 624 Q128 570 123 518 Q118 466 113 412 Q175 449 238 477 Q242 479 246 477 Q250 475 252 472 Q254 469 253 465 Q252 461 248 459 Q212 444 178 426 Q144 408 111 388 Q106 330 101 272.5 Q96 215 91 157 Q89 143 88.5 129.5 Q88 116 86 102 Q85 87 82.5 69.5 Q80 52 85 38 Q89 29 97 29.5 Q105 30 114 35 Q123 40 131 47 Q139 54 144 57 Q227 117 296 183 Z " />
<glyph glyph-name="F" unicode="F" horiz-adv-x="300" d="M473 721 Q484 698 468 683 Q461 676 454 683 Q447 690 454 696 Q463 704 458.5 708.5 Q454 713 445 715 Q436 717 426 717 Q416 717 415 717 Q392 715 371 711 Q336 705 307 695 Q281 687 256.5 678 Q232 669 207 659 Q196 584 185 509 Q174 434 166 358 Q190 372 215.5 383 Q241 394 267 405 Q271 407 274.5 405 Q278 403 280 400 Q282 397 281.5 393.5 Q281 390 277 388 Q247 376 218.5 363 Q190 350 164 334 Q156 256 151.5 178.5 Q147 101 148 22 Q153 24 157 21.5 Q161 19 162 13 Q162 -15 149 -41 Q145 -48 138 -45.5 Q131 -43 130 -36 Q126 55 130 143.5 Q134 232 143 322 Q97 294 60 256 Q53 249 46 256 Q39 263 46 270 Q69 293 94 312 Q119 331 145 346 Q153 423 164 498.5 Q175 574 186 650 L165 641 Q31 582 -100 506 Q-104 504 -107.5 505.5 Q-111 507 -113 510 Q-115 513 -114.5 517 Q-114 521 -110 523 Q-37 565 37.5 603 Q112 641 190 673 Q191 679 191.5 685.5 Q192 692 194 698 Q195 703 198 704.5 Q201 706 205 705 Q209 704 211.5 700.5 Q214 697 213 693 Q212 690 212 687 Q212 684 211 682 Q220 685 229 688.5 Q238 692 247 695 Q290 712 334.5 724 Q379 736 424 738 Q436 738 451.5 736 Q467 734 473 721 Z " />
<glyph glyph-name="G" unicode="G" horiz-adv-x="357" d="M321 375 Q331 374 331 364.5 Q331 355 321 355 L300 355 Q295 258 294 161.5 Q293 65 303 -32 Q304 -41 294.5 -41 Q285 -41 284 -32 Q276 45 275 121.5 Q274 198 277 275 Q271 255 263.5 236 Q256 217 247 199 Q238 182 226.5 165.5 Q215 149 200.5 136 Q186 123 168.5 115 Q151 107 130 108 Q96 109 76 125 Q56 141 46.5 166 Q37 191 36.5 221.5 Q36 252 40.5 283.5 Q45 315 52.5 343.5 Q60 372 66 392 Q98 489 140 581 Q157 619 179 654 Q201 689 235 714 Q264 734 291.5 725.5 Q319 717 333 685 Q340 668 341.5 649 Q343 630 340.5 611.5 Q338 593 334 574 Q330 555 327 538 Q326 533 323 531.5 Q320 530 316 531 Q312 532 309.5 535 Q307 538 308 543 Q311 559 315 577 Q319 595 321.5 613.5 Q324 632 322.5 649.5 Q321 667 313 682 Q301 706 284 707.5 Q267 709 250 699.5 Q233 690 218.5 673 Q204 656 195 642 Q159 583 132 518 Q105 453 85 387 Q74 348 65.5 308.5 Q57 269 57 227 Q57 207 60.5 185.5 Q64 164 80 148 Q96 132 117.5 128.5 Q139 125 160 134 Q179 141 193 155 Q207 169 218 185.5 Q229 202 236.5 221 Q244 240 250 258 Q258 282 264 306 Q270 330 275 355 Q255 354 234.5 352.5 Q214 351 193 348 Q188 347 185 349.5 Q182 352 181 356 Q180 360 181.5 363 Q183 366 188 367 Q211 370 233.5 372 Q256 374 279 375 Q281 379 281.5 383 Q282 387 283 392 Q284 400 293.5 398.5 Q303 397 302 389 Q302 386 302 382.5 Q302 379 301 375 L321 375 L321 375 Z " />
<glyph glyph-name="H" unicode="H" horiz-adv-x="347" d="M339 722 Q350 706 349.5 684 Q349 662 346 644 Q341 618 331.5 594 Q322 570 310 547 Q305 537 300 528 Q295 519 290 511 Q289 490 289 468.5 Q289 447 289 426 L289 380 L295 380 Q305 381 305 371.5 Q305 362 295 361 Q293 361 291.5 360.5 Q290 360 288 360 Q287 305 286 249.5 Q285 194 286 138.5 Q287 83 291 28 Q295 -27 305 -81 Q306 -90 296.5 -93 Q287 -96 285 -86 Q276 -32 272.5 21 Q269 74 268 128 Q268 186 268.5 243 Q269 300 269 358 Q195 351 117 337 Q98 314 88 291 Q83 222 80 153.5 Q77 85 80 16 Q82 0 82.5 -15.5 Q83 -31 85 -47 Q85 -52 82 -54.5 Q79 -57 75.5 -57 Q72 -57 68.5 -54.5 Q65 -52 65 -47 Q63 -32 62 -17 Q61 -2 60 14 Q58 41 56.5 68 Q55 95 53 122 Q51 159 50.5 198.5 Q50 238 61 274 Q64 285 68 294 Q69 302 69.5 311 Q70 320 70 329 Q60 327 50.5 325 Q41 323 31 321 Q26 320 23 322.5 Q20 325 19.5 328.5 Q19 332 20 335.5 Q21 339 26 340 Q37 342 49 344.5 Q61 347 72 349 Q78 443 84.5 535.5 Q91 628 98 722 Q98 727 101.5 729.5 Q105 732 108.5 732 Q112 732 115 729.5 Q118 727 118 722 Q111 629 104.5 537.5 Q98 446 92 353 L110 356 Q129 376 150.5 394 Q172 412 193.5 430 Q215 448 234.5 468 Q254 488 269 512 Q269 543 269.5 574 Q270 605 272 636 Q274 656 277.5 680 Q281 704 298 718 Q306 726 318.5 730.5 Q331 735 339 722 Z M91 333 L90 333 L90 332 L91 333 Z M269 481 Q239 443 198 410 Q184 398 169 386.5 Q154 375 140 361 Q172 366 204.5 370 Q237 374 269 378 L269 384 L269 481 Z M323 632 Q331 662 328 689 Q328 690 327.5 695 Q327 700 325.5 704 Q324 708 321 709 Q318 710 312 704 Q307 698 303 691 Q299 684 297 676 Q290 645 290 613 Q290 581 290 550 Q301 570 309.5 590 Q318 610 323 632 Z " />
<glyph glyph-name="I" unicode="I" horiz-adv-x="157" d="M210 730 Q215 730 217.5 727.5 Q220 725 220 721 Q220 717 217.5 714 Q215 711 210 711 Q184 709 158.5 706.5 Q133 704 107 699 Q100 621 99 542.5 Q98 464 96 386 Q93 290 90 195.5 Q87 101 89 4 Q108 8 126.5 10 Q145 12 163 11 Q173 10 173 0.5 Q173 -9 163 -9 Q145 -8 126.5 -10 Q108 -12 89 -16 L89 -26 Q89 -35 79.5 -35 Q70 -35 69 -26 L69 -21 Q30 -31 -8 -50 Q-12 -52 -15.5 -50.5 Q-19 -49 -21 -46 Q-23 -43 -22.5 -39 Q-22 -35 -18 -33 Q2 -23 24 -14.5 Q46 -6 69 0 Q68 97 70.5 193 Q73 289 76 386 Q78 463 79 540 Q80 617 87 694 Q86 694 85 693.5 Q84 693 83 693 Q59 685 35.5 674.5 Q12 664 -12 654 Q-16 652 -19 654 Q-22 656 -23 659.5 Q-24 663 -22.5 667 Q-21 671 -17 673 Q8 684 32 695 Q56 706 82 713 Q84 714 85.5 714 Q87 714 89 715 Q91 720 96.5 721 Q102 722 105 719 Q131 724 157.5 726 Q184 728 210 730 Z " />
<glyph glyph-name="J" unicode="J" horiz-adv-x="287" d="M444 737 Q454 737 454 727 Q454 717 444 717 Q393 716 342.5 712 Q292 708 241 700 Q245 658 246 615.5 Q247 573 249 531 L249 459 Q249 456 248.5 441.5 Q248 427 247.5 409 Q247 391 246 373.5 Q245 356 245 347 Q245 333 244.5 318.5 Q244 304 244 290 Q243 232 240 176 Q237 120 225 63 Q221 42 215 19.5 Q209 -3 200 -23.5 Q191 -44 177.5 -62.5 Q164 -81 146 -94 Q123 -111 96 -115.5 Q69 -120 43 -107 Q10 -91 0.5 -57.5 Q-9 -24 -6 10 Q-1 58 23.5 100.5 Q48 143 74 183 Q109 235 148 284 Q187 333 226 382 Q228 461 228.5 539.5 Q229 618 222 697 Q162 689 103.5 676.5 Q45 664 -12 649 Q-17 647 -20 649.5 Q-23 652 -24 656 Q-25 660 -24 663.5 Q-23 667 -18 668 Q41 683 100.5 695.5 Q160 708 220 717 Q221 724 228 724.5 Q235 725 238 720 Q290 727 341.5 731 Q393 735 444 737 Z M224 270 Q224 290 224.5 310 Q225 330 225 350 Q192 308 159 266 Q126 224 96 179 Q82 159 67.5 137 Q53 115 41 92 Q29 69 21 44.5 Q13 20 13 -6 Q13 -24 17.5 -41.5 Q22 -59 32 -72 Q42 -85 57 -92 Q72 -99 92 -96 Q116 -93 134.5 -79 Q153 -65 166 -44.5 Q179 -24 187.5 -1 Q196 22 201 43 Q214 100 219 156 Q224 212 224 270 Z " />
<glyph glyph-name="K" unicode="K" horiz-adv-x="367" d="M281 438 Q251 372 210 312 Q169 252 113 204 Q111 202 106 197.5 Q101 193 95 188 Q105 182 114.5 174.5 Q124 167 133 162 Q150 152 166.5 143 Q183 134 200 126 Q234 109 268.5 94 Q303 79 338 65 Q347 61 342 52.5 Q337 44 328 47 Q274 70 220 94.5 Q166 119 115 150 Q110 152 99.5 160 Q89 168 78 175 Q64 165 55 162 Q48 89 44.5 16 Q41 -57 43 -131 Q43 -140 33 -140 Q23 -140 23 -131 Q21 -56 24.5 18.5 Q28 93 36 168 Q36 169 35.5 169 Q35 169 35 170 Q28 186 39 196 L39 203 Q51 313 65 422.5 Q79 532 82 643 Q82 653 92 653 Q102 653 102 643 Q99 532 85 422.5 Q71 313 59 203 Q62 203 64.5 202.5 Q67 202 70 201 Q72 200 73 200 Q74 200 75 199 Q81 204 87 208.5 Q93 213 99 218 Q139 253 172 294 Q210 342 238 395 Q266 448 288 505 Q308 559 329 615.5 Q350 672 359 730 Q360 734 363 735.5 Q366 737 370 736 Q374 735 376.5 732 Q379 729 378 724 Q371 684 358 645.5 Q345 607 332 569 Q320 536 308 503 Q296 470 281 438 Z " />
<glyph glyph-name="L" unicode="L" horiz-adv-x="242" d="M381 27 Q384 31 388 30.5 Q392 30 394.5 27.5 Q397 25 397.5 21 Q398 17 395 13 Q382 -2 365 -13.5 Q348 -25 332 -35 Q306 -51 280 -65.5 Q254 -80 226 -91 Q212 -97 188.5 -106.5 Q165 -116 140.5 -120 Q116 -124 94.5 -119 Q73 -114 63 -93 Q52 -69 48.5 -43.5 Q45 -18 45.5 8 Q46 34 48.5 60 Q51 86 53 111 Q58 168 63.5 223.5 Q69 279 75 336 Q85 415 93 493.5 Q101 572 106 651 Q106 656 109.5 658.5 Q113 661 116.5 661 Q120 661 123 658.5 Q126 656 126 651 Q124 626 123 601 Q122 576 120 550 Q120 545 117 544 Q112 496 107 448.5 Q102 401 97 353 Q92 305 87 257.5 Q82 210 77 162 Q75 136 73 111 Q71 86 69 60 Q67 36 65.5 12 Q64 -12 67 -36 Q72 -68 84.5 -86 Q97 -104 131 -100 Q157 -97 182.5 -88 Q208 -79 231 -68 Q256 -56 279.5 -43 Q303 -30 326 -15 Q340 -6 355 4 Q370 14 381 27 Z " />
<glyph glyph-name="N" unicode="N" horiz-adv-x="407" d="M440 -16 Q449 -13 452 -22.5 Q455 -32 446 -35 Q416 -43 396 -34.5 Q376 -26 363.5 -7.5 Q351 11 345 36 Q339 61 337 85 Q333 147 339 208 Q345 269 343 331 Q341 393 337.5 456 Q334 519 319 579 Q316 590 312 603.5 Q308 617 300 626 Q292 634 282 626 Q262 611 249.5 582.5 Q237 554 227 531 Q191 441 165 348.5 Q139 256 116 163 Q105 121 95.5 80 Q86 39 77 -3 Q73 -23 68 -45.5 Q63 -68 62 -86 Q62 -91 58.5 -93.5 Q55 -96 51 -96 Q47 -96 44.5 -93.5 Q42 -91 42 -86 Q45 38 53 160 Q61 282 73 406 Q79 468 84 531.5 Q89 595 75 656 Q71 674 62.5 676.5 Q54 679 45 673.5 Q36 668 27.5 658.5 Q19 649 15 643 Q7 632 0 620.5 Q-7 609 -13 597 Q-40 548 -55 493 Q-56 488 -59.5 487 Q-63 486 -66.5 486.5 Q-70 487 -72.5 490 Q-75 493 -74 498 Q-57 562 -26 615 Q-20 625 -13 637.5 Q-6 650 2.5 662 Q11 674 21 683 Q31 692 43 696 Q68 704 80 688.5 Q92 673 96 651 Q101 618 102.5 584.5 Q104 551 102 518 Q97 440 89 364.5 Q81 289 76 212 Q73 168 70.5 124.5 Q68 81 66 37 Q86 128 109 218 Q132 308 160 397 Q173 439 187 480 Q201 521 219 560 Q223 570 228.5 582.5 Q234 595 241 607 Q248 619 256.5 629 Q265 639 276 645 Q295 656 308.5 645 Q322 634 331 611 Q340 588 345.5 557 Q351 526 353.5 497 Q356 468 357 445.5 Q358 423 359 417 Q361 381 363 345 Q365 309 363 274 Q361 244 359 213.5 Q357 183 356 153 Q356 132 356 99.5 Q356 67 363.5 38 Q371 9 388.5 -8 Q406 -25 440 -16 Z " />
<glyph glyph-name="O" unicode="O" horiz-adv-x="465" d="M439 612 Q451 573 455.5 530.5 Q460 488 458 445.5 Q456 403 449 360.5 Q442 318 433 278 Q421 225 402 174.5 Q383 124 357 76 Q346 56 332.5 35 Q319 14 303 -5.5 Q287 -25 267.5 -40 Q248 -55 225 -61 Q200 -68 179.5 -64.5 Q159 -61 142 -50 Q125 -39 111 -21.5 Q97 -4 86 17 Q64 59 51 104.5 Q38 150 35 198 Q33 234 32 270 Q31 306 34 342 Q37 387 48.5 433 Q60 479 77 522 Q85 543 96 566 Q107 589 121 610 Q135 631 153 648.5 Q171 666 193 676 Q199 678 203 675 Q207 672 208 667 Q211 670 214.5 672.5 Q218 675 221 678 Q251 700 288 709 Q325 718 361 708 Q378 703 390.5 693.5 Q403 684 412 671 Q421 658 427.5 643 Q434 628 439 612 Z M437 468 Q438 501 435.5 533.5 Q433 566 423 598 Q419 611 414 626 Q409 641 401.5 653.5 Q394 666 383 676 Q372 686 356 689 Q323 696 294 689 Q265 682 240.5 666 Q216 650 196.5 626 Q177 602 163 574 Q135 519 121 460 Q107 401 103 340 Q101 306 102 272 Q103 238 108 205 Q110 191 112.5 175.5 Q115 160 119 145 Q123 130 130 116 Q137 102 148 93 Q151 90 150.5 86.5 Q150 83 147.5 80 Q145 77 141 76.5 Q137 76 134 79 Q120 91 111.5 108.5 Q103 126 98 145.5 Q93 165 90.5 185 Q88 205 86 222 Q77 311 90 398 Q94 430 102 465 Q110 500 122.5 534 Q135 568 153 599 Q171 630 195 655 Q175 644 159.5 627.5 Q144 611 131.5 591 Q119 571 109.5 550 Q100 529 93 510 Q79 469 67 425 Q55 381 53 337 Q51 305 52 272.5 Q53 240 55 207 Q57 155 71 105.5 Q85 56 112 11 Q130 -19 156.5 -37 Q183 -55 220 -42 Q248 -32 269 -11.5 Q290 9 307 33 Q373 129 404 240.5 Q435 352 437 468 Z " />
<glyph glyph-name="P" unicode="P" horiz-adv-x="301" d="M219 718 Q251 713 275 696.5 Q299 680 315 656 Q331 632 338 602.5 Q345 573 343 543 Q338 470 304 407 Q270 344 213 298 Q185 275 152.5 251 Q120 227 84 216 Q83 203 82.5 190 Q82 177 81 163 Q78 106 75 49 Q72 -8 70 -66 Q68 -97 64 -127 Q60 -157 62 -189 Q62 -199 52 -199 Q42 -199 42 -189 Q40 -157 44 -127.5 Q48 -98 50 -66 Q53 -8 55.5 49 Q58 106 61 163 Q62 176 62.5 188 Q63 200 64 212 Q34 208 6.5 218.5 Q-21 229 -30 261 Q-32 266 -29.5 269 Q-27 272 -23.5 273 Q-20 274 -16.5 272.5 Q-13 271 -12 267 Q-8 253 0 244.5 Q8 236 18.5 232.5 Q29 229 41.5 229.5 Q54 230 66 233 Q72 333 79 432 Q86 531 93 631 Q93 636 96.5 638.5 Q100 641 103.5 641 Q107 641 110 638.5 Q113 636 113 631 Q106 533 99 435.5 Q92 338 86 239 Q112 249 129 261 Q158 280 186 300.5 Q214 321 238 347 Q275 388 298.5 440.5 Q322 493 323 550 Q324 570 319.5 595.5 Q315 621 305 639 Q288 667 259.5 683 Q231 699 199 700 Q132 701 77 669 Q22 637 -20 586 Q-23 582 -26.5 582.5 Q-30 583 -33 585.5 Q-36 588 -36.5 592 Q-37 596 -34 600 Q-12 628 17 652 Q46 676 78.5 692.5 Q111 709 146.5 716.5 Q182 724 219 718 Z " />
<glyph glyph-name="Q" unicode="Q" horiz-adv-x="415" d="M427 -25 Q431 -27 432.5 -31 Q434 -35 433.5 -38.5 Q433 -42 429.5 -44 Q426 -46 422 -44 Q389 -30 356 -16 Q323 -2 291 14 Q268 -16 237 -34 Q218 -44 197 -48.5 Q176 -53 155.5 -50.5 Q135 -48 116.5 -38.5 Q98 -29 84 -11 Q69 7 62 30.5 Q55 54 50 77 Q45 103 42 130 Q39 157 37 184 Q33 301 60 417 Q71 466 90 512.5 Q109 559 144 596 Q157 609 174.5 622.5 Q192 636 211 643 Q230 650 249.5 647.5 Q269 645 286 628 Q307 606 316 578 Q326 572 334 563 Q352 540 362.5 514.5 Q373 489 377.5 461.5 Q382 434 383 405.5 Q384 377 384 349 Q383 289 371.5 233 Q360 177 342 120 Q334 97 325 74 Q316 51 302 30 Q333 16 364 2 Q395 -12 427 -25 Z M95 7 Q113 -18 136.5 -26 Q160 -34 184.5 -30 Q209 -26 232 -11.5 Q255 3 272 23 Q243 37 215 51 Q187 65 159 81 Q155 83 154.5 87 Q154 91 156 94 Q158 97 161.5 98.5 Q165 100 169 98 Q198 82 226.5 67.5 Q255 53 284 39 Q313 84 329 139 Q345 194 355 247 Q365 301 367 360.5 Q369 420 355 473 Q351 489 343.5 510 Q336 531 323 547 Q327 522 326 496 Q325 470 323 445 Q323 440 319.5 438 Q316 436 312 436 Q308 436 305.5 438 Q303 440 303 445 Q305 472 307 500.5 Q309 529 302 556 L299 565 Q297 566 295.5 566 Q294 566 292 567 Q279 569 265.5 567.5 Q252 566 240.5 560.5 Q229 555 221 545 Q213 535 210 521 Q209 516 206 515 Q203 514 199 514.5 Q195 515 192.5 518 Q190 521 191 526 Q194 542 204 555 Q214 568 228 576 Q242 584 258.5 587 Q275 590 291 587 Q280 607 262.5 620.5 Q245 634 219 625 Q193 616 172.5 598 Q152 580 136 556.5 Q120 533 108.5 507 Q97 481 90 457 Q74 400 65 341.5 Q56 283 56 223 Q56 192 58 161.5 Q60 131 66 101 Q70 78 75.5 52.5 Q81 27 95 7 Z " />
<glyph glyph-name="R" unicode="R" horiz-adv-x="313" d="M237 313 Q214 290 190.5 269.5 Q167 249 141 229 Q133 222 124.5 215.5 Q116 209 107 203 Q122 192 134.5 178.5 Q147 165 158 151 Q174 131 189.5 109 Q205 87 221.5 66 Q238 45 257.5 26.5 Q277 8 300 -4 Q304 -6 304.5 -10 Q305 -14 303 -17 Q301 -20 297.5 -21.5 Q294 -23 290 -21 Q258 -4 233.5 24 Q209 52 188 81 Q175 98 162 115 Q149 132 135 148 Q123 163 109 177 Q104 180 100.5 183.5 Q97 187 93 190 Q91 192 90 192 Q88 191 86.5 190.5 Q85 190 83 189 Q78 99 74.5 9.5 Q71 -80 81 -170 Q81 -175 78.5 -177 Q76 -179 72 -179 Q68 -179 65 -177 Q62 -175 61 -170 Q51 -82 54.5 5.5 Q58 93 63 181 Q57 178 51 178 Q38 176 38 187 Q38 201 46 209 Q54 217 65 219 Q70 319 76.5 418 Q83 517 91 617 Q91 621 94.5 623.5 Q98 626 101.5 626 Q105 626 108 623.5 Q111 621 111 617 Q103 516 96.5 416.5 Q90 317 85 217 Q86 216 86.5 216 Q87 216 88 215 L89 215 Q102 223 114 232.5 Q126 242 137 250 Q157 266 175.5 282 Q194 298 212 316 Q248 351 277.5 395.5 Q307 440 318 491 Q323 517 323.5 544.5 Q324 572 317 597.5 Q310 623 294.5 644 Q279 665 252 677 Q226 689 197 690.5 Q168 692 139.5 685 Q111 678 85 664.5 Q59 651 39 632 Q32 626 25 632.5 Q18 639 25 646 Q47 667 74.5 681.5 Q102 696 132.5 703.5 Q163 711 194 709.5 Q225 708 254 697 Q279 687 297 669.5 Q315 652 326 630 Q337 608 341 582.5 Q345 557 343 532 Q338 469 309.5 413.5 Q281 358 237 313 Z " />
<glyph glyph-name="S" unicode="S" horiz-adv-x="294" d="M352 727 Q371 719 377 700.5 Q383 682 380.5 660.5 Q378 639 371 618 Q364 597 357 585 Q355 581 351 580.5 Q347 580 344 582 Q341 584 339.5 587.5 Q338 591 340 595 Q351 615 358.5 642.5 Q366 670 357 693 Q352 706 340.5 710 Q329 714 315.5 713.5 Q302 713 288.5 709.5 Q275 706 266 703 Q226 692 189.5 672.5 Q153 653 121 628 Q87 602 56 569 Q25 536 13 493 Q2 451 12.5 413.5 Q23 376 57 347 Q79 329 105.5 313 Q132 297 156.5 279 Q181 261 200.5 239.5 Q220 218 228 189 Q228 188 230.5 172 Q233 156 230 136 Q229 135 229 133 Q224 104 212.5 78.5 Q201 53 184 28 Q170 8 155 -11 Q140 -30 117 -36 L116 -36 Q106 -38 101 -33.5 Q96 -29 94 -24 Q88 -6 92 13 Q96 32 105.5 50 Q115 68 127.5 84 Q140 100 151 112 Q179 142 212 167 Q211 172 210.5 176 Q210 180 208 185 Q200 212 181 232.5 Q162 253 139 269 Q121 281 101 292.5 Q81 304 62 317.5 Q43 331 27.5 347 Q12 363 2 384 Q-21 432 -11.5 476.5 Q-2 521 25.5 560 Q53 599 92 630.5 Q131 662 169 683 Q193 696 218 707 Q243 718 269 724 Q289 729 310.5 732 Q332 735 352 727 Z M187 69 Q196 86 203 104.5 Q210 123 212 143 Q175 114 146 75 Q137 62 129 48.5 Q121 35 116 21 Q114 14 112.5 5.5 Q111 -3 112.5 -8.5 Q114 -14 119 -14.5 Q124 -15 133 -6 Q149 10 162.5 29.5 Q176 49 187 69 Z " />
<glyph glyph-name="T" unicode="T" horiz-adv-x="154" d="M403 680 Q408 669 408 659 Q408 649 399 641 Q395 638 391 638.5 Q387 639 384.5 641.5 Q382 644 381.5 648 Q381 652 385 655 Q394 663 389 667 Q384 671 375 673 Q366 675 356.5 675.5 Q347 676 346 676 Q323 674 302 670 Q285 666 269 662.5 Q253 659 237 654 Q212 646 187.5 636.5 Q163 627 138 617 Q114 458 95.5 300 Q77 142 79 -19 Q84 -18 88 -20.5 Q92 -23 92 -28 Q93 -56 80 -83 Q76 -90 69 -87.5 Q62 -85 61 -78 Q57 9 60.5 95 Q64 181 72 266.5 Q80 352 92 437.5 Q104 523 117 608 L96 599 Q-38 540 -169 464 Q-173 462 -176.5 463.5 Q-180 465 -182 468 Q-184 471 -183.5 475 Q-183 479 -179 481 Q-107 523 -32 561 Q43 599 121 631 Q122 638 122.5 644 Q123 650 124 656 Q125 661 128 662.5 Q131 664 135 663 Q139 662 141.5 659 Q144 656 144 651 Q143 648 142.5 645.5 Q142 643 142 640 Q151 644 160 647 Q169 650 178 654 Q221 670 265 682 Q309 694 355 696 Q367 697 382 694.5 Q397 692 403 680 Z " />
<glyph glyph-name="U" unicode="U" horiz-adv-x="300" d="M307 -25 Q310 -29 308.5 -32.5 Q307 -36 304 -37.5 Q301 -39 297 -39 Q293 -39 290 -35 Q254 12 237.5 65 Q221 118 216 175 Q209 146 201 116.5 Q193 87 183 58 Q178 43 167.5 27 Q157 11 143 1 Q129 -9 112.5 -10 Q96 -11 79 4 Q63 18 54 36.5 Q45 55 41 75.5 Q37 96 36 117 Q35 138 35 158 Q33 240 38 321 Q41 403 47 485.5 Q53 568 67 649 Q69 659 78 656 Q87 653 85 644 Q74 572 68 498.5 Q62 425 59 352 Q57 314 56 277.5 Q55 241 55 203 Q55 185 54 164 Q53 143 54 122.5 Q55 102 58.5 82 Q62 62 71 46 Q77 35 87.5 22.5 Q98 10 113 11 Q132 13 144 25.5 Q156 38 161 55 Q169 78 175.5 101.5 Q182 125 188 149 Q196 179 203 209 Q210 239 215 269 Q216 284 216.5 299.5 Q217 315 219 330 Q224 384 231.5 436.5 Q239 489 247 542 Q250 562 253 581 Q256 600 260 620 Q261 624 264 625.5 Q267 627 271 626 Q275 625 277.5 622 Q280 619 279 614 Q276 598 273.5 582 Q271 566 268 549 Q259 482 253.5 415 Q248 348 237 281 Q236 276 235.5 273 Q235 270 235 265 Q233 227 235 188.5 Q237 150 245 113 Q253 76 268 41 Q283 6 307 -25 Z " />
<glyph glyph-name="V" unicode="V" horiz-adv-x="313" d="M313 637 Q313 641 316 642.5 Q319 644 323 643 Q327 642 329.5 639 Q332 636 332 631 Q330 608 326 585 Q322 562 317 539 Q291 403 261 268.5 Q231 134 189 4 Q184 -11 178.5 -25 Q173 -39 160 -49 Q154 -54 148 -53 Q142 -52 136 -48.5 Q130 -45 125.5 -39 Q121 -33 118 -28 Q106 -9 105.5 17 Q105 43 104 63 Q101 94 98 125 Q95 156 90 187 Q82 251 72 314.5 Q62 378 53 443 Q48 476 44 509.5 Q40 543 36 576 Q34 592 32.5 607.5 Q31 623 29 639 Q28 643 27.5 655 Q27 667 24 677.5 Q21 688 15 692 Q9 696 -2 684 Q-5 681 -9 681.5 Q-13 682 -16 684.5 Q-19 687 -20 691 Q-21 695 -18 698 Q-13 703 -6.5 707.5 Q0 712 6.5 713.5 Q13 715 20 712.5 Q27 710 33 702 Q48 682 49 656 Q50 630 52 607 Q66 478 87 350.5 Q108 223 120 94 Q122 76 123.5 58 Q125 40 127 22 Q127 11 128.5 -2 Q130 -15 137 -25 Q143 -33 149 -28 Q155 -23 160.5 -12.5 Q166 -2 169.5 9.5 Q173 21 174 24 Q184 54 192 84 Q200 114 208 145 Q227 219 243.5 293 Q260 367 276 442 Q287 490 298 538.5 Q309 587 313 637 Z " />
<glyph glyph-name="W" unicode="W" horiz-adv-x="500" d="M419 648 Q418 653 420.5 656 Q423 659 426.5 660 Q430 661 433.5 659.5 Q437 658 438 653 Q452 581 459.5 509.5 Q467 438 465 365 Q463 307 461 247.5 Q459 188 449 131 Q444 104 430.5 80.5 Q417 57 389 46 Q363 36 338.5 40 Q314 44 295 67 Q276 89 263 114.5 Q250 140 241 167.5 Q232 195 225 223.5 Q218 252 212 281 Q210 246 207.5 210.5 Q205 175 202 140 Q200 111 195.5 82 Q191 53 183 24 Q178 6 173 -17 Q168 -40 154 -54 Q133 -76 105.5 -74 Q78 -72 63 -45 Q43 -9 40.5 33.5 Q38 76 38 117 Q39 254 50 392 Q54 447 57 501.5 Q60 556 67 610 Q66 612 66 616 Q68 620 68 622 Q70 635 71.5 647 Q73 659 75 672 Q77 680 84.5 679.5 Q92 679 94 672 Q99 659 95 645 Q91 631 87 617 Q81 566 77.5 516 Q74 466 71 415 Q67 355 63 295 Q59 235 58 175 Q58 130 57 83.5 Q56 37 69 -7 Q72 -18 77 -29.5 Q82 -41 92 -49 Q105 -60 116 -56.5 Q127 -53 135.5 -43 Q144 -33 149 -19.5 Q154 -6 157 3 Q182 87 187.5 175.5 Q193 264 195 350 Q195 358 203.5 359.5 Q212 361 214 353 Q224 321 231 286 Q238 251 246.5 216.5 Q255 182 267.5 149.5 Q280 117 301 90 Q312 75 330 64 Q348 53 369 60 Q384 65 396 72 Q408 79 416 95 Q427 118 430.5 142.5 Q434 167 436 192 Q440 244 443 295.5 Q446 347 446 398 Q446 461 438.5 523.5 Q431 586 419 648 Z " />
<glyph glyph-name="X" unicode="X" horiz-adv-x="290" d="M306 -26 Q310 -25 313.5 -27.5 Q317 -30 318.5 -34 Q320 -38 319.5 -41.5 Q319 -45 315 -46 Q297 -51 284 -39 Q271 -27 262 -9 Q253 9 246.5 29.5 Q240 50 235 64 Q216 117 197.5 169.5 Q179 222 162 275 Q159 285 156 294.5 Q153 304 149 314 Q145 303 141.5 293 Q138 283 133 272 Q113 218 91 167 Q69 116 47 64 Q35 36 24 8 Q13 -20 3 -49 Q1 -55 -5 -73.5 Q-11 -92 -16 -113 Q-21 -134 -22 -152.5 Q-23 -171 -15 -177 Q-11 -180 -9.5 -184 Q-8 -188 -9 -191.5 Q-10 -195 -13 -196.5 Q-16 -198 -20 -195 Q-31 -188 -35.5 -176.5 Q-40 -165 -40 -152.5 Q-40 -140 -37.5 -127.5 Q-35 -115 -33 -106 Q-25 -71 -14.5 -37.5 Q-4 -4 9 28 Q33 88 59 146 Q85 204 109 265 Q117 285 124 305 Q131 325 139 345 Q128 378 117.5 410.5 Q107 443 96 476 Q88 500 79 524 Q70 548 59 572 Q54 583 48 595 Q42 607 37 619 Q32 627 27.5 636 Q23 645 18 653 Q15 661 6 665 Q8 654 -1 654 Q-10 654 -13 664 Q-16 676 -9.5 683.5 Q-3 691 8 688 Q22 683 32 664.5 Q42 646 48 633 Q74 582 94.5 529 Q115 476 133 422 Q137 409 141 396.5 Q145 384 149 371 Q161 402 173 432 Q185 462 199 492 Q221 542 248.5 592 Q276 642 317 675 Q320 678 324 676.5 Q328 675 330 671.5 Q332 668 332.5 664 Q333 660 330 657 Q310 641 293.5 620 Q277 599 263 575 Q249 551 237 525.5 Q225 500 214 475 Q200 442 186.5 408 Q173 374 159 340 L207 196 Q217 167 227 138 Q237 109 248 80 Q251 74 256.5 55.5 Q262 37 270 18 Q278 -1 287 -15 Q296 -29 306 -26 Z " />
<glyph glyph-name="Y" unicode="Y" horiz-adv-x="367" d="M328 433 Q328 430 327 410.5 Q326 391 326 376 Q325 371 325 366 Q325 361 324 356 Q321 290 318.5 225.5 Q316 161 306 96 Q298 43 287.5 -11.5 Q277 -66 255 -117 Q246 -136 235 -156.5 Q224 -177 210 -195.5 Q196 -214 179.5 -229 Q163 -244 143 -253 Q108 -268 80 -246 Q65 -234 59.5 -219 Q54 -204 51 -184 Q43 -127 50 -69.5 Q57 -12 77 44 Q112 143 171 234 Q230 325 308 396 Q311 460 310 522.5 Q309 585 300 647 Q282 592 257.5 539.5 Q233 487 205 436 Q191 410 175.5 382.5 Q160 355 140 332 Q134 324 125.5 315 Q117 306 107.5 298.5 Q98 291 87.5 286 Q77 281 66 282 Q33 285 21.5 304 Q10 323 10 349.5 Q10 376 17.5 404.5 Q25 433 31 456 Q59 569 94 685 Q97 695 105.5 691.5 Q114 688 111 678 Q97 628 83 578.5 Q69 529 56 478 Q49 452 42 426 Q35 400 30 374 Q28 363 27.5 350 Q27 337 32 326 Q40 309 58 304 Q76 299 92 312 Q113 329 131 351.5 Q149 374 164 399 Q179 424 192 449.5 Q205 475 217 499 Q240 546 260 593.5 Q280 641 294 692 Q296 700 303 698.5 Q310 697 312 690 Q317 667 320.5 643 Q324 619 326 595 Q329 554 329.5 514 Q330 474 328 433 Z M299 243 Q301 275 302.5 306 Q304 337 306 369 Q237 303 183.5 219.5 Q130 136 98 47 Q78 -8 69 -65.5 Q60 -123 70 -180 Q72 -192 76.5 -204.5 Q81 -217 88.5 -225.5 Q96 -234 106.5 -237.5 Q117 -241 132 -236 Q155 -228 172.5 -209.5 Q190 -191 203 -171 Q233 -127 248.5 -78.5 Q264 -30 273 21 Q284 77 290 131.5 Q296 186 299 243 Z " />
<glyph glyph-name="Z" unicode="Z" horiz-adv-x="337" d="M236 300 Q241 300 249 298 Q257 296 266 290 Q275 284 282.5 272 Q290 260 295 239 Q298 224 298 207.5 Q298 191 296 176 Q288 118 275 63 Q267 27 255.5 -11 Q244 -49 228.5 -85 Q213 -121 191 -153.5 Q169 -186 140 -210 Q120 -226 93.5 -236.5 Q67 -247 42 -233 Q17 -218 10.5 -188.5 Q4 -159 7 -133 Q12 -79 34.5 -29.5 Q57 20 86 65 Q122 122 165.5 173 Q209 224 257 272 Q245 281 230 280.5 Q215 280 199 274.5 Q183 269 168 262 Q153 255 141 250 Q118 241 95 231 Q72 221 48 216 Q40 214 36.5 220.5 Q33 227 38 232 Q71 272 101.5 313 Q132 354 156 400 Q179 443 201.5 490.5 Q224 538 235 586 Q240 606 242.5 626.5 Q245 647 240 667 Q236 682 231 688.5 Q226 695 211 689 Q175 677 147 653 Q102 615 73 566 Q44 517 24 463 Q22 458 18 457 Q14 456 10.5 456.5 Q7 457 5 460 Q3 463 5 468 Q27 528 61 585 Q95 642 149 679 Q165 690 183 699.5 Q201 709 220 713 Q231 715 238.5 710 Q246 705 250.5 697 Q255 689 257.5 679 Q260 669 261 660 Q264 628 257.5 595.5 Q251 563 239.5 531.5 Q228 500 213 470 Q198 440 184 412 Q161 366 133 324.5 Q105 283 73 244 Q99 252 124 263.5 Q149 275 175 285 Q190 290 205.5 295 Q221 300 236 300 Z M276 176 Q278 194 278.5 217 Q279 240 269 257 Q224 213 184 165.5 Q144 118 109 65 Q81 22 57 -26.5 Q33 -75 27 -127 Q26 -138 26 -152.5 Q26 -167 29 -180.5 Q32 -194 39.5 -205 Q47 -216 61 -219 Q76 -223 90.5 -218 Q105 -213 118.5 -203 Q132 -193 143 -181 Q154 -169 162 -158 Q200 -105 222.5 -43.5 Q245 18 259 81 Q264 104 269 128 Q274 152 276 176 Z " />
<glyph glyph-name="zero" unicode="0" horiz-adv-x="205" d="M143 342 Q163 329 169 307 Q182 272 180 233.5 Q178 195 172 160 Q170 146 167 130.5 Q164 115 159.5 99.5 Q155 84 148 70 Q141 56 131 46 Q124 39 113.5 33.5 Q103 28 91.5 26 Q80 24 69 27 Q58 30 50 39 Q39 51 34.5 65.5 Q30 80 28.5 96 Q27 112 28 128 Q29 144 30 158 Q32 196 41.5 229.5 Q51 263 68 296 Q75 312 83 324 Q51 301 47 264 Q46 259 42.5 258 Q39 257 35 258 Q31 259 28.5 262 Q26 265 27 270 Q32 296 47.5 319 Q63 342 89 350 Q98 353 109 353 Q122 361 138 361 Q146 360 147 352.5 Q148 345 143 342 Z M159 251 Q159 261 156.5 274.5 Q154 288 149 301 Q144 314 136.5 323.5 Q129 333 118 335 Q103 324 93.5 304 Q84 284 77 270 Q68 249 61 227.5 Q54 206 52 183 Q49 160 48 135 Q47 110 51 86 Q53 71 60.5 57 Q68 43 87 45 Q110 48 125 69 Q136 88 142.5 110.5 Q149 133 153 157 Q157 181 158 205 Q159 229 159 251 Z " />
<glyph glyph-name="one" unicode="1" horiz-adv-x="102" d="M42 358 Q43 368 52.5 368 Q62 368 62 358 Q60 312 59.5 267 Q59 222 58 176 Q57 136 56 96.5 Q55 57 58 18 Q58 13 55.5 10.5 Q53 8 49.5 8 Q46 8 42.5 10.5 Q39 13 39 18 Q36 57 37 96.5 Q38 136 38 176 Q39 222 40 267 Q41 312 42 358 Z " />
<glyph glyph-name="two" unicode="2" horiz-adv-x="152" d="M114 47 Q119 48 122 45.5 Q125 43 126 39 Q127 35 125 32 Q123 29 119 28 Q96 25 71.5 18 Q47 11 24 13 Q18 13 15 20 Q13 27 15.5 32.5 Q18 38 22 45 Q27 58 33.5 70.5 Q40 83 47 96 Q59 122 69.5 147.5 Q80 173 87 200 Q94 226 97 251 Q100 276 98 302 Q97 307 97 311.5 Q97 316 95 321 Q92 331 86 331.5 Q80 332 73.5 328 Q67 324 62 317.5 Q57 311 56 307 Q53 295 52.5 283 Q52 271 51 258 Q51 249 41 249 Q31 249 31 258 Q32 269 33 284 Q34 299 38 312.5 Q42 326 50.5 336.5 Q59 347 75 350 Q98 353 106.5 340.5 Q115 328 117 308 Q122 236 98 168 Q92 149 84 131 Q76 113 67 95 Q62 86 58.5 77.5 Q55 69 50 60 Q48 57 42.5 48.5 Q37 40 35 32 Q55 33 75 39 Q95 45 114 47 Z " />
<glyph glyph-name="three" unicode="3" horiz-adv-x="165" d="M69 241 Q87 238 100 227.5 Q113 217 122 202 Q131 187 134.5 169.5 Q138 152 136 134 Q131 92 107 59 Q83 26 39 19 Q29 17 26.5 26.5 Q24 36 35 38 Q70 43 92 71 Q114 99 116 134 Q116 150 113 166.5 Q110 183 101.5 196 Q93 209 80 216.5 Q67 224 48 222 Q41 221 39.5 227.5 Q38 234 42 239 Q56 253 66.5 271 Q77 289 78 309 Q78 310 78 316.5 Q78 323 77.5 329.5 Q77 336 75 340 Q73 344 69 341 Q50 326 47 302 Q46 297 42.5 296 Q39 295 35.5 296 Q32 297 29.5 300 Q27 303 28 308 Q29 318 37.5 331.5 Q46 345 56.5 354 Q67 363 77.5 362.5 Q88 362 95 345 Q105 319 95.5 291 Q86 263 69 241 Z " />
<glyph glyph-name="four" unicode="4" horiz-adv-x="187" d="M152 133 Q156 135 159 133 Q162 131 163 127.5 Q164 124 162.5 120 Q161 116 157 114 Q142 109 132 104 L126 38 Q126 33 122.5 30.5 Q119 28 115.5 28 Q112 28 109 30.5 Q106 33 107 38 Q108 52 109 67 Q110 82 111 96 Q105 93 99 91 Q93 89 86 87 Q75 84 64 83 Q53 82 43 87 Q32 94 28.5 104.5 Q25 115 26 127 Q27 139 30.5 151.5 Q34 164 36 173 Q49 224 65.5 273.5 Q82 323 99 373 Q102 382 111.5 379.5 Q121 377 118 368 Q107 335 95.5 302 Q84 269 74 235 Q69 221 65.5 206.5 Q62 192 58 177 Q55 164 49 148.5 Q43 133 45 119 Q46 110 52.5 107 Q59 104 69 104.5 Q79 105 90.5 108.5 Q102 112 113 117 Q115 135 116.5 153.5 Q118 172 120 191 Q122 222 125 254 Q128 286 138 316 Q141 325 150.5 322 Q160 319 157 310 Q146 277 143.5 241 Q141 205 138 170 Q136 159 135.5 147.5 Q135 136 134 125 Q148 132 152 133 Z " />
<glyph glyph-name="five" unicode="5" horiz-adv-x="207" d="M60 273 Q82 280 108 273 Q134 266 148 251 Q168 228 171 192 Q174 156 167 127 Q163 111 155.5 95 Q148 79 137 66 Q126 53 111.5 44.5 Q97 36 79 34 Q61 32 50.5 37.5 Q40 43 34.5 53.5 Q29 64 28.5 77.5 Q28 91 31 105 Q32 110 35 111.5 Q38 113 42 112 Q46 111 48.5 107.5 Q51 104 50 100 Q49 94 48 85.5 Q47 77 48.5 69.5 Q50 62 55 57 Q60 52 71 53 Q84 55 96 59.5 Q108 64 117 73 Q135 92 143.5 115.5 Q152 139 151 165 Q151 175 150.5 186.5 Q150 198 147.5 209 Q145 220 140 229 Q135 238 125 244 Q110 252 89.5 256 Q69 260 55 249 Q50 245 45 248.5 Q40 252 40 257 Q40 280 45 306.5 Q50 333 67 351 Q73 357 83.5 358.5 Q94 360 102 362 Q116 366 130 369 Q144 372 158 376 Q168 378 170.5 368.5 Q173 359 163 357 Q145 352 126 348 Q107 344 88 339 Q80 337 75 329.5 Q70 322 67 312.5 Q64 303 62.5 292.5 Q61 282 60 273 Z " />
<glyph glyph-name="six" unicode="6" horiz-adv-x="170" d="M124 367 Q127 370 131 369.5 Q135 369 137.5 366.5 Q140 364 141 360 Q142 356 139 353 Q110 314 90.5 269 Q71 224 63 174 Q65 176 68 176 Q87 179 100.5 170.5 Q114 162 122.5 148 Q131 134 134 116.5 Q137 99 135 83 Q132 64 123 50.5 Q114 37 96 31 Q84 27 69.5 33 Q55 39 49 51 Q39 68 36.5 89 Q34 110 35.5 132 Q37 154 41.5 175 Q46 196 50 213 Q73 298 124 367 Z M74 157 Q64 157 62 166 Q60 160 60 157 Q59 151 57 133 Q55 115 56 96 Q57 77 63 62.5 Q69 48 84 50 Q102 52 110 70 Q118 88 116.5 108 Q115 128 104 144 Q93 160 74 157 Z " />
<glyph glyph-name="seven" unicode="7" horiz-adv-x="180" d="M142 233 Q146 232 147.5 229 Q149 226 148 222 Q147 218 144 215.5 Q141 213 136 214 Q130 215 123.5 215.5 Q117 216 110 216 Q105 204 101 192.5 Q97 181 92 169 Q69 106 53 40 Q51 31 41.5 33.5 Q32 36 34 45 Q45 89 58 130.5 Q71 172 88 214 Q72 211 53 205 Q48 203 45 205 Q42 207 41.5 210.5 Q41 214 42 218 Q43 222 48 224 Q70 232 96 234 Q98 238 98 239 Q101 246 110.5 264 Q120 282 127 301 Q134 320 134.5 335.5 Q135 351 121 354 Q98 360 71.5 355.5 Q45 351 21 349 Q16 348 14 351 Q12 354 12 357.5 Q12 361 14 364.5 Q16 368 21 368 Q40 370 58.5 372.5 Q77 375 95 376 Q105 376 115.5 375.5 Q126 375 134 370 Q154 357 154.5 338.5 Q155 320 147 300 Q140 283 133 267.5 Q126 252 119 235 Q124 235 130 234.5 Q136 234 142 233 Z " />
<glyph glyph-name="eight" unicode="8" horiz-adv-x="167" d="M129 353 Q138 336 138.5 317 Q139 298 133.5 278.5 Q128 259 118.5 239.5 Q109 220 99 202 Q101 200 104 199.5 Q107 199 110 197 Q118 195 117 187.5 Q116 180 110 178 Q116 161 121.5 139.5 Q127 118 127 97.5 Q127 77 118.5 61 Q110 45 86 39 Q66 34 53.5 42 Q41 50 35 64.5 Q29 79 29 96.5 Q29 114 34 128 Q41 146 51 163 Q61 180 72 197 Q45 220 36.5 256.5 Q28 293 33 328 Q36 347 44 361.5 Q52 376 71 383 Q89 389 105 378 Q121 367 129 353 Z M88 185 Q85 180 81.5 174.5 Q78 169 75 164 Q67 151 59 136.5 Q51 122 48 107 Q46 99 47 90 Q48 81 51 73.5 Q54 66 60.5 61.5 Q67 57 78 58 Q98 60 103.5 74.5 Q109 89 107.5 108.5 Q106 128 99.5 147.5 Q93 167 89 178 Q88 182 89 185 L88 185 Z M85 218 Q98 242 110 272 Q122 302 115 330 Q113 339 109 347.5 Q105 356 96 360 Q83 366 72 361.5 Q61 357 57 343 Q53 331 52 318 Q51 305 52 292 Q53 270 60 249 Q67 228 82 214 Q83 215 83.5 216 Q84 217 85 218 Z " />
<glyph glyph-name="nine" unicode="9" horiz-adv-x="172" d="M141 367 Q146 323 144 279.5 Q142 236 129 194 Q116 149 96 107.5 Q76 66 53 25 Q51 21 47 20.5 Q43 20 40 22 Q37 24 35.5 27.5 Q34 31 36 35 Q73 101 98 167.5 Q123 234 125 308 Q120 299 113.5 291 Q107 283 99 276 Q93 271 83.5 266.5 Q74 262 64 259.5 Q54 257 44 258 Q34 259 27 265 Q8 280 6.5 300.5 Q5 321 17 340 Q28 357 49.5 366.5 Q71 376 91 376 Q96 376 98.5 373.5 Q101 371 101 367 Q101 363 98.5 360 Q96 357 91 357 Q77 356 61 350 Q45 344 36 333 Q29 324 27 313.5 Q25 303 28.5 294 Q32 285 40.5 280.5 Q49 276 62 280 Q91 288 106 313.5 Q121 339 121 367 Q121 375 130 376.5 Q139 378 140 370 Q140 368 141 367 Z " />
<glyph glyph-name="question" unicode="&#x3f;" horiz-adv-x="153" d="M236 672 Q250 640 241 607.5 Q232 575 218 546 Q210 526 201 506 Q192 486 184 466 Q130 337 79 208 Q68 180 57.5 153 Q47 126 37 98 Q31 81 23.5 62 Q16 43 12.5 24 Q9 5 10.5 -14 Q12 -33 24 -50 Q27 -54 25.5 -57.5 Q24 -61 21 -62.5 Q18 -64 14 -64 Q10 -64 7 -60 Q-9 -37 -9.5 -9 Q-10 19 -2.5 48 Q5 77 17 105 Q29 133 38 156 Q60 213 83 270 Q106 327 129 384 Q146 426 164 469 Q182 512 200 554 Q206 568 213.5 586 Q221 604 224 622 Q227 640 223 657 Q219 674 204 686 Q192 696 178 697.5 Q164 699 150.5 695.5 Q137 692 125 684 Q113 676 103 666 Q95 658 85 647 Q75 636 68 624 Q61 612 59 599.5 Q57 587 64 574 Q69 566 60.5 561 Q52 556 47 564 Q37 582 40 602 Q43 622 54 640 Q65 658 80.5 673 Q96 688 111 698 Q127 709 145.5 714 Q164 719 181.5 716.5 Q199 714 213.5 703 Q228 692 236 672 Z M14 -186 Q23 -191 17 -199 Q16 -202 14 -206 Q9 -214 0 -210 Q-8 -205 -3 -196 Q-1 -192 0 -189 Q6 -181 14 -186 Z " />
<glyph glyph-name="exclam" unicode="&#x21;" horiz-adv-x="142" d="M76 -154 Q84 -160 81 -168 Q79 -172 78 -175 Q76 -178 71.5 -179 Q67 -180 64 -178 Q60 -176 59 -172 Q58 -168 59 -165 Q60 -162 62 -158 Q67 -150 76 -154 Z M106 701 Q107 705 110.5 706.5 Q114 708 118 707.5 Q122 707 124.5 703.5 Q127 700 126 696 Q112 604 99.5 511.5 Q87 419 79 326 Q71 233 69.5 139.5 Q68 46 76 -48 Q76 -58 66.5 -58 Q57 -58 56 -48 Q48 47 49.5 141 Q51 235 59.5 328.5 Q68 422 80.5 515 Q93 608 106 701 Z " />
<glyph glyph-name="braceleft" unicode="&#x7b;" horiz-adv-x="132" d="M125 -177 Q129 -179 130.5 -183 Q132 -187 131.5 -190.5 Q131 -194 127.5 -196 Q124 -198 120 -196 Q68 -176 36.5 -130 Q5 -84 0 -29 Q-2 6 4 39 Q10 72 23 104 Q28 117 38 133.5 Q48 150 55 167 Q62 184 61.5 200 Q61 216 46 228 Q43 230 43.5 235 Q44 240 46 242 Q74 267 81.5 300.5 Q89 334 75 369 Q64 394 50 417 Q36 440 28 466 Q20 490 21.5 513 Q23 536 33 556 Q43 576 60 591 Q77 606 101 614 Q105 615 108.5 613 Q112 611 112.5 607.5 Q113 604 111.5 600.5 Q110 597 106 596 Q76 585 56 558 Q36 531 40 498 Q44 470 57.5 446 Q71 422 83 397 Q103 355 102.5 312.5 Q102 270 68 235 Q82 219 81.5 199 Q81 179 73 159 Q60 129 45 100.5 Q30 72 24 39 Q18 7 21 -26 Q24 -59 36 -88 Q48 -117 70 -140.5 Q92 -164 125 -177 Z " />
<glyph glyph-name="braceright" unicode="&#x7d;" horiz-adv-x="167" d="M95 230 Q79 218 79 200.5 Q79 183 86 165 Q93 147 103 129 Q113 111 118 97 Q129 65 132.5 32 Q136 -1 131 -36 Q124 -88 91.5 -131.5 Q59 -175 8 -194 Q3 -196 0.5 -194 Q-2 -192 -3 -188.5 Q-4 -185 -2.5 -181 Q-1 -177 4 -175 Q37 -162 60.5 -137.5 Q84 -113 97 -82.5 Q110 -52 113.5 -17.5 Q117 17 110 50 Q103 87 86 123 Q81 134 75 145.5 Q69 157 64 169 Q59 186 60.5 204.5 Q62 223 74 237 Q42 271 42 314 Q42 357 65 399 Q79 424 95 451.5 Q111 479 111 508 Q112 539 94.5 563.5 Q77 588 48 598 Q43 599 42 602.5 Q41 606 42 609.5 Q43 613 46 615 Q49 617 54 616 Q77 608 94 593 Q111 578 120.5 558 Q130 538 130.5 514.5 Q131 491 122 468 Q111 441 95 416 Q79 391 69 363 Q57 330 63.5 298.5 Q70 267 96 244 Q99 242 98.5 237 Q98 232 95 230 Z " />
<glyph glyph-name="bracketleft" unicode="&#x5b;" horiz-adv-x="107" d="M66 613 Q79 620 92 620 Q105 620 118 609 Q122 606 121.5 602.5 Q121 599 119 596 Q117 593 113 592.5 Q109 592 105 595 Q96 603 88.5 601.5 Q81 600 75.5 594 Q70 588 66.5 579 Q63 570 63 564 Q61 551 61.5 538 Q62 525 62 512 Q61 486 60.5 461 Q60 436 58 410 Q56 359 52 308 Q48 257 46 206 Q41 109 39.5 14.5 Q38 -80 45 -177 Q76 -163 110 -163 Q120 -163 120.5 -173 Q121 -183 111 -183 Q74 -183 43 -201 Q38 -204 33 -201 Q28 -198 28 -193 Q16 -66 21 58.5 Q26 183 33 308 Q38 369 39 429.5 Q40 490 42 551 Q44 567 47.5 585.5 Q51 604 66 613 Z " />
<glyph glyph-name="bracketright" unicode="&#x5d;" horiz-adv-x="150" d="M84 620 Q89 623 93.5 619.5 Q98 616 99 611 Q108 485 100.5 360 Q93 235 82 110 Q77 48 74 -12.5 Q71 -73 67 -134 Q66 -151 62 -169.5 Q58 -188 41 -198 Q28 -206 15 -206 Q2 -206 -10 -196 Q-14 -193 -13.5 -189.5 Q-13 -186 -10.5 -183 Q-8 -180 -4 -179.5 Q0 -179 4 -182 Q14 -190 21.5 -187 Q29 -184 34.5 -176.5 Q40 -169 43.5 -159 Q47 -149 47 -142 Q48 -131 48 -119 Q48 -107 49 -95 Q50 -44 55 7 Q59 58 63 109.5 Q67 161 71 212 Q79 309 82.5 403.5 Q86 498 80 595 Q65 587 48.5 583.5 Q32 580 15 578 Q5 578 5 587.5 Q5 597 15 598 Q53 600 84 620 Z " />
<glyph glyph-name="parenleft" unicode="&#x28;" horiz-adv-x="175" d="M60 199 Q55 149 53.5 93.5 Q52 38 59.5 -18 Q67 -74 86 -127 Q105 -180 142 -224 Q145 -228 144.5 -231.5 Q144 -235 141 -236.5 Q138 -238 134 -238 Q130 -238 127 -234 Q89 -190 69.5 -137.5 Q50 -85 41.5 -29.5 Q33 26 34 81 Q35 136 40 186 Q60 418 170 613 Q172 617 176 617.5 Q180 618 183.5 616 Q187 614 189 610.5 Q191 607 189 603 Q136 511 103.5 409.5 Q71 308 60 199 Z " />
<glyph glyph-name="parenright" unicode="&#x29;" horiz-adv-x="155" d="M-3 603 Q-9 611 -1 616 Q7 621 13 613 Q49 569 68 516.5 Q87 464 94.5 408.5 Q102 353 100 298 Q98 243 93 193 Q70 -39 -43 -234 Q-48 -242 -56.5 -237 Q-65 -232 -61 -224 Q-7 -133 26.5 -31 Q60 71 73 180 Q78 230 80.5 285.5 Q83 341 76.5 397 Q70 453 52 506 Q34 559 -3 603 Z " />
<glyph glyph-name="backslash" unicode="&#x5c;" horiz-adv-x="240" d="M208 -106 Q212 -103 217.5 -103.5 Q223 -104 225 -110 Q240 -155 230 -200 Q228 -208 221 -207.5 Q214 -207 212 -200 Q101 235 23 674 Q22 678 24.5 681.5 Q27 685 31 685.5 Q35 686 38 684.5 Q41 683 42 679 Q77 480 118.5 284.5 Q160 89 208 -106 Z " />
<glyph glyph-name="bar" unicode="&#x7c;" horiz-adv-x="102" d="M46 677 Q46 687 56 687 Q66 687 66 677 Q62 460 59 245 Q56 30 53 -187 Q53 -196 43.5 -196 Q34 -196 33 -187 L33 -113 Q33 -109 35 -107 Q37 90 40 285 Q43 480 46 677 Z " />
<glyph glyph-name="slash" unicode="&#x2f;" horiz-adv-x="200" d="M264 677 Q266 681 270 682.5 Q274 684 277.5 683.5 Q281 683 283 679.5 Q285 676 283 672 Q208 471 133.5 272 Q59 73 -16 -128 Q-7 -132 -11 -142 Q-18 -151 -24 -160.5 Q-30 -170 -36 -180 Q-41 -187 -49 -184 Q-57 -181 -54 -173 Q26 41 105 252 Q184 463 264 677 Z " />
<glyph glyph-name="period" unicode="&#x2e;" horiz-adv-x="68" d="M21 109 Q31 109 31 99 Q31 89 21 89 Q12 89 12 99 Q12 109 21 109 Z " />
<glyph glyph-name="comma" unicode="&#x2c;" horiz-adv-x="75" d="M33 107 Q40 104 36 94 L27 73 Q25 69 21 68.5 Q17 68 14 70 Q6 73 10 83 L19 104 Q21 108 25 108.5 Q29 109 33 107 Z " />
<glyph glyph-name="hyphen" unicode="&#x2d;" horiz-adv-x="210" d="M148 181 Q158 181 158 171 Q158 161 148 161 L52 161 Q42 161 42 171 Q42 181 52 181 L148 181 L148 181 Z " />
<glyph glyph-name="plus" unicode="&#x2b;" horiz-adv-x="250" d="M205 190 Q215 190 215 180.5 Q215 171 205 171 L130 168 Q127 126 121 85 Q120 80 117 79 Q114 78 110 79 Q106 80 103.5 83 Q101 86 102 91 Q105 110 106.5 128.5 Q108 147 110 167 Q93 166 76 165 Q59 164 42 163 Q37 162 35 165 Q33 168 33 171.5 Q33 175 35 178.5 Q37 182 42 182 Q59 184 76.5 185 Q94 186 111 187 Q113 207 113 228 Q113 249 112 269 Q112 274 114.5 276.5 Q117 279 121 279 Q125 279 128.5 276.5 Q132 274 132 269 Q133 249 132.5 228.5 Q132 208 131 188 Q150 189 168 189.5 Q186 190 205 190 Z " />
<glyph glyph-name="equal" unicode="&#x3d;" horiz-adv-x="185" d="M158 245 Q168 245 168 235 Q168 225 158 225 Q126 224 93.5 222.5 Q61 221 29 221 Q20 221 20 231 Q20 241 29 241 Q61 241 93.5 242 Q126 243 158 245 Z M151 183 Q155 182 157.5 179 Q160 176 160 172 Q160 168 157.5 165.5 Q155 163 151 163 Q90 169 30 154 Q25 153 22 155.5 Q19 158 18 161.5 Q17 165 18.5 168.5 Q20 172 25 173 Q85 189 151 183 Z " />
<glyph glyph-name="ampersand" unicode="&#x26;" horiz-adv-x="290" d="M187 52 Q219 -11 262 -64 Q265 -68 264.5 -72 Q264 -76 261 -78.5 Q258 -81 254.5 -81.5 Q251 -82 248 -78 Q227 -52 208.5 -24 Q190 4 174 34 Q156 11 133 -6.5 Q110 -24 79 -23 Q60 -23 48 -13 Q36 -3 29 11 Q22 25 20 42 Q18 59 20 74 Q25 111 43.5 144.5 Q62 178 83 208 Q87 215 91.5 221.5 Q96 228 101 235 Q100 239 99.5 242 Q99 245 98 249 Q94 271 91.5 293 Q89 315 87 338 Q86 356 86 376.5 Q86 397 96 414 Q102 425 113.5 433 Q125 441 137 443.5 Q149 446 160.5 441 Q172 436 179 421 Q193 390 184.5 357 Q176 324 161 296 Q153 279 143 263.5 Q133 248 122 232 Q131 190 144.5 150 Q158 110 177 72 Q181 79 185 85.5 Q189 92 193 100 Q197 106 200 112.5 Q203 119 206 125 Q218 139 207 153 Q198 150 195.5 159.5 Q193 169 202 172 Q212 175 222 170 Q232 165 233 153 Q235 133 223 111.5 Q211 90 200 73 Q197 68 194 62.5 Q191 57 187 52 Z M111 295 Q112 276 117 258 Q133 282 145.5 307 Q158 332 165 360 Q167 372 168 386 Q169 400 162 411 Q156 420 148.5 422.5 Q141 425 133 423 Q125 421 119 414 Q113 407 110 398 Q103 374 105.5 347 Q108 320 111 295 Z M74 -2 Q89 -4 101.5 0 Q114 4 125.5 12.5 Q137 21 146.5 32 Q156 43 164 54 Q127 127 107 209 Q98 197 90 184.5 Q82 172 74 159 Q63 140 53.5 120 Q44 100 40 78 Q38 68 38 55 Q38 42 41.5 30 Q45 18 52.5 9 Q60 0 74 -2 Z " />
<glyph glyph-name="percent" unicode="&#x25;" horiz-adv-x="194" d="M162 382 Q167 387 174 383.5 Q181 380 179 372 Q166 319 147 268 Q128 217 110 165 Q104 148 98.5 131.5 Q93 115 88 98 Q93 94 97 90.5 Q101 87 106 84 Q107 85 110 85 Q117 87 120.5 81.5 Q124 76 122 71 Q127 66 131.5 61 Q136 56 138 49 Q140 35 132 19 Q124 3 109 -2 Q94 -7 82 6 Q70 19 72 34 Q74 58 87 73 Q85 75 84 75.5 Q83 76 82 77 Q71 42 62 5.5 Q53 -31 48 -68 Q47 -73 44 -74.5 Q41 -76 37 -75 Q33 -74 30.5 -71 Q28 -68 29 -63 Q35 -24 44.5 14.5 Q54 53 65 91 L64 91 Q59 96 62 101 Q65 106 70 107 Q75 123 80.5 139 Q86 155 91 171 Q106 214 122 256.5 Q138 299 151 343 Q134 328 116 313.5 Q98 299 81 283 Q75 278 65.5 270.5 Q56 263 45.5 258.5 Q35 254 25.5 255.5 Q16 257 11 270 Q8 279 9 290.5 Q10 302 15 312.5 Q20 323 28 330.5 Q36 338 47 340 Q63 342 74 335.5 Q85 329 88 315 Q108 330 126.5 347 Q145 364 162 382 Z M116 32 Q120 42 116.5 48 Q113 54 105 60 Q104 60 104 60.5 Q104 61 103 61 Q89 49 91 30 Q92 25 96.5 20 Q101 15 106 18 Q110 21 112 24.5 Q114 28 116 32 Z M28 290 Q23 273 44 279 Q59 289 70 300 Q72 315 61 319.5 Q50 324 40 313 Q29 302 28 290 Z " />
<glyph glyph-name="dollar" unicode="&#x24;" horiz-adv-x="164" d="M117 319 Q112 324 105.5 327.5 Q99 331 92 333 Q90 301 88 269 Q86 237 84 205 Q99 188 114 170 Q129 152 132 130 Q137 97 120 75 Q103 53 79 36 L79 -65 Q79 -75 69 -75 Q59 -75 59 -65 L59 21 Q44 10 30 -1 Q16 -12 7 -26 Q2 -34 -6.5 -29 Q-15 -24 -10 -16 Q4 4 22.5 16.5 Q41 29 60 43 Q60 82 61 120.5 Q62 159 64 198 Q59 204 54.5 210 Q50 216 46 223 Q27 251 23 279 Q19 307 45 333 Q60 348 74 351 L80 417 Q81 427 90.5 427 Q100 427 99 417 Q97 401 96 385 Q95 369 94 352 Q114 349 131 333 Q135 330 134.5 326.5 Q134 323 131.5 320 Q129 317 125 316.5 Q121 316 117 319 Z M41 280 Q42 266 49.5 253 Q57 240 65 228 Q67 254 68.5 279.5 Q70 305 72 331 Q67 329 65 325 Q57 317 48.5 305 Q40 293 41 280 Z M92 164 Q86 172 83 175 Q81 146 80.5 117 Q80 88 79 59 Q87 65 93 73 Q131 120 92 164 Z " />
<glyph glyph-name="asciicircum" unicode="&#x5e;" horiz-adv-x="237" d="M205 684 Q216 666 223.5 647.5 Q231 629 239 610 Q242 601 232.5 598.5 Q223 596 220 605 Q219 608 211 627 Q203 646 192.5 665.5 Q182 685 170.5 698 Q159 711 151 702 Q130 678 109.5 653.5 Q89 629 68 605 Q65 601 61.5 601.5 Q58 602 55 604.5 Q52 607 51.5 611 Q51 615 54 619 Q71 638 87 657 Q103 676 120 695 Q124 700 129 706 Q134 712 139.5 717 Q145 722 151.5 724 Q158 726 166 724 Q180 721 189.5 708 Q199 695 205 684 Z " />
<glyph glyph-name="underscore" unicode="&#x5f;" horiz-adv-x="282" d="M232 89 Q236 88 238.5 85 Q241 82 241 78 Q241 74 238.5 71.5 Q236 69 232 69 Q182 74 133 67 Q84 60 35 52 Q30 51 27 53.5 Q24 56 23 60 Q22 64 23.5 67 Q25 70 30 71 Q80 79 130.5 86.5 Q181 94 232 89 Z " />
<glyph glyph-name="asterisk" unicode="&#x2a;" horiz-adv-x="140" d="M141 708 Q144 711 147.5 710.5 Q151 710 154 707.5 Q157 705 157.5 701 Q158 697 155 694 Q141 679 128 663.5 Q115 648 103 632 Q114 621 124 609.5 Q134 598 144 586 Q147 582 146.5 578 Q146 574 143 571.5 Q140 569 136.5 568.5 Q133 568 130 572 Q122 581 114 590 Q106 599 98 608 Q98 598 98.5 588.5 Q99 579 100 570 Q100 560 90.5 560 Q81 560 80 570 Q79 577 79 583.5 Q79 590 79 597 Q71 585 64 572.5 Q57 560 50 547 Q48 543 44 542.5 Q40 542 37 543.5 Q34 545 32.5 548.5 Q31 552 33 557 Q53 596 77 630 Q58 648 39 665 Q32 672 39 679 Q46 686 53 679 Q60 673 66.5 667 Q73 661 80 654 Q81 667 82 679 Q83 691 85 703 Q86 708 89 709.5 Q92 711 96 710 Q100 709 102.5 705.5 Q105 702 104 698 Q103 689 102 679.5 Q101 670 100 661 Q110 673 120 685 Q130 697 141 708 Z " />
<glyph glyph-name="sterling" unicode="&#xa3;" horiz-adv-x="242" d="M268 346 Q269 341 266.5 338 Q264 335 260.5 334 Q257 333 253.5 334.5 Q250 336 249 341 Q246 354 230 366 Q214 378 196 383.5 Q178 389 163.5 384 Q149 379 149 359 Q149 331 148.5 304.5 Q148 278 140 252 Q138 247 137.5 243 Q137 239 135 234 Q142 234 148.5 234.5 Q155 235 162 235 Q167 235 169.5 232.5 Q172 230 172 226 Q172 222 169.5 219 Q167 216 162 216 Q154 215 145 214.5 Q136 214 128 213 Q112 171 89.5 134 Q67 97 41 60 Q82 67 121.5 73.5 Q161 80 202 88 Q206 89 209.5 86.5 Q213 84 214 80 Q215 76 213.5 73 Q212 70 207 69 Q161 61 115 52.5 Q69 44 22 36 Q17 35 12 40 Q7 45 11 51 Q36 86 59.5 121.5 Q83 157 100 197 Q102 201 106 211 Q95 210 85.5 209 Q76 208 65 206 Q56 204 53 213.5 Q50 223 60 225 Q74 227 87 228.5 Q100 230 114 232 Q119 245 122 258 Q125 271 127 285 Q130 304 129 322 Q128 340 129 359 Q131 388 148.5 400.5 Q166 413 195 404 Q218 396 239.5 384 Q261 372 268 346 Z " />
<glyph glyph-name="Euro" unicode="&#x20ac;" horiz-adv-x="313" d="M259 124 Q261 128 264.5 128.5 Q268 129 271 127 Q274 125 276 121.5 Q278 118 276 114 Q267 96 252.5 80 Q238 64 220.5 53 Q203 42 182.5 37 Q162 32 141 34 Q123 36 103.5 43 Q84 50 76 68 Q64 93 69 120 Q59 118 49 116.5 Q39 115 29 113 Q24 112 21 114.5 Q18 117 17.5 120.5 Q17 124 18 127.5 Q19 131 24 132 Q36 134 48.5 136.5 Q61 139 73 141 Q75 149 77 154 Q79 160 81.5 166.5 Q84 173 87 179 Q79 177 70 176.5 Q61 176 53 175 Q48 175 46 177.5 Q44 180 44 184 Q44 188 46 191.5 Q48 195 53 195 Q64 196 74.5 197 Q85 198 96 200 Q102 214 110 227.5 Q118 241 126 254 Q137 270 149.5 286 Q162 302 181 310 Q201 318 218 313.5 Q235 309 249 293 Q262 277 263 257 Q264 237 261 218 Q260 213 257 212 Q254 211 250 212 Q246 213 243.5 216 Q241 219 242 224 Q243 233 243 246 Q243 259 239 270.5 Q235 282 226.5 289.5 Q218 297 204 296 Q185 294 171.5 280.5 Q158 267 148 251 Q132 229 119 204 Q130 206 141 208.5 Q152 211 163 214 Q172 216 174.5 207 Q177 198 168 195 Q153 191 138 187.5 Q123 184 108 182 Q104 173 100.5 164 Q97 155 94 145 Q104 147 113 149.5 Q122 152 132 154 Q136 155 139.5 152.5 Q143 150 144 146.5 Q145 143 143.5 139.5 Q142 136 137 135 Q125 132 113 129 Q101 126 89 124 Q85 103 91.5 83 Q98 63 123 57 Q152 49 181 58 Q234 73 259 124 Z " />
<glyph glyph-name="at" unicode="&#x40;" horiz-adv-x="327" d="M284 163 Q285 168 288 169.5 Q291 171 295 170 Q299 169 301.5 165.5 Q304 162 303 158 Q295 112 271.5 73 Q248 34 214 2 Q199 -12 181 -26 Q163 -40 143 -50.5 Q123 -61 101.5 -66 Q80 -71 58 -67 Q12 -59 -7 -28 Q-26 3 -26 47 Q-27 95 -17.5 142.5 Q-8 190 12 235 Q30 277 58 319 Q86 361 124 388 Q139 399 157.5 405 Q176 411 194 410.5 Q212 410 227.5 401.5 Q243 393 254 374 Q264 357 263.5 334 Q263 311 259 292 Q255 268 247.5 244.5 Q240 221 226 200 Q215 183 202 167.5 Q189 152 169 148 Q149 145 136 161 Q130 155 125.5 147.5 Q121 140 116.5 132.5 Q112 125 105.5 119 Q99 113 89 110 Q73 105 66.5 116 Q60 127 62 140 Q63 151 70 170 Q77 189 87.5 205.5 Q98 222 112 230 Q126 238 143 226 Q150 221 145 212.5 Q140 204 133 209 Q127 213 120 210 Q113 207 107.5 200 Q102 193 97.5 185 Q93 177 91 173 Q90 171 87.5 162.5 Q85 154 83.5 145.5 Q82 137 83.5 131.5 Q85 126 93 132 Q100 137 104 144 Q108 151 112 158 Q116 165 121 171.5 Q126 178 134 183 Q139 186 143 184 Q147 182 149 177 Q154 163 164 166 Q174 169 184 178.5 Q194 188 202.5 200.5 Q211 213 214 218 Q222 235 229 252.5 Q236 270 239 288 Q242 307 243.5 331 Q245 355 233 371 Q219 388 196.5 391.5 Q174 395 155 384 Q125 369 101 343 Q77 317 58 285.5 Q39 254 25.5 219.5 Q12 185 5 154 Q-3 121 -7.5 81 Q-12 41 -3 7 Q3 -12 15 -24.5 Q27 -37 42.5 -43 Q58 -49 76 -49 Q94 -49 112 -43 Q143 -31 172 -9.5 Q201 12 224 39 Q247 66 262.5 98 Q278 130 284 163 Z " />
<glyph glyph-name="numbersign" unicode="&#x23;" horiz-adv-x="402" d="M378 293 Q383 293 385 290.5 Q387 288 387 284.5 Q387 281 384.5 277.5 Q382 274 378 274 Q350 271 323 268 Q296 265 268 261 Q262 203 253 148 Q277 151 301.5 153.5 Q326 156 351 158 Q356 158 358.5 155.5 Q361 153 361 149.5 Q361 146 358.5 142.5 Q356 139 351 139 Q325 137 300 134 Q275 131 249 128 Q245 105 241.5 82 Q238 59 234 36 Q233 31 230 30 Q227 29 223 29.5 Q219 30 216.5 33 Q214 36 215 41 Q219 62 222 83 Q225 104 229 125 Q211 122 193 119 Q175 116 157 112 Q152 66 146 20.5 Q140 -25 135 -72 Q135 -77 131.5 -79 Q128 -81 124.5 -81 Q121 -81 118 -79 Q115 -77 116 -72 Q121 -27 126.5 18 Q132 63 137 108 Q112 103 87.5 97.5 Q63 92 39 84 Q30 82 27 91.5 Q24 101 34 104 Q60 111 86.5 117.5 Q113 124 140 129 Q143 157 146.5 184.5 Q150 212 154 241 Q123 234 92.5 227 Q62 220 31 212 Q22 209 19 218.5 Q16 228 26 231 Q58 239 91 247 Q124 255 157 261 Q162 296 166.5 331 Q171 366 176 401 Q177 405 180 406.5 Q183 408 187 407 Q191 406 193.5 403 Q196 400 195 395 Q190 363 186 330.5 Q182 298 177 265 Q195 269 213.5 272 Q232 275 250 278 Q252 298 253 317 Q254 336 255 356 Q255 365 265 365 Q275 365 275 356 Q274 337 273 318.5 Q272 300 270 281 Q324 288 378 293 Z M232 145 Q237 174 241 201.5 Q245 229 248 258 Q230 255 211.5 251.5 Q193 248 174 245 Q170 216 167 188.5 Q164 161 160 133 Q196 140 232 145 Z " />
<glyph glyph-name="less" unicode="&#x3c;" horiz-adv-x="195" d="M153 283 Q157 285 160.5 283.5 Q164 282 166 279 Q168 276 167.5 272 Q167 268 163 266 Q129 248 103 221 Q77 194 54 165 Q48 158 55 149 Q62 140 73 132 Q84 124 95.5 117.5 Q107 111 111 108 Q123 100 134 90.5 Q145 81 155 70 Q161 62 154 55.5 Q147 49 141 56 Q124 76 103 89.5 Q82 103 62 117 Q57 120 51 125 Q45 130 39.5 135.5 Q34 141 30.5 147.5 Q27 154 29 161 Q31 170 38.5 177.5 Q46 185 51 192 Q59 202 67.5 211.5 Q76 221 85 230 Q100 246 116.5 259 Q133 272 153 283 Z " />
<glyph glyph-name="greater" unicode="&#x3e;" horiz-adv-x="195" d="M131 188 Q136 183 141 177 Q146 171 148 164 Q150 156 146 149 Q142 142 135.5 136 Q129 130 121.5 124.5 Q114 119 109 116 Q89 102 70 89.5 Q51 77 36 59 Q30 52 23 58.5 Q16 65 22 73 Q33 86 45.5 96 Q58 106 72 115 Q76 118 86.5 124 Q97 130 107 137.5 Q117 145 122.5 153 Q128 161 123 168 Q99 197 73.5 224 Q48 251 14 269 Q10 271 9.5 275 Q9 279 11 282 Q13 285 16.5 286.5 Q20 288 24 286 Q66 263 98 227 Q116 209 131 188 Z " />
<glyph glyph-name="quotesingle" unicode="&#x27;" horiz-adv-x="70" d="M23 709 Q24 714 27 715.5 Q30 717 34 716 Q38 715 40.5 712 Q43 709 42 704 Q41 696 40.5 689 Q40 682 40 674 Q40 664 30 664 Q20 664 20 674 Q20 692 23 709 Z " />
<glyph glyph-name="semicolon" unicode="&#x3b;" horiz-adv-x="117" d="M57 237 Q67 237 67 227.5 Q67 218 57 218 Q47 218 47 227.5 Q47 237 57 237 Z M47 144 Q48 148 51.5 149.5 Q55 151 59 150.5 Q63 150 65 146.5 Q67 143 66 139 Q63 131 60.5 124 Q58 117 56 109 Q53 100 43.5 102.5 Q34 105 37 115 Q39 122 41.5 129 Q44 136 47 144 Z " />
<glyph glyph-name="colon" unicode="&#x3a;" horiz-adv-x="110" d="M59 221 Q68 221 68 211.5 Q68 202 59 202 Q49 202 49 211.5 Q49 221 59 221 Z M53 153 Q63 153 63 143.5 Q63 134 53 134 Q44 134 44 143.5 Q44 153 53 153 Z " />
<glyph glyph-name="quotedbl" unicode="&#x22;" horiz-adv-x="97" d="M19 701 Q19 706 22 708.5 Q25 711 29 711 Q33 711 35.5 708.5 Q38 706 38 701 Q38 689 38 677 Q38 665 37 653 Q37 644 27 644 Q17 644 17 653 Q18 665 18 677 Q18 689 19 701 Z M52 698 Q52 708 62 708 Q72 708 72 698 L72 656 Q72 647 62 647 Q52 647 52 656 L52 698 Z " />
<glyph glyph-name="asciitilde" unicode="&#x7e;" horiz-adv-x="260" d="M212 221 Q214 225 217.5 225 Q221 225 224 223 Q227 221 228.5 217 Q230 213 228 209 Q223 200 215.5 190.5 Q208 181 199 175 Q190 169 179.5 167 Q169 165 157 171 Q149 174 142.5 180.5 Q136 187 129.5 192.5 Q123 198 116 201.5 Q109 205 100 204 Q69 198 54 168 Q49 160 41 166 Q33 172 37 180 Q48 200 67.5 214.5 Q87 229 111 224 Q125 222 131.5 216 Q138 210 148 199 Q158 188 167.5 187.5 Q177 187 185.5 191.5 Q194 196 200.5 204.5 Q207 213 212 221 Z " />
<glyph glyph-name="grave" unicode="&#x60;" horiz-adv-x="107" d="M80 566 Q82 562 80.5 558.5 Q79 555 75.5 553.5 Q72 552 68 553 Q64 554 62 558 Q56 570 50 581.5 Q44 593 38 605 Q36 609 37.5 612.5 Q39 616 42.5 617.5 Q46 619 50 617.5 Q54 616 56 612 Q62 601 68 589 Q74 577 80 566 Z " />
<glyph glyph-name="b" unicode="b" horiz-adv-x="220" d="M218 201 Q225 208 231 201.5 Q237 195 231 188 Q212 169 190 163 Q168 157 142 155 Q136 154 130 153.5 Q124 153 118 153 Q113 139 104 127.5 Q95 116 81 111 Q74 109 69.5 112 Q65 115 62.5 120.5 Q60 126 59.5 132.5 Q59 139 61 144 Q67 158 79.5 163 Q92 168 106 170 Q111 186 114 198 Q116 207 117.5 216.5 Q119 226 118 235 L118 237 Q118 251 113 258 Q108 265 104 267 Q90 275 79 262 Q68 248 63.5 231 Q59 214 55 197 Q47 161 39.5 124.5 Q32 88 24 52 Q22 44 14 45 Q6 46 6 54 Q4 86 3 117 Q2 148 1 180 L1 212 Q-1 313 -0.5 417 Q0 521 13 621 Q16 644 22 669.5 Q28 695 48 711 Q53 715 64.5 719 Q76 723 90 712 Q94 708 97.5 703.5 Q101 699 106 691 Q111 679 114 667.5 Q117 656 118 653 Q121 635 121 616 Q121 597 121 578 Q119 527 112 477 Q105 427 93 377 Q66 277 20 187 Q20 172 20.5 157.5 Q21 143 21 128 Q25 144 28.5 160 Q32 176 35 193 Q40 216 46.5 239 Q53 262 71 279 Q85 292 103 289 Q121 286 129 269 Q139 248 137 223 Q135 198 127 177 Q127 176 125 172 Q151 174 175 177.5 Q199 181 218 201 Z M19 230 Q27 247 34 264 Q41 281 47 298 Q82 393 94 488 Q97 513 99 537.5 Q101 562 101 586 Q102 607 101 628 Q101 629 100 642 Q99 655 95 666 Q93 674 91 677 Q87 686 79 695.5 Q71 705 59 696 Q53 691 46 679 Q37 659 34 638 Q30 617 28.5 595.5 Q27 574 25 553 Q21 493 19.5 433 Q18 373 18 313 L18 312 L18 304 Q18 296 18.5 285.5 Q19 275 19 265 L19 254 L19 248 L19 230 Z M85 134 Q92 141 97 151 Q84 148 85 134 Z " />
<glyph glyph-name="c" unicode="c" horiz-adv-x="189" d="M188 201 Q191 204 194 204 Q197 204 199.5 201.5 Q202 199 203 195 Q204 191 201 188 Q182 163 155.5 136.5 Q129 110 99 93 Q77 81 61.5 79.5 Q46 78 35.5 82 Q25 86 18.5 93.5 Q12 101 9 107 Q1 125 -1.5 154.5 Q-4 184 1.5 213 Q7 242 21 264.5 Q35 287 61 290 Q73 292 83.5 284.5 Q94 277 98 266 Q104 248 99 232.5 Q94 217 83 203 Q80 199 76.5 198.5 Q73 198 70 200 Q67 202 65.5 205 Q64 208 67 212 Q72 218 76 224.5 Q80 231 82 238 Q83 245 80.5 253 Q78 261 72.5 266 Q67 271 60 271 Q53 271 46 264 Q38 256 34 246.5 Q30 237 27 227 Q21 204 19.5 178 Q18 152 25 129 Q25 127 27.5 120 Q30 113 36.5 107 Q43 101 53.5 99.5 Q64 98 81 107 Q83 107 85 109 Q96 115 105.5 121 Q115 127 124 135 Q159 164 188 201 Z " />
<glyph glyph-name="a" unicode="a" horiz-adv-x="213" d="M213 200 Q215 203 219 203.5 Q223 204 226 202.5 Q229 201 230.5 197.5 Q232 194 230 191 Q223 180 214 168.5 Q205 157 194.5 148 Q184 139 171.5 133 Q159 127 144 129 Q133 130 123 139 Q123 140 122 140 Q114 149 109.5 162 Q105 175 103 187 Q101 199 100.5 208.5 Q100 218 100 220 L100 221 Q95 201 86.5 183 Q78 165 67 150 Q62 143 52.5 134.5 Q43 126 32 121 Q21 116 10 117 Q-1 118 -9 129 Q-17 141 -17 154 Q-17 167 -12.5 180.5 Q-8 194 0.5 205.5 Q9 217 17 226 Q22 231 30 236 Q38 241 47 244 Q56 247 64.5 247 Q73 247 79 243 Q81 241 83.5 237.5 Q86 234 86 227 L91 237 Q92 242 94 246 Q97 254 99 261 Q99 264 101 270 Q103 278 111 277 Q119 276 119 268 L119 255 L119 252 L119 220 Q119 213 119.5 206.5 Q120 200 121 193 Q122 186 123 179.5 Q124 173 127 167 Q127 166 129 162 Q129 162 130 161 Q135 152 143.5 148 Q152 144 165 151 Q181 161 192 173 Q203 185 213 200 Z M49 156 Q59 167 66 181.5 Q73 196 78 212 Q75 211 72 213 Q69 215 69 220 Q69 230 63 230 Q57 230 50 225.5 Q43 221 36 215 Q29 209 28 207 Q24 203 17 191 Q10 179 5.5 166.5 Q1 154 3.5 144.5 Q6 135 21 137 Q30 138 36.5 144 Q43 150 49 156 Z " />
<glyph glyph-name="quotedblleft" unicode="&#x201c;" horiz-adv-x="103" d="M19 701 Q19 706 22 708.5 Q25 711 29 711 Q33 711 35.5 708.5 Q38 706 38 701 Q38 689 38 677 Q38 665 37 653 Q37 644 27 644 Q17 644 17 653 L19 701 Z M52 698 Q52 708 62 708 Q72 708 72 698 L72 656 Q72 647 62 647 Q52 647 52 656 L52 698 Z " />
<glyph glyph-name="quotedblright" unicode="&#x201d;" horiz-adv-x="106" d="M19 701 Q19 706 22 708.5 Q25 711 29 711 Q33 711 35.5 708.5 Q38 706 38 701 Q38 689 38 677 Q38 665 37 653 Q37 644 27 644 Q17 644 17 653 L19 701 Z M52 698 Q52 708 62 708 Q72 708 72 698 L72 656 Q72 647 62 647 Q52 647 52 656 L52 698 Z " />
<glyph glyph-name="quoteright" unicode="&#x2019;" horiz-adv-x="66" d="M23 709 Q24 714 27 715.5 Q30 717 34 716 Q38 715 40.5 712 Q43 709 42 704 Q41 696 40.5 689 Q40 682 40 674 Q40 664 30 664 Q20 664 20 674 Q20 692 23 709 Z " />
<glyph glyph-name="quoteleft" unicode="&#x2018;" horiz-adv-x="69" d="M23 709 Q24 714 27 715.5 Q30 717 34 716 Q38 715 40.5 712 Q43 709 42 704 Q41 696 40.5 689 Q40 682 40 674 Q40 664 30 664 Q20 664 20 674 Q20 692 23 709 Z " />
</font>
</svg>
