<?xml version="1.0" encoding="UTF-8"?>
<svg xmlns="http://www.w3.org/2000/svg" xmlns:xlink="http://www.w3.org/1999/xlink" version="1.2" >
<font id="Love Rosnita Sans">
<font-face  font-family="Love Rosnita Sans" units-per-em="1000" ascent="750" descent="-250" font-style="normal" font-weight="400" font-stretch="normal" cap-height="700" x-height="500" underline-position="-75" underline-thickness="50" />
<missing-glyph  horiz-adv-x="168" d="" />
<glyph glyph-name="NULL" d="" />
<glyph glyph-name="CR" unicode="&#xd;" horiz-adv-x="168" d="" />
<glyph glyph-name="space" unicode="&#x20;" horiz-adv-x="168" d="" />
<glyph glyph-name="exclam" unicode="&#x21;" horiz-adv-x="132" d="M23 23 L114 23 L114 73 C114 83 114 94 114 104 C114 116 114 128 114 140 C114 157 114 175 114 193 L114 215 L113 374 L113 374 L113 701 L23 701 C23 572 23 442 23 313 C23 216 23 120 23 23 L23 23 Z M23 -39 C23 -64 23 -89 23 -114 L114 -114 L114 -39 L23 -39 L23 -39 Z " />
<glyph glyph-name="quotedbl" unicode="&#x22;" horiz-adv-x="142" d="M124 612 L124 616 L124 644 L124 644 L124 701 L79 701 C79 679 79 656 79 634 C79 617 79 600 79 583 L124 583 L124 592 C124 593 124 595 124 597 C124 599 124 601 124 603 C124 606 124 609 124 612 L124 612 Z M66 644 L66 701 L21 701 C21 679 21 656 21 634 C21 617 21 600 21 583 L66 583 L66 592 C66 593 66 595 66 597 C66 599 66 601 66 603 C66 606 66 609 66 612 L66 616 L66 644 L66 644 L66 644 Z " />
<glyph glyph-name="numbersign" unicode="&#x23;" horiz-adv-x="450" d="M429 384 L429 474 C402 474 376 474 350 474 L350 701 L260 701 C260 625 260 550 260 474 C248 474 237 474 225 474 C214 474 202 474 191 474 L191 701 L101 701 C101 625 101 550 101 474 C74 474 48 474 21 474 L21 384 L99 384 C100 384 100 384 101 384 C101 354 101 324 101 294 C101 263 101 232 101 201 C74 201 48 201 21 201 L21 111 L99 111 C100 111 100 111 101 111 C101 36 101 -39 101 -114 L191 -114 L191 42 C191 53 191 63 191 74 C191 86 191 99 191 111 L257 111 L257 111 L260 111 C260 36 260 -39 260 -114 L350 -114 L350 42 C350 53 350 63 350 74 C350 87 350 99 350 111 L429 111 L429 201 C403 201 376 201 350 201 L350 358 L350 358 L350 384 L429 384 L429 384 Z M260 294 C260 263 260 232 260 201 C248 201 237 201 225 201 C214 201 202 201 191 201 L191 358 L191 358 L191 384 L257 384 L257 384 L260 384 C260 354 260 324 260 294 L260 294 Z " />
<glyph glyph-name="dollar" unicode="&#x24;" horiz-adv-x="309" d="M289 104 C289 106 288 108 288 111 C288 111 288 111 288 111 C288 117 287 122 286 128 C272 224 189 341 173 364 C172 365 171 366 170 367 C170 368 170 368 170 368 L170 368 C127 426 113 466 111 516 C111 520 111 523 111 526 C111 531 111 535 111 540 C111 550 112 560 114 570 C116 578 119 586 124 594 C130 604 139 611 150 612 C155 613 160 613 165 612 C175 611 184 605 190 596 C193 591 196 586 197 580 C200 572 202 563 203 555 C204 544 204 533 204 522 C204 496 204 471 204 445 C204 442 204 439 205 436 C205 435 206 435 206 435 C208 434 210 434 211 434 C220 434 229 434 238 434 C251 434 265 434 278 434 C280 434 282 434 284 434 C289 434 289 435 290 440 C290 441 290 442 290 443 C290 471 290 498 290 526 C290 538 289 550 288 562 C284 596 269 672 202 694 L202 747 L112 747 C112 729 112 712 112 694 C37 669 24 585 22 566 C22 560 21 554 21 548 C20 538 20 528 20 518 C20 518 18 451 60 375 L60 375 C79 337 107 289 148 229 L148 229 C185 178 200 141 204 96 C204 84 204 72 204 60 C204 50 204 40 203 30 C202 21 200 14 197 6 C196 1 193 -4 190 -9 C185 -17 178 -22 169 -24 C164 -26 159 -26 154 -26 C140 -25 129 -18 122 -4 C120 -1 119 3 117 6 C115 13 114 20 113 27 C111 38 111 49 111 60 C111 87 111 114 111 141 L20 141 C20 122 20 104 20 85 C20 77 20 69 20 62 C20 53 21 44 21 35 C23 6 36 -83 112 -108 C112 -133 112 -158 112 -182 L202 -182 L202 -107 C268 -83 284 -12 288 21 C289 34 290 47 290 61 C290 62 290 63 290 64 L290 64 C290 67 290 70 290 73 C290 83 290 94 289 104 L289 104 Z " />
<glyph glyph-name="percent" unicode="&#x25;" horiz-adv-x="685" d="M666 99 C666 102 666 104 666 107 C666 108 666 109 666 111 C666 111 666 111 666 111 C666 115 666 120 666 125 C666 137 666 150 665 162 C661 202 640 301 536 301 C419 301 401 188 399 165 C398 159 398 153 398 147 C397 137 397 128 397 118 C397 115 397 113 397 111 C397 111 397 111 397 111 C397 102 397 94 397 85 C397 77 397 69 397 62 C397 53 397 44 398 35 C400 1 417 -114 532 -114 C638 -114 660 -19 665 21 C666 34 666 47 666 61 C666 73 666 86 666 99 C666 99 666 99 666 99 L666 99 Z M579 30 C579 21 577 14 574 6 C572 1 570 -4 567 -9 C562 -17 555 -22 546 -25 C541 -26 535 -26 530 -26 C516 -25 506 -18 499 -4 C497 -1 496 3 494 6 C492 13 490 20 489 27 C488 38 488 49 488 60 C488 72 488 84 488 96 C488 96 488 96 488 96 C488 106 488 116 488 125 C488 130 488 135 488 139 C488 150 489 159 491 169 C493 178 496 186 500 193 C507 204 515 210 527 212 C532 213 537 212 542 212 C552 210 561 205 567 195 C570 191 572 185 574 180 C577 171 579 163 580 154 C581 143 581 132 581 121 C581 118 581 114 581 110 L581 110 C581 93 581 77 581 60 C581 50 581 40 579 30 L579 30 Z M290 499 C290 502 290 505 290 507 C290 508 290 510 290 511 C290 511 290 511 290 511 C290 516 290 521 290 526 C290 538 290 550 289 562 C285 602 264 701 160 701 C43 701 25 589 23 566 C22 560 22 554 22 548 C21 538 21 528 21 519 C21 516 21 513 21 511 C21 511 21 511 21 511 C21 503 21 494 21 486 C21 478 21 470 21 462 C21 453 21 444 22 435 C24 402 41 286 156 286 C262 286 284 382 289 422 C290 435 290 448 290 461 C290 474 290 487 290 499 C290 499 290 499 290 499 L290 499 Z M203 430 C203 422 201 414 198 406 C197 401 194 396 191 392 C186 383 179 378 170 376 C164 375 160 374 154 375 C140 376 130 383 123 396 C121 400 119 403 118 406 C116 413 115 420 113 427 C112 438 112 449 112 460 C112 472 112 484 112 497 C112 497 112 497 112 497 C112 506 112 516 112 526 C112 531 112 535 112 540 C112 550 113 560 115 570 C117 578 120 586 124 594 C131 604 139 610 151 612 C156 613 161 613 166 612 C176 610 185 605 191 596 C194 591 197 586 198 580 C201 572 203 563 204 555 C205 544 205 533 205 522 C205 518 205 514 205 510 L205 510 C205 494 205 477 205 461 C205 451 205 440 203 430 L203 430 Z M351 -24 C352 -10 354 5 355 19 L371 180 C371 182 371 184 371 187 C371 188 372 190 372 192 L379 265 C379 268 379 271 380 274 C381 283 381 291 382 300 L387 352 C388 362 389 372 390 381 C391 396 393 410 394 425 C394 426 394 427 395 428 L396 444 C396 444 396 445 396 446 C398 460 399 475 400 490 C402 504 403 519 405 533 C406 548 407 562 409 577 C410 588 411 598 412 609 C412 609 412 610 412 610 L421 701 L344 701 C344 701 344 700 344 700 C343 686 341 673 340 660 C338 645 337 630 335 614 C334 607 334 600 333 594 C331 580 330 566 329 553 C327 540 326 526 325 513 C323 500 322 486 320 473 C318 454 317 435 315 416 C312 395 310 373 308 352 C307 345 306 338 306 332 C304 318 303 305 301 291 C300 278 299 264 297 251 C296 238 294 225 293 211 C291 192 289 173 287 154 C285 133 283 111 281 90 C280 83 279 77 278 70 C277 57 276 43 274 30 C273 16 271 3 270 -11 C269 -24 267 -37 266 -50 C265 -64 263 -77 262 -90 C262 -93 261 -96 261 -99 L259 -114 C261 -114 263 -114 265 -114 C288 -114 312 -114 335 -114 C342 -114 342 -114 343 -107 L349 -45 C350 -38 350 -31 351 -24 L351 -24 Z " />
<glyph glyph-name="ampersand" unicode="&#x26;" horiz-adv-x="347" d="M323 358 L302 358 C302 415 302 473 302 531 L211 531 C211 518 211 506 211 493 C211 466 211 439 211 413 L211 413 L212 358 L195 358 L171 358 C171 358 141 350 127 421 L127 421 C125 429 124 437 123 445 C122 457 122 468 122 480 C122 491 122 501 122 512 C122 524 122 536 123 548 C124 558 126 568 128 577 C130 583 132 589 136 594 C140 601 147 606 155 609 C159 610 164 610 169 610 C178 611 188 611 197 611 L302 611 C302 641 302 671 302 701 L154 701 C154 701 34 707 31 512 C31 509 31 507 31 505 C31 502 31 499 31 496 C31 483 32 469 33 456 C35 434 38 413 45 392 C48 381 52 371 58 361 C65 348 74 337 84 328 C86 327 87 326 89 324 C89 323 89 321 88 321 C87 319 85 318 83 317 C72 309 64 300 56 289 C51 281 46 272 43 263 C37 249 33 235 30 220 C27 205 25 191 24 177 C23 162 23 147 23 132 C23 110 23 87 23 65 C23 47 23 29 24 12 C25 2 27 -7 28 -16 C28 -17 29 -18 29 -19 C29 -21 29 -22 30 -23 C30 -24 30 -24 30 -24 C50 -121 149 -114 149 -114 L302 -114 C302 13 302 140 302 267 L323 267 L323 358 L323 358 Z M211 74 C211 45 211 16 211 -13 C211 -16 211 -19 211 -22 C211 -22 210 -23 210 -23 C208 -24 207 -24 205 -24 C190 -24 174 -24 159 -24 C156 -24 154 -24 152 -23 C140 -22 131 -16 125 -4 C123 -1 122 2 120 5 C118 10 117 15 116 21 C114 34 113 47 113 61 C113 89 113 117 113 145 C113 157 114 169 115 181 C115 184 115 188 116 191 L116 191 C126 271 165 267 165 267 L211 267 L211 217 L211 217 C211 182 211 147 211 112 C211 99 211 87 211 74 L211 74 Z " />
<glyph glyph-name="quotesingle" unicode="&#x27;" horiz-adv-x="76" d="M17 583 L62 583 L62 592 C62 593 62 595 62 597 C62 599 62 601 62 603 C62 606 62 609 62 612 L62 616 L62 644 L62 644 L62 701 L17 701 C17 679 17 656 17 634 C17 617 17 600 17 583 L17 583 Z " />
<glyph glyph-name="parenleft" unicode="&#x28;" horiz-adv-x="165" d="M151 -26 C150 -26 149 -26 147 -26 C133 -25 122 -18 115 -4 C114 -1 113 3 111 6 C109 13 107 20 106 27 C105 38 105 49 105 60 C105 215 105 370 105 526 C105 531 105 535 105 540 C105 550 106 560 108 570 C110 578 113 586 117 594 C124 604 132 610 144 612 C146 613 149 613 151 613 L151 701 C36 700 18 589 16 566 C15 560 15 554 15 548 C14 538 14 528 14 519 C14 374 14 230 14 85 C14 77 14 69 14 62 C14 53 14 44 15 35 C17 1 34 -114 149 -114 C150 -114 151 -114 151 -114 L151 -26 L151 -26 Z " />
<glyph glyph-name="parenright" unicode="&#x29;" horiz-adv-x="160" d="M144 455 C144 479 144 502 144 526 C144 538 144 550 143 562 C139 602 118 701 14 701 L14 613 C16 613 18 613 20 612 C30 610 39 605 45 596 C48 591 50 586 52 580 C55 572 57 563 58 555 C59 544 59 533 59 522 C59 500 59 479 59 457 L59 457 L59 160 C59 127 59 93 59 60 C59 50 59 40 57 30 C56 21 55 14 52 6 C50 1 48 -5 45 -9 C39 -17 32 -22 23 -25 C20 -25 17 -26 14 -26 L14 -114 C117 -112 138 -18 143 21 C144 34 144 47 144 61 C144 85 144 109 144 133 L144 133 L144 455 L144 455 L144 455 Z " />
<glyph glyph-name="asterisk" unicode="&#x2a;" horiz-adv-x="480" d="M456 537 L421 620 L286 562 L286 701 L196 701 L196 562 L61 620 L26 537 L168 477 L26 335 L90 271 L196 378 L196 271 L286 271 L286 378 L392 271 L456 335 L314 477 L456 537 L456 537 Z " />
<glyph glyph-name="plus" unicode="&#x2b;" horiz-adv-x="442" d="M265 337 L265 358 L265 358 L265 496 L175 496 C175 443 175 390 175 337 C122 337 69 337 16 337 L16 246 C24 246 32 246 41 246 C59 246 78 246 96 246 L120 246 L175 247 C175 193 175 140 175 87 L266 87 C266 95 266 103 266 112 C266 130 266 149 266 167 L266 191 L266 247 L286 247 L286 247 L425 247 L425 337 C372 337 319 337 265 337 L265 337 Z " />
<glyph glyph-name="comma" unicode="&#x2c;" horiz-adv-x="99" d="M9 -35 L9 -115 L40 -115 L20 -190 L54 -190 L89 -108 L89 -35 L9 -35 L9 -35 Z " />
<glyph glyph-name="hyphen" unicode="&#x2d;" horiz-adv-x="358" d="M11 332 L11 253 L345 253 L345 332 L11 332 L11 332 Z " />
<glyph glyph-name="period" unicode="&#x2e;" horiz-adv-x="113" d="M16 -115 L95 -115 L95 -35 L16 -35 L16 -115 L16 -115 Z " />
<glyph glyph-name="slash" unicode="&#x2f;" horiz-adv-x="205" d="M111 -24 C112 -10 114 5 115 19 L131 180 C131 182 131 184 131 187 C131 188 132 190 132 192 L139 265 C139 268 139 271 140 274 C141 283 141 291 142 300 L147 352 C148 362 149 372 150 381 C151 396 153 410 154 425 C154 426 154 427 155 428 L156 444 C156 444 156 445 156 446 C158 460 159 475 160 490 C162 504 163 519 165 533 C166 548 167 562 169 577 C170 588 171 598 172 609 C172 609 172 610 172 610 L181 701 L104 701 C104 701 104 700 104 700 C103 687 101 673 100 660 C98 645 97 630 95 614 C94 607 94 601 93 594 C91 580 90 566 89 553 C87 540 86 526 85 513 C83 500 82 486 80 473 C78 454 77 435 74 416 C72 395 70 373 68 352 C67 345 66 338 66 332 C64 318 63 305 61 291 C60 278 59 264 57 251 C56 238 54 225 53 211 C51 192 49 173 47 154 C45 133 43 111 41 90 C40 83 39 77 39 70 C37 57 36 43 34 30 C33 17 32 3 30 -11 C29 -24 27 -37 26 -50 C25 -64 23 -77 22 -90 C22 -93 21 -96 21 -99 L20 -114 C21 -114 23 -114 25 -114 C48 -114 72 -114 95 -114 C102 -114 102 -114 103 -107 L109 -45 C110 -38 110 -31 111 -24 L111 -24 Z " />
<glyph glyph-name="zero" unicode="0" horiz-adv-x="292" d="M280 456 L280 456 C280 479 280 502 280 526 C280 538 279 550 278 562 C274 602 253 701 149 701 C32 701 15 589 12 566 C12 560 11 554 11 548 C11 538 11 528 11 518 C11 374 11 230 11 85 C11 77 11 69 11 62 C11 53 11 44 11 35 C14 1 30 -114 145 -114 C252 -114 274 -19 278 21 C279 34 280 47 280 61 C280 85 280 109 280 133 L280 133 L280 456 L280 456 Z M193 30 C192 21 190 14 188 6 C186 1 184 -4 181 -9 C175 -17 168 -22 159 -25 C154 -26 149 -26 144 -26 C130 -25 119 -18 112 -4 C110 -1 109 3 108 6 C105 13 104 20 103 27 C101 38 101 49 101 60 C101 215 101 370 101 526 C101 531 101 535 101 540 C101 550 103 560 105 570 C106 578 109 586 114 594 C120 604 129 610 140 612 C145 613 150 613 155 612 C166 611 174 605 180 596 C183 591 186 586 188 580 C190 572 192 563 193 555 C194 544 195 533 195 522 C195 500 195 479 195 457 L195 457 L195 159 C195 126 195 94 195 60 C195 50 194 40 193 30 L193 30 Z " />
<glyph glyph-name="one" unicode="1" horiz-adv-x="196" d="M184 167 L184 191 L184 358 L183 358 L183 701 L94 701 C94 701 94 701 94 701 C93 695 83 632 12 619 C12 595 12 565 12 541 L91 541 L94 541 C94 459 94 376 94 294 C94 158 94 22 94 -114 L184 -114 L184 42 C184 52 184 64 184 74 C184 87 184 99 184 112 C184 130 184 149 184 167 L184 167 Z " />
<glyph glyph-name="two" unicode="2" horiz-adv-x="300" d="M214 -24 L138 -24 L104 -24 L104 29 L104 39 L104 104 C109 145 124 181 159 229 L159 229 C201 289 229 337 247 375 C247 375 247 375 247 375 C290 451 287 518 287 518 C287 528 287 538 287 548 C287 554 286 560 286 566 C283 589 266 701 149 701 C45 701 24 602 20 562 C19 550 18 538 18 526 C18 498 18 471 18 443 C18 442 18 441 18 440 C18 435 19 434 23 434 C25 434 27 434 29 434 C43 434 57 434 70 434 C79 434 88 434 97 434 C98 434 100 434 102 435 C102 435 103 435 103 436 C103 439 103 442 103 445 C103 470 103 496 103 522 C103 533 104 544 105 555 C106 563 108 572 110 580 C112 586 115 591 118 596 C124 605 132 610 143 612 C148 613 153 613 158 612 C169 610 178 604 184 594 C189 587 191 578 193 570 C195 560 197 550 197 540 C197 535 197 531 197 526 L197 517 C195 466 181 426 138 368 L138 368 C138 368 138 368 138 368 C137 366 136 365 135 364 C119 341 36 224 21 128 C21 122 20 117 20 111 L20 111 C19 108 19 106 19 104 C18 94 18 83 18 73 L18 -24 L18 -24 L18 -115 L287 -115 L287 -24 L214 -24 L214 -24 Z " />
<glyph glyph-name="three" unicode="3" horiz-adv-x="301" d="M219 311 C219 311 283 335 285 443 C285 468 285 493 285 518 C285 528 285 538 285 548 C285 554 284 560 284 566 C281 589 264 701 147 701 C43 701 22 602 18 562 C17 550 16 538 16 526 C16 513 16 500 16 487 L102 487 C102 499 102 510 101 522 C101 533 102 544 103 555 C104 563 106 572 108 580 C110 586 113 591 116 596 C122 605 130 610 141 612 C146 613 151 613 156 612 C167 610 176 604 182 594 C187 587 190 578 191 570 C193 560 195 550 195 540 C195 535 195 531 195 526 C195 492 195 459 195 425 L195 425 C195 425 197 352 116 352 L93 352 L93 271 L116 271 C197 271 195 198 195 198 L195 198 C195 152 195 106 195 60 C195 49 195 38 193 27 C192 20 191 13 188 6 C187 3 186 -1 184 -4 C177 -18 166 -25 152 -26 C147 -26 142 -26 137 -25 C128 -22 121 -17 116 -9 C113 -5 110 1 108 6 C106 14 104 22 103 30 C102 40 101 50 101 60 C102 84 102 108 102 132 L16 132 C16 108 16 84 16 61 C16 47 17 34 18 21 C23 -19 44 -114 151 -114 C266 -114 282 1 285 35 C285 44 286 53 286 62 C286 69 286 77 286 85 C286 118 286 150 286 183 C285 206 278 278 219 311 L219 311 Z " />
<glyph glyph-name="four" unicode="4" horiz-adv-x="320" d="M300 167 L300 191 L300 358 L300 358 L300 701 L216 701 L210 701 L210 701 L203 701 L154 701 C154 701 154 700 153 700 C151 687 148 673 145 660 C142 645 139 630 136 614 C134 607 133 600 131 593 C129 580 126 566 123 553 C120 540 118 526 115 513 C112 500 109 486 106 473 C103 454 99 435 95 416 C90 395 86 373 81 352 C80 345 79 338 77 332 C74 318 72 305 69 291 C66 278 63 264 61 251 C58 238 55 225 52 211 C48 192 45 173 40 154 C36 133 32 111 27 90 C26 83 24 77 23 70 C21 62 20 54 18 46 L103 46 C103 46 103 46 103 46 C105 46 108 46 110 46 C140 46 171 46 201 46 C203 46 205 46 208 46 C209 46 209 46 210 45 L210 45 C210 -8 210 -61 210 -114 L300 -114 L300 42 C300 52 300 64 300 74 C300 87 300 99 300 112 C300 130 300 149 300 167 L300 167 Z M210 136 L205 136 L188 136 L118 136 L125 174 C126 178 127 182 128 187 C131 201 134 216 137 230 C140 245 142 260 145 274 C148 289 151 303 154 318 C155 324 157 331 158 338 C161 352 164 367 167 381 C169 396 172 410 175 425 C177 432 178 439 180 446 C182 460 185 475 188 490 C191 504 194 519 197 533 C200 548 203 562 205 577 C207 584 208 591 210 599 L210 599 C210 497 210 395 210 294 C210 241 210 189 210 136 L210 136 L210 136 Z " />
<glyph glyph-name="five" unicode="5" horiz-adv-x="302" d="M106 611 L106 611 L160 611 L285 611 L285 701 C225 701 165 701 106 701 L106 701 L16 701 C16 701 16 701 16 701 C16 701 16 701 16 701 L16 611 L16 611 C16 517 16 423 16 329 C16 302 16 275 16 248 L106 248 L106 269 C106 286 112 334 154 334 C188 334 197 295 199 268 L199 159 C199 126 199 93 199 60 C199 50 199 40 198 30 C197 22 195 14 193 6 C191 1 188 -5 185 -9 C180 -17 173 -22 164 -25 C159 -26 154 -26 148 -26 C135 -25 124 -18 117 -4 C115 -1 114 3 112 6 C110 13 109 20 108 27 C106 38 106 49 106 60 C106 78 106 97 106 115 L15 115 L15 85 C15 77 15 69 15 62 C15 53 16 44 16 35 C19 1 35 -114 150 -114 C257 -114 278 -19 283 21 C284 34 285 47 285 61 C285 85 285 109 285 133 L285 133 C285 133 285 238 285 293 C285 314 283 341 275 366 L275 366 C275 366 256 438 189 438 C142 438 120 409 111 392 C110 391 110 390 109 389 L109 387 C107 383 106 379 106 379 L106 393 L106 405 L106 610 L106 611 L106 611 Z " />
<glyph glyph-name="six" unicode="6" horiz-adv-x="299" d="M283 272 C283 279 283 287 283 293 C283 314 281 341 273 366 L273 366 C273 366 254 438 187 438 C140 438 118 409 109 392 C108 391 108 390 107 389 L107 387 C105 383 104 379 104 379 L104 388 C104 434 104 480 104 526 C104 531 104 535 104 540 C104 550 106 560 108 570 C109 578 112 587 117 594 C123 604 132 610 143 612 C148 613 153 613 158 612 C169 610 177 605 183 596 C186 591 189 586 191 580 C193 572 195 563 196 555 C197 544 197 533 197 522 C197 514 197 506 197 498 L283 498 C283 507 283 516 283 526 C283 538 282 550 281 562 C277 602 256 701 152 701 C35 701 18 589 15 566 C15 560 14 554 14 548 C14 538 14 528 14 518 C14 384 14 250 14 115 L14 115 L14 85 C14 77 14 69 14 62 C14 53 14 44 14 35 C17 1 33 -114 148 -114 L148 -114 L148 -114 C255 -114 277 -19 281 21 C282 34 283 47 283 61 C283 85 283 109 283 133 L283 133 L283 272 L283 272 L283 272 Z M104 248 L104 269 C105 286 110 334 152 334 C187 334 195 295 197 268 L197 159 C197 126 197 93 197 60 C197 50 197 40 196 30 C195 22 193 14 191 6 C189 1 187 -5 183 -9 C178 -17 171 -22 162 -25 C158 -25 154 -26 150 -26 C149 -26 148 -26 147 -26 C133 -25 122 -18 115 -4 C113 -1 112 3 110 6 C108 13 107 20 106 27 C104 38 104 49 104 60 C104 123 104 185 104 248 L104 248 L104 248 Z " />
<glyph glyph-name="seven" unicode="7" horiz-adv-x="251" d="M219 490 C220 500 221 511 222 521 L225 548 C226 557 226 567 227 577 C228 583 228 589 229 596 L239 701 L182 701 L174 701 L163 701 L92 701 L16 701 C16 671 16 641 16 610 L43 610 L92 610 L153 610 C153 605 152 599 152 593 C150 580 149 566 147 553 C146 540 145 526 143 513 C142 500 140 486 139 473 C137 454 135 435 133 416 C131 395 129 373 127 352 C126 345 125 338 124 332 C123 318 121 305 120 291 C119 278 118 264 116 251 C115 238 113 225 112 211 C110 192 108 173 106 154 C104 133 102 111 99 90 C99 83 98 77 97 70 C96 57 94 43 93 30 C91 17 90 3 89 -11 C87 -24 86 -37 85 -50 C83 -64 82 -77 81 -90 C80 -93 80 -96 80 -99 L78 -114 C80 -114 82 -114 83 -114 C107 -114 130 -114 154 -114 C161 -114 161 -114 162 -107 L168 -45 C168 -38 169 -31 170 -24 C171 -10 172 5 174 19 L189 180 C189 182 190 184 190 187 C190 188 190 190 190 192 L197 265 C198 268 198 271 198 274 C199 282 200 291 201 300 L206 352 C207 362 208 372 209 381 C210 396 211 410 213 425 C213 426 213 427 213 428 L215 449 C217 462 218 476 219 490 L219 490 Z " />
<glyph glyph-name="eight" unicode="8" horiz-adv-x="303" d="M284 104 C284 106 284 108 284 111 L284 111 C283 117 283 122 282 128 C273 183 242 246 214 293 C242 341 273 403 282 459 C283 464 283 470 284 476 L284 476 C284 478 284 481 284 483 C285 493 286 503 286 514 C286 517 286 520 286 523 L285 523 C285 524 285 525 285 526 C285 539 285 552 284 566 C282 582 277 609 263 634 C246 669 213 701 154 701 C154 701 153 701 153 701 C152 701 151 701 151 701 C98 701 66 677 47 648 C24 616 19 578 18 566 C17 562 17 558 17 554 C17 553 17 553 17 552 C16 543 16 534 16 525 L16 524 C16 524 16 524 16 524 C16 522 16 520 16 518 C16 518 13 451 56 375 L56 375 C67 352 82 325 102 293 C82 262 67 235 56 212 C56 212 56 212 56 212 C13 135 16 68 16 68 C16 62 16 56 16 49 C16 49 16 49 16 49 C16 49 16 48 16 47 C16 47 16 46 16 46 C16 42 16 38 17 35 C17 34 17 33 17 33 C17 29 17 25 18 21 C19 9 24 -29 47 -61 C66 -91 98 -114 151 -114 C151 -114 152 -114 153 -114 C153 -114 154 -114 154 -114 C213 -114 246 -83 263 -48 C277 -22 282 4 284 21 C285 34 285 47 285 61 C285 62 285 63 285 64 L286 64 C286 67 286 70 286 73 C286 83 285 94 284 104 L284 104 Z M200 65 C200 54 200 43 198 32 C197 23 196 15 193 7 C191 1 189 -4 186 -9 C182 -14 179 -17 175 -20 C172 -22 168 -24 164 -25 C159 -26 154 -26 149 -26 C142 -25 136 -23 131 -20 C127 -17 122 -13 119 -7 C115 0 112 9 110 17 C109 24 107 31 107 38 C107 42 106 46 106 49 C106 53 106 57 106 61 L106 70 C108 118 121 156 158 209 C185 167 197 134 200 96 C200 89 200 81 200 73 C200 73 200 73 200 73 C200 70 200 68 200 65 L200 65 Z M106 517 L106 519 C106 519 106 519 106 519 L106 527 C106 528 106 528 106 529 C106 530 106 532 106 533 C106 533 106 533 106 533 C106 535 106 536 106 538 C106 542 107 545 107 548 C107 556 108 563 110 570 C112 578 115 587 119 594 C122 599 127 604 131 607 C136 610 142 612 149 613 C154 613 159 613 164 611 C168 610 172 609 175 607 C179 604 182 600 186 596 C189 591 191 586 193 580 C196 572 197 563 198 555 C200 544 200 533 200 522 C200 520 200 518 200 516 C200 516 200 516 200 516 C200 507 200 499 200 490 C197 452 185 419 158 378 C121 430 108 469 106 517 L106 517 Z " />
<glyph glyph-name="nine" unicode="9" horiz-adv-x="302" d="M18 315 C18 307 18 300 18 293 C18 273 20 245 28 220 L28 220 C28 220 46 149 113 149 C160 149 182 178 191 195 C192 196 192 197 193 198 L193 200 C195 204 196 207 196 207 L196 199 C196 153 196 107 196 61 C196 56 196 51 196 47 C196 37 195 27 193 17 C191 9 188 0 184 -7 C177 -17 169 -24 157 -25 C152 -26 147 -26 142 -25 C132 -24 123 -18 117 -9 C114 -4 111 1 110 7 C107 15 105 23 104 32 C103 43 103 54 103 65 C103 73 103 81 103 89 L18 89 C18 80 18 70 18 61 C18 49 18 37 19 25 C23 -16 44 -114 148 -114 C265 -114 283 -2 285 21 C285 27 286 33 286 39 C287 49 287 59 287 68 C287 203 287 337 287 471 L287 471 L287 502 C287 509 287 517 287 525 C287 534 287 543 286 552 C284 585 267 701 152 701 C152 701 152 701 152 701 L152 701 C46 701 24 605 19 566 C18 552 18 539 18 526 C18 502 18 478 18 453 L18 453 L18 315 L18 315 L18 315 Z M196 338 L196 318 C196 301 190 253 148 253 C114 253 105 292 103 318 L103 427 C103 460 103 493 103 526 C103 537 103 547 104 557 C105 565 107 573 110 581 C111 586 114 591 117 596 C122 604 129 609 138 611 C142 612 146 613 150 613 C151 613 152 613 154 613 C168 612 178 605 185 591 C187 588 189 584 190 581 C192 574 193 567 194 560 C196 549 196 538 196 527 C196 464 196 401 196 338 L196 338 L196 338 Z " />
<glyph glyph-name="colon" unicode="&#x3a;" horiz-adv-x="186" d="M32 453 L32 329 L155 329 L155 453 L32 453 L32 453 Z M32 -115 L155 -115 L155 9 L32 9 L32 -115 L32 -115 Z " />
<glyph glyph-name="semicolon" unicode="&#x3b;" horiz-adv-x="177" d="M27 9 L151 9 L151 -104 L96 -231 L43 -231 L75 -115 L27 -115 L27 9 L27 9 Z M27 453 L27 329 L151 329 L151 453 L27 453 L27 453 Z " />
<glyph glyph-name="less" unicode="&#x3c;" horiz-adv-x="433" d="M406 479 L25 338 L25 248 L406 107 L406 182 L101 292 L406 401 L406 479 L406 479 Z " />
<glyph glyph-name="equal" unicode="&#x3d;" horiz-adv-x="365" d="M15 419 L15 340 L349 340 L349 419 L15 419 L15 419 Z M15 175 L349 175 L349 254 L15 254 L15 175 L15 175 Z " />
<glyph glyph-name="greater" unicode="&#x3e;" horiz-adv-x="439" d="M27 479 L27 401 L332 292 L27 182 L27 107 L409 248 L409 338 L27 479 L27 479 Z " />
<glyph glyph-name="question" unicode="&#x3f;" horiz-adv-x="318" d="M29 -114 L120 -114 L120 -38 L29 -38 C29 -64 29 -89 29 -114 L29 -114 Z M299 518 C299 528 299 538 298 548 C298 554 298 560 297 566 C295 589 277 701 160 701 C56 701 36 602 31 562 C30 550 30 538 30 526 C30 498 30 471 30 443 C30 442 30 441 30 440 C30 435 30 434 35 434 C37 434 39 434 41 434 C55 434 68 434 82 434 C90 434 99 434 108 434 C110 434 111 434 113 435 C114 435 115 435 115 436 C115 439 115 442 115 445 C115 471 115 496 115 522 C115 533 115 544 117 555 C118 563 119 572 122 580 C124 586 126 591 129 596 C136 605 144 611 154 612 C159 613 164 613 169 612 C181 611 189 604 196 594 C200 586 203 578 205 570 C207 560 208 550 208 540 C208 535 209 531 209 526 L209 517 C207 466 192 426 150 368 L150 368 C150 368 150 368 150 368 C149 366 148 365 147 364 C130 341 48 224 33 128 C32 123 32 117 31 111 L31 111 C31 109 31 106 30 104 C30 94 29 83 29 73 L29 23 L116 23 L116 29 L116 39 L116 104 C121 145 136 181 171 229 L171 229 C212 289 240 337 259 375 L259 375 C302 451 299 518 299 518 L299 518 Z " />
<glyph glyph-name="at" unicode="&#x40;" horiz-adv-x="625" d="M552 614 C467 731 278 712 198 660 C118 609 -6 487 24 150 C53 -187 413 -132 496 -60 L504 42 C504 42 426 -38 307 -30 C188 -22 95 44 103 279 C111 514 227 621 347 614 C467 608 538 552 530 378 C523 222 486 160 453 172 C453 172 453 172 452 172 C452 172 451 172 450 173 C442 177 442 187 442 193 C442 193 442 196 442 196 L469 492 L381 489 L373 431 C373 431 359 497 292 493 C224 490 200 420 192 368 C185 326 180 260 178 234 C178 229 176 186 188 147 C195 129 205 112 220 99 C235 86 253 82 273 83 C301 85 328 98 341 125 C344 131 347 137 348 144 C348 144 353 68 436 76 C519 85 566 167 586 233 C605 299 636 497 552 614 L552 614 Z M366 336 C360 273 355 230 355 230 C355 230 349 171 300 177 C300 178 299 178 297 178 C296 178 294 179 292 179 C285 182 280 188 277 196 C268 219 269 244 269 252 L274 308 L277 342 C277 342 281 398 327 395 C327 395 372 400 366 336 L366 336 Z " />
<glyph glyph-name="A" unicode="A" horiz-adv-x="386" d="M350 -109 C349 -102 348 -94 348 -86 C346 -73 345 -59 343 -46 C342 -32 341 -19 339 -6 C338 8 336 21 335 34 C333 53 331 72 329 91 C327 113 325 134 322 156 C322 162 321 169 320 175 C319 189 317 203 316 216 C315 230 313 243 312 256 C311 269 309 283 308 296 C306 310 305 323 304 337 C302 350 300 364 299 378 C297 396 295 415 293 434 C291 456 289 478 287 499 C286 506 285 512 285 519 C283 533 282 546 280 560 C279 573 278 586 276 600 C275 614 273 629 272 644 C270 657 269 669 268 682 C267 688 266 694 266 701 L119 701 C119 700 119 700 119 699 C117 686 116 673 115 659 C113 644 111 629 110 614 C109 607 109 600 108 593 C106 579 105 566 103 552 C102 539 101 526 99 512 C98 499 96 486 95 473 C93 454 91 435 89 416 C87 394 85 373 83 351 C82 344 81 338 81 331 C79 318 78 304 76 291 C75 277 74 264 72 251 C71 237 69 224 68 211 C66 192 64 173 62 154 C60 132 58 111 55 89 C55 83 54 76 53 69 C52 56 50 43 49 30 C48 16 46 2 45 -11 C44 -24 42 -38 41 -51 C39 -64 38 -78 37 -91 C36 -94 36 -97 36 -100 L34 -114 C36 -115 38 -115 40 -115 C63 -115 87 -115 110 -115 C117 -115 117 -115 118 -107 C118 -106 118 -106 118 -105 C119 -93 121 -81 122 -68 C123 -54 125 -39 126 -25 C127 -8 129 9 131 26 C131 31 132 36 132 42 C133 44 134 45 136 45 C138 45 141 45 143 45 C173 46 203 46 234 45 C236 45 238 45 240 45 C243 45 244 44 244 42 C245 34 245 27 246 20 C247 6 249 -9 250 -23 C251 -37 253 -51 254 -66 C256 -80 257 -94 258 -108 C259 -110 259 -111 259 -113 C260 -114 261 -114 261 -115 C263 -115 264 -115 265 -115 C292 -115 318 -115 344 -115 C345 -115 347 -115 348 -115 C349 -114 350 -113 350 -112 C350 -111 350 -110 350 -109 L350 -109 Z M229 136 L211 136 L141 136 L145 173 C145 178 146 182 146 186 C148 201 149 215 150 230 C152 244 153 259 155 274 C156 288 157 303 159 317 C160 324 160 330 161 337 C162 352 163 366 165 381 C166 395 168 410 169 425 C170 431 170 438 171 445 C172 460 174 475 175 489 C177 504 178 518 179 533 C181 547 182 562 183 576 C184 587 186 598 187 609 C187 609 187 610 187 610 C188 610 188 610 188 609 C189 606 190 603 190 600 C192 583 193 567 195 550 C196 535 197 521 199 506 C199 498 200 489 201 481 C202 474 203 467 203 460 C205 445 206 430 207 416 C209 401 210 387 212 372 C212 364 213 355 214 347 C215 338 216 329 216 320 C217 313 218 306 219 298 L234 136 L229 136 L229 136 Z " />
<glyph glyph-name="B" unicode="B" horiz-adv-x="347" d="M313 131 C313 146 313 161 312 176 C311 191 309 205 306 219 C303 234 299 249 293 263 C289 272 285 280 280 288 C272 299 263 309 253 316 C251 317 249 319 247 320 C246 321 246 323 247 324 C249 325 250 327 252 328 C262 337 271 348 278 360 C283 370 288 380 291 391 C297 412 301 433 303 455 C304 469 304 482 304 496 C304 498 304 501 304 504 C304 506 304 509 304 511 C301 706 182 701 182 701 L34 701 C34 565 34 429 34 293 C34 157 34 21 34 -115 L186 -115 C186 -115 286 -121 306 -25 C306 -24 306 -24 306 -24 C306 -22 307 -21 307 -20 C307 -19 307 -18 307 -17 C309 -8 310 2 311 12 C313 29 313 47 313 64 C313 87 313 109 313 131 L313 131 Z M124 492 C124 529 124 565 124 601 C124 610 124 610 132 610 C144 610 155 610 167 610 C172 610 176 610 181 608 C189 605 195 601 200 593 C203 588 206 583 207 577 C210 567 212 558 213 548 C214 535 214 523 214 511 C214 501 214 490 214 480 C214 468 214 456 213 444 C212 436 211 428 209 421 L209 421 C194 349 165 357 165 357 L124 357 L124 412 L124 412 C124 439 124 466 124 492 L124 492 Z M223 60 C223 47 222 33 220 20 C219 15 217 9 215 4 C214 1 213 -2 211 -5 C205 -16 196 -22 184 -24 C182 -24 179 -24 177 -24 C162 -24 146 -24 130 -24 C129 -24 128 -24 126 -24 C126 -24 125 -23 125 -22 C124 -19 124 -16 124 -13 C124 16 124 45 124 74 C124 86 124 99 124 111 C124 146 124 181 124 216 L124 216 L124 266 L171 266 C171 266 210 271 220 190 L220 190 C220 187 221 184 221 181 C222 169 223 157 223 144 C223 116 223 88 223 60 L223 60 Z " />
<glyph glyph-name="C" unicode="C" horiz-adv-x="329" d="M30 61 C30 52 31 43 31 34 C34 1 50 -115 165 -115 C271 -115 293 -19 298 21 C299 34 300 47 300 60 C300 98 300 136 300 174 C300 175 300 177 300 178 C300 179 300 180 299 180 C299 181 299 181 298 181 C296 182 295 182 293 182 C269 182 245 182 221 182 C219 182 218 182 217 182 C216 182 215 180 215 179 C214 176 214 173 214 170 C214 133 214 97 214 60 C214 50 214 39 213 29 C212 21 210 13 207 5 C206 0 203 -5 200 -9 C195 -17 188 -23 179 -25 C174 -26 169 -27 164 -26 C150 -25 139 -18 132 -5 C130 -1 129 2 128 5 C125 12 124 19 123 26 C121 37 121 48 121 59 C121 215 121 370 121 525 C121 530 121 535 121 539 C121 550 122 559 125 569 C126 578 129 586 134 593 C140 604 149 610 160 612 C165 613 170 613 175 612 C186 610 194 604 200 595 C203 590 206 585 208 580 C210 571 212 563 213 554 C214 543 214 532 214 521 C214 496 214 470 214 444 C214 442 215 439 215 436 C215 435 216 434 216 434 C218 434 220 434 221 434 C230 434 239 434 248 434 C261 434 275 434 288 434 C290 434 292 434 294 434 C299 434 300 434 300 440 C300 441 300 442 300 443 C300 470 300 498 300 525 C300 537 299 550 298 562 C294 602 273 701 169 701 C52 701 35 588 32 565 C32 559 31 553 31 547 C30 537 30 528 30 518 C30 374 30 229 30 85 C30 77 30 69 30 61 L30 61 Z " />
<glyph glyph-name="D" unicode="D" horiz-adv-x="346" d="M312 483 L312 483 C312 496 312 509 312 522 C312 539 311 557 310 574 C309 584 308 593 306 603 C306 604 306 605 305 606 C305 607 305 608 305 609 C305 610 305 610 304 611 C285 707 185 701 185 701 L123 701 L123 701 L33 701 C32 565 32 429 32 293 C32 157 32 21 32 -115 L101 -115 C101 -115 101 -115 101 -115 L152 -115 C152 -115 152 -115 152 -115 L185 -115 C185 -115 285 -121 304 -25 C305 -24 305 -24 305 -24 C305 -22 305 -21 305 -20 C306 -19 306 -18 306 -17 C308 -8 309 2 310 12 C311 29 312 47 312 64 C312 79 312 95 312 110 L312 110 L312 483 L312 483 Z M221 60 C221 47 220 33 218 20 C217 15 216 9 214 4 C213 1 211 -2 210 -5 C203 -16 194 -22 182 -24 C180 -24 178 -24 176 -24 C160 -24 145 -24 129 -24 C128 -24 126 -24 125 -24 C124 -24 123 -23 123 -22 C123 -19 123 -16 123 -13 C123 16 123 45 123 74 C123 86 123 99 123 111 C123 124 123 136 123 148 L123 293 L123 357 L122 357 L123 412 L123 412 L123 440 L123 460 C123 471 123 481 123 492 C123 529 123 565 123 601 C123 602 123 603 123 603 L123 610 L148 610 L148 610 C157 610 166 610 176 610 C178 610 180 610 182 610 C194 608 203 602 210 591 C211 588 213 585 214 581 C216 576 217 571 218 566 C220 552 221 539 221 526 C221 500 221 474 221 449 L221 449 L221 444 L221 444 L221 100 C221 99 221 97 221 96 L221 93 L221 93 C221 82 221 71 221 60 L221 60 Z " />
<glyph glyph-name="E" unicode="E" horiz-adv-x="210" d="M126 -24 L126 -24 C125 -24 124 -24 123 -24 C122 -24 120 -24 119 -24 C118 -24 117 -23 117 -22 C117 -19 117 -16 117 -13 C117 16 117 45 117 74 C117 86 117 99 117 111 C117 146 117 181 117 216 L117 216 L117 266 L163 266 L165 266 L178 266 L178 357 L163 357 L157 357 L122 357 L116 357 L117 412 L117 412 C117 439 117 466 117 492 C117 529 117 565 117 601 C117 610 117 610 124 610 C131 610 138 610 145 610 L178 610 L178 701 C175 701 174 701 174 701 L26 701 C26 565 26 429 26 293 C26 157 26 21 26 -115 L178 -115 L178 -24 L126 -24 L126 -24 Z " />
<glyph glyph-name="F" unicode="F" horiz-adv-x="214" d="M122 41 C122 52 122 63 122 74 C122 86 122 99 122 111 C122 130 122 148 122 167 L122 216 L122 266 L168 266 L170 266 L183 266 L183 357 L168 357 L162 357 L127 357 L121 357 L122 412 L122 412 C122 439 122 466 122 492 C122 529 122 565 122 601 C122 610 122 610 130 610 C136 610 143 610 150 610 L183 610 L183 701 C181 701 179 701 179 701 L31 701 C31 565 31 429 31 293 C31 157 31 21 31 -115 L122 -115 L122 41 L122 41 Z " />
<glyph glyph-name="G" unicode="G" horiz-adv-x="321" d="M294 180 C294 180 294 180 294 181 L210 181 L196 181 L191 181 L155 181 L154 181 L154 90 L196 90 L199 90 L209 90 C209 80 209 70 209 60 C209 50 209 39 208 29 C207 21 205 13 203 5 C201 0 198 -5 195 -9 C190 -17 183 -23 174 -25 C169 -26 164 -27 159 -26 C145 -25 134 -18 127 -5 C125 -1 124 2 122 5 C120 12 119 19 118 26 C116 37 116 48 116 59 C116 215 116 370 116 525 C116 530 116 535 116 539 C116 550 118 559 120 569 C121 578 124 586 129 593 C135 604 144 610 155 612 C160 613 165 613 170 612 C181 610 189 604 195 595 C198 590 201 585 203 580 C205 571 207 563 208 554 C209 543 209 532 209 521 C209 496 209 470 209 444 C209 442 210 439 210 436 C210 435 211 434 211 434 C213 434 215 434 216 434 C225 434 234 434 243 434 C256 434 270 434 284 434 C286 434 288 434 290 434 C294 434 295 434 295 440 C295 441 295 442 295 443 C295 470 295 498 295 525 C295 537 294 550 293 562 C289 602 268 701 164 701 C47 701 30 588 27 565 C27 559 26 553 26 547 C26 537 25 528 25 518 C25 374 25 229 25 85 C25 77 25 69 25 61 C25 52 26 43 26 34 C29 1 45 -115 160 -115 C266 -115 288 -19 293 21 C294 34 295 47 295 60 C295 98 295 136 295 174 C295 175 295 177 295 178 C295 179 295 180 294 180 L294 180 Z " />
<glyph glyph-name="H" unicode="H" horiz-adv-x="302" d="M274 167 L274 181 L273 181 L273 357 L273 460 L273 701 L183 701 C183 586 183 472 183 357 L170 357 L164 357 L129 357 L123 357 L123 701 L33 701 C33 565 33 429 33 293 C33 157 33 21 33 -115 L124 -115 L124 41 C124 52 124 63 124 74 C124 86 124 99 124 111 C124 130 124 148 124 167 L124 216 L124 266 L170 266 L172 266 L183 266 C183 139 183 12 183 -115 L274 -115 L274 41 C274 52 274 63 274 74 C274 86 274 99 274 111 C274 130 274 148 274 167 L274 167 Z " />
<glyph glyph-name="I" unicode="I" horiz-adv-x="144" d="M116 357 L116 701 L27 701 C27 565 27 429 27 293 C27 157 27 21 27 -115 L117 -115 L117 41 C117 52 117 63 117 74 C117 86 117 99 117 111 C117 130 117 148 117 167 L117 190 L116 357 L116 357 L116 357 Z " />
<glyph glyph-name="J" unicode="J" horiz-adv-x="294" d="M266 357 L266 357 L266 701 L176 701 C176 565 176 429 176 293 C176 236 176 179 176 122 L176 25 C176 19 174 3 167 -8 C167 -9 167 -9 167 -9 C167 -9 167 -10 166 -10 C161 -18 154 -23 145 -25 C143 -26 141 -26 139 -26 L139 -26 C139 -26 139 -26 139 -26 C138 -26 137 -26 137 -26 C106 -29 94 -2 94 -2 L29 -64 C48 -92 80 -115 131 -115 C238 -115 260 -19 264 21 C265 34 266 47 266 60 C266 78 266 95 266 113 L266 113 C266 131 266 149 266 167 L266 190 L266 357 L266 357 Z " />
<glyph glyph-name="K" unicode="K" horiz-adv-x="369" d="M251 74 C245 86 239 99 233 111 C224 130 215 148 206 167 L195 190 L145 293 L195 395 L206 419 C215 437 224 456 233 474 C239 487 245 499 251 512 C256 523 262 534 267 545 L342 701 L252 701 C208 610 164 519 120 428 L120 701 L30 701 C30 565 30 429 30 293 C30 157 30 21 30 -115 L121 -115 L121 41 C121 52 121 63 121 74 C121 86 121 99 121 111 C121 126 121 142 121 157 C165 66 208 -24 252 -115 L342 -115 L267 41 C262 52 256 63 251 74 L251 74 Z " />
<glyph glyph-name="L" unicode="L" horiz-adv-x="213" d="M134 -24 C134 -24 133 -24 132 -24 C130 -24 129 -24 127 -24 C127 -24 126 -23 126 -22 C126 -19 125 -16 125 -13 C125 16 125 45 125 74 C125 86 125 99 125 111 C125 127 125 142 125 157 L125 157 L125 357 L125 357 L125 412 L125 483 C125 486 125 489 125 492 C125 529 125 565 125 601 C125 602 125 602 125 603 L125 701 L35 701 C35 565 35 429 35 293 C35 157 35 21 35 -115 L186 -115 L186 -24 L134 -24 L134 -24 L134 -24 Z " />
<glyph glyph-name="M" unicode="M" horiz-adv-x="445" d="M417 167 L417 190 L417 357 L417 357 L417 701 L327 701 C327 701 327 701 327 701 C326 701 324 701 323 701 C320 701 317 701 314 701 C312 700 311 700 310 698 C310 695 309 692 309 689 C307 676 304 662 302 648 C300 633 297 617 295 601 C294 595 293 589 292 583 C291 576 290 569 289 562 C288 556 287 549 286 543 C284 531 282 520 281 508 C279 497 277 485 276 474 C274 463 272 452 270 441 C269 430 267 418 265 407 C264 401 263 396 263 390 C261 383 260 376 259 369 C258 363 257 356 256 350 C255 338 253 327 251 315 C249 304 248 293 246 281 C244 270 242 259 241 248 C239 236 237 225 235 213 C235 212 235 211 234 211 C234 210 233 210 233 210 C232 210 232 210 232 211 C230 224 227 238 225 252 C224 258 223 263 222 269 C221 280 219 291 217 301 C215 313 213 324 211 336 C209 345 208 356 206 365 C205 376 203 386 201 397 C199 407 197 418 196 429 C194 439 192 449 191 460 C189 472 187 484 185 496 C184 501 183 507 182 512 C180 523 178 533 176 544 C175 554 173 565 171 575 C169 587 168 598 166 609 C164 619 162 629 161 639 C159 651 157 662 155 673 C154 682 152 690 151 698 C150 700 149 701 146 701 C143 701 140 701 137 701 C133 701 129 701 125 701 L125 701 L36 701 C36 565 36 429 36 293 C36 157 36 21 36 -115 L126 -115 L126 41 C126 52 126 63 126 74 C126 86 126 99 126 111 C126 130 126 148 126 167 L126 190 L125 353 L184 7 C214 7 243 7 273 7 C274 7 274 7 275 7 L327 341 C327 325 327 309 327 293 C327 157 327 21 327 -115 L417 -115 L417 41 C417 52 417 63 417 74 C417 86 417 99 417 111 C417 130 417 148 417 167 L417 167 Z " />
<glyph glyph-name="N" unicode="N" horiz-adv-x="343" d="M308 167 L308 190 L308 357 L307 701 L217 701 C217 565 217 429 217 293 C217 288 217 283 217 277 L199 357 L199 357 L122 701 L120 701 L32 701 L30 701 C30 565 30 429 30 293 C30 157 30 21 30 -115 L121 -115 L121 41 C121 52 121 63 121 74 C121 86 121 99 121 111 C121 130 121 148 121 167 L121 190 L121 308 C122 303 123 298 124 293 C154 157 185 21 216 -115 L217 -115 L306 -115 L308 -115 L308 41 C308 52 308 63 308 74 C308 86 308 99 308 111 C308 130 308 148 308 167 L308 167 Z " />
<glyph glyph-name="O" unicode="O" horiz-adv-x="337" d="M303 455 L303 455 C303 478 303 502 303 525 C303 537 302 550 301 562 C297 602 276 701 172 701 C55 701 38 588 35 565 C35 559 34 553 34 547 C34 537 34 528 34 518 C34 374 34 229 34 85 C34 77 34 69 34 61 C34 52 34 43 34 34 C37 1 53 -115 168 -115 C275 -115 297 -19 301 21 C302 34 303 47 303 60 C303 84 303 109 303 133 L303 133 L303 455 L303 455 Z M216 29 C215 21 213 13 211 5 C209 0 207 -5 203 -9 C198 -17 191 -23 182 -25 C177 -26 172 -27 167 -26 C153 -25 142 -18 135 -5 C133 -1 132 2 131 5 C128 12 127 19 126 26 C124 37 124 48 124 59 C124 215 124 370 124 525 C124 530 124 535 124 539 C124 550 126 559 128 569 C130 578 132 586 137 593 C143 604 152 610 163 612 C168 613 173 613 178 612 C189 610 197 604 203 595 C206 590 209 585 211 580 C213 571 215 563 216 554 C217 543 217 532 217 521 C217 500 217 478 217 456 L217 456 L217 159 C217 126 217 93 217 60 C217 50 217 39 216 29 L216 29 Z " />
<glyph glyph-name="P" unicode="P" horiz-adv-x="333" d="M284 364 C284 365 285 366 285 368 C299 400 303 445 303 445 C303 448 303 452 304 455 C305 469 305 482 305 496 C305 498 305 501 305 504 C305 506 305 509 305 511 C302 706 183 701 183 701 L35 701 C35 675 35 650 35 624 C35 624 35 624 35 624 C35 585 35 546 35 507 C35 436 35 365 35 293 C35 157 35 21 35 -115 L125 -115 L125 41 C125 52 125 63 125 74 L125 111 C125 130 125 148 125 167 L125 212 L125 216 L125 232 L125 266 L125 289 L183 289 C183 289 249 286 284 364 C284 364 284 364 284 364 L284 364 Z M215 511 C215 501 215 490 215 480 C215 468 215 456 214 444 C213 436 212 428 210 421 L210 421 C210 418 209 416 209 413 C209 413 209 413 208 413 C207 407 204 401 201 396 C196 389 190 384 182 381 C177 380 173 379 168 379 C156 379 145 379 133 379 C125 379 125 379 125 389 C125 396 125 404 125 412 L125 412 L125 412 C125 439 125 466 125 492 C125 493 125 494 125 495 C125 496 125 496 125 497 C125 521 125 545 125 569 C125 569 125 569 125 569 C125 580 125 590 125 601 C125 610 125 610 133 610 C145 610 156 610 168 610 C173 610 177 610 182 608 C190 605 196 601 201 593 C204 588 207 583 208 577 C211 567 213 558 214 548 C215 535 215 523 215 511 L215 511 Z " />
<glyph glyph-name="Q" unicode="Q" horiz-adv-x="336" d="M303 455 C303 478 303 502 303 525 C303 537 302 550 301 562 C297 602 276 701 172 701 C55 701 38 588 35 565 C35 559 34 553 34 547 C34 537 34 528 34 518 C34 374 34 229 34 85 C34 77 34 69 34 61 C34 52 34 43 34 34 C37 2 52 -106 156 -114 L229 -173 L229 -173 C231 -175 233 -176 235 -178 C236 -179 237 -179 238 -180 C239 -180 240 -180 241 -180 C242 -179 243 -178 244 -177 C262 -159 281 -140 299 -121 C300 -120 301 -119 302 -118 C302 -117 302 -116 301 -115 C301 -114 300 -114 299 -113 C293 -108 287 -103 281 -99 C273 -93 266 -86 258 -80 C289 -49 298 -4 301 21 C302 34 303 47 303 60 C303 84 303 109 303 133 L303 133 L303 455 L303 455 L303 455 Z M131 5 C128 12 127 19 126 26 C124 37 124 48 124 59 C124 215 124 370 124 525 C124 530 124 535 124 539 C124 550 126 559 128 569 C130 578 132 586 137 593 C143 604 152 610 163 612 C168 613 173 613 178 612 C189 610 197 604 203 595 C206 590 209 585 211 580 C213 571 215 563 216 554 C217 543 217 532 217 521 C217 500 217 478 217 456 L217 456 L217 159 C217 126 217 93 217 60 C217 50 217 39 216 29 C215 21 213 13 211 5 C209 0 207 -5 203 -9 C198 -17 191 -23 182 -25 C177 -26 172 -27 167 -26 C153 -25 142 -18 135 -5 C133 -1 132 2 131 5 L131 5 Z " />
<glyph glyph-name="R" unicode="R" horiz-adv-x="336" d="M258 41 C255 52 252 63 249 74 C245 86 242 99 238 111 C233 130 228 148 222 167 L215 190 L192 270 L187 289 C204 291 252 301 281 364 C281 364 281 364 281 364 C282 365 282 366 283 368 C296 400 300 445 300 445 C300 448 300 452 301 455 C302 469 302 482 303 496 C303 498 303 501 303 504 C302 506 302 509 302 511 C300 706 180 701 180 701 L32 701 C32 675 32 650 32 624 C32 624 32 624 32 624 C32 585 32 546 32 507 C32 436 32 365 32 293 C32 157 32 21 32 -115 L122 -115 L122 41 C122 52 122 63 122 74 L122 111 C122 130 122 148 122 167 L122 198 L135 156 C135 156 135 157 135 157 C161 66 187 -24 213 -115 L303 -115 L258 41 L258 41 Z M122 492 C122 493 122 494 122 495 C122 496 122 496 122 497 C122 521 122 545 122 569 C122 569 122 569 122 569 C122 580 122 590 122 601 C122 610 122 610 130 610 C142 610 153 610 165 610 C170 610 175 610 179 608 C187 605 193 601 198 593 C201 588 204 583 205 577 C208 567 210 558 211 548 C212 535 212 523 212 511 C212 501 212 490 212 480 C212 468 212 456 211 444 C210 436 209 428 207 421 L207 421 C207 418 206 416 206 413 C206 413 206 413 205 413 C204 407 201 401 198 396 C193 389 187 384 179 381 C175 380 170 379 165 379 C153 379 142 379 130 379 C122 379 122 379 122 389 C122 396 122 404 122 412 L122 412 L122 412 C122 439 122 466 122 492 L122 492 Z " />
<glyph glyph-name="S" unicode="S" horiz-adv-x="328" d="M298 111 L298 111 C297 116 297 122 296 127 C281 224 199 340 182 363 C181 364 180 366 179 367 C179 367 179 367 179 367 L179 367 C137 425 122 465 120 516 C120 519 120 522 120 525 C120 530 120 535 120 539 C121 550 122 559 124 569 C126 578 129 586 133 593 C139 604 148 610 160 612 C164 613 170 613 175 612 C185 610 193 604 199 595 C203 590 205 585 207 580 C210 571 211 563 212 554 C214 543 214 532 214 521 C214 496 214 470 214 444 C214 442 214 439 214 436 C214 435 215 434 216 434 C217 434 219 434 221 434 C230 434 238 434 247 434 C261 434 274 434 288 434 C290 434 292 434 294 434 C299 434 299 434 299 440 C299 441 299 442 299 443 C299 470 299 498 299 525 C299 537 299 550 298 562 C293 602 272 701 168 701 C51 701 34 588 32 565 C31 559 31 553 30 547 C30 537 30 528 30 518 C30 518 27 451 70 374 L70 374 C89 336 116 288 158 229 L158 229 C195 177 210 140 214 96 C214 84 214 72 214 60 C214 50 213 39 212 29 C211 21 210 13 207 5 C205 0 203 -5 200 -9 C194 -17 187 -23 178 -25 C173 -26 168 -27 163 -26 C149 -25 138 -18 131 -5 C130 -1 128 2 127 5 C125 12 123 19 122 26 C120 37 120 48 120 59 C120 86 120 113 120 140 L30 140 C30 122 30 103 30 85 C30 77 30 69 30 61 C30 52 30 43 31 34 C33 1 50 -115 164 -115 C271 -115 293 -19 297 21 C299 34 299 47 299 60 C299 61 299 62 299 63 L300 63 C300 66 300 69 300 72 C300 83 299 93 298 103 C298 105 298 108 298 111 L298 111 Z " />
<glyph glyph-name="T" unicode="T" horiz-adv-x="296" d="M266 610 L266 701 L191 701 L183 701 L101 701 L26 701 C26 671 26 640 26 610 L101 610 C101 504 101 399 101 293 C101 157 101 21 101 -115 L192 -115 L192 41 C192 52 192 63 192 74 C192 86 192 99 192 111 C192 130 192 148 192 167 L192 190 L191 357 L191 357 L191 610 L266 610 L266 610 Z " />
<glyph glyph-name="U" unicode="U" horiz-adv-x="332" d="M299 176 L299 701 L277 701 L274 701 L213 701 L213 111 L213 111 C213 94 213 77 213 60 C213 50 213 39 212 29 C211 21 209 13 207 5 C205 0 203 -5 199 -9 C194 -17 187 -23 178 -25 C173 -26 168 -27 163 -26 C149 -25 138 -18 131 -5 C129 -1 128 2 127 5 C124 12 123 19 122 26 C120 37 120 48 120 59 C120 155 120 250 120 346 L120 346 L120 362 C120 369 120 376 120 384 L120 384 L120 701 L115 701 L68 701 L30 701 L30 355 C30 355 30 355 30 355 C30 265 30 175 30 85 C30 77 30 69 30 61 C30 52 30 43 30 34 C33 1 49 -115 164 -115 C271 -115 293 -19 297 21 C298 34 299 47 299 60 C299 89 299 119 299 148 L299 148 L299 151 C299 158 299 166 299 174 C299 174 299 175 299 176 L299 176 Z " />
<glyph glyph-name="V" unicode="V" horiz-adv-x="391" d="M283 701 C262 565 242 428 221 292 C213 242 206 192 198 142 C197 150 196 159 194 167 L191 190 L165 357 L165 357 L113 701 L34 701 C55 565 75 429 96 293 C117 157 138 21 158 -115 L159 -115 L237 -115 L238 -115 L290 229 L290 229 L316 395 L319 419 C322 437 325 456 328 474 C329 487 331 499 333 512 C335 523 337 534 338 545 L362 701 L283 701 L283 701 Z " />
<glyph glyph-name="W" unicode="W" horiz-adv-x="571" d="M465 701 C445 565 424 428 403 292 C396 242 388 192 380 142 C379 150 378 159 377 167 L373 190 L348 357 L347 357 L326 499 L246 499 C235 430 225 361 214 292 C207 242 199 192 191 142 C190 150 189 159 188 167 L184 190 L158 357 L158 357 L106 701 L28 701 C48 565 69 429 89 293 C110 157 131 21 152 -115 L153 -115 L231 -115 L231 -115 L283 229 L283 229 L286 245 C304 125 322 5 341 -115 L342 -115 L420 -115 L420 -115 L472 229 L472 229 L498 395 L502 419 C504 437 507 456 510 474 C512 487 514 499 516 512 C517 523 519 534 521 545 L545 701 L465 701 L465 701 Z " />
<glyph glyph-name="X" unicode="X" horiz-adv-x="382" d="M300 74 L292 99 L292 99 L288 111 C283 130 277 148 272 167 L264 190 L256 219 L234 293 L250 346 L264 395 L270 412 L270 412 L270 412 L272 419 C277 437 283 456 288 474 L300 512 C303 523 306 534 309 545 L356 701 L278 701 C255 625 232 549 209 474 L209 474 L201 445 L194 423 L189 440 L178 475 L178 475 L110 701 L32 701 C51 638 70 575 88 513 L88 513 L124 394 L124 394 L155 293 L125 194 L125 194 L108 137 L108 137 C82 53 57 -31 32 -115 L110 -115 L180 115 L189 145 L194 162 L207 119 L218 84 L218 84 C238 17 258 -49 278 -115 L356 -115 L309 41 C306 52 303 63 300 74 L300 74 Z " />
<glyph glyph-name="Y" unicode="Y" horiz-adv-x="377" d="M273 701 C245 608 217 516 189 423 L106 701 L27 701 C67 570 106 440 145 309 L145 245 L145 245 C145 143 145 41 145 -61 L145 -95 L145 -95 C145 -102 145 -108 145 -115 L235 -115 L235 41 C235 52 235 63 235 74 L235 111 C235 130 235 148 235 167 L235 190 L235 215 L235 215 L235 315 L260 395 L267 419 C272 437 278 456 284 474 C287 487 291 499 295 512 C298 523 302 534 305 545 L352 701 L273 701 L273 701 Z " />
<glyph glyph-name="Z" unicode="Z" horiz-adv-x="328" d="M209 -24 L141 -24 L157 41 C160 52 162 63 165 74 C168 86 171 99 174 111 C178 130 183 148 187 167 L192 190 L232 357 L232 357 L314 701 L292 701 L224 701 L217 701 L209 701 L128 701 L52 701 C52 671 52 640 52 610 L128 610 L202 610 C177 505 152 399 127 293 C94 157 62 21 30 -115 L52 -115 L120 -115 L128 -115 L217 -115 L292 -115 L292 -24 L217 -24 L209 -24 L209 -24 Z " />
<glyph glyph-name="bracketleft" unicode="&#x5b;" horiz-adv-x="190" d="M171 622 L171 701 L120 701 L120 701 L30 701 C30 565 30 430 30 294 C30 158 30 22 30 -114 L72 -114 L120 -114 L171 -114 L171 -35 L120 -35 L120 42 C120 53 120 63 120 74 C120 87 120 99 120 112 C120 130 120 149 120 167 L120 191 L120 357 L120 357 L120 622 L171 622 L171 622 Z " />
<glyph glyph-name="backslash" unicode="&#x5c;" horiz-adv-x="208" d="M189 -109 C188 -101 187 -93 187 -86 C185 -72 184 -59 182 -45 C181 -32 180 -18 178 -5 C177 8 175 21 174 35 C172 54 170 73 168 92 C166 113 164 135 161 156 C161 163 160 169 159 176 C158 190 156 203 155 217 C154 230 152 243 151 257 C150 270 148 283 147 297 C145 310 144 324 143 337 C141 351 140 364 138 378 C136 397 134 416 132 435 C130 457 128 478 126 500 C125 506 124 513 124 519 C122 533 121 547 119 560 C118 573 117 587 115 600 C114 615 112 630 111 645 C109 657 108 670 107 683 C106 689 105 695 105 701 L19 701 L28 605 C28 604 29 602 29 601 C30 584 32 567 34 550 C34 542 35 534 36 526 L84 33 C84 29 85 25 85 20 C85 19 85 17 86 16 L92 -48 L92 -48 C92 -54 93 -59 93 -65 C95 -79 96 -93 97 -108 C98 -109 98 -111 98 -112 C99 -113 100 -114 100 -114 C102 -114 103 -114 105 -114 C131 -114 157 -114 183 -114 C184 -114 186 -114 187 -114 C188 -114 189 -113 189 -111 C189 -110 189 -109 189 -109 L189 -109 Z " />
<glyph glyph-name="bracketright" unicode="&#x5d;" horiz-adv-x="171" d="M16 622 L67 622 L67 357 L67 357 L67 191 L67 167 C67 149 67 130 67 112 C67 99 67 87 67 74 C67 63 67 53 67 42 L67 -35 L16 -35 L16 -114 L67 -114 L115 -114 L157 -114 C157 22 157 158 157 294 C157 430 157 565 157 701 L67 701 L67 701 L16 701 L16 622 L16 622 Z " />
<glyph glyph-name="asciicircum" unicode="&#x5e;" horiz-adv-x="403" d="M387 320 L247 701 L157 701 L16 320 L90 320 L201 625 L309 320 L387 320 L387 320 Z " />
<glyph glyph-name="underscore" unicode="&#x5f;" horiz-adv-x="368" d="M17 -35 L17 -114 L351 -114 L351 -35 L17 -35 L17 -35 Z " />
<glyph glyph-name="grave" unicode="&#x60;" horiz-adv-x="103" d="M46 583 L91 583 L89 592 C88 594 88 595 87 597 C87 599 86 601 85 603 C85 606 84 609 83 613 L82 616 L74 644 L74 644 L57 701 L12 701 C19 679 25 656 32 634 C36 617 41 600 46 583 L46 583 Z " />
<glyph glyph-name="a" unicode="a" horiz-adv-x="379" d="M350 -109 C349 -102 348 -94 348 -86 L343 -46 C342 -32 341 -19 339 -6 L335 34 L329 91 C327 113 325 134 322 156 C322 162 321 169 320 175 L316 216 L312 256 L308 296 C306 310 305 323 304 337 C302 350 300 364 299 378 L293 434 L287 499 C286 506 285 512 285 519 L280 560 C279 573 278 586 276 600 L272 644 C270 657 269 669 268 682 C267 688 266 694 266 701 L119 701 L119 699 C117 686 116 673 115 659 C113 644 111 629 110 614 L108 593 L103 552 C102 539 101 526 99 512 L95 473 L89 416 L83 351 C82 344 81 338 81 331 L76 291 C75 277 74 264 72 251 L68 211 L62 154 C60 132 58 111 55 89 C55 83 54 76 53 69 L49 30 L45 -11 L41 -51 C39 -64 38 -78 37 -91 C36 -94 36 -97 36 -100 L34 -114 C36 -115 38 -115 40 -115 L110 -115 C117 -115 117 -115 118 -107 L118 -105 L122 -68 L126 -25 C127 -8 129 9 131 26 C131 31 132 36 132 42 C133 44 134 45 136 45 L143 45 C173 46 203 46 234 45 L240 45 C243 45 244 44 244 42 L246 20 L250 -23 L254 -66 C256 -80 257 -94 258 -108 C259 -110 259 -111 259 -113 C260 -114 261 -114 261 -115 L265 -115 L344 -115 L348 -115 C349 -114 350 -113 350 -112 L350 -109 L350 -109 Z M229 136 L211 136 L141 136 L145 173 C145 178 146 182 146 186 C148 201 149 215 150 230 L155 274 C156 288 157 303 159 317 L161 337 C162 352 163 366 165 381 L169 425 L171 445 L175 489 C177 504 178 518 179 533 C181 547 182 562 183 576 L187 609 C187 609 187 610 187 610 C188 610 188 610 188 609 C189 606 190 603 190 600 L195 550 C196 535 197 521 199 506 C199 498 200 489 201 481 C202 474 203 467 203 460 C205 445 206 430 207 416 L212 372 C212 364 213 355 214 347 C215 338 216 329 216 320 L219 298 L234 136 L229 136 L229 136 Z " />
<glyph glyph-name="b" unicode="b" horiz-adv-x="341" d="M313 131 C313 146 313 161 312 176 C311 191 309 205 306 219 C303 234 299 249 293 263 C289 272 285 280 280 288 C272 299 263 309 253 316 L247 320 C246 321 246 323 247 324 L252 328 C262 337 271 348 278 360 C283 370 288 380 291 391 C297 412 301 433 303 455 C304 469 304 482 304 496 L304 504 L304 511 C301 706 182 701 182 701 L34 701 L34 293 L34 -115 L186 -115 C186 -115 286 -121 306 -25 C306 -24 306 -24 306 -24 C306 -22 307 -21 307 -20 L307 -17 C309 -8 310 2 311 12 C313 29 313 47 313 64 L313 131 L313 131 Z M124 492 L124 601 C124 610 124 610 132 610 L167 610 C172 610 176 610 181 608 C189 605 195 601 200 593 C203 588 206 583 207 577 C210 567 212 558 213 548 C214 535 214 523 214 511 L214 480 C214 468 214 456 213 444 C212 436 211 428 209 421 C194 349 165 357 165 357 L124 357 L124 412 L124 492 L124 492 Z M223 60 C223 47 222 33 220 20 C219 15 217 9 215 4 C214 1 213 -2 211 -5 C205 -16 196 -22 184 -24 L177 -24 L130 -24 L126 -24 C126 -24 125 -23 125 -22 C124 -19 124 -16 124 -13 L124 74 L124 111 L124 216 L124 266 L171 266 C171 266 210 271 220 190 C220 187 221 184 221 181 C222 169 223 157 223 144 L223 60 L223 60 Z " />
<glyph glyph-name="c" unicode="c" horiz-adv-x="329" d="M30 61 C30 52 31 43 31 34 C34 1 50 -115 165 -115 C271 -115 293 -19 298 21 C299 34 300 47 300 60 L300 174 L300 178 C300 179 300 180 299 180 C299 181 299 181 298 181 C296 182 295 182 293 182 L221 182 L217 182 C216 182 215 180 215 179 C214 176 214 173 214 170 L214 60 C214 50 214 39 213 29 C212 21 210 13 207 5 C206 0 203 -5 200 -9 C195 -17 188 -23 179 -25 C174 -26 169 -27 164 -26 C150 -25 139 -18 132 -5 L128 5 C125 12 124 19 123 26 C121 37 121 48 121 59 L121 525 L121 539 C121 550 122 559 125 569 C126 578 129 586 134 593 C140 604 149 610 160 612 C165 613 170 613 175 612 C186 610 194 604 200 595 C203 590 206 585 208 580 C210 571 212 563 213 554 C214 543 214 532 214 521 L214 444 C214 442 215 439 215 436 C215 435 216 434 216 434 L221 434 L248 434 L288 434 L294 434 C299 434 300 434 300 440 L300 443 L300 525 C300 537 299 550 298 562 C294 602 273 701 169 701 C52 701 35 588 32 565 C32 559 31 553 31 547 C30 537 30 528 30 518 L30 85 L30 61 L30 61 Z " />
<glyph glyph-name="d" unicode="d" horiz-adv-x="343" d="M312 483 L312 522 C312 539 311 557 310 574 C309 584 308 593 306 603 C306 604 306 605 305 606 L305 609 C305 610 305 610 304 611 C285 707 185 701 185 701 L123 701 L33 701 C32 565 32 429 32 293 L32 -115 L101 -115 L152 -115 L185 -115 C185 -115 285 -121 304 -25 C305 -24 305 -24 305 -24 L305 -20 C306 -19 306 -18 306 -17 C308 -8 309 2 310 12 C311 29 312 47 312 64 L312 110 L312 483 L312 483 Z M221 60 C221 47 220 33 218 20 C217 15 216 9 214 4 L210 -5 C203 -16 194 -22 182 -24 L176 -24 L129 -24 L125 -24 C124 -24 123 -23 123 -22 L123 -13 L123 74 L123 111 L123 148 L123 293 L123 357 L122 357 L123 412 L123 440 L123 460 L123 492 L123 601 C123 602 123 603 123 603 L123 610 L148 610 L176 610 L182 610 C194 608 203 602 210 591 C211 588 213 585 214 581 C216 576 217 571 218 566 C220 552 221 539 221 526 L221 449 L221 444 L221 100 L221 96 L221 93 L221 60 L221 60 Z " />
<glyph glyph-name="e" unicode="e" horiz-adv-x="200" d="M126 -24 L123 -24 L119 -24 C118 -24 117 -23 117 -22 L117 -13 L117 74 L117 111 L117 216 L117 266 L163 266 L165 266 L178 266 L178 357 L163 357 L157 357 L122 357 L116 357 L117 412 L117 492 L117 601 C117 610 117 610 124 610 L145 610 L178 610 L178 701 C175 701 174 701 174 701 L26 701 L26 293 L26 -115 L178 -115 L178 -24 L126 -24 L126 -24 Z " />
<glyph glyph-name="f" unicode="f" horiz-adv-x="206" d="M122 41 L122 74 L122 111 L122 167 L122 216 L122 266 L168 266 L170 266 L183 266 L183 357 L168 357 L162 357 L127 357 L121 357 L122 412 L122 492 L122 601 C122 610 122 610 130 610 L150 610 L183 610 L183 701 C181 701 179 701 179 701 L31 701 L31 293 L31 -115 L122 -115 L122 41 L122 41 Z " />
<glyph glyph-name="g" unicode="g" horiz-adv-x="321" d="M294 180 C294 180 294 180 294 181 L210 181 L196 181 L191 181 L155 181 L154 181 L154 90 L196 90 L199 90 L209 90 L209 60 C209 50 209 39 208 29 C207 21 205 13 203 5 C201 0 198 -5 195 -9 C190 -17 183 -23 174 -25 C169 -26 164 -27 159 -26 C145 -25 134 -18 127 -5 L122 5 C120 12 119 19 118 26 C116 37 116 48 116 59 L116 525 L116 539 C116 550 118 559 120 569 C121 578 124 586 129 593 C135 604 144 610 155 612 C160 613 165 613 170 612 C181 610 189 604 195 595 C198 590 201 585 203 580 C205 571 207 563 208 554 C209 543 209 532 209 521 L209 444 C209 442 210 439 210 436 C210 435 211 434 211 434 L216 434 L243 434 L284 434 L290 434 C294 434 295 434 295 440 L295 443 L295 525 C295 537 294 550 293 562 C289 602 268 701 164 701 C47 701 30 588 27 565 C27 559 26 553 26 547 C26 537 25 528 25 518 L25 85 L25 61 C25 52 26 43 26 34 C29 1 45 -115 160 -115 C266 -115 288 -19 293 21 C294 34 295 47 295 60 L295 174 L295 178 C295 179 295 180 294 180 L294 180 Z " />
<glyph glyph-name="h" unicode="h" horiz-adv-x="301" d="M274 167 L274 181 L273 181 L273 357 L273 460 L273 701 L183 701 L183 357 L170 357 L164 357 L129 357 L123 357 L123 701 L33 701 L33 293 L33 -115 L124 -115 L124 41 L124 74 L124 111 L124 167 L124 216 L124 266 L170 266 L172 266 L183 266 L183 -115 L274 -115 L274 41 L274 74 L274 111 L274 167 L274 167 Z " />
<glyph glyph-name="i" unicode="i" horiz-adv-x="143" d="M116 357 L116 701 L27 701 L27 293 L27 -115 L117 -115 L117 41 L117 74 L117 111 L117 167 L117 190 L116 357 L116 357 Z " />
<glyph glyph-name="j" unicode="j" horiz-adv-x="298" d="M266 357 L266 701 L176 701 L176 293 L176 122 L176 25 C176 19 174 3 167 -8 C167 -9 167 -9 167 -9 C167 -9 167 -10 166 -10 C161 -18 154 -23 145 -25 C143 -26 141 -26 139 -26 C138 -26 137 -26 137 -26 C106 -29 94 -2 94 -2 L29 -64 C48 -92 80 -115 131 -115 C238 -115 260 -19 264 21 C265 34 266 47 266 60 L266 113 L266 167 L266 190 L266 357 L266 357 Z " />
<glyph glyph-name="k" unicode="k" horiz-adv-x="366" d="M251 74 L233 111 L206 167 L195 190 L145 293 L195 395 L206 419 L233 474 L251 512 L267 545 L342 701 L252 701 L120 428 L120 701 L30 701 L30 293 L30 -115 L121 -115 L121 41 L121 74 L121 111 L121 157 L252 -115 L342 -115 L267 41 L251 74 L251 74 Z " />
<glyph glyph-name="l" unicode="l" horiz-adv-x="214" d="M134 -24 C134 -24 133 -24 132 -24 L127 -24 C127 -24 126 -23 126 -22 C126 -19 125 -16 125 -13 L125 74 L125 111 L125 157 L125 357 L125 412 L125 483 L125 492 L125 601 L125 603 L125 701 L35 701 L35 293 L35 -115 L186 -115 L186 -24 L134 -24 L134 -24 Z " />
<glyph glyph-name="m" unicode="m" horiz-adv-x="449" d="M417 167 L417 190 L417 357 L417 701 L327 701 L323 701 L314 701 C312 700 311 700 310 698 C310 695 309 692 309 689 L302 648 L295 601 L292 583 L289 562 L286 543 C284 531 282 520 281 508 C279 497 277 485 276 474 L270 441 C269 430 267 418 265 407 C264 401 263 396 263 390 C261 383 260 376 259 369 L256 350 C255 338 253 327 251 315 L246 281 C244 270 242 259 241 248 L235 213 C235 212 235 211 234 211 C234 210 233 210 233 210 C232 210 232 210 232 211 L225 252 L222 269 C221 280 219 291 217 301 L211 336 L206 365 C205 376 203 386 201 397 C199 407 197 418 196 429 C194 439 192 449 191 460 L185 496 L182 512 L176 544 C175 554 173 565 171 575 L166 609 C164 619 162 629 161 639 L155 673 L151 698 C150 700 149 701 146 701 L137 701 L125 701 L36 701 L36 293 L36 -115 L126 -115 L126 41 L126 74 L126 111 L126 167 L126 190 L125 353 L184 7 L273 7 L275 7 L327 341 L327 293 L327 -115 L417 -115 L417 41 L417 74 L417 111 L417 167 L417 167 Z " />
<glyph glyph-name="n" unicode="n" horiz-adv-x="333" d="M308 167 L308 190 L308 357 L307 701 L217 701 L217 293 L217 277 L199 357 L122 701 L120 701 L32 701 L30 701 L30 293 L30 -115 L121 -115 L121 41 L121 74 L121 111 L121 167 L121 190 L121 308 L124 293 C154 157 185 21 216 -115 L217 -115 L306 -115 L308 -115 L308 41 L308 74 L308 111 L308 167 L308 167 Z " />
<glyph glyph-name="o" unicode="o" horiz-adv-x="337" d="M303 455 L303 525 C303 537 302 550 301 562 C297 602 276 701 172 701 C55 701 38 588 35 565 C35 559 34 553 34 547 L34 518 L34 85 L34 61 L34 34 C37 1 53 -115 168 -115 C275 -115 297 -19 301 21 C302 34 303 47 303 60 L303 133 L303 455 L303 455 Z M216 29 C215 21 213 13 211 5 C209 0 207 -5 203 -9 C198 -17 191 -23 182 -25 C177 -26 172 -27 167 -26 C153 -25 142 -18 135 -5 L131 5 C128 12 127 19 126 26 C124 37 124 48 124 59 L124 525 L124 539 C124 550 126 559 128 569 C130 578 132 586 137 593 C143 604 152 610 163 612 C168 613 173 613 178 612 C189 610 197 604 203 595 C206 590 209 585 211 580 C213 571 215 563 216 554 C217 543 217 532 217 521 L217 456 L217 159 L217 60 C217 50 217 39 216 29 L216 29 Z " />
<glyph glyph-name="p" unicode="p" horiz-adv-x="336" d="M284 364 C284 365 285 366 285 368 C299 400 303 445 303 445 C303 448 303 452 304 455 C305 469 305 482 305 496 L305 504 L305 511 C302 706 183 701 183 701 L35 701 L35 624 L35 507 L35 293 L35 -115 L125 -115 L125 41 L125 74 L125 111 L125 167 L125 212 L125 216 L125 232 L125 266 L125 289 L183 289 C183 289 249 286 284 364 L284 364 L284 364 Z M215 511 L215 480 C215 468 215 456 214 444 C213 436 212 428 210 421 C210 418 209 416 209 413 C209 413 209 413 208 413 C207 407 204 401 201 396 C196 389 190 384 182 381 C177 380 173 379 168 379 L133 379 C125 379 125 379 125 389 L125 412 L125 492 L125 495 L125 497 L125 569 L125 601 C125 610 125 610 133 610 L168 610 C173 610 177 610 182 608 C190 605 196 601 201 593 C204 588 207 583 208 577 C211 567 213 558 214 548 C215 535 215 523 215 511 L215 511 Z " />
<glyph glyph-name="q" unicode="q" horiz-adv-x="328" d="M303 455 L303 525 C303 537 302 550 301 562 C297 602 276 701 172 701 C55 701 38 588 35 565 C35 559 34 553 34 547 L34 518 L34 85 L34 61 L34 34 C37 2 52 -106 156 -114 L229 -173 L235 -178 L238 -180 L241 -180 L244 -177 L299 -121 L302 -118 C302 -117 302 -116 301 -115 C301 -114 300 -114 299 -113 C293 -108 287 -103 281 -99 L258 -80 C289 -49 298 -4 301 21 C302 34 303 47 303 60 L303 133 L303 455 L303 455 Z M131 5 C128 12 127 19 126 26 C124 37 124 48 124 59 L124 525 L124 539 C124 550 126 559 128 569 C130 578 132 586 137 593 C143 604 152 610 163 612 C168 613 173 613 178 612 C189 610 197 604 203 595 C206 590 209 585 211 580 C213 571 215 563 216 554 C217 543 217 532 217 521 L217 456 L217 159 L217 60 C217 50 217 39 216 29 C215 21 213 13 211 5 C209 0 207 -5 203 -9 C198 -17 191 -23 182 -25 C177 -26 172 -27 167 -26 C153 -25 142 -18 135 -5 L131 5 L131 5 Z " />
<glyph glyph-name="r" unicode="r" horiz-adv-x="330" d="M258 41 L249 74 L238 111 C233 130 228 148 222 167 L215 190 L192 270 L187 289 C204 291 252 301 281 364 L283 368 C296 400 300 445 300 445 C300 448 300 452 301 455 L303 496 L303 504 C302 506 302 509 302 511 C300 706 180 701 180 701 L32 701 L32 624 L32 507 L32 293 L32 -115 L122 -115 L122 41 L122 74 L122 111 L122 167 L122 198 L135 156 C135 156 135 157 135 157 L213 -115 L303 -115 L258 41 L258 41 Z M122 492 L122 495 L122 497 L122 569 L122 601 C122 610 122 610 130 610 L165 610 C170 610 175 610 179 608 C187 605 193 601 198 593 C201 588 204 583 205 577 C208 567 210 558 211 548 C212 535 212 523 212 511 L212 480 C212 468 212 456 211 444 C210 436 209 428 207 421 C207 418 206 416 206 413 C206 413 206 413 205 413 C204 407 201 401 198 396 C193 389 187 384 179 381 C175 380 170 379 165 379 L130 379 C122 379 122 379 122 389 L122 412 L122 492 L122 492 Z " />
<glyph glyph-name="s" unicode="s" horiz-adv-x="322" d="M298 111 L296 127 C281 224 199 340 182 363 L179 367 C137 425 122 465 120 516 L120 525 L120 539 C121 550 122 559 124 569 C126 578 129 586 133 593 C139 604 148 610 160 612 C164 613 170 613 175 612 C185 610 193 604 199 595 C203 590 205 585 207 580 C210 571 211 563 212 554 C214 543 214 532 214 521 L214 444 L214 436 C214 435 215 434 216 434 L221 434 L247 434 L288 434 L294 434 C299 434 299 434 299 440 L299 443 L299 525 C299 537 299 550 298 562 C293 602 272 701 168 701 C51 701 34 588 32 565 L30 547 L30 518 C30 518 27 451 70 374 C89 336 116 288 158 229 C195 177 210 140 214 96 L214 60 C214 50 213 39 212 29 C211 21 210 13 207 5 C205 0 203 -5 200 -9 C194 -17 187 -23 178 -25 C173 -26 168 -27 163 -26 C149 -25 138 -18 131 -5 C130 -1 128 2 127 5 C125 12 123 19 122 26 C120 37 120 48 120 59 L120 140 L30 140 L30 85 L30 61 C30 52 30 43 31 34 C33 1 50 -115 164 -115 C271 -115 293 -19 297 21 C299 34 299 47 299 60 L299 63 L300 63 L300 72 C300 83 299 93 298 103 L298 111 L298 111 Z " />
<glyph glyph-name="t" unicode="t" horiz-adv-x="289" d="M266 610 L266 701 L191 701 L183 701 L101 701 L26 701 L26 610 L101 610 L101 293 L101 -115 L192 -115 L192 41 L192 74 L192 111 L192 167 L192 190 L191 357 L191 610 L266 610 L266 610 Z " />
<glyph glyph-name="u" unicode="u" horiz-adv-x="328" d="M299 176 L299 701 L277 701 L274 701 L213 701 L213 111 L213 60 C213 50 213 39 212 29 C211 21 209 13 207 5 C205 0 203 -5 199 -9 C194 -17 187 -23 178 -25 C173 -26 168 -27 163 -26 C149 -25 138 -18 131 -5 L127 5 C124 12 123 19 122 26 C120 37 120 48 120 59 L120 346 L120 362 L120 384 L120 701 L115 701 L68 701 L30 701 L30 355 L30 85 L30 61 L30 34 C33 1 49 -115 164 -115 C271 -115 293 -19 297 21 C298 34 299 47 299 60 L299 148 L299 151 L299 174 C299 174 299 175 299 176 L299 176 Z " />
<glyph glyph-name="v" unicode="v" horiz-adv-x="388" d="M283 701 L221 292 L198 142 C197 150 196 159 194 167 L191 190 L165 357 L113 701 L34 701 L96 293 C117 157 138 21 158 -115 L159 -115 L237 -115 L238 -115 L290 229 L316 395 L319 419 L328 474 C329 487 331 499 333 512 C335 523 337 534 338 545 L362 701 L283 701 L283 701 Z " />
<glyph glyph-name="w" unicode="w" horiz-adv-x="556" d="M457 701 C437 565 416 428 395 292 C388 242 380 192 372 142 L369 167 L365 190 L340 357 L339 357 L318 499 L238 499 L206 292 C199 242 191 192 183 142 L180 167 L176 190 L150 357 L98 701 L20 701 L81 293 L144 -115 L145 -115 L223 -115 L275 229 L278 245 C296 125 314 5 333 -115 L334 -115 L412 -115 L464 229 L490 395 L494 419 C496 437 499 456 502 474 L508 512 C509 523 511 534 513 545 L537 701 L457 701 L457 701 Z " />
<glyph glyph-name="x" unicode="x" horiz-adv-x="382" d="M300 74 L292 99 L288 111 L272 167 L264 190 L256 219 L234 293 L250 346 L264 395 L270 412 L272 419 L288 474 L300 512 L309 545 L356 701 L278 701 L209 474 L201 445 L194 423 L189 440 L178 475 L110 701 L32 701 L88 513 L124 394 L155 293 L125 194 L108 137 C82 53 57 -31 32 -115 L110 -115 L180 115 L189 145 L194 162 L207 119 L218 84 L278 -115 L356 -115 L309 41 L300 74 L300 74 Z " />
<glyph glyph-name="y" unicode="y" horiz-adv-x="381" d="M273 701 L189 423 L106 701 L27 701 C67 570 106 440 145 309 L145 245 L145 -61 L145 -95 L145 -115 L235 -115 L235 41 L235 74 L235 111 L235 167 L235 190 L235 215 L235 315 L260 395 L267 419 C272 437 278 456 284 474 C287 487 291 499 295 512 L305 545 L352 701 L273 701 L273 701 Z " />
<glyph glyph-name="z" unicode="z" horiz-adv-x="322" d="M209 -24 L141 -24 L157 41 L165 74 L174 111 L187 167 L192 190 L232 357 L314 701 L292 701 L224 701 L217 701 L209 701 L128 701 L52 701 L52 610 L128 610 L202 610 L127 293 C94 157 62 21 30 -115 L52 -115 L120 -115 L128 -115 L217 -115 L292 -115 L292 -24 L217 -24 L209 -24 L209 -24 Z " />
<glyph glyph-name="braceleft" unicode="&#x7b;" horiz-adv-x="230" d="M160 370 L160 382 C160 382 160 382 160 382 C160 430 160 478 160 526 C160 531 160 535 160 540 C161 550 162 560 164 570 C166 578 168 586 173 594 C179 604 188 611 199 612 C202 613 204 613 207 613 L207 701 C91 700 74 589 71 566 C71 560 71 554 70 548 C70 538 70 528 70 518 C70 471 70 423 70 376 C69 364 62 331 23 331 L23 298 L23 271 L23 238 C62 238 69 204 70 193 C70 157 70 121 70 85 C70 77 70 69 70 62 C70 53 70 44 71 35 C73 1 90 -114 204 -114 C205 -114 206 -114 207 -114 L207 -26 C206 -26 204 -26 203 -26 C189 -25 178 -18 171 -4 C169 -1 168 3 167 6 C164 13 163 20 162 27 C160 38 160 49 160 60 C160 102 160 145 160 188 C160 188 160 188 160 188 L160 198 C158 251 133 275 117 284 C133 294 158 318 160 370 L160 370 Z " />
<glyph glyph-name="bar" unicode="&#x7c;" horiz-adv-x="130" d="M110 358 L110 701 L20 701 C20 565 20 430 20 294 C20 158 20 22 20 -114 L110 -114 L110 42 C110 53 110 63 110 74 C110 87 110 99 110 112 C110 130 110 149 110 167 L110 191 L110 358 L110 358 L110 358 Z " />
<glyph glyph-name="braceright" unicode="&#x7d;" horiz-adv-x="223" d="M203 331 C164 331 157 364 156 376 C156 423 156 471 156 518 C156 528 156 538 156 548 C155 554 155 560 154 566 C152 589 135 700 19 701 L19 613 C21 613 24 613 26 612 C38 611 47 604 53 594 C57 586 60 578 62 570 C64 560 65 550 66 540 C66 535 66 531 66 526 C66 478 66 430 66 382 C66 382 66 382 66 382 L66 370 C68 318 93 294 109 284 C93 275 68 251 66 198 L66 188 C66 188 66 188 66 188 C66 145 66 102 66 60 C66 49 66 38 64 27 C63 20 62 13 59 6 C58 3 56 -1 55 -4 C48 -18 37 -25 23 -26 C22 -26 20 -26 19 -26 L19 -114 C20 -114 21 -114 21 -114 C136 -114 153 1 155 35 C156 44 156 53 156 62 C156 69 156 77 156 85 C156 121 156 157 156 193 C157 204 164 238 203 238 L203 298 L203 298 L203 331 L203 331 Z " />
<glyph glyph-name="asciitilde" unicode="&#x7e;" horiz-adv-x="447" d="M15 264 L72 214 C147 345 231 209 303 209 C376 209 430 297 430 297 L373 352 C373 352 350 304 306 294 C262 284 203 355 139 355 C74 355 15 264 15 264 L15 264 Z " />
<glyph glyph-name="quoteleft" unicode="&#x2018;" horiz-adv-x="77" d="M18 583 L63 583 L63 592 C63 593 63 595 63 597 C63 599 63 601 63 603 C63 606 63 609 63 613 L63 616 L63 644 L63 644 L63 701 L18 701 C18 679 18 656 18 634 C18 617 18 600 18 583 L18 583 Z " />
<glyph glyph-name="quoteright" unicode="&#x2019;" horiz-adv-x="81" d="M19 583 L64 583 L64 592 C64 593 64 595 64 597 C64 599 64 601 64 603 C64 606 64 609 64 613 L64 616 L64 644 L64 644 L64 701 L19 701 C19 679 19 656 19 634 C19 617 19 600 19 583 L19 583 Z " />
<glyph glyph-name="quotedblleft" unicode="&#x201c;" horiz-adv-x="135" d="M120 612 L120 616 L120 644 L120 701 L75 701 L75 634 L75 583 L120 583 L120 592 L120 597 L120 603 L120 612 L120 612 Z M62 644 L62 701 L17 701 L17 634 L17 583 L62 583 L62 592 L62 597 L62 603 L62 612 L62 616 L62 644 L62 644 Z " />
<glyph glyph-name="quotedblright" unicode="&#x201d;" horiz-adv-x="136" d="M120 612 L120 616 L120 644 L120 701 L75 701 L75 634 L75 583 L120 583 L120 592 L120 597 L120 603 L120 612 L120 612 Z M62 644 L62 701 L17 701 L17 634 L17 583 L62 583 L62 592 L62 597 L62 603 L62 612 L62 616 L62 644 L62 644 Z " />
</font>
</svg>
