<?xml version="1.0" encoding="UTF-8"?>
<svg xmlns="http://www.w3.org/2000/svg" xmlns:xlink="http://www.w3.org/1999/xlink" version="1.2" >
<font id="Agrem Two">
<font-face  font-family="Agrem Two" units-per-em="1000" ascent="750" descent="-250" font-style="normal" font-weight="400" font-stretch="normal" cap-height="700" x-height="500" underline-position="-75" underline-thickness="50" />
<missing-glyph  horiz-adv-x="168" d="" />
<glyph glyph-name="NULL" d="" />
<glyph glyph-name="CR" unicode="&#xd;" horiz-adv-x="168" d="" />
<glyph glyph-name="space" unicode="&#x20;" horiz-adv-x="168" d="" />
<glyph glyph-name="exclam" unicode="&#x21;" horiz-adv-x="151" d="M30 23 L121 23 L121 73 C121 83 121 94 121 104 C121 116 121 128 121 140 C121 157 121 175 121 193 L121 215 L120 374 L120 374 L120 701 L30 701 C30 572 30 442 30 313 C30 216 30 120 30 23 L30 23 Z M30 -39 C30 -64 30 -89 30 -114 L121 -114 L121 -39 L30 -39 L30 -39 Z " />
<glyph glyph-name="quotedbl" unicode="&#x22;" horiz-adv-x="163" d="M133 612 L133 616 L133 644 L133 644 L133 701 L88 701 C88 679 88 656 88 634 C88 617 88 600 88 583 L133 583 L133 592 C133 593 133 595 133 597 C133 599 133 601 133 603 C133 606 133 609 133 612 L133 612 Z M75 644 L75 701 L30 701 C30 679 30 656 30 634 C30 617 30 600 30 583 L75 583 L75 592 C75 593 75 595 75 597 C75 599 75 601 75 603 C75 606 75 609 75 612 L75 616 L75 644 L75 644 L75 644 Z " />
<glyph glyph-name="numbersign" unicode="&#x23;" horiz-adv-x="468" d="M438 384 L438 474 C411 474 385 474 359 474 L359 701 L269 701 C269 625 269 550 269 474 C257 474 246 474 234 474 C223 474 211 474 200 474 L200 701 L110 701 C110 625 110 550 110 474 C83 474 57 474 30 474 L30 384 L108 384 C109 384 109 384 110 384 C110 354 110 324 110 294 C110 263 110 232 110 201 C83 201 57 201 30 201 L30 111 L108 111 C109 111 109 111 110 111 C110 36 110 -39 110 -114 L200 -114 L200 42 C200 53 200 63 200 74 C200 86 200 99 200 111 L266 111 L266 111 L269 111 C269 36 269 -39 269 -114 L359 -114 L359 42 C359 53 359 63 359 74 C359 87 359 99 359 111 L438 111 L438 201 C412 201 385 201 359 201 L359 358 L359 358 L359 384 L438 384 L438 384 Z M269 294 C269 263 269 232 269 201 C257 201 246 201 234 201 C223 201 211 201 200 201 L200 358 L200 358 L200 384 L266 384 L266 384 L269 384 C269 354 269 324 269 294 L269 294 Z " />
<glyph glyph-name="dollar" unicode="&#x24;" horiz-adv-x="331" d="M300 104 C300 106 299 108 299 111 C299 111 299 111 299 111 C299 117 298 122 297 128 C283 224 200 341 184 364 C183 365 182 366 181 367 C181 368 181 368 181 368 L181 368 C138 426 124 466 122 516 C122 520 122 523 122 526 C122 531 122 535 122 540 C122 550 123 560 125 570 C127 578 130 586 135 594 C141 604 150 611 161 612 C166 613 171 613 176 612 C186 611 195 605 201 596 C204 591 207 586 208 580 C211 572 213 563 214 555 C215 544 215 533 215 522 C215 496 215 471 215 445 C215 442 215 439 216 436 C216 435 217 435 217 435 C219 434 221 434 222 434 C231 434 240 434 249 434 C262 434 276 434 289 434 C291 434 293 434 295 434 C300 434 300 435 301 440 C301 441 301 442 301 443 C301 471 301 498 301 526 C301 538 300 550 299 562 C295 596 280 672 213 694 L213 747 L123 747 C123 729 123 712 123 694 C48 669 35 585 33 566 C33 560 32 554 32 548 C31 538 31 528 31 518 C31 518 29 451 71 375 L71 375 C90 337 118 289 159 229 L159 229 C196 178 211 141 215 96 C215 84 215 72 215 60 C215 50 215 40 214 30 C213 21 211 14 208 6 C207 1 204 -4 201 -9 C196 -17 189 -22 180 -24 C175 -26 170 -26 165 -26 C151 -25 140 -18 133 -4 C131 -1 130 3 128 6 C126 13 125 20 124 27 C122 38 122 49 122 60 C122 87 122 114 122 141 L31 141 C31 122 31 104 31 85 C31 77 31 69 31 62 C31 53 32 44 32 35 C34 6 47 -83 123 -108 C123 -133 123 -158 123 -182 L213 -182 L213 -107 C279 -83 295 -12 299 21 C300 34 301 47 301 61 C301 62 301 63 301 64 L301 64 C301 67 301 70 301 73 C301 83 301 94 300 104 L300 104 Z " />
<glyph glyph-name="percent" unicode="&#x25;" horiz-adv-x="705" d="M675 99 C675 102 675 104 675 107 C675 108 675 109 675 111 C675 111 675 111 675 111 C675 115 675 120 675 125 C675 137 675 150 674 162 C670 202 649 301 545 301 C428 301 410 188 408 165 C407 159 407 153 407 147 C406 137 406 128 406 118 C406 115 406 113 406 111 C406 111 406 111 406 111 C406 102 406 94 406 85 C406 77 406 69 406 62 C406 53 406 44 407 35 C409 1 426 -114 541 -114 C647 -114 669 -19 674 21 C675 34 675 47 675 61 C675 73 675 86 675 99 C675 99 675 99 675 99 L675 99 Z M588 30 C588 21 586 14 583 6 C581 1 579 -4 576 -9 C571 -17 564 -22 555 -25 C550 -26 544 -26 539 -26 C525 -25 515 -18 508 -4 C506 -1 505 3 503 6 C501 13 499 20 498 27 C497 38 497 49 497 60 C497 72 497 84 497 96 C497 96 497 96 497 96 C497 106 497 116 497 125 C497 130 497 135 497 139 C497 150 498 159 500 169 C502 178 505 186 509 193 C516 204 524 210 536 212 C541 213 546 212 551 212 C561 210 570 205 576 195 C579 191 581 185 583 180 C586 171 588 163 589 154 C590 143 590 132 590 121 C590 118 590 114 590 110 L590 110 C590 93 590 77 590 60 C590 50 590 40 588 30 L588 30 Z M299 499 C299 502 299 505 299 507 C299 508 299 510 299 511 C299 511 299 511 299 511 C299 516 299 521 299 526 C299 538 299 550 298 562 C294 602 273 701 169 701 C52 701 34 589 32 566 C31 560 31 554 31 548 C30 538 30 528 30 519 C30 516 30 513 30 511 C30 511 30 511 30 511 C30 503 30 494 30 486 C30 478 30 470 30 462 C30 453 30 444 31 435 C33 402 50 286 165 286 C271 286 293 382 298 422 C299 435 299 448 299 461 C299 474 299 487 299 499 C299 499 299 499 299 499 L299 499 Z M212 430 C212 422 210 414 207 406 C206 401 203 396 200 392 C195 383 188 378 179 376 C173 375 169 374 163 375 C149 376 139 383 132 396 C130 400 128 403 127 406 C125 413 124 420 122 427 C121 438 121 449 121 460 C121 472 121 484 121 497 C121 497 121 497 121 497 C121 506 121 516 121 526 C121 531 121 535 121 540 C121 550 122 560 124 570 C126 578 129 586 133 594 C140 604 148 610 160 612 C165 613 170 613 175 612 C185 610 194 605 200 596 C203 591 206 586 207 580 C210 572 212 563 213 555 C214 544 214 533 214 522 C214 518 214 514 214 510 L214 510 C214 494 214 477 214 461 C214 451 214 440 212 430 L212 430 Z M360 -24 C361 -10 363 5 364 19 L380 180 C380 182 380 184 380 187 C380 188 381 190 381 192 L388 265 C388 268 388 271 389 274 C390 283 390 291 391 300 L396 352 C397 362 398 372 399 381 C400 396 402 410 403 425 C403 426 403 427 404 428 L405 444 C405 444 405 445 405 446 C407 460 408 475 409 490 C411 504 412 519 414 533 C415 548 416 562 418 577 C419 588 420 598 421 609 C421 609 421 610 421 610 L430 701 L353 701 C353 701 353 700 353 700 C352 686 350 673 349 660 C347 645 346 630 344 614 C343 607 343 600 342 594 C340 580 339 566 338 553 C336 540 335 526 334 513 C332 500 331 486 329 473 C327 454 326 435 324 416 C321 395 319 373 317 352 C316 345 315 338 315 332 C313 318 312 305 310 291 C309 278 308 264 306 251 C305 238 303 225 302 211 C300 192 298 173 296 154 C294 133 292 111 290 90 C289 83 288 77 287 70 C286 57 285 43 283 30 C282 16 280 3 279 -11 C278 -24 276 -37 275 -50 C274 -64 272 -77 271 -90 C271 -93 270 -96 270 -99 L268 -114 C270 -114 272 -114 274 -114 C297 -114 321 -114 344 -114 C351 -114 351 -114 352 -107 L358 -45 C359 -38 359 -31 360 -24 L360 -24 Z " />
<glyph glyph-name="ampersand" unicode="&#x26;" horiz-adv-x="360" d="M330 358 L309 358 C309 415 309 473 309 531 L218 531 C218 518 218 506 218 493 C218 466 218 439 218 413 L218 413 L219 358 L202 358 L178 358 C178 358 148 350 134 421 L134 421 C132 429 131 437 130 445 C129 457 129 468 129 480 C129 491 129 501 129 512 C129 524 129 536 130 548 C131 558 133 568 135 577 C137 583 139 589 143 594 C147 601 154 606 162 609 C166 610 171 610 176 610 C185 611 195 611 204 611 L309 611 C309 641 309 671 309 701 L161 701 C161 701 41 707 38 512 C38 509 38 507 38 505 C38 502 38 499 38 496 C38 483 39 469 40 456 C42 434 45 413 52 392 C55 381 59 371 65 361 C72 348 81 337 91 328 C93 327 94 326 96 324 C96 323 96 321 95 321 C94 319 92 318 90 317 C79 309 71 300 63 289 C58 281 53 272 50 263 C44 249 40 235 37 220 C34 205 32 191 31 177 C30 162 30 147 30 132 C30 110 30 87 30 65 C30 47 30 29 31 12 C32 2 34 -7 35 -16 C35 -17 36 -18 36 -19 C36 -21 36 -22 37 -23 C37 -24 37 -24 37 -24 C57 -121 156 -114 156 -114 L309 -114 C309 13 309 140 309 267 L330 267 L330 358 L330 358 Z M218 74 C218 45 218 16 218 -13 C218 -16 218 -19 218 -22 C218 -22 217 -23 217 -23 C215 -24 214 -24 212 -24 C197 -24 181 -24 166 -24 C163 -24 161 -24 159 -23 C147 -22 138 -16 132 -4 C130 -1 129 2 127 5 C125 10 124 15 123 21 C121 34 120 47 120 61 C120 89 120 117 120 145 C120 157 121 169 122 181 C122 184 122 188 123 191 L123 191 C133 271 172 267 172 267 L218 267 L218 217 L218 217 C218 182 218 147 218 112 C218 99 218 87 218 74 L218 74 Z " />
<glyph glyph-name="quotesingle" unicode="&#x27;" horiz-adv-x="105" d="M30 583 L75 583 L75 592 C75 593 75 595 75 597 C75 599 75 601 75 603 C75 606 75 609 75 612 L75 616 L75 644 L75 644 L75 701 L30 701 C30 679 30 656 30 634 C30 617 30 600 30 583 L30 583 Z " />
<glyph glyph-name="parenleft" unicode="&#x28;" horiz-adv-x="197" d="M167 -26 C166 -26 165 -26 163 -26 C149 -25 138 -18 131 -4 C130 -1 129 3 127 6 C125 13 123 20 122 27 C121 38 121 49 121 60 C121 215 121 370 121 526 C121 531 121 535 121 540 C121 550 122 560 124 570 C126 578 129 586 133 594 C140 604 148 610 160 612 C162 613 165 613 167 613 L167 701 C52 700 34 589 32 566 C31 560 31 554 31 548 C30 538 30 528 30 519 C30 374 30 230 30 85 C30 77 30 69 30 62 C30 53 30 44 31 35 C33 1 50 -114 165 -114 C166 -114 167 -114 167 -114 L167 -26 L167 -26 Z " />
<glyph glyph-name="parenright" unicode="&#x29;" horiz-adv-x="190" d="M160 455 C160 479 160 502 160 526 C160 538 160 550 159 562 C155 602 134 701 30 701 L30 613 C32 613 34 613 36 612 C46 610 55 605 61 596 C64 591 66 586 68 580 C71 572 73 563 74 555 C75 544 75 533 75 522 C75 500 75 479 75 457 L75 457 L75 160 C75 127 75 93 75 60 C75 50 75 40 73 30 C72 21 71 14 68 6 C66 1 64 -5 61 -9 C55 -17 48 -22 39 -25 C36 -25 33 -26 30 -26 L30 -114 C133 -112 154 -18 159 21 C160 34 160 47 160 61 C160 85 160 109 160 133 L160 133 L160 455 L160 455 L160 455 Z " />
<glyph glyph-name="asterisk" unicode="&#x2a;" horiz-adv-x="490" d="M460 537 L425 620 L290 562 L290 701 L200 701 L200 562 L65 620 L30 537 L172 477 L30 335 L94 271 L200 378 L200 271 L290 271 L290 378 L396 271 L460 335 L318 477 L460 537 L460 537 Z " />
<glyph glyph-name="plus" unicode="&#x2b;" horiz-adv-x="469" d="M279 337 L279 358 L279 358 L279 496 L189 496 C189 443 189 390 189 337 C136 337 83 337 30 337 L30 246 C38 246 46 246 55 246 C73 246 92 246 110 246 L134 246 L189 247 C189 193 189 140 189 87 L280 87 C280 95 280 103 280 112 C280 130 280 149 280 167 L280 191 L280 247 L300 247 L300 247 L439 247 L439 337 C386 337 333 337 279 337 L279 337 Z " />
<glyph glyph-name="comma" unicode="&#x2c;" horiz-adv-x="140" d="M30 -35 L30 -115 L61 -115 L41 -190 L75 -190 L110 -108 L110 -35 L30 -35 L30 -35 Z " />
<glyph glyph-name="hyphen" unicode="&#x2d;" horiz-adv-x="394" d="M30 332 L30 253 L364 253 L364 332 L30 332 L30 332 Z " />
<glyph glyph-name="period" unicode="&#x2e;" horiz-adv-x="139" d="M30 -115 L109 -115 L109 -35 L30 -35 L30 -115 L30 -115 Z " />
<glyph glyph-name="slash" unicode="&#x2f;" horiz-adv-x="221" d="M121 -24 C122 -10 124 5 125 19 L141 180 C141 182 141 184 141 187 C141 188 142 190 142 192 L149 265 C149 268 149 271 150 274 C151 283 151 291 152 300 L157 352 C158 362 159 372 160 381 C161 396 163 410 164 425 C164 426 164 427 165 428 L166 444 C166 444 166 445 166 446 C168 460 169 475 170 490 C172 504 173 519 175 533 C176 548 177 562 179 577 C180 588 181 598 182 609 C182 609 182 610 182 610 L191 701 L114 701 C114 701 114 700 114 700 C113 687 111 673 110 660 C108 645 107 630 105 614 C104 607 104 601 103 594 C101 580 100 566 99 553 C97 540 96 526 95 513 C93 500 92 486 90 473 C88 454 87 435 84 416 C82 395 80 373 78 352 C77 345 76 338 76 332 C74 318 73 305 71 291 C70 278 69 264 67 251 C66 238 64 225 63 211 C61 192 59 173 57 154 C55 133 53 111 51 90 C50 83 49 77 49 70 C47 57 46 43 44 30 C43 17 42 3 40 -11 C39 -24 37 -37 36 -50 C35 -64 33 -77 32 -90 C32 -93 31 -96 31 -99 L30 -114 C31 -114 33 -114 35 -114 C58 -114 82 -114 105 -114 C112 -114 112 -114 113 -107 L119 -45 C120 -38 120 -31 121 -24 L121 -24 Z " />
<glyph glyph-name="zero" unicode="0" horiz-adv-x="329" d="M299 456 L299 456 C299 479 299 502 299 526 C299 538 298 550 297 562 C293 602 272 701 168 701 C51 701 34 589 31 566 C31 560 30 554 30 548 C30 538 30 528 30 518 C30 374 30 230 30 85 C30 77 30 69 30 62 C30 53 30 44 30 35 C33 1 49 -114 164 -114 C271 -114 293 -19 297 21 C298 34 299 47 299 61 C299 85 299 109 299 133 L299 133 L299 456 L299 456 Z M212 30 C211 21 209 14 207 6 C205 1 203 -4 200 -9 C194 -17 187 -22 178 -25 C173 -26 168 -26 163 -26 C149 -25 138 -18 131 -4 C129 -1 128 3 127 6 C124 13 123 20 122 27 C120 38 120 49 120 60 C120 215 120 370 120 526 C120 531 120 535 120 540 C120 550 122 560 124 570 C125 578 128 586 133 594 C139 604 148 610 159 612 C164 613 169 613 174 612 C185 611 193 605 199 596 C202 591 205 586 207 580 C209 572 211 563 212 555 C213 544 214 533 214 522 C214 500 214 479 214 457 L214 457 L214 159 C214 126 214 94 214 60 C214 50 213 40 212 30 L212 30 Z " />
<glyph glyph-name="one" unicode="1" horiz-adv-x="232" d="M202 167 L202 191 L202 358 L201 358 L201 701 L112 701 C112 701 112 701 112 701 C111 695 101 632 30 619 C30 595 30 565 30 541 L109 541 L112 541 C112 459 112 376 112 294 C112 158 112 22 112 -114 L202 -114 L202 42 C202 52 202 64 202 74 C202 87 202 99 202 112 C202 130 202 149 202 167 L202 167 Z " />
<glyph glyph-name="two" unicode="2" horiz-adv-x="330" d="M226 -24 L150 -24 L116 -24 L116 29 L116 39 L116 104 C121 145 136 181 171 229 L171 229 C213 289 241 337 259 375 C259 375 259 375 259 375 C302 451 299 518 299 518 C299 528 299 538 299 548 C299 554 298 560 298 566 C295 589 278 701 161 701 C57 701 36 602 32 562 C31 550 30 538 30 526 C30 498 30 471 30 443 C30 442 30 441 30 440 C30 435 31 434 35 434 C37 434 39 434 41 434 C55 434 69 434 82 434 C91 434 100 434 109 434 C110 434 112 434 114 435 C114 435 115 435 115 436 C115 439 115 442 115 445 C115 470 115 496 115 522 C115 533 116 544 117 555 C118 563 120 572 122 580 C124 586 127 591 130 596 C136 605 144 610 155 612 C160 613 165 613 170 612 C181 610 190 604 196 594 C201 587 203 578 205 570 C207 560 209 550 209 540 C209 535 209 531 209 526 L209 517 C207 466 193 426 150 368 L150 368 C150 368 150 368 150 368 C149 366 148 365 147 364 C131 341 48 224 33 128 C33 122 32 117 32 111 L32 111 C31 108 31 106 31 104 C30 94 30 83 30 73 L30 -24 L30 -24 L30 -115 L299 -115 L299 -24 L226 -24 L226 -24 Z " />
<glyph glyph-name="three" unicode="3" horiz-adv-x="330" d="M233 311 C233 311 297 335 299 443 C299 468 299 493 299 518 C299 528 299 538 299 548 C299 554 298 560 298 566 C295 589 278 701 161 701 C57 701 36 602 32 562 C31 550 30 538 30 526 C30 513 30 500 30 487 L116 487 C116 499 116 510 115 522 C115 533 116 544 117 555 C118 563 120 572 122 580 C124 586 127 591 130 596 C136 605 144 610 155 612 C160 613 165 613 170 612 C181 610 190 604 196 594 C201 587 204 578 205 570 C207 560 209 550 209 540 C209 535 209 531 209 526 C209 492 209 459 209 425 L209 425 C209 425 211 352 130 352 L107 352 L107 271 L130 271 C211 271 209 198 209 198 L209 198 C209 152 209 106 209 60 C209 49 209 38 207 27 C206 20 205 13 202 6 C201 3 200 -1 198 -4 C191 -18 180 -25 166 -26 C161 -26 156 -26 151 -25 C142 -22 135 -17 130 -9 C127 -5 124 1 122 6 C120 14 118 22 117 30 C116 40 115 50 115 60 C116 84 116 108 116 132 L30 132 C30 108 30 84 30 61 C30 47 31 34 32 21 C37 -19 58 -114 165 -114 C280 -114 296 1 299 35 C299 44 300 53 300 62 C300 69 300 77 300 85 C300 118 300 150 300 183 C299 206 292 278 233 311 L233 311 Z " />
<glyph glyph-name="four" unicode="4" horiz-adv-x="342" d="M312 167 L312 191 L312 358 L312 358 L312 701 L228 701 L222 701 L222 701 L215 701 L166 701 C166 701 166 700 165 700 C163 687 160 673 157 660 C154 645 151 630 148 614 C146 607 145 600 143 593 C141 580 138 566 135 553 C132 540 130 526 127 513 C124 500 121 486 118 473 C115 454 111 435 107 416 C102 395 98 373 93 352 C92 345 91 338 89 332 C86 318 84 305 81 291 C78 278 75 264 73 251 C70 238 67 225 64 211 C60 192 57 173 52 154 C48 133 44 111 39 90 C38 83 36 77 35 70 C33 62 32 54 30 46 L115 46 C115 46 115 46 115 46 C117 46 120 46 122 46 C152 46 183 46 213 46 C215 46 217 46 220 46 C221 46 221 46 222 45 L222 45 C222 -8 222 -61 222 -114 L312 -114 L312 42 C312 52 312 64 312 74 C312 87 312 99 312 112 C312 130 312 149 312 167 L312 167 Z M222 136 L217 136 L200 136 L130 136 L137 174 C138 178 139 182 140 187 C143 201 146 216 149 230 C152 245 154 260 157 274 C160 289 163 303 166 318 C167 324 169 331 170 338 C173 352 176 367 179 381 C181 396 184 410 187 425 C189 432 190 439 192 446 C194 460 197 475 200 490 C203 504 206 519 209 533 C212 548 215 562 217 577 C219 584 220 591 222 599 L222 599 C222 497 222 395 222 294 C222 241 222 189 222 136 L222 136 L222 136 Z " />
<glyph glyph-name="five" unicode="5" horiz-adv-x="330" d="M121 611 L121 611 L175 611 L300 611 L300 701 C240 701 180 701 121 701 L121 701 L31 701 C31 701 31 701 31 701 C31 701 31 701 31 701 L31 611 L31 611 C31 517 31 423 31 329 C31 302 31 275 31 248 L121 248 L121 269 C121 286 127 334 169 334 C203 334 212 295 214 268 L214 159 C214 126 214 93 214 60 C214 50 214 40 213 30 C212 22 210 14 208 6 C206 1 203 -5 200 -9 C195 -17 188 -22 179 -25 C174 -26 169 -26 163 -26 C150 -25 139 -18 132 -4 C130 -1 129 3 127 6 C125 13 124 20 123 27 C121 38 121 49 121 60 C121 78 121 97 121 115 L30 115 L30 85 C30 77 30 69 30 62 C30 53 31 44 31 35 C34 1 50 -114 165 -114 C272 -114 293 -19 298 21 C299 34 300 47 300 61 C300 85 300 109 300 133 L300 133 C300 133 300 238 300 293 C300 314 298 341 290 366 L290 366 C290 366 271 438 204 438 C157 438 135 409 126 392 C125 391 125 390 124 389 L124 387 C122 383 121 379 121 379 L121 393 L121 405 L121 610 L121 611 L121 611 Z " />
<glyph glyph-name="six" unicode="6" horiz-adv-x="329" d="M299 272 C299 279 299 287 299 293 C299 314 297 341 289 366 L289 366 C289 366 270 438 203 438 C156 438 134 409 125 392 C124 391 124 390 123 389 L123 387 C121 383 120 379 120 379 L120 388 C120 434 120 480 120 526 C120 531 120 535 120 540 C120 550 122 560 124 570 C125 578 128 587 133 594 C139 604 148 610 159 612 C164 613 169 613 174 612 C185 610 193 605 199 596 C202 591 205 586 207 580 C209 572 211 563 212 555 C213 544 213 533 213 522 C213 514 213 506 213 498 L299 498 C299 507 299 516 299 526 C299 538 298 550 297 562 C293 602 272 701 168 701 C51 701 34 589 31 566 C31 560 30 554 30 548 C30 538 30 528 30 518 C30 384 30 250 30 115 L30 115 L30 85 C30 77 30 69 30 62 C30 53 30 44 30 35 C33 1 49 -114 164 -114 L164 -114 L164 -114 C271 -114 293 -19 297 21 C298 34 299 47 299 61 C299 85 299 109 299 133 L299 133 L299 272 L299 272 L299 272 Z M120 248 L120 269 C121 286 126 334 168 334 C203 334 211 295 213 268 L213 159 C213 126 213 93 213 60 C213 50 213 40 212 30 C211 22 209 14 207 6 C205 1 203 -5 199 -9 C194 -17 187 -22 178 -25 C174 -25 170 -26 166 -26 C165 -26 164 -26 163 -26 C149 -25 138 -18 131 -4 C129 -1 128 3 126 6 C124 13 123 20 122 27 C120 38 120 49 120 60 C120 123 120 185 120 248 L120 248 L120 248 Z " />
<glyph glyph-name="seven" unicode="7" horiz-adv-x="283" d="M233 490 C234 500 235 511 236 521 L239 548 C240 557 240 567 241 577 C242 583 242 589 243 596 L253 701 L196 701 L188 701 L177 701 L106 701 L30 701 C30 671 30 641 30 610 L57 610 L106 610 L167 610 C167 605 166 599 166 593 C164 580 163 566 161 553 C160 540 159 526 157 513 C156 500 154 486 153 473 C151 454 149 435 147 416 C145 395 143 373 141 352 C140 345 139 338 138 332 C137 318 135 305 134 291 C133 278 132 264 130 251 C129 238 127 225 126 211 C124 192 122 173 120 154 C118 133 116 111 113 90 C113 83 112 77 111 70 C110 57 108 43 107 30 C105 17 104 3 103 -11 C101 -24 100 -37 99 -50 C97 -64 96 -77 95 -90 C94 -93 94 -96 94 -99 L92 -114 C94 -114 96 -114 97 -114 C121 -114 144 -114 168 -114 C175 -114 175 -114 176 -107 L182 -45 C182 -38 183 -31 184 -24 C185 -10 186 5 188 19 L203 180 C203 182 204 184 204 187 C204 188 204 190 204 192 L211 265 C212 268 212 271 212 274 C213 282 214 291 215 300 L220 352 C221 362 222 372 223 381 C224 396 225 410 227 425 C227 426 227 427 227 428 L229 449 C231 462 232 476 233 490 L233 490 Z " />
<glyph glyph-name="eight" unicode="8" horiz-adv-x="331" d="M299 104 C299 106 299 108 299 111 L299 111 C298 117 298 122 297 128 C288 183 257 246 229 293 C257 341 288 403 297 459 C298 464 298 470 299 476 L299 476 C299 478 299 481 299 483 C300 493 301 503 301 514 C301 517 301 520 301 523 L300 523 C300 524 300 525 300 526 C300 539 300 552 299 566 C297 582 292 609 278 634 C261 669 228 701 169 701 C169 701 168 701 168 701 C167 701 166 701 166 701 C113 701 81 677 62 648 C39 616 34 578 33 566 C32 562 32 558 32 554 C32 553 32 553 32 552 C31 543 31 534 31 525 L31 524 C31 524 31 524 31 524 C31 522 31 520 31 518 C31 518 28 451 71 375 L71 375 C82 352 97 325 117 293 C97 262 82 235 71 212 C71 212 71 212 71 212 C28 135 31 68 31 68 C31 62 31 56 31 49 C31 49 31 49 31 49 C31 49 31 48 31 47 C31 47 31 46 31 46 C31 42 31 38 32 35 C32 34 32 33 32 33 C32 29 32 25 33 21 C34 9 39 -29 62 -61 C81 -91 113 -114 166 -114 C166 -114 167 -114 168 -114 C168 -114 169 -114 169 -114 C228 -114 261 -83 278 -48 C292 -22 297 4 299 21 C300 34 300 47 300 61 C300 62 300 63 300 64 L301 64 C301 67 301 70 301 73 C301 83 300 94 299 104 L299 104 Z M215 65 C215 54 215 43 213 32 C212 23 211 15 208 7 C206 1 204 -4 201 -9 C197 -14 194 -17 190 -20 C187 -22 183 -24 179 -25 C174 -26 169 -26 164 -26 C157 -25 151 -23 146 -20 C142 -17 137 -13 134 -7 C130 0 127 9 125 17 C124 24 122 31 122 38 C122 42 121 46 121 49 C121 53 121 57 121 61 L121 70 C123 118 136 156 173 209 C200 167 212 134 215 96 C215 89 215 81 215 73 C215 73 215 73 215 73 C215 70 215 68 215 65 L215 65 Z M121 517 L121 519 C121 519 121 519 121 519 L121 527 C121 528 121 528 121 529 C121 530 121 532 121 533 C121 533 121 533 121 533 C121 535 121 536 121 538 C121 542 122 545 122 548 C122 556 123 563 125 570 C127 578 130 587 134 594 C137 599 142 604 146 607 C151 610 157 612 164 613 C169 613 174 613 179 611 C183 610 187 609 190 607 C194 604 197 600 201 596 C204 591 206 586 208 580 C211 572 212 563 213 555 C215 544 215 533 215 522 C215 520 215 518 215 516 C215 516 215 516 215 516 C215 507 215 499 215 490 C212 452 200 419 173 378 C136 430 123 469 121 517 L121 517 Z " />
<glyph glyph-name="nine" unicode="9" horiz-adv-x="329" d="M30 315 C30 307 30 300 30 293 C30 273 32 245 40 220 L40 220 C40 220 58 149 125 149 C172 149 194 178 203 195 C204 196 204 197 205 198 L205 200 C207 204 208 207 208 207 L208 199 C208 153 208 107 208 61 C208 56 208 51 208 47 C208 37 207 27 205 17 C203 9 200 0 196 -7 C189 -17 181 -24 169 -25 C164 -26 159 -26 154 -25 C144 -24 135 -18 129 -9 C126 -4 123 1 122 7 C119 15 117 23 116 32 C115 43 115 54 115 65 C115 73 115 81 115 89 L30 89 C30 80 30 70 30 61 C30 49 30 37 31 25 C35 -16 56 -114 160 -114 C277 -114 295 -2 297 21 C297 27 298 33 298 39 C299 49 299 59 299 68 C299 203 299 337 299 471 L299 471 L299 502 C299 509 299 517 299 525 C299 534 299 543 298 552 C296 585 279 701 164 701 C164 701 164 701 164 701 L164 701 C58 701 36 605 31 566 C30 552 30 539 30 526 C30 502 30 478 30 453 L30 453 L30 315 L30 315 L30 315 Z M208 338 L208 318 C208 301 202 253 160 253 C126 253 117 292 115 318 L115 427 C115 460 115 493 115 526 C115 537 115 547 116 557 C117 565 119 573 122 581 C123 586 126 591 129 596 C134 604 141 609 150 611 C154 612 158 613 162 613 C163 613 164 613 166 613 C180 612 190 605 197 591 C199 588 201 584 202 581 C204 574 205 567 206 560 C208 549 208 538 208 527 C208 464 208 401 208 338 L208 338 L208 338 Z " />
<glyph glyph-name="colon" unicode="&#x3a;" horiz-adv-x="183" d="M30 453 L30 329 L153 329 L153 453 L30 453 L30 453 Z M30 -115 L153 -115 L153 9 L30 9 L30 -115 L30 -115 Z " />
<glyph glyph-name="semicolon" unicode="&#x3b;" horiz-adv-x="184" d="M30 9 L154 9 L154 -104 L99 -231 L46 -231 L78 -115 L30 -115 L30 9 L30 9 Z M30 453 L30 329 L154 329 L154 453 L30 453 L30 453 Z " />
<glyph glyph-name="less" unicode="&#x3c;" horiz-adv-x="438" d="M411 479 L30 338 L30 248 L411 107 L411 182 L106 292 L411 401 L411 479 L411 479 Z " />
<glyph glyph-name="equal" unicode="&#x3d;" horiz-adv-x="394" d="M30 419 L30 340 L364 340 L364 419 L30 419 L30 419 Z M30 175 L364 175 L364 254 L30 254 L30 175 L30 175 Z " />
<glyph glyph-name="greater" unicode="&#x3e;" horiz-adv-x="442" d="M30 479 L30 401 L335 292 L30 182 L30 107 L412 248 L412 338 L30 479 L30 479 Z " />
<glyph glyph-name="question" unicode="&#x3f;" horiz-adv-x="331" d="M30 -114 L121 -114 L121 -38 L30 -38 C30 -64 30 -89 30 -114 L30 -114 Z M300 518 C300 528 300 538 299 548 C299 554 299 560 298 566 C296 589 278 701 161 701 C57 701 37 602 32 562 C31 550 31 538 31 526 C31 498 31 471 31 443 C31 442 31 441 31 440 C31 435 31 434 36 434 C38 434 40 434 42 434 C56 434 69 434 83 434 C91 434 100 434 109 434 C111 434 112 434 114 435 C115 435 116 435 116 436 C116 439 116 442 116 445 C116 471 116 496 116 522 C116 533 116 544 118 555 C119 563 120 572 123 580 C125 586 127 591 130 596 C137 605 145 611 155 612 C160 613 165 613 170 612 C182 611 190 604 197 594 C201 586 204 578 206 570 C208 560 209 550 209 540 C209 535 210 531 210 526 L210 517 C208 466 193 426 151 368 L151 368 C151 368 151 368 151 368 C150 366 149 365 148 364 C131 341 49 224 34 128 C33 123 33 117 32 111 L32 111 C32 109 32 106 31 104 C31 94 30 83 30 73 L30 23 L117 23 L117 29 L117 39 L117 104 C122 145 137 181 172 229 L172 229 C213 289 241 337 260 375 L260 375 C303 451 300 518 300 518 L300 518 Z " />
<glyph glyph-name="at" unicode="&#x40;" horiz-adv-x="649" d="M563 614 C478 731 289 712 209 660 C129 609 5 487 35 150 C64 -187 424 -132 507 -60 L515 42 C515 42 437 -38 318 -30 C199 -22 106 44 114 279 C122 514 238 621 358 614 C478 608 549 552 541 378 C534 222 497 160 464 172 C464 172 464 172 463 172 C463 172 462 172 461 173 C453 177 453 187 453 193 C453 193 453 196 453 196 L480 492 L392 489 L384 431 C384 431 370 497 303 493 C235 490 211 420 203 368 C196 326 191 260 189 234 C189 229 187 186 199 147 C206 129 216 112 231 99 C246 86 264 82 284 83 C312 85 339 98 352 125 C355 131 358 137 359 144 C359 144 364 68 447 76 C530 85 577 167 597 233 C616 299 647 497 563 614 L563 614 Z M377 336 C371 273 366 230 366 230 C366 230 360 171 311 177 C311 178 310 178 308 178 C307 178 305 179 303 179 C296 182 291 188 288 196 C279 219 280 244 280 252 L285 308 L288 342 C288 342 292 398 338 395 C338 395 383 400 377 336 L377 336 Z " />
<glyph glyph-name="A" unicode="A" horiz-adv-x="376" d="M195 506 C195 498 196 489 197 481 C198 474 199 467 199 460 C201 445 202 431 203 416 C205 402 206 387 208 373 C208 364 209 355 210 347 C211 338 212 329 212 320 C213 313 214 306 215 299 L221 232 L224 206 L229 206 L313 206 C313 210 312 213 312 217 C311 230 309 243 308 257 C306 270 305 283 304 296 C302 310 301 324 300 337 C298 351 297 364 295 378 C293 397 291 416 289 435 C287 456 285 478 283 499 C282 506 281 513 281 519 C279 533 278 546 276 560 C275 573 274 587 272 600 C271 615 269 630 268 644 C266 657 265 670 264 682 C263 689 262 695 262 701 L115 701 C115 701 115 700 115 700 C113 686 112 673 111 660 C109 645 108 629 106 614 C105 607 104 600 104 593 C102 580 101 566 99 553 C98 539 97 526 95 513 C94 499 92 486 91 473 C89 454 87 435 85 416 C83 394 81 373 79 351 C78 345 77 338 77 332 C75 318 74 304 72 291 C71 278 70 264 68 251 C67 238 65 224 64 211 C62 192 60 173 58 154 C56 133 54 111 51 90 C51 83 50 76 49 70 C48 57 46 43 45 30 C44 16 42 3 41 -11 C40 -24 38 -37 37 -51 C35 -64 34 -77 33 -91 C32 -93 32 -96 32 -99 L30 -114 C32 -114 34 -115 35 -115 C59 -115 83 -115 106 -115 C113 -115 113 -114 114 -107 C114 -106 114 -106 114 -105 C115 -93 117 -80 118 -68 C119 -53 120 -39 122 -24 C123 -9 125 6 126 20 L161 381 C162 396 164 410 165 425 C166 432 166 439 167 446 C168 460 170 475 171 489 C172 504 174 518 175 533 C177 548 178 562 179 577 C180 588 182 598 183 609 C183 610 183 610 183 611 C184 610 184 610 184 610 C185 607 185 604 186 600 C187 584 189 567 191 550 C192 536 193 521 195 506 L195 506 Z M343 -86 C342 -72 341 -59 339 -45 C338 -32 336 -19 335 -5 C334 8 332 21 331 35 C329 53 327 72 325 91 C324 98 324 105 323 111 L233 111 L240 43 C240 43 240 42 240 42 C241 35 241 28 242 20 C243 6 245 -8 246 -22 C247 -37 249 -51 250 -65 C252 -79 253 -94 254 -108 C255 -109 255 -111 255 -112 C256 -113 257 -114 257 -114 C259 -115 260 -115 261 -115 C288 -115 314 -115 340 -115 C341 -115 342 -114 344 -114 C345 -114 346 -113 346 -112 C346 -111 346 -110 346 -109 C345 -101 344 -94 343 -86 L343 -86 Z " />
<glyph glyph-name="B" unicode="B" horiz-adv-x="337" d="M307 132 C307 147 306 162 305 177 C304 191 302 205 300 219 C297 235 293 249 287 263 C283 272 279 281 273 289 C266 300 257 309 247 316 C245 318 243 319 241 321 C240 321 240 323 241 324 C242 325 244 327 245 328 C256 337 265 348 272 361 C277 370 281 381 285 392 C291 412 294 434 296 455 C297 469 298 482 298 496 C298 499 298 501 298 504 C298 507 298 509 298 511 C295 707 175 701 175 701 L119 701 L119 609 C120 610 122 610 126 610 C137 610 149 610 160 610 C165 610 170 610 175 609 C183 606 189 601 194 593 C197 588 199 583 201 577 C204 568 205 558 206 548 C207 536 208 524 208 512 C207 501 207 491 208 480 C208 468 207 456 206 445 C206 437 205 429 203 421 L203 421 C197 393 189 377 181 368 C177 364 168 357 153 357 L120 357 L120 357 L119 357 L30 357 C30 336 30 315 30 294 C30 158 30 22 30 -114 L119 -114 L121 -114 L180 -114 C180 -114 280 -121 300 -24 C300 -24 300 -24 300 -23 C300 -22 300 -21 301 -20 C301 -19 301 -18 301 -17 C303 -7 304 2 305 12 C307 29 307 47 307 65 C307 87 307 109 307 132 L307 132 Z M216 60 C216 47 215 34 213 20 C212 15 211 10 209 5 C208 2 206 -2 205 -5 C198 -16 189 -22 178 -24 C175 -24 173 -24 171 -24 C155 -24 140 -24 124 -24 C123 -24 122 -24 121 -24 L121 42 C121 52 121 63 121 74 C121 87 121 99 121 112 C121 130 121 149 121 167 L121 191 L121 267 L164 267 C164 267 204 271 213 191 L213 191 C214 187 214 184 215 181 C216 169 217 157 216 145 C216 117 216 89 216 60 L216 60 Z " />
<glyph glyph-name="C" unicode="C" horiz-adv-x="330" d="M299 181 C299 181 299 182 298 182 C297 182 295 182 293 182 C269 182 245 182 221 182 C219 182 218 182 217 182 C216 182 215 181 215 180 C215 176 214 173 214 170 C214 134 214 97 214 60 C214 50 214 40 213 30 C212 21 210 14 208 6 C206 1 204 -4 200 -9 C195 -17 188 -22 179 -25 C174 -26 169 -26 164 -26 C150 -25 139 -18 132 -4 C130 -1 129 3 128 6 C125 13 124 20 123 27 C121 38 121 49 121 60 C121 215 121 370 121 526 C121 531 121 535 121 540 C121 550 123 560 125 570 C126 578 129 586 134 594 C140 604 149 610 160 612 C162 612 163 613 165 613 L165 701 C52 699 35 589 32 566 C32 560 31 554 31 548 C31 538 31 528 31 518 C30 374 31 230 31 85 C31 77 31 69 31 62 C31 53 31 44 31 35 C34 1 50 -114 165 -114 C272 -114 293 -19 298 21 C299 34 300 47 300 61 C300 98 300 136 300 174 C300 176 300 177 300 179 C300 179 300 180 299 181 L299 181 Z M214 516 C214 492 214 468 214 445 C214 442 215 439 215 436 C215 435 216 435 216 435 C218 434 220 434 221 434 C230 434 239 434 248 434 C261 434 275 434 289 434 C291 434 293 434 295 434 C299 434 300 435 300 440 C300 441 300 442 300 443 C300 467 300 491 300 516 L214 516 L214 516 Z " />
<glyph glyph-name="D" unicode="D" horiz-adv-x="335" d="M305 110 L305 483 L305 483 C305 496 305 509 305 522 C305 540 305 557 303 575 C302 584 301 594 299 603 C299 604 299 605 299 606 C299 607 299 609 298 610 C298 610 298 611 298 611 C278 707 178 701 178 701 L120 701 L120 610 L141 610 L141 610 C151 610 160 610 169 610 C172 610 174 610 176 610 C188 608 197 602 203 591 C205 588 206 585 207 582 C209 577 211 571 212 566 C214 553 215 540 215 526 C215 500 215 475 215 449 L215 449 L215 445 L215 445 L215 100 C215 99 215 98 215 96 L215 94 L215 94 C215 83 215 72 215 60 C215 47 214 34 212 20 C211 15 209 10 207 5 C206 2 205 -2 203 -5 C197 -16 188 -22 176 -24 C174 -24 172 -24 169 -24 C154 -24 138 -24 123 -24 C122 -24 121 -24 120 -24 L120 41 C120 52 120 63 120 74 C120 87 120 99 120 112 C120 130 120 149 120 167 L120 191 L120 357 L120 357 L30 357 C30 336 30 315 30 294 C30 158 30 22 30 -115 L120 -115 L120 -115 L146 -115 C146 -115 146 -115 146 -114 L178 -114 C178 -114 278 -121 298 -24 C298 -24 298 -24 298 -23 C299 -22 299 -21 299 -20 C299 -19 299 -18 299 -17 C301 -7 302 2 303 12 C305 29 305 47 305 65 C305 80 305 95 305 110 L305 110 L305 110 Z " />
<glyph glyph-name="E" unicode="E" horiz-adv-x="211" d="M30 -115 L181 -115 L181 -24 L120 -24 L120 267 L181 267 L181 357 L30 357 L30 -115 L30 -115 Z M120 701 L30 701 L30 610 L181 610 L181 701 L120 701 L120 701 Z " />
<glyph glyph-name="F" unicode="F" horiz-adv-x="211" d="M120 701 L30 701 L30 610 L181 610 L181 701 L120 701 L120 701 Z M30 -115 L120 -115 L120 -24 L120 267 L181 267 L181 357 L30 357 L30 -115 L30 -115 Z " />
<glyph glyph-name="G" unicode="G" horiz-adv-x="330" d="M132 -4 C130 -1 129 3 127 6 C125 13 124 20 122 27 C121 38 121 49 121 60 C121 215 121 370 121 526 C121 531 121 535 121 540 C121 550 122 560 124 570 C126 578 129 586 133 594 C140 604 148 610 160 612 C165 613 170 613 175 612 C185 610 194 605 200 596 C203 591 206 586 207 580 C210 572 212 563 213 555 C214 544 214 533 214 522 C214 496 214 470 214 445 C214 442 214 439 215 436 C215 435 215 435 216 435 C218 434 220 434 221 434 C230 434 239 434 248 434 C261 434 275 434 288 434 C290 434 292 434 294 434 C299 434 299 435 300 440 C300 441 300 442 300 443 C300 471 299 498 299 526 C299 538 299 550 298 562 C294 602 273 701 169 701 C52 701 34 589 32 566 C32 560 31 554 31 548 C30 538 30 528 30 518 C30 374 30 230 30 85 C30 77 30 69 30 62 C30 53 31 44 31 35 C33 1 50 -114 165 -114 C166 -114 166 -114 167 -114 L167 -26 C166 -26 165 -26 163 -26 C149 -25 139 -18 132 -4 L132 -4 Z M299 181 C299 181 299 181 299 181 L215 181 L201 181 L196 181 L160 181 L159 181 L159 91 L299 91 C299 119 300 146 300 174 C300 176 300 177 299 179 C299 179 299 180 299 181 L299 181 Z " />
<glyph glyph-name="H" unicode="H" horiz-adv-x="300" d="M180 701 C180 645 180 590 180 534 L180 357 L167 357 L161 357 L126 357 L120 357 L30 357 C30 336 30 315 30 294 C30 158 30 22 30 -114 L121 -114 L121 42 C121 52 121 63 121 74 C121 87 121 99 121 112 C121 130 121 149 121 167 L121 217 L121 267 L167 267 L169 267 L180 267 C180 140 180 13 180 -114 L270 -114 L270 181 L270 357 L270 460 L270 701 L180 701 L180 701 Z M121 452 L121 608 C121 619 121 630 121 641 C121 653 121 666 121 678 C121 686 121 693 121 701 L30 701 C30 618 30 535 30 452 L121 452 L121 452 Z " />
<glyph glyph-name="I" unicode="I" horiz-adv-x="150" d="M120 357 L30 357 C30 336 30 315 30 294 C30 158 30 22 30 -114 L120 -114 L120 42 C120 52 120 63 120 74 C120 87 120 99 120 112 C120 130 120 149 120 167 L120 191 L120 357 L120 357 L120 357 Z M120 452 L120 701 L30 701 C30 618 30 535 30 452 L120 452 L120 452 Z " />
<glyph glyph-name="J" unicode="J" horiz-adv-x="297" d="M177 122 L177 75 L267 75 C267 88 267 100 267 113 L267 113 C267 131 267 149 267 167 L267 191 L267 357 L267 357 L267 701 L177 701 C177 565 177 430 177 294 C177 237 177 180 177 122 L177 122 Z M135 -26 C106 -27 95 -2 95 -2 L30 -63 C50 -91 81 -114 133 -114 C133 -114 134 -114 135 -114 L135 -26 L135 -26 Z " />
<glyph glyph-name="K" unicode="K" horiz-adv-x="372" d="M120 701 L30 701 C30 618 30 535 30 452 L120 452 L120 701 L120 701 Z M251 74 C245 87 239 99 233 112 C224 130 215 149 206 167 L195 191 L146 293 L195 396 L206 419 C215 438 224 456 233 475 C239 487 245 500 251 512 C256 523 262 534 267 545 L342 701 L255 701 L31 235 C31 118 31 2 31 -114 L121 -114 L121 42 C121 52 121 63 121 74 C121 87 121 99 121 112 C121 127 121 142 121 157 C165 67 208 -24 252 -114 L342 -114 L267 42 C262 52 256 63 251 74 L251 74 Z " />
<glyph glyph-name="L" unicode="L" horiz-adv-x="214" d="M120 701 L30 701 C30 618 30 535 30 452 L120 452 L120 701 L120 701 Z M121 -24 L121 42 C121 52 121 63 121 74 C121 87 121 99 121 112 C121 130 121 149 121 167 L121 191 L120 357 L120 357 L30 357 C30 336 30 315 30 294 C30 188 30 82 30 -24 L30 -24 L30 -115 L184 -115 L184 -24 L121 -24 L121 -24 Z " />
<glyph glyph-name="M" unicode="M" horiz-adv-x="441" d="M325 701 L322 701 L304 701 L228 211 L146 701 L122 701 L122 701 C122 701 121 701 120 701 L120 701 L120 701 L63 701 L30 701 L30 150 L30 150 C30 62 30 -26 30 -114 L120 -114 L120 42 C120 42 120 42 120 42 L120 166 C120 167 120 167 120 167 L120 191 L120 191 L120 359 L180 7 C209 7 238 7 267 7 L377 701 L325 701 L325 701 Z M322 148 C322 61 322 -27 322 -114 L411 -114 L411 148 L322 148 L322 148 Z " />
<glyph glyph-name="N" unicode="N" horiz-adv-x="337" d="M120 701 L32 701 L30 701 C30 565 30 430 30 294 C30 158 30 22 30 -114 L120 -114 L120 42 C120 53 120 63 120 74 C120 87 120 99 120 112 C120 130 120 149 120 167 L120 191 L120 308 C121 303 122 299 123 294 C154 158 184 22 215 -114 L217 -114 L303 -114 L120 701 L120 701 Z M307 428 L307 701 L217 701 C217 610 217 519 217 428 L307 428 L307 428 Z " />
<glyph glyph-name="O" unicode="O" horiz-adv-x="329" d="M165 -26 C164 -26 164 -26 163 -26 C149 -25 138 -18 131 -4 C130 -1 128 2 127 6 C124 13 123 20 122 27 C120 38 120 48 120 59 C120 215 120 370 120 526 C120 530 120 535 120 540 C121 550 122 560 124 570 C126 578 129 586 133 594 C139 604 148 610 159 612 C165 613 170 613 175 612 C185 610 193 605 200 596 C203 591 205 586 207 580 C210 572 211 563 212 554 C214 544 214 533 214 522 C214 500 214 478 214 457 L214 457 L214 159 C214 126 214 93 214 60 C214 56 214 53 214 49 L299 49 C299 53 299 57 299 60 C299 85 299 109 299 133 L299 133 L299 455 L299 455 C299 479 299 502 299 526 C299 538 299 550 298 562 C293 602 272 701 168 701 C51 701 34 589 32 565 C31 559 31 553 30 547 C30 538 30 528 30 518 C30 374 30 229 30 85 C30 77 30 69 30 61 C30 53 30 44 31 35 C33 1 50 -114 165 -114 L165 -26 L165 -26 Z " />
<glyph glyph-name="P" unicode="P" horiz-adv-x="331" d="M301 505 C301 507 301 509 301 512 C300 523 300 533 299 543 L210 543 L210 523 C210 520 210 516 210 512 C210 507 210 503 210 499 L210 494 C210 489 210 485 210 480 C210 468 210 456 209 445 C208 437 207 429 205 421 L205 421 C205 419 204 416 204 414 C204 414 204 414 204 413 C202 408 200 402 196 397 C192 390 185 384 177 382 C173 380 168 380 163 380 C151 380 140 380 128 380 C120 380 120 380 120 389 C120 397 120 405 120 412 L120 413 L120 413 C120 439 120 466 120 493 C120 494 120 494 120 495 C120 496 120 497 120 498 C120 513 120 528 120 543 L120 543 L120 570 C120 570 120 570 120 570 C120 580 120 591 120 601 C120 602 120 603 120 604 L120 701 L30 701 C30 676 30 650 30 625 C30 625 30 625 30 625 C30 586 30 547 30 508 C30 437 30 365 30 294 C30 158 30 22 30 -114 L120 -114 L120 42 C120 53 120 64 120 74 L120 112 C120 130 120 149 120 167 L120 213 L120 217 L120 232 L120 267 L120 289 L178 289 C178 289 244 286 279 364 C279 364 279 364 279 364 C280 366 280 367 281 368 C294 401 298 446 298 446 C298 449 298 452 299 456 C300 469 301 483 301 496 C301 499 301 502 301 505 L301 505 Z " />
<glyph glyph-name="Q" unicode="Q" horiz-adv-x="329" d="M183 -23 C182 -24 180 -24 178 -24 C174 -26 168 -26 163 -26 C149 -25 139 -18 132 -4 C130 -1 128 3 127 6 C125 13 124 20 122 27 C121 38 120 49 120 60 C120 215 120 370 121 526 C121 531 121 535 121 540 C121 550 122 560 124 570 C126 578 129 586 133 594 C140 604 148 610 160 612 C165 613 170 613 175 612 C185 610 193 605 200 596 C203 591 205 586 207 580 C210 572 212 563 213 555 C214 544 214 533 214 522 C214 500 214 478 214 457 L214 457 L214 159 C214 143 214 127 214 111 L299 111 C299 118 299 126 299 133 L299 133 L299 455 L299 455 C299 479 299 502 299 526 C299 538 299 550 298 562 C294 602 273 701 169 701 C52 701 34 589 32 566 C31 560 31 554 31 548 C30 538 30 528 30 519 C30 374 30 230 30 85 C30 77 30 70 30 62 C30 53 30 44 31 35 C33 2 49 -106 153 -114 L226 -173 L226 -173 C227 -174 229 -176 231 -177 C232 -178 234 -179 235 -180 C236 -180 237 -180 238 -179 C239 -179 240 -178 241 -177 C259 -158 277 -139 296 -121 C297 -120 297 -119 298 -118 C299 -117 299 -116 298 -115 L183 -23 L183 -23 Z " />
<glyph glyph-name="R" unicode="R" horiz-adv-x="331" d="M120 97 L30 97 C30 26 30 -44 30 -115 L120 -115 L120 41 C120 52 120 63 120 74 L120 97 L120 97 Z M256 41 C253 52 250 63 247 74 C243 87 240 99 236 112 C231 130 225 149 220 167 L213 191 L190 270 L185 290 C202 291 250 301 279 364 C279 364 279 364 279 364 C279 365 280 367 280 368 C294 400 298 445 298 445 C298 449 298 452 298 456 C300 469 300 482 300 496 C300 499 300 501 300 504 C300 507 300 509 300 512 C297 707 178 701 178 701 L30 701 C30 675 30 650 30 625 C30 625 30 625 30 625 C30 586 30 548 30 510 L133 157 C133 157 133 157 133 157 C159 67 185 -24 211 -115 L301 -115 L256 41 L256 41 Z M163 380 C151 380 140 380 128 380 C120 380 120 380 120 389 C120 397 120 404 120 412 L120 412 L120 412 C120 439 120 466 120 493 C120 494 120 494 120 495 C120 496 120 497 120 497 C120 522 120 546 120 570 C120 570 120 570 120 570 C120 580 120 591 120 601 C120 610 120 610 128 610 C140 610 151 610 163 610 C168 610 172 610 177 609 C185 606 191 601 196 593 C199 588 202 583 203 577 C206 568 208 558 209 548 C209 536 210 524 210 512 C210 501 210 491 210 480 C210 468 210 456 209 445 C208 436 207 429 205 421 L205 421 C205 418 204 416 204 414 C203 414 203 413 203 413 C202 407 199 402 196 397 C191 389 185 384 177 382 C172 380 168 380 163 380 L163 380 Z " />
<glyph glyph-name="S" unicode="S" horiz-adv-x="331" d="M166 -26 C166 -26 165 -26 165 -26 C151 -25 140 -18 133 -4 C131 -1 130 3 128 6 C126 13 125 20 124 27 C122 38 122 49 122 60 C122 87 122 114 122 141 L31 141 C31 122 31 104 31 85 C31 77 31 69 31 62 C31 53 32 44 32 35 C35 1 51 -114 166 -114 C166 -114 166 -114 166 -114 L166 -26 L166 -26 Z M71 375 C90 337 118 289 159 229 L159 229 C196 178 212 140 215 96 C215 84 215 72 215 60 C215 50 215 40 214 30 C213 26 213 22 212 18 L298 18 C299 19 299 20 299 21 C300 34 301 47 300 61 C300 62 300 63 300 64 L301 64 C301 67 301 70 301 73 C301 83 300 94 300 104 C299 106 299 109 299 111 L299 111 C299 117 298 122 297 128 C282 224 200 341 183 364 C183 365 182 366 181 367 C181 368 180 368 180 368 L180 368 C138 426 124 466 122 517 C122 520 122 523 122 526 C122 531 122 535 122 540 C122 550 123 560 126 570 C127 578 130 586 135 594 C141 604 150 610 161 612 C166 613 171 613 176 612 C186 611 195 605 201 596 C204 591 207 586 209 580 C211 572 213 563 214 555 C215 544 215 533 215 522 C215 496 215 471 215 445 C215 442 216 439 216 436 C216 435 217 435 217 435 C219 434 221 434 222 434 C231 434 240 434 249 434 C262 434 276 434 289 434 C291 434 293 434 295 434 C300 434 300 435 301 440 C301 441 301 442 301 443 C300 471 300 498 300 526 C300 538 300 550 299 562 C295 602 274 701 170 701 C53 701 35 589 33 566 C33 560 32 554 32 548 C31 538 31 528 31 519 C31 519 29 451 71 375 L71 375 L71 375 Z " />
<glyph glyph-name="T" unicode="T" horiz-adv-x="224" d="M194 701 L188 701 L106 701 L30 701 C30 671 30 641 30 610 L106 610 C106 505 106 399 106 294 C106 158 106 22 106 -115 L194 -115 L194 701 L194 701 Z " />
<glyph glyph-name="U" unicode="U" horiz-adv-x="330" d="M165 -26 C164 -26 164 -26 163 -26 C150 -25 139 -18 132 -4 C130 -1 129 3 127 6 C125 13 124 20 122 27 C121 38 121 49 121 60 C121 155 121 251 121 346 L121 346 L121 362 C121 370 121 377 121 384 L121 384 L121 701 L116 701 L68 701 L30 701 L30 356 L30 356 C30 265 30 175 30 85 C30 77 30 70 30 62 C30 53 31 44 31 35 C33 1 50 -114 165 -114 L165 -26 L165 -26 Z M214 60 C214 55 214 50 214 45 L299 45 C299 50 300 56 300 61 C300 90 300 119 300 148 L300 148 L300 151 C300 159 300 166 300 174 C300 175 300 176 300 177 L300 701 L278 701 L275 701 L214 701 L214 111 L214 111 C214 94 214 77 214 60 L214 60 Z " />
<glyph glyph-name="V" unicode="V" horiz-adv-x="388" d="M174 271 L174 271 L161 357 L161 357 L108 701 L30 701 C50 565 71 430 92 294 C112 158 133 22 154 -114 L155 -114 L233 -114 L174 271 L174 271 Z M296 298 L311 396 L315 419 C318 438 321 456 323 475 C325 487 327 500 329 512 C331 523 332 534 334 545 L358 701 L279 701 C258 567 238 432 217 298 L296 298 L296 298 Z " />
<glyph glyph-name="W" unicode="W" horiz-adv-x="577" d="M468 701 C448 565 427 429 406 293 C398 243 391 193 383 143 C382 151 381 159 379 167 L376 191 L350 357 L350 357 L329 499 L253 499 L159 -114 L233 -114 L234 -114 L286 229 L286 229 L289 245 C307 125 325 5 343 -114 L344 -114 L422 -114 L423 -114 L475 229 L475 229 L501 396 L504 419 C507 438 510 456 513 475 C515 487 517 500 518 512 C520 523 522 534 524 545 L547 701 L468 701 L468 701 Z M169 306 L161 357 L161 357 L109 701 L30 701 C50 569 70 438 90 306 L169 306 L169 306 Z " />
<glyph glyph-name="X" unicode="X" horiz-adv-x="384" d="M86 513 L94 487 L173 487 L108 701 L30 701 C49 638 67 576 86 513 L86 513 L86 513 Z M298 74 L290 99 L290 99 L286 112 C281 130 275 149 269 167 L262 191 L254 220 L231 293 L247 347 L262 396 L267 412 L267 412 L269 419 C275 438 281 456 286 475 L298 512 C301 523 304 534 307 545 L354 701 L276 701 L31 -115 L108 -115 L178 116 L187 146 L192 163 L205 119 L216 84 L216 84 C236 18 255 -48 275 -115 L354 -115 L307 42 C304 52 301 63 298 74 L298 74 Z " />
<glyph glyph-name="Y" unicode="Y" horiz-adv-x="385" d="M277 701 L147 272 C147 143 147 14 147 -114 L238 -114 L238 42 C238 52 238 63 238 74 L238 112 C238 130 238 149 238 167 L238 191 L237 312 L248 347 L263 396 L268 412 L268 412 L270 419 C276 438 281 456 287 475 L298 512 C301 523 304 534 308 545 L355 701 L277 701 L277 701 Z M87 513 L93 493 L172 493 L109 701 L30 701 C49 638 68 576 87 513 L87 513 L87 513 Z " />
<glyph glyph-name="Z" unicode="Z" horiz-adv-x="340" d="M206 -24 L138 -24 L154 42 C156 52 159 63 162 74 C165 87 168 99 170 112 C175 130 179 149 184 167 L189 191 L228 357 L228 357 L310 701 L288 701 L223 701 L30 -114 L48 -114 L117 -114 L124 -114 L214 -114 L288 -114 L288 -24 L214 -24 L206 -24 L206 -24 Z M121 701 L48 701 C48 671 48 641 48 610 L121 610 L121 701 L121 701 Z " />
<glyph glyph-name="bracketleft" unicode="&#x5b;" horiz-adv-x="201" d="M171 622 L171 701 L120 701 L120 701 L30 701 C30 565 30 430 30 294 C30 158 30 22 30 -114 L72 -114 L120 -114 L171 -114 L171 -35 L120 -35 L120 42 C120 53 120 63 120 74 C120 87 120 99 120 112 C120 130 120 149 120 167 L120 191 L120 357 L120 357 L120 622 L171 622 L171 622 Z " />
<glyph glyph-name="backslash" unicode="&#x5c;" horiz-adv-x="230" d="M200 -109 C199 -101 198 -93 198 -86 C196 -72 195 -59 193 -45 C192 -32 191 -18 189 -5 C188 8 186 21 185 35 C183 54 181 73 179 92 C177 113 175 135 172 156 C172 163 171 169 170 176 C169 190 167 203 166 217 C165 230 163 243 162 257 C161 270 159 283 158 297 C156 310 155 324 154 337 C152 351 151 364 149 378 C147 397 145 416 143 435 C141 457 139 478 137 500 C136 506 135 513 135 519 C133 533 132 547 130 560 C129 573 128 587 126 600 C125 615 123 630 122 645 C120 657 119 670 118 683 C117 689 116 695 116 701 L30 701 L39 605 C39 604 40 602 40 601 C41 584 43 567 45 550 C45 542 46 534 47 526 L95 33 C95 29 96 25 96 20 C96 19 96 17 97 16 L103 -48 L103 -48 C103 -54 104 -59 104 -65 C106 -79 107 -93 108 -108 C109 -109 109 -111 109 -112 C110 -113 111 -114 111 -114 C113 -114 114 -114 116 -114 C142 -114 168 -114 194 -114 C195 -114 197 -114 198 -114 C199 -114 200 -113 200 -111 C200 -110 200 -109 200 -109 L200 -109 Z " />
<glyph glyph-name="bracketright" unicode="&#x5d;" horiz-adv-x="201" d="M30 622 L81 622 L81 357 L81 357 L81 191 L81 167 C81 149 81 130 81 112 C81 99 81 87 81 74 C81 63 81 53 81 42 L81 -35 L30 -35 L30 -114 L81 -114 L129 -114 L171 -114 C171 22 171 158 171 294 C171 430 171 565 171 701 L81 701 L81 701 L30 701 L30 622 L30 622 Z " />
<glyph glyph-name="asciicircum" unicode="&#x5e;" horiz-adv-x="431" d="M401 320 L261 701 L171 701 L30 320 L104 320 L215 625 L323 320 L401 320 L401 320 Z " />
<glyph glyph-name="underscore" unicode="&#x5f;" horiz-adv-x="394" d="M30 -35 L30 -114 L364 -114 L364 -35 L30 -35 L30 -35 Z " />
<glyph glyph-name="grave" unicode="&#x60;" horiz-adv-x="139" d="M64 583 L109 583 L107 592 C106 594 106 595 105 597 C105 599 104 601 103 603 C103 606 102 609 101 613 L100 616 L92 644 L92 644 L75 701 L30 701 C37 679 43 656 50 634 C54 617 59 600 64 583 L64 583 Z " />
<glyph glyph-name="a" unicode="a" horiz-adv-x="376" d="M195 506 C195 498 196 489 197 481 C198 474 199 467 199 460 C201 445 202 431 203 416 L208 373 C208 364 209 355 210 347 C211 338 212 329 212 320 L215 299 L221 232 L224 206 L229 206 L313 206 C313 210 312 213 312 217 L308 257 C306 270 305 283 304 296 C302 310 301 324 300 337 L295 378 L289 435 L283 499 C282 506 281 513 281 519 L276 560 C275 573 274 587 272 600 L268 644 C266 657 265 670 264 682 C263 689 262 695 262 701 L115 701 C115 701 115 700 115 700 C113 686 112 673 111 660 L106 614 C105 607 104 600 104 593 L99 553 C98 539 97 526 95 513 L91 473 L85 416 L79 351 C78 345 77 338 77 332 L72 291 C71 278 70 264 68 251 L64 211 L58 154 C56 133 54 111 51 90 C51 83 50 76 49 70 L45 30 L41 -11 L37 -51 C35 -64 34 -77 33 -91 C32 -93 32 -96 32 -99 L30 -114 C32 -114 34 -115 35 -115 L106 -115 C113 -115 113 -114 114 -107 L114 -105 L118 -68 C119 -53 120 -39 122 -24 L126 20 L161 381 L165 425 L167 446 L171 489 L175 533 C177 548 178 562 179 577 L183 609 L183 611 C184 610 184 610 184 610 L186 600 C187 584 189 567 191 550 C192 536 193 521 195 506 L195 506 L195 506 Z M343 -86 C342 -72 341 -59 339 -45 L335 -5 L331 35 L325 91 L323 111 L233 111 L240 43 C240 43 240 42 240 42 L242 20 L246 -22 L250 -65 C252 -79 253 -94 254 -108 C255 -109 255 -111 255 -112 C256 -113 257 -114 257 -114 C259 -115 260 -115 261 -115 L340 -115 C341 -115 342 -114 344 -114 C345 -114 346 -113 346 -112 L346 -109 L343 -86 L343 -86 Z " />
<glyph glyph-name="b" unicode="b" horiz-adv-x="337" d="M307 132 C307 147 306 162 305 177 C304 191 302 205 300 219 C297 235 293 249 287 263 C283 272 279 281 273 289 C266 300 257 309 247 316 L241 321 C240 321 240 323 241 324 L245 328 C256 337 265 348 272 361 C277 370 281 381 285 392 C291 412 294 434 296 455 C297 469 298 482 298 496 L298 504 L298 511 C295 707 175 701 175 701 L119 701 L119 609 C120 610 122 610 126 610 L160 610 C165 610 170 610 175 609 C183 606 189 601 194 593 C197 588 199 583 201 577 C204 568 205 558 206 548 C207 536 208 524 208 512 C207 501 207 491 208 480 C208 468 207 456 206 445 C206 437 205 429 203 421 C197 393 189 377 181 368 C177 364 168 357 153 357 L120 357 L119 357 L30 357 L30 294 L30 -114 L119 -114 L121 -114 L180 -114 C180 -114 280 -121 300 -24 C300 -24 300 -24 300 -23 C300 -22 300 -21 301 -20 L301 -17 C303 -7 304 2 305 12 C307 29 307 47 307 65 L307 132 L307 132 Z M216 60 C216 47 215 34 213 20 C212 15 211 10 209 5 L205 -5 C198 -16 189 -22 178 -24 L171 -24 L124 -24 L121 -24 L121 42 L121 74 L121 112 L121 167 L121 191 L121 267 L164 267 C164 267 204 271 213 191 L215 181 C216 169 217 157 216 145 L216 60 L216 60 Z " />
<glyph glyph-name="c" unicode="c" horiz-adv-x="330" d="M299 181 C299 181 299 182 298 182 L293 182 L221 182 L217 182 C216 182 215 181 215 180 C215 176 214 173 214 170 L214 60 C214 50 214 40 213 30 C212 21 210 14 208 6 C206 1 204 -4 200 -9 C195 -17 188 -22 179 -25 C174 -26 169 -26 164 -26 C150 -25 139 -18 132 -4 C130 -1 129 3 128 6 C125 13 124 20 123 27 C121 38 121 49 121 60 L121 526 L121 540 C121 550 123 560 125 570 C126 578 129 586 134 594 C140 604 149 610 160 612 C162 612 163 613 165 613 L165 701 C52 699 35 589 32 566 C32 560 31 554 31 548 L31 518 C30 374 31 230 31 85 L31 62 L31 35 C34 1 50 -114 165 -114 C272 -114 293 -19 298 21 C299 34 300 47 300 61 L300 174 L300 179 C300 179 300 180 299 181 L299 181 L299 181 Z M214 516 L214 445 C214 442 215 439 215 436 C215 435 216 435 216 435 C218 434 220 434 221 434 L248 434 L289 434 L295 434 C299 434 300 435 300 440 L300 443 L300 516 L214 516 L214 516 Z " />
<glyph glyph-name="d" unicode="d" horiz-adv-x="335" d="M305 110 L305 483 L305 522 C305 540 305 557 303 575 C302 584 301 594 299 603 L299 606 C299 607 299 609 298 610 C298 610 298 611 298 611 C278 707 178 701 178 701 L120 701 L120 610 L141 610 L169 610 L176 610 C188 608 197 602 203 591 C205 588 206 585 207 582 C209 577 211 571 212 566 C214 553 215 540 215 526 L215 449 L215 445 L215 100 L215 96 L215 94 L215 60 C215 47 214 34 212 20 C211 15 209 10 207 5 C206 2 205 -2 203 -5 C197 -16 188 -22 176 -24 L169 -24 L123 -24 L120 -24 L120 41 L120 74 L120 112 L120 167 L120 191 L120 357 L30 357 L30 294 L30 -115 L120 -115 L146 -115 C146 -115 146 -115 146 -114 L178 -114 C178 -114 278 -121 298 -24 C298 -24 298 -24 298 -23 C299 -22 299 -21 299 -20 L299 -17 C301 -7 302 2 303 12 C305 29 305 47 305 65 L305 110 L305 110 Z " />
<glyph glyph-name="e" unicode="e" horiz-adv-x="211" d="M30 -115 L181 -115 L181 -24 L120 -24 L120 267 L181 267 L181 357 L30 357 L30 -115 L30 -115 Z M120 701 L30 701 L30 610 L181 610 L181 701 L120 701 L120 701 Z " />
<glyph glyph-name="f" unicode="f" horiz-adv-x="211" d="M120 701 L30 701 L30 610 L181 610 L181 701 L120 701 L120 701 Z M30 -115 L120 -115 L120 -24 L120 267 L181 267 L181 357 L30 357 L30 -115 L30 -115 Z " />
<glyph glyph-name="g" unicode="g" horiz-adv-x="330" d="M132 -4 L127 6 L122 27 C121 38 121 49 121 60 L121 526 L121 540 C121 550 122 560 124 570 C126 578 129 586 133 594 C140 604 148 610 160 612 C165 613 170 613 175 612 C185 610 194 605 200 596 C203 591 206 586 207 580 C210 572 212 563 213 555 C214 544 214 533 214 522 L214 445 C214 442 214 439 215 436 C215 435 215 435 216 435 C218 434 220 434 221 434 L248 434 L288 434 L294 434 C299 434 299 435 300 440 L300 443 C300 471 299 498 299 526 C299 538 299 550 298 562 C294 602 273 701 169 701 C52 701 34 589 32 566 C32 560 31 554 31 548 C30 538 30 528 30 518 L30 85 L30 62 C30 53 31 44 31 35 C33 1 50 -114 165 -114 L167 -114 L167 -26 L163 -26 C149 -25 139 -18 132 -4 L132 -4 L132 -4 Z M299 181 L215 181 L201 181 L196 181 L160 181 L159 181 L159 91 L299 91 C299 119 300 146 300 174 C300 176 300 177 299 179 C299 179 299 180 299 181 L299 181 Z " />
<glyph glyph-name="h" unicode="h" horiz-adv-x="300" d="M180 701 L180 534 L180 357 L167 357 L161 357 L126 357 L120 357 L30 357 L30 294 L30 -114 L121 -114 L121 42 L121 74 L121 112 L121 167 L121 217 L121 267 L167 267 L169 267 L180 267 L180 -114 L270 -114 L270 181 L270 357 L270 460 L270 701 L180 701 L180 701 Z M121 452 L121 608 L121 641 L121 678 L121 701 L30 701 L30 452 L121 452 L121 452 Z " />
<glyph glyph-name="i" unicode="i" horiz-adv-x="150" d="M120 357 L30 357 L30 294 L30 -114 L120 -114 L120 42 L120 74 L120 112 L120 167 L120 191 L120 357 L120 357 Z M120 452 L120 701 L30 701 L30 452 L120 452 L120 452 Z " />
<glyph glyph-name="j" unicode="j" horiz-adv-x="297" d="M177 122 L177 75 L267 75 L267 113 L267 167 L267 191 L267 357 L267 701 L177 701 L177 294 L177 122 L177 122 Z M135 -26 C106 -27 95 -2 95 -2 L30 -63 C50 -91 81 -114 133 -114 C133 -114 134 -114 135 -114 L135 -26 L135 -26 Z " />
<glyph glyph-name="k" unicode="k" horiz-adv-x="372" d="M120 701 L30 701 L30 452 L120 452 L120 701 L120 701 Z M251 74 L233 112 L206 167 L195 191 L146 293 L195 396 L206 419 L233 475 L251 512 L267 545 L342 701 L255 701 L31 235 L31 -114 L121 -114 L121 42 L121 74 L121 112 L121 157 L252 -114 L342 -114 L267 42 L251 74 L251 74 Z " />
<glyph glyph-name="l" unicode="l" horiz-adv-x="214" d="M120 701 L30 701 L30 452 L120 452 L120 701 L120 701 Z M121 -24 L121 42 L121 74 L121 112 L121 167 L121 191 L120 357 L30 357 L30 294 L30 -24 L30 -115 L184 -115 L184 -24 L121 -24 L121 -24 Z " />
<glyph glyph-name="m" unicode="m" horiz-adv-x="441" d="M325 701 L322 701 L304 701 L228 211 L146 701 L122 701 C122 701 121 701 120 701 L63 701 L30 701 L30 150 L30 -114 L120 -114 L120 42 L120 166 C120 167 120 167 120 167 L120 191 L120 359 L180 7 L267 7 L377 701 L325 701 L325 701 Z M322 148 L322 -114 L411 -114 L411 148 L322 148 L322 148 Z " />
<glyph glyph-name="n" unicode="n" horiz-adv-x="337" d="M120 701 L32 701 L30 701 L30 294 L30 -114 L120 -114 L120 42 L120 74 L120 112 L120 167 L120 191 L120 308 L123 294 L215 -114 L217 -114 L303 -114 L120 701 L120 701 Z M307 428 L307 701 L217 701 L217 428 L307 428 L307 428 Z " />
<glyph glyph-name="o" unicode="o" horiz-adv-x="329" d="M165 -26 L163 -26 C149 -25 138 -18 131 -4 C130 -1 128 2 127 6 C124 13 123 20 122 27 C120 38 120 48 120 59 L120 526 L120 540 C121 550 122 560 124 570 C126 578 129 586 133 594 C139 604 148 610 159 612 C165 613 170 613 175 612 C185 610 193 605 200 596 C203 591 205 586 207 580 C210 572 211 563 212 554 C214 544 214 533 214 522 L214 457 L214 159 L214 60 L214 49 L299 49 L299 60 L299 133 L299 455 L299 526 C299 538 299 550 298 562 C293 602 272 701 168 701 C51 701 34 589 32 565 L30 547 L30 518 L30 85 L30 61 C30 53 30 44 31 35 C33 1 50 -114 165 -114 L165 -26 L165 -26 Z " />
<glyph glyph-name="p" unicode="p" horiz-adv-x="331" d="M301 505 L301 512 L299 543 L210 543 L210 523 L210 512 L210 499 L210 494 L210 480 C210 468 210 456 209 445 C208 437 207 429 205 421 C205 419 204 416 204 414 C204 414 204 414 204 413 C202 408 200 402 196 397 C192 390 185 384 177 382 C173 380 168 380 163 380 L128 380 C120 380 120 380 120 389 L120 412 L120 413 L120 493 L120 495 L120 498 L120 543 L120 570 L120 601 L120 604 L120 701 L30 701 L30 625 L30 508 L30 294 L30 -114 L120 -114 L120 42 L120 74 L120 112 L120 167 L120 213 L120 217 L120 232 L120 267 L120 289 L178 289 C178 289 244 286 279 364 L281 368 C294 401 298 446 298 446 C298 449 298 452 299 456 C300 469 301 483 301 496 L301 505 L301 505 Z " />
<glyph glyph-name="q" unicode="q" horiz-adv-x="329" d="M183 -23 C182 -24 180 -24 178 -24 C174 -26 168 -26 163 -26 C149 -25 139 -18 132 -4 L127 6 L122 27 C121 38 120 49 120 60 C120 215 120 370 121 526 L121 540 C121 550 122 560 124 570 C126 578 129 586 133 594 C140 604 148 610 160 612 C165 613 170 613 175 612 C185 610 193 605 200 596 C203 591 205 586 207 580 C210 572 212 563 213 555 C214 544 214 533 214 522 L214 457 L214 159 L214 111 L299 111 L299 133 L299 455 L299 526 C299 538 299 550 298 562 C294 602 273 701 169 701 C52 701 34 589 32 566 C31 560 31 554 31 548 C30 538 30 528 30 519 L30 85 L30 62 C30 53 30 44 31 35 C33 2 49 -106 153 -114 L226 -173 L231 -177 L235 -180 C236 -180 237 -180 238 -179 C239 -179 240 -178 241 -177 C259 -158 277 -139 296 -121 L298 -118 C299 -117 299 -116 298 -115 L183 -23 L183 -23 Z " />
<glyph glyph-name="r" unicode="r" horiz-adv-x="331" d="M120 97 L30 97 L30 -115 L120 -115 L120 41 L120 74 L120 97 L120 97 Z M256 41 L247 74 L236 112 L220 167 L213 191 L190 270 L185 290 C202 291 250 301 279 364 C279 365 280 367 280 368 C294 400 298 445 298 445 L298 456 C300 469 300 482 300 496 L300 504 L300 512 C297 707 178 701 178 701 L30 701 L30 625 L30 510 L133 157 L211 -115 L301 -115 L256 41 L256 41 Z M163 380 L128 380 C120 380 120 380 120 389 L120 412 L120 493 L120 495 C120 496 120 497 120 497 L120 570 L120 601 C120 610 120 610 128 610 L163 610 C168 610 172 610 177 609 C185 606 191 601 196 593 C199 588 202 583 203 577 C206 568 208 558 209 548 C209 536 210 524 210 512 L210 480 C210 468 210 456 209 445 C208 436 207 429 205 421 C205 418 204 416 204 414 C203 414 203 413 203 413 C202 407 199 402 196 397 C191 389 185 384 177 382 C172 380 168 380 163 380 L163 380 Z " />
<glyph glyph-name="s" unicode="s" horiz-adv-x="331" d="M166 -26 C166 -26 165 -26 165 -26 C151 -25 140 -18 133 -4 L128 6 C126 13 125 20 124 27 C122 38 122 49 122 60 L122 141 L31 141 L31 85 L31 62 C31 53 32 44 32 35 C35 1 51 -114 166 -114 L166 -26 L166 -26 Z M71 375 C90 337 118 289 159 229 C196 178 212 140 215 96 L215 60 C215 50 215 40 214 30 L212 18 L298 18 C299 19 299 20 299 21 C300 34 301 47 300 61 L300 64 L301 64 L301 73 C301 83 300 94 300 104 C299 106 299 109 299 111 C299 117 298 122 297 128 C282 224 200 341 183 364 C183 365 182 366 181 367 C181 368 180 368 180 368 C138 426 124 466 122 517 L122 526 L122 540 C122 550 123 560 126 570 C127 578 130 586 135 594 C141 604 150 610 161 612 C166 613 171 613 176 612 C186 611 195 605 201 596 C204 591 207 586 209 580 C211 572 213 563 214 555 C215 544 215 533 215 522 L215 445 C215 442 216 439 216 436 C216 435 217 435 217 435 C219 434 221 434 222 434 L249 434 L289 434 L295 434 C300 434 300 435 301 440 L301 443 C300 471 300 498 300 526 C300 538 300 550 299 562 C295 602 274 701 170 701 C53 701 35 589 33 566 C33 560 32 554 32 548 C31 538 31 528 31 519 C31 519 29 451 71 375 L71 375 Z " />
<glyph glyph-name="t" unicode="t" horiz-adv-x="224" d="M194 701 L188 701 L106 701 L30 701 L30 610 L106 610 L106 294 L106 -115 L194 -115 L194 701 L194 701 Z " />
<glyph glyph-name="u" unicode="u" horiz-adv-x="330" d="M165 -26 L163 -26 C150 -25 139 -18 132 -4 L127 6 L122 27 C121 38 121 49 121 60 L121 346 L121 362 L121 384 L121 701 L116 701 L68 701 L30 701 L30 356 L30 85 L30 62 C30 53 31 44 31 35 C33 1 50 -114 165 -114 L165 -26 L165 -26 Z M214 60 L214 45 L299 45 C299 50 300 56 300 61 L300 148 L300 151 L300 174 L300 177 L300 701 L278 701 L275 701 L214 701 L214 111 L214 60 L214 60 Z " />
<glyph glyph-name="v" unicode="v" horiz-adv-x="388" d="M174 271 L161 357 L108 701 L30 701 C50 565 71 430 92 294 C112 158 133 22 154 -114 L155 -114 L233 -114 L174 271 L174 271 Z M296 298 L311 396 L315 419 C318 438 321 456 323 475 L329 512 L334 545 L358 701 L279 701 L217 298 L296 298 L296 298 Z " />
<glyph glyph-name="w" unicode="w" horiz-adv-x="577" d="M468 701 C448 565 427 429 406 293 L383 143 C382 151 381 159 379 167 L376 191 L350 357 L329 499 L253 499 L159 -114 L233 -114 L234 -114 L286 229 L289 245 L343 -114 L344 -114 L422 -114 L423 -114 L475 229 L501 396 L504 419 L513 475 C515 487 517 500 518 512 L524 545 L547 701 L468 701 L468 701 Z M169 306 L161 357 L109 701 L30 701 L90 306 L169 306 L169 306 Z " />
<glyph glyph-name="x" unicode="x" horiz-adv-x="384" d="M86 513 L94 487 L173 487 L108 701 L30 701 L86 513 L86 513 Z M298 74 L290 99 L286 112 C281 130 275 149 269 167 L262 191 L254 220 L231 293 L247 347 L262 396 L267 412 L269 419 C275 438 281 456 286 475 L298 512 L307 545 L354 701 L276 701 L31 -115 L108 -115 L178 116 L187 146 L192 163 L205 119 L216 84 L275 -115 L354 -115 L307 42 L298 74 L298 74 Z " />
<glyph glyph-name="y" unicode="y" horiz-adv-x="385" d="M277 701 L147 272 L147 -114 L238 -114 L238 42 L238 74 L238 112 L238 167 L238 191 L237 312 L248 347 L263 396 L268 412 L270 419 L287 475 L298 512 C301 523 304 534 308 545 L355 701 L277 701 L277 701 Z M87 513 L93 493 L172 493 L109 701 L30 701 L87 513 L87 513 Z " />
<glyph glyph-name="z" unicode="z" horiz-adv-x="340" d="M206 -24 L138 -24 L154 42 L162 74 C165 87 168 99 170 112 L184 167 L189 191 L228 357 L310 701 L288 701 L223 701 L30 -114 L48 -114 L117 -114 L124 -114 L214 -114 L288 -114 L288 -24 L214 -24 L206 -24 L206 -24 Z M121 701 L48 701 L48 610 L121 610 L121 701 L121 701 Z " />
<glyph glyph-name="braceleft" unicode="&#x7b;" horiz-adv-x="244" d="M167 370 L167 382 C167 382 167 382 167 382 C167 430 167 478 167 526 C167 531 167 535 167 540 C168 550 169 560 171 570 C173 578 175 586 180 594 C186 604 195 611 206 612 C209 613 211 613 214 613 L214 701 C98 700 81 589 78 566 C78 560 78 554 77 548 C77 538 77 528 77 518 C77 471 77 423 77 376 C76 364 69 331 30 331 L30 298 L30 271 L30 238 C69 238 76 204 77 193 C77 157 77 121 77 85 C77 77 77 69 77 62 C77 53 77 44 78 35 C80 1 97 -114 211 -114 C212 -114 213 -114 214 -114 L214 -26 C213 -26 211 -26 210 -26 C196 -25 185 -18 178 -4 C176 -1 175 3 174 6 C171 13 170 20 169 27 C167 38 167 49 167 60 C167 102 167 145 167 188 C167 188 167 188 167 188 L167 198 C165 251 140 275 124 284 C140 294 165 318 167 370 L167 370 Z " />
<glyph glyph-name="bar" unicode="&#x7c;" horiz-adv-x="150" d="M120 358 L120 701 L30 701 C30 565 30 430 30 294 C30 158 30 22 30 -114 L120 -114 L120 42 C120 53 120 63 120 74 C120 87 120 99 120 112 C120 130 120 149 120 167 L120 191 L120 358 L120 358 L120 358 Z " />
<glyph glyph-name="braceright" unicode="&#x7d;" horiz-adv-x="244" d="M214 331 C175 331 168 364 167 376 C167 423 167 471 167 518 C167 528 167 538 167 548 C166 554 166 560 165 566 C163 589 146 700 30 701 L30 613 C32 613 35 613 37 612 C49 611 58 604 64 594 C68 586 71 578 73 570 C75 560 76 550 77 540 C77 535 77 531 77 526 C77 478 77 430 77 382 C77 382 77 382 77 382 L77 370 C79 318 104 294 120 284 C104 275 79 251 77 198 L77 188 C77 188 77 188 77 188 C77 145 77 102 77 60 C77 49 77 38 75 27 C74 20 73 13 70 6 C69 3 67 -1 66 -4 C59 -18 48 -25 34 -26 C33 -26 31 -26 30 -26 L30 -114 C31 -114 32 -114 32 -114 C147 -114 164 1 166 35 C167 44 167 53 167 62 C167 69 167 77 167 85 C167 121 167 157 167 193 C168 204 175 238 214 238 L214 298 L214 298 L214 331 L214 331 Z " />
<glyph glyph-name="asciitilde" unicode="&#x7e;" horiz-adv-x="475" d="M30 264 L87 214 C162 345 246 209 318 209 C391 209 445 297 445 297 L388 352 C388 352 365 304 321 294 C277 284 218 355 154 355 C89 355 30 264 30 264 L30 264 Z " />
<glyph glyph-name="quoteleft" unicode="&#x2018;" horiz-adv-x="105" d="M30 583 L75 583 L75 592 C75 593 75 595 75 597 C75 599 75 601 75 603 C75 606 75 609 75 613 L75 616 L75 644 L75 644 L75 701 L30 701 C30 679 30 656 30 634 C30 617 30 600 30 583 L30 583 Z " />
<glyph glyph-name="quoteright" unicode="&#x2019;" horiz-adv-x="105" d="M30 583 L75 583 L75 592 C75 593 75 595 75 597 C75 599 75 601 75 603 C75 606 75 609 75 613 L75 616 L75 644 L75 644 L75 701 L30 701 C30 679 30 656 30 634 C30 617 30 600 30 583 L30 583 Z " />
<glyph glyph-name="quotedblleft" unicode="&#x201c;" horiz-adv-x="163" d="M133 612 L133 616 L133 644 L133 701 L88 701 L88 634 L88 583 L133 583 L133 592 L133 597 L133 603 L133 612 L133 612 Z M75 644 L75 701 L30 701 L30 634 L30 583 L75 583 L75 592 L75 597 L75 603 L75 612 L75 616 L75 644 L75 644 Z " />
<glyph glyph-name="quotedblright" unicode="&#x201d;" horiz-adv-x="163" d="M133 612 L133 616 L133 644 L133 701 L88 701 L88 634 L88 583 L133 583 L133 592 L133 597 L133 603 L133 612 L133 612 Z M75 644 L75 701 L30 701 L30 634 L30 583 L75 583 L75 592 L75 597 L75 603 L75 612 L75 616 L75 644 L75 644 Z " />
</font>
</svg>
