<?xml version="1.0" encoding="UTF-8"?>
<svg xmlns="http://www.w3.org/2000/svg" xmlns:xlink="http://www.w3.org/1999/xlink" version="1.2" >
<font id="Ottodisom">
<font-face  font-family="Ottodisom" units-per-em="1000" ascent="750" descent="-250" font-style="normal" font-weight="400" font-stretch="normal" cap-height="700" x-height="500" underline-position="-75" underline-thickness="50" />
<missing-glyph  horiz-adv-x="144" d="" />
<glyph glyph-name="NULL" d="" />
<glyph glyph-name="nonmarkingreturn" unicode="&#xd;" horiz-adv-x="144" d="" />
<glyph glyph-name="space" unicode="&#x20;" horiz-adv-x="144" d="" />
<glyph glyph-name="E" unicode="E" horiz-adv-x="346" d="M157 -99 Q150 -122 138 -136 Q111 -170 81.5 -195.5 Q52 -221 17 -236 Q-19 -253 -52 -240 Q-89 -224 -92 -168 Q-92 -148 -88.5 -128.5 Q-85 -109 -79 -89 Q-70 -54 -55 -24 Q-40 6 -23 35 Q0 71 24 103 Q48 135 75 166 Q100 195 126 221.5 Q152 248 178 274 Q180 276 181.5 277.5 Q183 279 185 283 Q179 282 173.5 281.5 Q168 281 162 280 Q143 278 124.5 278 Q106 278 89 285 Q69 292 56 312 Q33 344 46 396 Q50 413 56.5 429.5 Q63 446 71 462 Q96 508 125 545 Q164 596 206.5 639.5 Q249 683 296 719 Q307 727 318 733.5 Q329 740 340 744 Q357 751 368 739.5 Q379 728 380 704 Q381 696 379.5 689.5 Q378 683 376 676 Q373 669 370.5 662.5 Q368 656 364 649 Q346 611 327 574.5 Q308 538 290 500 Q277 475 267 451 Q268 449 268 447.5 Q268 446 269 444 Q271 437 267 433 Q263 429 259 431 Q253 433 249.5 442 Q246 451 248 459 Q250 465 252 471 Q254 477 256 482 Q270 511 282.5 539.5 Q295 568 309 597 Q319 620 329 642.5 Q339 665 350 688 Q352 693 353.5 698.5 Q355 704 358 711 Q354 710 351.5 710 Q349 710 346 709 Q332 704 319.5 696.5 Q307 689 294 679 Q245 639 201 591 Q157 543 118 484 Q91 443 77 399 Q68 376 68 351 Q67 347 69 339 Q69 325 80 322 Q85 320 89.5 319 Q94 318 99 317 Q114 316 130 318 Q146 320 162 322 Q175 324 187 325.5 Q199 327 212 329 Q232 331 241 310 Q252 293 238 277 Q233 272 227 266.5 Q221 261 215 256 Q183 227 153 197 Q123 167 94 133 Q68 103 43.5 71 Q19 39 -1 2 Q-15 -22 -27 -48 Q-39 -74 -48 -103 Q-53 -119 -56 -135 Q-59 -151 -59 -168 Q-58 -174 -58 -180 Q-58 -186 -57 -191 Q-50 -224 -22 -221 Q1 -217 24 -202 Q48 -187 70 -168 Q92 -149 113 -128 Q120 -120 127 -113 Q134 -106 141 -98 Q151 -88 157 -99 Z " />
<glyph glyph-name="F" unicode="F" horiz-adv-x="439" d="M386 419 Q388 417 388.5 414 Q389 411 389 409 Q389 405 388 403 Q310 392 250 381.5 Q190 371 144 362 L101 226 Q99 221 98 216.5 Q97 212 95 207 Q91 196 88 184.5 Q85 173 81 162 Q55 74 30.5 -13 Q6 -100 -18 -188 Q-22 -200 -24.5 -213 Q-27 -226 -30 -239 Q-32 -244 -33 -245.5 Q-34 -247 -39 -247 L-51 -244 Q-56 -242 -55 -235 Q-54 -228 -53.5 -221.5 Q-53 -215 -51 -208 Q-42 -170 -33 -132 Q-24 -94 -14 -56 Q0 -1 15 53 Q30 107 45 161 Q48 173 51.5 185 Q55 197 59 209 Q61 214 62.5 219.5 Q64 225 66 230 Q68 235 70 242 Q72 249 75 259 Q77 264 77.5 268 Q78 272 80 276 Q82 281 83.5 287 Q85 293 87 298 Q91 310 95.5 324 Q100 338 105 354 Q62 344 40.5 339 Q19 334 16 333 Q12 332 10 339 Q9 343 9 347 L9 350 Q9 351 10 351 L113 375 Q115 379 116 383.5 Q117 388 119 393 L134 435 Q151 484 169 533.5 Q187 583 202 623 L209 643 Q120 621 74.5 602.5 Q29 584 24 582 Q17 579 14 581.5 Q11 584 10 586 L10 587 L9 588 Q7 592 8 593 Q8 597 12 599 Q21 604 30 607.5 Q39 611 48 615 Q56 619 64 622 Q72 625 80 628 Q96 633 111.5 638 Q127 643 143 648 Q153 651 162 653.5 Q171 656 181 659 Q190 661 199.5 663.5 Q209 666 218 668 Q221 676 223.5 683 Q226 690 228 695 Q230 700 232 705 Q234 710 235.5 715.5 Q237 721 239 726 Q240 728 241 731 Q242 734 243 737 Q244 738 246 738 Q253 738 258 729 Q260 727 258 719 Q256 712 254.5 705.5 Q253 699 251 691 Q250 687 249 683 Q248 679 247 674 Q250 675 258 677 Q260 677 262.5 677.5 Q265 678 267 678 Q273 680 277 680 Q288 682 299.5 684 Q311 686 322 688 Q349 694 378 697 Q386 699 394.5 699.5 Q403 700 411 701 Q472 709 537 712 Q602 715 655 707 Q660 705 661 695 Q527 692 422 679 Q317 666 239 649 L232 628 L174 454 L171 443 L163 420 L158 403 L152 384 Q177 390 206.5 395.5 Q236 401 266 406 Q296 411 326 414.5 Q356 418 383 419 L386 419 L386 419 Z " />
<glyph glyph-name="G" unicode="G" horiz-adv-x="449" d="M338 358 Q338 358 340.5 360.5 Q343 363 348 362 Q353 361 360 354 Q367 347 375 328 Q374 311 371 295.5 Q368 280 364 264 Q359 241 352.5 219 Q346 197 338 175 Q334 164 330 152.5 Q326 141 321 130 Q316 118 310.5 106 Q305 94 299 82 Q295 73 291.5 65 Q288 57 283 49 Q271 27 258.5 6 Q246 -15 233 -35 Q228 -43 223 -50 Q218 -57 213 -65 Q211 -69 211 -71 Q211 -74 207 -76 Q206 -77 205 -77.5 Q204 -78 203 -80 Q195 -88 189 -97 Q183 -106 175 -114 Q166 -124 157 -134 Q148 -144 138 -153 Q129 -162 120 -169.5 Q111 -177 102 -185 Q84 -199 66 -210.5 Q48 -222 29 -230 Q14 -236 -1 -240.5 Q-16 -245 -31 -244 Q-41 -244 -50.5 -242.5 Q-60 -241 -69 -235 Q-76 -231 -82 -226 Q-88 -221 -92 -212 Q-100 -194 -95 -169 Q-92 -155 -86.5 -144 Q-81 -133 -73 -123 Q-57 -102 -35 -89 Q-21 -79 -6 -73 Q9 -67 24 -62 Q47 -55 70.5 -51.5 Q94 -48 117 -46 Q129 -45 141 -45 Q153 -45 165 -45 Q168 -44 171 -45 Q174 -46 177 -46 Q179 -46 181 -44 Q195 -22 208.5 0 Q222 22 235 46 Q247 68 259 94 Q271 118 281.5 142.5 Q292 167 303 193 Q309 210 315 226.5 Q321 243 327 260 Q330 269 332.5 278.5 Q335 288 338 297 L337 298 Q332 289 327 282 Q321 272 314.5 262 Q308 252 302 242 Q288 218 274 199 Q266 186 258 173.5 Q250 161 241 149 Q232 136 222.5 123 Q213 110 203 97 Q194 85 184.5 73.5 Q175 62 165 50 Q156 39 146 29.5 Q136 20 125 12 Q105 -5 83 -9 Q73 -11 63.5 -9 Q54 -7 45 -4 Q11 9 -12 50 Q-23 71 -27 96 Q-34 130 -34 171 Q-33 191 -31 211 Q-29 231 -26 251 Q-21 274 -16 297 Q-11 320 -3 342 Q3 360 9 377.5 Q15 395 23 412 Q30 429 37 444.5 Q44 460 52 476 Q58 487 64 498 Q70 509 76 520 Q87 540 99.5 558.5 Q112 577 125 595 Q137 611 149 626 Q161 641 174 655 Q198 680 223 701 Q245 720 269 732 Q274 734 284.5 737.5 Q295 741 307.5 741 Q320 741 333 736 Q346 731 357 717 Q367 705 373.5 683 Q380 661 379 626 Q380 622 380 618 Q380 614 380 610 Q379 589 377.5 568.5 Q376 548 371 528 Q369 514 366 499.5 Q363 485 359 471 Q356 459 351.5 448.5 Q347 438 342 428 Q337 420 332.5 421 Q328 422 325 427 Q330 438 335 450 Q340 464 344 479 Q348 494 351 509 Q355 527 357.5 545 Q360 563 362 582 Q364 603 364.5 624.5 Q365 646 363 667 Q361 687 355 700 Q351 711 344 715 Q337 719 329 721 Q315 723 302 718.5 Q289 714 275 706 Q266 700 257.5 694 Q249 688 241 680 Q233 672 224.5 664 Q216 656 208 648 Q199 637 190 626 Q181 615 171 604 Q165 596 159.5 588 Q154 580 148 572 Q135 555 124 536 Q113 517 102 497 Q97 487 91.5 477.5 Q86 468 81 457 Q73 441 66 425 Q59 409 51 393 Q44 376 38 359 Q32 342 26 324 Q13 284 4 238 Q1 218 -1.5 198.5 Q-4 179 -5 159 Q-7 109 5 66 Q14 38 30 18 Q37 9 48 9 Q61 8 72.5 12.5 Q84 17 96 25 Q104 30 111 36.5 Q118 43 126 51 Q147 71 168 98 Q176 108 183 117 Q190 126 198 136 Q207 149 216.5 162 Q226 175 235 188 Q243 199 250 211 Q257 223 265 235 Q272 246 278.5 256 Q285 266 291 277 L315 319 Q320 329 326 338.5 Q332 348 338 358 Z M141 -97 Q148 -89 154 -80.5 Q160 -72 167 -64 Q167 -64 166 -63 Q161 -64 155 -64 Q149 -64 144 -65 Q119 -68 94.5 -72.5 Q70 -77 45 -86 Q32 -91 19.5 -96.5 Q7 -102 -6 -110 Q-18 -118 -29 -127 Q-40 -136 -49 -149 Q-61 -166 -66 -183 Q-68 -192 -68 -200 Q-68 -208 -66 -216 Q-64 -221 -62.5 -224.5 Q-61 -228 -57 -228 Q-50 -229 -43 -228 Q-32 -226 -22 -223 Q-12 -220 -1 -215 Q17 -206 34.5 -195 Q52 -184 69 -169 Q88 -153 106 -135 Q124 -117 141 -97 Z " />
<glyph glyph-name="H" unicode="H" horiz-adv-x="362" d="M244 310 Q249 309 253 309 Q257 309 261 309 Q268 307 274.5 306.5 Q281 306 288 304 Q300 303 303 289 Q304 287 304.5 286.5 Q305 286 306 284 Q306 280 305 280 Q302 277 301 279 Q299 280 297.5 281.5 Q296 283 294 285 Q292 287 290 288 Q282 289 273.5 289 Q265 289 257 290 Q253 291 249.5 290.5 Q246 290 241 290 Q239 291 237 288 Q235 281 233.5 275 Q232 269 230 263 Q224 243 218.5 224 Q213 205 207 185 Q193 143 182.5 101.5 Q172 60 161 17 Q151 -21 142 -60 Q133 -99 124 -138 Q119 -158 116 -177 Q113 -196 109 -216 Q108 -220 108 -224 Q108 -228 107 -232 Q107 -237 110 -240 Q114 -242 108 -244 Q95 -246 88 -241 Q84 -239 84 -236 Q82 -230 83 -225 Q85 -211 86 -198 Q87 -185 90 -172 Q98 -131 106 -91.5 Q114 -52 123 -12 Q134 39 146.5 88 Q159 137 171 187 Q174 199 177.5 211 Q181 223 184 235 Q188 249 191.5 261.5 Q195 274 199 288 L199 289 L196 289 Q168 288 140.5 286 Q113 284 85 281 Q79 279 75 279 Q72 279 72 275 Q64 251 57 227 Q50 203 43 179 Q26 116 9 55 Q-8 -6 -25 -69 Q-27 -74 -27.5 -79 Q-28 -84 -30 -89 Q-30 -92 -32 -92 Q-37 -92 -41 -92 Q-45 -92 -50 -90 Q-56 -87 -55 -80 Q-53 -72 -52 -65 Q-51 -58 -49 -50 L26 238 Q28 246 30.5 255 Q33 264 36 273 L32 273 Q12 269 -6.5 266 Q-25 263 -45 259 Q-57 256 -69.5 252.5 Q-82 249 -94 245 Q-99 243 -104.5 241.5 Q-110 240 -115 238 Q-118 236 -120.5 234.5 Q-123 233 -126 231 Q-129 231 -129 231 Q-133 234 -136.5 237 Q-140 240 -142 245 Q-143 249 -140 250 Q-132 253 -125 256.5 Q-118 260 -110 263 Q-102 266 -93 269 Q-84 272 -76 274 Q-58 279 -39.5 283.5 Q-21 288 -3 292 Q8 294 17.5 295.5 Q27 297 38 299 Q43 299 45 305 L66 374 Q71 391 76.5 408.5 Q82 426 88 443 Q95 466 102 488 Q109 510 117 532 Q121 542 124 551.5 Q127 561 131 571 L152 625 L176 682 Q180 690 183.5 697.5 Q187 705 190 713 Q191 717 194 714 Q198 712 200 709 Q202 706 205 704 Q208 701 207 697 Q203 686 199.5 674 Q196 662 191 651 Q183 628 176 606 Q169 584 161 562 Q158 552 155 542.5 Q152 533 149 522 Q144 507 139 491.5 Q134 476 129 460 Q122 437 115.5 415.5 Q109 394 102 371 Q98 360 94.5 348.5 Q91 337 88 325 Q84 315 81 304 L85 304 Q114 306 144 307 Q174 308 203 310 Q207 310 208 313 Q216 335 223 356.5 Q230 378 238 400 Q245 420 252.5 438.5 Q260 457 268 477 Q275 495 282 513.5 Q289 532 297 550 Q305 569 313.5 588 Q322 607 331 626 Q339 646 347 660 Q354 675 361 690.5 Q368 706 375 721 Q378 726 380.5 731.5 Q383 737 386 742 Q386 743 387 744 Q390 740 393 737 Q396 734 398 730 Q399 727 397 720 Q392 709 388 698 Q384 687 379 676 Q376 668 373 661.5 Q370 655 367 647 Q358 625 349 603.5 Q340 582 332 560 Q323 537 315 514.5 Q307 492 299 469 Q294 457 290 445 Q286 433 281 420 Q272 393 262.5 365.5 Q253 338 244 310 Z " />
<glyph glyph-name="I" unicode="I" horiz-adv-x="217" d="M415 686 Q417 682 415 680 Q413 678 409 680 Q407 682 403 688 Q401 692 398 692 Q386 694 373.5 695.5 Q361 697 348 698 Q317 700 287 700 Q257 700 226 699 Q222 699 221 695 Q217 681 213 667.5 Q209 654 204 640 L192 601 Q187 584 182 568 Q177 552 172 535 Q168 524 165 513 Q162 502 158 491 Q152 472 146.5 453.5 Q141 435 135 416 Q131 403 127.5 390.5 Q124 378 119 366 Q115 353 111.5 340 Q108 327 104 314 Q99 301 95.5 289 Q92 277 88 264 Q57 164 29.5 64 Q2 -36 -27 -137 Q-30 -148 -33 -157.5 Q-36 -167 -39 -178 Q-8 -177 22.5 -178 Q53 -179 85 -183 Q93 -184 102 -186 Q111 -188 119 -190 Q130 -194 135 -208 Q136 -210 137 -211 Q138 -212 138 -214 Q140 -218 138 -220 Q136 -222 132 -220 Q130 -219 126 -213 Q125 -209 121 -208 Q109 -207 96.5 -205.5 Q84 -204 71 -203 Q61 -202 52 -201.5 Q43 -201 33 -201 Q-9 -198 -52 -201 Q-95 -204 -131 -208.5 Q-167 -213 -192.5 -218 Q-218 -223 -225 -224 Q-225 -224 -226 -225 L-227 -225 Q-234 -227 -240.5 -228.5 Q-247 -230 -254 -232 Q-253 -232 -257 -234 Q-265 -227 -267 -219 Q-269 -215 -267 -214 Q-265 -213 -263 -212 Q-257 -210 -251 -208 Q-245 -206 -239 -204 Q-238 -203 -236 -203 Q-228 -201 -219.5 -198.5 Q-211 -196 -202 -194 Q-191 -192 -179.5 -190 Q-168 -188 -157 -186 Q-137 -182 -116 -180.5 Q-95 -179 -75 -178 Q-70 -178 -69 -175 L-69 -173 Q-57 -128 -45.5 -84 Q-34 -40 -22 5 Q-4 71 14.5 137 Q33 203 52 270 Q56 284 60 297 Q64 310 68 324 Q72 338 76 350.5 Q80 363 84 376 L102 430 Q106 443 110 455.5 Q114 468 119 481 Q125 499 131 517.5 Q137 536 143 554 Q148 569 153.5 583.5 Q159 598 165 613 Q170 626 174.5 638.5 Q179 651 184 664 Q190 679 196 697 Q191 696 186.5 696 Q182 696 177 695 Q169 694 160.5 693 Q152 692 144 691 Q133 689 122.5 687.5 Q112 686 101 684 Q90 682 78 680 Q66 678 55 676 Q47 674 39 672 Q31 670 23 668 Q24 668 20 666 Q17 669 14.5 672.5 Q12 676 10 681 Q8 685 10 686 Q12 687 14 688 Q20 691 26 693 Q32 695 38 697 Q39 698 41 698 Q49 700 57.5 703 Q66 706 75 708 L120 717 Q140 720 161 721.5 Q182 723 203 724 Q207 724 208 728 Q208 730 209 730 Q210 730 211 728 Q213 725 218 725 Q254 725 290 724.5 Q326 724 362 719 Q370 718 379 715.5 Q388 713 396 711 Q402 709 406 704 Q410 699 412 693 Q413 691 414 689.5 Q415 688 415 686 Z " />
<glyph glyph-name="J" unicode="J" horiz-adv-x="480" d="M255 66 Q260 74 263.5 82.5 Q267 91 272 99 Q298 154 320.5 210.5 Q343 267 360 328 Q382 401 395 473 Q399 497 401.5 521 Q404 545 404 569 Q404 598 399 624.5 Q394 651 380 672 Q363 697 336 706 Q313 714 290.5 711 Q268 708 245 697 Q189 669 141 607 Q123 584 108 559 Q93 534 82 505 Q77 492 72 476 Q71 473 71 465 Q71 460 68 462 Q64 464 63 467 Q60 475 60.5 484 Q61 493 63 502 Q68 522 75.5 540 Q83 558 92 575 Q124 634 164.5 673 Q205 712 253 729 Q328 758 383 694 Q421 647 429 568 Q431 542 430.5 516.5 Q430 491 427 465 Q419 397 400.5 334 Q382 271 359 210 Q328 133 292 64 Q256 -5 211 -67 Q181 -109 148.5 -144 Q116 -179 79 -206 Q61 -219 42.5 -229 Q24 -239 4 -244 Q-26 -252 -51 -241 Q-72 -232 -83.5 -210 Q-95 -188 -98 -156 Q-101 -130 -96.5 -104 Q-92 -78 -84 -53 Q-70 -11 -50 21 Q-30 53 -4 79 Q50 136 115 144 Q174 150 219 104 Q228 95 237 85.5 Q246 76 255 66 Z M249 52 Q238 64 227.5 74.5 Q217 85 206 93 Q184 107 161.5 112.5 Q139 118 114 111 Q28 90 -34 -9 Q-49 -33 -59.5 -59.5 Q-70 -86 -75 -118 Q-77 -138 -76 -155.5 Q-75 -173 -69 -190 Q-60 -219 -39 -225 Q-28 -228 -16 -226.5 Q-4 -225 8 -220 Q30 -211 50 -196.5 Q70 -182 90 -164 Q128 -129 162 -85 Q196 -41 225 10 L249 52 Z " />
<glyph glyph-name="K" unicode="K" horiz-adv-x="352" d="M459 660 Q460 655 458 653 Q447 645 439 637 Q401 599 365 559 Q329 519 294 477 Q242 417 191.5 356 Q141 295 91 232 Q68 203 45.5 173.5 Q23 144 0 115 Q0 114 -0.5 114 Q-1 114 -1 113 Q35 80 69 49 Q98 23 130 -6 Q162 -35 185 -55 Q206 -73 226.5 -90.5 Q247 -108 267 -125 Q295 -149 322.5 -173 Q350 -197 377 -221 Q381 -225 382 -227 Q386 -231 384 -238 Q381 -245 376 -246 Q375 -246 374 -245 Q363 -237 353.5 -229 Q344 -221 334 -213 L-21 96 L-22 93 L-25 83 L-45 18 Q-54 -14 -63.5 -44.5 Q-73 -75 -82 -107 Q-89 -130 -95.5 -151.5 Q-102 -173 -109 -196 Q-111 -204 -113 -208 Q-119 -218 -129 -214 Q-137 -210 -134 -199 Q-133 -193 -132.5 -186.5 Q-132 -180 -130 -174 Q-118 -131 -106.5 -88.5 Q-95 -46 -83 -3 Q-60 78 -36.5 158.5 Q-13 239 10 320 Q39 420 72 515.5 Q105 611 143 705 Q146 713 149.5 720 Q153 727 156 735 Q160 744 167 740 Q173 737 178 730 Q183 723 180 714 Q176 702 172.5 690 Q169 678 165 667 Q136 582 108 497.5 Q80 413 51 327 Q42 299 33 271.5 Q24 244 16 216 L2 170 Q3 171 3 172 Q38 220 74 264.5 Q110 309 148 353 Q199 412 249.5 469 Q300 526 352 583 Q370 603 388.5 621.5 Q407 640 425 659 Q429 662 432.5 665 Q436 668 440 670 Q445 673 451 670 Q457 667 459 660 Z " />
<glyph glyph-name="L" unicode="L" horiz-adv-x="280" d="M51 -87 Q60 -88 68.5 -89 Q77 -90 85 -91 L166 -100 Q192 -103 219 -106 Q246 -109 272 -111 Q291 -113 309 -114 Q327 -115 346 -117 Q372 -119 397 -120.5 Q422 -122 448 -120 Q464 -119 482 -109 Q491 -103 500 -112 Q506 -117 501 -124 Q488 -140 468 -143 Q453 -144 438.5 -145 Q424 -146 409 -145 Q377 -143 346 -141 Q315 -139 283 -137 Q260 -135 236 -132.5 Q212 -130 189 -128 Q157 -124 124.5 -121 Q92 -118 59 -115 Q56 -114 52.5 -114 Q49 -114 45 -113 Q42 -112 39 -118 Q31 -134 24 -150 Q17 -166 9 -181 Q-1 -198 -12.5 -212.5 Q-24 -227 -38 -238 Q-47 -244 -56.5 -248 Q-66 -252 -77 -252 Q-97 -252 -113.5 -242 Q-130 -232 -142.5 -216 Q-155 -200 -162.5 -179 Q-170 -158 -170 -136 Q-171 -96 -142 -82 Q-123 -74 -97 -74 Q-73 -73 -49 -75 Q-25 -77 -1 -80 Q5 -81 6.5 -80 Q8 -79 10 -73 Q33 -7 53.5 60.5 Q74 128 94 196 Q119 277 143.5 356.5 Q168 436 194 517 Q207 559 220.5 600.5 Q234 642 247 684 Q251 695 253.5 706 Q256 717 259 728 Q259 731 259.5 734 Q260 737 260 740 Q261 746 265 744 Q272 742 276 735.5 Q280 729 279 720 Q278 709 278 699.5 Q278 690 276 680 Q269 638 258.5 598.5 Q248 559 237 520 Q201 392 163.5 267.5 Q126 143 87 18 Q79 -8 70 -33 Q61 -58 52 -83 Q52 -85 51 -87 Z M-3 -109 Q-4 -108 -6 -108 Q-26 -106 -46 -105 Q-66 -104 -86 -103 Q-95 -102 -104.5 -103 Q-114 -104 -122 -109 Q-140 -118 -142 -146 Q-142 -176 -126 -202 Q-112 -222 -95 -229 Q-75 -235 -59 -217 Q-47 -204 -38 -187 Q-27 -170 -19.5 -150.5 Q-12 -131 -4 -111 Q-3 -110 -3 -109 Z " />
<glyph glyph-name="M" unicode="M" horiz-adv-x="557" d="M262 520 Q259 515 255.5 510.5 Q252 506 249 501 Q232 477 217 452.5 Q202 428 188 402 Q159 354 134 303 Q115 268 98 232.5 Q81 197 64 160 Q52 132 40 104 Q28 76 17 47 Q4 12 -7.5 -23.5 Q-19 -59 -30 -95 Q-32 -103 -38 -103 Q-43 -104 -52 -102 Q-58 -99 -57 -89 Q-55 -79 -53 -69 Q-51 -59 -49 -49 Q-41 -14 -34 20 Q-27 54 -19 89 Q-5 150 12 209 Q29 268 47 327 Q65 387 85 445 Q105 503 126 562 Q138 595 150 628 Q162 661 174 695 Q178 706 180.5 716 Q183 726 186 737 Q187 741 191 741 Q196 741 199 736 Q202 731 202 724 Q202 713 199.5 703 Q197 693 194 683 Q185 655 176.5 627.5 Q168 600 158 573 Q118 455 83 337 Q48 219 18 98 L18 93 Q20 99 23 105 Q26 111 28 117 Q33 129 38 141.5 Q43 154 49 166 Q61 194 73.5 221.5 Q86 249 99 276 Q127 334 156.5 389.5 Q186 445 219 499 Q230 516 241.5 532.5 Q253 549 264 566 Q266 569 269 572 Q272 575 274 578 Q280 584 287 580 Q295 576 299.5 568 Q304 560 302 546 Q300 534 297.5 521.5 Q295 509 291 497 Q279 455 266.5 414 Q254 373 242 331 Q226 278 212 225.5 Q198 173 186 119 Q185 118 185 115 Q187 117 189 123 Q204 155 218.5 187.5 Q233 220 247 252 Q276 314 308.5 372 Q341 430 377 486 Q399 521 421.5 554.5 Q444 588 468 621 Q482 641 497 661 Q512 681 528 699 Q532 704 536 707.5 Q540 711 544 715 Q553 722 562 713 Q576 699 571 672 Q567 652 562 633.5 Q557 615 551 596 Q528 521 504.5 447 Q481 373 458 298 Q435 226 414 154 Q393 82 372 10 Q358 -41 344 -90.5 Q330 -140 316 -191 Q313 -202 310.5 -214 Q308 -226 305 -237 Q302 -242 299 -244 Q291 -248 282 -243 Q273 -239 276 -228 Q278 -218 279.5 -208.5 Q281 -199 283 -189 Q299 -124 316.5 -60.5 Q334 3 352 67 Q372 137 391.5 207 Q411 277 432 347 Q456 429 483 510 Q510 591 540 671 Q541 673 541 674 Q541 675 542 677 L532 667 Q520 653 508 639 Q496 625 485 610 Q469 588 453.5 566.5 Q438 545 423 522 Q403 493 384 462 Q365 431 347 399 Q324 360 303 319.5 Q282 279 263 237 Q250 210 238.5 182 Q227 154 215 126 Q207 108 199.5 90 Q192 72 184 55 Q182 50 176 42 Q170 36 166 35 Q154 32 145 39 Q138 45 139 54 Q140 78 145 102 Q158 174 177.5 244.5 Q197 315 219 384 Q229 417 240 449.5 Q251 482 262 514 Q262 516 262.5 517 Q263 518 263 519 Q263 520 262 520 Z " />
<glyph glyph-name="N" unicode="N" horiz-adv-x="359" d="M6 116 Q17 140 24 159 Q55 233 88.5 304.5 Q122 376 160 447 Q191 504 225 557.5 Q259 611 298 662 Q309 676 320 690 Q331 704 344 716 Q349 721 355 725.5 Q361 730 366 733 Q378 741 392.5 734.5 Q407 728 406 709 Q405 687 395 661 Q385 633 375 605.5 Q365 578 354 551 Q319 458 288.5 366.5 Q258 275 230 181 Q219 144 208 107 Q197 70 188 32 Q175 -19 163 -69.5 Q151 -120 141 -171 Q138 -183 136 -195.5 Q134 -208 132 -220 Q132 -222 132.5 -223 Q133 -224 133 -225 Q138 -232 130 -238 Q121 -247 111 -245 Q106 -245 106 -237 Q105 -226 106 -215 Q107 -204 109 -192 Q116 -146 125 -100 Q134 -54 144 -6 L174 132 Q183 171 194 210.5 Q205 250 217 290 Q243 381 275.5 470 Q308 559 346 649 Q351 661 356 673 Q361 685 366 697 Q366 699 366.5 699.5 Q367 700 367 702 L367 703 Q362 698 358 694 Q354 690 349 686 Q333 669 319 651.5 Q305 634 292 616 Q257 566 225.5 515 Q194 464 165 410 Q129 343 98 275.5 Q67 208 39 139 L-12 7 Q-14 2 -16.5 -3.5 Q-19 -9 -21 -14 Q-24 -24 -33 -28 Q-41 -33 -52 -33 Q-63 -32 -62 -18 Q-61 1 -56 21 Q-25 178 22.5 332 Q70 486 133 641 Q141 661 150 682 Q159 703 167 724 Q168 726 169 727.5 Q170 729 171 731 Q176 741 184 741 Q196 741 194 731 Q194 721 191.5 711.5 Q189 702 185 692 Q174 658 162 624.5 Q150 591 139 557 Q107 464 78.5 372 Q50 280 25 187 Q20 170 15.5 152 Q11 134 6 117 L6 116 Z " />
<glyph glyph-name="O" unicode="O" horiz-adv-x="495" d="M-44 -62 Q-59 -50 -64 -24.5 Q-69 1 -67 24 Q-63 85 -51 138.5 Q-39 192 -25 239 Q-8 287 5 320 Q18 353 30 380.5 Q42 408 55 433 Q68 458 85 490 Q111 541 142 585 Q173 629 210 667 Q252 711 310 731 Q343 740 372.5 733 Q402 726 427 698 Q441 681 450 658 Q459 635 461 609 Q468 567 465 525.5 Q462 484 454 442 Q441 380 422.5 322.5 Q404 265 382 210 Q347 122 305.5 42 Q264 -38 211 -109 Q192 -133 174 -155.5 Q156 -178 133 -196 Q119 -208 103.5 -218 Q88 -228 73 -233 Q41 -244 14.5 -230 Q-12 -216 -26 -183 Q-42 -145 -42 -105 Q-43 -95 -43.5 -84 Q-44 -73 -44 -62 Z M208 486 Q206 484 204 483.5 Q202 483 200 481 Q195 476 188.5 471.5 Q182 467 176 462 Q144 426 119 384 Q30 228 0 44 Q-8 2 -11 -41 Q-14 -84 -8 -128 Q-7 -148 -2 -165.5 Q3 -183 11 -197 Q18 -207 27.5 -211 Q37 -215 48 -210 Q66 -202 80 -192 Q98 -180 114 -164 Q130 -148 146 -129 Q173 -92 200 -52 Q227 -12 250 30 Q296 111 334.5 194.5 Q373 278 399 372 Q413 422 423.5 472 Q434 522 436 575 Q435 597 433.5 618 Q432 639 425 658 Q418 678 406 688.5 Q394 699 379 701 Q368 703 357.5 702 Q347 701 335 699 Q308 691 283.5 675 Q259 659 237 637 Q158 553 103 451 Q68 380 37 308 Q6 236 -20 160 Q-30 131 -38 102 Q-46 73 -51 41 Q-57 10 -51 -24 Q-49 -27 -48 -31 Q-47 -35 -45 -37 Q-43 -19 -41.5 -2 Q-40 15 -36 31 Q-21 131 10.5 219.5 Q42 308 90 390 Q106 415 121.5 438 Q137 461 159 478 Q166 485 173.5 491 Q181 497 189 502 Q197 506 205.5 503 Q214 500 217 492 Q225 482 223 467 Q217 468 215 470 Q213 472 208 486 Z " />
<glyph glyph-name="P" unicode="P" horiz-adv-x="546" d="M511 727 Q549 710 565 682 Q581 654 576 621 Q572 591 560 563 Q548 535 531 508.5 Q514 482 494 457 Q474 432 453 410 Q416 368 374 330 Q332 292 286 257 Q262 237 229.5 217 Q197 197 168 184 Q167 183 157 154 Q147 125 133 81.5 Q119 38 103 -13 Q87 -64 73 -109.5 Q59 -155 49 -188 Q39 -221 37 -227 Q36 -231 32 -239 Q29 -247 22 -243 Q19 -241 17 -239 Q15 -237 15 -232 Q20 -200 27.5 -170 Q35 -140 43 -108 Q60 -40 81 27.5 Q102 95 128 162 Q129 165 131 173 Q121 171 114 171 Q86 169 68 185 Q50 201 48 230 Q47 244 49.5 257.5 Q52 271 55 284 Q62 307 72.5 328.5 Q83 350 96 370 Q142 446 201 517 Q218 537 238.5 558 Q259 579 279 597 Q282 600 289 601.5 Q296 603 301 598 Q306 593 306 579.5 Q306 566 294 539 Q285 518 273.5 485.5 Q262 453 249 417 Q236 381 223.5 344.5 Q211 308 201 279 Q191 250 185 232 Q179 214 180 215 Q194 224 208 232.5 Q222 241 234 252 Q282 289 325.5 328 Q369 367 410 410 Q435 437 458 466.5 Q481 496 500 528 Q513 548 522.5 568.5 Q532 589 538 613 Q542 635 539 656 Q536 677 514 690 Q487 705 454.5 709.5 Q422 714 388 710 Q354 706 320.5 697 Q287 688 259 676 Q206 653 163 619.5 Q120 586 84 543 Q43 495 15 437 Q13 432 10.5 427 Q8 422 6 417 Q4 409 4 402.5 Q4 396 10 390 Q11 390 11 387 Q9 387 7 386.5 Q5 386 4 387 Q-7 395 -10 410 Q-12 430 -2 450 Q8 470 19 490 Q44 535 80 577 Q116 619 160.5 652.5 Q205 686 256 708.5 Q307 731 362 737 Q392 741 432.5 740.5 Q473 740 511 727 Z M142 210 Q170 282 197.5 353 Q225 424 254 495 Q260 512 267 529 Q274 546 281 563 Q279 561 275.5 557 Q272 553 267 547 Q255 533 245.5 524 Q236 515 225 501 Q192 463 162 422 Q132 381 106 337 Q95 318 85.5 298.5 Q76 279 69 257 Q62 237 64 219 Q65 193 92 193 Q101 192 109.5 193.5 Q118 195 128 196 Q136 198 142 210 Z " />
<glyph glyph-name="Q" unicode="Q" horiz-adv-x="517" d="M492 677 Q501 653 502.5 628.5 Q504 604 502 580 Q497 525 487.5 479.5 Q478 434 462 381 Q429 269 381 156 Q333 43 273 -62 Q233 -131 175 -197 Q189 -207 203 -213.5 Q217 -220 235 -223 Q254 -225 270 -219.5 Q286 -214 300 -203 Q311 -191 320 -180 Q329 -169 334 -156 Q336 -154 338 -151 Q340 -148 341 -146 Q343 -141 352 -143 Q354 -143 356.5 -145.5 Q359 -148 359 -150 Q357 -162 348 -175 Q339 -188 326 -200 Q313 -212 298 -220.5 Q283 -229 270 -232 Q228 -238 190 -224 Q180 -220 173.5 -216 Q167 -212 159 -210 Q152 -212 149 -215 Q146 -218 142 -220 Q127 -231 109 -235 Q91 -239 74.5 -237 Q58 -235 43.5 -227.5 Q29 -220 20 -206 Q14 -193 9 -181 Q4 -169 -1 -156 Q-6 -127 -7.5 -98.5 Q-9 -70 -10 -42 Q-11 -31 -10 -23 Q-9 -15 -10 -4 Q-10 -1 -10 2.5 Q-10 6 -9 8 Q-23 61 -22.5 114 Q-22 167 -12 220 Q6 304 36.5 381.5 Q67 459 113 535 Q131 562 156 591 Q181 620 211 647 Q241 674 275 696 Q309 718 344 732 Q366 739 389 741 Q412 743 432.5 737 Q453 731 468.5 716.5 Q484 702 492 677 Z M97 -211 Q102 -209 111 -202.5 Q120 -196 128 -189 Q75 -146 40 -94 Q38 -106 40 -121 Q42 -136 46 -151 Q50 -166 56 -179.5 Q62 -193 68 -202 Q70 -204 71 -206.5 Q72 -209 73 -211 Q81 -216 85 -216.5 Q89 -217 97 -211 Z M438 434 Q445 459 453.5 494.5 Q462 530 466.5 567 Q471 604 468 638.5 Q465 673 449 697 Q444 707 431 712.5 Q418 718 401.5 719.5 Q385 721 369 719 Q353 717 344 712 Q288 683 246.5 638 Q205 593 171 544 Q135 493 109 440.5 Q83 388 65 333 Q61 325 59.5 316 Q58 307 56 298 L57 298 Q60 307 62.5 314.5 Q65 322 69 332 Q83 370 103 408 Q123 446 147 482 Q157 497 172 512 Q187 527 201 541 Q213 549 225 554 Q237 559 251 559 Q274 560 289 549 Q304 538 306 520 Q307 502 299.5 486 Q292 470 286 454 Q281 458 280 459 Q279 460 279 465 Q283 473 284 480.5 Q285 488 285 496 Q284 504 284 512.5 Q284 521 283 527 Q278 536 273.5 539 Q269 542 258 537 Q241 534 232 523 Q219 515 209.5 504.5 Q200 494 191 486 Q165 454 148.5 419 Q132 384 119 349 Q83 258 62.5 168.5 Q42 79 38 -14 Q36 -20 37 -25.5 Q38 -31 38 -37 Q56 -74 81 -106 Q106 -138 135 -166 Q136 -171 139 -171.5 Q142 -172 144 -173 Q161 -156 175.5 -137.5 Q190 -119 201 -96 Q281 30 341.5 162.5 Q402 295 438 434 Z " />
<glyph glyph-name="R" unicode="R" horiz-adv-x="492" d="M496 679 Q503 662 504.5 647 Q506 632 502 615 Q497 560 476 518 Q455 476 427 434 Q402 395 380 365.5 Q358 336 336 311 Q314 286 291 264 Q268 242 241 217 Q231 206 220.5 196.5 Q210 187 200 178 Q191 174 194 166 Q196 158 199.5 151 Q203 144 208 133 Q218 119 236.5 106 Q255 93 275 87 Q312 75 342 102 Q349 108 352.5 107.5 Q356 107 361 102 Q367 95 363 88 Q349 61 319 58 Q309 56 293 57 Q277 58 271 60 Q245 67 224.5 79 Q204 91 187 114 Q183 120 181 123 Q179 126 174 134 Q145 45 114.5 -45.5 Q84 -136 51 -232 Q49 -235 46.5 -236 Q44 -237 42 -239 Q40 -241 35 -241 Q30 -241 28 -241 Q23 -241 19.5 -234 Q16 -227 18 -221 Q47 -133 76 -50 Q105 33 135 125 Q136 129 135 133 Q130 131 126.5 129 Q123 127 119 125 Q111 123 105.5 121.5 Q100 120 93 119 Q71 114 55 128 Q39 142 40 169 Q38 180 40.5 190.5 Q43 201 46 212 Q59 271 87 327 Q115 384 149.5 433.5 Q184 483 225 527 Q230 534 236.5 540 Q243 546 250 551 Q262 560 274.5 558 Q287 556 290 541 Q292 525 285.5 502 Q279 479 274 462 Q267 439 262 421 Q257 403 251.5 385.5 Q246 368 240.5 349.5 Q235 331 227 308 Q227 306 223.5 292.5 Q220 279 215 263 L203 221 Q221 241 240.5 259 Q260 277 279 295 Q311 332 342 368.5 Q373 405 402 446 Q419 471 434.5 497 Q450 523 462 551 Q477 582 481 617 Q485 630 482 644 Q481 662 474.5 675 Q468 688 454 696 Q441 703 428.5 705.5 Q416 708 402 708 Q356 708 319 691 Q250 668 188 631.5 Q126 595 69 550 Q56 539 45 527.5 Q34 516 21 505 Q19 502 16 498.5 Q13 495 11 491 Q16 483 14 481 Q12 479 8 482 Q4 485 1 491 Q-2 497 0 505 Q6 523 20.5 541 Q35 559 53.5 576 Q72 593 92.5 608 Q113 623 131 634 Q192 675 259 706 Q281 715 306.5 724.5 Q332 734 354 737 Q372 740 389.5 740.5 Q407 741 421 736 Q447 730 466 717.5 Q485 705 496 679 Z M150 183 Q173 244 193.5 304.5 Q214 365 232 426 Q241 448 246.5 468 Q252 488 262 510 Q264 517 264 522 Q264 527 266 532 Q264 532 260 529 Q256 526 254 523 Q249 518 245.5 514 Q242 510 237 505 Q205 468 178.5 430 Q152 392 130 348 Q113 319 99 288.5 Q85 258 75 226 Q70 211 66.5 196 Q63 181 64 165 Q63 160 62.5 155.5 Q62 151 64 146 Q64 139 70 139 Q75 140 79 140.5 Q83 141 86 142 Q103 147 117.5 155 Q132 163 146 174 Q150 178 150 183 Z " />
<glyph glyph-name="S" unicode="S" horiz-adv-x="403" d="M339 732 Q374 731 398 702 Q422 673 421 630 Q418 597 412 569 Q395 494 369.5 425 Q344 356 306 293 Q300 283 294 273.5 Q288 264 280 254 Q276 244 266 231 Q258 236 257 240 Q256 244 260 252 Q263 260 266.5 267.5 Q270 275 273 283 Q299 330 320.5 378.5 Q342 427 359 481 Q368 513 376.5 545.5 Q385 578 390 612 Q393 637 393 663 Q392 695 365 702 Q348 707 331.5 704.5 Q315 702 300 696 Q254 681 217.5 651.5 Q181 622 149 583 Q112 537 87 474 Q84 469 77.5 446.5 Q71 424 69 393 Q67 362 74 325.5 Q81 289 105 255 Q113 247 118.5 239.5 Q124 232 130 224 Q142 207 155 190 Q168 173 180 155 Q188 142 196.5 127.5 Q205 113 210 99 Q214 91 216 82.5 Q218 74 221 66 L220 65 Q220 62 221 60 Q223 43 222 27 Q221 11 219 -3 Q216 -19 212 -33 Q205 -50 194 -71 Q183 -92 165.5 -114 Q148 -136 124 -157.5 Q100 -179 67 -195 Q31 -213 5 -214.5 Q-21 -216 -39 -208.5 Q-57 -201 -67.5 -189 Q-78 -177 -83 -168 Q-85 -163 -87.5 -157.5 Q-90 -152 -91 -146 Q-98 -124 -97 -103 Q-96 -82 -90 -61 Q-83 -33 -70.5 -9.5 Q-58 14 -43 36 Q-38 43 -32.5 49.5 Q-27 56 -22 62 Q-13 73 -4 61 Q3 54 -2 48 Q-7 40 -10 33 Q-13 26 -18 18 Q-29 -4 -39.5 -26 Q-50 -48 -55 -74 Q-66 -113 -56 -149 Q-56 -154 -53.5 -159.5 Q-51 -165 -47 -170 Q-37 -184 -23.5 -186.5 Q-10 -189 3.5 -185.5 Q17 -182 27 -176.5 Q37 -171 39 -169 Q75 -145 104.5 -113.5 Q134 -82 159 -44 Q170 -24 177 -4 Q203 64 168 130 Q160 145 150.5 158.5 Q141 172 133 185 Q122 199 111.5 212 Q101 225 90 239 Q81 251 73 264 Q65 277 57 291 Q21 361 35 440 Q42 478 56.5 510.5 Q71 543 90 572 Q127 626 172.5 662.5 Q218 699 274 721 Q305 734 339 732 Z " />
<glyph glyph-name="T" unicode="T" horiz-adv-x="281" d="M621 743 Q628 742 629 734.5 Q630 727 627 720 Q621 711 605.5 709 Q590 707 579 707 Q547 706 530.5 705.5 Q514 705 501.5 705 Q489 705 474 705 Q459 705 431 705 Q391 705 369 704.5 Q347 704 331.5 703.5 Q316 703 302.5 703 Q289 703 265 704 Q261 693 256.5 677.5 Q252 662 248 651 Q212 537 181 438.5 Q150 340 120 244.5 Q90 149 59.5 49 Q29 -51 -7 -168 Q-12 -183 -15 -193 Q-18 -203 -20 -210.5 Q-22 -218 -24.5 -224.5 Q-27 -231 -30 -240 Q-39 -243 -42.5 -240.5 Q-46 -238 -47.5 -233.5 Q-49 -229 -48 -224 Q-47 -219 -47 -218 Q-45 -206 -43 -196 Q-41 -186 -37 -177 Q-12 -89 8 -19.5 Q28 50 45.5 110.5 Q63 171 80 227.5 Q97 284 115.5 346.5 Q134 409 156.5 482 Q179 555 208 650 Q210 657 216 674 Q222 691 229 705 Q182 704 133 703.5 Q84 703 37 696 Q23 694 14 689 Q5 684 -8 678 Q-11 677 -15 672.5 Q-19 668 -23 663 Q-27 658 -30.5 653.5 Q-34 649 -36 647 Q-35 640 -35 635.5 Q-35 631 -33 626 Q-47 631 -49.5 648 Q-52 665 -43 678 Q-38 684 -31 693.5 Q-24 703 -18 708 Q-4 717 8 721 Q20 725 34 728 Q59 733 95.5 735 Q132 737 173.5 738 Q215 739 259 739.5 Q303 740 343 742 Q386 744 435.5 742.5 Q485 741 547 743 Q551 743 561.5 743 Q572 743 584 743 Q596 743 607 743 Q618 743 621 743 Z " />
<glyph glyph-name="U" unicode="U" horiz-adv-x="406" d="M37 -56 Q42 -51 45.5 -46 Q49 -41 53 -36 Q67 -16 78.5 5.5 Q90 27 102 49 Q134 109 165 169.5 Q196 230 227 292 Q244 329 261.5 365 Q279 401 296 438 Q314 477 330.5 516.5 Q347 556 364 597 Q373 621 383 644.5 Q393 668 403 691 Q407 700 414 699 Q424 697 432 687 Q437 678 432 662 Q426 644 420.5 626 Q415 608 408 590 Q389 536 370 482.5 Q351 429 334 375 Q302 277 274 180 Q263 142 253.5 105.5 Q244 69 234 31 Q225 -2 216.5 -35 Q208 -68 200 -101 Q193 -131 187 -161 Q181 -191 174 -221 Q173 -224 173 -230 Q172 -240 166 -243 Q157 -247 149 -244 Q145 -241 145 -235 L145 -222 Q147 -199 151.5 -176 Q156 -153 161 -130 Q166 -106 171 -82 Q176 -58 181 -34 Q189 -3 195.5 27 Q202 57 209 88 Q218 126 227 163 Q236 200 246 238 Q253 265 260 291 Q267 317 275 343 L275 348 Q272 342 269.5 336 Q267 330 264 324 Q231 254 198 184 Q165 114 129 45 Q118 25 107 5 Q96 -15 84 -35 Q76 -50 63 -63 Q39 -88 14 -78 Q7 -75 3 -68 Q-1 -61 -4 -52 Q-9 -37 -10.5 -20 Q-12 -3 -12 14 Q-13 46 -9.5 78 Q-6 110 -1 142 Q10 208 26.5 272.5 Q43 337 63 402 Q80 455 98 506.5 Q116 558 138 609 Q150 638 162.5 665.5 Q175 693 190 719 Q193 724 195.5 728.5 Q198 733 201 738 Q206 745 212.5 744.5 Q219 744 221 737 Q221 730 220 728 Q216 717 212.5 706 Q209 695 204 684 Q187 642 170.5 600.5 Q154 559 139 515 Q120 460 103.5 404 Q87 348 72 291 Q64 259 57 227.5 Q50 196 44 164 Q39 137 34.5 110 Q30 83 28 55 Q26 35 26 15 Q26 -5 28 -24 Q29 -31 30.5 -37 Q32 -43 34 -50 Q34 -52 35 -53 Q36 -54 37 -56 Z " />
<glyph glyph-name="V" unicode="V" horiz-adv-x="412" d="M-1 -212 Q7 -202 14.5 -192 Q22 -182 28 -171 Q42 -145 55 -120 Q68 -95 81 -69 Q110 -12 139.5 45.5 Q169 103 198 161 Q216 198 234.5 234.5 Q253 271 272 308 Q293 350 314 390.5 Q335 431 356 472 Q373 506 390.5 539.5 Q408 573 426 606 Q439 630 451.5 654 Q464 678 478 701 Q484 712 491 722.5 Q498 733 506 741 Q510 745 513.5 744 Q517 743 518 738 Q518 737 517.5 736 Q517 735 517 734 Q503 715 492.5 694.5 Q482 674 471 653 L423 560 Q409 531 394.5 503.5 Q380 476 366 447 Q343 400 319 353.5 Q295 307 272 259 Q249 214 227 169 Q205 124 183 79 Q157 26 133 -26.5 Q109 -79 83 -132 Q75 -148 66.5 -163.5 Q58 -179 49 -194 Q31 -226 4 -239 Q-5 -243 -13.5 -245 Q-22 -247 -31 -245 Q-48 -240 -55 -222 Q-59 -211 -60.5 -198 Q-62 -185 -62 -171 Q-63 -145 -61 -119 Q-59 -93 -56 -67 Q-49 -12 -38.5 42 Q-28 96 -15 151 Q11 259 42.5 365 Q74 471 110 577 Q118 597 125 616.5 Q132 636 139 656 Q143 664 145 667 Q150 677 157 677 Q167 675 167 665 L167 657 Q163 640 159.5 622.5 Q156 605 151 588 Q146 567 140 546 Q134 525 128 504 Q121 478 114 452.5 Q107 427 99 401 Q91 375 84.5 348.5 Q78 322 70 296 Q63 270 56.5 245 Q50 220 44 194 Q32 146 22 98.5 Q12 51 4 3 Q0 -22 -3.5 -46 Q-7 -70 -10 -95 Q-12 -117 -13 -139 Q-14 -161 -11 -181 Q-10 -187 -8.5 -193 Q-7 -199 -5 -205 Q-5 -206 -1 -212 Z " />
<glyph glyph-name="W" unicode="W" horiz-adv-x="769" d="M-72 -78 Q-70 -69 -69.5 -60 Q-69 -51 -67 -42 Q-63 -4 -55 38 Q-49 71 -42 104.5 Q-35 138 -27 171 Q-1 280 32.5 384 Q66 488 111 588 Q128 625 145 660 Q162 695 180 730 Q187 740 195 734 Q201 730 198 722 Q194 711 191 701 Q188 691 183 681 Q161 630 140 579 Q119 528 100 475 Q78 414 59.5 353 Q41 292 24 229 Q13 186 3.5 143 Q-6 100 -14 56 Q-22 14 -28 -27 Q-34 -68 -36 -110 Q-38 -130 -37.5 -149 Q-37 -168 -33 -187 Q-33 -190 -32 -193 Q-31 -196 -30 -198 Q-30 -200 -29.5 -201 Q-29 -202 -28 -204 Q-26 -202 -23 -200 Q-20 -198 -18 -196 Q-10 -188 -2.5 -179 Q5 -170 13 -159 Q29 -136 42.5 -112 Q56 -88 69 -63 Q101 -5 131.5 52.5 Q162 110 193 169 Q214 210 234.5 251 Q255 292 276 334 Q287 355 297 375.5 Q307 396 318 416 Q319 418 321 420 Q326 429 330.5 431 Q335 433 343 431 Q358 424 357 407 Q355 383 351 361 Q344 327 337.5 293.5 Q331 260 324 227 Q317 188 311 149 Q305 110 300 72 Q295 37 292 2.5 Q289 -32 287 -67 Q286 -93 286.5 -118.5 Q287 -144 292 -170 Q294 -180 296.5 -189.5 Q299 -199 304 -207 Q312 -220 325 -214 Q336 -209 345.5 -202 Q355 -195 364 -187 Q387 -166 407.5 -141 Q428 -116 448 -89 Q569 82 645 283 Q665 334 681.5 385 Q698 436 711 490 Q719 522 725 554 Q731 586 733 619 Q736 655 729 686 Q724 705 714 719 Q709 727 702 720 Q692 710 683 698 Q679 692 675 696 Q672 699 674 704 Q678 710 681.5 716 Q685 722 689 727 Q698 739 713 734 Q722 729 729 719 Q752 687 755 644 Q757 623 755 602 Q753 581 750 560 Q742 503 727.5 447.5 Q713 392 695 338 Q647 189 575 56 Q551 12 526 -30 Q501 -72 472 -111 Q453 -137 433.5 -161 Q414 -185 391 -205 Q378 -217 364 -226 Q350 -235 335 -240 Q307 -249 282.5 -235.5 Q258 -222 250 -180 Q243 -146 243 -107 Q243 -65 247 -23.5 Q251 18 257 60 Q267 139 284 216 Q290 247 297 277.5 Q304 308 311 339 L311 343 Q307 335 303 327 Q299 319 294 311 Q271 266 247 221 Q223 176 200 130 Q173 78 146 26 Q119 -26 92 -78 Q78 -105 64 -131 Q50 -157 33 -181 Q17 -204 1 -217 Q-14 -228 -31 -227 Q-48 -226 -58 -213 Q-63 -207 -65.5 -199 Q-68 -191 -70 -183 Q-74 -165 -74.5 -146.5 Q-75 -128 -74 -109 Q-73 -104 -73 -94 Q-73 -90 -72.5 -86.5 Q-72 -83 -72 -78 Z " />
<glyph glyph-name="X" unicode="X" horiz-adv-x="403" d="M142 729 Q134 725 128 719 Q122 713 116 705 Q99 682 86 657 Q73 632 62 606 Q59 601 57 595 Q55 589 53 584 Q45 583 43 585.5 Q41 588 43 597 Q50 620 59.5 643 Q69 666 83 687 Q94 707 112 726 Q130 747 147 743 Q164 739 170 724 Q179 699 178 669 Q176 634 174.5 599 Q173 564 171 529 Q169 499 165 469 Q161 439 158 410 Q156 399 155 387 Q154 375 152 361 Q159 370 165 377 Q171 384 176 391 Q218 442 259.5 492.5 Q301 543 343 594 Q367 623 392 650 Q417 677 443 706 Q447 711 451 714.5 Q455 718 459 723 Q482 744 488 717 Q462 688 437.5 658 Q413 628 390 598 Q279 458 171 319 Q163 310 155.5 300.5 Q148 291 143 281 Q139 271 138.5 260 Q138 249 137 238 Q134 203 131 169 Q128 135 126 100 Q120 24 117 -52 Q116 -78 116.5 -103 Q117 -128 119 -153 Q120 -164 123 -174.5 Q126 -185 129 -196 Q130 -200 136 -209 Q142 -191 146 -183 Q147 -179 149 -173 Q155 -162 163 -164 Q167 -165 167 -168 Q167 -171 167 -174 Q165 -180 164 -185.5 Q163 -191 161 -197 Q153 -220 134 -227 Q115 -234 104 -219 Q94 -205 89.5 -188 Q85 -171 83 -151 Q81 -108 83 -64.5 Q85 -21 88 23 Q90 51 91 78.5 Q92 106 94 133 Q96 153 98 173 Q100 193 102 213 L102 227 Q97 219 92.5 213.5 Q88 208 84 203 Q15 107 -49.5 10.5 Q-114 -86 -176 -186 L-203 -231 Q-208 -239 -212 -241.5 Q-216 -244 -221 -242 Q-232 -237 -226 -222 Q-220 -209 -214.5 -196 Q-209 -183 -202 -171 Q-179 -131 -155.5 -92 Q-132 -53 -108 -14 Q-70 47 -31 107 Q8 167 50 226 Q64 246 78.5 264.5 Q93 283 107 302 Q114 312 115 321 Q124 393 133 463 Q142 533 150 604 Q153 630 154 656 Q155 682 151 706 Q150 712 148.5 718.5 Q147 725 142 729 Z " />
<glyph glyph-name="Y" unicode="Y" horiz-adv-x="352" d="M161 727 Q146 699 135 668.5 Q124 638 114 606 Q94 549 81 492 Q68 435 64 374 Q62 348 61.5 321 Q61 294 65 267 Q67 259 69 249.5 Q71 240 75 232 Q77 224 80.5 223 Q84 222 90 224 Q97 229 104.5 233 Q112 237 119 242 Q133 253 144.5 266.5 Q156 280 167 294 Q182 320 197.5 344.5 Q213 369 227 394 Q247 427 264.5 461.5 Q282 496 299 530 Q309 547 316.5 564.5 Q324 582 332 600 Q346 629 359 657.5 Q372 686 386 715 Q387 719 389 723 Q391 727 393 731 Q399 742 405.5 742.5 Q412 743 420 739 Q424 737 424 731.5 Q424 726 421.5 719 Q419 712 415.5 704.5 Q412 697 409 692 Q368 602 338.5 532.5 Q309 463 286.5 403 Q264 343 247 286 Q230 229 215 163 Q200 97 185 16 Q170 -65 152 -173 Q148 -210 140.5 -225.5 Q133 -241 125 -239 Q112 -238 112 -226 Q112 -219 112.5 -212.5 Q113 -206 114 -199 Q125 -95 144.5 5.5 Q164 106 190 205 Q195 228 202 250.5 Q209 273 216 295 Q216 297 216.5 300 Q217 303 217 306 Q215 304 213 300.5 Q211 297 209 295 Q199 280 188 265 Q177 250 163 236 Q145 218 121 207 Q112 204 102.5 202.5 Q93 201 83 204 Q54 212 44 238 Q40 246 37.5 255.5 Q35 265 33 276 Q29 301 30 326.5 Q31 352 33 377 Q45 549 116 695 Q119 705 124.5 713.5 Q130 722 136 731 Q148 749 161 727 Z " />
<glyph glyph-name="Z" unicode="Z" horiz-adv-x="422" d="M321 415 Q334 390 340.5 361.5 Q347 333 345 299 Q342 258 332 221.5 Q322 185 308 149 Q291 109 270 73.5 Q249 38 226 5 Q200 -32 172.5 -66 Q145 -100 114 -129 Q75 -165 34.5 -189.5 Q-6 -214 -51 -225 Q-82 -233 -108 -229 Q-131 -224 -149 -208 Q-163 -194 -167 -171 Q-171 -148 -165 -122 Q-160 -97 -149.5 -76.5 Q-139 -56 -126 -38 Q-107 -11 -85.5 9.5 Q-64 30 -41 46 Q-39 47 -36.5 48 Q-34 49 -31 51 L-30 52 Q-18 59 -5 65 Q8 71 22 76 Q51 87 93 95 Q135 103 183 98 Q196 97 207.5 95 Q219 93 230 90 Q241 110 251.5 129 Q262 148 272 169 Q283 195 293 221 Q303 247 311 276 Q316 293 318.5 309.5 Q321 326 322 344 Q319 408 281 428 Q269 434 256.5 436 Q244 438 230 437 Q224 437 218 436.5 Q212 436 206 435 Q195 433 189.5 439 Q184 445 180 455 Q180 457 179 458 Q174 474 184 486 Q198 500 210 514 Q222 528 235 542 Q256 564 274.5 586.5 Q293 609 311 635 Q318 645 324 655.5 Q330 666 334 679 Q336 683 338 691 Q339 698 335 701 Q326 708 312 706 Q295 704 280 695.5 Q265 687 250 676 Q223 657 200 631 Q184 614 171 595 Q158 576 148 551 Q145 546 143.5 541 Q142 536 140 531 L140 530 Q140 528 137.5 525 Q135 522 131 521 Q126 521 126 524.5 Q126 528 126 530 Q126 540 127 545 Q132 568 140.5 586 Q149 604 160 621 Q174 643 190 660 Q206 677 223 691 Q240 705 255.5 715.5 Q271 726 288 732 Q299 736 309.5 737 Q320 738 331 733 Q345 725 353.5 701 Q362 677 352 645 Q347 628 338.5 613.5 Q330 599 321 585 Q302 555 280.5 529 Q259 503 236 479 Q236 477 234 475 L234 474 Q239 473 244.5 472.5 Q250 472 255 470 Q275 465 292 451.5 Q309 438 321 415 Z M41 -139 Q144 -54 219 72 Q163 82 116.5 76 Q70 70 32.5 54.5 Q-5 39 -33 17.5 Q-61 -4 -80.5 -24 Q-100 -44 -110.5 -59.5 Q-121 -75 -123 -78 Q-142 -111 -149 -148 Q-153 -187 -129 -200 Q-116 -205 -103.5 -204.5 Q-91 -204 -78 -201 Q-15 -186 41 -139 Z " />
<glyph glyph-name="a" unicode="a" horiz-adv-x="199" d="M202 384 Q203 384 204 383 Q206 381 204 379 Q204 378 198 367.5 Q192 357 183 341.5 Q174 326 162.5 306.5 Q151 287 140 269 Q129 251 118.5 235 Q108 219 102 211 Q99 206 95 201 Q91 196 87 191 Q85 189 83 188 Q72 178 59 183 Q47 187 42 201 Q40 212 40.5 223 Q41 234 43 245 Q45 256 47.5 267 Q50 278 52 289 Q53 292 52 298 Q47 290 44 288 Q38 281 32.5 274.5 Q27 268 20 262 Q16 257 11.5 254 Q7 251 2 248 Q-16 240 -31.5 249 Q-47 258 -48 277 Q-47 293 -42 311.5 Q-37 330 -28.5 347 Q-20 364 -8 378 Q4 392 20 398 Q37 406 55 400 Q73 394 80 377 Q82 383 87 389 Q94 400 107 395 Q114 393 115.5 390 Q117 387 115 379 Q110 362 104.5 345.5 Q99 329 94 312 Q87 289 82 266 Q77 243 75 220 Q75 212 76 207 Q110 255 136 294 Q147 310 158 326 Q169 342 178 355 Q187 368 192.5 376 Q198 384 199 385 L200 385 Q201 385 201 384.5 Q201 384 202 384 Z M18 285 Q35 303 47.5 322.5 Q60 342 71 362 Q73 365 74.5 367.5 Q76 370 78 374 Q70 372 66.5 374.5 Q63 377 60 382 Q56 396 43 389 Q37 385 31.5 381.5 Q26 378 22 373 Q-9 336 -20 288 Q-22 281 -22 273.5 Q-22 266 -17 257 Q-7 262 -3 265 Q3 270 8 275 Q13 280 18 285 Z " />
<glyph glyph-name="b" unicode="b" horiz-adv-x="229" d="M229 385 Q231 382 232 380 Q233 376 229 373 L201 359 Q186 351 162 338.5 Q138 326 104 307 Q103 306 102 306 Q101 306 100.5 305.5 Q100 305 99 305 Q97 303 96.5 302 Q96 301 95 300 Q91 292 84.5 279.5 Q78 267 69.5 253.5 Q61 240 52 227.5 Q43 215 35 207 Q14 187 -11 183 Q-20 181 -29 183 Q-37 184 -44 188 Q-51 192 -54 201 Q-57 211 -54 220.5 Q-51 230 -44 238 Q-39 245 -32.5 250 Q-26 255 -19 259 Q-2 270 14 279 Q30 288 48 298 Q59 304 68 318 Q77 332 82 343 Q86 351 85 357 Q84 363 82 371 Q74 370 68 367 Q62 364 57 359 Q45 351 35 340 Q25 329 16 317 Q11 310 6 303.5 Q1 297 -5 290 Q-11 282 -20 286 Q-27 290 -25 298 Q-24 302 -23 305.5 Q-22 309 -21 312 Q-19 321 -16.5 329 Q-14 337 -11 348 Q2 394 18.5 450 Q35 506 50 558 Q65 610 77.5 650 Q90 690 95 704 Q101 721 105.5 725 Q110 729 117 729 Q126 729 124 722 Q122 715 122 709 Q122 707 120.5 703 Q119 699 112 677 Q105 651 94 612 Q83 573 70 528.5 Q57 484 44 438.5 Q31 393 20 356 Q26 360 27 361 Q35 368 39.5 372 Q44 376 52 381 Q62 389 72.5 390 Q83 391 92 387 Q101 383 106 373.5 Q111 364 111 351 Q111 349 110.5 342 Q110 335 110 334 Q125 341 141.5 348 Q158 355 174.5 361.5 Q191 368 205 374 Q219 380 229 385 Z M2 211 Q17 223 28 241.5 Q39 260 50 278 Q45 274 42 272 Q39 270 34 268 Q21 260 14.5 256 Q8 252 -3 244 Q-9 240 -15 235.5 Q-21 231 -25 225 Q-32 218 -34 209 Q-35 203 -31 200 Q-27 197 -22 199 Q-9 203 2 211 Z " />
<glyph glyph-name="c" unicode="c" horiz-adv-x="156" d="M160 381 Q162 379 162 377 Q162 375 160 374 Q157 370 145.5 358 Q134 346 121 332 Q108 318 96 305.5 Q84 293 78 287 Q71 280 65 273 Q59 266 41 249 Q33 241 23.5 232.5 Q14 224 5 219 Q-8 211 -20.5 208.5 Q-33 206 -46 212 Q-63 221 -68 236 Q-73 251 -69.5 269.5 Q-66 288 -56 307.5 Q-46 327 -34 344.5 Q-22 362 -9.5 375.5 Q3 389 12 395 Q18 400 29 399.5 Q40 399 47 395 Q58 391 56 377 Q56 375 54 371.5 Q52 368 48 367 Q39 365 38 374 L38 383 Q33 380 28.5 377.5 Q24 375 22 373 Q-28 320 -37 249 Q-38 241 -37.5 238 Q-37 235 -32 226 Q-27 229 -23 230 Q-19 231 -15 233 Q-2 242 8.5 249.5 Q19 257 29 267 Q53 290 65 300.5 Q77 311 88 322 L156 385 L160 381 Z " />
<glyph glyph-name="d" unicode="d" horiz-adv-x="221" d="M86 312 Q80 289 76 266 Q72 243 71 220 L71 207 Q111 255 144 294 Q158 310 171.5 326 Q185 342 195.5 355 Q206 368 213 376 Q220 384 221 385 L222 385 Q223 385 223 384.5 Q223 384 224 384 Q225 384 226 383 Q227 382 227 379 Q226 378 209.5 356.5 Q193 335 171 307 Q149 279 128 251.5 Q107 224 98 211 Q95 206 91 201 Q87 196 83 191 L80 188 Q68 178 56 183 Q42 188 39 201 Q36 212 36 223 Q36 234 38 245 Q40 256 41.5 267 Q43 278 45 289 L45 298 Q43 294 41 292 Q39 290 37 288 Q32 281 26.5 274.5 Q21 268 15 262 Q8 255 -4 248 Q-22 240 -38 249 Q-54 258 -56 277 Q-56 282 -55.5 286.5 Q-55 291 -54 296 Q-47 322 -34.5 343.5 Q-22 365 -2 383 Q8 393 19 397 Q36 405 49 399.5 Q62 394 69 377 Q71 381 72 382 Q73 388 76 393 Q78 398 80 403 Q82 408 84 413 Q97 458 110.5 504.5 Q124 551 136 591.5 Q148 632 157.5 662.5 Q167 693 171 704 Q176 721 180.5 725 Q185 729 193 729 Q202 729 200.5 719 Q199 709 197 703 Q191 679 183.5 653.5 Q176 628 165.5 591.5 Q155 555 140.5 504 Q126 453 105 380 L105 379 Q100 362 95.5 345.5 Q91 329 86 312 Z M62 362 Q64 364 64.5 367 Q65 370 67 374 Q59 372 55.5 374.5 Q52 377 50 382 Q45 396 32 389 Q26 385 21 381 Q16 377 12 372 Q-18 337 -28 288 Q-30 281 -29.5 273.5 Q-29 266 -24 257 Q-19 259 -15.5 260.5 Q-12 262 -9 265 Q2 274 11 285 Q40 320 62 362 Z " />
<glyph glyph-name="e" unicode="e" horiz-adv-x="156" d="M156 385 Q158 384 160 382 Q164 378 162 374 Q159 371 149 359 Q139 347 127 333.5 Q115 320 104 307.5 Q93 295 89 290 Q82 282 76 275.5 Q70 269 54 252 Q37 233 19 221 Q-5 204 -31 214 Q-41 219 -47.5 226.5 Q-54 234 -55 245 Q-57 265 -54 281 Q-45 340 -8 378 Q-3 383 3 387.5 Q9 392 14 396 Q20 399 26.5 401 Q33 403 40 401 Q50 397 55 390 Q58 385 58.5 380 Q59 375 59 370 Q58 352 48 335 Q43 327 35.5 319 Q28 311 18 308 Q5 304 -3 312 Q-7 315 -9 323 Q-23 291 -25 252 Q-25 244 -24 241 Q-23 238 -18 230 Q-14 232 -9.5 233 Q-5 234 -1 236 Q10 244 20.5 252 Q31 260 40 269 Q52 281 60 289 Q68 297 74 303.5 Q80 310 84.5 315 Q89 320 94 325 L156 385 Z M38 385 Q34 382 30.5 379.5 Q27 377 24 374 Q22 372 21.5 371 Q21 370 19 368 Q15 361 12.5 353.5 Q10 346 9 338 L9 330 L9 327 L10 327 Q10 327 11 327 Q14 327 16 329 Q28 336 33 350 Q41 364 39 379 Q39 380 38.5 381.5 Q38 383 38 385 Z " />
<glyph glyph-name="f" unicode="f" horiz-adv-x="200" d="M200 385 Q203 384 204 382 Q206 378 200 376 Q159 363 124 352 Q94 342 64.5 333 Q35 324 22 320 Q26 306 30 285.5 Q34 265 37 243 Q40 221 41.5 200 Q43 179 43 166 Q42 146 41 130.5 Q40 115 38 102 Q36 89 33 77 Q30 65 27 50 Q22 29 18.5 13.5 Q15 -2 10.5 -18 Q6 -34 0 -51 Q-6 -68 -14 -92 Q-22 -115 -30.5 -129 Q-39 -143 -46 -153 Q-51 -159 -56.5 -165 Q-62 -171 -68 -176 Q-75 -181 -83.5 -180.5 Q-92 -180 -99 -175.5 Q-106 -171 -111 -162 Q-116 -153 -116 -142 Q-116 -111 -110.5 -69 Q-105 -27 -97 17 Q-89 61 -79 103.5 Q-69 146 -60 178 Q-53 203 -48 221 Q-43 239 -38.5 256.5 Q-34 274 -28.5 292.5 Q-23 311 -14 336 Q-1 382 14 434 Q29 486 43.5 535 Q58 584 70.5 625.5 Q83 667 91 693 Q96 710 99.5 719 Q103 728 116 725 Q124 723 122.5 712.5 Q121 702 119 691 Q92 609 67.5 522.5 Q43 436 17 345 Q28 345 39.5 347.5 Q51 350 65 353.5 Q79 357 97 362 Q115 367 140 372 L200 385 Z M14 130 Q18 155 17 196 Q16 237 5 296 Q-8 261 -19.5 222.5 Q-31 184 -40.5 144 Q-50 104 -58.5 65 Q-67 26 -74 -10 Q-77 -26 -80 -46 Q-83 -66 -85 -87 Q-87 -108 -87.5 -127 Q-88 -146 -86 -159 Q-77 -154 -61 -127.5 Q-45 -101 -32 -66 Q-15 -18 -3.5 31 Q8 80 14 130 Z " />
<glyph glyph-name="g" unicode="g" horiz-adv-x="173" d="M173 385 Q175 384 176 383 Q178 380 174 376 L146 348 L77 278 L56 254 Q49 246 46 235 Q28 166 6.5 99.5 Q-15 33 -44 -33 Q-65 -80 -93 -121 Q-103 -135 -113.5 -146.5 Q-124 -158 -137 -168 Q-144 -173 -152 -177 Q-160 -181 -168 -185 Q-171 -187 -175 -187 Q-179 -187 -184 -187 Q-200 -183 -203 -167.5 Q-206 -152 -203 -133 Q-200 -114 -193.5 -96 Q-187 -78 -183 -69 Q-167 -34 -149.5 -1 Q-132 32 -112 64 Q-86 106 -57.5 145.5 Q-29 185 4 221 Q9 226 11.5 231.5 Q14 237 16 243 L23 269 L26 280 L28 283 Q26 281 26 281 Q24 279 23.5 278 Q23 277 21 275 Q16 269 10.5 262 Q5 255 -1 249 Q-10 240 -20 236 Q-38 228 -53.5 236.5 Q-69 245 -71 264 Q-72 274 -69 284 Q-62 312 -45 341.5 Q-28 371 0 385 Q16 393 30.5 388 Q45 383 52 367 L52 366 Q53 365 53 363.5 Q53 362 51 362 Q38 358 34 370 Q28 384 15 376 Q4 370 -4 360 Q-34 325 -44 276 Q-45 271 -45.5 266.5 Q-46 262 -45 257 Q-43 250 -39 249 Q-34 247 -27 251.5 Q-20 256 -13 263.5 Q-6 271 0.5 279.5 Q7 288 11 293 L13 296 Q16 299 16 299 Q17 301 19 303 L23 309 L28 316 L46 341 Q49 343 53 344 Q57 345 61 342 Q70 337 67 318 Q67 316 66 313 Q65 311 64 307 Q63 303 62 299 L56 278 L173 385 Z M-4 181 Q-6 178 -10 173 Q-14 168 -18 162.5 Q-22 157 -25 153 Q-28 149 -29 148 Q-55 112 -78.5 74.5 Q-102 37 -124 -1 Q-125 -2 -135 -21.5 Q-145 -41 -156.5 -67.5 Q-168 -94 -176.5 -122 Q-185 -150 -182 -167 Q-168 -159 -155.5 -146.5 Q-143 -134 -131 -117 Q-110 -88 -89.5 -45 Q-69 -2 -53 38 Q-35 85 -18 135 Q-16 141 -14 147 Q-12 153 -10 159 Q-8 164 -7.5 168 Q-7 172 -5 176 L-4 181 Z " />
<glyph glyph-name="h" unicode="h" horiz-adv-x="227" d="M228 385 Q229 385 231.5 383.5 Q234 382 231 377 Q210 337 185 307.5 Q160 278 135 239 Q130 231 125 224 Q120 217 115 211 Q104 199 91.5 201.5 Q79 204 74 218 Q72 223 71.5 230 Q71 237 71 242 Q73 260 75.5 278 Q78 296 80 313 Q82 321 83 329 Q84 337 84 345 Q84 345 83 345 L74 333 Q64 317 55.5 304 Q47 291 38.5 278.5 Q30 266 21.5 252 Q13 238 2 220 Q-10 205 -18.5 201 Q-27 197 -36 199 Q-41 201 -43.5 210 Q-46 219 -44 224 Q-20 313 1.5 390 Q23 467 41.5 528 Q60 589 73.5 633 Q87 677 95 701 Q100 717 103 725.5 Q106 734 109 737.5 Q112 741 114.5 741.5 Q117 742 120 741 Q129 739 126 724 Q126 722 120 702.5 Q114 683 105 651.5 Q96 620 84.5 580 Q73 540 61 498 Q49 456 37 414.5 Q25 373 15.5 338.5 Q6 304 -0.5 280 Q-7 256 -9 249 Q-9 249 -8 249 Q-2 260 4 269.5 Q10 279 18 289 Q35 314 47 333.5 Q59 353 75 376 Q78 381 85 383.5 Q92 386 98 383 Q103 381 106.5 374 Q110 367 108 361 Q108 359 107 348.5 Q106 338 104.5 323.5 Q103 309 101.5 295 Q100 281 99 272 Q97 264 95.5 250 Q94 236 95 220 Q100 225 103.5 229.5 Q107 234 111 239 Q112 242 128 261.5 Q144 281 163.5 305 Q183 329 201.5 352 Q220 375 227 385 L228 385 L228 385 Z " />
<glyph glyph-name="i" unicode="i" horiz-adv-x="127" d="M54 463 Q48 463 44 467.5 Q40 472 39 478 Q39 484 43 488.5 Q47 493 53 493 Q59 493 63.5 488.5 Q68 484 68 478 Q69 472 64.5 467.5 Q60 463 54 463 Z M127 385 Q129 384 130 382 Q132 377 130 374 Q123 366 118 359 Q113 353 109.5 348 Q106 343 106 342 Q82 313 62 288 Q45 267 29.5 248 Q14 229 10 224 Q-1 210 -9 206 Q-17 202 -24 204 Q-28 204 -32 207 Q-36 210 -37 211 Q-42 217 -43 229 Q-44 241 -42.5 253.5 Q-41 266 -38.5 276.5 Q-36 287 -34 292 Q-25 320 -17 341 Q-9 362 0 385 Q2 390 7.5 392.5 Q13 395 19 390 Q24 386 25 385 Q26 384 24 377 Q23 373 22 370 Q21 367 19 363 Q0 303 -10.5 267.5 Q-21 232 -17 230 Q-16 229 -6 239 Q4 249 17.5 263.5 Q31 278 47 295.5 Q63 313 76 328 Q89 343 98 353 Q107 363 108 364 L127 385 Z " />
<glyph glyph-name="j" unicode="j" horiz-adv-x="135" d="M28 436 Q22 436 17.5 440.5 Q13 445 13 451 Q13 457 17.5 461.5 Q22 466 28 466 Q34 466 38 461.5 Q42 457 42 451 Q42 445 38 440.5 Q34 436 28 436 Z M135 385 Q135 384 138 381.5 Q141 379 136 374 Q127 365 112 352 Q98 340 76.5 321.5 Q55 303 22 276 Q17 271 11.5 265 Q6 259 1 253 Q-6 244 -9 233 Q-26 164 -48 97.5 Q-70 31 -99 -34 Q-110 -57 -121.5 -79.5 Q-133 -102 -148 -123 Q-157 -137 -167.5 -148.5 Q-178 -160 -192 -170 Q-199 -175 -206.5 -179 Q-214 -183 -222 -187 Q-229 -190 -239 -188 Q-272 -183 -266 -151 Q-263 -139 -260 -127 Q-257 -115 -252 -104 Q-233 -60 -212.5 -18.5 Q-192 23 -167 63 Q-154 84 -138 108 Q-122 132 -104.5 156.5 Q-87 181 -69.5 204.5 Q-52 228 -36 246 Q-31 252 -27 269 Q-23 286 -20 300 Q-17 312 -15 320 Q-13 328 -11.5 335 Q-10 342 -9 349 Q-8 356 -6 367 Q-2 380 0.5 385.5 Q3 391 15 389 Q23 387 22.5 380.5 Q22 374 22 367 Q19 347 14.5 328 Q10 309 5 288 Q7 289 24 301.5 Q41 314 63 330 Q85 346 105.5 361.5 Q126 377 135 385 Z M-64 158 Q-63 162 -60.5 169.5 Q-58 177 -56 182 Q-61 176 -64.5 171.5 Q-68 167 -70 164 Q-138 74 -191 -24 Q-223 -81 -240 -147 Q-242 -152 -242.5 -158 Q-243 -164 -240 -171 Q-235 -168 -231.5 -166 Q-228 -164 -224 -162 Q-216 -154 -207 -145.5 Q-198 -137 -190 -128 Q-165 -99 -147 -66 Q-129 -33 -116 3 Q-102 41 -89.5 80 Q-77 119 -64 158 Z " />
<glyph glyph-name="k" unicode="k" horiz-adv-x="180" d="M180 385 Q182 384 183 383 Q185 379 183 376 Q182 375 175 365 Q168 355 163 349 Q163 348 161.5 346.5 Q160 345 159 344 Q134 316 115 292 Q98 272 83 253.5 Q68 235 65 231 Q63 228 57 221.5 Q51 215 42 213 Q38 213 34.5 213.5 Q31 214 26 217 Q17 224 12 235 Q9 241 4.5 258.5 Q0 276 0 292 Q-1 291 -4.5 279 Q-8 267 -12.5 253.5 Q-17 240 -21 228.5 Q-25 217 -25 216 Q-26 214 -31 210.5 Q-36 207 -40.5 206 Q-45 205 -47.5 208.5 Q-50 212 -47 224 Q-44 233 -36.5 259 Q-29 285 -20.5 315 Q-12 345 -4 373 Q4 401 8 413 Q21 458 33.5 502.5 Q46 547 57.5 585 Q69 623 78 651.5 Q87 680 93 695 Q98 710 100.5 718.5 Q103 727 105.5 731 Q108 735 110 736 Q112 737 115 737 Q124 737 124.5 731.5 Q125 726 123 720 Q94 617 66 524.5 Q38 432 10 334 Q20 344 31 356.5 Q42 369 50 375 Q59 383 64.5 384 Q70 385 76 380 Q81 376 78.5 371 Q76 366 72 361 Q64 352 56 343 Q48 334 40 326 Q30 313 28 293 Q27 279 29 264.5 Q31 250 37 235 Q44 243 51 249 Q58 255 60 258 Q61 259 69 267.5 Q77 276 88 287.5 Q99 299 112 312 Q125 325 136 336.5 Q147 348 154 355.5 Q161 363 162 364 L180 385 L180 385 Z " />
<glyph glyph-name="l" unicode="l" horiz-adv-x="162" d="M122 724 Q122 722 117 703.5 Q112 685 103.5 656.5 Q95 628 84 592 Q73 556 62 518 Q51 480 41 443.5 Q31 407 23 378 Q15 350 10 325 Q5 300 2.5 280 Q0 260 1 247.5 Q2 235 7 233 Q12 233 20.5 237.5 Q29 242 43 259 Q48 265 61.5 278.5 Q75 292 91 307.5 Q107 323 122 338.5 Q137 354 145 364 Q150 369 154.5 375 Q159 381 162 385 Q164 384 165 383 Q166 380 163 373 Q158 362 141.5 342 Q125 322 106.5 301 Q88 280 71.5 262 Q55 244 50 238 Q36 224 25.5 216.5 Q15 209 1 213 Q-10 216 -18 226.5 Q-26 237 -26 260 Q-25 292 -15.5 326.5 Q-6 361 3 399 Q17 447 30.5 494 Q44 541 55.5 581 Q67 621 76.5 651 Q86 681 91 695 Q101 725 104.5 733 Q108 741 114 741 Q123 741 123 735.5 Q123 730 122 724 Z " />
<glyph glyph-name="m" unicode="m" horiz-adv-x="248" d="M153 267 Q179 302 205 329.5 Q231 357 248 385 Q249 384 251 383 Q254 380 253 377 Q226 334 201.5 305.5 Q177 277 155 244 Q153 242 148.5 234.5 Q144 227 138 219 Q132 211 126.5 203.5 Q121 196 119 193 Q112 183 101 186.5 Q90 190 90 198 Q89 201 87.5 206.5 Q86 212 88 216 Q92 249 97.5 276 Q103 303 108 329 Q103 321 98 313.5 Q93 306 88 298 Q81 289 77 282.5 Q73 276 69 270 Q65 264 61.5 257.5 Q58 251 52 241 Q49 237 46 232 Q43 227 40 223 Q34 214 26 216 Q14 219 16 231 Q22 261 32 288 Q36 297 39.5 310 Q43 323 46 333 Q43 329 33.5 312 Q24 295 12.5 274 Q1 253 -10 232 Q-21 211 -27 200 Q-29 196 -32 193 Q-37 183 -45 185 Q-58 188 -55 200 Q-55 206 -53.5 212 Q-52 218 -50 224 Q-40 265 -29 299.5 Q-18 334 -3 376 Q-1 382 1.5 388 Q4 394 8 400 Q9 402 10.5 404.5 Q12 407 17 408 Q21 408 25.5 407 Q30 406 29 399 Q27 395 22.5 379.5 Q18 364 4 329 Q-2 306 -5 294.5 Q-8 283 -14 267 Q-6 281 -0.5 290 Q5 299 10 309 Q16 317 21 326 Q26 335 38 354 Q41 359 44.5 363 Q48 367 52 372 Q58 381 69 379 Q79 376 79 365 Q76 343 71.5 326.5 Q67 310 62 294 Q74 308 84.5 323 Q95 338 106 352 Q115 363 123 361 Q135 357 135 343 Q132 326 128.5 311.5 Q125 297 122 281.5 Q119 266 115.5 249 Q112 232 108 210 Q109 211 116 219.5 Q123 228 131 238 Q139 248 145.5 256.5 Q152 265 153 267 Z " />
<glyph glyph-name="n" unicode="n" horiz-adv-x="210" d="M210 385 Q212 384 214 382 Q217 379 214 374 Q214 373 208.5 366 Q203 359 196 351 Q188 341 179 329 Q170 317 155.5 300.5 Q141 284 127 269 Q113 254 103 243.5 Q93 233 93 233 Q84 223 73 223 Q62 223 57 233 Q56 238 56 245.5 Q56 253 57 258 Q59 273 59.5 278.5 Q60 284 63 298 Q64 305 66 318 Q68 331 70 343 Q69 342 66 337.5 Q63 333 60 328 Q57 323 54 318 Q51 313 50 312 Q40 297 33.5 287 Q27 277 22 268 Q17 259 11.5 249 Q6 239 -1 225 Q-6 215 -11.5 205 Q-17 195 -23 185 Q-29 172 -41 175 Q-54 179 -53 192 Q-53 199 -51 209.5 Q-49 220 -46.5 231 Q-44 242 -41.5 252 Q-39 262 -37 269 Q-26 306 -19 329 Q-12 352 -7 367 Q-6 369 -4.5 373.5 Q-3 378 -1 382.5 Q1 387 4 390 Q7 393 12 393 Q23 393 23 382 Q22 376 20.5 370 Q19 364 17 357 Q12 337 6 317.5 Q0 298 -7 278 Q-8 274 -9.5 268.5 Q-11 263 -13 257 Q-6 266 1.5 277 Q9 288 15 297 Q30 320 39.5 334 Q49 348 63 366 Q66 369 72 372 Q78 375 83 373 Q94 368 91 360 Q90 350 87 327.5 Q84 305 81 284 Q80 281 78.5 273.5 Q77 266 76.5 258.5 Q76 251 75.5 245 Q75 239 76 239 Q94 256 107 269 Q120 282 132 295 Q144 308 157.5 323.5 Q171 339 191 362 L210 385 L210 385 Z " />
<glyph glyph-name="o" unicode="o" horiz-adv-x="157" d="M162 381 Q164 379 164.5 377 Q165 375 163 373 Q162 372 158.5 369 Q155 366 150 362 L149 362 Q145 359 136.5 354.5 Q128 350 116.5 346 Q105 342 91.5 340 Q78 338 63 340 Q63 336 63 331.5 Q63 327 62 322 Q59 300 54 290 Q49 276 36 253 Q23 230 1 217 Q-4 215 -8.5 214 Q-13 213 -18 212 Q-32 212 -41 219 Q-51 226 -53 240 Q-55 254 -53.5 268 Q-52 282 -48.5 293 Q-45 304 -44 306 Q-43 310 -38 321.5 Q-33 333 -26 346.5 Q-19 360 -11.5 371.5 Q-4 383 4 388 L9 391 Q22 398 30 390 Q34 389 32 384 L25 373 Q13 352 3.5 330.5 Q-6 309 -12 288 L-13 287 Q-13 285 -13.5 283.5 Q-14 282 -14 280 Q-15 275 -16 268 Q-17 261 -18 254 L-18 249 Q-18 246 -18 242 Q-18 238 -16.5 236 Q-15 234 -12 234.5 Q-9 235 -3 240 Q14 256 23.5 274 Q33 292 35 297 Q37 302 38.5 306 Q40 310 42 315 Q44 321 44.5 327 Q45 333 46 340 Q46 349 44 354 Q43 357 40 358 L37 360 Q35 363 40 363 L42 363 L47 363 Q49 363 52 361 Q54 359 56.5 357 Q59 355 61 352 Q79 350 94.5 354 Q110 358 122 363 Q134 368 142.5 374 Q151 380 154 383 Q155 384 155.5 384 Q156 384 157 385 Q159 385 161 383 Q162 382 162 381 Z " />
<glyph glyph-name="p" unicode="p" horiz-adv-x="200" d="M200 385 Q202 384 203 382 Q205 379 201 375 L200 374 L177 351 Q176 350 165 340.5 Q154 331 140 319 Q124 305 103 288 Q85 270 67.5 252.5 Q50 235 33 217 Q28 212 24 208.5 Q20 205 15 200 Q6 192 2 191.5 Q-2 191 -13 199 Q-13 198 -18 177.5 Q-23 157 -30.5 125 Q-38 93 -48 53.5 Q-58 14 -67.5 -25.5 Q-77 -65 -86.5 -100.5 Q-96 -136 -103 -160 Q-106 -171 -112 -176.5 Q-118 -182 -122 -182 Q-128 -181 -132.5 -176.5 Q-137 -172 -136 -166 Q-136 -163 -126.5 -124.5 Q-117 -86 -103.5 -29.5 Q-90 27 -73.5 93.5 Q-57 160 -42 220.5 Q-27 281 -15.5 326 Q-4 371 0 385 Q2 390 7 391 Q12 392 14 393 Q25 390 23 380 Q22 373 20 362 Q18 351 15.5 340.5 Q13 330 12 322 Q11 314 11 312 L32 348 Q40 359 47.5 370 Q55 381 65 390 Q70 395 73 397 Q85 405 96.5 401.5 Q108 398 113 384 Q116 374 115 366 Q113 355 110 344.5 Q107 334 103 323 Q102 319 100 315.5 Q98 312 96 307 Q108 317 122.5 328 Q137 339 151.5 349 Q166 359 178.5 368.5 Q191 378 200 385 Z M28 251 Q48 274 60 295 Q72 316 84 343 Q87 351 90.5 361.5 Q94 372 94 383 Q86 381 79 376.5 Q72 372 65 365 Q56 354 47.5 343.5 Q39 333 31 318 Q22 302 17 290 Q12 278 8 267 Q4 256 0.5 243 Q-3 230 -9 213 L-9 210 Q0 221 9.5 230.5 Q19 240 28 251 Z " />
<glyph glyph-name="q" unicode="q" horiz-adv-x="200" d="M200 385 Q203 383 205 381 Q209 376 205 372 L61 196 Q63 184 65 169.5 Q67 155 68.5 140 Q70 125 71 112 Q72 99 71 90 Q70 58 67 39.5 Q64 21 58 -2 Q53 -25 49 -41 Q45 -57 37 -76 Q35 -83 28.5 -99.5 Q22 -116 13 -133 Q4 -150 -6.5 -164.5 Q-17 -179 -28 -181 L-30 -181 L-31 -181 L-32 -181 Q-44 -181 -49.5 -173 Q-55 -165 -56.5 -153.5 Q-58 -142 -56.5 -130 Q-55 -118 -53 -111 Q-52 -109 -52 -107.5 Q-52 -106 -51 -104 Q-40 -56 -27 2 Q-14 60 -2 114 L42 295 Q42 296 43 297 Q40 293 38 291 Q36 289 34 287 Q28 280 22.5 273.5 Q17 267 10 261 Q3 253 -8 248 Q-27 240 -42.5 248.5 Q-58 257 -60 276 Q-59 281 -58.5 285.5 Q-58 290 -57 295 Q-43 348 -3 382 Q7 392 18 396 Q35 404 48 398.5 Q61 393 68 376 Q70 380 71.5 382.5 Q73 385 75 388 Q82 399 95 394 Q102 392 103.5 389 Q105 386 103 378 Q99 366 96 354.5 Q93 343 89 332 L76 281 L72 270 L69 257 L61 224 L200 385 Z M49 62 Q51 79 51.5 102.5 Q52 126 46 159 L-19 -106 Q-20 -106 -20 -107 L-20 -111 Q-21 -114 -23 -124 Q-25 -133 -26.5 -144 Q-28 -155 -24 -158 Q-16 -148 -7 -130.5 Q2 -113 10 -93 Q24 -55 33.5 -16.5 Q43 22 49 62 Z M60 361 Q62 364 63 366.5 Q64 369 66 373 Q53 370 49 381 Q44 395 31 388 Q17 379 11 372 Q-6 353 -16 331.5 Q-26 310 -31 287 Q-32 284 -33 280.5 Q-34 277 -34 272 Q-34 272 -33 271 Q-33 266 -28.5 260.5 Q-24 255 -10 267 Q-5 271 -0.5 275.5 Q4 280 9 285 Q24 302 36.5 321.5 Q49 341 60 361 Z " />
<glyph glyph-name="r" unicode="r" horiz-adv-x="151" d="M151 385 Q153 384 154 382 Q156 379 153 375 Q145 367 139 360 Q134 354 129 348.5 Q124 343 122 341 L66 277 Q61 272 52.5 261.5 Q44 251 35 240 Q26 229 18 220 Q10 211 8 210 Q3 206 -4.5 204.5 Q-12 203 -19 204 Q-26 205 -31 208.5 Q-36 212 -36 219 Q-37 222 -35 231.5 Q-33 241 -32 244 Q-24 261 -18.5 272.5 Q-13 284 -4 301 Q2 313 9.5 325 Q17 337 22 346 Q24 348 26 355 Q24 356 18 358.5 Q12 361 4.5 365 Q-3 369 -10.5 373 Q-18 377 -22 381 Q-44 403 -32 427 Q-24 442 -11 451 Q2 460 16 458 Q33 456 39.5 443 Q46 430 36 416 Q30 407 23 399 Q16 391 8 382 Q13 379 18.5 376.5 Q24 374 29 370 Q37 366 41 362 Q51 353 47 342 Q45 337 42.5 331.5 Q40 326 37 321 Q28 304 24 296.5 Q20 289 16 281 Q14 277 11 270 Q8 263 4.5 255.5 Q1 248 -2.5 241 Q-6 234 -7 230 Q-6 231 4.5 242 Q15 253 27.5 265.5 Q40 278 50 288.5 Q60 299 60 299 Q72 310 84 321.5 Q96 333 106.5 342.5 Q117 352 123.5 358.5 Q130 365 131 366 L151 385 Z M-10 408 Q-12 403 -11.5 399.5 Q-11 396 -10 394 Q-9 391 -7 389 L-3 387 Q-1 390 2.5 394 Q6 398 10 403 Q13 408 15.5 411.5 Q18 415 20 417 Q35 438 25 440 Q14 440 7 433 Q0 426 -5 419 L-7 415 Q-8 413 -9 411.5 Q-10 410 -10 408 Z " />
<glyph glyph-name="s" unicode="s" horiz-adv-x="137" d="M137 385 Q144 380 140 377.5 Q136 375 132 373 Q109 360 91 349 Q75 340 62 331.5 Q49 323 47 322 Q55 306 56 287 Q57 268 49 251 Q29 203 -12 175 Q-33 160 -55 162 Q-67 163 -77.5 170.5 Q-88 178 -85 193 Q-84 200 -81.5 206 Q-79 212 -76 219 Q-68 233 -57.5 247 Q-47 261 -36 272 Q-22 286 -5 301.5 Q12 317 23 325 Q19 333 17 339 Q15 345 11 352 Q4 365 -2 379 Q-8 393 -8 410 Q-8 421 -3 434 Q10 462 34 473 Q44 477 55 469 Q61 464 61 456 Q61 447 56 437 Q49 423 40.5 410.5 Q32 398 21 387 Q16 382 13 380 Q18 368 25.5 357 Q33 346 40 335 Q40 335 50.5 340.5 Q61 346 73 352.5 Q85 359 95 364.5 Q105 370 106 370 L137 385 Z M14 395 Q28 412 37 432 Q39 437 41 442.5 Q43 448 45 453 Q47 459 47 464 Q38 462 29.5 453.5 Q21 445 15.5 434 Q10 423 8.5 411.5 Q7 400 10 391 L14 395 Z M29 279 Q32 291 29 306 Q19 298 12.5 292 Q6 286 -3 277 Q-16 263 -27.5 249.5 Q-39 236 -49 220 Q-54 212 -58.5 202.5 Q-63 193 -63 180 Q-61 171 -52 173.5 Q-43 176 -37 180 Q-26 187 -18 194 Q17 229 29 279 Z " />
<glyph glyph-name="t" unicode="t" horiz-adv-x="193" d="M412 608 Q414 596 407.5 587 Q401 578 390 570 Q386 568 384 569 Q382 570 381 572 Q379 577 384 584 Q388 587 391 590.5 Q394 594 397 598 Q401 606 398 610 L397 610 Q387 619 348.5 619 Q310 619 260 611 Q249 609 238 607.5 Q227 606 216 604 Q200 600 184 597 Q168 594 152 590 Q150 590 143 588 Q136 586 127 584 Q118 582 108.5 579.5 Q99 577 93 575 Q90 575 89 574 L84 559 L84 558 L80 546 L79 544 L79 542 Q65 497 46.5 435.5 Q28 374 10 310.5 Q-8 247 -22 188.5 Q-36 130 -42 91 Q-41 75 -30 82 Q-19 89 -5 105 Q9 121 22.5 139.5 Q36 158 42 165 Q54 181 70 203 Q86 225 102.5 249 Q119 273 135 297 Q151 321 163.5 340.5 Q176 360 184 372 Q192 384 193 385 Q195 385 197 384 Q200 383 198 377 Q197 375 186 356.5 Q175 338 157.5 309.5 Q140 281 119 247.5 Q98 214 77.5 182.5 Q57 151 39 126 Q21 101 10 90 Q-10 71 -24.5 68 Q-39 65 -49 70.5 Q-59 76 -63.5 86.5 Q-68 97 -67 104 Q-68 123 -62 156.5 Q-56 190 -45.5 231.5 Q-35 273 -21 318.5 Q-7 364 7 407 Q21 450 34 487.5 Q47 525 56 549 L57 552 L56 552 L62 567 Q46 562 31 558 Q16 554 0 551 Q-20 547 -39.5 544.5 Q-59 542 -78 544 Q-111 547 -133 566 Q-135 568 -137 570 Q-139 572 -143 575 L-143 576 Q-143 576 -148 582.5 Q-153 589 -157 599.5 Q-161 610 -162 624 Q-163 638 -157 653 Q-150 667 -136 678 Q-127 677 -132 666 Q-133 662 -136.5 652.5 Q-140 643 -142 635 Q-143 631 -144 624 Q-145 617 -144.5 608.5 Q-144 600 -139.5 592.5 Q-135 585 -126 579 Q-126 579 -125 578 Q-114 572 -100.5 569.5 Q-87 567 -73 568 Q-36 570 0.5 579.5 Q37 589 73 600 Q80 621 86 636.5 Q92 652 97 665.5 Q102 679 107 692.5 Q112 706 118 723 Q120 730 121.5 733 Q123 736 125 738 Q129 741 134 739.5 Q139 738 141 735 Q143 733 140.5 725 Q138 717 136 712 Q130 694 121 669.5 Q112 645 105 625 Q102 617 99 607 L112 610 Q117 612 125.5 614 Q134 616 143 618 Q149 620 153 620 Q158 622 164 623 Q170 624 175 626 Q178 626 181 627 Q183 627 184 627.5 Q185 628 187 628 Q206 632 243.5 637.5 Q281 643 320 645 Q331 645 346 644 Q361 643 375 639 Q389 635 399.5 628 Q410 621 412 608 Z " />
<glyph glyph-name="u" unicode="u" horiz-adv-x="234" d="M234 385 Q235 384 237 383 Q240 380 238 376 Q232 367 228 359 Q224 352 220.5 346.5 Q217 341 216 340 Q194 304 175 274 Q158 248 142 223.5 Q126 199 117 190 Q111 183 102 177 Q93 171 82 173 Q70 174 63 187 Q56 200 56 215 Q55 228 58.5 246 Q62 264 67 282 L67 291 Q65 288 61 282.5 Q57 277 53 271 Q46 261 43 256 Q40 251 32 241 Q29 236 24 230.5 Q19 225 14 222 Q0 214 -15.5 216.5 Q-31 219 -34 236 Q-35 242 -36 248 Q-37 254 -36 260 Q-35 272 -31.5 288 Q-28 304 -22.5 321.5 Q-17 339 -11.5 356 Q-6 373 0 385 Q4 393 9.5 393.5 Q15 394 20 392 Q27 389 26 384.5 Q25 380 24 375 Q16 352 8.5 328 Q1 304 -5 278 Q-7 269 -8 263 Q-9 257 -8 248 Q-9 241 -7.5 236.5 Q-6 232 -5 227 Q4 231 10 236.5 Q16 242 21 248 Q30 261 39 273.5 Q48 286 56 299 Q70 320 83 341 Q96 362 110 383 Q117 396 131 391 Q141 388 138 377 Q135 367 130 355 Q123 339 118 327.5 Q113 316 109.5 306 Q106 296 103 286.5 Q100 277 97 266 Q94 253 91.5 231.5 Q89 210 91 196 Q92 193 98.5 198.5 Q105 204 112.5 212.5 Q120 221 127 229.5 Q134 238 137 243 Q142 252 155 271 Q168 290 181.5 310 Q195 330 206 345 Q217 360 218 361 L234 385 L234 385 Z " />
<glyph glyph-name="v" unicode="v" horiz-adv-x="260" d="M260 385 Q262 383 263 381 Q265 377 260 377 L258 377 Q248 375 240 374 Q233 373 227 372.5 Q221 372 220 372 L168 365 Q140 361 133 360 Q126 359 125 357 Q109 331 93 303 Q77 275 61 249 Q52 232 40 219 Q28 206 12 209.5 Q-4 213 -11 230 Q-16 245 -16 260 Q-16 267 -16 289 Q-16 311 -13 335 Q-10 359 -3.5 377.5 Q3 396 15 396 Q19 396 23.5 395.5 Q28 395 30 390 Q30 388 29 380.5 Q28 373 27 370 Q26 362 25.5 358.5 Q25 355 24 352 Q23 349 22.5 345 Q22 341 21 334 Q18 314 16 293.5 Q14 273 15 252 Q15 248 15.5 243.5 Q16 239 17 232 Q26 241 29 245 Q47 267 61.5 291 Q76 315 90 339 Q97 353 104 366 Q111 379 118 393 Q121 399 128 398 Q133 397 137 395 Q141 393 141 388 Q141 381 144 380 Q145 379 151.5 379 Q158 379 167.5 380 Q177 381 186.5 382 Q196 383 203 383 L260 385 L260 385 Z " />
<glyph glyph-name="w" unicode="w" horiz-adv-x="277" d="M41 297 Q45 303 48 307.5 Q51 312 54 317.5 Q57 323 61.5 331 Q66 339 74 352 Q76 355 77 357.5 Q78 360 83 359 Q95 357 95 347 Q93 330 92.5 315 Q92 300 90 279 Q90 272 91 265 Q92 258 95 252 Q115 266 131.5 289 Q148 312 159 347 Q160 350 161 354.5 Q162 359 162 362 Q161 372 162 374.5 Q163 377 168 377 Q184 377 201 378 Q218 379 234 380 Q238 380 245.5 381 Q253 382 260 383 Q268 384 277 385 Q280 382 281 380 Q282 376 271 373 Q267 372 255.5 370.5 Q244 369 230 367.5 Q216 366 201 364.5 Q186 363 176 362 Q176 357 174 347 Q172 334 165 317.5 Q158 301 148 284.5 Q138 268 125.5 254.5 Q113 241 101.5 236 Q90 231 80 236.5 Q70 242 65 264 Q63 272 63 278 Q63 284 62 293 Q62 296 62.5 299.5 Q63 303 63 307 Q59 301 52.5 289.5 Q46 278 38 265 Q33 256 24 241 Q15 226 4 216 Q-5 206 -18.5 209 Q-32 212 -36 226 Q-38 236 -38 243 Q-36 266 -31 284 Q-26 302 -18 331 Q-13 346 -9 360 Q-5 374 0 386 Q3 393 5.5 394.5 Q8 396 12 395 Q24 392 23 379 Q21 373 19.5 365.5 Q18 358 16 350 L1 290 Q-4 266 -7.5 251.5 Q-11 237 -9 233 Q-7 231 4.5 246 Q16 261 41 297 Z " />
<glyph glyph-name="x" unicode="x" horiz-adv-x="207" d="M207 385 Q209 384 210 382 Q212 378 205 371 Q195 360 189.5 354 Q184 348 174 338 Q168 332 161.5 324 Q155 316 147 308 Q147 308 139.5 299.5 Q132 291 120.5 278.5 Q109 266 94.5 250 Q80 234 66 218 L62 214 Q59 211 53.5 208.5 Q48 206 40 208 L40 209 Q38 209 36 211 Q30 215 28 221 Q26 227 25 232 L23 283 Q21 282 15 275 Q9 268 7 266 Q2 261 -5.5 253.5 Q-13 246 -20 239 Q-27 232 -32 226.5 Q-37 221 -38 220 Q-42 217 -46 215 Q-50 213 -55 216 Q-60 219 -58.5 222.5 Q-57 226 -55 229 Q-51 235 -41 247 Q-31 259 -20 272.5 Q-9 286 0.5 297 Q10 308 15 313 Q23 321 23 331 Q21 346 20 355.5 Q19 365 17 378 Q12 377 7 375 Q2 373 0 371 Q-5 367 -9.5 363 Q-14 359 -21 349 Q-24 343 -25.5 337 Q-27 331 -18 325 Q-28 325 -33 330 Q-38 335 -37 343 Q-36 349 -34 353 Q-32 357 -29 362 Q-24 368 -18.5 372.5 Q-13 377 -7 381 Q-2 384 3 385.5 Q8 387 13 388 Q27 389 33 381 Q36 377 37 372 L41 338 Q49 346 58.5 354.5 Q68 363 76 370 Q81 375 86 379.5 Q91 384 96 388 Q102 393 105.5 392.5 Q109 392 117 386 Q115 384 112.5 381 Q110 378 108 376 Q94 362 81.5 348 Q69 334 55 320 Q45 310 46 296 L46 294 L47 285 L49 246 L49 234 L49 233 Q50 233 50 232 L50 231 L50 230 L67 247 L99 279 Q112 292 130 309.5 Q148 327 164.5 343.5 Q181 360 193 371.5 Q205 383 207 385 Z " />
<glyph glyph-name="y" unicode="y" horiz-adv-x="214" d="M214 385 Q216 384 217 382 Q219 379 216 375 L188 347 L119 277 Q114 271 108.5 265.5 Q103 260 98 254 Q92 246 89 239 Q76 187 60.5 136 Q45 85 27 37.5 Q9 -10 -10.5 -50.5 Q-30 -91 -51 -122 Q-59 -133 -68.5 -144 Q-78 -155 -89 -164 Q-92 -166 -94.5 -168 Q-97 -170 -100 -172 Q-105 -175 -109 -177.5 Q-113 -180 -118 -182 Q-136 -190 -145 -186.5 Q-154 -183 -155 -183 Q-164 -177 -165 -163.5 Q-166 -150 -163.5 -136 Q-161 -122 -156.5 -108.5 Q-152 -95 -149 -89 Q-132 -49 -112.5 -11 Q-93 27 -70 64 Q-47 100 -22.5 136.5 Q2 173 30 206 Q32 208 39.5 217 Q47 226 55 236 Q59 249 62 259 Q65 269 67 277 Q70 286 72 293 Q64 282 57.5 272.5 Q51 263 44 252 Q39 245 33 238.5 Q27 232 21 225 Q17 221 14 219 Q5 211 -4 210.5 Q-13 210 -20.5 213.5 Q-28 217 -33 223.5 Q-38 230 -40 237 Q-45 263 -39 292 Q-32 321 -21.5 348 Q-11 375 8 393 Q21 389 19 382 Q17 377 13.5 369.5 Q10 362 8 357 Q1 344 -5 322.5 Q-11 301 -15 278 Q-19 258 -16 236 L-14 234 Q-9 238 -5.5 241 Q-2 244 2 248 Q19 265 33 285 Q47 305 61 325 Q69 336 75 347.5 Q81 359 88 370 Q90 373 95 378 Q100 383 106 382 Q112 381 115.5 375 Q119 369 118 363 Q118 361 117 360 L117 358 Q116 356 116 354 Q116 352 115 350 Q112 336 109 322.5 Q106 309 102 293 Q100 285 99 280 Q121 300 139 318 Q155 333 170.5 346.5 Q186 360 192 365 Q192 366 193 367 L194 367 L214 385 Z M46 183 Q44 184 37.5 177 Q31 170 24 161.5 Q17 153 11.5 145 Q6 137 5 137 L5 136 Q-22 98 -47 58.5 Q-72 19 -95 -23 Q-111 -52 -123.5 -83 Q-136 -114 -144 -146 Q-145 -151 -145.5 -157 Q-146 -163 -144 -170 Q-140 -167 -136 -166 Q-134 -164 -131 -162.5 Q-128 -161 -126 -159 Q-122 -155 -118 -151.5 Q-114 -148 -110 -145 Q-91 -125 -73.5 -97 Q-56 -69 -43 -43 Q-30 -17 -22 1.5 Q-14 20 -13 21 L46 183 Z " />
<glyph glyph-name="z" unicode="z" horiz-adv-x="190" d="M190 385 Q192 384 193 382 Q195 379 192 375 Q192 375 186 369 Q180 363 164.5 347.5 Q149 332 122.5 304 Q96 276 54 232 Q54 216 50 193.5 Q46 171 37 139 Q23 95 7.5 52 Q-8 9 -27 -33 Q-37 -56 -49 -78.5 Q-61 -101 -76 -122 Q-85 -136 -95.5 -147.5 Q-106 -159 -120 -169 Q-127 -174 -134.5 -178 Q-142 -182 -150 -186 Q-157 -189 -167 -187 Q-200 -182 -194 -149 Q-191 -138 -188 -126 Q-185 -114 -180 -103 Q-161 -59 -140.5 -17.5 Q-120 24 -95 64 Q-79 88 -62 112 Q-45 136 -28 160 Q-26 161 -25.5 162 Q-25 163 -23 165 Q-23 166 -21 168 Q-10 182 0.5 196.5 Q11 211 22 225 Q24 227 24.5 228 Q25 229 27 231 Q27 242 25 248 Q23 254 20 256.5 Q17 259 13.5 258.5 Q10 258 7 257 Q2 254 -3.5 251 Q-9 248 -14 245 Q-21 241 -28 249 Q-33 256 -27 262 Q-25 264 -24.5 265 Q-24 266 -22 268 Q-10 279 1 293 Q10 304 19.5 319.5 Q29 335 36 352 Q37 354 37.5 357 Q38 360 40 365 Q40 366 40.5 367 Q41 368 41 370 Q41 371 41.5 372 Q42 373 42 375 Q43 383 37.5 384.5 Q32 386 27 384 Q10 379 -3.5 369 Q-17 359 -29 345 Q-37 348 -31 354 Q-20 368 -6.5 379.5 Q7 391 24 396 Q26 397 35.5 398.5 Q45 400 52 393 Q53 392 55 388 Q58 383 58 379 Q59 374 58.5 369 Q58 364 57 359 Q54 343 48 331 Q41 318 33.5 307.5 Q26 297 19 289 Q11 279 2 271 L-8 263 Q5 272 16 276 Q26 279 36 276 Q46 273 52 258 Q61 267 79.5 284.5 Q98 302 118.5 321 Q139 340 158.5 358 Q178 376 190 385 Z M-39 16 Q-27 48 -16.5 78 Q-6 108 2 133 Q11 161 19 188 L16 183 Q2 165 -8 151.5 Q-18 138 -21 134 Q-73 59 -119 -23 Q-136 -52 -148 -83 Q-160 -114 -168 -146 Q-170 -151 -170.5 -157 Q-171 -163 -168 -170 Q-144 -156 -123 -131 Q-102 -106 -85.5 -78 Q-69 -50 -57 -24.5 Q-45 1 -39 16 Z " />
<glyph glyph-name="D" unicode="D" horiz-adv-x="427" d="M176 628 Q169 623 162 620 Q155 617 148 612 Q109 588 73 555 Q37 522 5 477 Q-21 440 -40 395 Q-42 388 -44 381.5 Q-46 375 -48 367 Q-50 361 -50.5 355 Q-51 349 -47 344 Q-57 342 -59 358 Q-61 372 -58 383 Q-53 403 -46 420 Q-39 437 -31 454 Q-14 485 4.5 510 Q23 535 45 557 Q111 626 184 659 Q190 662 191 669 Q196 682 200.5 695 Q205 708 210 721 Q211 723 211.5 724.5 Q212 726 213 728 Q218 738 223 736 Q231 733 228 720 Q226 712 225 704.5 Q224 697 222 689 Q221 685 220.5 681 Q220 677 218 672 Q224 674 230 675 Q236 676 241 676 Q291 681 328 655 Q365 629 386 565 Q395 536 396 504.5 Q397 473 392 439 Q387 407 377.5 376 Q368 345 357 316 Q340 271 320 229.5 Q300 188 278 146 Q252 95 223.5 46 Q195 -3 163 -49 Q137 -86 109.5 -119 Q82 -152 52 -181 Q35 -197 17.5 -210 Q0 -223 -19 -231 Q-32 -236 -45 -237.5 Q-58 -239 -70 -234 Q-89 -227 -99.5 -206.5 Q-110 -186 -110 -156 Q-111 -130 -106 -106 Q-101 -82 -93 -59 Q-55 48 14 108 Q19 111 22 120 Q42 191 62 260.5 Q82 330 103 400 Q120 455 138 508.5 Q156 562 174 616 Q175 618 175.5 621 Q176 624 177 626 Q176 626 176 628 Z M3 53 Q0 50 0 50 Q-31 15 -53 -30 Q-76 -76 -86 -126 Q-88 -141 -88.5 -155.5 Q-89 -170 -86 -184 Q-81 -213 -62 -217 Q-51 -220 -38 -215 Q-24 -210 -10.5 -201 Q3 -192 16 -181 Q42 -159 64.5 -132 Q87 -105 109 -75 Q159 -6 202.5 70 Q246 146 284 230 Q302 271 318 312 Q334 353 347 397 Q355 423 361 450 Q367 477 369 505 Q375 577 339 616 Q322 633 303 642 Q271 655 233 647 Q227 646 221.5 644.5 Q216 643 210 641 Q210 639 209.5 638 Q209 637 209 636 Q182 538 152 444 Q129 370 106.5 297 Q84 224 61 151 Q60 148 58 140 Q64 144 65 145 Q79 153 93 160.5 Q107 168 121 176 Q130 181 139.5 184 Q149 187 158 189 Q170 189 178 181 Q183 173 182.5 164 Q182 155 174 148 Q173 145 168 143 Q161 141 158 153 Q162 156 165 159 Q168 162 170 170 Q165 170 160 168 Q155 166 150 164 Q124 153 99 136.5 Q74 120 49 101 Q45 98 42 90 Q32 55 22 19.5 Q12 -16 1 -51 Q0 -53 -1 -55 Q-2 -57 -4 -58 Q-12 -61 -18 -55 Q-23 -49 -19 -38 Q-17 -28 -15 -18 Q-13 -8 -11 2 Q-8 14 -4.5 26.5 Q-1 39 3 53 Z " />
<glyph glyph-name="zero" unicode="0" horiz-adv-x="147" d="M118 456 Q106 459 95 451 Q95 451 97 449 Q124 428 121 397 Q119 385 116 372.5 Q113 360 111 347 Q102 315 90.5 285 Q79 255 64 226 Q59 215 52 205 Q45 195 35 187 Q30 183 23 181 Q16 179 8 182 Q-17 193 -21 219 Q-23 233 -22 246 Q-21 259 -19 272 Q-7 329 16 376 Q24 393 32.5 409 Q41 425 53 439 Q57 442 60 445.5 Q63 449 66 452 L66 453 Q70 459 72 460 Q81 462 90 464.5 Q99 467 110 464 Q112 463 114 462 Q116 461 118 456 Z M87 444 L82 439 Q76 430 70 421.5 Q64 413 60 403 Q43 371 32.5 337 Q22 303 13 267 Q11 256 9 243.5 Q7 231 7 218 Q7 215 7.5 210.5 Q8 206 8 203 Q11 205 14.5 202 Q18 199 19 201 Q25 209 31.5 216 Q38 223 42 231 Q54 250 62.5 273 Q71 296 78 318 Q84 336 88 354 Q92 372 97 390 Q102 403 97.5 417 Q93 431 87 444 Z " />
<glyph glyph-name="one" unicode="1" horiz-adv-x="116" d="M67 419 Q62 414 58 410 Q54 406 49 401 Q47 400 45.5 399 Q44 398 42 396 Q38 394 35 397 Q29 399 33 407 Q45 421 56.5 434.5 Q68 448 79 461 Q83 467 87 464 Q92 462 95 457 Q98 452 95 444 Q86 409 76 378 Q65 343 53.5 308.5 Q42 274 30 239 Q27 229 23 219 Q19 209 15 199 Q14 195 13 192 Q12 189 10 185 Q9 179 5 181 Q-5 186 -4 197 Q0 220 5.5 243 Q11 266 19 288 Q30 320 42 351 Q54 382 65 414 Q67 418 67 419 Z " />
<glyph glyph-name="two" unicode="2" horiz-adv-x="161" d="M86 451 Q81 448 76 445 Q71 442 66 439 Q58 432 50.5 426 Q43 420 35 413 Q31 409 30 407 Q30 401 24 403 Q21 404 18.5 406.5 Q16 409 17 413 Q18 415 20.5 418.5 Q23 422 25 424 Q44 447 67 462 Q81 470 94.5 462 Q108 454 107 437 Q108 425 103 412.5 Q98 400 93 389 Q79 360 63.5 332.5 Q48 305 31 279 Q23 268 13 254 Q3 240 -4 229 Q19 237 45.5 248.5 Q72 260 95 268 Q111 273 122 272 Q136 267 141 259 Q142 257 143 254.5 Q144 252 142 251 Q141 250 140 250 L136 250 Q134 249 132 249 Q130 249 128 248 Q104 241 81.5 231 Q59 221 38 210 Q25 204 13 198.5 Q1 193 -10 186 Q-29 179 -45 194 Q-51 199 -51.5 203 Q-52 207 -47 214 Q-28 243 -8 273 Q12 303 32 333 Q44 351 55 369.5 Q66 388 77 408 Q81 416 83.5 424.5 Q86 433 87 442 Q88 444 87.5 445.5 Q87 447 88 449 Q88 449 86 451 Z " />
<glyph glyph-name="three" unicode="3" horiz-adv-x="165" d="M100 455 Q96 453 93 453 Q90 453 88 451 Q69 443 53.5 433 Q38 423 24 409 Q22 408 21.5 406 Q21 404 19 402 Q14 402 12 405 Q9 412 12 415 Q20 426 29 432 Q42 442 55.5 450 Q69 458 86 463 Q92 467 99 465 Q108 463 111.5 456 Q115 449 112 439 Q106 419 92 400 L74 370 Q73 369 73 368.5 Q73 368 72 367 Q77 366 81.5 366 Q86 366 91 364 Q107 361 116 347.5 Q125 334 123 317 Q121 306 117 298 Q113 290 108 282 Q90 257 67.5 238 Q45 219 19 203 Q9 198 -1 192.5 Q-11 187 -23 185 Q-36 180 -45 192 Q-53 200 -44 207 Q-36 219 -20 227 Q-15 229 -11 226 Q-7 220 -12 216 Q-14 215 -18 211 L-15 211 Q11 227 34 244.5 Q57 262 78 284 Q84 291 89.5 298.5 Q95 306 100 315 Q102 320 103.5 325 Q105 330 104 336 Q103 345 95 345 Q88 345 81 344 Q74 343 68 342 Q64 342 60 340 Q47 336 38 350 Q33 357 38 362 Q55 380 70 400 Q78 410 85 421.5 Q92 433 98 445 Q99 447 99.5 449 Q100 451 101 453 Q101 454 100 455 Z " />
<glyph glyph-name="four" unicode="4" horiz-adv-x="151" d="M82 362 Q80 358 78 355.5 Q76 353 74 351 Q63 340 51 334 Q36 328 25 341 Q15 353 18 365 Q20 372 22 378.5 Q24 385 26 392 Q33 410 44 430.5 Q55 451 64 458 Q70 462 76 453 Q76 450 75 449 Q65 433 58 416 Q51 399 44 382 Q42 376 40.5 370 Q39 364 37 358 Q37 359 35 351 Q37 352 38 352 Q39 352 40 353 Q51 358 60 365.5 Q69 373 77 381 Q82 386 86 391 Q90 396 95 401 Q97 403 97.5 405 Q98 407 100 409 Q106 422 112 434 Q118 446 123 460 Q128 465 132 461 Q136 459 140 456 Q141 448 139 443 Q137 438 136 436 Q128 413 123 395.5 Q118 378 110 355 Q102 329 94 306.5 Q86 284 78 258 Q73 243 67.5 224 Q62 205 57 189 Q55 182 51 186 Q41 188 43 196 Q45 206 49 222.5 Q53 239 55 247 Q60 269 63 283.5 Q66 298 68.5 309 Q71 320 73.5 330.5 Q76 341 80 355 Q80 356 81.5 358 Q83 360 82 362 Z " />
<glyph glyph-name="five" unicode="5" horiz-adv-x="157" d="M83 326 Q78 324 74.5 322 Q71 320 66 319 Q60 315 54 312 Q48 309 41 304 Q27 297 15 312 Q13 316 11.5 319 Q10 322 12 327 Q16 337 19.5 348 Q23 359 28 370 Q33 383 38.5 396 Q44 409 50 423 Q52 429 54 433 Q63 452 83 455 Q98 457 111.5 459.5 Q125 462 139 464 Q149 466 151 462 Q153 462 155 456 Q155 453 150 453 Q142 451 133 448.5 Q124 446 116 444 Q111 442 105 441 Q99 440 94 438 Q83 436 79 426 Q74 417 69 404 Q62 387 56 370.5 Q50 354 44 337 Q46 338 48 338 Q53 340 59 343 Q65 346 72 346 Q89 348 99 335 Q109 322 104 303 Q102 292 97 283.5 Q92 275 87 267 Q72 247 56 229.5 Q40 212 20 198 Q14 193 7.5 190 Q1 187 -7 186 Q-16 184 -26 189.5 Q-36 195 -40 204 Q-44 211 -42.5 217 Q-41 223 -37 228 Q-33 232 -29.5 235.5 Q-26 239 -22 241 Q-15 245 -8.5 248 Q-2 251 6 255 Q10 257 17 252 Q17 248 16 246 Q8 241 0.5 236 Q-7 231 -14 226 Q-16 223 -18.5 219.5 Q-21 216 -23 212 Q-25 210 -25 207 Q-25 204 -26 202 Q-23 204 -20.5 204 Q-18 204 -16 205 Q-7 210 1 216.5 Q9 223 17 230 Q33 244 46.5 259.5 Q60 275 71 294 Q74 300 77 307 Q80 314 82 321 Q82 323 83 326 Z " />
<glyph glyph-name="six" unicode="6" horiz-adv-x="147" d="M13 268 Q21 272 29 275.5 Q37 279 45 282 Q51 284 57.5 286 Q64 288 70 286 Q79 285 86 278 Q94 270 90 261 Q87 256 84.5 250.5 Q82 245 78 240 Q69 227 59.5 215.5 Q50 204 38 196 Q33 190 24 186 Q9 178 -3.5 186 Q-16 194 -20 208 Q-22 219 -21.5 228.5 Q-21 238 -19 248 Q-14 280 -2 308.5 Q10 337 25 364 Q34 381 45 397 Q56 413 68 429 Q75 437 81.5 444.5 Q88 452 96 457 Q101 459 105 461.5 Q109 464 114 462 Q118 460 121 457 Q122 457 121.5 455.5 Q121 454 120 454 Q112 452 109 446 Q97 435 88 422 Q79 409 69 395 Q52 366 38 336 Q24 306 13 273 L13 268 Z M2 197 Q24 209 39 227 Q54 245 66 265 Q57 262 47.5 258.5 Q38 255 30 250 Q28 248 28 247 Q27 243 23 243 Q21 243 19 243.5 Q17 244 15 244 Q13 246 7 250 Q4 237 2 224 Q0 211 2 197 Z " />
<glyph glyph-name="seven" unicode="7" horiz-adv-x="146" d="M42 320 Q40 322 38.5 322.5 Q37 323 35 324 Q28 330 36 332 Q43 336 51 339 Q56 342 57 345 Q67 362 76.5 379 Q86 396 96 413 Q101 421 103.5 428.5 Q106 436 109 444 Q109 448 110 452 Q108 452 106 451.5 Q104 451 101 450 Q90 445 78.5 442 Q67 439 55 434 Q47 433 39 428 Q35 426 31.5 429.5 Q28 433 27 436 Q26 439 30 441 Q32 443 35 443.5 Q38 444 41 446 Q53 451 66 456.5 Q79 462 93 464 Q102 467 110 464 Q130 457 125 432 Q121 412 110 390 Q106 379 100.5 370.5 Q95 362 91 351 Q89 349 89 349 Q91 347 91.5 347 Q92 347 93 345 Q97 341 92 339 Q92 338 91 338 L89 338 Q84 338 82 335 Q80 332 78 328 Q61 299 43.5 270 Q26 241 9 211 Q5 206 1.5 200.5 Q-2 195 -7 190 Q-10 185 -14 185 Q-18 182 -22.5 184 Q-27 186 -28 190 Q-30 192 -28 194 Q-27 195 -26.5 196.5 Q-26 198 -24 200 Q-16 212 -10 226 Q-4 240 4 254 Q14 270 22.5 286 Q31 302 41 318 Q41 319 41.5 319 Q42 319 42 320 Z " />
<glyph glyph-name="eight" unicode="8" horiz-adv-x="145" d="M117 445 Q116 446 115 446 Q114 446 113 447 Q110 452 106 451.5 Q102 451 97 450 Q57 438 49 385 Q48 377 49 368 Q50 359 52 348 L56 352 Q73 372 89 391 Q105 410 121 430 Q124 433 126 436.5 Q128 440 130 442 Q130 447 133 446 Q134 445 136 443.5 Q138 442 137 440 Q137 433 135 429 Q129 418 122.5 408.5 Q116 399 110 389 Q84 356 59 326 Q58 322 59 317 Q63 293 62 269 Q61 245 53 222 Q51 215 48.5 209 Q46 203 44 198 Q29 177 7 184 Q-17 195 -25 223 Q-27 231 -26 238.5 Q-25 246 -23 254 Q-16 271 -7 280 Q3 292 12.5 303.5 Q22 315 32 326 Q35 330 35 336 Q30 357 29 379 Q26 410 39 431 Q52 452 73 459 Q80 461 87.5 462 Q95 463 103 461 Q114 458 117 445 Z M39 296 L38 296 Q37 296 35 294 Q30 286 23.5 277.5 Q17 269 12 261 Q5 251 -1 236 Q-4 222 0 209 Q4 203 8 206 Q16 211 19 219 Q32 242 35 272 Q37 277 37.5 283.5 Q38 290 39 296 Z " />
<glyph glyph-name="nine" unicode="9" horiz-adv-x="150" d="M37 341 Q48 346 57 352 Q65 358 72.5 367 Q80 376 87 387 Q103 409 115 436 Q116 438 117 440.5 Q118 443 121 443 Q126 442 132 436 Q135 432 133 428 Q119 390 105 351.5 Q91 313 78 275 Q69 254 62.5 233 Q56 212 48 191 Q47 189 47 187 Q47 185 45 184 Q42 177 37 182 Q30 184 30 191 Q39 226 47.5 260 Q56 294 69 327 Q72 331 72 338 Q70 335 65 332 Q60 328 55 325.5 Q50 323 44 323 Q33 322 22.5 333.5 Q12 345 13 360 Q15 371 18.5 380 Q22 389 27 399 Q38 417 51.5 431.5 Q65 446 82 455 Q96 461 109 463 Q117 465 124 462.5 Q131 460 138 455 Q138 454 139 454 L140 453 Q140 452 140.5 451.5 Q141 451 141 449 Q138 449 138 449 Q130 454 121.5 453 Q113 452 105 448 Q96 442 85 434 Q74 426 65 415 Q57 402 50.5 389 Q44 376 38 360 Q36 355 36.5 351 Q37 347 37 341 Z " />
<glyph glyph-name="exclam" unicode="&#x21;" horiz-adv-x="128" d="M-24 143 Q-23 148 -22.5 152 Q-22 156 -22 161 Q-17 178 -12.5 193 Q-8 208 -4 225 Q3 260 12 292.5 Q21 325 30 357 Q47 416 67.5 473.5 Q88 531 108 588 Q121 623 132 658.5 Q143 694 154 729 Q156 731 157.5 734 Q159 737 159 740 Q160 743 164 742 Q166 740 167.5 735.5 Q169 731 167 726 Q166 713 162.5 701 Q159 689 157 678 Q145 630 131 585.5 Q117 541 104 495 Q88 443 72 390.5 Q56 338 41 286 Q35 266 28 246 Q21 226 14 207 Q9 190 3 173 Q-3 156 -9 139 Q-9 128 -10 123 Q-12 115 -16 118 Q-18 119 -20 120.5 Q-22 122 -22 125 Q-22 133 -24 143 Z M-39 14 Q-38 14 -38 13 Q-32 10 -39 5 Q-41 1 -47 1 Q-49 0 -51.5 1.5 Q-54 3 -55 6 Q-59 11 -55 13 Q-53 16 -49.5 19 Q-46 22 -44 24 Q-42 25 -41.5 24.5 Q-41 24 -39 24 Q-35 20 -39 14 Z " />
<glyph glyph-name="parenleft" unicode="&#x28;" horiz-adv-x="136" d="M-1 129 Q-3 97 -4 74.5 Q-5 52 -5 31 Q-5 26 -1 26 Q3 25 3 14 Q2 7 -6 5 Q-16 5 -18 20 Q-20 29 -21 38 Q-22 47 -22 56 Q-24 91 -23.5 128 Q-23 165 -17 203 Q-14 232 -9 260 Q-4 288 3 316 Q17 373 34.5 428 Q52 483 73 536 Q89 576 108 612 Q127 648 148 683 Q158 697 168.5 711 Q179 725 191 736 Q195 740 199 743.5 Q203 747 208 748 Q214 750 217 742 Q219 740 217 736 Q215 734 214 735 Q210 735 210 733 Q205 727 200.5 721 Q196 715 192 710 Q163 668 141 620.5 Q119 573 99 522 Q81 475 66.5 426 Q52 377 39 328 Q31 299 25.5 271.5 Q20 244 15 215 Q10 189 6 166.5 Q2 144 -1 129 Z " />
<glyph glyph-name="parenright" unicode="&#x29;" horiz-adv-x="125" d="M-101 10 Q-99 12 -98.5 12 Q-98 12 -97 14 Q-85 41 -72.5 67 Q-60 93 -48 119 Q-33 151 -21 185 Q-9 219 2 252 Q22 315 38 376 Q54 437 65 501 Q73 537 77 573 Q81 609 81 647 Q82 667 79.5 686 Q77 705 69 724 Q67 727 66 730.5 Q65 734 61 735 Q61 735 59 737 Q58 739 58 741 Q58 743 57 745 Q62 747 64 746 Q76 741 81 730 Q99 701 103 667 Q106 645 106.5 623.5 Q107 602 106 580 Q100 484 78.5 394 Q57 304 24 216 Q14 190 2.5 166 Q-9 142 -22 118 Q-35 95 -46.5 73 Q-58 51 -72 29 Q-74 23 -78 17.5 Q-82 12 -85 7 Q-88 2 -93 3 Q-98 4 -101 10 Z " />
<glyph glyph-name="bracketleft" unicode="&#x5b;" horiz-adv-x="150" d="M173 742 Q184 741 194.5 740.5 Q205 740 216 736 Q218 734 220 733.5 Q222 733 224 731 Q227 728 228 725 Q230 725 230 720 Q230 718 225 718 Q221 718 217.5 718.5 Q214 719 211 719 Q198 721 185.5 719.5 Q173 718 161 716 Q153 716 148 705 Q139 685 133 665 Q121 624 108.5 584 Q96 544 83 503 Q72 460 59 415.5 Q46 371 35 326 Q5 212 -22 98 Q-26 87 -28.5 75.5 Q-31 64 -34 53 Q-38 41 -37 40 Q-36 39 -27 36 Q-17 32 -7 31 Q3 30 14 34 Q16 35 18 36 Q20 37 23 39 Q30 42 35 37 Q39 31 35 27 Q30 20 24 17 Q18 14 13 12 Q-19 5 -50 23 Q-52 25 -53.5 26.5 Q-55 28 -57 30 Q-65 39 -68 49 Q-71 59 -66 73 Q-61 93 -56.5 112 Q-52 131 -48 149 Q-32 206 -17.5 261.5 Q-3 317 14 374 Q26 410 37 445.5 Q48 481 59 519 Q72 561 86.5 604 Q101 647 118 689 Q120 698 124 706.5 Q128 715 131 723 Q136 733 142 738 Q148 743 157 742 Q161 741 164.5 741.5 Q168 742 173 742 Z " />
<glyph glyph-name="bracketright" unicode="&#x5d;" horiz-adv-x="114" d="M122 725 Q118 725 114.5 725.5 Q111 726 107 725 Q98 723 88 721.5 Q78 720 68 718 Q60 716 55 716 Q49 716 46 722 Q43 728 48 731 Q53 733 57 734.5 Q61 736 66 738 Q74 740 82.5 741.5 Q91 743 99 745 Q112 747 119 744 Q143 736 139 702 Q137 680 131.5 659 Q126 638 121 617 Q101 531 79 447 Q57 363 32 278 Q17 228 1 179 Q-15 130 -33 80 Q-36 69 -40.5 58.5 Q-45 48 -51 38 Q-55 31 -59.5 27 Q-64 23 -69 20 Q-77 16 -84.5 12 Q-92 8 -100 6 Q-110 2 -120 16 Q-125 23 -118 26 Q-116 27 -114 27 Q-93 31 -78 56 Q-71 68 -66 81.5 Q-61 95 -56 108 Q-37 165 -18 221 Q1 277 17 334 Q34 393 50 451 Q66 509 82 569 Q90 599 98.5 629.5 Q107 660 116 690 Q117 703 121 719 Q122 721 122 725 Z " />
<glyph glyph-name="question" unicode="&#x3f;" horiz-adv-x="210" d="M129 692 Q129 690 129.5 689.5 Q130 689 130 688 L130 686 Q126 685 124 689 Q122 696 123 700 Q126 707 131 712 Q141 723 151 729 Q161 735 172 739 Q180 741 187.5 743.5 Q195 746 204 746 Q226 746 236.5 725.5 Q247 705 245 684 Q244 667 239.5 652 Q235 637 229 622 Q221 599 211 579 Q201 559 190 539 Q162 491 136 443.5 Q110 396 85 346 Q68 314 53 281.5 Q38 249 23 215 Q10 189 -2 162 Q-14 135 -28 109 Q-32 97 -39 83 Q-40 81 -40 81 Q-41 74 -47 78 Q-54 83 -51 93 Q-46 107 -41 121.5 Q-36 136 -31 149 Q-23 172 -14.5 194 Q-6 216 2 237 Q59 365 129 482 Q144 507 159.5 532 Q175 557 190 583 Q201 600 210 618 Q219 636 226 658 Q230 668 232.5 678 Q235 688 235 700 Q235 728 213 731 Q203 733 194.5 730.5 Q186 728 175 725 Q153 717 134 698 Q132 697 129 692 Z M-50 11 Q-49 10 -48 9.5 Q-47 9 -46 7 Q-44 2 -48 2 Q-56 0 -61 7 Q-65 12 -61 14 Q-59 18 -56 20.5 Q-53 23 -51 26 Q-47 28 -43 23 Q-43 20 -44 19 Q-46 17 -50 11 Z " />
<glyph glyph-name="braceleft" unicode="&#x7b;" horiz-adv-x="183" d="M67 365 Q80 351 78 326 Q78 322 76 312 Q72 286 65 260 Q58 234 53 208 Q47 185 41 160.5 Q35 136 29 111 Q27 100 26 87.5 Q25 75 27 62 Q29 40 41 29 Q48 21 56 26 Q60 28 60 29 Q69 35 77 26 Q80 21 79 18 Q75 11 70.5 8.5 Q66 6 60 5 Q55 4 50 6 Q45 8 38 11 Q28 17 19 26 Q10 35 4 47 Q-4 61 -7 76 Q-10 91 -8 107 Q-6 127 -1 146 Q4 165 8 185 Q16 211 23.5 236.5 Q31 262 39 288 Q44 302 47.5 316.5 Q51 331 53 348 Q53 356 50 359 Q46 362 42 366.5 Q38 371 37 377 Q35 381 39 387 Q44 392 48.5 396.5 Q53 401 57 406 Q79 426 93 453.5 Q107 481 115 513 Q123 544 131.5 574.5 Q140 605 148 636 Q153 653 158.5 670 Q164 687 172 701 Q179 714 187 724 Q195 734 206 741 Q207 743 208 743.5 Q209 744 210 745 Q221 750 226.5 747.5 Q232 745 240 735 Q241 734 241 733 L241 729 Q238 729 237 730 Q231 736 227 730 Q218 723 212 715 Q206 707 201 696 Q185 668 177 631 Q170 604 163.5 576 Q157 548 150 519 Q148 508 144 496 Q140 484 137 471 Q129 442 114.5 419 Q100 396 82 378 Q72 373 67 365 Z " />
<glyph glyph-name="braceright" unicode="&#x7d;" horiz-adv-x="150" d="M65 382 Q63 384 61.5 384.5 Q60 385 58 387 Q44 403 49 423 Q54 437 57.5 451 Q61 465 66 479 Q78 510 89.5 540 Q101 570 112 601 Q119 618 122.5 635 Q126 652 129 669 Q130 678 130.5 686 Q131 694 130 704 Q126 724 108 727 Q101 729 90.5 726.5 Q80 724 74 719 Q75 712 70 715 Q65 716 63 720 Q59 725 59.5 729.5 Q60 734 64 736 Q84 748 105 745 Q126 742 140 714 Q146 701 148 682 Q149 659 145 637 Q141 615 134 592 Q114 531 93 469 Q88 453 82 438.5 Q76 424 71 409 Q71 408 69 400 Q73 399 76.5 398 Q80 397 85 396 Q93 393 99 384 Q101 379 100.5 377 Q100 375 97 372 Q81 362 72 340 Q67 328 64 315 Q61 302 58 288 Q56 265 52.5 240 Q49 215 45 191 Q40 165 31 140 Q22 115 11 92 Q-6 57 -33 38 Q-44 30 -55 22.5 Q-66 15 -76 8 Q-83 3 -88 5 Q-93 7 -97 12 Q-103 17 -97 21 Q-83 35 -70.5 48.5 Q-58 62 -44 76 Q-25 101 -11 133 Q11 188 23 254 Q25 272 29 290 Q33 308 37 325 Q40 342 47.5 355.5 Q55 369 64 380 Q64 381 64.5 381 Q65 381 65 382 Z " />
<glyph glyph-name="slash" unicode="&#x2f;" horiz-adv-x="579" d="M437 726 Q431 731 436 739 Q441 747 446.5 755.5 Q452 764 458 773 Q460 778 464 774 Q470 771 472 763.5 Q474 756 471 748 Q466 737 463 728 Q460 719 455 709 Q439 674 420.5 641.5 Q402 609 382 575 Q325 478 267 380.5 Q209 283 150 186 Q117 129 83.5 72.5 Q50 16 16 -43 Q9 -54 2.5 -66 Q-4 -78 -11 -89 Q-15 -96 -20.5 -95.5 Q-26 -95 -28 -89 Q-29 -85 -27 -80 Q-21 -68 -15 -56 Q-9 -44 -2 -32 Q35 34 71.5 100.5 Q108 167 146 232 Q178 289 211 344.5 Q244 400 279 456 Q311 510 344 564 Q377 618 409 674 Q416 688 422.5 700 Q429 712 437 726 Z " />
<glyph glyph-name="bar" unicode="&#x7c;" horiz-adv-x="120" d="M-58 -97 Q-59 -96 -61 -96 Q-63 -96 -65 -95 Q-72 -91 -69 -83 Q-68 -80 -68 -76.5 Q-68 -73 -68 -70 Q-66 -65 -65 -60.5 Q-64 -56 -64 -51 Q-57 -17 -52 18 Q-48 33 -44.5 47.5 Q-41 62 -39 77 L-24 146 Q-12 208 4 263 Q26 350 49.5 433.5 Q73 517 98 602 Q107 632 116 661.5 Q125 691 136 722 Q136 727 137.5 730 Q139 733 139 737 Q142 744 147 741 Q160 737 156 723 Q151 703 147 685 Q143 667 138 648 Q120 580 101.5 513 Q83 446 65 380 Q45 302 25 224.5 Q5 147 -14 68 Q-22 31 -30.5 -7 Q-39 -45 -49 -83 Q-49 -86 -50 -88 Q-51 -97 -58 -97 Z " />
<glyph glyph-name="backslash" unicode="&#x5c;" horiz-adv-x="283" d="M50 697 Q53 684 55.5 672 Q58 660 63 646 Q74 592 86.5 540 Q99 488 114 435 Q128 382 141.5 329 Q155 276 167 220 Q184 157 197 93.5 Q210 30 224 -35 Q226 -46 228 -58.5 Q230 -71 232 -82 Q234 -86 230 -90 Q228 -96 223 -96 Q218 -96 215 -90 Q213 -79 211 -67 Q209 -55 206 -44 Q191 11 177.5 66 Q164 121 150 177 Q127 271 102.5 363.5 Q78 456 53 553 Q46 583 39.5 614.5 Q33 646 29 681 Q27 690 26 699.5 Q25 709 26 718 Q26 736 41 744 Q46 746 45 742 Q49 724 55 709 Q56 704 55 702.5 Q54 701 50 697 Z " />
<glyph glyph-name="ampersand" unicode="&#x26;" horiz-adv-x="209" d="M48 330 Q53 332 57 334 Q61 336 65 338 Q78 345 91 335 Q92 335 94 333 Q101 326 92 322 Q76 316 65 305.5 Q54 295 44 282 Q30 262 19.5 241 Q9 220 3 196 Q2 192 2 188.5 Q2 185 1 181 Q1 177 2 175 Q27 193 47 215 Q67 237 78 267 Q75 269 72.5 270 Q70 271 68 273 Q64 276 61 280 Q59 286 65 287 Q69 288 77 288 Q94 288 109.5 287.5 Q125 287 142 287 Q151 287 156 283 Q162 277 155 274 Q150 272 146 271.5 Q142 271 138 270 Q130 268 123.5 268 Q117 268 110 267 Q106 266 106 263 Q104 255 100 247.5 Q96 240 91 232 Q69 196 40 170 Q32 162 25 158 Q10 147 -5 152 Q-20 157 -27 174 Q-32 190 -29 212 Q-25 232 -16 249.5 Q-7 267 4 284 Q11 294 18 302 Q25 310 34 318 Q24 331 25 345.5 Q26 360 28 374 Q39 418 64 453 Q69 459 73.5 464.5 Q78 470 85 474 Q102 485 116 478 Q130 471 133 454 Q136 426 126 401 Q121 387 114 373.5 Q107 360 95 349 Q93 348 92.5 347.5 Q92 347 90 346 Q87 344 81 348 Q80 350 82 354 Q86 360 89.5 366 Q93 372 96 379 Q105 396 110.5 413.5 Q116 431 116 450 Q116 455 114 463 Q113 467 109 466 Q101 462 94 453 Q85 443 79 432.5 Q73 422 68 411 Q62 395 56.5 380 Q51 365 48 348 L48 330 Z " />
<glyph glyph-name="numbersign" unicode="&#x23;" horiz-adv-x="264" d="M64 353 Q69 354 78 354 Q88 355 98 355.5 Q108 356 119 356 Q123 356 124 360 Q132 374 139.5 389 Q147 404 152 419 L152 420 Q157 425 160 423 Q166 419 166 413 Q163 405 160.5 396.5 Q158 388 155 380 Q153 375 150.5 370 Q148 365 146 360 Q147 358 146.5 357.5 Q146 357 147 356 L150 356 Q163 355 176.5 354.5 Q190 354 203 354 Q208 354 212 353 Q216 352 220 351 Q228 351 230 343 Q231 342 231 341 Q231 340 233 339 Q232 339 231 338.5 Q230 338 228 338 L210 338 Q193 337 176 336 Q159 335 142 335 Q138 335 137 333 Q134 323 131 313.5 Q128 304 124 293 L124 292 Q126 293 133 293 L165 293 Q169 293 172.5 290 Q176 287 178 284 Q182 278 177 277 Q172 276 168 275 Q164 274 159 273 Q147 271 136 270 Q125 269 115 267 Q112 267 111 264 L81 183 Q78 180 77 177 Q74 174 71 176 Q64 178 68 182 Q69 187 69.5 191 Q70 195 72 200 Q76 216 80.5 231 Q85 246 88 261 Q87 262 87 263 Q84 262 81.5 261.5 Q79 261 76 261 Q65 259 53.5 257 Q42 255 31 253 Q29 251 27 251 Q14 218 10 186 Q8 182 6 182 Q1 183 -1 190 Q0 192 0 196 Q2 210 6 222.5 Q10 235 12 249 L12 251 Q10 252 6 254.5 Q2 257 0 261 Q-10 270 1 275 Q6 277 9 278.5 Q12 280 17 282 Q18 282 20 284 Q22 293 26 302 Q30 311 32 320 Q28 320 25.5 319.5 Q23 319 20 318 Q14 317 12 318.5 Q10 320 6 325 Q2 331 7 335 Q14 345 33 348 L35 348 Q45 348 45 357 Q47 367 51 375.5 Q55 384 58 394 Q61 402 62.5 409.5 Q64 417 68 425 Q68 430 70 433.5 Q72 437 74 441 Q77 444 78 443 Q87 440 85 431 Q83 424 82 417.5 Q81 411 81 404 Q76 392 71.5 380.5 Q67 369 65 357 Q64 357 64 353 Z M39 284 Q42 285 45 285 Q57 287 70 287.5 Q83 288 95 290 Q98 290 99 293 Q102 302 105 311.5 Q108 321 112 330 L112 331 Q112 332 113 333 Q111 333 109.5 332.5 Q108 332 106 332 L55 326 Q53 325 53.5 324.5 Q54 324 53 323 Q49 315 46.5 308 Q44 301 42 293 Q42 290 39 284 Z " />
<glyph glyph-name="equal" unicode="&#x3d;" horiz-adv-x="195" d="M21 265 Q19 266 16 266.5 Q13 267 11 268 Q3 271 0 280 Q-1 284 3 287 Q10 292 16 291 Q22 290 30 290 Q43 289 55.5 288 Q68 287 80 286 Q88 286 96 285.5 Q104 285 112 285 Q117 286 119.5 287 Q122 288 124 284 Q127 279 126 275.5 Q125 272 120 272 Q113 270 107 270 Q101 270 95 269 Q84 268 73 267.5 Q62 267 51 265 Q43 265 36 264.5 Q29 264 21 265 Z M50 331 Q44 332 39.5 334 Q35 336 32 342 Q29 351 38 352 Q48 354 57 354 Q66 354 76 353 Q91 351 106 350 Q121 349 135 347 L138 347 Q147 348 148 341 Q149 334 141 332 L124 332 Q109 331 94.5 331 Q80 331 64 330 Q61 330 57.5 330 Q54 330 50 331 Z " />
<glyph glyph-name="greater" unicode="&#x3e;" horiz-adv-x="235" d="M124 319 Q116 324 110 327.5 Q104 331 98 333 Q81 342 64.5 350.5 Q48 359 29 365 Q25 366 22 366.5 Q19 367 14 368 Q4 370 9 380 Q9 384 13 384 Q18 384 22 384.5 Q26 385 30 384 Q44 379 55 374 Q66 369 78 363 Q93 357 106.5 350 Q120 343 136 336 Q140 333 143.5 329.5 Q147 326 149 320 Q154 307 138 297 Q125 288 113 279.5 Q101 271 87 263 Q63 247 37.5 231.5 Q12 216 -14 201 Q-19 199 -22.5 196 Q-26 193 -31 189 Q-36 186 -41 189 Q-48 192 -46 201 Q-48 208 -41 211 Q-29 220 -17.5 227.5 Q-6 235 5 243 Q22 257 40 269 Q58 281 77 292 Q88 298 98.5 305 Q109 312 119 317 Q118 317 124 319 Z " />
<glyph glyph-name="less" unicode="&#x3c;" horiz-adv-x="203" d="M25 274 Q36 266 47 259 Q58 252 70 245 Q79 239 88 232.5 Q97 226 107 220 Q119 213 123 204 Q125 198 125 195 Q121 186 115 191 Q113 191 113.5 192 Q114 193 113 194 Q111 197 108.5 198.5 Q106 200 104 202 Q88 211 73 219 Q58 227 42 236 Q34 241 26 246 Q18 251 10 257 Q6 261 3.5 265.5 Q1 270 -2 275 Q-4 277 -3 280 Q-4 286 -2.5 289.5 Q-1 293 6 297 Q14 302 21.5 306.5 Q29 311 37 316 Q62 330 86.5 344.5 Q111 359 136 374 Q144 379 155 383 Q161 386 165.5 383.5 Q170 381 171 375 Q171 370 167 367 Q156 360 147 353.5 Q138 347 127 340 Q102 323 77.5 307.5 Q53 292 27 276 Q27 276 25 274 Z " />
<glyph glyph-name="plus" unicode="&#x2b;" horiz-adv-x="216" d="M100 325 Q116 323 130 324 Q144 325 160 327 Q162 327 163 327.5 Q164 328 166 329 Q173 331 176 325 Q178 323 176.5 321 Q175 319 172 318 Q154 312 135 309.5 Q116 307 98 308 Q95 308 93 303 Q87 286 81.5 270 Q76 254 69 238 Q64 227 59 217.5 Q54 208 49 199 Q46 196 44 196 Q31 196 34 208 Q39 233 47 255 Q55 277 64 300 Q64 302 66 304 Q60 303 54.5 303 Q49 303 44 303 Q38 302 31.5 302 Q25 302 20 302 Q10 304 8 309 Q4 313 9 314 Q14 318 24 318 Q35 320 47.5 321.5 Q60 323 71 324 Q73 325 74 328 Q82 347 89.5 365 Q97 383 104 402 Q106 407 108.5 411.5 Q111 416 113 421 Q116 428 121 426 Q130 424 130 415 Q127 410 127 404 Q119 384 113.5 366 Q108 348 101 329 Q101 328 100.5 327.5 Q100 327 100 325 Z " />
<glyph glyph-name="hyphen" unicode="&#x2d;" horiz-adv-x="254" d="M66 312 Q56 311 49.5 311 Q43 311 36 317 L35 317 Q29 323 30 327 Q34 331 41 331 Q50 333 60 334 Q70 335 81 336 Q100 336 126 335.5 Q152 335 179 333 Q180 333 182 331 Q184 329 181.5 324.5 Q179 320 176 320 Q158 314 142 313.5 Q126 313 106 312 L66 312 Z " />
<glyph glyph-name="semicolon" unicode="&#x3b;" horiz-adv-x="118" d="M33 349 L33 352 Q31 358 35 361.5 Q39 365 44 367 Q49 369 49 367 Q57 364 62.5 358.5 Q68 353 69 344 Q73 333 62 322 Q57 317 49 320 Q31 325 33 349 Z M34 252 Q32 248 31 244 Q30 240 28 236 Q22 228 17.5 221 Q13 214 8 206 Q6 204 4.5 201.5 Q3 199 1 197 Q1 196 0 195.5 Q-1 195 -1 196 Q-5 198 -10 203 Q-12 205 -10 208 Q-9 215 -5 222 Q4 241 15 259 Q19 265 25 264 Q34 260 34 252 Z " />
<glyph glyph-name="colon" unicode="&#x3a;" horiz-adv-x="143" d="M30 241 Q23 242 16.5 247.5 Q10 253 9 261 Q6 272 17 281 Q26 288 33 278 Q37 275 40 271 Q43 267 45 264 Q49 258 45 253 Q43 248 39 244.5 Q35 241 30 241 Z M57 333 Q51 333 45 338.5 Q39 344 36 350 Q34 360 40 364 Q55 385 69 358 Q69 357 69.5 356 Q70 355 70 354 Q74 346 70 339.5 Q66 333 57 333 Z " />
<glyph glyph-name="percent" unicode="&#x25;" horiz-adv-x="206" d="M-135 11 Q-141 15 -142 19 Q-144 22 -140 28 Q-132 40 -124.5 52.5 Q-117 65 -108 79 Q-72 139 -36.5 199 Q-1 259 34 319 Q75 384 115 447.5 Q155 511 195 575 Q200 583 205 590 Q210 597 215 605 Q222 614 228 609 Q237 602 230 590 Q222 578 215.5 566 Q209 554 202 542 L31 257 Q7 216 -16.5 176.5 Q-40 137 -65 97 Q-79 76 -94.5 56.5 Q-110 37 -126 19 Q-128 17 -130.5 15 Q-133 13 -135 11 Z M109 497 Q109 483 102 469 Q95 455 84 448 Q71 441 63 450 Q50 466 58 496 Q64 508 70 519 Q76 530 84 540 Q91 553 100 541 Q100 539 100.5 535.5 Q101 532 98 528 Q98 526 96 524.5 Q94 523 93 521 Q105 508 126 516 Q127 516 128.5 516.5 Q130 517 132 515 Q135 513 134 510 Q133 507 131 505 Q121 500 109 497 Z M73 473 Q74 473 75 472 Q79 476 82 480.5 Q85 485 89 490 Q91 495 90.5 497.5 Q90 500 85 504 Q82 496 79 488.5 Q76 481 73 473 Z M71 204 Q78 198 82 193 Q90 180 80 165 Q77 159 72 153 Q67 147 62 142 Q50 130 40 137 Q35 141 31.5 146.5 Q28 152 28 163 Q30 169 31.5 174 Q33 179 35 185 Q33 187 30.5 189.5 Q28 192 28 194 Q25 197 27 203 Q27 204 34 206 Q36 207 37 206.5 Q38 206 39 206 Q44 207 47.5 208 Q51 209 53 215 Q59 221 66 219 Q73 215 71 204 Z M56 169 Q58 172 60.5 175 Q63 178 66 183 Q61 185 59.5 182.5 Q58 180 56 169 Z " />
<glyph glyph-name="period" unicode="&#x2e;" horiz-adv-x="114" d="M0 231 Q0 241 6.5 244 Q13 247 21 245 Q30 240 31 232 Q32 230 31.5 227.5 Q31 225 31 223 Q30 222 29 220.5 Q28 219 27 218 Q19 207 7 215 Q0 222 0 231 Z " />
<glyph glyph-name="comma" unicode="&#x2c;" horiz-adv-x="121" d="M-12 183 L-9 189 Q-4 200 2 209 Q8 218 13 227 Q13 228 15 230 Q17 233 20 234.5 Q23 236 28 234 Q37 227 34 220 Q32 215 29 209 Q26 203 22 198 Q15 187 5 177 Q3 175 2 172.5 Q1 170 -4 172 Q-12 174 -12 183 Z " />
<glyph glyph-name="asterisk" unicode="&#x2a;" horiz-adv-x="104" d="M88 654 Q86 647 83.5 640.5 Q81 634 79 628 Q78 623 77 617.5 Q76 612 75 607 Q75 603 71 603 Q62 603 57 609 Q54 613 56 617 Q58 625 59.5 631 Q61 637 62 644 Q62 645 63 646 Q60 643 58 643 Q54 641 50.5 637.5 Q47 634 43 632 Q39 629 35 631 Q26 635 31 643 Q33 645 35 648.5 Q37 652 39 654 Q45 662 52 667.5 Q59 673 67 679 Q68 680 68.5 680 Q69 680 70 681 Q69 683 68.5 684 Q68 685 66 687 Q61 695 56.5 704 Q52 713 49 722 Q49 724 48 725.5 Q47 727 49 729 Q51 730 57 730 Q67 727 73 719 Q75 715 76 712.5 Q77 710 79 707 Q81 709 81 710.5 Q81 712 82 714 Q87 725 92 737 Q94 742 99 742 Q104 742 108 737 Q110 736 108 730 Q107 721 103 708 L103 705 L105 707 Q112 711 117.5 714.5 Q123 718 129 723 Q132 724 138 726 Q140 727 141 726.5 Q142 726 143 726 Q154 723 145 716 Q134 706 122 696.5 Q110 687 99 678 Q97 676 98 672 Q104 660 110 646.5 Q116 633 122 619 Q123 617 123 614 Q118 612 116 613 Q108 615 107 620 Q102 628 98.5 635 Q95 642 90 648 Q89 650 89 651 Q89 652 88 654 Z " />
<glyph glyph-name="asciicircum" unicode="&#x5e;" horiz-adv-x="110" d="M102 717 Q97 712 93.5 708 Q90 704 86 699 Q77 690 68.5 680.5 Q60 671 51 663 Q49 661 47 660 Q45 659 45 657 Q40 654 33 656 Q28 659 31 662 Q43 676 55.5 690 Q68 704 80 718 Q85 723 89 727 Q93 731 97 736 Q99 738 101.5 740 Q104 742 109 741 Q122 739 123 731 Q125 726 125 715 Q125 700 124.5 684.5 Q124 669 120 654 L120 651 Q121 649 116 647 Q111 647 106.5 649.5 Q102 652 102 655 Q99 684 102 713 L102 717 Z " />
<glyph glyph-name="quotedbl" unicode="&#x22;" horiz-adv-x="111" d="M102 733 Q102 725 97 712 Q94 702 90 692.5 Q86 683 81 672 Q81 670 79 669 Q77 668 74 670 Q72 670 70 671 Q68 672 65 673 Q62 675 64 680 Q69 694 74 709 Q79 724 85 738 Q86 746 93 744 Q102 744 102 733 Z M133 733 Q131 729 130.5 725.5 Q130 722 128 717 Q123 707 119 697.5 Q115 688 110 678 Q110 677 109 677 Q108 676 106 676 Q100 676 96.5 679.5 Q93 683 94 688 Q97 699 100.5 710.5 Q104 722 108 733 Q110 739 113 742 Q114 744 118 744 Q131 744 133 733 Z " />
<glyph glyph-name="quotesingle" unicode="&#x27;" horiz-adv-x="59" d="M34 680 Q36 687 37 695 Q38 703 40 711 Q42 719 43.5 725 Q45 731 48 739 Q51 746 60 743 Q70 738 67 729 Q66 717 62 704 Q60 694 57 685.5 Q54 677 51 668 Q49 663 44 664 Q34 666 34 680 Z " />
<glyph glyph-name="asciitilde" unicode="&#x7e;" horiz-adv-x="169" d="M71 307 Q74 309 77 310 Q80 311 82 313 L103 325 Q109 329 116 323 Q119 320 117 317 Q116 315 114.5 312.5 Q113 310 111 308 Q94 296 85 287 Q78 281 70 283 Q56 287 49 298 Q48 301 48.5 304 Q49 307 48 310 L48 321 Q44 317 43 315 Q38 310 33 306 Q28 302 23 297 Q22 296 20.5 295.5 Q19 295 18 294 Q11 291 7 295 Q4 298 7 301 Q9 304 11.5 307.5 Q14 311 17 314 Q22 319 26 324.5 Q30 330 35 336 Q37 338 39 339 Q41 340 43 342 Q48 347 55 344 Q68 340 69 328 Q70 323 70.5 318.5 Q71 314 71 309 L71 307 Z " />
<glyph glyph-name="grave" unicode="&#x60;" horiz-adv-x="88" d="M83 644 Q81 633 76 638 Q71 641 68 647 Q62 661 56.5 675 Q51 689 47 705 Q45 713 44 720 Q43 727 41 734 Q39 745 47 742 Q53 739 58 730 Q58 730 60 726 Q66 709 72 691.5 Q78 674 82 654 Q82 648 83 644 Z " />
<glyph glyph-name="dollar" unicode="&#x24;" horiz-adv-x="213" d="M108 416 Q104 401 99 386 Q94 371 89 357 Q87 349 84 343 Q81 337 81 330 Q82 324 87 318 Q92 312 97 306 Q108 289 113 270 Q118 251 117 232.5 Q116 214 109 196.5 Q102 179 89 166 Q75 154 58.5 149 Q42 144 22 149 Q19 138 16 127 Q13 116 10 105 Q5 94 2.5 83 Q0 72 -3 61 Q-24 60 -21 75 Q-17 105 -9 135 Q-7 142 -6 148.5 Q-5 155 -3 161 Q-8 169 -14.5 174.5 Q-21 180 -26 188 Q-33 197 -37.5 206.5 Q-42 216 -46 226 Q-53 242 -47.5 255 Q-42 268 -30 274 Q-25 277 -21.5 277 Q-18 277 -14 270 Q-22 262 -29 252 Q-36 242 -31 228 Q-28 213 -19.5 201 Q-11 189 0 178 Q3 187 5.5 195.5 Q8 204 11 212 Q19 242 27.5 272 Q36 302 42 332 Q47 344 39 357 Q14 406 50 439 Q58 447 67 449.5 Q76 452 87 454 Q92 466 97 478 Q102 490 108 502 Q111 510 116 518 Q116 520 119 522 Q122 524 124 523 Q126 521 130 518.5 Q134 516 135 513 Q136 506 133 497 Q129 482 125 467 Q121 452 116 437 Q135 415 139 389 Q141 379 139.5 369.5 Q138 360 132 352 Q134 345 127 342 Q123 338 118 341 Q115 343 113 351 Q113 355 115 358.5 Q117 362 118 366 Q127 391 108 416 Z M74 307 Q71 302 63.5 282.5 Q56 263 49 240.5 Q42 218 37 198.5 Q32 179 33 174 Q51 180 64.5 196 Q78 212 84 231.5 Q90 251 88 271.5 Q86 292 74 307 Z M70 413 Q53 401 55 376 Q59 386 63.5 395 Q68 404 70 413 Z " />
<glyph glyph-name="at" unicode="&#x40;" horiz-adv-x="242" d="M91 247 Q78 235 66.5 230 Q55 225 44 231 Q27 239 21.5 252.5 Q16 266 21 282 Q37 324 72 343 Q100 356 115 337 Q119 327 119 319 Q119 312 115.5 305 Q112 298 104 298 Q102 298 100 301.5 Q98 305 96 307 Q94 311 96 316 Q96 318 96.5 320.5 Q97 323 97 325 Q89 322 83 316 Q77 310 72 303 Q67 295 62 287.5 Q57 280 55 271 Q53 266 54.5 262 Q56 258 57 253 Q65 255 72.5 261.5 Q80 268 85 275 Q88 278 90.5 282.5 Q93 287 98 289 Q104 291 108.5 287.5 Q113 284 117 279 Q119 275 122 272 Q130 281 135 288 Q140 295 144 304 Q154 322 161.5 342.5 Q169 363 170 378 Q171 390 169 407 Q167 424 156 434 Q145 444 129 442.5 Q113 441 100 438 Q81 431 66 420.5 Q51 410 39 398 Q8 370 -6.5 331.5 Q-21 293 -31 258 Q-36 236 -39 214 Q-42 192 -40 172 Q-38 152 -33 133.5 Q-28 115 -12 101 Q3 88 25 89 Q35 89 45.5 94 Q56 99 65.5 106 Q75 113 84 121 Q93 129 101 134 Q113 142 115 138.5 Q117 135 110 127 Q105 122 85.5 107 Q66 92 40 83 Q19 76 -1 81 Q-24 89 -36 107 Q-45 118 -50 130 Q-55 142 -58 155 Q-61 165 -61.5 179.5 Q-62 194 -61.5 209.5 Q-61 225 -58.5 241.5 Q-56 258 -52 272 Q-48 285 -43.5 297 Q-39 309 -34 323 Q-12 375 21 412 Q39 431 60 446 Q84 460 105 465.5 Q126 471 152 461 Q176 451 190 430 Q203 408 201 383.5 Q199 359 192 337 Q185 314 169 291 Q163 281 154.5 271.5 Q146 262 136 257 Q117 251 104 264 L91 247 Z " />
<glyph glyph-name="underscore" unicode="&#x5f;" horiz-adv-x="316" d="M241 232 Q246 231 246 224 Q245 222 243.5 219 Q242 216 240 215 Q236 213 232.5 213 Q229 213 224 212 L123 212 L27 212 L4 212 L4 213 L-4 213 Q-12 215 -13.5 217.5 Q-15 220 -16 226 Q-16 230 -7 232 Q2 234 14 234.5 Q26 235 38 235 Q50 235 56 235 Q86 234 113 234.5 Q140 235 169 235 Q194 235 209 234.5 Q224 234 241 232 Z " />
<glyph glyph-name="quotedblleft" unicode="&#x201c;" horiz-adv-x="115" d="M102 733 Q102 725 97 712 Q94 702 90 692.5 Q86 683 81 672 Q81 670 79 669 Q77 668 74 670 Q72 670 70 671 Q68 672 65 673 Q62 675 64 680 Q69 694 74 709 Q79 724 85 738 Q86 746 93 744 Q102 744 102 733 Z M133 733 Q131 729 130.5 725.5 Q130 722 128 717 Q123 707 119 697.5 Q115 688 110 678 Q110 677 109 677 Q108 676 106 676 Q100 676 96.5 679.5 Q93 683 94 688 Q97 699 100.5 710.5 Q104 722 108 733 Q110 739 113 742 Q114 744 118 744 Q131 744 133 733 Z " />
<glyph glyph-name="quotedblright" unicode="&#x201d;" horiz-adv-x="115" d="M102 733 Q102 725 97 712 Q94 702 90 692.5 Q86 683 81 672 Q81 670 79 669 Q77 668 74 670 Q72 670 70 671 Q68 672 65 673 Q62 675 64 680 Q69 694 74 709 Q79 724 85 738 Q86 746 93 744 Q102 744 102 733 Z M133 733 Q131 729 130.5 725.5 Q130 722 128 717 Q123 707 119 697.5 Q115 688 110 678 Q110 677 109 677 Q108 676 106 676 Q100 676 96.5 679.5 Q93 683 94 688 Q97 699 100.5 710.5 Q104 722 108 733 Q110 739 113 742 Q114 744 118 744 Q131 744 133 733 Z " />
<glyph glyph-name="quoteleft" unicode="&#x2018;" horiz-adv-x="59" d="M34 680 Q36 687 37 695 Q38 703 40 711 Q42 719 43.5 725 Q45 731 48 739 Q51 746 60 743 Q70 738 67 729 Q66 717 62 704 Q60 694 57 685.5 Q54 677 51 668 Q49 663 44 664 Q34 666 34 680 Z " />
<glyph glyph-name="quoteright" unicode="&#x2019;" horiz-adv-x="61" d="M34 680 Q36 687 37 695 Q38 703 40 711 Q42 719 43.5 725 Q45 731 48 739 Q51 746 60 743 Q70 738 67 729 Q66 717 62 704 Q60 694 57 685.5 Q54 677 51 668 Q49 663 44 664 Q34 666 34 680 Z " />
<glyph glyph-name="A" unicode="A" horiz-adv-x="396" d="M428 725 Q432 719 431 711.5 Q430 704 429 701 L428 699 L305 293 Q310 292 318 292 Q323 290 326.5 287.5 Q330 285 332 279 Q333 276 333 271 Q334 269 333 268.5 Q332 268 331 269 Q327 273 326 276 Q324 280 322 280 L303 280 Q303 280 300 277 Q295 260 290 243.5 Q285 227 280 210 Q269 172 257.5 134 Q246 96 235 58 Q223 16 211 -25 Q199 -66 188 -108 Q180 -134 173.5 -160.5 Q167 -187 159 -213 Q158 -218 157 -222 Q156 -226 155 -230 Q153 -237 149 -238 Q143 -242 137 -239 Q132 -236 133 -228 Q134 -220 135 -213 Q136 -206 138 -199 Q148 -157 157.5 -116.5 Q167 -76 178 -35 L229 154 Q237 183 245 212.5 Q253 242 261 271 Q261 272 261.5 272.5 Q262 273 262 274 Q258 274 255 273.5 Q252 273 249 273 Q234 270 218.5 267 Q203 264 187 262 Q186 262 182 258 Q166 228 150.5 198 Q135 168 118 139 Q107 120 95.5 102.5 Q84 85 70 71 Q62 63 53.5 56.5 Q45 50 34 48 Q10 42 -8 60 Q-15 68 -18 79 Q-21 90 -23 102 Q-26 132 -20 162 Q-18 176 -15 190 Q-12 204 -9 218 L-39 209 Q-50 206 -59.5 202.5 Q-69 199 -80 196 Q-84 195 -88 201 Q-91 205 -87 207 Q-83 209 -79.5 210.5 Q-76 212 -72 213 Q-55 219 -39 224.5 Q-23 230 -7 235 Q-2 237 -1 242 Q25 315 68 367 Q85 387 103.5 400.5 Q122 414 143 422 Q153 425 162 426 Q171 427 181 424 Q208 416 218 382 L218 380 Q220 385 222 388.5 Q224 392 226 396 Q252 447 278 498 Q304 549 330 600 L396 733 Q397 737 401 739 Q404 741 408 740.5 Q412 740 418 735 Q424 731 428 725 Z M134 218 Q139 227 144 236 Q149 245 154 256 Q148 254 142.5 253.5 Q137 253 132 251 Q104 245 76.5 238.5 Q49 232 20 226 Q17 226 15 221 Q10 204 7 187 Q4 170 2 153 Q-1 126 2 100 Q4 92 5.5 84.5 Q7 77 12 71 Q17 63 23 67 Q28 69 32 71.5 Q36 74 40 77 Q51 85 59.5 96 Q68 107 76 118 Q92 141 106 166.5 Q120 192 134 218 Z M164 275 Q172 290 179.5 304.5 Q187 319 195 334 Q199 342 203 350 Q207 358 211 366 Q209 373 207.5 378.5 Q206 384 204 389 Q199 407 187 412 Q173 420 154 413 Q139 408 125.5 398 Q112 388 99 374 Q77 350 60 321 Q43 292 29 259 Q27 255 26 251.5 Q25 248 23 243 Q24 244 26 244 Q60 251 93 257.5 Q126 264 160 271 Q163 272 164 275 Z M370 626 Q324 539 281 452 Q238 365 193 277 Q194 278 196 278 Q213 280 229.5 283 Q246 286 263 288 Q265 289 267 292 Q276 323 284.5 353.5 Q293 384 302 415 Q315 460 329 504.5 Q343 549 358 593 L370 626 Z " />
<glyph glyph-name="B" unicode="B" horiz-adv-x="453" d="M201 569 Q199 568 198 568 Q197 568 196 567 Q148 538 106.5 500.5 Q65 463 30 413 Q22 401 14.5 389 Q7 377 1 363 Q-1 358 -2.5 353 Q-4 348 -6 343 Q-9 333 -4 327 Q-7 325 -12 327 Q-21 332 -21 346 Q-21 360 -16 373 Q-11 387 -4.5 399.5 Q2 412 9 423 Q30 456 54.5 483.5 Q79 511 106 535 Q131 556 157 573.5 Q183 591 211 605 Q216 609 219 616 Q229 641 238.5 666 Q248 691 258 716 Q260 721 262.5 726 Q265 731 268 736 Q272 745 278 743 Q284 740 283 730 Q281 720 278.5 710.5 Q276 701 273 691 Q269 677 265 662.5 Q261 648 257 634 Q256 632 255.5 630 Q255 628 255 625 Q261 627 266.5 628.5 Q272 630 277 632 Q304 641 333 639 Q346 638 357 634.5 Q368 631 378 623 Q388 615 396 605 Q418 575 405 533 Q401 520 395.5 508.5 Q390 497 383 486 Q369 463 352.5 443 Q336 423 319 404 Q280 360 238 323 L231 316 Q234 315 237 315.5 Q240 316 242 316 Q281 319 316 301 Q336 290 351 271 Q372 239 365 198 Q362 179 356.5 162.5 Q351 146 343 129 Q326 90 304 54 Q282 18 256 -15 Q221 -63 181 -103.5 Q141 -144 96 -178 Q73 -195 48.5 -209.5 Q24 -224 -2 -234 Q-17 -239 -31.5 -242.5 Q-46 -246 -61 -245 Q-79 -244 -95 -237.5 Q-111 -231 -124 -217 Q-138 -203 -144 -184.5 Q-150 -166 -152 -144 Q-155 -109 -147.5 -76.5 Q-140 -44 -124 -14 Q-109 16 -90 40 Q-71 64 -49 86 Q-26 108 -1.5 123.5 Q23 139 49 150 Q54 152 58.5 154.5 Q63 157 68 159 Q73 160 76 168 Q89 213 101.5 256.5 Q114 300 128 345 Q144 399 162 452 Q180 505 198 558 L201 567 L201 569 Z M141 270 Q133 247 126 223.5 Q119 200 111 176 Q113 177 114 177 Q115 177 117 178 Q127 180 136.5 183 Q146 186 156 188 Q170 191 181 187 Q191 184 195 174 Q198 164 190 157 Q183 153 179 163 Q181 169 183 173 Q171 175 162 172 Q149 170 136.5 165 Q124 160 111 155 Q104 153 101 144 Q87 97 73 51.5 Q59 6 45 -40 Q36 -71 27 -101 Q18 -131 11 -163 Q11 -169 5 -170 Q-1 -170 -4 -169 Q-12 -168 -11 -156 Q-11 -154 -10.5 -151 Q-10 -148 -10 -145 Q-6 -131 -3 -116 Q0 -101 4 -87 Q19 -33 34 19.5 Q49 72 63 125 Q64 127 64 129 Q64 131 65 134 Q63 132 61.5 132 Q60 132 58 131 Q-16 91 -72 14 Q-92 -14 -105 -45 Q-118 -76 -123 -112 Q-125 -132 -123.5 -152 Q-122 -172 -114 -189 Q-98 -220 -67 -225 Q-54 -226 -42 -223.5 Q-30 -221 -17 -216 Q10 -206 35 -190.5 Q60 -175 84 -155 Q187 -70 260 52 Q276 78 289.5 105.5 Q303 133 314 162 Q321 179 325 196.5 Q329 214 330 233 Q331 274 300 284 Q286 289 271.5 289 Q257 289 243 287 Q208 281 170 264 Q158 259 146 266 Q145 267 144 267.5 Q143 268 141 270 Z M148 291 Q156 297 157 298 Q180 315 202 334 Q224 353 246 373 Q270 396 293 421.5 Q316 447 337 476 Q348 492 357.5 508 Q367 524 375 543 Q382 561 384 581 Q384 597 374 602 Q357 612 336 612 Q316 613 296.5 608.5 Q277 604 257 597 Q247 593 245 590.5 Q243 588 239 576 Q217 507 195 439 Q173 371 151 302 Q149 296 148 291 Z " />
<glyph glyph-name="C" unicode="C" horiz-adv-x="339" d="M313 711 Q303 714 295.5 711 Q288 708 281 703 Q266 693 253 679 Q240 665 226 650 Q191 604 160.5 552 Q130 500 106 443 Q50 325 9.5 199 Q-31 73 -55 -64 Q-60 -92 -64 -119.5 Q-68 -147 -66 -174 Q-66 -181 -65.5 -187 Q-65 -193 -64 -200 Q-61 -214 -57 -216.5 Q-53 -219 -44 -211 Q-36 -205 -29.5 -198.5 Q-23 -192 -18 -184 Q-7 -171 4.5 -156 Q16 -141 28 -125 Q63 -74 96.5 -21.5 Q130 31 163 84 Q177 105 190 126.5 Q203 148 216 170 Q219 174 222.5 176.5 Q226 179 231 176 Q242 169 236 157 Q229 143 223 130.5 Q217 118 209 107 Q164 32 120 -41 Q76 -114 26 -181 Q18 -192 9.5 -201 Q1 -210 -7 -218 Q-13 -223 -19 -228 Q-25 -233 -31 -236 Q-50 -246 -67.5 -233 Q-85 -220 -90 -191 Q-93 -175 -93.5 -159 Q-94 -143 -92 -127 Q-90 -89 -84 -51.5 Q-78 -14 -70 22 Q-41 143 -3 258.5 Q35 374 88 480 Q114 535 144.5 585.5 Q175 636 210 679 Q223 694 236.5 707.5 Q250 721 264 730 Q276 737 290 742 Q307 744 319.5 729 Q332 714 334 691 Q333 653 325.5 622 Q318 591 309 562 Q294 515 275.5 472.5 Q257 430 235 390 Q233 388 229 384 Q225 380 222 375 Q220 373 217.5 371.5 Q215 370 212 374 Q204 380 207 388 Q208 394 209.5 399.5 Q211 405 213 410 Q221 428 228.5 445 Q236 462 244 480 Q258 515 271 550 Q284 585 295 621 Q302 640 306 658 Q310 676 312 696 Q313 698 313 702 Q313 706 313 711 Z " />
</font>
</svg>
