<?xml version="1.0" encoding="UTF-8"?>
<svg xmlns="http://www.w3.org/2000/svg" xmlns:xlink="http://www.w3.org/1999/xlink" version="1.2" >
<font id="Stantic Two">
<font-face  font-family="Stantic Two" units-per-em="1000" ascent="750" descent="-250" font-style="normal" font-weight="400" font-stretch="normal" cap-height="885" x-height="557" underline-position="-75" underline-thickness="50" />
<missing-glyph  horiz-adv-x="213" d="" />
<glyph glyph-name="NULL" d="" />
<glyph glyph-name="nonmarkingreturn" unicode="&#xd;" horiz-adv-x="213" d="" />
<glyph glyph-name="space" unicode="&#x20;" horiz-adv-x="213" d="" />
<glyph glyph-name="e" unicode="e" horiz-adv-x="320" d="M-2 178 Q1 253 29 325.5 Q57 398 103 458 Q116 474 132 488.5 Q148 503 166.5 513.5 Q185 524 205.5 528.5 Q226 533 247 529 Q275 518 288.5 496.5 Q302 475 303.5 449 Q305 423 295.5 396 Q286 369 269 348 Q252 327 228.5 315.5 Q205 304 177 308 Q157 311 144 324.5 Q131 338 127 358 Q125 375 129 389 Q134 408 152 408 Q160 408 166.5 404 Q173 400 175 392 Q176 388 175.5 385 Q175 382 175 378 Q172 365 178 359.5 Q184 354 195 355 Q211 358 222 369 Q264 409 255 461 Q253 473 244 479 Q235 485 223 484 Q187 476 161 450 Q135 424 117 394 Q94 358 77.5 318 Q61 278 53 236 Q49 216 46.5 196.5 Q44 177 45.5 157.5 Q47 138 53.5 119 Q60 100 74 82 Q90 63 109.5 60 Q129 57 148.5 63.5 Q168 70 185 83.5 Q202 97 213 112 Q233 137 247.5 164 Q262 191 277 220 Q281 228 289.5 231.5 Q298 235 306 231 Q315 228 319.5 219.5 Q324 211 320 201 Q307 176 293.5 150 Q280 124 264 100 Q248 76 229 56.5 Q210 37 187 25 Q172 17 154 13 Q136 9 118 10 Q100 11 83 16.5 Q66 22 53 34 Q21 62 9.5 99.5 Q-2 137 -2 178 Z " />
<glyph glyph-name="f" unicode="f" horiz-adv-x="240" d="M145 409 Q161 409 176 409.5 Q191 410 206 411 Q218 411 229.5 411.5 Q241 412 252 411 Q268 411 273 394 Q277 381 266 370 Q258 364 250 364 Q221 363 193 362.5 Q165 362 136 360 Q131 360 130 356 Q119 314 107.5 273.5 Q96 233 85 191 Q69 130 53.5 69.5 Q38 9 23 -52 Q17 -77 11.5 -101 Q6 -125 0 -150 Q-1 -152 -1 -153.5 Q-1 -155 -2 -157 Q-6 -167 -14.5 -171.5 Q-23 -176 -32 -173 Q-41 -170 -45.5 -161.5 Q-50 -153 -48 -143 Q-43 -123 -38.5 -104.5 Q-34 -86 -29 -66 Q-12 8 6.5 81 Q25 154 45 227 Q54 259 62.5 289.5 Q71 320 79 352 Q79 354 80 356 Q76 355 69 355 Q58 353 50 359 Q42 365 41 375 Q39 386 46.5 393.5 Q54 401 65 402 Q71 403 77.5 403.5 Q84 404 91 405 Q94 405 96 410 Q107 449 118.5 487.5 Q130 526 142 565 Q150 591 158 616.5 Q166 642 178 667 Q186 684 196 700 Q206 716 221 728 Q251 753 288 753 Q313 752 332.5 735 Q352 718 356 692 Q359 660 342 636 Q333 624 318 625 Q303 628 300 642 Q298 647 299 652 Q300 657 302 662 Q304 665 305.5 668 Q307 671 308 675 Q311 689 302 698 Q293 707 278 704 Q254 700 238 677 Q228 663 221 648.5 Q214 634 209 618 Q198 585 188 551.5 Q178 518 167 484 L146 412 Q146 410 145 409 Z " />
<glyph glyph-name="g" unicode="g" horiz-adv-x="394" d="M404 510 Q413 508 417.5 499 Q422 490 420 481 Q418 473 416.5 466.5 Q415 460 413 452 Q397 394 382 337 Q367 280 351 222 Q335 164 320 106.5 Q305 49 289 -10 Q284 -29 283 -32.5 Q282 -36 283 -32 Q284 -28 286.5 -20 Q289 -12 290 -7.5 Q291 -3 290 -7 Q289 -11 284 -30 Q269 -88 253.5 -145 Q238 -202 223 -260 Q207 -318 191.5 -375.5 Q176 -433 161 -491 Q159 -500 150 -504.5 Q141 -509 132 -507 Q123 -505 118.5 -496 Q114 -487 116 -478 Q118 -471 119.5 -464 Q121 -457 123 -450 Q139 -392 154.5 -334.5 Q170 -277 185 -219 Q201 -161 216 -103.5 Q231 -46 247 12 Q252 31 253 35 Q254 39 253 34.5 Q252 30 249.5 22.5 Q247 15 246 10.5 Q245 6 246 10 Q247 14 252 33 Q257 54 263 75 Q269 96 274 117 Q261 100 247 88 Q219 60 181 48 Q113 28 62 89 Q39 118 31 153 Q23 186 25 217.5 Q27 249 35 279 Q46 323 65 362 Q84 401 110 436 Q124 455 139 471 Q154 487 174 498 Q188 506 202 511.5 Q216 517 233 518 Q268 519 297 495 Q317 478 324.5 458.5 Q332 439 332 416 Q332 392 325 374 Q318 355 298 360 Q288 362 282.5 371 Q277 380 279 391 Q280 398 281.5 405 Q283 412 284 419 Q284 428 282.5 437 Q281 446 274 454 Q254 475 228 468 Q195 458 172 432 Q152 411 137 387.5 Q122 364 109 338 Q95 309 86 279.5 Q77 250 74 218 Q72 198 74 178.5 Q76 159 84 139 Q95 116 114 101 Q125 93 137 91.5 Q149 90 160 93 Q175 97 187.5 105 Q200 113 211 123 Q228 139 241.5 157.5 Q255 176 267 196 Q286 225 299.5 256 Q313 287 324 320 Q330 337 338 363 Q346 389 354 415 L375 493 Q378 503 386.5 507.5 Q395 512 404 510 Z " />
<glyph glyph-name="h" unicode="h" horiz-adv-x="332" d="M286 449 Q283 447 280 445 Q277 443 275 441 Q260 428 249 413 Q238 398 227 381 Q198 336 172 289.5 Q146 243 120 195 Q96 150 72 106 Q48 62 23 18 Q18 11 10 9.5 Q2 8 -6 11 Q-14 15 -18 23 Q-22 31 -20 39 Q33 244 85.5 444.5 Q138 645 204 842 Q208 853 215 864.5 Q222 876 242 876 Q249 876 251.5 870 Q254 864 254.5 856 Q255 848 253.5 839.5 Q252 831 251 826 Q232 764 216 713.5 Q200 663 185.5 614.5 Q171 566 156 515 Q141 464 125 401 Q112 353 99 306.5 Q86 260 74 212 Q101 264 130 315 Q159 366 191 415 Q208 441 228.5 464 Q249 487 278 498 Q297 506 312.5 496.5 Q328 487 333 467 Q335 454 335 442 Q335 430 333 418 Q324 370 311 322.5 Q298 275 284.5 228 Q271 181 258 134 Q245 87 236 39 Q233 29 225 24.5 Q217 20 208 22 Q198 24 192.5 32 Q187 40 189 50 Q204 120 223 188.5 Q242 257 262 326 Q270 356 277.5 386 Q285 416 287 448 L286 449 Z " />
<glyph glyph-name="i" unicode="i" horiz-adv-x="115" d="M22 260 Q31 291 36.5 313.5 Q42 336 46.5 353 Q51 370 55 383.5 Q59 397 63 411 Q65 417 67.5 425.5 Q70 434 74 441.5 Q78 449 84.5 454 Q91 459 101 457 Q118 454 116 440.5 Q114 427 109 403 Q101 373 88 323.5 Q75 274 61 219.5 Q47 165 33.5 112 Q20 59 11 23 Q9 15 2.5 11 Q-4 7 -13 9 Q-27 14 -30 31 Q-28 60 -13.5 120 Q1 180 22 260 Z M121 548 Q132 547 139.5 539 Q147 531 145 521 Q144 505 131 495 Q118 485 104 494 Q90 503 92 520 Q94 532 102 540 Q110 548 121 548 Z " />
<glyph glyph-name="j" unicode="j" horiz-adv-x="135" d="M154 550 Q165 550 172 542.5 Q179 535 177 524 Q175 510 164 500 Q158 496 150.5 495.5 Q143 495 137 500 Q124 508 127 524 Q129 535 136.5 542.5 Q144 550 154 550 Z M133 462 Q142 460 146.5 451 Q151 442 149 433 Q147 425 145 418.5 Q143 412 141 404 Q126 346 110.5 289 Q95 232 80 174 Q64 116 48.5 58.5 Q33 1 18 -58 Q5 -105 -9.5 -158 Q-24 -211 -39 -266.5 Q-54 -322 -68.5 -377 Q-83 -432 -97 -484 Q-99 -493 -107.5 -497.5 Q-116 -502 -125 -500 Q-135 -498 -139.5 -489 Q-144 -480 -142 -471 Q-140 -464 -138 -457 Q-136 -450 -134 -443 Q-121 -396 -107 -342.5 Q-93 -289 -78 -233.5 Q-63 -178 -48.5 -122.5 Q-34 -67 -20 -15 Q-4 42 11 99.5 Q26 157 42 215 Q58 273 73 330 Q88 387 104 445 Q106 455 114.5 459.5 Q123 464 133 462 Z " />
<glyph glyph-name="k" unicode="k" horiz-adv-x="335" d="M121 390 Q137 419 157 441 Q177 463 201 480 Q223 496 246 500 Q268 503 286.5 495 Q305 487 314 467 Q318 459 313.5 451 Q309 443 300.5 438.5 Q292 434 283 434.5 Q274 435 268 445 Q255 454 232.5 437.5 Q210 421 187.5 395 Q165 369 146.5 339.5 Q128 310 124 292 Q118 271 112 250 Q106 229 102 207.5 Q98 186 98.5 164.5 Q99 143 105 122 Q108 111 116 105.5 Q124 100 134.5 98.5 Q145 97 155 99 Q165 101 173 106 Q197 118 216 135 Q235 152 251 172 Q267 192 281.5 214 Q296 236 310 257 Q319 271 336 266 Q347 263 352 252 Q357 241 350 230 Q346 222 341 215 Q336 208 332 200 Q303 158 270.5 118.5 Q238 79 190 56 Q169 45 146 46 Q123 47 103.5 57.5 Q84 68 70 86.5 Q56 105 54 130 Q47 104 39.5 77 Q32 50 28 22 Q25 12 19 8 Q6 -2 -6 7 Q-22 15 -19 32 Q-1 114 20 195.5 Q41 277 62 359 Q74 405 82.5 438 Q91 471 98.5 501.5 Q106 532 113.5 565.5 Q121 599 131 645 Q141 689 152.5 740 Q164 791 175 835 Q179 861 189.5 868.5 Q200 876 211 876 Q226 876 226.5 857.5 Q227 839 219 812 Q215 794 207 759.5 Q199 725 190 686 Q181 647 172.5 610 Q164 573 159 549 Q151 511 139.5 469.5 Q128 428 121 390 Z " />
<glyph glyph-name="l" unicode="l" horiz-adv-x="113" d="M4 6 Q-6 6 -11 15.5 Q-16 25 -14 37 Q11 145 33.5 240.5 Q56 336 79.5 429 Q103 522 127 617.5 Q151 713 179 820 Q184 843 192 857 Q200 871 208 873 Q221 875 224.5 873 Q228 871 232 865 Q235 860 232.5 845.5 Q230 831 226 819 Q197 712 172.5 615.5 Q148 519 124.5 424 Q101 329 78.5 232 Q56 135 31 27 Q28 16 20.5 10.5 Q13 5 4 6 Z " />
<glyph glyph-name="m" unicode="m" horiz-adv-x="383" d="M429 464 Q428 459 428 453.5 Q428 448 427 443 Q422 422 417 401 Q412 380 407 359 Q384 275 359.5 193 Q335 111 309 28 Q308 26 307.5 24.5 Q307 23 306 21 Q296 -1 276 6 Q266 9 262.5 17 Q259 25 262 36 Q267 54 273 72.5 Q279 91 285 109 Q307 180 327 250 Q347 320 366 392 Q371 410 375 427.5 Q379 445 381 464 L381 468 Q376 462 371.5 456.5 Q367 451 362 446 Q339 419 320.5 389.5 Q302 360 285 329 Q247 261 215 184 Q214 182 213.5 180 Q213 178 211 176 Q200 158 181 165 Q162 173 168 194 Q173 214 178.5 234 Q184 254 189 274 Q197 306 204 336.5 Q211 367 219 399 Q221 408 221.5 417 Q222 426 224 435 L223 436 Q221 434 220 432.5 Q219 431 217 429 Q195 400 177 368.5 Q159 337 144 304 Q115 243 90 182 Q65 121 44 58 Q42 51 39 44.5 Q36 38 34 30 Q32 24 30 20 Q17 1 -1 7 Q-10 10 -13.5 18 Q-17 26 -15 37 Q-11 54 -7 71 Q-3 88 2 105 Q13 153 24.5 201 Q36 249 47 297 Q63 366 83 435 Q86 451 89 466 Q92 481 97 496 Q100 514 117 517 Q129 519 137.5 510.5 Q146 502 144 491 Q141 477 138 463 Q135 449 132 435 Q125 411 119 387 Q113 363 106 339 L106 336 Q116 353 123 368 Q137 394 153 420 Q169 446 189 470 Q195 476 201 482 Q207 488 214 493 Q228 504 243 501 Q265 498 270 473 Q272 462 272 451 Q272 440 270 429 Q269 420 268.5 411 Q268 402 266 392 Q268 394 268.5 395 Q269 396 270 398 Q284 423 301.5 446.5 Q319 470 339 492 Q346 500 353 506.5 Q360 513 370 518 Q390 530 407.5 522 Q425 514 428 491 Q430 483 430 479 Q429 474 429 464 Z " />
<glyph glyph-name="n" unicode="n" horiz-adv-x="293" d="M293 495 Q273 478 258 460 Q243 442 227 420 Q201 380 174.5 333.5 Q148 287 121 239 Q94 191 68 144 Q42 97 18 57 Q13 50 6.5 41 Q0 32 -8 34 Q-15 36 -19.5 45 Q-24 54 -21 65 Q-8 125 4 177 Q16 229 29 280.5 Q42 332 56 386 Q70 440 86 504 Q88 512 94 515 Q100 518 108 518 Q121 518 129 505 Q132 500 131.5 495 Q131 490 129 485 Q113 419 95 356 Q77 293 60 230 Q60 229 61 228 Q62 235 74.5 258 Q87 281 102 307.5 Q117 334 132 358.5 Q147 383 153 394 Q165 417 186.5 446.5 Q208 476 225 496 Q236 509 249 520 Q262 531 277 539 Q296 549 314 542 Q328 537 333.5 527 Q339 517 341 504 Q343 490 342 475.5 Q341 461 339 446 Q331 405 318.5 365.5 Q306 326 292 287 Q269 220 246.5 154.5 Q224 89 204 20 Q202 10 194.5 5 Q187 0 177 2 Q168 4 161.5 12 Q155 20 158 31 Q178 97 199 160 Q220 223 242 288 Q253 319 262.5 350 Q272 381 280 413 Q287 435 291 455 Q295 475 293 495 Z " />
<glyph glyph-name="o" unicode="o" horiz-adv-x="383" d="M121 12 Q100 13 78 21 Q56 29 38 47 Q17 74 10 107.5 Q3 141 5.5 176.5 Q8 212 16.5 247 Q25 282 34 312 Q48 354 69.5 391.5 Q91 429 121 461 Q139 480 159.5 494.5 Q180 509 204 519 Q238 533 274 524 Q277 523 280 526 Q293 540 310 531 Q344 514 364.5 487 Q385 460 391 422 Q396 384 389.5 346.5 Q383 309 372 272 Q357 227 337 185.5 Q317 144 289 106 Q260 64 216.5 38 Q173 12 121 12 Z M345 375 Q343 374 341 374 Q330 370 321 375.5 Q312 381 310 392 Q309 397 310 402 Q311 407 312 412 Q315 433 304.5 449.5 Q294 466 278 473 Q246 487 216 472 Q182 457 156 428 Q128 399 109.5 365 Q91 331 78 293 Q64 250 56 206 Q48 162 53 117 Q59 91 75 77 Q91 63 120 60 Q141 59 161 65.5 Q181 72 198.5 83.5 Q216 95 230.5 110 Q245 125 256 142 Q285 186 306.5 233.5 Q328 281 339 334 Q341 344 342 354 Q343 364 345 375 Z " />
<glyph glyph-name="p" unicode="p" horiz-adv-x="410" d="M128 340 Q144 369 161 396 Q178 423 199 448 Q212 463 228 479 Q244 495 261.5 507 Q279 519 297.5 526.5 Q316 534 336 533 Q354 531 367 520.5 Q380 510 389 495.5 Q398 481 402.5 464.5 Q407 448 409 434 Q414 403 411 372.5 Q408 342 401 312 Q393 277 382.5 242.5 Q372 208 356 176 Q337 140 315 106.5 Q293 73 263 44 Q249 30 231.5 20.5 Q214 11 194 8 Q164 3 139 17 Q114 31 107 68 Q104 88 108 108.5 Q112 129 120 148.5 Q128 168 140 185.5 Q152 203 165 216 Q182 231 197 218 Q205 212 205.5 202.5 Q206 193 201 185 Q167 148 155 99 Q150 82 157 67 Q164 52 183 55 Q202 58 218 69 Q234 80 247 94.5 Q260 109 270.5 125.5 Q281 142 290 156 Q314 194 329.5 235.5 Q345 277 354 321 Q358 340 361 359.5 Q364 379 364 398 Q364 417 360.5 435.5 Q357 454 347 471 Q340 482 333.5 484 Q327 486 315 481 Q272 462 245.5 428.5 Q219 395 194 359 Q169 321 150.5 281 Q132 241 115 199 Q91 141 75.5 101 Q60 61 47 23.5 Q34 -14 21 -56 Q8 -98 -9 -160 Q-12 -171 -19 -195.5 Q-26 -220 -36 -252 Q-46 -284 -57 -319 Q-68 -354 -77.5 -386 Q-87 -418 -95 -442.5 Q-103 -467 -106 -477 Q-112 -495 -123 -503.5 Q-134 -512 -143 -508.5 Q-152 -505 -155.5 -488 Q-159 -471 -149 -439 Q-121 -350 -95.5 -262.5 Q-70 -175 -46 -86.5 Q-22 2 2 93.5 Q26 185 50 281 Q64 331 73.5 364 Q83 397 90.5 423 Q98 449 106 472.5 Q114 496 126 528 Q131 536 138.5 538 Q146 540 154 537 Q162 534 166 526 Q170 518 168 510 Q165 498 161 486.5 Q157 475 154 463 Q141 422 128.5 380.5 Q116 339 104 298 Q109 306 115.5 318.5 Q122 331 128 340 Z " />
<glyph glyph-name="q" unicode="q" horiz-adv-x="367" d="M401 515 Q410 513 414.5 504 Q419 495 417 486 Q415 478 413.5 471.5 Q412 465 410 457 L408 452 L363 284 L363 281 Q360 270 357 260 Q354 250 352 240 Q339 191 326 143 Q313 95 300 46 L286 -4 Q299 -14 309 -25 Q334 -51 349.5 -82.5 Q365 -114 371 -149 Q377 -184 374 -218 Q371 -252 362 -286 Q354 -319 341 -351.5 Q328 -384 311 -413 Q294 -443 271 -467 Q258 -480 241.5 -491.5 Q225 -503 205 -501 Q177 -499 163 -475 Q157 -464 155 -452.5 Q153 -441 152 -429 Q150 -405 152.5 -381.5 Q155 -358 160 -334 Q168 -289 178 -245.5 Q188 -202 199 -157 Q207 -123 215.5 -90 Q224 -57 233 -24 Q225 -19 217 -16 Q222 -18 218.5 -16.5 Q215 -15 213 -15 L204 -12 Q202 -11 199 -10.5 Q196 -10 194 -9 Q192 -9 190 -8.5 Q188 -8 186 -8 L188 -8 L186 -8 L181 -8 Q179 -8 177 -7.5 Q175 -7 173 -8 L167 -8 L166 -8 L163 -8 Q162 -9 159 -9 Q157 -10 155 -10.5 Q153 -11 151 -12 L149 -12 Q149 -12 148 -13 L146 -13 Q126 -23 114 -5 Q109 3 111.5 13 Q114 23 122 27 Q145 38 167 39 Q206 42 245 23 Q247 31 249 38.5 Q251 46 253 54 Q258 71 262 88 Q266 105 271 122 Q264 114 258 107 Q252 100 244 93 Q216 65 178 53 Q109 33 59 94 Q36 123 28 158 Q20 191 22 222.5 Q24 254 32 284 Q43 328 62 367 Q81 406 107 441 Q120 460 135.5 476 Q151 492 171 503 Q185 511 199 516.5 Q213 522 230 523 Q265 524 294 500 Q313 483 321 463.5 Q329 444 329 421 Q329 410 327 399.5 Q325 389 322 379 Q315 360 295 365 Q284 367 278.5 376 Q273 385 275 396 Q277 403 278.5 410 Q280 417 281 424 Q281 433 279.5 442 Q278 451 270 459 Q252 480 224 473 Q192 463 168 437 Q149 416 134 392.5 Q119 369 106 343 Q92 314 83 284.5 Q74 255 71 223 Q69 203 71 183.5 Q73 164 81 144 Q92 121 111 106 Q122 98 134 96.5 Q146 95 157 98 Q172 102 184.5 110 Q197 118 208 128 Q225 144 238.5 162.5 Q252 181 264 201 Q283 230 296.5 261 Q310 292 321 325 Q327 342 335 368 Q343 394 351 420 L372 498 Q374 508 383 512.5 Q392 517 401 515 Z M148 -13 L149 -12 Q148 -12 147.5 -12.5 Q147 -13 146 -13 L148 -13 Z M287 -70 Q283 -66 282 -64 L273 -55 Q256 -120 240 -187 Q235 -208 230 -229.5 Q225 -251 220 -272 Q215 -294 211 -315.5 Q207 -337 203 -358 Q202 -361 202 -364 Q202 -367 201 -370 L201 -371 Q201 -373 200.5 -373.5 Q200 -374 200 -375 Q199 -380 199 -385.5 Q199 -391 198 -396 L198 -420 Q198 -426 199 -429 L199 -435 L199 -437 Q199 -438 199.5 -438 Q200 -438 200 -439 L200 -440 Q200 -442 200.5 -442.5 Q201 -443 201 -445 Q201 -447 202 -448 L202 -450 Q202 -451 203 -451 Q204 -452 204 -453 Q204 -453 205 -454 L207 -454 L208 -454 L209 -454 L211 -454 Q212 -454 212 -453.5 Q212 -453 213 -453 L217 -451 Q219 -450 220 -449 Q221 -448 223 -447 Q223 -447 222 -448 L223 -447 L224 -446 Q225 -446 225 -445 Q229 -442 235 -436 Q240 -431 244.5 -425.5 Q249 -420 254 -415 Q250 -420 252 -417 Q254 -414 256 -412 Q257 -410 258 -409 Q259 -408 260 -406 Q262 -403 264.5 -399.5 Q267 -396 269 -393 L284 -366 Q286 -362 287.5 -358 Q289 -354 291 -350 L294 -344 Q294 -342 295 -342 Q294 -342 294 -344 Q294 -343 294.5 -342.5 Q295 -342 295 -341 Q298 -333 301 -325.5 Q304 -318 306 -310 Q316 -284 322 -252 Q324 -244 325 -239 Q325 -237 325.5 -235.5 Q326 -234 326 -232 L326 -230 Q328 -222 328 -213.5 Q328 -205 328 -197 Q328 -189 328 -181 Q328 -173 327 -165 Q326 -165 326 -164 L326 -161 Q325 -159 325 -157 Q325 -155 324 -153 Q322 -143 321 -139 Q320 -134 319 -130.5 Q318 -127 316 -122 Q314 -118 314 -116 Q313 -115 313 -114 Q312 -113 312 -112 Q309 -105 305.5 -98.5 Q302 -92 298 -85 Q296 -82 293.5 -78.5 Q291 -75 288 -72 Q288 -71 287 -70 Z " />
<glyph glyph-name="r" unicode="r" horiz-adv-x="290" d="M129 411 Q134 418 139 424.5 Q144 431 149 436 Q182 474 225 496 Q242 504 257.5 503.5 Q273 503 286 496 Q299 489 308 477 Q317 465 321 451 Q327 420 321 389 Q318 378 310.5 373 Q303 368 292 370 Q283 372 277.5 380 Q272 388 274 399 Q276 413 276 428.5 Q276 444 264 453 Q258 457 250 454 Q237 449 226 441.5 Q215 434 204 425 Q172 396 150.5 363.5 Q129 331 111 288 Q93 245 76 188 Q59 131 35 53 Q32 40 28 30 Q21 15 6 15 Q-8 15 -14 28 Q-19 38 -16 47 Q-3 94 8.5 140.5 Q20 187 33 234 Q48 288 62 341.5 Q76 395 89 450 Q93 473 101 500 Q103 510 112 514.5 Q121 519 130 517 Q139 515 144 506.5 Q149 498 147 488 Q142 469 137 450 Q132 431 129 411 Z " />
<glyph glyph-name="s" unicode="s" horiz-adv-x="295" d="M230 202 Q227 228 218 251 Q209 274 195 297 Q184 317 171.5 336.5 Q159 356 148 376 Q138 393 131.5 411 Q125 429 123 449 Q121 465 126 480.5 Q131 496 141 508 Q151 520 164.5 528.5 Q178 537 194 539 Q218 542 238 532.5 Q258 523 275 503 Q292 482 296 459 Q300 436 294 412 Q291 401 286.5 389.5 Q282 378 278 367 Q272 355 256 356 Q241 357 235 371 Q233 376 232.5 380.5 Q232 385 234 390 Q237 396 240 402 Q243 408 245 415 Q247 424 249 433 Q251 442 250 452 Q249 467 234 482 Q223 493 210.5 493.5 Q198 494 187 483 Q164 466 173 435 Q177 416 186 399.5 Q195 383 205 366 Q216 348 227 329.5 Q238 311 249 291 Q262 269 268.5 246 Q275 223 277 199 Q280 168 274 139 Q268 110 255 84 Q233 40 193 19 Q164 4 132 2 Q100 0 68 14 Q7 39 -13 95 Q-21 113 -21 130 Q-21 147 -19 164 Q-14 191 -4.5 215.5 Q5 240 21 262 Q32 276 44.5 287.5 Q57 299 74 307 Q82 310 88.5 311 Q95 312 105 309 Q119 304 124.5 289.5 Q130 275 121 265 Q110 254 97 260 Q92 261 88 259 Q77 251 69.5 243 Q62 235 56 224 Q31 184 27 136 Q25 113 36 95.5 Q47 78 67 64 Q79 56 93 53 Q107 50 122 50 Q151 50 172 63.5 Q193 77 206 100 Q231 141 230 185 Q232 195 230 202 Z " />
<glyph glyph-name="t" unicode="t" horiz-adv-x="137" d="M-54 576 Q-79 576 -83.5 581 Q-88 586 -89 600 Q-90 615 -81.5 619 Q-73 623 -61 623 L154 623 Q156 632 158.5 640.5 Q161 649 164 657 Q169 676 188 674 Q207 674 210 654 Q210 652 209 647 Q208 642 206.5 636.5 Q205 631 204.5 627 Q204 623 204 623 L499 623 Q519 623 524.5 617 Q530 611 530 601 Q530 592 523.5 584 Q517 576 497 576 L189 576 Q186 565 182.5 552 Q179 539 175 528 Q141 407 109 285.5 Q77 164 45 41 Q31 -15 11 -86.5 Q-9 -158 -29 -229.5 Q-49 -301 -67 -364.5 Q-85 -428 -96 -467 Q-98 -473 -100.5 -481.5 Q-103 -490 -107 -497.5 Q-111 -505 -116.5 -509.5 Q-122 -514 -130 -512 Q-147 -510 -145.5 -490.5 Q-144 -471 -134 -438 Q-122 -396 -107 -340 Q-92 -284 -75.5 -222.5 Q-59 -161 -41.5 -96.5 Q-24 -32 -8 28 Q8 88 21.5 140 Q35 192 45 229 Q68 314 92.5 402.5 Q117 491 140 576 L-54 576 Z " />
<glyph glyph-name="u" unicode="u" horiz-adv-x="339" d="M218 85 Q213 79 209.5 73 Q206 67 201 62 Q182 36 158 21 Q137 9 111 7 Q76 4 52 28 Q35 43 27.5 62.5 Q20 82 18 103.5 Q16 125 17.5 147 Q19 169 21 189 Q26 224 33 257.5 Q40 291 49 324 Q55 346 63.5 372 Q72 398 81.5 425 Q91 452 100 478 Q109 504 117 525 Q119 532 125 538.5 Q131 545 139 547 Q151 549 158 538 Q165 527 162 514 Q153 486 141.5 454.5 Q130 423 119.5 390.5 Q109 358 99.5 326 Q90 294 84 266 Q77 228 70.5 192 Q64 156 65 118 Q65 100 71 82.5 Q77 65 94 56 Q109 48 123 56 Q137 64 148 74 Q173 96 191 122 Q209 148 222.5 176 Q236 204 246.5 233.5 Q257 263 268 292 Q277 316 286.5 345 Q296 374 304.5 405 Q313 436 321 465.5 Q329 495 337 519 Q339 526 349.5 531 Q360 536 368 537 Q381 539 384 529 Q387 519 382 506 Q379 496 375 480.5 Q371 465 366.5 448 Q362 431 357.5 415 Q353 399 351 389 Q330 302 305.5 216.5 Q281 131 257 45 Q250 22 229 25 Q219 27 213.5 35 Q208 43 210 53 Q212 61 214 69 Q216 77 218 85 Z " />
<glyph glyph-name="v" unicode="v" horiz-adv-x="300" d="M351 536 Q356 541 360 545 Q364 549 370 551 Q384 554 393 543 Q401 532 395 519 Q335 425 267 320 Q199 215 119 97 Q99 69 84 50 Q69 31 59 21 Q44 8 28 5 Q14 3 3 11.5 Q-8 20 -10 35 Q-11 49 -9.5 63.5 Q-8 78 -6 92 Q2 142 14.5 195.5 Q27 249 41 303.5 Q55 358 70 411.5 Q85 465 98 515 Q105 532 121 534 Q134 536 140.5 526 Q147 516 144 502 Q116 396 84.5 284.5 Q53 173 38 66 Q74 117 114.5 177 Q155 237 196.5 299.5 Q238 362 277.5 423 Q317 484 351 536 Z " />
<glyph glyph-name="w" unicode="w" horiz-adv-x="438" d="M48 77 L78 122 Q101 159 121 197.5 Q141 236 161 274 Q171 293 181 311 Q191 329 201 348 Q203 351 205 354 Q207 357 209 359 Q219 373 236 368 Q251 363 251 348 Q252 337 249 323 Q247 306 244.5 290 Q242 274 238 257 Q235 240 231.5 222 Q228 204 226 187 Q220 160 217 133 Q215 118 213.5 103.5 Q212 89 210 74 Q210 69 209.5 64 Q209 59 210 54 Q211 53 211 53 Q213 55 215 57 Q217 59 219 62 Q238 87 255 113 Q274 146 289.5 180 Q305 214 320 249 Q343 300 364 349.5 Q385 399 407 450 Q416 472 425.5 493.5 Q435 515 444 536 Q448 544 453 549 Q458 554 466 556 Q481 559 488 549 Q496 539 491 524 Q482 504 473 483.5 Q464 463 454 443 Q430 387 406 331.5 Q382 276 359 220 Q345 189 331 158.5 Q317 128 300 98 Q289 80 278 63 Q267 46 253 30 Q246 22 237.5 15 Q229 8 218 4 Q189 -7 173 17 Q166 27 164 37.5 Q162 48 161 59 Q161 82 164 103.5 Q167 125 171 147 Q173 162 175.5 177.5 Q178 193 180 209 Q179 207 179 206.5 Q179 206 177 204 Q161 172 143 140 Q125 108 105 77 Q94 63 84.5 49.5 Q75 36 61 24 Q57 20 52 16.5 Q47 13 42 11 Q28 4 16 8.5 Q4 13 0 27 Q-3 40 -3 56 Q-1 68 0 80 Q1 92 3 103 Q6 120 9 137 Q12 154 16 171 L40 273 Q51 311 63 349.5 Q75 388 86 426 Q93 446 100.5 466.5 Q108 487 116 507 Q121 518 130.5 523 Q140 528 150 524 Q158 521 161.5 513 Q165 505 163 497 Q157 482 151 467.5 Q145 453 140 438 Q129 405 119.5 372 Q110 339 99 306 Q91 280 84.5 253 Q78 226 71 200 Q66 180 62.5 161 Q59 142 54 123 Q52 113 50.5 103.5 Q49 94 47 84 L47 77 L48 77 Z " />
<glyph glyph-name="x" unicode="x" horiz-adv-x="275" d="M163 251 Q155 240 147 231 Q139 222 131 213 Q96 171 60 129.5 Q24 88 -11 46 Q-18 38 -24 30.5 Q-30 23 -36 15 Q-45 4 -60 7 Q-73 10 -77 23 Q-81 35 -72 46 Q-60 63 -47 77 Q-7 125 33 171.5 Q73 218 113 266 Q123 277 132.5 288.5 Q142 300 153 311 Q156 316 155 320 Q153 347 150 374 Q147 401 145 428 Q143 446 142.5 464.5 Q142 483 140 502 Q140 506 142 516 Q144 525 151.5 530 Q159 535 167 534 Q176 533 182 526.5 Q188 520 189 511 Q190 491 190.5 470.5 Q191 450 193 430 Q194 413 195.5 397.5 Q197 382 199 365 Q199 365 201 363 Q201 366 203 368 Q234 403 265 439 Q296 475 327 510 Q333 517 339.5 523.5 Q346 530 352 537 Q364 547 375 545 Q390 542 394 530 Q399 516 388 505 Q375 491 362.5 477 Q350 463 337 449 Q311 419 284.5 388.5 Q258 358 231 328 L210 304 Q206 300 206 294 Q208 280 209.5 267 Q211 254 213 240 Q215 226 216 212 Q217 198 219 184 Q221 168 222.5 152.5 Q224 137 226 121 Q227 107 228 94 Q229 81 231 67 Q232 58 233 49.5 Q234 41 235 32 Q237 8 214 5 Q205 3 197.5 9 Q190 15 188 26 Q186 36 185 45.5 Q184 55 183 65 Q181 84 179.5 102.5 Q178 121 176 140 Q174 157 172 174.5 Q170 192 168 209 Q167 219 166 229.5 Q165 240 163 251 Z " />
<glyph glyph-name="y" unicode="y" horiz-adv-x="388" d="M391 535 Q401 533 405.5 524 Q410 515 408 506 Q406 498 404 491.5 Q402 485 400 477 Q384 419 369 362 Q354 305 338 247 Q323 189 307.5 131.5 Q292 74 276 15 Q268 -16 256.5 -58 Q245 -100 234.5 -139.5 Q224 -179 215.5 -210.5 Q207 -242 204 -253 Q188 -311 173 -368.5 Q158 -426 142 -484 Q140 -493 131.5 -497.5 Q123 -502 113 -500 Q104 -498 99.5 -489 Q95 -480 97 -471 Q99 -464 101 -457 Q103 -450 105 -443 Q113 -412 124.5 -370 Q136 -328 146.5 -288.5 Q157 -249 165.5 -217 Q174 -185 177 -173 Q193 -115 208.5 -57.5 Q224 0 239 58 Q251 103 263.5 148 Q276 193 288 239 Q287 238 287 237 Q273 213 258 189 Q243 165 225 143 Q209 124 191 108 Q173 92 150 81 Q111 61 73 81 Q59 89 50.5 101 Q42 113 37 127 Q32 142 31 157.5 Q30 173 30 189 Q32 237 44 283.5 Q56 330 71 376 Q81 408 92.5 438.5 Q104 469 118 499 Q120 504 121.5 509 Q123 514 125 519 Q128 527 134.5 531.5 Q141 536 149 535 Q168 531 170 514 Q170 506 167 499 Q162 484 155.5 468.5 Q149 453 143 438 Q124 390 109 342.5 Q94 295 84 245 Q81 229 80 213.5 Q79 198 77 182 Q75 159 83 138 Q94 111 122 121 Q134 125 144 132 Q154 139 163 147 Q182 164 196.5 183.5 Q211 203 224 224 Q248 263 269.5 303 Q291 343 311 385 Q312 386 318 400 Q324 414 331.5 431.5 Q339 449 346 466.5 Q353 484 356 493 Q358 499 359.5 505.5 Q361 512 363 518 Q365 528 373.5 532.5 Q382 537 391 535 Z " />
<glyph glyph-name="z" unicode="z" horiz-adv-x="332" d="M244 293 Q255 293 261.5 284 Q268 275 268 265 Q268 248 254 242 Q242 237 227.5 236.5 Q213 236 201 236 Q197 235 194 234 Q191 233 188 230 Q149 187 110 145 Q71 103 32 59 Q47 59 59 59 Q71 59 84 59 Q97 59 112.5 59.5 Q128 60 149 60 Q174 60 186.5 60 Q199 60 209 60 Q219 60 231 60 Q243 60 266 61 Q294 60 307.5 56 Q321 52 321 37 Q321 28 315.5 19 Q310 10 301 10 Q233 10 163 9 Q93 8 18 6 Q2 6 -10 10 Q-30 15 -35.5 32 Q-41 49 -30 66 Q6 108 43.5 148.5 Q81 189 119 231 Q111 236 106 243.5 Q101 251 103 262 Q107 281 125 283 Q135 284 143 285 Q151 286 158 287.5 Q165 289 171.5 293 Q178 297 185 305 Q223 352 262.5 395.5 Q302 439 335 490 Q318 491 298.5 489.5 Q279 488 259 485.5 Q239 483 219.5 479.5 Q200 476 184 473 Q173 471 162.5 475.5 Q152 480 150 491 Q148 501 152.5 511 Q157 521 170 524 Q191 528 216 532 Q241 536 267 538.5 Q293 541 318.5 541.5 Q344 542 366 539 Q377 537 385 529.5 Q393 522 395 510 Q397 498 392 487 Q360 430 319.5 385.5 Q279 341 244 293 Z " />
<glyph glyph-name="d" unicode="d" horiz-adv-x="355" d="M262 138 Q255 129 249 120 Q243 111 236 103 Q224 88 210 75.5 Q196 63 178 55 Q125 30 80 66 Q69 75 61.5 86 Q54 97 48 110 Q27 161 26.5 215.5 Q26 270 41 321.5 Q56 373 84 417.5 Q112 462 148 494 Q163 507 179.5 516.5 Q196 526 216 529 Q258 537 293 511 Q310 497 316 477 Q322 457 316 434 Q315 431 314.5 427.5 Q314 424 312 421 Q307 411 298.5 407.5 Q290 404 281 408 Q272 412 268.5 420.5 Q265 429 267 439 Q269 444 270 448.5 Q271 453 271 458 Q271 470 260 476 Q236 490 211 477 Q194 469 181 458 Q168 447 157 433 Q118 381 95 319.5 Q72 258 75 191 Q76 153 96 119 Q101 109 109.5 102 Q118 95 131 93 Q139 92 146.5 94.5 Q154 97 162 101 Q202 129 225.5 173.5 Q249 218 268 262 Q284 305 299.5 347.5 Q315 390 330 434 Q340 475 348.5 506.5 Q357 538 364 565.5 Q371 593 378.5 619 Q386 645 394.5 675.5 Q403 706 413.5 743 Q424 780 437 830 Q443 852 450.5 864 Q458 876 476 874 Q488 875 492 870 Q496 865 495.5 856.5 Q495 848 492.5 837 Q490 826 489 814 Q476 768 463 723.5 Q450 679 436.5 632.5 Q423 586 409.5 535.5 Q396 485 381 428 Q374 405 368 382.5 Q362 360 356 337 Q339 270 324.5 203 Q310 136 298 67 Q296 58 295 53.5 Q294 49 293 45 Q292 41 291.5 36.5 Q291 32 289 23 Q284 8 276 3.5 Q268 -1 259.5 0.5 Q251 2 245.5 7.5 Q240 13 240 19 Q245 45 249.5 70.5 Q254 96 259 122 Q259 129 262 138 Z " />
<glyph glyph-name="A" unicode="A" horiz-adv-x="600" d="M638 741 L653 791 L670 849 Q672 854 675 858.5 Q678 863 682 867 Q694 877 711 869 Q717 864 721 857 Q725 850 723 842 Q718 820 713 798.5 Q708 777 700 755 Q687 711 673.5 668 Q660 625 648 580 Q637 541 628 501 Q619 461 608 421 Q595 373 582.5 324.5 Q570 276 559 227 Q547 181 538 135 Q529 89 521 42 Q520 34 518 28 Q516 22 514 15 Q510 1 495 -2 Q478 -2 470 10 Q463 18 467 29 Q476 82 486 134 Q496 186 509 237 Q508 238 508.5 238.5 Q509 239 508 241 L506 236 Q488 209 470 182.5 Q452 156 431 130 Q402 98 367.5 73.5 Q333 49 291 35 Q237 18 181 33.5 Q125 49 87 91 Q76 105 68 121 Q60 137 54 154 Q46 174 42.5 193.5 Q39 213 37 233 Q29 319 44 399.5 Q59 480 93 558 Q114 606 141 650 Q168 694 203 732 Q251 786 319 826 Q345 841 373.5 851 Q402 861 434 863 Q505 871 565 838 Q621 806 638 741 Z M625 694 Q608 689 599 697.5 Q590 706 588 719 Q588 723 588 727.5 Q588 732 587 736 Q573 782 530 799 Q497 814 460 814 Q435 813 412 808.5 Q389 804 366 793 Q320 770 282.5 737.5 Q245 705 214 665 Q182 622 158.5 576 Q135 530 118 480 Q104 438 96 396 Q88 354 86 309 Q85 291 86 273 Q87 255 88 237 Q88 206 100 175 Q105 161 110 148.5 Q115 136 124 125 Q137 110 155 99 Q173 88 193.5 82 Q214 76 235 76 Q256 76 275 83 Q313 97 344 120.5 Q375 144 401 175 Q457 243 493 324 Q530 401 559 480.5 Q588 560 611 643 L625 694 Z " />
<glyph glyph-name="B" unicode="B" horiz-adv-x="467" d="M296 481 Q317 482 337 480 Q357 478 376 470 Q442 443 457 373 Q462 349 459 325 Q456 301 448 278 Q414 190 353 134 Q292 78 199 55 Q161 46 125 46 L72 46 Q67 46 62.5 46 Q58 46 53 48 Q50 48 48 43 Q45 34 42 24.5 Q39 15 35 5 Q30 -8 18 -12 Q2 -17 -9 -4 Q-19 9 -12 26 Q-7 33 -4.5 41 Q-2 49 1 57 L-12 64 Q-29 74 -34 90.5 Q-39 107 -31 121 Q-21 137 -5 136 Q11 135 19 118 Q22 127 24.5 135.5 Q27 144 29 153 L129 537 Q143 587 156.5 635.5 Q170 684 183 732 Q186 735 184 737 L180 728 Q174 709 155 712 Q146 714 140 720 Q134 726 134 734 Q132 745 138 754 Q150 783 176 801 Q184 808 193 813.5 Q202 819 210 827 Q214 829 214 832 Q216 837 217 842.5 Q218 848 219 853 Q226 873 242 873 Q250 874 256.5 869.5 Q263 865 266 855 L268 854 L309 866 Q342 875 376 874 Q396 872 415 867 Q434 862 451 849 Q469 836 478.5 818 Q488 800 490 777 Q492 756 487 736.5 Q482 717 474 697 Q446 641 404 593 Q356 533 300 484 L296 481 Z M64 94 Q71 94 77.5 94 Q84 94 91 95 Q102 95 111.5 95 Q121 95 130 96 Q141 97 151.5 97.5 Q162 98 172 100 Q255 117 311.5 165.5 Q368 214 400 291 Q414 325 411 362 Q408 385 392.5 403 Q377 421 355 427 Q336 432 318.5 432 Q301 432 285 430 L230 420 Q207 415 196 433 Q189 449 203 467 L217 478 Q246 503 274 528.5 Q302 554 328 582 Q354 608 377 636.5 Q400 665 417 697 Q426 713 433.5 728.5 Q441 744 442 763 Q445 809 402 821 Q388 824 375 824.5 Q362 825 348 823 Q302 817 258 795 Q255 793 253 790 Q249 777 245.5 764.5 Q242 752 237 739 Q216 670 197 600.5 Q178 531 160 461 Q138 377 116 295 Q94 213 73 131 Q71 122 68.5 113.5 Q66 105 64 94 Z " />
<glyph glyph-name="C" unicode="C" horiz-adv-x="540" d="M442 878 Q448 876 454.5 875 Q461 874 467 872 Q527 854 555 795 Q581 741 561 682 L543 634 Q539 623 530 618.5 Q521 614 511 618 Q501 621 496.5 630 Q492 639 496 650 Q499 660 503 669.5 Q507 679 510 689 Q514 700 517 711.5 Q520 723 518 735 Q517 766 498.5 791.5 Q480 817 451 825 Q436 829 421.5 826.5 Q407 824 393 819 Q370 810 350 796 Q330 782 312 765 Q274 728 243 686.5 Q212 645 186 599 Q151 537 127.5 471.5 Q104 406 89 337 Q84 316 81 294.5 Q78 273 75 252 Q71 215 74 179 Q77 143 91 108 Q98 91 108 78.5 Q118 66 135 60 Q149 53 164 53.5 Q179 54 194 59 Q217 64 236.5 75.5 Q256 87 276 101 Q302 121 324.5 143 Q347 165 368 188 Q406 229 440 272.5 Q474 316 506 362 L533 405 Q536 409 539.5 413.5 Q543 418 547 421 Q555 426 564 424.5 Q573 423 578 418 Q585 411 586 402.5 Q587 394 581 387 Q567 364 552 341 Q537 318 521 296 Q486 246 447.5 200.5 Q409 155 364 112 Q341 90 317 70.5 Q293 51 266 34 Q227 13 184 4 Q143 -1 107 17 Q71 35 53 72 Q42 92 36 114 Q30 136 26 159 Q20 200 23 240 Q25 267 29.5 294 Q34 321 40 349 Q54 412 75 472.5 Q96 533 125 591 Q154 649 191 701 Q228 753 275 799 Q319 843 374 865 Q397 876 418 877 Q420 877 420 878 L442 878 Z " />
<glyph glyph-name="D" unicode="D" horiz-adv-x="486" d="M18 45 Q14 47 8 49 Q-4 53 -11.5 61.5 Q-19 70 -21.5 80.5 Q-24 91 -22.5 102 Q-21 113 -15 122 Q-10 130 -1 132 Q8 134 16 130 Q24 126 27 118 Q30 110 27 101 L25 94 Q30 92 31 97 Q41 139 51 181 Q61 223 72 265 L129 477 Q149 550 170 622 Q191 694 215 766 Q215 768 216 770 Q209 765 203.5 761 Q198 757 194 749 Q189 740 180.5 736 Q172 732 163 735 Q152 739 148 747.5 Q144 756 148 767 Q150 772 153 776 Q156 780 159 785 Q175 801 192.5 812.5 Q210 824 230 833 Q234 835 237 837.5 Q240 840 242 845 Q245 855 250 862 Q258 871 269.5 870 Q281 869 289 858 Q290 857 290 856 L331 866 Q366 872 402 873 Q438 874 474 865 Q493 860 510.5 852 Q528 844 542 832 Q562 816 573.5 795 Q585 774 589 748 Q594 724 593 699 Q592 674 587 648 Q576 583 551.5 521.5 Q527 460 492.5 403 Q458 346 415.5 293.5 Q373 241 326 195 Q290 160 249 132 Q208 104 161 84 Q138 74 116 65.5 Q94 57 71 51 Q68 48 68 47 Q64 33 61 20 Q58 7 55 -6 Q54 -12 52 -17 Q50 -22 45 -26 Q31 -35 18 -27 Q5 -17 8 1 L18 45 Z M81 104 L87 106 L140 127 Q177 144 210.5 164.5 Q244 185 273 212 Q321 257 364.5 307.5 Q408 358 443 414.5 Q478 471 503.5 532 Q529 593 540 659 Q544 679 544 699 Q544 719 541 739 Q535 786 495 805 Q484 811 472.5 815 Q461 819 450 821 Q431 824 412 824.5 Q393 825 373 823 Q324 818 281 802 Q277 801 274 796 Q253 732 233 667.5 Q213 603 195 537 Q167 435 140 334 Q113 233 87 130 L81 104 Z " />
<glyph glyph-name="E" unicode="E" horiz-adv-x="520" d="M202 427 Q194 435 187 442 Q180 449 173 457 Q161 472 155.5 489 Q150 506 148 524 Q145 556 151.5 585.5 Q158 615 170 644 Q185 682 204.5 716.5 Q224 751 250 781 Q273 807 299.5 828.5 Q326 850 358 864 Q375 872 393.5 876 Q412 880 432 878 Q449 877 467.5 870.5 Q486 864 502.5 851.5 Q519 839 531 820.5 Q543 802 548 777 Q554 744 547.5 713.5 Q541 683 520 655 Q515 649 510 643.5 Q505 638 497 634 Q485 626 473 634 Q461 642 463 656 Q463 664 472 673 Q486 684 493 700 Q500 716 502 734 Q505 757 500 774 Q493 798 477 811.5 Q461 825 437 830 Q415 834 396 828.5 Q377 823 358 812 Q308 783 270 730 Q222 666 202 594 Q197 577 195.5 559.5 Q194 542 196 524 Q202 479 244 458 Q257 451 271.5 448 Q286 445 300 444 Q323 444 326 425 Q328 414 321 405.5 Q314 397 301 397 Q276 396 253 392 Q230 388 208 378 Q90 330 56 210 Q49 187 49 164.5 Q49 142 57 119 Q75 61 135 54 Q168 49 199 55 Q230 61 261 73 Q312 95 349 130 Q384 162 416 194.5 Q448 227 479 262 Q485 268 486 272 Q500 289 518 278 Q526 273 528.5 264 Q531 255 525 246 Q516 231 502 217 Q473 188 444 158 Q415 128 385 99 Q318 35 227 13 Q199 5 170.5 4 Q142 3 113 10 Q37 29 11 106 Q2 132 1.5 158 Q1 184 8 210 Q42 353 180 418 L202 427 Z " />
<glyph glyph-name="F" unicode="F" horiz-adv-x="494" d="M166 473 Q215 473 260 473 Q305 473 350 472 Q362 472 374.5 472.5 Q387 473 399 476 Q409 478 416.5 473 Q424 468 426 460 Q429 452 425.5 443.5 Q422 435 413 432 Q406 430 399.5 428 Q393 426 385 426 Q325 424 267.5 426 Q210 428 150 426 Q145 411 141 396.5 Q137 382 133 368 Q122 326 113.5 290.5 Q105 255 97 220 Q89 185 80.5 146.5 Q72 108 60 61 L51 18 Q49 7 40.5 2 Q32 -3 22 -1 Q6 2 7 20 Q9 29 11 39.5 Q13 50 15 58 Q24 103 30.5 133 Q37 163 42 189.5 Q47 216 53.5 244 Q60 272 69 314 Q79 354 88.5 382 Q98 410 100 424 Q91 426 81.5 424 Q72 422 63 425 Q44 432 47 450 Q48 459 54.5 465 Q61 471 71 471 Q82 472 91.5 472 Q101 472 110 472 Q115 472 118 478 Q133 520 147.5 561 Q162 602 178 644 Q190 676 205.5 706 Q221 736 241 764 Q263 794 290 818 Q317 842 351 857 Q374 867 396.5 872 Q419 877 442 875 Q493 871 530.5 846.5 Q568 822 590 774 Q596 761 598 748.5 Q600 736 601 722 Q601 717 601.5 712 Q602 707 602 702 Q603 683 601 664 Q599 645 595 627 Q593 621 592.5 615 Q592 609 591 602 Q588 588 576 583 Q564 578 553 586 Q541 595 544 613 Q547 628 549.5 642.5 Q552 657 554 672 Q555 688 554 705 Q553 716 552 726 Q551 736 549 747 Q544 766 532 780.5 Q520 795 503 807 Q463 834 414 826 Q374 820 343.5 799 Q313 778 289 748 Q270 725 256 699 Q242 673 230 644 Q212 603 196.5 561.5 Q181 520 167 476 L167 475 Q167 474 166.5 474 Q166 474 166 473 Z " />
<glyph glyph-name="G" unicode="G" horiz-adv-x="500" d="M426 172 L399 140 Q374 111 344.5 88.5 Q315 66 279 52 Q250 41 219 39 Q188 37 158 47 Q128 57 106.5 77 Q85 97 71 123 Q59 145 52.5 168.5 Q46 192 42 216 Q39 236 38 254.5 Q37 273 37 293 Q38 337 45.5 379 Q53 421 67 463 Q90 537 124.5 603.5 Q159 670 207 730 Q232 760 259 788 Q286 816 319 838 Q361 867 410 876 Q457 884 496.5 865.5 Q536 847 561 806 Q573 787 579.5 766.5 Q586 746 591 725 Q598 690 593.5 655.5 Q589 621 578 587 Q576 582 574.5 576 Q573 570 571 564 Q563 544 543 549 Q518 554 525 582 Q529 596 533.5 611 Q538 626 541 640 Q555 709 525 770 Q515 790 500 804.5 Q485 819 462 825 Q421 835 380 816 Q358 807 340 793.5 Q322 780 305 764 Q263 724 229.5 678.5 Q196 633 169 581 Q147 539 130.5 495.5 Q114 452 103 406 Q91 362 88 320 Q86 287 87.5 254.5 Q89 222 97 190 Q103 170 111.5 152 Q120 134 135 118 Q158 92 197 89 Q229 87 255.5 96 Q282 105 308 122 Q335 142 356.5 165.5 Q378 189 396 218 Q416 247 432 277 Q448 307 464 338 Q468 346 472 353 Q476 360 481 368 Q488 378 498 380 Q508 382 518 376 Q532 365 526 346 L506 282 L463 119 L421 -41 Q419 -49 416 -54 Q411 -62 402.5 -65 Q394 -68 386 -65 Q377 -62 373 -54 Q369 -46 371 -37 L394 48 Q402 79 410 109.5 Q418 140 426 172 Z " />
<glyph glyph-name="H" unicode="H" horiz-adv-x="506" d="M118 412 L96 409 Q75 406 55 402.5 Q35 399 15 393 Q6 391 -2 395.5 Q-10 400 -13 409 Q-16 418 -11.5 426.5 Q-7 435 3 438 Q12 441 21.5 443.5 Q31 446 41 448 L128 460 Q133 461 134 465 L182 638 L239 844 Q242 852 246.5 857.5 Q251 863 260 865 Q273 867 281 857.5 Q289 848 286 835 L262 751 L184 470 Q184 467 183 465 L214 468 L264 471 Q293 473 322 474 Q351 475 380 475 Q406 477 432 477 Q458 477 484 477 Q491 477 493 484 Q509 547 525.5 608.5 Q542 670 561 732 L596 847 Q597 851 601 857 Q605 865 613.5 868 Q622 871 630 868 Q638 865 641.5 857 Q645 849 643 840 Q639 825 635 810 Q631 795 626 780 Q603 708 582 635.5 Q561 563 543 490 Q538 473 534 457.5 Q530 442 525 426 Q510 357 491.5 290.5 Q473 224 455 156 L426 50 L422 41 Q412 24 393 31 Q374 38 379 58 Q381 68 384.5 78 Q388 88 391 99 L433 258 Q445 300 455.5 342 Q466 384 477 427 Q478 428 478 429 Q470 429 463.5 429.5 Q457 430 450 429 Q429 429 408 428.5 Q387 428 365 428 L261 423 Q239 422 217 420.5 Q195 419 173 417 Q168 417 168 413 Q154 363 140.5 314.5 Q127 266 114 216 Q102 169 91.5 122 Q81 75 70 27 Q69 24 67.5 20.5 Q66 17 64 14 Q55 -2 36 5 Q28 7 24.5 14 Q21 21 23 29 Q27 58 35 87 Q46 134 57 180.5 Q68 227 80 273 Q88 306 98 339 Q108 372 116 405 L118 412 Z " />
<glyph glyph-name="I" unicode="I" horiz-adv-x="156" d="M274 842 L268 812 Q248 734 226 657.5 Q204 581 181 504 Q158 428 138 352 Q118 276 97 198 L52 30 L49 19 Q46 9 38 5 Q30 1 21 3 Q11 5 5.5 13 Q0 21 2 30 Q5 44 7.5 56 Q10 68 15 81 Q36 162 57.5 243 Q79 324 101 405 L165 627 Q177 666 187.5 705 Q198 744 209 783 Q210 789 208 791 Q196 803 203 818 Q208 829 214.5 840 Q221 851 228 861 Q237 878 256 871 Q274 864 274 842 Z " />
<glyph glyph-name="J" unicode="J" horiz-adv-x="326" d="M392 777 L388 774 L281 680 L247 651 Q242 646 235.5 644.5 Q229 643 221 646 Q210 650 206.5 661 Q203 672 210 681 Q214 687 217 690 Q245 713 271.5 736 Q298 759 325 782 Q347 802 367.5 822.5 Q388 843 409 863 Q418 873 429 876 Q443 879 453 870 Q463 861 461 847 Q459 836 456 826.5 Q453 817 451 807 Q431 732 411 659.5 Q391 587 371 512 Q352 447 334 382.5 Q316 318 296 253 Q278 189 250 132 Q237 108 222.5 85 Q208 62 189 42 Q178 31 166.5 22 Q155 13 141 7 Q109 -7 78 6 Q47 19 31 53 Q24 68 21 84 Q18 100 16 116 Q12 152 19 186 Q26 220 36 254 Q45 281 56 305.5 Q67 330 78 355 Q88 372 96 393 Q99 398 103 402 Q107 406 115 407 Q128 411 137 400.5 Q146 390 142 377 Q138 367 134 358 Q130 349 126 339 Q116 319 106 298 Q96 277 88 255 Q80 235 74.5 213.5 Q69 192 66 170 Q62 146 63.5 122.5 Q65 99 73 76 Q75 72 75 70 Q83 54 97 49.5 Q111 45 126 54 Q152 69 170 96 Q190 122 204.5 151 Q219 180 230 210 Q246 252 258.5 294 Q271 336 283 379 L376 715 L391 772 Q391 775 392 777 Z " />
<glyph glyph-name="K" unicode="K" horiz-adv-x="418" d="M135 417 Q133 413 133 412 Q118 357 103 302 Q88 247 73 191 Q63 153 54.5 115.5 Q46 78 37 41 Q35 34 33.5 28 Q32 22 29 17 Q21 1 2 4 Q-8 7 -13.5 16 Q-19 25 -15 36 Q-10 49 -7 61.5 Q-4 74 -1 88 Q18 174 40.5 257.5 Q63 341 87 426 Q107 500 126.5 573.5 Q146 647 166 722 Q175 754 183 787 Q191 820 199 853 Q205 870 222 873 Q237 875 244 859 Q248 850 247 840 Q239 810 231.5 780.5 Q224 751 216 721 L166 529 Q165 528 165 525 Q167 527 167 527 Q195 553 222 578.5 Q249 604 278 630 Q329 677 379 723.5 Q429 770 478 818 L512 849 Q521 858 531 858 Q547 860 554 845 Q563 831 550 818 L524 793 L412 687 Q379 656 346 626.5 Q313 597 281 568 Q253 542 226.5 516.5 Q200 491 174 463 Q171 458 172 453 L231 327 Q260 261 293 198 Q326 135 359 72 Q361 68 363 65 Q365 62 366 58 Q368 50 364.5 43 Q361 36 355 31 Q347 27 338.5 29 Q330 31 324 39 L310 64 Q263 150 221 237 Q179 324 138 412 L135 417 Z " />
<glyph glyph-name="L" unicode="L" horiz-adv-x="320" d="M44 83 L87 130 Q130 178 169.5 226.5 Q209 275 248 326 L311 406 Q322 419 338 416 Q352 412 355 397 Q358 385 349 375 Q339 364 330.5 352.5 Q322 341 313 330 L191 176 Q161 140 130 105 Q99 70 67 36 Q60 29 52 22 Q44 15 36 9 Q22 -1 11 1 Q-1 3 -7.5 11.5 Q-14 20 -12 34 Q-10 50 -8 66 Q-6 82 -2 98 Q16 184 37 268 Q58 352 81 437 Q101 506 120.5 575 Q140 644 159 714 Q168 748 177 782 Q186 816 194 851 Q196 862 203 868 Q210 874 220 873 Q231 873 237.5 864 Q244 855 241 844 Q236 821 231 797 Q226 773 219 749 Q197 670 174.5 591 Q152 512 131 432 Q114 373 98.5 313.5 Q83 254 69 194 Q61 166 55.5 138.5 Q50 111 42 83 L44 83 Z " />
<glyph glyph-name="M" unicode="M" horiz-adv-x="547" d="M199 668 Q202 674 205 680.5 Q208 687 213 694 Q229 723 245.5 750.5 Q262 778 284 803 Q297 818 310 831 Q323 844 340 854 Q353 862 366.5 864.5 Q380 867 395 862 Q418 852 428 823 Q434 805 434 783 Q435 755 430.5 729 Q426 703 420 677 L420 674 Q427 684 431 694 Q445 717 460 740 Q475 763 493 783 Q509 801 528 816 Q547 831 570 840 Q579 843 588.5 845.5 Q598 848 608 846 Q638 842 646 814 Q651 800 652 786.5 Q653 773 651 759 Q647 717 636.5 676.5 Q626 636 615 595 L552 350 Q541 310 531.5 271 Q522 232 513 193 L472 18 Q471 16 471 12 Q467 2 459.5 -3 Q452 -8 442 -6 Q431 -4 426 4 Q421 12 424 23 Q428 43 433 63.5 Q438 84 444 104 Q450 134 456.5 163 Q463 192 471 222 Q480 260 489 297.5 Q498 335 509 373 L590 687 Q595 710 599 732.5 Q603 755 604 778 Q604 784 602 794 Q602 799 597 797 Q591 795 585 793 Q579 791 573 788 Q554 778 539.5 764 Q525 750 514 733 Q494 707 477.5 678 Q461 649 447 620 Q418 562 393 502.5 Q368 443 347 381 Q343 369 340.5 357 Q338 345 334 333 Q333 331 332 327 Q331 323 329 321 Q324 313 316 311 Q308 309 300 312 Q292 315 287.5 323.5 Q283 332 285 341 Q293 364 297 387 Q305 416 312.5 446.5 Q320 477 328 507 Q350 588 370 672 Q377 699 382.5 726 Q388 753 387 782 Q385 796 381 811 Q378 820 369 816 Q362 812 356 807.5 Q350 803 345 798 Q312 766 290 730 Q264 691 243 650 Q222 609 204 566 Q175 504 151 441 Q127 378 105 313 Q97 292 89.5 271 Q82 250 76 229 L47 104 Q44 93 41.5 80.5 Q39 68 36 57 Q32 47 24.5 41.5 Q17 36 9 38 Q-2 39 -8 48 Q-14 57 -12 69 Q-7 107 2 144.5 Q11 182 22 220 Q33 255 42 288.5 Q51 322 60 357 L140 643 Q154 689 167.5 734.5 Q181 780 195 826 Q198 833 199.5 839.5 Q201 846 203 853 Q205 863 212.5 869.5 Q220 876 229 875 Q238 873 244.5 866 Q251 859 249 849 Q248 833 241 813 Q230 777 219.5 741.5 Q209 706 197 670 L197 668 L199 668 Z " />
<glyph glyph-name="N" unicode="N" horiz-adv-x="438" d="M-39 13 L-23 73 Q-3 146 17 218 Q37 290 56 363 Q76 440 94.5 516 Q113 592 132 670 Q141 708 149 746 Q157 784 166 822 Q168 836 170 844 Q172 855 180 860.5 Q188 866 198 864 Q208 862 213 854 Q218 846 216 835 L193 726 Q189 709 185.5 692.5 Q182 676 179 659 L182 664 Q202 699 225 732 Q248 765 277 794 Q335 851 412 873 Q428 878 443.5 879 Q459 880 476 875 Q522 862 534 812 Q539 792 540 771.5 Q541 751 539 731 Q535 689 525.5 648 Q516 607 505 566 Q487 498 468 431.5 Q449 365 430 298 Q413 235 395 173 Q377 111 359 48 Q357 41 353.5 34.5 Q350 28 347 21 Q338 4 321 7 Q310 9 304 18 Q298 27 303 38 Q314 59 320 81.5 Q326 104 332 127 Q363 233 393 338 Q423 443 452 549 Q462 584 470.5 620 Q479 656 486 693 Q489 710 491.5 727.5 Q494 745 493 763 Q493 772 492 781 Q491 790 489 799 Q485 816 473.5 825 Q462 834 442 831 Q417 828 395.5 818 Q374 808 354 795 Q328 778 306.5 756.5 Q285 735 267 709 Q237 668 213.5 624 Q190 580 170 532 Q150 485 135 437.5 Q120 390 105 342 Q81 262 58.5 183 Q36 104 14 24 L8 4 Q4 -4 -2.5 -9 Q-9 -14 -17 -12 Q-33 -12 -38 8 Q-39 8 -39 9 L-39 13 Z " />
<glyph glyph-name="O" unicode="O" horiz-adv-x="454" d="M523 702 Q528 665 525.5 631.5 Q523 598 518 566 Q510 509 496 455.5 Q482 402 466 348 Q435 245 387 154 Q373 126 355.5 100 Q338 74 315 53 Q298 36 278.5 24 Q259 12 235 7 Q199 -1 170 10 Q141 21 115 50 Q95 71 82.5 96 Q70 121 63 148 Q52 190 50.5 230.5 Q49 271 53 312 Q63 406 88 494.5 Q113 583 151 667 Q165 701 183 732 Q201 763 224 792 Q241 813 261 831 Q281 849 307 861 Q325 869 345 872 Q365 875 385 873 L391 873 Q403 876 414 868 Q430 860 445 849.5 Q460 839 473 827 Q495 804 503 779 Q511 759 516 739.5 Q521 720 523 702 Z M474 698 Q471 709 469 719.5 Q467 730 463 741 Q461 751 457.5 761 Q454 771 448 780 Q441 792 431.5 800.5 Q422 809 408 811 Q406 812 404.5 813 Q403 814 400 815 Q396 817 391.5 819.5 Q387 822 382 822 Q356 824 334 814 Q315 806 299.5 793.5 Q284 781 271 766 Q253 743 237.5 717 Q222 691 208 664 Q168 584 143 498 Q118 412 106 321 Q101 280 102 240.5 Q103 201 113 159 Q118 137 126.5 117 Q135 97 150 79 Q170 59 192 55 Q205 53 217.5 56 Q230 59 241 64 Q255 70 266 80 Q277 90 287 101 Q306 122 320 145.5 Q334 169 348 195 Q373 243 392 292.5 Q411 342 425 394 Q439 441 450 487.5 Q461 534 467 584 Q472 613 474 641 Q476 669 474 698 Z " />
<glyph glyph-name="P" unicode="P" horiz-adv-x="440" d="M183 773 L180 768 Q171 748 150 754 Q141 758 137 766.5 Q133 775 136 786 Q141 800 153 809 Q176 829 202 842 Q207 844 208 849 Q213 865 226 869 Q237 872 248 864 Q250 862 253 863 Q311 881 374 879 Q412 877 444.5 864.5 Q477 852 504 826 Q520 810 528.5 791 Q537 772 542 752 Q548 724 545.5 696.5 Q543 669 535 642 Q524 608 507.5 577.5 Q491 547 469 518 Q443 484 413 455 Q383 426 351 398 Q306 360 257 328.5 Q208 297 156 268 Q142 260 127 252 Q112 244 97 237 Q84 231 81 219 Q67 168 53.5 117.5 Q40 67 26 16 L22 3 Q19 -5 11 -9.5 Q3 -14 -6 -12 Q-15 -9 -19.5 -1.5 Q-24 6 -22 15 Q-19 32 -15 47 Q-11 62 -6 78 Q10 136 26 193 Q42 250 57 308 L101 475 Q121 549 141.5 621.5 Q162 694 183 768 Q183 771 184 772 L183 773 Z M103 292 L108 295 L177 334 Q293 399 389 497 Q415 525 437.5 555 Q460 585 476 620 Q488 646 494.5 674 Q501 702 497 731 Q495 747 490.5 761.5 Q486 776 475 788 Q444 822 400 829 Q366 835 326 830 Q285 825 249 811 Q244 808 244 806 L226 749 Q197 648 169.5 548.5 Q142 449 116 347 L103 292 Z " />
<glyph glyph-name="Q" unicode="Q" horiz-adv-x="500" d="M355 99 Q344 88 332.5 77 Q321 66 308 55 Q291 39 270.5 28 Q250 17 227 12 Q181 2 147 17 Q113 32 87 70 Q75 87 68.5 106 Q62 125 58 145 Q52 170 49 194 Q46 218 47 244 Q47 267 49.5 290.5 Q52 314 57 337 Q63 378 73.5 418 Q84 458 97 497 Q109 531 124.5 563 Q140 595 157 627 Q209 723 282 799 Q299 817 318 831.5 Q337 846 360 857 Q383 866 406.5 868.5 Q430 871 455 864 Q464 861 474 861 Q484 862 493 854 Q502 844 512 834.5 Q522 825 532 815 Q562 779 568 733 Q571 713 571.5 691.5 Q572 670 570 650 Q568 618 563.5 586.5 Q559 555 554 524 Q544 460 522.5 400 Q501 340 472 282 Q454 246 434.5 211 Q415 176 390 144 Q387 141 390 139 Q412 104 433.5 70.5 Q455 37 478 3 Q484 -6 483 -16 Q482 -26 474 -33 Q466 -39 455.5 -37.5 Q445 -36 438 -27 Q428 -14 421 -1 Q405 23 389.5 47 Q374 71 359 95 L355 99 Z M361 190 Q363 191 363 191 Q366 196 369 200 Q372 204 374 209 Q397 244 415.5 281 Q434 318 452 356 Q466 387 477 419.5 Q488 452 496 485 Q502 517 507 548 Q512 579 516 611 Q519 639 520 666.5 Q521 694 518 723 Q517 750 499 777 Q496 780 492 780 Q472 780 467 798 Q466 805 459 808 Q428 826 390 815 Q371 809 355 797.5 Q339 786 325 772 Q254 701 204 610 Q190 583 176 555 Q162 527 151 498 Q134 455 123 410.5 Q112 366 104 320 Q100 291 98 263 Q96 235 99 206 Q101 186 104 167 Q107 148 113 129 Q119 112 128.5 97.5 Q138 83 153 72 Q167 61 182 58 Q223 55 259 79 Q279 93 295 109.5 Q311 126 326 144 Q328 146 326 148 L315 169 Q312 178 308.5 186 Q305 194 303 202 Q301 209 302.5 215.5 Q304 222 308.5 226 Q313 230 319.5 232 Q326 234 333 232 Q345 228 350 216 L361 190 Z " />
<glyph glyph-name="R" unicode="R" horiz-adv-x="460" d="M578 723 L575 696 Q570 672 561 650.5 Q552 629 540 608 Q520 569 492 536 Q464 503 432 474 Q392 439 350 410.5 Q308 382 263 356 L181 311 Q180 311 176 309 L196 281 L341 99 Q342 97 343 94.5 Q344 92 346 88 Q356 71 341 59 Q334 53 325.5 52.5 Q317 52 312 58 Q307 62 303 66 Q299 70 296 74 Q260 119 225 163.5 Q190 208 155 253 L131 285 Q126 283 125 279 Q114 235 103 192.5 Q92 150 81 106 Q76 86 71 67 Q66 48 58 29 Q56 21 50 13 Q37 -1 21 7 Q14 11 11 19.5 Q8 28 11 36 Q23 63 29.5 91.5 Q36 120 43 149 L69 249 Q69 253 66 254 Q57 259 54.5 267.5 Q52 276 54 284 Q58 294 64.5 300.5 Q71 307 80 312 Q85 315 87 321 Q108 409 134.5 494 Q161 579 188 667 Q196 693 205.5 719 Q215 745 223 771 Q224 773 223 775 L197 757 Q192 753 187 748.5 Q182 744 178 737 Q173 729 164 727 Q155 725 147 729 Q139 733 135.5 741.5 Q132 750 136 759 Q138 764 140.5 767.5 Q143 771 146 776 Q174 804 210 821 Q219 826 228.5 830 Q238 834 248 839 Q252 839 254 843 Q266 860 285 854 Q288 852 290 854 Q312 860 334 864.5 Q356 869 377 872 Q406 875 433.5 874.5 Q461 874 487 864 Q510 856 528 843.5 Q546 831 557 811 Q566 797 571 782.5 Q576 768 579 752 Q579 750 579.5 748 Q580 746 580 744 L578 723 Z M143 346 L148 348 Q194 372 238.5 397.5 Q283 423 327 452 Q362 476 394.5 504.5 Q427 533 456 567 Q481 598 499.5 632 Q518 666 528 706 Q530 723 529.5 739 Q529 755 521 771 Q516 785 507.5 794 Q499 803 486 811 Q469 821 451.5 823.5 Q434 826 414 826 Q382 825 351.5 819 Q321 813 291 803 Q287 802 286 798 Q273 763 260.5 729 Q248 695 237 660 Q218 601 200.5 542.5 Q183 484 164 425 L143 346 Z " />
<glyph glyph-name="S" unicode="S" horiz-adv-x="460" d="M190 7 Q170 7 144.5 12 Q119 17 94 31 Q56 51 32.5 81.5 Q9 112 1 155 Q-12 239 44 306 Q61 326 79.5 345 Q98 364 118 381 Q123 386 129 389.5 Q135 393 142 395 Q158 398 168 384 Q172 377 171.5 369.5 Q171 362 166 356 L161 352 Q145 340 131.5 326 Q118 312 104 298 Q96 290 88 281 Q80 272 73 262 Q60 244 53.5 221.5 Q47 199 49 176 Q51 153 61 131.5 Q71 110 91 93 Q120 67 160 61 Q230 47 294 74 Q334 91 358.5 120.5 Q383 150 390 195 Q395 227 392.5 259 Q390 291 376 323 Q364 349 348 372.5 Q332 396 314 418 Q285 451 258 484.5 Q231 518 205 554 Q194 571 185 588 Q176 605 171 625 Q163 653 166.5 679 Q170 705 183 731 Q195 757 213 776 Q231 795 253 812 Q276 829 300 842.5 Q324 856 350 864 Q370 869 389 870 Q408 871 427 864 Q474 847 483 803 Q485 792 483 781 Q481 770 473 762 Q467 755 458.5 753.5 Q450 752 443 757 Q435 762 431.5 770.5 Q428 779 432 787 Q434 794 430 802 Q423 813 412.5 817 Q402 821 390 819 Q355 818 322 797 Q299 785 279 769.5 Q259 754 243 733 Q229 715 221.5 695 Q214 675 216 652 Q217 641 220 631.5 Q223 622 227 612 Q236 595 246.5 580 Q257 565 268 551 L365 434 Q388 406 405.5 376 Q423 346 433 311 Q441 285 442.5 260 Q444 235 442 209 Q439 161 419 123 Q378 48 295 22 Q272 14 247.5 10.5 Q223 7 190 7 Z " />
<glyph glyph-name="T" unicode="T" horiz-adv-x="193" d="M268 816 L259 772 Q249 734 239 697 Q229 660 218 623 Q200 557 183.5 492 Q167 427 151 361 Q131 283 112.5 207 Q94 131 75 53 L67 24 Q64 11 54.5 5.5 Q45 0 34 4 Q26 8 22 16 Q18 24 20 35 L53 164 L118 433 Q135 502 153.5 569.5 Q172 637 191 706 L216 803 L218 814 L206 814 Q195 813 184.5 813 Q174 813 164 813 L46 810 Q29 809 11 807.5 Q-7 806 -24 804 Q-28 804 -32 802 Q-41 798 -50.5 801.5 Q-60 805 -65 814 Q-70 822 -66.5 832 Q-63 842 -54 846 Q-41 852 -28 852 Q13 856 59 858 Q104 860 148 860.5 Q192 861 237 862 Q267 864 297 865 Q327 866 356 867 L414 869 L511 874 Q514 874 516 875 Q538 882 546 863 Q554 844 536 831 Q528 826 518 826 Q491 823 464 823 L352 818 Q337 817 322 816.5 Q307 816 292 816 L268 816 Z " />
<glyph glyph-name="U" unicode="U" horiz-adv-x="494" d="M403 216 Q399 207 395 200 Q391 193 387 186 Q368 153 345.5 122 Q323 91 295 65 Q271 43 244 28 Q217 13 185 5 Q153 -2 127.5 6 Q102 14 82 40 Q43 89 42 151 Q42 171 41.5 192.5 Q41 214 43 235 Q45 252 48 270 Q51 288 56 305 Q65 348 75 390 Q85 432 96 475 Q124 574 156 673 Q172 719 188 764.5 Q204 810 220 856 Q230 881 252 876 Q263 874 267.5 864.5 Q272 855 268 844 Q245 780 222.5 716.5 Q200 653 179 588 Q163 534 148 479 Q133 424 120 370 Q113 343 107.5 317 Q102 291 97 264 Q92 242 91 220.5 Q90 199 92 176 Q91 164 92.5 152 Q94 140 96 129 Q98 109 108 92.5 Q118 76 132 62 Q141 53 151.5 52 Q162 51 173 53 Q198 58 219.5 70.5 Q241 83 260 100 Q283 120 301.5 145 Q320 170 337 196 Q368 247 392 301 Q416 355 438 412 Q464 480 486.5 548 Q509 616 530 685 L572 820 Q575 831 583 838 Q589 843 597 844.5 Q605 846 611 841 Q617 837 621 830.5 Q625 824 622 816 L604 753 Q584 690 565.5 627.5 Q547 565 530 502 Q515 448 501 395 Q487 342 473 288 L436 132 L423 80 Q422 78 422 74 Q423 64 419 57 Q415 50 409 43 Q403 37 395 36 Q387 35 380 39 Q373 42 370 49.5 Q367 57 369 64 L390 151 L403 212 L403 216 Z " />
<glyph glyph-name="V" unicode="V" horiz-adv-x="420" d="M98 67 Q105 74 111 81 Q117 88 123 96 Q138 117 151.5 139.5 Q165 162 177 185 Q204 236 229.5 285.5 Q255 335 282 385 Q317 450 351.5 513.5 Q386 577 421 641 L541 851 Q545 861 551 867 Q562 879 578 873 Q592 869 595 854 Q596 846 591 837 Q586 829 581.5 822.5 Q577 816 573 809 Q550 769 528 730 Q506 691 484 650 Q452 595 421.5 541 Q391 487 361 430 Q338 388 316 345 Q294 302 271 259 Q250 217 228.5 175.5 Q207 134 182 95 Q169 75 155.5 57 Q142 39 124 23 Q110 11 94 8 Q73 3 61 22 Q54 30 52 39 Q50 48 48 58 Q46 79 47 99.5 Q48 120 50 140 Q56 193 65 244 Q74 295 85 347 Q93 392 102 437 Q111 482 120 527 L168 745 Q173 770 179 795.5 Q185 821 192 846 Q197 869 216 869 Q227 869 235 860.5 Q243 852 241 840 Q237 823 232.5 806 Q228 789 225 772 L187 602 L156 450 L131 323 Q126 299 121 275 Q116 251 112 226 Q109 207 106.5 188 Q104 169 102 150 Q97 122 96 97 L96 68 Q98 67 98 67 Z " />
<glyph glyph-name="W" unicode="W" horiz-adv-x="686" d="M354 318 L344 294 Q320 237 292.5 184 Q265 131 230 80 Q217 61 203 44 Q189 27 170 13 Q158 5 142 -3 Q113 -18 83 1 Q64 12 53 29 Q42 46 37 66 Q25 118 35 170 Q45 217 55 263 Q65 309 76 357 Q94 435 114 511 Q134 587 155 664 Q163 694 171.5 723.5 Q180 753 189 783 Q192 793 195.5 802.5 Q199 812 203 822 Q207 832 216 836 Q225 840 235 835 Q246 830 250 820.5 Q254 811 249 802 Q241 789 237 775.5 Q233 762 228 748 Q192 629 162 508 L100 249 L82 166 Q77 143 77.5 119 Q78 95 85 72 Q90 52 106 42 Q116 36 125 41 Q137 47 147 55.5 Q157 64 166 74 Q179 88 189 103.5 Q199 119 210 136 Q238 179 260 223.5 Q282 268 301 315 Q321 364 339.5 413 Q358 462 377 511 Q379 516 381 520 Q383 524 385 529 Q395 548 413 543 Q433 538 431 517 Q431 506 430 496.5 Q429 487 427 476 L405 340 Q400 307 397.5 274 Q395 241 397 207 Q398 181 400 156 Q402 131 410 106 Q412 102 413.5 98 Q415 94 417 90 Q425 77 439 83 Q449 88 456.5 95.5 Q464 103 470 111 Q484 131 495.5 152 Q507 173 518 195 Q539 238 557.5 281.5 Q576 325 594 370 L676 572 Q705 643 734.5 712 Q764 781 797 850 Q799 855 802 859.5 Q805 864 809 868 Q818 879 830.5 876 Q843 873 848 860 Q851 852 846 842 Q821 794 799.5 744.5 Q778 695 758 644 Q724 563 691 482 Q658 401 625 320 Q608 278 590 237 Q572 196 551 155 Q541 135 530 116 Q519 97 505 79 Q491 59 467 45 Q438 28 411.5 36.5 Q385 45 371 76 Q365 90 361 105.5 Q357 121 355 137 Q350 163 349 190 Q348 217 349 244 Q350 261 351.5 279 Q353 297 355 314 L355 317 Q354 318 354 318 Z " />
<glyph glyph-name="X" unicode="X" horiz-adv-x="485" d="M284 382 L230 308 Q184 247 140.5 185 Q97 123 55 60 Q44 44 34.5 28.5 Q25 13 15 -3 Q5 -22 -15 -14 Q-23 -10 -27 -2 Q-31 6 -27 15 Q-23 26 -16 38 Q10 76 35.5 114.5 Q61 153 87 191 Q132 254 177.5 316 Q223 378 269 441 Q271 444 271 450 Q264 485 257.5 520 Q251 555 245 590 L212 773 Q210 787 208 800 Q206 813 204 827 Q202 838 207 846 Q212 854 222 856 Q232 859 240 853.5 Q248 848 250 837 L258 791 L273 702 Q278 676 282 650.5 Q286 625 291 599 L309 502 Q309 501 309.5 500.5 Q310 500 310 499 L336 533 Q387 604 439 672.5 Q491 741 545 810 L589 868 Q600 880 613 879 Q625 877 630.5 866 Q636 855 629 844 L613 821 Q562 755 512 689 Q462 623 411 556 Q388 527 367 497 Q346 467 325 438 Q322 433 323 429 Q358 263 401 103 L419 40 Q424 22 412 12 Q403 4 391.5 7 Q380 10 375 22 Q372 31 369.5 40 Q367 49 365 58 Q342 138 322.5 217.5 Q303 297 285 378 Q285 380 284 382 Z " />
<glyph glyph-name="Y" unicode="Y" horiz-adv-x="493" d="M470 383 Q454 358 437 335 Q420 312 402 290 Q384 269 364.5 250 Q345 231 322 216 Q302 203 281 197.5 Q260 192 237 194 Q212 196 193 207 Q174 218 157 235 Q119 281 111 341 Q108 374 107 407 Q106 440 109 472 Q111 498 116 523.5 Q121 549 127 575 Q141 625 155.5 674 Q170 723 187 771 Q195 791 202.5 810.5 Q210 830 218 850 Q221 855 223.5 858.5 Q226 862 229 866 Q244 879 259 869 Q266 864 268 856.5 Q270 849 266 841 Q252 816 243 790.5 Q234 765 226 739 Q209 690 194.5 641 Q180 592 168 542 Q154 483 154 427 Q154 404 155.5 380.5 Q157 357 162 334 Q171 290 200 260 Q218 243 243.5 241 Q269 239 290 251 Q307 261 320.5 272.5 Q334 284 347 298 Q374 327 396.5 358 Q419 389 439 423 Q465 468 487 513.5 Q509 559 529 606 Q552 662 574 717 Q596 772 619 827 Q622 835 627 843 Q632 851 640 854 Q648 857 656 854 Q664 851 668.5 843 Q673 835 670 827 L651 771 Q627 705 602.5 639 Q578 573 556 505 Q533 430 510.5 355 Q488 280 467 204 L285 -465 Q283 -474 279 -483 Q276 -493 267 -497.5 Q258 -502 250 -500 Q241 -497 236.5 -489 Q232 -481 235 -470 L406 155 L454 329 L468 379 Q468 381 470 383 Z " />
<glyph glyph-name="Z" unicode="Z" horiz-adv-x="546" d="M22 62 Q24 62 25 61.5 Q26 61 28 61 Q58 62 89 62 Q120 62 151 62 L240 67 L357 72 L434 77 Q441 77 446 82 Q456 88 464 85.5 Q472 83 477 74 Q482 65 479.5 54.5 Q477 44 467 36 Q460 29 451 26 Q442 23 433 22 L364 18 L246 14 Q223 12 201 10.5 Q179 9 156 9 Q123 8 89.5 7.5 Q56 7 24 7 Q9 7 -6 13 Q-28 19 -30 48 Q-31 58 -27.5 66.5 Q-24 75 -19 83 Q-7 104 11 122 Q34 149 58 174.5 Q82 200 106 225 L269 394 L539 675 Q562 698 583 721.5 Q604 745 626 770 Q633 778 640 788 Q647 798 655 808 Q655 809 654 810 Q648 811 642 812.5 Q636 814 630 814 Q605 817 580.5 817.5 Q556 818 531 817 Q484 816 436 811 L361 803 Q338 800 315 796.5 Q292 793 270 786 Q259 784 251.5 789 Q244 794 242 804 Q240 815 245.5 825 Q251 835 262 839 Q273 842 284.5 844.5 Q296 847 308 849 Q331 853 353.5 856 Q376 859 399 862 Q418 864 437 866 Q456 868 475 869 Q502 870 529.5 870.5 Q557 871 585 871 Q606 871 626 869.5 Q646 868 666 863 Q676 861 684 856 Q698 849 702.5 834 Q707 819 702 801 Q690 775 674 755 Q652 726 628.5 700.5 Q605 675 580 649 L177 230 Q150 201 123.5 174 Q97 147 71 120 Q58 108 47.5 94 Q37 80 26 67 L22 62 Z " />
<glyph glyph-name="one" unicode="1" horiz-adv-x="160" d="M174 491 Q173 487 172 480.5 Q171 474 169 467 Q145 376 121 285 Q97 194 73 103 Q68 83 63 64.5 Q58 46 53 27 Q53 24 51 20 Q47 11 39 6.5 Q31 2 22 5 Q13 7 7.5 15 Q2 23 4 33 Q6 42 8.5 51 Q11 60 13 69 Q33 146 52.5 221.5 Q72 297 92 374 Q97 390 101 406 Q105 422 110 438 Q112 446 107 451 Q95 464 103 478 Q108 489 114.5 498.5 Q121 508 128 517 Q133 524 141.5 525.5 Q150 527 158 523 Q174 517 174 491 Z " />
<glyph glyph-name="two" unicode="2" horiz-adv-x="280" d="M254 493 Q244 494 235 489 Q220 482 206.5 473.5 Q193 465 180 455 Q162 439 145.5 422.5 Q129 406 115 386 Q105 371 87 374 Q76 377 70.5 387.5 Q65 398 70 409 Q74 417 77 420 Q102 452 131 479 Q160 506 195 526 Q216 539 236 543 Q254 548 271 542 Q288 537 298 522.5 Q308 508 306 490 Q304 478 301 467.5 Q298 457 293 446 Q278 409 259 374.5 Q240 340 218 306 Q180 249 140 194.5 Q100 140 55 89 Q53 87 51.5 84.5 Q50 82 47 79 Q51 78 54 78 Q70 78 85.5 78 Q101 78 116 77 Q127 77 138 76 Q149 75 160 71 Q165 69 175 67 Q184 65 190 57.5 Q196 50 195 41 Q194 32 187.5 25 Q181 18 172 18 Q166 17 160 18 Q154 19 148 21 Q140 23 132 24.5 Q124 26 115 26 Q106 26 96.5 26 Q87 26 77 27 Q37 28 -5 19 Q-13 17 -19 17 Q-34 17 -41.5 29.5 Q-49 42 -41 56 Q-36 64 -29 70 Q37 142 94.5 218.5 Q152 295 203 380 Q216 401 226.5 423.5 Q237 446 247 469 Q249 474 251.5 480 Q254 486 254 493 Z " />
<glyph glyph-name="three" unicode="3" horiz-adv-x="280" d="M231 487 Q223 487 216 485 Q209 483 202 480 Q162 462 129 432 Q122 426 116 419.5 Q110 413 103 407 Q97 401 87 398 Q75 395 64 406 Q55 416 60 431 Q64 439 67 442 Q93 469 121.5 490.5 Q150 512 184 527 Q206 537 226 537 Q231 538 235 537.5 Q239 537 244 536 Q284 527 281 480 Q280 465 275.5 451.5 Q271 438 265 424 Q254 403 241.5 384 Q229 365 215 346 Q208 337 201 328.5 Q194 320 187 312 Q186 311 182 305 L206 302 Q229 297 245 280 Q261 263 264 238 Q267 203 252 171 Q239 142 221.5 118 Q204 94 183 72 Q169 58 154 45.5 Q139 33 121 23 Q106 15 89.5 9.5 Q73 4 56 3 Q45 3 35 4 Q25 5 15 7 Q-1 11 -11 21 Q-21 31 -27 45 Q-32 58 -26 72 Q-20 86 -7 91 Q7 96 18 87 Q28 78 27 64 Q27 62 26.5 60.5 Q26 59 26 57 Q34 53 43 53 Q52 53 60 54 Q85 58 106 73 Q138 96 162.5 124.5 Q187 153 204 188 Q208 195 209.5 202.5 Q211 210 213 217 Q214 221 214 225 Q214 229 214 233 Q211 250 193 253 Q169 256 143 246 Q136 243 129.5 239.5 Q123 236 116 234 Q111 233 106 232 Q101 231 96 232 Q84 234 79 246 Q74 258 80 270 Q82 274 85.5 277.5 Q89 281 92 285 Q117 309 140 334 Q163 359 183 388 Q194 403 204 419 Q214 435 222 452 Q225 460 228 468.5 Q231 477 231 487 Z " />
<glyph glyph-name="four" unicode="4" horiz-adv-x="253" d="M76 310 Q95 304 117 306 Q136 306 153 311 Q170 316 187 322 Q192 323 192 331 Q198 353 204 374.5 Q210 396 215 418 Q221 443 227 467 Q233 491 238 516 Q243 533 256 537 Q268 540 277.5 533.5 Q287 527 287 515 Q288 510 287 505 Q286 500 285 495 Q261 395 235 297 Q209 199 180 100 Q175 83 171.5 66.5 Q168 50 163 33 Q161 25 159 19 Q149 -3 129 4 Q119 6 114.5 14.5 Q110 23 112 34 Q114 42 116 50 Q118 58 120 66 Q134 114 146.5 161 Q159 208 172 256 Q174 260 174 264 Q170 264 168 263 Q142 257 117.5 256 Q93 255 67 261 Q62 263 56.5 265 Q51 267 46 269 Q32 277 27 291 Q22 305 27 319 Q31 334 41 348 Q58 375 79 404 Q96 426 112 448 Q128 470 144 492 Q151 500 155 509 Q168 528 187 519 Q195 515 199 506 Q203 497 199 488 Q196 481 192.5 475.5 Q189 470 185 464 Q166 439 147.5 414 Q129 389 111 364 Q103 353 96 342.5 Q89 332 82 321 Q80 319 79 316 Q78 313 76 310 Z " />
<glyph glyph-name="five" unicode="5" horiz-adv-x="240" d="M86 347 Q97 350 106 353 Q115 356 124 358 Q142 363 161 364 Q193 365 212 337 Q226 318 228 292 Q229 275 227 259 Q225 243 220 228 Q209 188 191.5 151.5 Q174 115 148 83 Q131 61 110.5 43 Q90 25 64 14 Q49 7 33.5 3.5 Q18 0 1 4 Q-18 8 -28 22 Q-38 36 -34 55 Q-33 60 -32.5 64 Q-32 68 -30 73 Q-26 83 -17.5 87 Q-9 91 0 89 Q21 82 18 60 Q18 58 17.5 56.5 Q17 55 17 52 Q21 53 24 53 Q27 53 30 55 Q55 62 77 81 Q92 94 104.5 108.5 Q117 123 127 140 Q142 166 154.5 192.5 Q167 219 174 248 Q180 268 178 292 Q176 298 175 302 Q172 310 168 312.5 Q164 315 155 313 Q144 311 132.5 308 Q121 305 110 302 Q102 300 94 297 Q86 294 78 292 Q73 290 68.5 290 Q64 290 59 290 Q31 292 31 320 Q31 330 34 341 Q42 374 50.5 406.5 Q59 439 70 471 Q72 476 73.5 480 Q75 484 77 489 Q86 511 109 517 Q133 524 161 529 Q178 532 193.5 534.5 Q209 537 225 539 Q238 541 247 538 Q265 533 265 514 Q265 496 247 491 Q244 490 239 490 Q212 488 186 483 Q160 478 134 473 Q123 472 118 459 Q112 436 105.5 414.5 Q99 393 92 370 Q90 365 89 359.5 Q88 354 86 347 Z " />
<glyph glyph-name="six" unicode="6" horiz-adv-x="260" d="M92 285 Q96 287 98 288.5 Q100 290 102 292 Q106 295 109 298 Q112 301 116 304 Q154 334 194 313 Q238 292 238 243 Q238 226 233 208 Q219 165 199.5 126.5 Q180 88 152 53 Q132 27 104 12 Q76 -3 46 6 Q14 14 5 45 Q0 62 -0.5 78.5 Q-1 95 0 112 Q2 154 11 193 Q20 232 34 270 Q66 364 113 444 Q122 459 132 473.5 Q142 488 152 502 Q163 516 178 525 Q191 532 202 528 Q218 523 220 508 Q222 491 207 484 Q193 478 185 464 Q175 449 165 434.5 Q155 420 147 404 Q118 353 96 295 Q95 293 94.5 291 Q94 289 92 285 Z M78 247 Q75 238 72.5 229.5 Q70 221 68 213 Q58 181 52.5 149 Q47 117 49 84 Q49 78 50 72 Q51 66 52 61 Q53 53 62 52 Q73 52 82 56 Q93 61 101 69.5 Q109 78 117 87 Q140 116 156.5 148.5 Q173 181 184 216 Q189 228 189 238 Q192 258 175 268 Q159 278 145 264 Q144 263 143.5 263 Q143 263 142 262 Q136 257 130.5 252.5 Q125 248 119 243 Q99 227 81 245 Q80 245 78 247 Z " />
<glyph glyph-name="seven" unicode="7" horiz-adv-x="211" d="M181 297 Q195 282 188.5 266 Q182 250 157 250 Q152 239 146 229 Q140 219 135 208 Q112 162 88.5 117 Q65 72 39 27 Q37 24 35 21 Q33 18 31 16 Q25 8 16.5 6.5 Q8 5 0 10 Q-8 14 -11.5 22.5 Q-15 31 -12 40 L-6 52 Q23 100 48 149 Q73 198 99 248 Q100 250 100.5 252 Q101 254 102 256 Q94 262 90 269.5 Q86 277 90 287 Q95 301 105 303 Q115 305 127 304 Q150 349 171 394 Q192 439 213 486 Q203 485 194.5 484.5 Q186 484 178 483 Q157 481 136 479 Q115 477 93 475 L85 475 Q75 476 68.5 482.5 Q62 489 61 498 Q59 520 81 525 Q85 526 88.5 526 Q92 526 96 527 Q123 529 150 531.5 Q177 534 205 536 Q213 537 222 537.5 Q231 538 240 537 Q250 537 259 530 Q278 518 271 495 Q269 489 266.5 483 Q264 477 261 470 Q241 428 222 386.5 Q203 345 183 303 Q181 299 181 297 Z " />
<glyph glyph-name="eight" unicode="8" horiz-adv-x="233" d="M74 271 Q69 284 64.5 297 Q60 310 58 324 Q53 358 59.5 389.5 Q66 421 83 450 Q109 497 161 522 Q190 536 219 529 Q245 522 257 502.5 Q269 483 264 457 Q260 439 253 422.5 Q246 406 238 390 Q220 355 197 324.5 Q174 294 147 266 L140 259 Q144 253 147.5 247.5 Q151 242 155 236 Q167 217 176.5 197.5 Q186 178 192 156 Q207 94 163 50 Q149 35 132 23.5 Q115 12 94 7 Q54 -3 18 22 Q7 30 1 41.5 Q-5 53 -7 66 Q-15 104 2 144 Q10 164 20 182 Q30 200 41 217 Q47 226 52 235.5 Q57 245 63 254 Q65 259 68 262.5 Q71 266 74 271 Z M104 225 Q102 223 102 222.5 Q102 222 101 221 Q90 204 80 186.5 Q70 169 60 151 Q55 143 51.5 135 Q48 127 44 118 Q40 106 39 94 Q38 82 43 70 Q44 67 45.5 64 Q47 61 50 60 Q59 55 68.5 53 Q78 51 88 56 Q117 68 137 94 Q149 110 147 132 Q143 158 131 180 Q119 202 104 225 Z M114 302 Q122 310 128 317 Q134 324 140 331 Q161 357 178.5 384 Q196 411 208 442 Q210 448 212 454.5 Q214 461 216 468 Q217 479 206 482 Q203 482 200 482.5 Q197 483 195 482 Q189 480 183 477.5 Q177 475 172 472 Q145 456 129.5 432.5 Q114 409 108 379 Q103 360 105 341 Q107 322 114 302 Z " />
<glyph glyph-name="nine" unicode="9" horiz-adv-x="227" d="M148 259 Q145 257 143 256 Q141 255 139 253 Q114 239 88 236 Q65 234 49 247 Q33 260 31 283 Q30 298 33 312.5 Q36 327 41 341 Q43 347 45.5 353 Q48 359 51 364 Q64 390 79.5 415 Q95 440 112 464 Q134 494 166 515 Q172 519 178 521.5 Q184 524 192 526 Q222 532 240 509 Q254 492 254 468 Q255 452 252.5 437 Q250 422 246 407 Q237 368 223.5 331 Q210 294 196 256 Q178 209 156 165.5 Q134 122 111 78 Q103 64 94.5 51 Q86 38 78 25 Q76 21 74 18 Q72 15 70 11 Q60 -7 42 0 Q34 4 30.5 12 Q27 20 30 29 Q32 34 34 37.5 Q36 41 38 45 Q63 82 83 120.5 Q103 159 123 199 Q128 212 134 224 Q140 236 145 249 Q147 252 148 259 Z M175 330 Q177 332 177 333 Q188 361 195.5 389.5 Q203 418 208 447 Q211 459 209 473 Q206 486 195 480 Q191 478 183 472 Q164 458 146 434 Q131 413 117 391 Q103 369 92 346 Q87 337 84 327.5 Q81 318 78 307 Q73 293 78 282 Q80 281 83 281 Q88 281 90 282 Q119 288 138 310 L147 322 Q152 327 157.5 329.5 Q163 332 171 330 L175 330 Z " />
<glyph glyph-name="zero" unicode="0" horiz-adv-x="293" d="M19 136 Q20 184 27 228 Q34 272 47 315 Q56 347 67.5 377.5 Q79 408 95 437 Q105 454 115.5 469.5 Q126 485 140 499 Q149 508 159 514.5 Q169 521 181 524 Q210 532 234 514 Q236 512 238 511 Q240 510 243 511 Q265 514 276 493 Q284 480 288.5 466 Q293 452 296 438 Q299 415 297.5 393 Q296 371 293 349 Q282 289 265 231.5 Q248 174 222 119 Q215 105 207.5 92 Q200 79 192 66 Q178 42 153 22 Q150 20 147 17.5 Q144 15 140 13 Q114 -2 88.5 3 Q63 8 45 32 Q26 55 23 86 Q21 100 20.5 112.5 Q20 125 19 136 Z M240 448 Q216 445 205 468 Q200 477 192 473 Q187 470 182.5 466.5 Q178 463 173 459 Q161 445 152 430.5 Q143 416 135 400 Q95 319 80 227 Q74 195 72 164 Q70 133 73 101 Q75 91 77 81.5 Q79 72 85 64 Q97 48 114 58 Q117 60 119.5 61.5 Q122 63 124 65 Q130 73 137 80 Q144 87 149 95 Q157 109 164.5 123 Q172 137 179 151 Q194 182 204.5 214.5 Q215 247 224 280 Q232 309 238 339 Q244 369 246 400 Q246 412 245 424 Q244 436 240 448 Z " />
<glyph glyph-name="bar" unicode="&#x7c;" horiz-adv-x="133" d="M271 846 Q270 844 269.5 840 Q269 836 267 831 Q225 700 186.5 569 Q148 438 113 304 Q97 247 82.5 190 Q68 133 51 76 Q42 44 33.5 13 Q25 -18 16 -50 Q16 -61 8 -67 Q-3 -78 -17 -69 Q-23 -66 -26.5 -59 Q-30 -52 -29 -44 Q-29 -41 -27 -35 Q-20 -12 -15 10.5 Q-10 33 -2 56 Q24 144 46 231.5 Q68 319 93 407 Q115 488 138 566.5 Q161 645 184 725 Q194 758 204 790.5 Q214 823 225 855 Q226 857 226 858 Q226 859 228 861 Q236 878 254 873 Q271 868 271 846 Z " />
<glyph glyph-name="slash" unicode="&#x2f;" horiz-adv-x="374" d="M-27 -54 Q-41 -54 -48 -44.5 Q-55 -35 -51 -24 Q-49 -18 -47 -15 Q14 87 74 187.5 Q134 288 195 389 Q233 452 272.5 512.5 Q312 573 353 633 Q390 688 427.5 742 Q465 796 506 849 Q509 854 512.5 858 Q516 862 520 867 Q524 871 528 873.5 Q532 876 538 877 Q552 879 560 866 Q569 852 559 839 Q554 833 550 827.5 Q546 822 542 817 Q497 758 455.5 697.5 Q414 637 372 575 Q315 491 262.5 407 Q210 323 159 236 Q118 167 77.5 100 Q37 33 -4 -36 Q-10 -44 -13 -47 Q-19 -54 -27 -54 Z " />
<glyph glyph-name="backslash" unicode="&#x5c;" horiz-adv-x="407" d="M21 847 Q21 856 26.5 864 Q32 872 40 874 Q59 879 67 860 Q69 856 70 853 Q71 850 73 845 Q98 760 123 676 Q148 592 174 506 Q191 449 208 394 Q225 339 244 282 Q270 202 298.5 124.5 Q327 47 358 -31 Q360 -36 362 -41 Q364 -46 366 -52 Q372 -68 360 -82 Q346 -91 333 -85 Q323 -81 318 -68 Q313 -55 308 -42 Q303 -29 298 -15 Q269 60 242 134.5 Q215 209 190 287 Q174 337 158.5 385.5 Q143 434 128 484 Q106 554 86 623.5 Q66 693 45 763 Q40 782 34 800 Q28 818 23 837 Q22 839 22 842 Q22 845 21 847 Z " />
<glyph glyph-name="dollar" unicode="&#x24;" horiz-adv-x="280" d="M251 605 Q251 604 252 604 Q263 596 266 588 Q269 580 264 566 Q259 550 253.5 535 Q248 520 243 504 Q255 492 261 477 Q267 462 272 446 Q275 437 272 429 Q269 415 253 412 Q239 411 231 425 Q229 429 227.5 433 Q226 437 224 442 Q223 438 221 434 Q211 401 202 368 Q193 335 184 302 Q182 296 186 291 Q191 280 196.5 268.5 Q202 257 207 245 Q234 193 232 134 Q231 100 222.5 69.5 Q214 39 196 11 Q177 -18 152 -33.5 Q127 -49 94 -47 Q93 -49 92.5 -50.5 Q92 -52 91 -54 Q88 -73 82 -88 Q82 -90 81.5 -91.5 Q81 -93 81 -95 Q74 -115 54 -110 Q46 -108 40.5 -100.5 Q35 -93 37 -83 Q37 -72 42 -59 Q43 -52 45 -45 Q47 -38 49 -30 Q47 -28 45 -27 Q43 -26 41 -25 Q-2 10 -12 65 Q-13 69 -17 77 L-17 110 Q-16 112 -15 115 Q-14 118 -14 121 Q-5 181 34 226 Q44 238 59 248 Q69 255 81 255 Q100 253 105 233 Q106 224 101.5 216.5 Q97 209 89 207 Q75 203 67 190 Q34 149 31 99 Q29 57 56 28 Q57 26 62 23 Q62 25 62.5 26 Q63 27 63 28 Q80 93 96.5 157 Q113 221 130 286 Q132 292 129 299 Q126 305 123.5 311.5 Q121 318 118 324 Q111 347 106 369.5 Q101 392 102 416 Q104 457 128 485.5 Q152 514 190 519 Q192 520 194.5 520 Q197 520 199 521 Q201 527 202 531 Q207 544 211 556 Q215 568 220 581 Q225 599 239 605 L251 605 Z M105 3 Q125 4 140 18 Q156 32 165 52 Q194 111 182 177 Q177 203 163 229 Q133 115 105 3 Z M155 371 Q161 394 167 417.5 Q173 441 180 465 Q160 454 153 436 Q147 420 148.5 404 Q150 388 155 371 Z " />
<glyph glyph-name="exclam" unicode="&#x21;" horiz-adv-x="140" d="M14 97 Q14 98 16 106 Q40 215 70 322 Q100 429 131 537 Q139 567 147 597 Q155 627 163 657 Q165 660 165 663.5 Q165 667 166 671 Q168 681 176 686 Q184 691 193 689 Q202 687 208 680.5 Q214 674 213 664 Q213 653 208 638 Q194 587 180 538 Q166 489 153 438 Q136 378 120 318 Q104 258 87 197 Q81 172 74.5 147 Q68 122 63 96 Q62 93 61 90 Q60 87 59 85 Q55 77 47.5 73 Q40 69 32 71 Q13 76 14 97 Z M10 19 Q20 19 27 12 Q34 5 34 -6 Q34 -18 26.5 -26 Q19 -34 8 -34 Q0 -34 -7 -27.5 Q-14 -21 -13 -10 Q-14 1 -6.5 10 Q1 19 10 19 Z " />
<glyph glyph-name="asciicircum" unicode="&#x5e;" horiz-adv-x="206" d="M306 724 Q304 721 303 718.5 Q302 716 300 714 Q290 703 276 707 Q261 713 260 728 Q258 736 258 744.5 Q258 753 258 761 Q257 766 257 771 Q257 776 255 781 Q254 779 253 778.5 Q252 778 251 776 Q247 769 243.5 762 Q240 755 236 748 Q228 734 214 733 Q202 733 194.5 742.5 Q187 752 190 763 Q191 765 192 767.5 Q193 770 194 772 Q208 798 223 822.5 Q238 847 255 870 Q260 876 269.5 878 Q279 880 288 880 Q295 877 296.5 867 Q298 857 298 852 Q300 832 301 811.5 Q302 791 304 771 Q305 766 305.5 762 Q306 758 306 753 L306 724 Z " />
<glyph glyph-name="quotedbl" unicode="&#x22;" horiz-adv-x="207" d="M225 727 Q214 727 207 734.5 Q200 742 202 753 Q202 756 204 762 Q212 786 219.5 810 Q227 834 235 858 Q237 866 241 870 Q251 880 265 876 Q280 871 282 856 Q282 852 280 842 Q272 818 264.5 794.5 Q257 771 249 747 Q243 727 225 727 Z M345 847 Q345 842 344 838 Q339 822 333.5 806 Q328 790 323 774 Q321 768 319 761.5 Q317 755 315 749 Q314 740 305 735 Q292 727 280 736 Q268 745 269 760 Q269 764 270 766 Q276 787 282.5 808 Q289 829 295 850 Q298 858 302 863 Q312 878 328 871 Q345 866 345 847 Z " />
<glyph glyph-name="quotesingle" unicode="&#x27;" horiz-adv-x="187" d="M244 737 Q233 737 226 745 Q219 753 221 763 Q221 768 222 770 Q228 790 233.5 810.5 Q239 831 245 851 Q246 857 251 863 Q256 870 263.5 872.5 Q271 875 279 871 Q287 868 291 861 Q295 854 293 846 Q291 836 290 832 Q285 818 281.5 804 Q278 790 274 776 Q273 774 273 771.5 Q273 769 272 767 Q271 754 260 743 Q254 737 244 737 Z " />
<glyph glyph-name="colon" unicode="&#x3a;" horiz-adv-x="100" d="M55 182 Q55 171 48 164.5 Q41 158 30 159 Q20 160 13.5 167 Q7 174 7 184 Q8 194 15.5 201 Q23 208 32 207 Q43 207 49.5 199.5 Q56 192 55 182 Z M72 305 Q61 305 54 312 Q47 319 47 330 Q47 340 54 346.5 Q61 353 71 353 Q81 353 88.5 346 Q96 339 96 329 Q96 319 89 312 Q82 305 72 305 Z " />
<glyph glyph-name="semicolon" unicode="&#x3b;" horiz-adv-x="120" d="M37 133 Q24 133 17 143.5 Q10 154 15 166 Q17 171 20 175 Q23 179 25 184 L40 208 Q49 222 66 217 Q81 214 83 197 Q83 187 79 182 Q74 172 68.5 162.5 Q63 153 57 144 Q49 133 37 133 Z M96 364 Q107 364 114.5 356 Q122 348 122 337 Q122 328 115 321 Q108 314 99 314 Q88 314 80.5 321.5 Q73 329 73 340 Q73 350 79.5 357 Q86 364 96 364 Z " />
<glyph glyph-name="equal" unicode="&#x3d;" horiz-adv-x="280" d="M176 214 Q187 214 198 214 Q209 214 220 215 Q232 215 239.5 207 Q247 199 245 188 Q245 171 228 168 Q223 166 217.5 166 Q212 166 207 166 Q172 168 138 166.5 Q104 165 69 163 Q58 161 47.5 162 Q37 163 26 163 Q1 165 1 187 Q2 197 8.5 203.5 Q15 210 26 210 Q40 211 55 210 Q85 212 115.5 213 Q146 214 176 215 L176 214 Z M148 287 L89 287 L81 287 Q71 288 65 294.5 Q59 301 60 310 Q59 319 65 325.5 Q71 332 80 334 Q85 335 90 334.5 Q95 334 100 335 L189 335 Q206 335 223 336 Q240 337 257 337 Q262 337 266 336.5 Q270 336 275 335 Q296 329 294 308 Q292 300 285.5 294 Q279 288 269 288 Q239 288 208.5 288 Q178 288 148 287 Z " />
<glyph glyph-name="less" unicode="&#x3c;" horiz-adv-x="267" d="M115 294 Q121 290 124 289 Q136 284 147.5 278 Q159 272 171 267 Q195 255 215 238 Q220 233 225.5 230 Q231 227 236 223 Q239 221 241.5 218.5 Q244 216 247 214 Q255 207 255.5 198 Q256 189 250 181 Q243 173 233.5 171 Q224 169 216 175 Q199 185 189 194 Q170 210 149 221 Q128 232 105 242 Q93 247 81 253 Q69 259 57 264 Q49 268 45 272 Q35 280 36 293 Q37 306 51 315 Q56 320 63 322 Q117 342 166.5 369.5 Q216 397 266 428 Q269 430 272 432 Q275 434 279 436 Q301 446 311 428 Q316 420 312.5 410.5 Q309 401 300 395 Q258 369 215 344 Q172 319 126 299 Q124 297 115 294 Z " />
<glyph glyph-name="greater" unicode="&#x3e;" horiz-adv-x="289" d="M209 308 Q201 312 195.5 314.5 Q190 317 184 319 Q158 331 133 343 Q108 355 82 367 Q72 371 67 372 Q57 377 54 388 Q52 400 62 410 Q72 420 85 419 Q93 418 100 415.5 Q107 413 112 410 Q132 401 151 391.5 Q170 382 190 374 Q207 366 225 358 Q243 350 262 342 Q266 340 268 340 Q275 336 280 330.5 Q285 325 284 315 Q283 306 277 299 Q271 292 263 287 Q258 284 252.5 281.5 Q247 279 242 276 Q188 246 135.5 216 Q83 186 29 156 Q27 154 23.5 153 Q20 152 17 150 Q9 147 2 149 Q-5 151 -7 158 Q-10 165 -8 173 Q-6 181 -1 187 Q1 190 5 192 Q9 194 12 196 Q59 223 105 249.5 Q151 276 198 302 Q204 306 209 308 Z " />
<glyph glyph-name="question" unicode="&#x3f;" horiz-adv-x="297" d="M85 17 Q81 20 77 21 Q60 30 63 50 Q65 58 70.5 63 Q76 68 84 68 Q104 68 109 48 Q114 31 98 21 Q96 20 93 17 L85 17 Z M300 792 Q340 795 375 776 Q417 752 426 703 Q428 689 427 675 Q426 661 423 647 Q415 612 400 582 Q385 552 363 526 Q327 482 286 450 Q276 442 266.5 434.5 Q257 427 247 419 Q208 386 185 333 Q175 310 168.5 285 Q162 260 155 235 Q150 214 144 192.5 Q138 171 132 150 Q127 135 115 132 Q106 129 97.5 134.5 Q89 140 87 151 Q85 160 88 166 Q98 204 108 241 Q118 278 129 316 Q141 357 164 396 Q185 430 215 456 L257 489 Q296 522 329 561 Q346 582 358.5 605.5 Q371 629 377 657 Q381 676 380 695 Q378 715 364 725 Q348 739 323 742 Q279 747 246.5 728 Q214 709 191 671 Q189 669 188 665.5 Q187 662 185 659 Q177 636 157 643 Q148 646 143.5 654.5 Q139 663 141 674 Q142 683 147 692 Q170 732 202 757.5 Q234 783 279 791 Q282 791 283 792 L300 792 Z " />
<glyph glyph-name="hyphen" unicode="&#x2d;" horiz-adv-x="306" d="M304 275 Q301 252 280 252 Q270 252 261 252 Q252 252 243 253 Q209 255 175.5 254 Q142 253 108 251 Q97 250 87 249.5 Q77 249 66 249 Q55 248 48 253.5 Q41 259 39 269 Q37 279 42.5 286 Q48 293 58 295 Q71 299 87 299 Q118 300 148.5 301 Q179 302 210 302 Q227 303 243.5 302 Q260 301 277 299 Q298 299 302 282 Q303 280 303 278 Q303 276 304 275 Z " />
<glyph glyph-name="period" unicode="&#x2e;" horiz-adv-x="98" d="M53 65 Q53 56 45 46 Q37 36 29 34 Q17 30 6 40 Q-4 50 0 63 Q5 77 16 84 Q29 92 40 85 Q51 79 53 65 Z " />
<glyph glyph-name="comma" unicode="&#x2c;" horiz-adv-x="125" d="M-19 -38 Q-19 -35 -15 -27 Q-4 -7 7 13 Q18 33 29 53 Q33 61 36 64 Q42 70 50.5 71 Q59 72 66 67 Q82 57 75 38 L72 32 Q61 12 51 -7.5 Q41 -27 30 -47 Q26 -54 17 -61 Q6 -69 -8 -61 Q-19 -56 -19 -38 Z " />
<glyph glyph-name="at" unicode="&#x40;" horiz-adv-x="453" d="M281 219 Q279 217 277 215 Q275 213 273 211 Q260 199 246.5 188 Q233 177 217 169 Q208 164 199 161 Q190 158 179 156 Q150 151 129 168.5 Q108 186 106 216 Q105 242 116 270 Q126 295 141 316 Q156 337 177 354 Q201 374 232 378 Q251 382 265 373.5 Q279 365 284 346 Q286 338 286.5 329 Q287 320 288 312 Q291 315 292 317 Q297 327 302.5 336 Q308 345 313 355 Q319 363 322 366 Q332 376 346 372 Q360 366 362 351 Q362 341 360 337 Q355 314 349 292.5 Q343 271 337 249 Q337 246 336.5 243.5 Q336 241 335 237 Q337 239 338 239.5 Q339 240 340 241 Q367 270 386 303.5 Q405 337 413 376 Q423 421 382 442 Q360 454 332 456 Q265 459 213 433 Q161 407 121 354 Q81 300 72 237 Q63 177 92 122 Q103 102 119.5 91 Q136 80 158 75 Q241 57 310 103 Q329 116 346 129 Q363 142 380 156 Q385 160 388.5 164.5 Q392 169 395 174 Q408 193 426 185 Q435 181 438.5 172.5 Q442 164 438 154 Q433 141 424 132 Q418 125 411 119 Q404 113 396 107 Q369 84 339 65 Q272 19 189 22 Q162 23 135 31 Q70 51 43 112 Q26 150 22 189.5 Q18 229 29 270 Q58 379 143 446 Q226 510 333 504 Q373 503 409 483 Q429 471 442 455 Q455 439 460 416 Q466 386 459 358 Q430 251 347 183 Q342 178 336 174 Q330 170 323 168 Q306 160 293.5 168.5 Q281 177 280 196 Q280 201 280.5 207 Q281 213 281 219 Z M238 330 Q220 329 203 313 Q173 287 159 249 Q153 233 154 217 Q156 201 171 204 Q184 206 192 211 Q204 217 214.5 225 Q225 233 235 242 L240 247 Q228 256 226 263.5 Q224 271 230 285 Q232 290 233.5 295.5 Q235 301 237 306 Q240 320 238 330 Z " />
<glyph glyph-name="percent" unicode="&#x25;" horiz-adv-x="226" d="M88 149 Q92 153 95 156.5 Q98 160 102 164 Q113 175 128 176 Q143 177 154 166 Q170 152 176.5 134 Q183 116 176 95 Q161 51 127 23 Q115 12 99 8 Q71 2 56 28 Q47 47 50 68 Q51 72 50 77 Q48 75 47.5 73 Q47 71 45 69 Q31 43 16.5 16 Q2 -11 -12 -37 Q-14 -41 -16 -43 Q-25 -57 -42 -54 Q-58 -50 -60 -33 Q-60 -28 -58 -22 Q-57 -20 -56 -18 Q-55 -16 -54 -14 Q-4 77 42.5 167.5 Q89 258 134 351 Q137 356 139.5 361.5 Q142 367 146 374 Q141 372 137 371.5 Q133 371 129 369 Q107 365 92.5 375.5 Q78 386 76 409 Q75 420 77 430.5 Q79 441 82 452 Q92 481 106 504 Q120 527 141 540 Q150 546 160 549 Q170 552 181 547 L186 547 Q205 550 215 531 Q215 531 217 529 Q218 531 219 532 Q220 533 221 535 Q230 554 240 573 Q242 577 244.5 580.5 Q247 584 252 586 Q265 592 277 583 Q290 574 285 558 Q285 554 282 551 Q265 514 248.5 477.5 Q232 441 214 405 Q185 345 155 285.5 Q125 226 95 166 Q93 162 91 158 Q89 154 87 150 L88 149 Z M172 496 Q166 502 161 495 Q158 492 154.5 488.5 Q151 485 148 481 Q133 458 126 431 Q125 428 125 425 Q125 422 124 419 Q133 421 142 429.5 Q151 438 158 449.5 Q165 461 169 473.5 Q173 486 172 496 Z M130 120 Q106 93 99 64 Q123 85 130 113 Q131 115 130.5 116.5 Q130 118 130 120 Z " />
<glyph glyph-name="asciitilde" unicode="&#x7e;" horiz-adv-x="380" d="M253 190 Q261 194 265.5 199 Q270 204 275 210 Q284 222 292.5 234.5 Q301 247 309 259 Q311 262 313 265 Q315 268 317 271 Q323 278 332 279 Q341 280 349 275 Q356 270 358.5 261.5 Q361 253 357 245 Q356 244 356 244 Q343 224 331 204.5 Q319 185 302 168 Q289 153 273 146 Q256 138 239 143 Q222 148 212 165 Q207 174 204.5 183.5 Q202 193 200 203 Q198 214 196.5 224 Q195 234 192 244 Q191 249 188.5 254.5 Q186 260 183 265 Q179 273 168 271 Q151 267 133 257 Q118 247 105.5 235.5 Q93 224 83 209 Q79 203 76 200 Q70 194 61.5 192.5 Q53 191 46 196 Q29 208 37 226 Q40 231 43 236 Q46 241 50 246 Q70 272 96 290.5 Q122 309 155 317 Q201 329 227 286 Q235 272 239 257.5 Q243 243 245 228 Q246 222 247 215.5 Q248 209 249 203 Q251 195 253 190 Z " />
<glyph glyph-name="grave" unicode="&#x60;" horiz-adv-x="233" d="M257 876 Q262 874 266.5 870 Q271 866 274 861 Q285 844 293 829 Q301 815 307 803 Q309 800 311 798.5 Q313 797 315 795 Q330 788 330 773 Q330 756 313 751 Q294 744 283 755 Q280 759 276.5 762.5 Q273 766 271 771 Q265 779 261 787.5 Q257 796 252 804 Q247 814 242 822.5 Q237 831 229 838 Q223 843 223 851.5 Q223 860 226 867 Q238 882 257 876 Z " />
<glyph glyph-name="asterisk" unicode="&#x2a;" horiz-adv-x="226" d="M128 371 Q131 381 133.5 390.5 Q136 400 138 411 Q139 413 139.5 416 Q140 419 142 422 Q150 444 172 437 Q192 430 187 407 Q185 399 183 392 Q181 385 179 377 Q179 374 178 371 Q180 373 181.5 373 Q183 373 184 375 Q192 383 200 390 Q208 397 216 405 Q224 413 233.5 414 Q243 415 250 408 Q258 401 258.5 391.5 Q259 382 253 374 Q247 367 240 361 Q223 346 207 331 Q191 316 174 302 Q170 298 167 296 Q168 293 170 289 Q175 277 179 265.5 Q183 254 188 242 Q190 237 192 231.5 Q194 226 196 221 Q204 200 186 190 Q167 180 154 198 Q152 202 150 206 Q148 210 146 214 Q144 220 141 225 Q139 218 138 211.5 Q137 205 135 199 Q134 197 134 195.5 Q134 194 133 192 Q130 182 122 177 Q114 172 105 174 Q96 176 90 184 Q84 192 86 202 Q88 210 89 216.5 Q90 223 92 231 Q92 231 94 238 Q91 236 87 234 Q79 227 70 221 Q61 215 52 208 Q42 200 32 201 Q19 202 13 215 Q8 229 17 239 Q21 246 30 251 Q47 264 64 276.5 Q81 289 98 302 Q100 304 101.5 305 Q103 306 105 308 Q104 312 100 318 Q93 330 87 342.5 Q81 355 74 367 Q72 370 70 376 Q68 385 71.5 392.5 Q75 400 83 404 Q91 408 99.5 405.5 Q108 403 113 396 L122 378 Q123 376 124 374.5 Q125 373 126 371 L128 371 Z " />
<glyph glyph-name="ampersand" unicode="&#x26;" horiz-adv-x="346" d="M236 153 Q238 156 239.5 157.5 Q241 159 242 161 Q263 193 274 225 Q276 228 276.5 230.5 Q277 233 279 236 Q284 244 292.5 247 Q301 250 310 246 Q319 241 323 232.5 Q327 224 324 215 Q322 209 320 204 Q308 173 291.5 144.5 Q275 116 252 91 Q248 87 249 80 Q264 6 270 -67 Q271 -73 271.5 -78.5 Q272 -84 273 -90 Q275 -101 269 -108 Q263 -115 252 -115 Q241 -116 234 -109 Q227 -102 225 -91 Q223 -82 222.5 -73 Q222 -64 221 -55 Q217 -30 214 -6 Q211 18 207 43 Q207 44 206.5 45 Q206 46 206 48 Q199 43 197 42 Q179 28 160 18 Q141 8 118 2 Q103 -2 87.5 -3 Q72 -4 55 1 Q27 8 7.5 28.5 Q-12 49 -17 77 Q-21 95 -18.5 112.5 Q-16 130 -9 147 Q-2 165 8 180.5 Q18 196 31 210 Q46 228 63.5 243.5 Q81 259 100 273 Q112 281 123.5 290 Q135 299 147 307 Q151 309 151.5 312 Q152 315 152 320 Q146 352 142 383.5 Q138 415 137 447 Q137 469 140.5 490 Q144 511 152 531 Q175 587 233 596 Q280 604 316 569 Q358 525 349 467 Q344 445 335 425.5 Q326 406 313 389 Q295 366 274 346 Q253 326 230 308 Q226 304 222 300.5 Q218 297 213 294 Q205 289 208 278 L220 224 Q224 207 227.5 191.5 Q231 176 234 159 Q234 159 236 153 Z M164 256 Q160 254 160 254 Q139 239 119 223.5 Q99 208 81 190 Q70 179 60 166.5 Q50 154 42 139 Q37 128 33 116 Q29 104 30 90 Q31 70 43 58 Q55 46 75 46 Q92 45 107 49.5 Q122 54 136 62 Q151 70 164 79.5 Q177 89 190 100 Q196 106 195 116 Q191 133 187.5 149 Q184 165 181 182 Q176 201 172.5 218.5 Q169 236 164 256 Z M196 346 Q199 347 199 348 Q220 365 239.5 383.5 Q259 402 276 424 Q292 448 299 472 Q303 487 300 506 Q296 529 278 541 Q260 553 237 547 Q214 541 203 521 Q194 504 190.5 485.5 Q187 467 186 447 Q186 426 188.5 405 Q191 384 193 362 Q194 358 194.5 354.5 Q195 351 196 346 Z " />
<glyph glyph-name="plus" unicode="&#x2b;" horiz-adv-x="333" d="M323 262 Q324 260 324 257.5 Q324 255 324 254 Q322 242 315 235 Q308 228 297 227 Q286 227 275.5 227 Q265 227 254 228 Q238 230 222 230.5 Q206 231 190 230 Q188 223 186 216.5 Q184 210 182 202 Q177 182 170.5 163 Q164 144 158 124 Q149 99 132 96 Q130 95 127.5 95.5 Q125 96 124 95 Q102 102 108 127 Q111 138 114 149 Q117 160 121 171 Q126 185 130.5 200 Q135 215 140 229 Q130 229 120.5 228.5 Q111 228 101 228 L53 225 Q41 224 33 230.5 Q25 237 23 248 Q20 273 45 278 Q58 282 77 282 Q96 283 115 283 Q134 283 154 284 L166 332 Q169 345 171.5 357 Q174 369 177 382 Q179 395 187.5 402.5 Q196 410 206 411 Q217 411 223 404 Q229 397 227 385 Q226 376 224.5 367.5 Q223 359 221 351 Q216 334 212.5 318 Q209 302 204 285 L218 285 Q237 285 256 284 Q275 283 294 282 Q317 281 323 262 Z " />
<glyph glyph-name="numbersign" unicode="&#x23;" horiz-adv-x="433" d="M48 121 Q39 121 30.5 120.5 Q22 120 14 120 Q10 120 6 119.5 Q2 119 -2 119 Q-20 119 -23 138 Q-25 146 -20.5 153.5 Q-16 161 -8 164 Q-4 166 0 166.5 Q4 167 9 168 Q22 169 34.5 169 Q47 169 61 170 Q72 208 82.5 245 Q93 282 104 320 Q85 320 70 316 Q67 316 64 315.5 Q61 315 58 315 Q42 318 38 332 Q35 347 47 356 Q54 363 62 363 Q75 365 87 366 Q99 367 112 369 L120 369 Q122 375 122 376 Q130 406 139 436 Q148 466 156 496 Q157 498 157 499 Q157 500 158 502 Q161 511 169.5 515.5 Q178 520 187 518 Q207 513 204 491 Q202 486 201 480.5 Q200 475 199 470 Q192 448 186 426 Q180 404 174 382 Q172 376 171 372 Q202 373 232.5 373 Q263 373 294 374 Q295 376 297 382 Q307 412 317 442 Q327 472 338 502 Q340 512 345 518 Q349 527 357 531 Q365 535 373 532 Q383 530 387 522 Q391 514 389 504 Q388 499 384 489 Q374 461 364.5 434 Q355 407 346 379 Q346 376 345 373 L353 373 Q375 372 397 372 Q419 372 441 371 Q446 371 454 369 Q462 367 466 360.5 Q470 354 469 346 Q469 329 452 324 Q447 323 437 323 Q427 323 417.5 323 Q408 323 398 324 Q376 324 361 324 Q346 324 326 323 Q325 323 322.5 312 Q320 301 317 295 L281 190 Q279 182 277 177 L287 177 Q308 177 329 177.5 Q350 178 371 177 Q381 177 385 176 Q403 170 401 152 Q399 135 382 130 Q378 129 370 129 L269 129 Q267 129 265.5 128.5 Q264 128 262 128 Q261 126 260.5 124 Q260 122 258 120 Q252 99 246 78 Q240 57 233 36 Q231 31 228 26 Q223 18 215 15 Q207 12 199 14 Q180 21 185 43 Q187 54 191 64 Q195 74 197 85 Q201 95 204 105.5 Q207 116 211 127 Q182 128 154 125.5 Q126 123 97 123 Q95 121 95 119 Q95 117 94 115 Q93 112 90.5 100 Q88 88 84.5 74.5 Q81 61 78 49.5 Q75 38 74 35 Q69 25 59.5 17.5 Q50 10 40 13 Q32 16 29.5 25.5 Q27 35 29 45 Q29 47 32 58 Q35 69 38 82 Q41 95 44 106.5 Q47 118 48 121 Z M157 323 Q153 315 145.5 291.5 Q138 268 130.5 242.5 Q123 217 117.5 196 Q112 175 112 172 Q141 173 169 174 Q197 175 226 177 Q239 214 252 251 Q265 288 277 326 Q215 324 157 323 Z " />
<glyph glyph-name="parenleft" unicode="&#x28;" horiz-adv-x="173" d="M34 150 Q34 152 34.5 153 Q35 154 35 156 Q35 185 37.5 215 Q40 245 45 274 Q50 306 55 338 Q60 370 68 402 Q105 570 186 722 Q200 749 215 776 Q230 803 249 829 Q257 840 266 849.5 Q275 859 283 869 Q296 882 311 878 Q326 875 329 861 Q333 847 323 837 Q303 819 288 797 Q273 775 259 752 Q219 681 187 607.5 Q155 534 133 456 Q122 415 113 374.5 Q104 334 99 292 Q91 243 87 195 Q85 169 84.5 144 Q84 119 86 93 Q87 82 87.5 70 Q88 58 88 47 Q90 30 90.5 14 Q91 -2 92 -19 Q94 -29 91 -37 Q89 -45 82.5 -50.5 Q76 -56 67 -56 Q59 -56 52 -50 Q45 -44 43 -36 Q42 -31 42 -25.5 Q42 -20 41 -15 L35 123 Q35 125 34.5 126 Q34 127 34 129 L34 150 Z " />
<glyph glyph-name="parenright" unicode="&#x29;" horiz-adv-x="146" d="M204 668 Q202 645 201.5 623 Q201 601 199 578 Q196 540 189.5 503 Q183 466 174 428 Q161 372 145.5 318 Q130 264 111 210 Q93 158 72.5 108.5 Q52 59 30 9 Q22 -7 14.5 -21.5 Q7 -36 -1 -51 Q-10 -66 -26 -65 Q-34 -65 -40 -60 Q-46 -55 -48 -47 Q-51 -37 -46 -28 Q-39 -14 -32 -1.5 Q-25 11 -19 24 Q0 66 17.5 108 Q35 150 51 193 Q104 336 134 482 Q141 512 144.5 542 Q148 572 150 602 Q152 633 152.5 663.5 Q153 694 151 725 Q149 752 146.5 779.5 Q144 807 136 833 Q135 835 134 838 Q133 841 132 843 Q128 853 131.5 862 Q135 871 145 875 Q153 880 162.5 877 Q172 874 177 865 Q182 857 184 848 Q186 839 188 830 Q193 810 195.5 790.5 Q198 771 200 751 Q201 730 201.5 709.5 Q202 689 204 668 Z " />
<glyph glyph-name="bracketleft" unicode="&#x5b;" horiz-adv-x="193" d="M33 19 Q44 17 53.5 16.5 Q63 16 74 15 L97 11 Q117 8 119 -12 Q119 -20 113 -27.5 Q107 -35 99 -38 Q88 -41 78 -38 Q70 -36 63 -35.5 Q56 -35 48 -34 Q35 -32 22.5 -30 Q10 -28 -1 -22 Q-25 -11 -19 16 L58 320 L110 531 Q121 573 134.5 614 Q148 655 162 697 L213 841 Q216 851 221.5 858.5 Q227 866 239 869 Q242 870 245.5 871 Q249 872 253 872 L314 878 Q319 878 324.5 878.5 Q330 879 335 880 Q344 882 352 878 Q360 874 364 866 Q367 858 364.5 849.5 Q362 841 354 836 Q343 829 333 829 Q320 827 308 826.5 Q296 826 284 825 Q279 825 274 824.5 Q269 824 264 823 Q261 823 259 819 Q236 755 213 691.5 Q190 628 171 562 Q161 527 152.5 491 Q144 455 135 419 L96 271 L48 76 L34 23 Q34 21 33 19 Z " />
<glyph glyph-name="bracketright" unicode="&#x5d;" horiz-adv-x="153" d="M224 827 Q214 826 205 825.5 Q196 825 187 825 Q179 824 171.5 823.5 Q164 823 156 823 Q144 824 136.5 831 Q129 838 129 849 Q129 858 135 865 Q141 872 150 874 L158 874 Q177 876 195 876.5 Q213 877 232 878 Q239 879 246 878.5 Q253 878 259 873 Q260 873 260.5 872.5 Q261 872 263 872 Q273 869 278 860.5 Q283 852 280 841 Q251 732 223 623.5 Q195 515 167 405 Q151 342 137 280 Q123 218 109 155 Q100 120 92 84 Q84 48 76 12 Q73 -2 64 -8 L61 -11 Q53 -22 40 -22 Q17 -23 -4.5 -24 Q-26 -25 -49 -25 Q-56 -26 -63 -23 Q-81 -16 -78 4 Q-75 23 -53 25 Q-36 26 -18.5 26 Q-1 26 16 27 Q25 27 26.5 28.5 Q28 30 30 38 Q47 112 63 184.5 Q79 257 96 330 Q113 396 130 462 Q147 528 164 594 Q178 652 193 709.5 Q208 767 223 825 Q224 826 224 827 Z " />
<glyph glyph-name="braceleft" unicode="&#x7b;" horiz-adv-x="194" d="M135 416 L147 404 Q153 396 155.5 387 Q158 378 158 369 Q157 355 156 340.5 Q155 326 153 312 Q146 265 132.5 220.5 Q119 176 105 131 L82 48 Q81 43 81 39 Q81 35 81 30 Q81 21 90 18 Q96 16 102 15.5 Q108 15 114 18 Q122 20 129.5 17 Q137 14 141 7 Q151 -10 138 -23 Q131 -31 122.5 -33.5 Q114 -36 104 -35 Q85 -33 71 -29 Q52 -23 41.5 -7 Q31 9 30 29 Q30 46 33 61.5 Q36 77 41 92 L84 235 Q91 258 96.5 282 Q102 306 105 330 Q106 340 106.5 349 Q107 358 107 367 Q109 375 101 378 Q95 379 90 383 Q75 390 71.5 403 Q68 416 78 429 L85 437 Q105 457 120 480 Q135 503 147 529 Q174 590 195.5 652.5 Q217 715 236 779 Q241 795 246 810 Q251 825 260 839 Q284 879 332 879 Q338 879 344 877 Q350 875 355 873 Q363 868 366 859 Q369 850 366 842 Q358 822 336 827 Q326 829 317 826 Q308 823 303 813 Q292 790 286 769 Q269 710 249.5 653 Q230 596 206 540 Q198 520 189 501 Q180 482 170 464 Q163 452 154.5 441 Q146 430 138 419 L135 416 Z " />
<glyph glyph-name="braceright" unicode="&#x7d;" horiz-adv-x="153" d="M129 386 Q126 392 122 397.5 Q118 403 114 408 Q94 441 105 480 Q115 512 126 542 Q137 572 148 603 Q159 632 170.5 660.5 Q182 689 192 718 Q201 742 206.5 766.5 Q212 791 213 817 Q214 819 213.5 822 Q213 825 213 828 L199 826 Q190 825 183 830.5 Q176 836 174 844 Q172 852 175 860 Q178 868 187 872 Q201 879 220 878 Q239 877 252 861 Q259 853 261 842.5 Q263 832 264 821 Q264 796 259 772 Q254 748 246 724 Q238 692 225.5 662.5 Q213 633 201 602 Q190 570 178.5 538.5 Q167 507 156 475 Q154 470 152.5 463.5 Q151 457 153 451 Q155 437 162.5 426 Q170 415 184 409 Q200 402 199 386 Q200 377 195 371 Q190 365 182 361 Q153 348 142 323 Q137 312 132.5 300.5 Q128 289 125 277 L87 137 Q82 117 77.5 96.5 Q73 76 66 56 Q61 37 53.5 19.5 Q46 2 34 -14 Q14 -45 -23 -49 Q-38 -51 -50.5 -41.5 Q-63 -32 -66 -18 Q-66 1 -53 8 Q-45 12 -37.5 11.5 Q-30 11 -25 5 Q-18 1 -14 5 Q-7 10 -4 15 Q5 29 10.5 43.5 Q16 58 20 73 L44 168 Q62 238 83 309 Q88 326 95.5 342 Q103 358 116 372 L129 386 Z " />
<glyph glyph-name="underscore" unicode="&#x5f;" horiz-adv-x="600" d="M485 93 Q493 93 503.5 92.5 Q514 92 523.5 90 Q533 88 539.5 84 Q546 80 546 73 Q544 59 536 50.5 Q528 42 506 42 Q499 42 463.5 42 Q428 42 377.5 42 Q327 42 269.5 42 Q212 42 161 42 Q110 42 73.5 42 Q37 42 29 42 Q6 41 -3.5 48.5 Q-13 56 -13 70 Q-13 84 -1.5 89 Q10 94 33 96 Q38 96 70 96.5 Q102 97 148 96.5 Q194 96 248 95.5 Q302 95 350.5 94.5 Q399 94 436 93.5 Q473 93 485 93 Z " />
<glyph glyph-name="quotedblleft" unicode="&#x201c;" horiz-adv-x="217" d="M225 727 Q214 727 207 734.5 Q200 742 202 753 Q202 756 204 762 Q212 786 219.5 810 Q227 834 235 858 Q237 866 241 870 Q251 880 265 876 Q280 871 282 856 Q282 852 280 842 Q272 818 264.5 794.5 Q257 771 249 747 Q243 727 225 727 Z M345 847 Q345 842 344 838 L323 774 L315 749 Q314 740 305 735 Q292 727 280 736 Q268 745 269 760 Q269 764 270 766 L295 850 Q298 858 302 863 Q312 878 328 871 Q345 866 345 847 Z " />
<glyph glyph-name="quotedblright" unicode="&#x201d;" horiz-adv-x="215" d="M225 727 Q214 727 207 734.5 Q200 742 202 753 Q202 756 204 762 Q212 786 219.5 810 Q227 834 235 858 Q237 866 241 870 Q251 880 265 876 Q280 871 282 856 Q282 852 280 842 Q272 818 264.5 794.5 Q257 771 249 747 Q243 727 225 727 Z M345 847 Q345 842 344 838 L323 774 L315 749 Q314 740 305 735 Q292 727 280 736 Q268 745 269 760 Q269 764 270 766 L295 850 Q298 858 302 863 Q312 878 328 871 Q345 866 345 847 Z " />
<glyph glyph-name="quoteright" unicode="&#x2019;" horiz-adv-x="200" d="M244 737 Q233 737 226 745 Q219 753 221 763 Q221 768 222 770 L245 851 Q246 857 251 863 Q256 870 263.5 872.5 Q271 875 279 871 Q287 868 291 861 Q295 854 293 846 L290 832 Q285 818 281.5 804 Q278 790 274 776 L272 767 Q271 754 260 743 Q254 737 244 737 Z " />
<glyph glyph-name="quoteleft" unicode="&#x2018;" horiz-adv-x="205" d="M244 737 Q233 737 226 745 Q219 753 221 763 Q221 768 222 770 L245 851 Q246 857 251 863 Q256 870 263.5 872.5 Q271 875 279 871 Q287 868 291 861 Q295 854 293 846 L290 832 Q285 818 281.5 804 Q278 790 274 776 L272 767 Q271 754 260 743 Q254 737 244 737 Z " />
<glyph glyph-name="b" unicode="b" horiz-adv-x="401" d="M111 321 Q119 332 126 343.5 Q133 355 141 366 Q158 392 177 415.5 Q196 439 219 460 Q240 479 264 492.5 Q288 506 315 514 Q350 523 373.5 509.5 Q397 496 409 471 Q417 455 420.5 439 Q424 423 425 406 Q424 360 413 316.5 Q402 273 384 231 Q367 188 343 155 Q319 122 286 89 Q274 77 256 65.5 Q238 54 219 46 Q200 38 182 34.5 Q164 31 153 33 Q136 37 123.5 50 Q111 63 107 81 Q102 116 113 151.5 Q124 187 150 211 Q157 217 166 216 Q175 215 182 208 Q188 201 188.5 192.5 Q189 184 183 177 Q169 163 163 146 Q157 129 154 111 Q154 107 153 101 Q152 95 152.5 90 Q153 85 155.5 81.5 Q158 78 166 78 Q215 91 253 126.5 Q291 162 317 207 Q343 252 357.5 301 Q372 350 376 391 Q377 408 375 424.5 Q373 441 364 455 Q358 466 350.5 468.5 Q343 471 331 469 Q311 464 293.5 454 Q276 444 259 431 Q236 411 218 388.5 Q200 366 183 342 Q157 305 136.5 265.5 Q116 226 96 185 Q58 107 36 27 Q35 25 34.5 22 Q34 19 33 17 Q29 8 21 4 Q13 0 4 3 Q-4 5 -9 13 Q-14 21 -13 30 Q-10 46 -6.5 61.5 Q-3 77 1 92 Q51 286 101.5 477 Q152 668 212 858 Q215 861 217 864.5 Q219 868 222.5 871.5 Q226 875 232.5 876.5 Q239 878 251 876 Q259 874 259 863.5 Q259 853 257 845 Q219 718 183 588 Q147 458 112 327 Q111 325 111 321 Z " />
<glyph glyph-name="c" unicode="c" horiz-adv-x="355" d="M10 132 Q11 165 15 193.5 Q19 222 26 250 Q45 323 80.5 391.5 Q116 460 177 507 Q205 527 241 532 Q277 537 308 519 Q324 508 332 494 Q340 480 342 463 Q348 428 333 396 Q326 383 314 380 Q301 377 292 388 Q286 397 287.5 406.5 Q289 416 292 425.5 Q295 435 297 444.5 Q299 454 293 464 Q285 478 272 482.5 Q259 487 244.5 484.5 Q230 482 216 475 Q202 468 193 459 Q137 408 106.5 338.5 Q76 269 64 196 Q62 180 60 164 Q58 148 58 132 Q58 116 61.5 100.5 Q65 85 73 70 Q81 58 88.5 54.5 Q96 51 111 53 Q131 56 148 65.5 Q165 75 180 88 Q202 107 219.5 129.5 Q237 152 252 176.5 Q267 201 281.5 226 Q296 251 312 275 Q323 292 338 289 Q349 287 354.5 278 Q360 269 357 259 Q334 217 309 177 Q284 137 256 99 Q239 76 218.5 57.5 Q198 39 173 25 Q138 5 101 5 Q63 5 39 36 Q23 56 16.5 81.5 Q10 107 10 132 Z " />
<glyph glyph-name="a" unicode="a" horiz-adv-x="368" d="M202 50 Q166 14 117 8 Q73 2 38 39 Q15 68 9 103 Q1 135 1 165 Q1 195 7 225 Q13 263 25 300.5 Q37 338 54 373 Q69 405 96 439.5 Q123 474 157 496 Q191 518 229.5 521 Q268 524 304 493 Q328 470 334 436 Q337 422 335.5 409 Q334 396 329 382 Q326 374 318 370.5 Q310 367 301 371 Q284 377 287 399 Q287 404 288 410 Q289 416 290 423 Q291 435 279 453 Q267 471 247 477 Q215 477 188.5 460 Q162 443 142 420 Q101 372 78.5 313.5 Q56 255 48 192 Q46 163 48.5 134 Q51 105 65 78 Q84 45 120 56 Q158 67 181 96 Q201 121 217 147 Q233 173 248 200 Q277 257 302 313.5 Q327 370 349 430 Q355 447 360 465 Q365 483 371 500 Q372 504 372.5 507.5 Q373 511 375 513 Q386 529 404 522 Q411 518 415.5 511 Q420 504 418 495 Q413 481 409.5 466.5 Q406 452 401 438 Q388 393 375 348.5 Q362 304 350 259 Q333 204 318.5 149 Q304 94 290 40 Q285 22 281.5 15.5 Q278 9 271 7 Q257 3 247.5 9.5 Q238 16 239 29 Q247 57 252 80.5 Q257 104 266 130 Q266 132 266.5 133 Q267 134 267 136 Q251 113 236 91 Q221 69 202 50 Z " />
</font>
</svg>
