<?xml version="1.0" encoding="UTF-8"?>
<svg xmlns="http://www.w3.org/2000/svg" xmlns:xlink="http://www.w3.org/1999/xlink" version="1.2" >
<font id="Stantic">
<font-face  font-family="Stantic" units-per-em="1000" ascent="750" descent="-250" font-style="normal" font-weight="400" font-stretch="normal" cap-height="885" x-height="557" underline-position="-75" underline-thickness="50" />
<missing-glyph  horiz-adv-x="213" d="" />
<glyph glyph-name="NULL" d="" />
<glyph glyph-name="CR" unicode="&#xd;" horiz-adv-x="213" d="" />
<glyph glyph-name="space" unicode="&#x20;" horiz-adv-x="213" d="" />
<glyph glyph-name="exclam" unicode="&#x21;" horiz-adv-x="140" d="M14 97 C13 83 21 74 32 71 C42 68 54 74 59 85 C60 88 62 92 63 96 C70 130 79 164 87 197 C109 278 131 358 153 438 C170 505 189 571 208 638 C211 647 213 655 213 664 C214 677 205 687 193 689 C181 691 169 684 166 671 C165 666 165 661 163 657 C152 617 141 577 131 537 C90 394 48 251 16 106 C15 102 14 99 14 97 L14 97 Z M10 19 C-2 19 -14 5 -13 -10 C-14 -24 -3 -34 8 -34 C23 -34 34 -22 34 -6 C34 8 23 19 10 19 L10 19 Z " />
<glyph glyph-name="quotedbl" unicode="&#x22;" horiz-adv-x="207" d="M225 727 C237 727 245 734 249 747 C260 779 270 810 280 842 C281 847 282 852 282 856 C281 866 275 873 265 876 C256 879 248 877 241 870 C238 867 236 862 235 858 C224 826 214 794 204 762 C203 759 202 756 202 753 C200 739 211 727 225 727 L225 727 Z M345 847 C345 859 338 868 328 871 C318 875 308 872 302 863 C299 859 297 855 295 850 C287 822 278 794 270 766 C269 764 269 762 269 760 C268 750 272 742 280 736 C288 730 297 730 305 735 C310 738 314 743 315 749 C318 757 320 766 323 774 C330 795 337 817 344 838 C345 842 345 845 345 847 L345 847 Z " />
<glyph glyph-name="numbersign" unicode="&#x23;" horiz-adv-x="433" d="M48 121 C45 114 30 50 29 45 C26 32 29 17 40 13 C53 9 67 22 74 35 C77 43 92 106 94 115 C95 117 95 120 97 123 C135 123 172 128 211 127 C206 112 202 98 197 85 C194 71 188 57 185 43 C182 30 188 18 199 14 C210 11 222 15 228 26 C230 29 232 33 233 36 C242 64 250 92 258 120 C260 123 261 126 262 128 C265 128 267 129 269 129 C303 129 336 129 370 129 C374 129 378 129 382 130 C393 133 400 141 401 152 C402 163 396 172 385 176 C381 177 376 177 371 177 C343 178 315 177 287 177 C284 177 281 177 277 177 C279 182 280 186 281 190 C293 225 305 260 317 295 C321 303 325 323 326 323 C353 324 369 324 398 324 C411 323 424 323 437 323 C442 323 447 323 452 324 C462 327 469 336 469 346 C470 356 464 366 454 369 C450 370 445 371 441 371 C412 372 382 372 353 373 C350 373 348 373 345 373 C346 376 346 377 346 379 C358 416 371 452 384 489 C386 494 388 499 389 504 C392 517 386 529 373 532 C362 536 350 530 345 518 C341 513 339 507 338 502 C324 462 310 422 297 382 C296 379 295 376 294 374 C253 373 212 373 171 372 C172 376 173 379 174 382 C182 411 190 441 199 470 C200 477 202 484 204 491 C206 504 199 515 187 518 C175 521 162 514 158 502 C157 500 157 498 156 496 C145 456 133 416 122 376 C122 374 121 372 120 369 C117 369 114 369 112 369 C95 367 79 366 62 363 C57 363 51 360 47 356 C39 350 36 341 38 332 C41 322 48 317 58 315 C62 315 66 316 70 316 C81 319 92 320 104 320 C89 269 76 220 61 170 C43 169 26 169 9 168 C3 167 -3 166 -8 164 C-19 160 -25 148 -23 138 C-21 127 -13 119 -2 119 C3 119 9 120 14 120 C24 120 36 121 48 121 L48 121 Z M157 323 C196 324 236 325 277 326 C261 275 243 226 226 177 C188 175 150 173 112 172 C112 181 147 302 157 323 L157 323 Z " />
<glyph glyph-name="dollar" unicode="&#x24;" horiz-adv-x="280" d="M251 605 C247 605 243 605 239 605 C229 601 223 592 220 581 C214 564 208 548 202 531 C201 527 200 524 199 521 C196 520 193 520 190 519 C139 512 104 470 102 416 C101 384 109 354 118 324 C122 316 125 307 129 299 C131 295 132 291 130 286 C108 200 86 114 63 28 C63 27 62 25 62 23 C59 25 57 26 56 28 C38 48 30 72 31 99 C33 134 46 164 67 190 C72 198 79 204 89 207 C100 210 106 221 105 233 C102 245 93 254 81 255 C72 255 65 252 59 248 C49 241 41 234 34 226 C8 196 -8 161 -14 121 C-14 117 -16 113 -17 110 C-17 99 -17 88 -17 77 C-15 73 -13 69 -12 65 C-5 28 13 -2 41 -25 C44 -26 46 -28 49 -30 C47 -40 43 -50 42 -59 C39 -67 37 -75 37 -83 C35 -96 43 -107 54 -110 C66 -113 77 -107 81 -95 C81 -92 82 -90 82 -88 C86 -77 89 -65 91 -54 C92 -52 93 -49 94 -47 C138 -49 171 -27 196 11 C220 48 231 89 232 134 C233 173 225 210 207 245 C200 261 193 276 186 291 C183 295 183 298 184 302 C196 346 208 390 221 434 C222 436 223 438 224 442 C227 435 228 430 231 425 C236 416 243 411 253 412 C264 414 270 419 272 429 C274 434 274 441 272 446 C265 467 259 488 243 504 C250 525 257 545 264 566 C271 584 267 594 252 604 C251 604 251 605 251 605 L251 605 Z M105 3 C124 79 143 153 163 229 C173 211 179 194 182 177 C190 133 184 91 165 52 C159 39 150 27 140 18 C130 9 119 4 105 3 L105 3 Z M155 371 C148 393 145 415 153 436 C158 449 167 458 180 465 C171 433 163 402 155 371 L155 371 Z " />
<glyph glyph-name="percent" unicode="&#x25;" horiz-adv-x="226" d="M88 149 C88 149 87 150 87 150 C90 155 92 161 95 166 C135 246 175 325 214 405 C238 453 260 502 282 551 C284 553 285 555 285 558 C288 568 285 577 277 583 C269 589 261 590 252 586 C246 583 243 578 240 573 C233 560 227 548 221 535 C220 533 218 531 217 529 C216 530 216 531 215 531 C209 543 199 549 186 547 C184 547 182 547 181 547 C166 553 153 548 141 540 C126 531 115 519 106 504 C96 488 88 470 82 452 C78 438 75 423 76 409 C79 379 100 364 129 369 C134 371 139 372 146 374 C141 365 138 358 134 351 C74 228 12 106 -54 -14 C-55 -16 -57 -19 -58 -22 C-59 -25 -60 -29 -60 -33 C-59 -43 -51 -52 -42 -54 C-32 -56 -22 -53 -16 -43 C-14 -41 -13 -39 -12 -37 C7 -2 26 34 45 69 C47 72 48 75 50 77 C51 74 51 71 50 68 C48 54 50 41 56 28 C65 12 81 4 99 8 C110 11 119 16 127 23 C150 42 166 66 176 95 C185 123 175 147 154 166 C139 180 116 179 102 164 C97 159 93 154 88 149 L88 149 Z M172 496 C175 469 148 425 124 419 C125 423 125 427 126 431 C131 449 138 465 148 481 C152 486 157 491 161 495 C164 499 168 500 172 496 L172 496 Z M130 120 C130 118 131 115 130 113 C125 93 114 77 99 64 C104 85 115 103 130 120 L130 120 Z " />
<glyph glyph-name="ampersand" unicode="&#x26;" horiz-adv-x="346" d="M236 153 C235 156 235 158 234 159 C230 181 225 202 220 224 C216 242 212 260 208 278 C206 285 207 290 213 294 C220 298 225 303 230 308 C260 332 289 358 313 389 C330 412 343 438 349 467 C355 505 345 539 316 569 C292 592 264 601 233 596 C193 590 167 567 152 531 C141 505 137 476 137 447 C138 404 144 362 152 320 C152 314 152 310 147 307 C131 296 116 284 100 273 C75 254 51 234 31 210 C14 191 0 171 -9 147 C-18 125 -22 101 -17 77 C-11 40 18 10 55 1 C77 -5 98 -3 118 2 C148 10 173 24 197 42 C200 43 202 45 206 48 C206 45 207 44 207 43 C212 10 216 -22 221 -55 C222 -67 223 -79 225 -91 C227 -106 238 -116 252 -115 C266 -115 275 -105 273 -90 C272 -82 271 -75 270 -67 C266 -18 259 31 249 80 C248 85 249 88 252 91 C282 124 304 163 320 204 C322 208 323 211 324 215 C328 227 322 240 310 246 C298 251 285 247 279 236 C277 232 276 229 274 225 C266 202 255 181 242 161 C241 159 239 157 236 153 L236 153 Z M164 256 C170 230 175 207 181 182 C185 160 190 138 195 116 C196 109 195 105 190 100 C173 86 156 73 136 62 C117 52 97 45 75 46 C48 46 31 63 30 90 C29 108 35 124 42 139 C52 159 66 175 81 190 C105 214 132 234 160 254 C161 255 162 255 164 256 L164 256 Z M196 346 C195 352 194 357 193 362 C190 391 186 419 186 447 C187 473 191 498 203 521 C210 534 222 543 237 547 C267 555 295 537 300 506 C302 494 302 483 299 472 C294 455 286 439 276 424 C254 395 227 371 199 348 C199 347 198 347 196 346 L196 346 Z " />
<glyph glyph-name="quotesingle" unicode="&#x27;" horiz-adv-x="187" d="M244 737 C250 737 256 739 260 743 C267 750 271 757 272 767 C273 770 273 773 274 776 C279 795 284 813 290 832 C291 836 292 841 293 846 C295 856 289 867 279 871 C269 876 257 872 251 863 C248 859 246 855 245 851 C237 824 230 797 222 770 C221 768 221 766 221 763 C219 750 230 737 244 737 L244 737 Z " />
<glyph glyph-name="parenleft" unicode="&#x28;" horiz-adv-x="173" d="M34 150 C34 143 34 136 34 129 C34 127 35 125 35 123 C37 77 39 31 41 -15 C42 -22 42 -29 43 -36 C45 -47 56 -56 67 -56 C79 -56 89 -48 91 -37 C93 -31 93 -25 92 -19 C91 3 90 25 88 47 C88 62 87 78 86 93 C84 127 84 161 87 195 C90 228 94 260 99 292 C106 348 119 402 133 456 C162 560 206 658 259 752 C277 783 296 813 323 837 C330 844 332 852 329 861 C327 870 320 876 311 878 C300 881 291 877 283 869 C272 856 260 843 249 829 C224 795 205 758 186 722 C132 620 93 514 68 402 C58 360 51 317 45 274 C39 235 35 195 35 156 C35 154 34 152 34 150 L34 150 Z " />
<glyph glyph-name="parenright" unicode="&#x29;" horiz-adv-x="146" d="M204 668 C202 696 201 723 200 751 C198 777 195 804 188 830 C185 842 184 854 177 865 C170 877 156 881 145 875 C132 870 127 856 132 843 C133 840 135 836 136 833 C146 798 149 761 151 725 C153 684 153 643 150 602 C148 562 143 522 134 482 C114 384 86 287 51 193 C30 136 6 80 -19 24 C-27 7 -37 -10 -46 -28 C-49 -34 -50 -40 -48 -47 C-45 -57 -37 -65 -26 -65 C-15 -66 -7 -61 -1 -51 C9 -31 20 -12 30 9 C59 75 87 141 111 210 C136 282 157 354 174 428 C186 478 195 527 199 578 C202 608 202 638 204 668 L204 668 Z " />
<glyph glyph-name="asterisk" unicode="&#x2a;" horiz-adv-x="226" d="M128 371 C127 371 127 371 126 371 C125 373 123 376 122 378 C119 384 116 390 113 396 C106 405 93 409 83 404 C73 399 67 388 70 376 C71 373 72 370 74 367 C83 351 91 334 100 318 C102 315 104 312 105 308 C103 306 100 304 98 302 C75 285 52 268 30 251 C25 248 20 244 17 239 C11 232 10 224 13 215 C17 207 23 202 32 201 C40 200 46 203 52 208 C64 217 76 225 87 234 C89 235 91 236 94 238 C93 234 93 232 92 231 C90 221 88 212 86 202 C84 189 93 177 105 174 C117 171 129 179 133 192 C134 194 134 196 135 199 C137 207 139 216 141 225 C144 221 145 218 146 214 C149 209 151 203 154 198 C162 187 175 184 186 190 C197 196 201 208 196 221 C193 228 191 235 188 242 C182 258 176 273 170 289 C169 291 168 293 167 296 C170 298 172 300 174 302 C196 321 218 341 240 361 C245 365 249 369 253 374 C261 385 260 399 250 408 C241 417 227 415 216 405 C206 395 195 385 184 375 C183 373 181 373 178 371 C179 374 179 375 179 377 C182 387 185 397 187 407 C190 421 184 433 172 437 C159 441 147 435 142 422 C140 418 139 414 138 411 C135 397 132 384 128 371 L128 371 Z " />
<glyph glyph-name="plus" unicode="&#x2b;" horiz-adv-x="333" d="M323 262 C319 275 310 281 294 282 C269 283 243 285 218 285 C213 285 209 285 204 285 C210 307 215 329 221 351 C223 362 226 373 227 385 C229 401 220 411 206 411 C193 410 180 399 177 382 C173 365 170 349 166 332 C162 316 158 300 154 284 C128 283 102 283 77 282 C66 282 55 281 45 278 C30 275 21 263 23 248 C25 234 37 224 53 225 C69 226 85 227 101 228 C114 228 127 229 140 229 C134 210 128 190 121 171 C116 157 112 142 108 127 C104 111 111 99 124 95 C125 96 129 95 132 96 C144 98 152 107 158 124 C166 150 175 176 182 202 C185 212 187 221 190 230 C211 231 233 230 254 228 C268 227 283 227 297 227 C311 228 322 238 324 254 C324 255 324 259 323 262 L323 262 Z " />
<glyph glyph-name="comma" unicode="&#x2c;" horiz-adv-x="125" d="M-19 -38 C-19 -50 -16 -57 -8 -61 C1 -66 10 -66 17 -61 C22 -57 27 -52 30 -47 C44 -21 58 6 72 32 C73 34 74 36 75 38 C79 49 76 61 66 67 C57 73 44 72 36 64 C33 61 31 57 29 53 C14 26 -1 0 -15 -27 C-17 -31 -19 -36 -19 -38 L-19 -38 Z " />
<glyph glyph-name="hyphen" unicode="&#x2d;" horiz-adv-x="306" d="M304 275 C303 276 303 279 302 282 C299 294 290 299 277 299 C254 301 232 303 210 302 C169 302 128 300 87 299 C78 299 68 298 58 295 C45 293 37 282 39 269 C41 256 52 248 66 249 C80 249 94 250 108 251 C153 253 198 256 243 253 C255 252 267 252 280 252 C293 252 302 261 304 275 L304 275 Z " />
<glyph glyph-name="period" unicode="&#x2e;" horiz-adv-x="98" d="M53 65 C52 74 48 81 40 85 C32 90 24 89 16 84 C8 79 3 72 0 63 C-3 54 0 46 6 40 C13 34 20 31 29 34 C40 37 53 53 53 65 L53 65 Z " />
<glyph glyph-name="slash" unicode="&#x2f;" horiz-adv-x="374" d="M-27 -54 C-23 -54 -17 -52 -13 -47 C-10 -44 -7 -40 -4 -36 C50 55 105 145 159 236 C227 351 297 464 372 575 C427 657 482 739 542 817 C547 824 553 831 559 839 C565 847 566 856 560 866 C555 874 547 878 538 877 C530 876 525 872 520 867 C515 861 510 855 506 849 C452 779 402 706 353 633 C299 553 245 472 195 389 C114 255 34 120 -47 -15 C-49 -18 -50 -21 -51 -24 C-56 -39 -45 -54 -27 -54 L-27 -54 Z " />
<glyph glyph-name="zero" unicode="0" horiz-adv-x="293" d="M19 136 C20 122 21 104 23 86 C25 66 32 48 45 32 C69 0 106 -7 140 13 C145 16 149 19 153 22 C169 35 182 49 192 66 C202 83 213 101 222 119 C256 192 279 269 293 349 C297 378 300 408 296 438 C292 457 286 476 276 493 C269 506 259 513 243 511 C239 510 237 512 234 514 C218 526 200 529 181 524 C165 520 152 511 140 499 C122 481 108 459 95 437 C74 398 59 357 47 315 C30 258 20 200 19 136 L19 136 Z M240 448 C245 432 246 416 246 400 C243 359 235 319 224 280 C212 236 199 192 179 151 C170 132 160 113 149 95 C142 84 132 75 124 65 C121 63 118 60 114 58 C102 51 93 53 85 64 C77 75 75 88 73 101 C69 143 72 185 80 227 C90 287 108 345 135 400 C145 421 157 441 173 459 C179 464 185 469 192 473 C198 476 202 474 205 468 C212 453 223 446 240 448 L240 448 Z " />
<glyph glyph-name="one" unicode="1" horiz-adv-x="160" d="M174 491 C174 508 168 519 158 523 C148 528 135 526 128 517 C119 505 110 492 103 478 C98 469 100 459 107 451 C111 447 111 443 110 438 C104 417 98 395 92 374 C66 272 39 171 13 69 C10 57 6 45 4 33 C1 20 10 8 22 5 C34 1 46 8 51 20 C52 22 53 25 53 27 C60 52 67 77 73 103 C105 224 137 346 169 467 C171 476 173 486 174 491 L174 491 Z " />
<glyph glyph-name="two" unicode="2" horiz-adv-x="280" d="M254 493 C254 484 250 476 247 469 C234 438 220 408 203 380 C136 268 58 166 -29 70 C-34 66 -38 61 -41 56 C-51 38 -39 17 -19 17 C-14 17 -9 18 -5 19 C22 25 49 28 77 27 C90 26 103 26 115 26 C127 26 137 24 148 21 C156 19 164 17 172 18 C184 18 194 29 195 41 C196 53 187 65 175 67 C170 68 165 69 160 71 C146 76 131 77 116 77 C96 78 75 78 54 78 C52 78 51 78 47 79 C51 83 53 86 55 89 C115 157 168 230 218 306 C247 351 273 397 293 446 C299 460 304 474 306 490 C308 514 294 535 271 542 C259 546 248 546 236 543 C221 540 208 534 195 526 C148 500 110 463 77 420 C74 417 72 413 70 409 C64 394 72 378 87 374 C99 372 108 376 115 386 C134 412 156 434 180 455 C197 468 215 480 235 489 C240 492 246 494 254 493 L254 493 Z " />
<glyph glyph-name="three" unicode="3" horiz-adv-x="280" d="M231 487 C231 474 226 463 222 452 C212 429 198 408 183 388 C156 350 125 317 92 285 C88 280 83 275 80 270 C72 254 80 235 96 232 C102 231 110 233 116 234 C125 237 134 242 143 246 C159 252 176 255 193 253 C205 251 212 245 214 233 C214 228 214 222 213 217 C211 208 209 197 204 188 C181 142 149 103 106 73 C93 64 77 57 60 54 C49 53 37 52 26 57 C26 60 27 62 27 64 C28 74 25 81 18 87 C10 93 2 94 -7 91 C-24 84 -34 62 -27 45 C-19 27 -6 12 15 7 C28 4 42 3 56 3 C79 4 101 12 121 23 C145 36 164 53 183 72 C211 101 235 133 252 171 C262 192 266 215 264 238 C260 271 237 296 206 302 C198 303 190 304 182 305 C184 308 185 310 187 312 C196 323 206 334 215 346 C234 371 251 396 265 424 C273 442 280 460 281 480 C283 511 270 530 244 536 C238 537 232 538 226 537 C211 537 197 533 184 527 C139 507 101 478 67 442 C64 439 62 435 60 431 C57 422 58 413 64 406 C71 399 79 396 87 398 C93 400 99 403 103 407 C112 415 120 424 129 432 C151 452 175 468 202 480 C211 484 220 487 231 487 L231 487 Z " />
<glyph glyph-name="four" unicode="4" horiz-adv-x="253" d="M76 310 C78 314 79 318 82 321 C91 335 101 350 111 364 C135 397 160 431 185 464 C190 472 195 479 199 488 C204 500 198 514 187 519 C175 525 163 521 155 509 C152 503 148 497 144 492 C123 463 101 433 79 404 C66 386 53 367 41 348 C35 339 30 329 27 319 C20 300 28 280 46 269 C53 266 60 263 67 261 C101 253 134 255 168 263 C170 264 172 264 174 264 C174 261 173 258 172 256 C155 193 138 130 120 66 C117 56 114 45 112 34 C109 20 116 7 129 4 C141 0 153 6 159 19 C161 24 162 28 163 33 C169 56 174 78 180 100 C218 231 253 362 285 495 C286 501 288 508 287 515 C287 531 272 541 256 537 C246 534 241 526 238 516 C231 483 223 451 215 418 C208 389 200 360 192 331 C192 327 192 323 187 322 C164 314 142 306 117 306 C103 305 90 306 76 310 L76 310 Z " />
<glyph glyph-name="five" unicode="5" horiz-adv-x="240" d="M86 347 C88 356 90 363 92 370 C101 400 110 429 118 459 C121 467 126 472 134 473 C169 480 203 488 239 490 C242 490 244 490 247 491 C258 494 265 503 265 514 C265 525 259 535 247 538 C240 540 233 540 225 539 C204 536 183 533 161 529 C144 526 126 522 109 517 C94 513 83 503 77 489 C74 483 72 477 70 471 C55 428 44 385 34 341 C32 334 31 327 31 320 C31 303 42 291 59 290 C65 290 72 290 78 292 C89 295 99 299 110 302 C125 306 140 310 155 313 C167 316 171 313 175 302 C176 298 177 295 178 292 C179 277 178 262 174 248 C165 209 147 174 127 140 C114 117 97 98 77 81 C63 69 48 60 30 55 C26 53 22 53 17 52 C17 56 18 58 18 60 C20 73 13 85 0 89 C-12 92 -25 86 -30 73 C-32 67 -33 61 -34 55 C-39 30 -24 9 1 4 C23 -1 44 5 64 14 C98 29 125 54 148 83 C182 126 205 175 220 228 C227 248 229 270 228 292 C227 308 222 324 212 337 C200 355 183 365 161 364 C148 363 136 361 124 358 C112 355 100 351 86 347 L86 347 Z " />
<glyph glyph-name="six" unicode="6" horiz-adv-x="260" d="M92 285 C94 290 95 292 96 295 C110 332 127 369 147 404 C158 425 172 444 185 464 C190 473 198 480 207 484 C217 489 221 498 220 508 C219 518 212 525 202 528 C193 531 186 529 178 525 C168 519 159 511 152 502 C139 483 125 464 113 444 C81 389 55 331 34 270 C16 219 3 167 0 112 C-1 90 -1 67 5 45 C11 25 25 11 46 6 C66 0 85 2 104 12 C123 22 139 36 152 53 C189 99 215 151 233 208 C236 219 238 231 238 243 C238 275 223 299 194 313 C166 328 140 323 116 304 C111 300 107 296 102 292 C99 290 97 288 92 285 L92 285 Z M78 247 C79 246 80 245 81 245 C94 232 105 232 119 243 C127 249 134 256 142 262 C143 263 144 263 145 264 C154 273 164 275 175 268 C187 261 191 251 189 238 C189 231 187 223 184 216 C169 170 148 126 117 87 C107 75 96 63 82 56 C75 53 69 52 62 52 C56 53 53 55 52 61 C51 68 49 76 49 84 C47 128 55 171 68 213 C71 224 74 235 78 247 L78 247 Z " />
<glyph glyph-name="seven" unicode="7" horiz-adv-x="211" d="M181 297 C181 299 182 301 183 303 C209 358 235 414 261 470 C265 479 268 487 271 495 C275 509 272 522 259 530 C254 534 246 537 240 537 C228 538 216 537 205 536 C168 533 132 530 96 527 C91 526 86 526 81 525 C68 522 60 511 61 498 C62 486 72 476 85 475 C88 475 90 475 93 475 C122 478 150 480 178 483 C189 484 200 485 213 486 C185 424 157 364 127 304 C111 305 96 305 90 287 C85 274 91 264 102 256 C101 253 100 251 99 248 C65 182 32 116 -6 52 C-8 48 -10 44 -12 40 C-16 28 -11 15 0 10 C10 4 23 6 31 16 C34 19 36 23 39 27 C73 86 105 147 135 208 C142 222 150 236 157 250 C190 250 199 277 181 297 L181 297 Z " />
<glyph glyph-name="eight" unicode="8" horiz-adv-x="233" d="M74 271 C70 265 66 260 63 254 C55 242 49 229 41 217 C27 194 13 170 2 144 C-9 119 -13 93 -7 66 C-4 49 3 32 18 22 C41 6 67 0 94 7 C122 14 144 30 163 50 C193 80 202 116 192 156 C184 185 171 211 155 236 C150 244 145 251 140 259 C142 261 145 264 147 266 C183 303 214 344 238 390 C249 411 259 433 264 457 C271 491 253 520 219 529 C199 534 179 531 161 522 C128 506 101 482 83 450 C61 411 51 369 58 324 C61 306 67 288 74 271 L74 271 Z M104 225 C124 195 142 166 147 132 C148 118 145 105 137 94 C124 77 107 64 88 56 C75 50 62 53 50 60 C46 61 44 66 43 70 C37 86 39 102 44 118 C49 130 54 141 60 151 C73 175 87 198 101 221 C102 222 102 223 104 225 L104 225 Z M114 302 C105 329 102 354 108 379 C116 419 136 451 172 472 C179 476 187 479 195 482 C198 483 202 482 206 482 C214 480 217 476 216 468 C214 459 211 450 208 442 C192 401 168 365 140 331 C132 322 124 313 114 302 L114 302 Z " />
<glyph glyph-name="nine" unicode="9" horiz-adv-x="227" d="M148 259 C147 254 146 251 145 249 C138 232 130 216 123 199 C97 146 71 94 38 45 C35 40 32 35 30 29 C26 17 31 5 42 0 C53 -4 64 0 70 11 C73 16 75 20 78 25 C89 42 101 60 111 78 C142 136 172 194 196 256 C215 306 234 355 246 407 C251 427 255 447 254 468 C254 483 250 497 240 509 C228 524 212 530 192 526 C182 524 174 520 166 515 C145 501 127 484 112 464 C89 432 68 399 51 364 C47 357 44 349 41 341 C34 322 30 303 31 283 C34 253 58 233 88 236 C106 238 123 244 139 253 C141 255 144 256 148 259 L148 259 Z M175 330 C174 330 172 330 171 330 C161 333 154 329 147 322 C144 318 141 314 138 310 C125 295 109 286 90 282 C88 281 86 281 83 281 C81 281 80 281 78 282 C74 290 75 299 78 307 C82 321 86 334 92 346 C107 377 126 406 146 434 C157 449 169 462 183 472 C187 475 191 478 195 480 C203 484 207 483 209 473 C210 465 210 456 208 447 C202 408 191 370 177 333 C177 332 176 331 175 330 L175 330 Z " />
<glyph glyph-name="colon" unicode="&#x3a;" horiz-adv-x="74" d="M55 182 C56 195 46 207 32 207 C20 208 8 197 7 184 C7 171 17 160 30 159 C44 158 55 168 55 182 L55 182 Z M72 305 C85 305 96 316 96 329 C96 342 84 353 71 353 C58 353 47 343 47 330 C47 316 58 305 72 305 L72 305 Z " />
<glyph glyph-name="semicolon" unicode="&#x3b;" horiz-adv-x="94" d="M37 133 C45 133 52 137 57 144 C65 156 73 169 79 182 C82 186 83 192 83 197 C82 207 75 215 66 217 C55 220 46 217 40 208 C35 200 30 192 25 184 C22 178 18 172 15 166 C9 150 20 133 37 133 L37 133 Z M96 364 C83 364 73 353 73 340 C73 326 85 314 99 314 C111 314 122 325 122 337 C122 352 110 364 96 364 L96 364 Z " />
<glyph glyph-name="less" unicode="&#x3c;" horiz-adv-x="267" d="M115 294 C120 296 123 297 126 299 C187 326 244 360 300 395 C312 403 317 417 311 428 C305 439 292 442 279 436 C274 433 270 431 266 428 C200 387 135 349 63 322 C59 321 54 318 51 315 C33 303 32 283 45 272 C48 269 53 266 57 264 C73 257 89 249 105 242 C136 229 164 215 189 194 C197 187 206 181 216 175 C227 167 241 170 250 181 C258 192 258 205 247 214 C243 217 240 220 236 223 C229 228 222 232 215 238 C202 249 187 259 171 267 C155 274 140 282 124 289 C121 290 118 292 115 294 L115 294 Z " />
<glyph glyph-name="equal" unicode="&#x3d;" horiz-adv-x="280" d="M176 214 C176 214 176 215 176 215 C136 214 95 212 55 210 C45 211 36 211 26 210 C11 210 2 200 1 187 C1 173 11 164 26 163 C40 163 55 161 69 163 C115 165 161 168 207 166 C214 166 221 166 228 168 C238 170 245 178 245 188 C247 203 236 215 220 215 C205 214 191 214 176 214 L176 214 Z M148 287 C188 288 229 288 269 288 C282 288 292 297 294 308 C295 321 288 331 275 335 C269 336 263 337 257 337 C235 337 212 335 189 335 C160 335 130 335 100 335 C94 334 87 335 80 334 C68 332 59 322 60 310 C59 298 68 288 81 287 C84 287 87 287 89 287 C109 287 128 287 148 287 L148 287 Z " />
<glyph glyph-name="greater" unicode="&#x3e;" horiz-adv-x="289" d="M209 308 C204 306 201 304 198 302 C136 267 74 232 12 196 C8 194 2 191 -1 187 C-8 179 -11 167 -7 158 C-4 149 7 146 17 150 C21 152 26 154 29 156 C101 196 171 236 242 276 C248 280 257 283 263 287 C274 294 283 303 284 315 C285 328 277 335 268 340 C266 340 264 341 262 342 C237 353 213 363 190 374 C164 385 139 398 112 410 C105 414 95 418 85 419 C68 420 52 404 54 388 C56 380 61 375 67 372 C72 371 77 369 82 367 C116 351 149 335 184 319 C192 316 198 313 209 308 L209 308 Z " />
<glyph glyph-name="question" unicode="&#x3f;" horiz-adv-x="297" d="M85 17 C88 17 90 17 93 17 C95 19 96 20 98 21 C108 27 112 38 109 48 C106 60 96 68 84 68 C74 68 65 61 63 50 C61 38 66 27 77 21 C80 20 82 19 85 17 L85 17 Z M300 792 C294 792 289 792 283 792 C282 791 281 791 279 791 C220 781 178 745 147 692 C144 686 142 680 141 674 C138 660 145 647 157 643 C169 639 180 645 185 659 C187 663 188 668 191 671 C222 721 265 748 323 742 C338 740 352 735 364 725 C374 718 379 708 380 695 C381 682 380 670 377 657 C369 620 352 589 329 561 C307 535 283 511 257 489 C243 478 229 467 215 456 C195 439 178 419 164 396 C149 371 137 344 129 316 C115 266 101 216 88 166 C86 162 86 156 87 151 C89 137 103 128 115 132 C124 134 129 141 132 150 C140 178 148 207 155 235 C164 268 172 302 185 333 C200 367 220 396 247 419 C260 429 273 439 286 450 C314 472 340 498 363 526 C392 561 413 600 423 647 C427 665 429 684 426 703 C420 737 403 760 375 776 C351 789 326 794 300 792 L300 792 Z " />
<glyph glyph-name="at" unicode="&#x40;" horiz-adv-x="453" d="M281 219 C281 211 280 203 280 196 C281 171 301 158 323 168 C332 171 340 177 347 183 C403 229 440 288 459 358 C464 377 464 397 460 416 C454 446 435 467 409 483 C385 496 360 503 333 504 C263 508 199 489 143 446 C85 400 48 341 29 270 C15 216 21 163 43 112 C61 71 92 44 135 31 C153 26 171 23 189 22 C244 20 294 34 339 65 C359 78 378 92 396 107 C406 115 416 123 424 132 C430 138 435 146 438 154 C443 167 438 180 426 185 C415 190 403 186 395 174 C391 168 386 161 380 156 C357 138 335 120 310 103 C264 72 213 63 158 75 C129 81 106 95 92 122 C73 158 66 196 72 237 C78 280 95 319 121 354 C174 424 243 460 332 456 C349 455 366 451 382 442 C409 428 420 406 413 376 C402 324 376 280 340 241 C339 240 337 239 335 237 C336 242 337 245 337 249 C345 278 353 307 360 337 C362 341 362 346 362 351 C361 361 356 368 346 372 C337 375 329 373 322 366 C319 363 316 359 313 355 C306 342 299 330 292 317 C291 315 289 313 288 312 C287 323 287 335 284 346 C277 371 257 383 232 378 C211 375 193 367 177 354 C149 332 129 303 116 270 C109 253 105 235 106 216 C108 176 140 150 179 156 C193 158 205 163 217 169 C238 180 256 195 273 211 C275 214 278 216 281 219 L281 219 Z M238 330 C240 322 239 314 237 306 C235 299 232 292 230 285 C222 267 224 259 240 247 C238 245 236 243 235 242 C222 230 208 219 192 211 C186 207 178 205 171 204 C161 202 155 207 154 217 C153 228 155 239 159 249 C168 274 183 296 203 313 C215 324 225 329 238 330 L238 330 Z " />
<glyph glyph-name="A" unicode="A" horiz-adv-x="460" d="M405 387 C404 385 404 385 404 384 C387 317 370 249 351 182 C341 140 330 98 319 56 C315 43 322 30 334 26 C346 22 358 27 363 40 C364 42 365 45 366 48 C370 61 372 74 375 87 C390 141 406 195 420 249 C432 294 443 339 454 384 C455 386 454 389 459 389 C467 389 475 390 483 389 C497 388 507 396 509 409 C510 421 501 434 489 436 C482 438 475 438 468 438 C468 439 469 441 469 443 C490 526 514 609 529 694 C536 731 542 767 538 805 C538 821 534 836 524 850 C513 870 492 879 469 876 C455 873 443 867 431 860 C408 844 388 824 370 802 C332 756 299 705 270 652 C228 577 188 501 147 426 C145 423 143 421 139 421 C134 421 128 420 124 419 C111 418 98 416 85 415 C66 413 55 396 64 380 C70 369 81 364 95 366 C102 368 110 369 119 370 C118 368 117 366 116 365 C90 313 64 261 38 209 C15 163 -8 116 -31 69 C-35 60 -38 50 -42 40 C-44 30 -40 19 -32 13 C-24 8 -12 7 -5 14 C-2 17 1 21 3 26 C8 35 11 45 16 54 C40 103 63 150 87 198 C116 256 145 314 173 372 C175 375 177 376 180 376 C188 376 195 377 203 377 C241 379 279 381 317 383 C333 384 348 385 363 385 C377 386 391 386 405 387 L405 387 Z M202 425 C206 434 210 440 213 447 C252 521 292 595 335 667 C358 706 384 743 414 778 C428 794 442 810 462 821 C466 823 471 826 476 828 C481 830 484 829 486 823 C488 817 490 810 490 803 C492 778 491 753 486 729 C473 649 452 571 432 494 C427 476 423 458 419 440 C417 436 416 435 413 435 C381 434 349 432 316 431 C302 430 288 430 273 429 C251 428 229 427 207 425 C205 425 204 425 202 425 L202 425 Z " />
<glyph glyph-name="B" unicode="B" horiz-adv-x="500" d="M387 484 C388 485 389 485 389 485 C416 506 439 529 460 554 C493 592 519 634 533 683 C542 712 547 743 540 774 C527 832 485 852 436 847 C412 845 391 837 368 826 C319 803 280 768 248 725 C245 721 243 717 240 713 C240 714 240 715 240 715 C247 744 255 773 263 802 C265 811 269 821 273 830 C280 841 280 853 272 861 C263 869 250 870 240 863 C234 858 230 852 228 845 C221 827 215 808 210 790 C194 733 179 676 162 620 C133 522 101 425 72 328 C69 318 65 308 62 298 C47 299 43 296 34 285 C28 276 23 267 20 257 C17 247 14 236 11 226 C4 197 1 168 6 139 C7 136 7 133 6 129 C0 110 -6 91 -12 71 C-15 57 -8 44 4 40 C17 36 29 43 35 56 C36 59 37 63 39 67 C40 65 41 64 42 63 C77 24 121 4 174 2 C206 1 237 7 267 16 C328 33 380 65 421 115 C452 154 475 198 491 246 C504 287 511 329 505 372 C498 410 480 441 446 461 C428 472 409 479 387 484 L387 484 Z M168 50 C139 52 105 65 78 94 C71 103 66 115 60 125 C58 127 59 130 59 132 C84 208 107 286 135 361 C154 412 172 464 192 514 C211 565 234 615 263 662 C284 698 311 731 345 757 C372 777 400 792 432 798 C442 801 453 801 464 798 C475 795 484 789 489 779 C494 765 496 751 495 736 C491 689 472 648 445 611 C404 555 355 510 291 481 C279 475 265 471 252 466 C246 463 240 460 235 457 C225 451 221 441 222 431 C224 421 232 414 243 412 C247 412 252 413 257 414 C265 417 273 421 281 424 C296 431 312 437 328 438 C352 440 375 440 397 431 C414 425 431 416 443 400 C453 387 458 372 458 355 C462 306 449 260 428 216 C413 183 393 153 368 127 C336 95 300 75 258 63 C232 55 206 50 168 50 L168 50 Z " />
<glyph glyph-name="C" unicode="C" horiz-adv-x="449" d="M33 185 C35 161 37 139 40 117 C43 89 54 63 72 41 C89 20 111 8 138 7 C157 6 174 11 191 17 C235 32 272 59 305 91 C336 121 362 156 385 192 C418 244 449 296 481 349 C483 353 484 357 485 362 C488 374 481 385 470 389 C458 393 446 387 440 376 C438 372 436 367 434 363 C424 347 414 331 405 314 C378 268 351 223 319 180 C293 145 264 114 228 89 C205 74 181 61 153 56 C138 53 125 55 114 66 C104 76 97 88 92 101 C84 125 83 151 83 176 C82 212 86 247 92 283 C97 315 103 346 110 378 C125 448 147 515 176 581 C203 642 241 698 284 749 C304 772 326 793 353 808 C375 820 398 829 424 825 C448 823 463 809 468 786 C473 766 474 746 473 725 C470 695 464 666 449 639 C442 627 446 613 457 606 C469 600 482 603 490 615 C494 621 497 628 500 635 C519 682 526 731 518 781 C516 798 512 814 503 828 C483 860 452 872 417 874 C399 875 382 871 366 866 C329 854 298 832 272 805 C221 754 181 696 148 633 C117 573 96 510 78 445 C61 386 48 327 41 266 C38 238 36 211 33 185 L33 185 Z " />
<glyph glyph-name="D" unicode="D" horiz-adv-x="441" d="M206 641 C206 641 206 641 205 641 C213 665 222 689 229 713 C242 754 255 795 267 836 C271 851 265 864 251 866 C239 869 227 861 221 848 C219 840 217 832 215 824 C174 696 134 569 93 441 C72 375 53 309 33 244 C30 232 26 219 23 207 C10 208 1 201 -5 192 C-10 186 -14 180 -16 173 C-19 162 -21 151 -25 140 C-29 115 -26 90 -17 67 C-17 65 -16 63 -17 61 C-20 51 -22 42 -25 32 C-27 21 -22 10 -13 6 C-3 1 8 5 15 15 C17 18 20 21 21 24 C21 24 22 24 22 24 C40 14 60 14 82 20 C106 27 130 38 152 51 C195 76 233 109 267 145 C331 213 383 289 427 370 C458 428 481 489 501 550 C513 590 522 630 527 671 C530 696 529 721 526 745 C524 769 517 792 503 812 C490 833 470 844 445 844 C423 845 402 840 381 831 C343 814 310 787 282 756 C254 724 232 688 212 651 C210 648 209 644 206 641 L206 641 Z M482 686 C478 666 476 646 472 626 C455 547 426 471 390 399 C348 319 297 245 234 178 C204 146 171 116 132 93 C113 82 92 72 71 66 C60 63 49 63 39 72 C37 74 36 75 37 78 C69 184 107 289 148 393 C175 462 203 531 237 598 C256 636 275 674 302 707 C325 737 351 764 386 782 C404 791 422 797 442 797 C451 796 458 793 462 785 C472 772 476 756 478 739 C479 722 481 705 482 686 L482 686 Z " />
<glyph glyph-name="E" unicode="E" horiz-adv-x="410" d="M542 862 C526 863 505 861 489 861 C415 861 341 861 267 861 C263 861 259 863 254 863 C245 863 236 863 225 859 C215 854 209 840 213 829 C214 826 214 823 213 819 C189 763 170 707 153 650 C138 600 123 551 108 501 C107 499 106 497 105 495 C94 487 89 475 95 464 C96 462 96 460 95 458 C76 396 57 335 37 273 C27 241 19 209 10 178 C-1 141 -11 104 -23 67 C-23 64 -25 61 -28 59 C-40 53 -47 42 -44 30 C-42 21 -36 16 -28 12 C-17 4 -2 7 7 19 C7 20 9 21 11 22 C30 24 48 27 67 28 C99 31 278 39 325 40 C366 38 367 86 342 87 C327 86 68 76 50 75 C42 74 34 73 26 72 C27 74 43 129 52 156 C68 210 84 264 100 318 C114 361 127 403 141 446 C142 452 145 454 150 453 C150 453 151 453 151 453 C190 454 230 454 269 454 C280 455 291 461 294 472 C300 487 290 501 274 502 C265 503 256 503 246 503 C225 502 204 502 183 501 C174 501 166 501 157 501 C158 503 158 505 158 507 C171 549 184 591 196 633 C215 692 235 751 257 809 C258 813 276 813 282 813 C366 814 448 811 532 814 C572 816 580 860 542 862 L542 862 Z " />
<glyph glyph-name="F" unicode="F" horiz-adv-x="404" d="M222 819 C221 816 220 815 220 813 C188 718 157 623 127 528 C98 440 69 350 42 262 C22 199 3 135 -13 72 C-20 50 -26 37 -24 22 C-22 11 -15 8 -5 6 C5 5 12 9 18 18 C19 23 22 29 24 35 C33 64 41 96 50 127 C72 194 95 263 115 330 C127 372 141 415 153 457 C154 459 155 462 159 462 C174 463 190 465 204 466 C232 468 261 468 288 470 C299 470 309 471 319 471 C345 472 370 472 395 473 C400 473 404 472 408 471 C427 467 442 482 440 499 C437 512 425 522 410 522 C386 522 365 521 341 521 C308 520 276 519 243 517 C227 517 212 516 197 515 C188 514 181 514 173 513 C175 516 175 518 175 519 C189 563 203 608 218 652 C236 705 254 761 271 815 C274 819 276 820 280 820 C296 820 312 821 327 821 C405 822 460 820 546 822 C593 822 618 819 649 821 C673 823 683 867 652 867 C629 871 597 868 573 869 C535 870 496 869 458 869 C384 869 311 868 235 867 C219 867 203 865 186 863 C181 862 175 860 170 858 C162 852 159 839 163 829 C167 818 179 812 190 814 C201 816 211 817 222 819 L222 819 Z " />
<glyph glyph-name="G" unicode="G" horiz-adv-x="500" d="M467 347 C467 345 426 244 401 198 C378 157 350 120 312 92 C288 74 262 57 230 54 C204 50 180 55 160 75 C154 81 148 87 143 94 C120 128 107 164 102 202 C97 242 100 281 104 320 C118 429 152 530 206 622 C233 668 263 712 301 750 C329 778 360 801 401 812 C417 817 434 821 452 818 C464 816 476 812 485 802 C493 793 499 784 503 773 C508 759 510 745 510 731 C510 725 510 719 512 713 C516 702 527 695 538 695 C549 696 558 704 558 717 C559 735 557 754 552 773 C546 799 533 821 512 839 C484 862 452 868 420 865 C379 860 343 846 311 823 C281 803 256 778 234 750 C186 691 147 626 117 555 C79 464 55 368 52 266 C51 231 52 197 62 162 C71 130 84 99 105 70 C141 20 189 -1 247 8 C273 12 296 23 318 36 C365 65 401 104 430 150 C461 200 485 254 506 309 C511 321 515 333 519 346 C523 359 528 383 511 389 C489 397 448 396 422 398 C398 399 387 399 363 399 C343 400 326 399 320 379 C316 359 325 349 340 348 C378 347 451 347 467 347 L467 347 Z " />
<glyph glyph-name="H" unicode="H" horiz-adv-x="475" d="M99 407 C99 405 45 197 24 94 C19 72 15 51 10 29 C8 17 16 6 28 3 C39 -1 51 5 56 16 C63 44 74 96 87 153 C104 226 122 299 140 372 C143 384 146 395 149 407 C242 409 309 406 428 401 C428 398 402 293 390 242 C369 154 351 85 349 63 C347 49 355 38 368 35 C381 32 393 39 396 53 C398 59 410 111 415 131 C428 184 439 238 452 291 C460 325 471 378 477 398 C502 396 530 394 554 392 C563 392 572 391 579 397 C586 403 589 413 586 421 C579 437 557 439 490 444 C491 446 554 674 585 787 C591 806 596 825 601 845 C604 856 597 867 586 871 C575 876 563 872 557 862 C555 858 553 854 552 849 C534 784 515 718 497 652 C478 586 444 456 440 447 C423 448 310 454 273 455 C238 455 165 455 162 455 C163 457 193 567 209 620 C226 678 244 735 261 793 C266 808 271 823 275 838 C278 851 269 863 256 866 C244 869 234 860 225 837 C217 812 208 788 200 763 C182 704 165 645 148 585 C136 543 123 497 112 455 C104 455 92 454 85 453 C73 453 65 446 62 436 C60 426 64 404 99 407 L99 407 Z " />
<glyph glyph-name="I" unicode="I" horiz-adv-x="226" d="M108 55 C108 57 108 59 109 61 C117 96 126 132 135 167 C160 280 189 392 219 503 C239 579 260 655 281 731 C287 753 297 792 303 815 C314 816 378 815 392 817 C403 818 414 832 415 844 C416 861 403 872 386 872 C367 872 233 872 220 872 C205 872 186 870 181 847 C178 833 182 818 196 816 C217 815 228 815 252 815 C238 761 220 692 205 639 C175 533 146 426 120 319 C104 252 88 186 72 119 C67 98 62 77 57 56 C56 53 55 52 52 52 C42 52 31 51 21 50 C10 49 1 41 0 32 C-2 16 10 3 27 4 C36 4 45 5 54 5 C87 6 120 7 152 8 C161 8 169 7 177 7 C190 7 198 16 199 28 C201 38 194 49 182 53 C179 53 175 54 172 54 C152 55 133 55 113 55 C111 55 110 55 108 55 L108 55 Z " />
<glyph glyph-name="J" unicode="J" horiz-adv-x="415" d="M162 2 C163 2 164 2 165 2 C167 2 169 2 171 2 C192 3 212 6 231 14 C258 25 278 44 297 66 C323 96 341 129 358 165 C385 227 405 292 422 358 C452 476 478 595 504 714 C511 750 529 838 527 848 C520 863 510 870 484 870 C483 870 252 872 221 870 C190 867 186 860 184 848 C183 833 193 818 220 818 C244 818 467 817 474 817 C474 815 467 768 463 746 C438 630 412 515 383 400 C367 333 348 267 322 204 C307 166 287 130 262 98 C248 82 232 66 212 58 C193 50 172 49 151 50 C126 51 106 64 93 86 C82 104 78 124 77 144 C75 173 79 202 85 230 C93 271 130 372 138 383 C147 396 138 415 122 418 C113 420 105 417 100 411 C94 404 70 349 63 328 C47 279 33 228 29 174 C28 143 31 113 43 83 C61 39 93 12 139 4 C146 3 154 2 162 2 L162 2 Z " />
<glyph glyph-name="K" unicode="K" horiz-adv-x="470" d="M129 428 C142 470 157 526 169 569 C185 619 199 669 214 718 C227 761 241 804 254 846 C258 858 254 869 244 875 C236 880 224 879 217 871 C213 867 209 861 207 855 C156 697 113 541 64 382 C62 374 60 366 55 358 C51 353 49 346 51 339 C52 337 51 335 51 334 C17 233 -10 144 -41 44 C-45 29 -46 6 -34 2 C-21 -3 -10 3 -3 16 C5 28 8 41 6 56 C38 148 67 240 100 332 C115 356 184 415 205 439 C268 307 316 181 380 46 C386 34 401 33 413 41 C423 48 426 61 421 73 C405 108 387 144 371 180 C344 241 317 302 290 363 C275 402 254 441 241 480 C267 507 307 547 334 574 C424 665 474 718 590 834 C601 843 603 857 596 867 C589 877 572 882 563 872 C449 761 416 725 317 622 C267 570 212 516 162 463 C151 452 141 440 129 428 L129 428 Z " />
<glyph glyph-name="L" unicode="L" horiz-adv-x="491" d="M29 63 C29 67 28 73 30 78 C65 206 102 333 141 460 C175 568 208 676 240 784 C246 800 250 816 256 832 C260 845 254 858 242 862 C230 867 216 861 210 848 C209 844 207 841 207 837 C193 794 181 750 167 707 C130 586 93 466 57 345 C29 251 2 156 -23 61 C-24 58 -25 57 -29 56 C-42 52 -49 40 -46 27 C-44 16 -33 8 -19 9 C-6 11 8 12 23 13 C71 15 119 17 167 18 C228 19 288 19 349 19 C371 19 393 17 416 16 C429 15 441 22 444 34 C446 46 440 58 428 63 C423 64 418 65 413 65 C384 66 354 67 325 67 C282 67 239 67 196 66 C166 66 136 65 106 64 C95 64 84 63 74 63 C59 63 45 63 29 63 L29 63 Z " />
<glyph glyph-name="M" unicode="M" horiz-adv-x="465" d="M268 336 C267 336 267 336 267 336 C270 391 274 460 275 515 C277 641 278 742 262 862 C259 871 251 877 241 877 C231 877 224 873 219 864 C195 796 172 726 150 658 C84 454 27 247 -26 39 C-29 28 -24 17 -14 12 C-4 7 8 10 15 19 C81 261 145 502 226 739 C228 702 226 605 226 568 C224 417 221 376 214 242 C215 224 230 213 246 217 C253 219 259 225 263 231 C319 325 362 425 413 523 C444 583 471 646 502 706 C479 612 452 517 428 423 C401 314 375 205 348 95 C344 78 340 61 337 44 C334 29 349 15 364 18 C378 21 384 31 387 44 C390 83 402 121 410 159 C426 222 442 286 458 349 C479 431 500 513 521 595 C540 675 568 754 580 836 C581 849 571 860 559 862 C549 863 540 860 534 853 C496 802 469 745 441 688 C419 644 399 600 378 557 C346 492 313 427 280 362 C276 353 272 345 268 336 L268 336 Z " />
<glyph glyph-name="N" unicode="N" horiz-adv-x="375" d="M284 152 C283 152 283 152 283 152 C283 156 282 160 282 164 C280 186 278 208 277 230 C274 262 273 294 271 326 C268 366 266 405 264 444 C264 462 263 481 261 499 C259 536 257 574 255 611 C253 628 253 645 252 662 C249 698 247 733 245 768 C244 782 243 797 242 811 C241 823 233 833 222 835 C211 838 201 832 195 821 C194 818 193 815 192 811 C170 745 149 679 132 612 C114 547 100 480 81 415 C46 289 13 161 -28 37 C-32 27 -29 16 -20 10 C-8 2 7 6 12 19 C18 31 23 43 27 55 C44 117 63 179 80 241 C100 313 120 384 139 456 C159 526 176 596 195 665 C197 674 199 683 203 693 C203 691 203 691 203 691 C206 663 207 635 209 607 C210 588 211 570 212 551 C215 506 218 460 220 415 C223 382 223 349 225 316 C228 279 230 241 233 203 C236 165 241 127 245 89 C246 80 248 70 252 62 C261 42 286 38 301 55 C303 59 306 64 308 69 C314 87 320 106 325 125 C348 221 371 318 394 415 C407 467 422 519 435 571 C455 651 475 731 503 809 C506 820 511 831 514 842 C517 855 508 867 495 870 C484 872 473 866 470 853 C454 807 438 760 425 713 C404 640 385 567 367 494 C341 389 316 282 290 177 C288 168 286 160 284 152 L284 152 Z " />
<glyph glyph-name="O" unicode="O" horiz-adv-x="492" d="M48 215 C48 207 49 230 48 215 C48 214 48 213 48 213 C48 213 48 217 48 217 C46 212 49 202 49 197 C49 191 50 186 52 181 C53 159 56 138 63 117 C75 82 97 47 130 29 C204 -12 288 25 340 79 C443 184 489 335 524 476 C544 551 561 629 563 707 C563 741 561 780 538 808 C527 822 514 838 500 849 C494 852 489 854 483 853 C475 852 472 844 466 843 C461 841 453 849 447 852 C440 856 432 859 424 861 C407 866 390 866 373 864 C337 858 304 837 276 814 C222 767 182 701 152 637 C89 507 55 360 48 215 L48 215 Z M501 779 C508 771 502 778 501 779 C502 778 503 777 504 776 C504 777 502 778 501 779 C524 753 516 705 512 674 C509 638 504 601 497 565 C482 491 462 420 437 349 C416 287 393 227 356 173 C323 125 279 70 217 61 C56 37 97 285 116 373 C141 501 186 635 268 735 C303 777 372 846 431 807 C445 799 452 786 454 770 C456 758 453 743 467 735 C477 730 491 732 496 741 C503 750 503 768 501 779 L501 779 Z " />
<glyph glyph-name="P" unicode="P" horiz-adv-x="420" d="M117 386 C117 386 117 386 118 386 C118 384 119 382 119 380 C126 339 147 310 185 297 C214 286 246 291 275 305 C319 325 357 357 388 394 C427 443 458 486 487 541 C516 595 539 660 544 721 C548 751 548 781 539 809 C528 848 497 870 456 870 C427 870 401 862 375 851 C319 828 273 792 233 747 C230 743 227 740 224 736 C228 748 231 760 235 772 C240 792 248 812 253 833 C257 848 243 862 227 859 C216 857 211 850 207 839 C201 820 195 800 189 781 C146 647 107 513 67 379 C52 327 38 274 24 221 C15 192 7 162 0 133 C-8 103 -13 73 -27 45 C-31 38 -30 29 -30 21 C-29 9 -19 1 -8 0 C1 0 10 8 13 21 C20 45 28 68 34 92 C59 178 83 265 106 351 C110 363 114 374 117 386 L117 386 Z M192 596 C218 655 252 708 302 751 C337 782 377 807 423 819 C437 822 450 825 465 822 C480 820 489 811 493 798 C498 783 500 768 501 753 C500 703 484 639 463 593 C430 523 402 484 353 424 C329 395 291 363 257 346 C242 339 227 336 211 339 C185 343 170 359 165 384 C161 405 163 426 167 447 C173 476 180 506 190 534 C193 542 197 550 201 556 C212 571 210 589 192 596 L192 596 Z " />
<glyph glyph-name="Q" unicode="Q" horiz-adv-x="490" d="M463 -53 C464 -53 466 -53 467 -53 C469 -52 472 -51 474 -51 C485 -47 491 -37 491 -26 C490 -16 483 -7 473 -4 C468 -3 463 -1 459 2 C418 31 378 61 337 90 C337 90 336 91 336 91 C339 95 342 99 346 103 C377 142 402 184 425 227 C488 348 534 475 561 609 C569 643 574 678 573 713 C572 734 570 755 564 775 C554 808 536 832 506 848 C491 856 475 859 459 862 C449 864 438 866 428 868 C423 868 419 868 414 868 C412 867 411 867 409 866 C401 864 395 861 391 854 C390 851 389 847 388 844 C387 844 387 844 386 844 C361 846 338 842 315 832 C286 818 261 798 240 774 C207 738 182 697 159 654 C125 589 99 522 77 453 C60 397 45 340 41 281 C38 242 38 203 46 164 C53 127 67 93 90 63 C123 21 165 6 217 16 C247 21 273 35 297 54 C300 57 302 57 305 54 C346 24 387 -6 429 -35 C439 -43 450 -50 463 -53 L463 -53 Z M448 816 C456 814 464 812 472 810 C498 803 512 784 519 759 C525 736 526 712 524 688 C519 615 499 545 477 476 C447 385 411 297 362 214 C344 182 325 152 301 124 C300 123 299 122 298 121 C291 128 284 134 277 141 C270 150 262 153 251 151 C241 148 235 141 234 130 C233 122 236 114 242 108 C248 101 255 94 261 87 C249 78 235 71 219 65 C203 60 187 59 170 63 C153 67 140 77 129 91 C110 115 99 142 93 172 C86 207 86 243 88 279 C93 339 109 395 127 452 C150 525 180 595 218 662 C238 696 260 728 288 755 C303 769 319 781 337 789 C354 796 372 799 390 795 C406 791 418 781 421 764 C424 754 429 746 439 743 C457 739 472 753 469 771 C466 786 460 801 449 812 C449 813 448 814 448 815 C448 815 448 815 448 816 L448 816 Z " />
<glyph glyph-name="R" unicode="R" horiz-adv-x="415" d="M223 692 C223 692 222 692 222 693 C224 698 226 704 228 709 C241 752 256 795 271 838 C274 850 269 862 258 868 C247 873 234 869 228 859 C225 854 223 849 222 844 C208 802 193 759 181 717 C141 595 104 473 70 350 C58 308 47 267 35 226 C14 162 -4 97 -15 31 C-17 14 -6 0 9 1 C20 2 28 10 31 23 C48 88 64 153 83 217 C95 261 113 303 127 345 C132 361 138 376 145 391 C147 385 148 379 150 373 C159 351 175 336 200 333 C203 333 205 331 205 328 C207 302 211 276 214 250 C217 221 221 192 224 163 C229 129 232 95 238 61 C239 53 239 44 242 36 C246 24 258 17 270 21 C281 24 289 36 288 48 C287 56 285 63 284 71 C280 97 278 123 274 150 C271 180 266 211 263 242 C259 275 255 308 251 341 C251 342 252 345 253 345 C285 361 314 384 340 408 C376 441 404 479 432 519 C475 585 507 656 518 735 C520 754 522 774 517 793 C508 826 490 850 455 858 C430 864 406 859 382 849 C353 836 326 817 304 795 C272 766 249 732 226 697 C225 695 224 694 223 692 L223 692 Z M243 394 C239 420 235 445 226 469 C224 476 220 484 216 490 C211 501 203 508 190 510 C191 511 191 512 191 512 C210 560 230 607 255 651 C276 689 301 725 331 756 C353 777 375 794 402 806 C412 810 423 812 433 812 C452 812 466 802 470 783 C472 768 472 753 470 738 C460 669 433 607 395 550 C369 510 340 473 307 441 C287 425 270 410 250 398 C248 397 246 396 243 394 L243 394 Z M188 428 C189 422 191 417 192 411 C193 404 194 398 195 392 C190 403 187 415 188 428 L188 428 Z " />
<glyph glyph-name="S" unicode="S" horiz-adv-x="490" d="M13 214 C14 202 15 190 16 178 C17 170 19 162 20 154 C32 90 89 23 162 10 C191 4 217 0 246 2 C269 3 293 9 314 16 C359 32 394 62 422 100 C459 150 477 206 470 270 C465 311 450 349 426 383 C406 412 380 435 355 459 C332 481 309 501 288 524 C254 561 237 606 237 656 C236 682 242 708 252 731 C270 775 298 809 344 825 C364 833 385 837 407 833 C433 829 453 815 465 792 C488 751 495 709 481 663 C479 658 478 653 480 647 C483 637 491 631 502 631 C512 630 522 636 525 647 C529 661 534 675 535 690 C538 724 533 757 520 790 C509 816 495 839 472 856 C441 880 406 887 368 881 C327 874 290 857 259 827 C212 780 190 722 189 656 C188 611 201 569 224 530 C239 504 260 482 283 461 C309 436 335 411 361 386 C382 365 399 341 410 314 C424 275 428 236 417 196 C407 159 387 129 360 102 C337 80 311 63 279 56 C244 49 209 49 175 56 C120 67 84 103 69 156 C57 198 60 241 71 283 C79 317 95 346 111 376 C113 379 130 406 122 416 C114 427 101 429 89 421 C76 413 55 371 47 355 C25 311 14 264 13 214 L13 214 Z " />
<glyph glyph-name="T" unicode="T" horiz-adv-x="165" d="M212 819 C212 817 177 681 159 614 C140 538 121 462 102 386 C82 308 62 227 43 149 C36 124 18 44 17 31 C17 16 22 4 35 2 C57 -2 64 15 66 28 C73 60 83 107 91 142 C110 221 121 270 138 337 C164 435 189 533 214 631 C229 692 246 758 262 818 C289 819 472 814 481 814 C500 813 519 812 538 811 C551 811 562 820 564 833 C566 845 557 856 545 859 C540 860 536 861 532 861 C500 861 88 869 21 866 C11 866 0 866 -9 862 C-22 856 -27 843 -23 831 C-18 819 -8 813 7 816 C12 817 209 819 212 819 L212 819 Z " />
<glyph glyph-name="U" unicode="U" horiz-adv-x="519" d="M419 187 C420 187 420 187 420 187 C420 186 420 185 420 184 C412 152 405 118 398 86 C395 75 395 64 388 55 C387 53 386 51 386 49 C387 39 387 29 389 20 C392 9 404 3 414 5 C426 7 433 15 436 27 C442 56 447 85 453 113 C470 192 491 270 512 347 C529 410 546 472 561 534 C580 609 595 684 609 760 C611 772 612 785 613 797 C614 809 605 819 593 821 C580 823 568 815 564 799 C559 772 554 745 548 718 C532 646 513 575 493 504 C473 434 451 365 422 299 C393 231 354 169 303 115 C283 94 262 75 236 62 C217 52 197 44 175 45 C149 46 121 65 113 91 C109 102 107 115 105 127 C101 155 101 182 104 210 C106 236 110 262 114 289 C123 337 132 385 142 432 C155 494 170 556 185 618 C200 677 215 735 230 794 C233 808 239 821 243 835 C246 845 242 855 234 860 C226 866 216 867 207 861 C201 857 197 851 195 844 C186 815 177 785 169 756 C138 630 106 504 81 376 C70 317 57 258 54 198 C52 161 54 124 63 88 C78 18 150 -14 204 -1 C245 8 280 27 311 55 C347 87 378 125 404 165 C409 172 414 180 419 187 L419 187 Z " />
<glyph glyph-name="V" unicode="V" horiz-adv-x="510" d="M140 58 C140 58 139 58 139 59 C139 69 139 79 139 89 C140 110 140 131 143 151 C148 205 154 259 161 312 C167 357 174 401 181 445 C195 538 210 630 226 722 C232 762 240 801 247 840 C249 852 244 864 233 869 C222 874 211 871 204 862 C202 858 200 853 199 848 C190 801 181 754 173 706 C159 622 145 538 132 455 C126 413 119 370 114 328 C107 273 101 218 95 163 C91 131 89 97 91 64 C91 51 94 38 101 26 C110 12 122 4 138 5 C150 5 159 11 169 17 C196 35 216 59 235 85 C279 147 320 212 357 279 C412 378 465 479 519 579 C563 659 606 739 649 819 C650 822 652 825 654 828 C658 839 654 853 642 859 C632 865 619 863 612 854 C609 851 607 847 606 844 C566 770 526 696 486 623 C454 562 419 502 387 440 C335 337 278 236 213 141 C197 117 181 93 159 73 C154 68 147 63 140 58 L140 58 Z " />
<glyph glyph-name="W" unicode="W" horiz-adv-x="705" d="M466 566 C466 565 467 565 467 565 C461 537 455 508 449 480 C440 434 431 387 423 340 C417 307 413 273 408 240 C404 211 401 183 398 155 C395 127 392 98 394 70 C395 57 397 43 405 32 C415 16 430 7 449 10 C459 11 468 16 476 21 C492 32 505 46 517 61 C537 86 551 114 566 142 C610 230 650 319 689 409 C744 531 797 653 851 775 C857 787 863 799 868 811 C874 824 869 838 857 844 C845 850 831 845 824 832 C823 829 822 826 820 823 C808 797 796 770 784 743 C759 686 733 629 708 572 C661 468 615 363 568 258 C549 215 527 173 505 130 C494 109 480 88 462 71 C457 67 451 63 445 58 C444 60 444 61 444 63 C443 66 443 69 443 71 C440 95 443 118 445 141 C447 165 450 189 453 213 C458 248 463 284 468 319 C475 359 483 400 491 440 C505 517 522 594 540 670 C545 689 550 708 554 728 C556 738 549 750 540 754 C529 759 518 756 511 747 C508 744 506 740 503 736 C461 660 420 583 381 505 C344 430 306 355 264 283 C229 225 194 167 153 113 C139 94 122 77 103 63 C101 61 98 59 95 58 C95 64 94 70 94 76 C96 97 98 117 101 138 C111 193 121 248 132 303 C143 363 155 422 168 481 C188 574 208 667 229 760 C236 787 245 814 253 841 C256 854 251 866 240 871 C229 876 216 872 209 861 C208 858 206 855 205 851 C201 836 195 822 191 807 C172 724 152 641 135 558 C114 463 96 368 77 272 C66 213 53 154 47 94 C45 73 46 53 52 33 C58 13 73 3 94 7 C108 9 120 15 131 23 C157 43 179 67 198 93 C246 159 290 229 329 301 C369 375 407 451 446 527 C453 540 459 553 466 566 L466 566 Z " />
<glyph glyph-name="X" unicode="X" horiz-adv-x="485" d="M265 337 C274 293 316 87 329 28 C331 19 336 12 345 10 C362 4 377 19 374 38 C372 49 312 339 304 388 C303 390 631 823 639 834 C647 845 644 859 634 867 C624 874 610 872 602 861 C579 833 293 459 292 458 C291 459 226 820 221 835 C218 847 207 855 196 853 C181 851 172 838 177 823 C181 807 253 401 251 399 C235 375 219 352 203 329 C147 248 15 58 5 44 C-4 31 -2 17 9 9 C19 2 33 4 42 16 C45 20 264 335 265 337 L265 337 Z " />
<glyph glyph-name="Y" unicode="Y" horiz-adv-x="461" d="M427 433 C427 433 427 432 427 432 C427 432 427 431 426 430 C402 342 378 254 352 165 C340 122 228 -307 215 -350 C212 -362 217 -374 228 -379 C240 -384 252 -379 258 -367 C260 -363 261 -359 263 -355 C275 -310 388 122 400 167 C437 302 476 435 516 569 C543 656 571 741 600 828 C601 832 602 836 602 840 C603 851 595 862 585 865 C572 868 562 862 558 850 C547 827 538 804 529 780 C513 737 497 693 479 651 C445 570 404 493 364 415 C344 375 320 337 291 304 C274 285 256 269 236 257 C223 250 211 246 196 250 C171 257 153 274 145 299 C136 322 136 346 139 370 C143 395 146 420 152 444 C167 504 184 564 200 623 C215 681 231 738 251 794 C256 810 262 827 268 843 C271 853 267 862 259 868 C252 875 244 876 236 872 C228 869 225 863 223 856 C212 826 201 795 191 764 C175 710 160 655 145 601 C127 538 110 476 98 412 C91 377 88 343 94 307 C101 273 117 245 144 224 C162 210 182 201 204 201 C225 201 245 207 263 218 C290 234 313 256 333 280 C361 314 383 351 404 389 C412 403 420 418 427 433 L427 433 Z " />
<glyph glyph-name="Z" unicode="Z" horiz-adv-x="495" d="M602 862 C592 865 581 867 570 867 C553 867 291 842 255 837 C240 835 233 824 235 811 C238 798 252 789 265 791 C280 793 538 819 554 820 C563 820 572 820 582 820 C578 817 541 769 524 748 C476 689 427 631 379 573 C336 521 294 469 252 418 C250 416 232 414 226 413 C213 413 205 405 205 393 C204 384 209 378 216 372 C213 371 186 335 174 319 C143 278 114 238 82 198 C52 158 19 118 -12 78 C-17 72 -21 64 -25 56 C-31 41 -24 26 -9 18 C1 12 12 10 23 10 C49 10 313 28 340 32 C349 33 359 36 366 45 C372 54 371 65 364 74 C356 83 345 85 335 81 C329 79 35 57 33 57 C41 67 50 77 56 86 C99 140 140 193 181 247 C212 286 277 368 279 368 C295 368 312 367 328 367 C396 369 382 414 356 413 C340 413 320 414 314 415 C316 418 363 475 384 501 C425 552 627 797 631 810 C637 833 626 854 602 862 L602 862 Z " />
<glyph glyph-name="bracketleft" unicode="&#x5b;" horiz-adv-x="193" d="M33 19 C34 21 34 22 34 23 L48 76 L96 271 L135 419 C147 467 158 515 171 562 C196 650 229 734 259 819 C260 821 262 823 264 823 C270 824 277 825 284 825 C300 826 316 827 333 829 C340 829 348 832 354 836 C365 842 368 856 364 866 C359 877 347 883 335 880 C328 879 321 878 314 878 L253 872 C248 872 243 870 239 869 C223 865 217 854 213 841 L162 697 C143 642 124 587 110 531 L58 320 L-19 16 C-23 -1 -17 -15 -1 -22 C14 -30 31 -32 48 -34 C58 -35 68 -36 78 -38 C85 -40 92 -40 99 -38 C110 -34 119 -23 119 -12 C118 0 110 9 97 11 L74 15 C60 16 47 17 33 19 L33 19 Z " />
<glyph glyph-name="backslash" unicode="&#x5c;" horiz-adv-x="407" d="M21 847 C22 844 22 840 23 837 C30 812 38 788 45 763 C73 670 99 577 128 484 C148 418 169 353 190 287 C223 184 260 85 298 -15 C305 -33 312 -51 318 -68 C321 -76 326 -82 333 -85 C341 -89 351 -88 360 -82 C367 -74 370 -63 366 -52 C363 -44 360 -37 358 -31 C317 72 279 176 244 282 C219 357 197 431 174 506 C140 620 106 733 73 845 C71 851 70 855 67 860 C62 872 51 877 40 874 C29 871 21 859 21 847 L21 847 Z " />
<glyph glyph-name="bracketright" unicode="&#x5d;" horiz-adv-x="153" d="M224 827 C224 826 223 825 223 825 C203 748 183 671 164 594 C141 506 118 418 96 330 C73 233 52 136 30 38 C28 27 28 27 16 27 C-7 26 -30 26 -53 25 C-66 24 -76 16 -78 4 C-80 -8 -74 -19 -63 -23 C-59 -25 -54 -26 -49 -25 C-19 -25 10 -23 40 -22 C49 -22 56 -18 61 -11 C62 -10 63 -9 64 -8 C71 -3 74 4 76 12 C87 60 97 108 109 155 C128 239 146 322 167 405 C204 551 242 696 280 841 C284 855 276 868 263 872 C261 872 260 873 259 873 C251 879 241 879 232 878 C207 877 183 876 158 874 C155 874 153 874 150 874 C138 871 129 861 129 849 C129 835 140 824 156 823 C166 823 176 824 187 825 C199 825 211 826 224 827 L224 827 Z " />
<glyph glyph-name="asciicircum" unicode="&#x5e;" horiz-adv-x="206" d="M306 724 C306 733 306 743 306 753 C306 759 305 765 304 771 C302 798 301 825 298 852 C298 859 297 876 288 880 C276 880 261 878 255 870 C232 839 212 806 194 772 C193 769 191 766 190 763 C186 748 198 733 214 733 C224 734 231 739 236 748 C241 757 246 767 251 776 C252 778 254 779 255 781 C257 774 257 768 258 761 C258 750 258 739 260 728 C261 718 267 711 276 707 C286 704 294 707 300 714 C303 717 304 720 306 724 L306 724 Z " />
<glyph glyph-name="underscore" unicode="&#x5f;" horiz-adv-x="600" d="M485 93 C436 94 53 98 33 96 C3 93 -13 89 -13 70 C-13 51 -1 41 29 42 C61 43 479 42 506 42 C535 42 543 54 546 73 C546 93 506 92 485 93 L485 93 Z " />
<glyph glyph-name="grave" unicode="&#x60;" horiz-adv-x="233" d="M257 876 C245 880 233 876 226 867 C222 858 221 845 229 838 C240 829 245 817 252 804 C258 793 263 781 271 771 C274 765 279 760 283 755 C291 747 302 747 313 751 C323 754 330 763 330 773 C330 783 324 791 315 795 C312 798 309 799 307 803 C303 812 298 821 293 829 C287 840 281 850 274 861 C270 868 263 873 257 876 L257 876 Z " />
<glyph glyph-name="a" unicode="a" horiz-adv-x="368" d="M202 50 C227 75 246 105 267 136 C267 134 266 132 266 130 C254 95 249 66 239 29 C238 12 253 2 271 7 C280 10 283 16 290 40 C309 112 328 186 350 259 C366 319 384 379 401 438 L418 495 C420 507 413 517 404 522 C393 526 382 523 375 513 C372 510 372 505 371 500 C363 477 357 453 349 430 C320 351 287 275 248 200 C228 164 208 129 181 96 C166 77 145 63 120 56 C97 49 78 56 65 78 C47 114 46 153 48 192 C58 276 88 356 142 420 C169 451 205 477 247 477 C274 469 291 439 290 423 C289 414 287 406 287 399 C285 386 290 375 301 371 C313 366 325 372 329 382 C335 400 338 418 334 436 C330 459 320 478 304 493 C207 576 93 458 54 373 C32 327 15 276 7 225 C-1 185 -1 145 9 103 C13 80 23 58 38 39 C61 15 87 4 117 8 C150 12 179 27 202 50 L202 50 Z " />
<glyph glyph-name="b" unicode="b" horiz-adv-x="401" d="M111 321 C111 321 111 321 111 321 C111 323 111 325 112 327 C158 500 206 677 257 845 C260 855 262 874 251 876 C220 881 219 865 212 858 C133 606 67 349 1 92 C-4 72 -9 51 -13 30 C-14 18 -7 6 4 3 C16 -1 28 5 33 17 C34 20 35 24 36 27 C51 82 71 134 96 185 C122 239 149 293 183 342 C205 374 229 405 259 431 C281 448 305 462 331 469 C347 472 356 469 364 455 C376 436 377 413 376 391 C366 282 298 113 166 78 C146 77 154 100 154 111 C158 135 165 158 183 177 C191 186 190 199 182 208 C173 217 159 219 150 211 C115 179 101 127 107 81 C112 57 130 38 153 33 C183 27 254 56 286 89 C330 133 361 174 384 231 C408 286 424 345 425 406 C424 428 420 450 409 471 C393 504 361 526 315 514 C279 504 247 485 219 460 C188 432 163 400 141 366 C131 352 121 336 111 321 L111 321 Z " />
<glyph glyph-name="c" unicode="c" horiz-adv-x="355" d="M10 132 C10 99 18 62 39 36 C55 15 75 5 101 5 C127 5 150 12 173 25 C206 43 233 69 256 99 C293 150 327 203 357 259 C361 272 353 286 338 289 C328 291 319 286 312 275 C270 211 238 139 180 88 C160 71 138 57 111 53 C91 51 83 54 73 70 C51 109 58 154 64 196 C80 293 119 391 193 459 C218 483 272 501 293 464 C308 438 275 412 292 388 C298 381 305 378 314 380 C323 382 329 388 333 396 C343 417 346 440 342 463 C339 486 329 505 308 519 C267 543 214 534 177 507 C96 445 51 347 26 250 C17 213 11 176 10 132 L10 132 Z " />
<glyph glyph-name="d" unicode="d" horiz-adv-x="355" d="M262 138 C260 132 259 127 259 122 C253 88 246 53 240 19 C239 4 277 -17 289 23 C294 48 292 42 298 67 C314 158 334 248 356 337 C364 367 372 398 381 428 C420 581 455 692 489 814 C492 845 508 876 476 874 C452 876 445 859 437 830 C383 632 371 597 330 434 C310 376 289 319 268 262 C243 204 216 138 162 101 C152 96 142 92 131 93 C114 95 103 106 96 119 C83 142 76 166 75 191 C71 280 105 364 157 433 C172 452 189 467 211 477 C226 485 243 486 260 476 C267 472 271 466 271 458 C271 451 269 445 267 439 C264 426 269 413 281 408 C293 403 306 408 312 421 C314 425 315 430 316 434 C324 464 315 493 293 511 C270 528 244 534 216 529 C189 525 168 511 148 494 C52 410 -7 245 48 110 C56 93 65 78 80 66 C110 42 144 39 178 55 C202 66 220 83 236 103 C245 114 253 126 262 138 L262 138 Z " />
<glyph glyph-name="e" unicode="e" horiz-adv-x="320" d="M-2 178 C-2 124 11 71 53 34 C88 2 146 5 187 25 C249 57 286 135 320 201 C325 214 318 227 306 231 C295 236 282 230 277 220 C257 182 240 145 213 112 C184 72 117 32 74 82 C37 129 43 184 53 236 C64 292 87 346 117 394 C141 434 175 474 223 484 C239 485 253 477 255 461 C261 425 249 395 222 369 C215 362 206 357 195 355 C180 354 171 361 175 378 C175 383 176 387 175 392 C172 402 162 408 152 408 C141 408 132 400 129 389 C126 378 126 368 127 358 C132 331 151 312 177 308 C288 290 359 487 247 529 C190 541 137 500 103 458 C42 378 2 278 -2 178 L-2 178 Z " />
<glyph glyph-name="f" unicode="f" horiz-adv-x="240" d="M145 409 C146 410 146 411 146 412 C153 436 160 460 167 484 C181 529 195 574 209 618 C216 639 225 659 238 677 C248 691 261 701 278 704 C298 708 312 694 308 675 C307 670 304 666 302 662 C299 655 297 649 300 642 C302 633 309 627 318 625 C328 624 336 628 342 636 C354 653 358 672 356 692 C351 726 321 752 288 753 C262 753 240 744 221 728 C201 712 188 690 178 667 C162 634 152 600 142 565 C126 513 111 462 96 410 C95 407 94 405 91 405 C82 404 73 403 65 402 C50 401 39 389 41 375 C42 362 54 353 69 355 C73 355 76 355 80 356 C79 354 79 353 79 352 C68 310 57 269 45 227 C18 130 -6 32 -29 -66 C-35 -92 -41 -117 -48 -143 C-51 -156 -44 -169 -32 -173 C-20 -177 -7 -170 -2 -157 C-1 -155 -1 -152 0 -150 C8 -117 15 -85 23 -52 C43 29 64 110 85 191 C99 246 115 301 130 356 C131 359 132 360 136 360 C174 362 212 363 250 364 C256 364 261 366 266 370 C273 377 276 385 273 394 C270 404 262 411 252 411 C237 412 222 411 206 411 C186 410 166 409 145 409 L145 409 Z " />
<glyph glyph-name="g" unicode="g" horiz-adv-x="394" d="M285 115 C285 114 262 28 251 -14 C233 -82 213 -151 193 -219 C175 -280 170 -325 118 -389 C95 -416 61 -447 32 -441 C9 -436 -1 -403 -3 -383 C-9 -338 -2 -290 9 -245 C13 -228 25 -204 17 -195 C7 -183 -14 -178 -22 -193 C-40 -229 -53 -296 -53 -349 C-53 -372 -49 -410 -39 -432 C-20 -474 20 -503 69 -483 C126 -461 160 -423 189 -371 C228 -297 252 -198 274 -118 L341 131 C371 242 430 472 430 475 C431 485 425 495 416 500 C408 505 398 505 390 499 C385 495 382 489 380 482 C378 474 344 359 327 310 C313 266 295 224 270 186 C254 160 237 134 214 113 C200 100 183 88 163 83 C148 79 132 80 117 91 C104 101 94 114 87 129 C76 156 75 182 77 208 C81 251 94 290 112 328 C129 362 149 394 174 422 C190 439 208 451 231 458 C249 463 263 459 276 444 C286 434 287 421 287 409 C286 400 283 390 281 381 C279 367 288 353 301 350 C313 347 324 353 328 364 C333 377 335 391 335 406 C335 436 325 463 300 485 C281 501 260 509 236 508 C214 507 195 499 177 488 C150 473 130 451 113 426 C79 379 52 327 38 269 C28 229 23 187 34 143 C39 120 49 99 65 79 C98 39 139 25 184 38 C210 46 232 60 250 78 C263 90 274 103 285 115 L285 115 Z " />
<glyph glyph-name="h" unicode="h" horiz-adv-x="332" d="M286 449 C286 449 287 448 287 448 C285 406 272 366 262 326 C236 235 209 143 189 50 C187 37 195 25 208 22 C220 19 232 26 236 39 C261 166 309 290 333 418 C335 434 336 450 333 467 C327 494 303 508 278 498 C239 483 213 449 191 415 C149 350 110 281 74 212 C90 275 108 338 125 401 C169 569 200 660 251 826 C255 840 260 876 242 876 C215 876 209 856 204 842 C116 579 51 313 -20 39 C-22 28 -16 16 -6 11 C4 7 16 9 23 18 C56 76 88 135 120 195 C154 258 188 321 227 381 C241 403 255 424 275 441 C278 444 282 446 286 449 L286 449 Z " />
<glyph glyph-name="i" unicode="i" horiz-adv-x="115" d="M35 260 C7 154 -14 69 -17 31 C-15 19 -9 12 0 9 C12 6 22 13 24 23 C48 120 100 324 122 403 C128 435 137 453 114 457 C87 462 82 426 76 411 C65 374 58 343 35 260 L35 260 Z M134 548 C120 548 108 536 105 520 C104 510 108 500 117 494 C125 489 136 489 144 495 C153 502 157 510 158 521 C160 534 148 547 134 548 L134 548 Z " />
<glyph glyph-name="j" unicode="j" horiz-adv-x="155" d="M-328 -428 C-312 -528 -199 -535 -133 -464 C-100 -424 -81 -384 -46 -271 C-32 -216 22 -45 75 164 C89 213 138 395 140 405 C152 450 139 452 130 452 C114 452 102 442 90 398 C35 209 -26 -19 -76 -201 C-88 -242 -124 -359 -147 -404 C-201 -485 -293 -492 -282 -368 C-271 -318 -250 -247 -239 -209 C-238 -196 -248 -188 -259 -186 C-270 -184 -278 -188 -283 -196 C-288 -204 -314 -291 -323 -328 C-328 -358 -333 -397 -328 -428 L-328 -428 Z M150 548 C137 548 125 537 122 521 C120 512 124 502 132 497 C140 492 151 492 159 498 C167 504 171 512 172 522 C175 535 164 547 150 548 L150 548 Z " />
<glyph glyph-name="k" unicode="k" horiz-adv-x="335" d="M121 390 C130 441 148 499 159 549 C173 612 208 764 219 812 C229 848 231 876 211 876 C197 876 180 869 175 835 C161 777 144 703 131 645 C105 522 94 481 62 359 C34 250 5 141 -19 32 C-21 22 -16 12 -6 7 C1 2 11 2 19 8 C23 11 26 16 28 22 C33 59 45 95 54 130 C60 64 135 28 190 56 C253 86 294 144 332 200 C337 210 345 220 350 230 C359 244 351 262 336 266 C326 269 316 266 310 257 C272 200 236 137 173 106 C153 93 113 93 105 122 C88 179 108 237 124 292 C136 340 233 468 268 445 C283 419 324 447 314 467 C302 494 275 504 246 500 C229 497 215 490 201 480 C169 457 142 429 121 390 L121 390 Z " />
<glyph glyph-name="l" unicode="l" horiz-adv-x="113" d="M4 6 C16 5 27 13 31 27 C97 314 149 535 226 819 C231 835 236 858 232 865 C227 873 225 876 208 873 C198 871 185 850 179 820 C105 534 52 325 -14 37 C-17 21 -9 6 4 6 L4 6 Z " />
<glyph glyph-name="m" unicode="m" horiz-adv-x="383" d="M429 464 C429 469 429 474 430 479 C430 483 429 487 428 491 C424 521 396 534 370 518 C357 511 348 502 339 492 C312 463 289 431 270 398 C269 396 268 395 266 392 C268 405 269 417 270 429 C272 444 273 458 270 473 C267 489 257 499 243 501 C232 503 222 499 214 493 C205 486 197 478 189 470 C163 438 142 403 123 368 C118 357 112 346 106 336 C106 337 106 338 106 339 C115 371 123 403 132 435 C136 454 140 472 144 491 C147 506 133 520 117 517 C105 515 99 507 97 496 C91 476 87 456 83 435 C70 389 58 343 47 297 C32 233 16 169 2 105 C-4 82 -10 59 -15 37 C-18 23 -13 11 -1 7 C11 3 22 8 30 20 C32 24 33 27 34 30 C37 40 41 49 44 58 C72 142 106 223 144 304 C164 348 188 390 217 429 C219 431 220 434 223 436 C223 436 224 435 224 435 C222 423 221 411 219 399 C209 357 199 316 189 274 C182 247 174 221 168 194 C164 181 169 170 181 165 C192 161 204 165 211 176 C213 179 214 182 215 184 C236 234 259 282 285 329 C307 370 331 410 362 446 C368 453 374 460 381 468 C381 466 381 465 381 464 C379 439 373 416 366 392 C341 297 314 203 285 109 C277 85 269 60 262 36 C258 22 263 10 276 6 C288 2 300 8 306 21 C307 23 308 26 309 28 C344 138 377 248 407 359 C414 387 420 415 427 443 C428 450 428 457 429 464 L429 464 Z " />
<glyph glyph-name="n" unicode="n" horiz-adv-x="293" d="M293 495 C296 469 289 442 280 413 C269 371 256 329 242 288 C213 202 184 118 158 31 C154 17 165 5 177 2 C190 -1 201 7 204 20 C230 111 262 198 292 287 C310 339 328 392 339 446 C341 466 343 485 341 504 C339 521 332 535 314 542 C301 547 288 545 277 539 C257 529 239 513 225 496 C203 470 169 424 153 394 C136 366 65 247 61 228 C60 229 60 230 60 230 C82 314 108 398 129 485 C131 491 133 498 129 505 C124 513 117 518 108 518 C98 518 89 514 86 504 C43 334 13 225 -21 65 C-25 51 -17 36 -8 34 C3 32 11 48 18 57 C82 165 159 313 227 420 C248 449 267 473 293 495 L293 495 Z " />
<glyph glyph-name="o" unicode="o" horiz-adv-x="383" d="M121 12 C190 12 250 51 289 106 C326 156 352 212 372 272 C386 321 398 371 391 422 C383 473 355 508 310 531 C299 537 288 535 280 526 C278 524 277 523 274 524 C250 530 226 528 204 519 C172 506 145 486 121 461 C81 418 53 368 34 312 C9 232 -18 118 38 47 C62 23 93 13 121 12 L121 12 Z M345 375 C343 361 341 347 339 334 C325 264 295 200 256 142 C227 97 177 58 120 60 C81 64 61 83 53 117 C46 177 60 236 78 293 C95 343 119 389 156 428 C173 447 193 462 216 472 C236 482 257 482 278 473 C299 464 316 440 312 412 C311 405 309 398 310 392 C313 377 326 369 341 374 C342 374 343 374 345 375 L345 375 Z " />
<glyph glyph-name="p" unicode="p" horiz-adv-x="410" d="M128 340 C120 328 111 309 104 298 C120 352 137 409 154 463 C158 479 164 494 168 510 C171 521 164 533 154 537 C144 541 132 538 126 528 C94 444 88 415 50 281 C-15 24 -75 -201 -149 -439 C-175 -525 -121 -525 -106 -477 C-93 -436 -20 -202 -9 -160 C37 5 52 44 115 199 C137 254 161 309 194 359 C227 407 258 456 315 481 C331 488 338 486 347 471 C373 426 364 371 354 321 C342 263 322 207 290 156 C267 118 234 63 183 55 C158 51 148 76 155 99 C163 131 178 160 201 185 C208 196 207 210 197 218 C188 226 175 225 165 216 C130 181 99 121 107 68 C116 19 154 1 194 8 C221 12 244 26 263 44 C303 82 331 128 356 176 C377 219 391 265 401 312 C410 352 415 393 409 434 C405 471 383 528 336 533 C284 536 234 489 199 448 C171 415 149 378 128 340 L128 340 Z " />
<glyph glyph-name="q" unicode="q" horiz-adv-x="367" d="M256 119 C250 94 235 42 224 2 C167 -216 136 -297 91 -483 C82 -524 130 -516 137 -491 C196 -268 206 -225 252 -74 C278 21 305 116 332 211 C355 300 385 385 414 472 C418 484 411 496 400 501 C389 505 377 502 370 491 C353 458 348 419 333 385 C308 315 276 249 240 185 C210 136 179 80 124 56 C115 53 106 51 96 53 C84 56 76 65 71 76 C48 124 64 181 73 231 C92 311 129 389 195 439 C215 454 252 449 254 419 C255 406 265 396 277 396 C290 396 300 405 302 418 C302 428 301 438 297 448 C279 487 230 506 189 488 C112 453 71 373 42 298 C22 235 6 169 13 103 C19 57 49 6 99 5 C121 3 142 10 160 21 C190 37 214 61 234 88 C241 97 248 108 256 119 L256 119 Z " />
<glyph glyph-name="r" unicode="r" horiz-adv-x="290" d="M129 411 C133 437 141 463 147 488 C149 501 142 514 130 517 C118 520 104 513 101 500 C96 483 92 467 89 450 C72 377 53 305 33 234 C16 172 1 109 -16 47 C-18 41 -17 34 -14 28 C-10 20 -3 15 6 15 C16 15 24 21 28 30 C31 38 33 45 35 53 C98 260 119 349 204 425 C219 437 233 447 250 454 C255 456 260 456 264 453 C280 441 276 417 274 399 C271 385 280 372 292 370 C306 367 317 375 321 389 C325 410 325 430 321 451 C311 489 270 518 225 496 C196 481 171 461 149 436 C142 429 136 420 129 411 L129 411 Z " />
<glyph glyph-name="s" unicode="s" horiz-adv-x="295" d="M230 202 C231 198 231 191 230 185 C231 154 222 126 206 100 C189 69 161 50 122 50 C102 50 83 53 67 64 C40 83 24 105 27 136 C30 169 40 198 56 224 C64 239 74 249 88 259 C91 261 93 261 97 260 C105 256 114 258 121 265 C133 278 124 302 105 309 C92 313 84 311 74 307 C51 297 35 281 21 262 C0 233 -12 200 -19 164 C-22 141 -23 119 -13 95 C1 56 29 30 68 14 C111 -4 154 -1 193 19 C220 33 241 56 255 84 C272 119 281 158 277 199 C274 231 266 262 249 291 C235 317 219 342 205 366 C192 389 178 410 173 435 C167 455 171 471 187 483 C201 497 219 496 234 482 C243 473 249 463 250 452 C251 439 248 427 245 415 C242 406 238 398 234 390 C231 384 233 377 235 371 C239 362 246 357 256 356 C267 355 274 359 278 367 C283 382 290 397 294 412 C302 444 297 475 275 503 C253 529 226 543 194 539 C151 533 119 492 123 449 C126 423 135 399 148 376 C163 350 180 324 195 297 C213 267 226 237 230 202 L230 202 Z " />
<glyph glyph-name="t" unicode="t" horiz-adv-x="137" d="M-54 576 C-46 576 114 576 141 576 C111 463 75 338 45 225 C6 78 -87 -273 -134 -442 C-147 -486 -153 -514 -130 -516 C-108 -521 -102 -486 -96 -471 C-67 -366 7 -112 45 37 C91 216 139 399 190 576 C214 576 736 576 765 576 C791 576 798 585 798 597 C798 610 794 623 767 623 C692 623 269 623 205 623 C204 623 210 645 210 650 C208 662 199 670 188 670 C177 671 167 664 164 653 C160 642 158 635 155 623 C155 623 -29 623 -61 623 C-77 623 -90 618 -89 598 C-88 580 -87 576 -54 576 L-54 576 Z " />
<glyph glyph-name="u" unicode="u" horiz-adv-x="339" d="M218 85 C216 74 212 64 210 53 C207 40 216 27 229 25 C242 23 253 31 257 45 C289 159 323 274 351 389 C357 417 375 479 382 506 C389 523 385 539 368 537 C357 536 340 528 337 519 C317 455 293 355 268 292 C240 214 214 134 148 74 C134 61 114 46 94 56 C72 68 65 94 65 118 C64 168 75 216 84 266 C100 341 137 440 162 514 C166 531 155 550 139 547 C129 545 120 534 117 525 C96 468 66 383 49 324 C37 280 28 235 21 189 C17 136 7 68 52 28 C68 12 88 5 111 7 C128 8 143 12 158 21 C175 32 189 46 201 62 C207 69 212 77 218 85 L218 85 Z " />
<glyph glyph-name="v" unicode="v" horiz-adv-x="300" d="M351 536 C261 398 133 201 38 66 C58 208 107 361 144 502 C148 520 138 536 121 534 C112 533 103 527 98 515 C63 381 16 226 -6 92 C-9 73 -11 54 -10 35 C-7 15 10 2 28 5 C39 7 50 13 59 21 C72 34 93 60 119 97 C225 253 316 394 395 519 C399 528 398 536 393 543 C387 550 379 553 370 551 C362 549 357 543 351 536 L351 536 Z " />
<glyph glyph-name="w" unicode="w" horiz-adv-x="438" d="M48 77 C48 77 47 77 47 77 C47 80 47 82 47 84 C50 97 52 110 54 123 C60 148 64 174 71 200 C80 235 88 271 99 306 C113 350 125 394 140 438 C146 458 155 477 163 497 C166 508 161 520 150 524 C137 529 123 522 116 507 C106 480 95 453 86 426 C71 375 55 324 40 273 C32 239 24 205 16 171 C11 148 7 126 3 103 C0 88 -1 72 -3 56 C-3 46 -2 36 0 27 C5 9 23 2 42 11 C48 14 56 19 61 24 C80 40 91 58 105 77 C132 118 156 161 177 204 C179 206 179 207 180 209 C178 188 174 167 171 147 C166 118 161 89 161 59 C162 44 164 30 173 17 C183 2 200 -3 218 4 C232 9 244 19 253 30 C272 51 286 74 300 98 C323 138 340 179 359 220 C390 294 422 369 454 443 C467 470 479 497 491 524 C494 533 494 542 488 549 C483 556 475 558 466 556 C455 554 449 546 444 536 C432 508 419 479 407 450 C378 383 350 316 320 249 C300 203 280 157 255 113 C244 96 232 79 219 62 C217 58 214 56 211 53 C211 53 210 53 210 54 C209 60 210 67 210 74 C212 94 214 113 217 133 C219 151 222 169 226 187 C229 210 234 234 238 257 C243 279 246 301 249 323 C251 331 252 340 251 348 C251 358 245 365 236 368 C225 371 215 367 209 359 C206 356 204 352 201 348 C188 323 174 299 161 274 C135 223 109 171 78 122 C68 107 58 92 48 77 L48 77 Z " />
<glyph glyph-name="x" unicode="x" horiz-adv-x="275" d="M163 251 C165 236 167 222 168 209 C171 186 173 163 176 140 C178 115 180 90 183 65 C184 52 186 39 188 26 C190 11 202 3 214 5 C228 7 236 17 235 32 C234 44 232 55 231 67 C229 85 227 103 226 121 C224 142 221 163 219 184 C217 203 215 222 213 240 C211 258 209 276 206 294 C206 298 207 301 210 304 C217 312 224 320 231 328 C267 368 302 409 337 449 C354 468 371 486 388 505 C395 512 397 521 394 530 C391 538 384 543 375 545 C366 547 359 543 352 537 C344 528 335 519 327 510 C286 463 244 415 203 368 C202 367 201 365 201 363 C200 364 199 364 199 365 C197 387 194 408 193 430 C191 457 190 484 189 511 C188 523 179 533 167 534 C156 535 145 528 142 516 C141 511 140 506 140 502 C142 477 143 452 145 428 C148 392 152 356 155 320 C156 316 155 314 153 311 C139 296 126 281 113 266 C60 203 6 140 -47 77 C-56 67 -64 57 -72 46 C-78 39 -80 31 -77 23 C-74 14 -69 9 -60 7 C-50 5 -42 8 -36 15 C-28 25 -20 36 -11 46 C36 101 84 157 131 213 C141 225 152 237 163 251 L163 251 Z " />
<glyph glyph-name="y" unicode="y" horiz-adv-x="388" d="M27 -512 C39 -513 48 -509 59 -506 C85 -497 104 -479 122 -458 C145 -430 166 -385 179 -352 C245 -162 296 -5 343 181 C362 257 383 333 405 408 C410 425 430 488 435 506 C440 524 432 534 421 539 C410 543 395 536 388 525 C370 483 339 393 319 352 C292 286 263 222 228 160 C204 119 175 76 131 56 C113 51 99 56 91 74 C77 108 84 146 88 180 C97 247 114 311 137 373 C145 399 177 481 179 508 C176 520 173 530 162 531 C151 533 139 520 136 509 C106 434 35 217 36 124 C36 85 44 37 82 16 C110 3 136 4 158 17 C188 32 212 54 232 79 C255 109 273 143 293 177 C280 130 266 82 253 34 C234 -35 212 -103 190 -171 C171 -229 153 -288 130 -344 C117 -373 105 -401 85 -426 C71 -444 52 -465 27 -465 C15 -463 7 -456 1 -447 C-19 -404 -16 -351 -13 -306 C-8 -272 -5 -238 6 -206 C11 -196 6 -185 -4 -179 C-12 -173 -21 -174 -29 -182 C-59 -249 -64 -327 -58 -402 C-56 -422 -51 -442 -41 -460 C-29 -483 -3 -507 27 -512 L27 -512 Z " />
<glyph glyph-name="z" unicode="z" horiz-adv-x="332" d="M244 293 C291 357 349 411 392 487 C395 494 396 502 395 510 C393 526 381 537 366 539 C308 547 226 535 170 524 C153 520 148 504 150 491 C153 476 170 471 184 473 C227 481 290 492 335 490 C291 423 236 367 185 305 C167 283 151 287 125 283 C113 282 105 273 103 262 C100 247 109 238 119 231 C69 176 18 122 -30 66 C-44 43 -36 17 -10 10 C-1 7 8 6 18 6 C117 9 211 10 301 10 C313 10 321 25 321 37 C321 57 303 60 266 61 C205 58 215 61 149 60 C92 59 71 60 32 59 C84 117 136 173 188 230 C192 234 196 235 201 236 C217 236 238 235 254 242 C263 246 268 254 268 265 C268 278 258 293 244 293 L244 293 Z " />
<glyph glyph-name="braceleft" unicode="&#x7b;" horiz-adv-x="194" d="M135 416 L138 419 C149 434 161 448 170 464 C183 488 195 514 206 540 C238 614 263 691 286 769 C290 784 296 799 303 813 C309 826 323 830 336 827 C349 824 361 830 366 842 C370 853 366 867 355 873 C348 876 340 879 332 879 C301 879 276 866 260 839 C248 820 242 800 236 779 C211 694 183 610 147 529 C131 494 112 463 85 437 L78 429 C65 412 70 392 90 383 C93 381 97 379 101 378 C106 376 108 372 107 367 C107 355 106 343 105 330 C101 298 93 266 84 235 L41 92 C35 72 30 51 30 29 C31 2 46 -21 71 -29 C81 -32 93 -34 104 -35 C117 -36 129 -34 138 -23 C146 -15 147 -3 141 7 C136 16 124 21 114 18 C106 14 98 16 90 18 C83 20 81 23 81 30 C81 36 81 42 82 48 L105 131 C123 191 144 250 153 312 C156 331 157 350 158 369 C158 381 155 394 147 404 L135 416 L135 416 Z " />
<glyph glyph-name="bar" unicode="&#x7c;" horiz-adv-x="133" d="M271 846 C271 860 264 870 254 873 C243 876 233 871 228 861 C226 859 226 857 225 855 C210 812 197 769 184 725 C153 619 122 514 93 407 C60 290 32 172 -2 56 C-12 26 -18 -4 -27 -35 C-28 -38 -29 -41 -29 -44 C-30 -54 -25 -65 -17 -69 C-9 -74 1 -74 8 -67 C13 -63 16 -57 16 -50 C28 -8 39 34 51 76 C73 152 92 228 113 304 C160 481 211 657 267 831 C269 837 270 843 271 846 L271 846 Z " />
<glyph glyph-name="braceright" unicode="&#x7d;" horiz-adv-x="153" d="M129 386 L116 372 C99 353 89 332 83 309 C69 262 56 215 44 168 L20 73 C15 53 8 33 -4 15 C-6 12 -10 8 -14 5 C-17 2 -20 2 -25 5 C-32 13 -43 13 -53 8 C-62 3 -66 -7 -66 -18 C-62 -37 -43 -51 -23 -49 C2 -46 20 -35 34 -14 C50 7 59 31 66 56 C75 83 80 110 87 137 L125 277 C129 293 135 308 142 323 C150 341 164 353 182 361 C192 366 200 374 199 386 C200 397 194 405 184 409 C166 417 156 433 153 451 C151 459 154 468 156 475 C171 518 187 560 201 602 C217 643 235 682 246 724 C256 756 264 788 264 821 C263 836 261 850 252 861 C235 882 205 881 187 872 C175 867 171 855 174 844 C176 833 187 825 199 826 L213 828 C213 824 214 820 213 817 C212 783 204 750 192 718 C179 679 163 641 148 603 C133 562 118 522 105 480 C98 454 101 430 114 408 C119 401 125 394 129 386 L129 386 Z " />
<glyph glyph-name="asciitilde" unicode="&#x7e;" horiz-adv-x="380" d="M253 190 C251 195 250 199 249 203 C248 211 246 220 245 228 C242 248 237 268 227 286 C210 314 186 325 155 317 C111 306 77 280 50 246 C45 240 41 233 37 226 C32 215 36 203 46 196 C55 190 68 192 76 200 C79 203 81 206 83 209 C96 229 113 244 133 257 C144 263 156 268 168 271 C175 272 180 271 183 265 C187 258 191 251 192 244 C196 231 198 217 200 203 C202 190 205 177 212 165 C225 143 250 135 273 146 C284 151 294 159 302 168 C324 191 339 218 356 244 C356 244 356 245 357 245 C362 256 358 269 349 275 C338 282 325 280 317 271 C314 267 312 263 309 259 C298 243 287 226 275 210 C269 202 263 195 253 190 L253 190 Z " />
<glyph glyph-name="quoteleft" unicode="&#x2018;" horiz-adv-x="214" d="M244 737 C250 737 256 739 260 743 C267 750 271 757 272 767 L274 776 C279 795 284 813 290 832 L293 846 C295 856 289 867 279 871 C269 876 257 872 251 863 C248 859 246 855 245 851 L222 770 C221 768 221 766 221 763 C219 750 230 737 244 737 L244 737 Z " />
<glyph glyph-name="quoteright" unicode="&#x2019;" horiz-adv-x="209" d="M244 737 C250 737 256 739 260 743 C267 750 271 757 272 767 L274 776 C279 795 284 813 290 832 L293 846 C295 856 289 867 279 871 C269 876 257 872 251 863 C248 859 246 855 245 851 L222 770 C221 768 221 766 221 763 C219 750 230 737 244 737 L244 737 Z " />
<glyph glyph-name="quotedblleft" unicode="&#x201c;" horiz-adv-x="218" d="M225 727 L225 727 C237 727 245 734 249 747 C260 779 270 810 280 842 C281 847 282 852 282 856 C281 866 275 873 265 876 C256 879 248 877 241 870 C238 867 236 862 235 858 C224 826 214 794 204 762 C203 759 202 756 202 753 C200 739 211 727 225 727 L225 727 Z M345 847 C345 859 338 868 328 871 C318 875 308 872 302 863 C299 859 297 855 295 850 L270 766 C269 764 269 762 269 760 C268 750 272 742 280 736 C288 730 297 730 305 735 C310 738 314 743 315 749 L323 774 L344 838 C345 842 345 845 345 847 L345 847 Z " />
<glyph glyph-name="quotedblright" unicode="&#x201d;" horiz-adv-x="211" d="M225 727 L225 727 C237 727 245 734 249 747 C260 779 270 810 280 842 C281 847 282 852 282 856 C281 866 275 873 265 876 C256 879 248 877 241 870 C238 867 236 862 235 858 C224 826 214 794 204 762 C203 759 202 756 202 753 C200 739 211 727 225 727 L225 727 Z M345 847 C345 859 338 868 328 871 C318 875 308 872 302 863 C299 859 297 855 295 850 L270 766 C269 764 269 762 269 760 C268 750 272 742 280 736 C288 730 297 730 305 735 C310 738 314 743 315 749 L323 774 L344 838 C345 842 345 845 345 847 L345 847 Z " />
</font>
</svg>
