<?xml version="1.0" encoding="UTF-8"?>
<svg xmlns="http://www.w3.org/2000/svg" xmlns:xlink="http://www.w3.org/1999/xlink" version="1.2" >
<font id="Soulmater">
<font-face  font-family="Soulmater" units-per-em="1000" ascent="750" descent="-250" font-style="normal" font-weight="400" font-stretch="normal" cap-height="700" x-height="500" underline-position="-75" underline-thickness="50" />
<missing-glyph  horiz-adv-x="135" d="" />
<glyph glyph-name="NULL" d="" />
<glyph glyph-name="CR" unicode="&#xd;" horiz-adv-x="135" d="" />
<glyph glyph-name="space" unicode="&#x20;" horiz-adv-x="135" d="" />
<glyph glyph-name="exclam" unicode="&#x21;" horiz-adv-x="134" d="M32 265 C47 264 172 690 172 690 C172 690 165 699 131 690 C131 690 17 266 32 265 L32 265 Z M8 212 C8 212 1 192 22 192 C43 192 34 215 34 215 C34 215 16 228 8 212 L8 212 Z " />
<glyph glyph-name="quotedbl" unicode="&#x22;" horiz-adv-x="126" d="M99 679 C95 681 90 680 88 679 C82 678 77 675 76 668 C74 663 75 654 84 654 C84 654 79 636 69 634 C69 634 86 634 100 666 C101 670 103 676 99 679 L99 679 Z M57 679 C53 681 48 680 46 679 C40 678 35 675 34 668 C32 663 33 654 42 654 C42 654 37 636 27 634 C27 634 44 634 58 666 C59 670 61 676 57 679 L57 679 Z " />
<glyph glyph-name="numbersign" unicode="&#x23;" horiz-adv-x="303" d="M294 481 L236 482 C246 531 254 570 251 570 L231 482 L117 484 C127 532 134 570 132 570 L111 484 L54 484 C54 484 50 478 55 478 C57 478 80 478 110 478 L87 381 L35 382 C35 382 31 375 36 375 C38 375 58 375 86 375 L62 273 C62 273 69 266 71 273 C71 276 81 321 93 375 C127 375 170 375 206 375 L181 273 C181 273 189 266 190 273 C191 276 201 321 213 375 C249 376 275 377 275 378 L214 379 C221 411 229 447 235 478 C269 479 294 479 294 481 L294 481 Z M206 379 L94 381 C101 412 109 447 115 478 C150 478 194 478 230 478 L206 379 L206 379 Z " />
<glyph glyph-name="dollar" unicode="&#x24;" horiz-adv-x="290" d="M222 370 C203 414 170 471 144 514 L178 649 C241 647 230 596 230 596 L235 596 C235 635 210 650 178 651 L200 736 L194 736 L173 651 C125 650 68 616 68 576 C68 546 93 496 122 447 L52 165 C-62 169 -70 293 -71 296 C-72 298 -73 296 -73 296 C-72 288 -71 280 -69 274 C-63 241 -41 183 25 165 C34 164 43 162 51 161 L25 56 L30 56 L56 161 C59 160 62 160 65 160 C170 152 217 215 233 268 C233 269 233 270 233 271 C234 271 234 271 234 271 C234 273 235 276 235 278 C244 316 227 359 222 370 L222 370 Z M172 649 L140 521 C137 526 134 532 130 537 C103 583 105 602 107 608 C114 627 133 648 172 649 L172 649 Z M57 165 L57 165 L126 441 C145 410 164 380 178 355 C186 342 202 306 193 268 C191 264 190 259 188 255 C187 252 186 250 185 248 C167 208 130 165 57 165 L57 165 Z " />
<glyph glyph-name="percent" unicode="&#x25;" horiz-adv-x="323" d="M253 543 C253 543 48 288 41 250 C41 250 42 243 43 249 C47 254 52 285 250 535 C250 535 260 549 253 543 L253 543 Z M147 549 C146 549 145 549 145 549 C143 551 141 551 139 552 C131 554 122 552 119 551 C88 543 43 510 36 476 C30 438 57 421 79 420 C102 420 169 451 176 499 C182 529 162 543 147 549 L147 549 Z M80 423 C52 424 61 466 64 480 C69 493 100 550 131 551 C131 551 155 551 148 503 C139 455 107 424 80 423 L80 423 Z M239 392 C238 392 238 392 237 392 C235 393 233 394 231 394 C224 396 214 395 211 395 C180 385 134 353 130 320 C124 282 149 264 171 264 C193 264 262 295 270 343 C275 374 254 385 239 392 L239 392 Z M172 266 C144 266 152 308 157 322 C162 337 192 394 223 394 C223 394 247 395 240 346 C233 297 200 267 172 266 L172 266 Z " />
<glyph glyph-name="ampersand" unicode="&#x26;" horiz-adv-x="404" d="M384 446 C378 421 252 378 233 362 C214 346 209 323 210 318 C210 313 213 320 213 320 C213 370 309 414 309 318 C309 222 177 169 137 169 C58 169 51 255 69 317 C88 379 142 421 142 421 C167 395 201 402 201 402 L201 402 C205 402 209 403 213 404 C231 410 246 426 246 442 C246 443 246 443 246 443 C246 444 246 444 246 444 C246 444 246 444 246 445 C246 445 246 445 246 446 C246 446 246 446 246 446 C245 451 241 455 237 457 C222 465 191 460 156 445 C154 452 153 458 152 464 C150 474 150 486 150 499 C150 687 362 701 362 629 C362 556 279 545 279 545 C279 545 278 545 278 544 C279 544 350 547 363 615 C376 683 272 679 223 661 C166 638 114 587 117 498 C117 485 119 473 121 463 L121 463 C121 463 121 463 121 463 C121 462 122 461 122 460 C122 460 122 459 122 459 C122 459 123 458 123 457 C123 457 123 456 123 456 C123 455 123 455 123 455 C126 446 129 439 133 433 C80 403 29 351 29 288 C29 202 75 176 106 168 C115 166 125 164 135 164 C162 164 197 178 230 199 C231 200 233 201 234 202 C235 202 236 203 236 203 C236 203 237 203 237 203 C237 204 238 204 239 204 C245 209 251 213 257 217 C295 248 307 282 310 300 C313 317 312 333 309 345 C301 380 269 378 269 378 L308 395 C308 395 308 395 308 395 C311 396 313 397 316 398 L316 399 C394 432 384 446 384 446 L384 446 Z M217 459 C270 459 237 407 201 404 C179 402 166 418 159 436 C177 450 196 459 217 459 L217 459 Z " />
<glyph glyph-name="quotesingle" unicode="&#x27;" horiz-adv-x="114" d="M80 679 C77 681 71 680 69 679 C64 678 58 675 57 668 C56 663 56 654 66 654 C66 654 60 636 50 634 C50 634 67 634 81 666 C83 670 84 676 80 679 L80 679 Z " />
<glyph glyph-name="parenleft" unicode="&#x28;" horiz-adv-x="117" d="M217 745 C217 745 60 647 18 413 C-24 178 51 80 51 80 C51 80 0 188 51 413 C102 638 217 745 217 745 L217 745 Z " />
<glyph glyph-name="parenright" unicode="&#x29;" horiz-adv-x="151" d="M78 705 C78 705 123 567 68 345 C13 122 -71 42 -71 42 C-71 42 28 104 93 333 C159 561 78 705 78 705 L78 705 Z " />
<glyph glyph-name="asterisk" unicode="&#x2a;" horiz-adv-x="127" d="M70 622 L65 621 L71 631 L71 631 C100 664 93 668 93 668 C84 663 70 639 64 629 L64 629 L60 624 L57 632 L57 632 C45 670 39 668 39 668 C36 654 57 623 57 623 C57 623 57 623 57 623 C39 623 6 624 8 619 C8 614 39 615 57 618 C44 602 23 574 29 572 C34 570 50 597 59 614 C65 597 78 568 82 572 C86 577 72 604 64 617 L75 618 L75 618 C114 615 115 621 115 621 C107 627 81 624 70 622 L70 622 Z " />
<glyph glyph-name="plus" unicode="&#x2b;" horiz-adv-x="246" d="M224 356 L129 356 L143 467 L136 467 L121 356 L29 356 L29 348 L120 348 L106 240 L114 240 L128 348 L224 348 L224 356 L224 356 Z " />
<glyph glyph-name="comma" unicode="&#x2c;" horiz-adv-x="120" d="M44 219 C40 222 32 221 29 220 C22 218 14 213 13 205 C11 197 11 186 25 185 C25 185 17 161 4 159 C4 159 27 158 46 202 C48 208 49 215 44 219 L44 219 Z " />
<glyph glyph-name="hyphen" unicode="&#x2d;" horiz-adv-x="192" d="M31 354 L26 346 L153 346 L157 354 L31 354 L31 354 Z " />
<glyph glyph-name="period" unicode="&#x2e;" horiz-adv-x="111" d="M43 203 C43 207 43 211 43 214 C42 217 40 220 35 220 C22 220 16 217 11 202 C8 194 9 186 23 186 C35 186 40 194 42 202 C42 203 42 203 43 203 L43 203 Z " />
<glyph glyph-name="slash" unicode="&#x2f;" horiz-adv-x="211" d="M188 744 L19 66 L26 65 L195 744 L188 744 L188 744 Z " />
<glyph glyph-name="zero" unicode="0" horiz-adv-x="296" d="M63 165 C132 161 199 273 222 314 C251 368 268 413 268 413 C268 413 322 569 252 588 C181 606 152 508 151 504 C149 500 153 502 153 502 C159 521 166 535 173 546 C198 588 230 589 245 586 C245 586 247 586 249 585 C251 585 252 585 253 584 C253 584 253 584 253 584 C253 584 253 584 253 584 C254 584 254 584 255 583 C271 576 299 551 280 467 C280 467 280 467 280 467 C272 423 250 365 204 289 C69 67 -43 175 56 415 C155 655 239 612 239 612 C242 612 243 613 242 615 C241 615 97 663 14 430 C1 387 -7 342 -9 300 C-10 255 -4 169 63 165 L63 165 Z " />
<glyph glyph-name="one" unicode="1" horiz-adv-x="163" d="M155 616 C137 604 91 576 77 570 C60 561 53 573 53 573 C51 571 60 558 81 569 C97 577 119 590 136 601 L117 545 C84 448 -11 163 8 163 C32 163 184 628 184 628 C184 628 170 627 155 616 L155 616 Z " />
<glyph glyph-name="two" unicode="2" horiz-adv-x="272" d="M225 253 C225 255 224 257 224 259 C224 259 224 260 223 260 C223 259 243 177 122 188 C122 188 122 188 122 188 C101 189 45 194 45 194 L45 194 C16 197 -8 201 -18 203 C36 250 284 468 287 578 C287 609 265 624 252 630 C222 644 190 641 171 636 C57 608 50 505 50 505 L52 509 C52 509 69 628 181 628 C293 628 234 455 -52 192 L-52 192 C-52 192 -66 177 -31 173 C-31 173 -31 173 -31 173 C-14 171 10 170 47 170 C80 170 108 170 131 171 C148 172 176 176 197 191 C195 189 192 188 189 186 L200 193 C213 202 222 216 225 235 C225 240 225 246 225 253 C225 253 225 253 225 253 L225 253 Z " />
<glyph glyph-name="three" unicode="3" horiz-adv-x="215" d="M236 557 C236 688 0 633 -5 505 L-5 497 C-5 497 2 616 128 616 C254 616 168 417 48 387 C48 387 144 386 144 291 C144 197 -76 117 -76 218 C-76 218 -79 223 -79 218 C-79 213 -79 168 -21 168 C37 168 190 190 190 303 C190 416 77 392 77 392 C77 392 236 426 236 557 L236 557 Z " />
<glyph glyph-name="four" unicode="4" horiz-adv-x="263" d="M282 318 C282 318 281 319 280 311 C280 311 280 311 280 311 C280 311 280 311 280 311 C280 310 280 310 280 310 C278 300 268 281 224 281 C219 281 213 281 209 281 C238 375 283 490 232 490 C232 490 197 381 169 289 C144 296 119 305 65 304 C65 304 171 465 200 560 C206 580 214 628 163 628 C163 628 160 626 163 626 C163 626 241 636 141 483 C41 330 -15 277 34 277 C62 277 121 277 166 277 C152 230 142 189 140 170 C140 166 141 160 148 158 C149 158 150 158 151 158 C151 158 151 158 151 158 C151 158 152 158 152 158 C165 158 177 166 197 243 C200 254 204 265 207 277 C220 277 227 277 227 277 C227 277 269 274 280 303 C280 305 283 312 282 318 L282 318 Z " />
<glyph glyph-name="five" unicode="5" horiz-adv-x="274" d="M281 638 C280 633 295 573 162 593 L142 596 C126 599 108 603 88 608 C88 608 59 456 37 427 C37 427 204 449 204 300 C204 151 -29 134 -16 226 C-16 226 -18 228 -18 224 C-19 219 -26 166 61 166 C149 166 241 227 241 319 C241 411 121 438 76 438 C76 438 109 532 121 574 L121 574 L121 574 C121 575 122 577 122 578 L127 597 L127 597 L128 597 L138 594 C155 590 213 578 250 591 C270 597 284 611 284 638 C284 638 282 644 281 638 L281 638 Z " />
<glyph glyph-name="six" unicode="6" horiz-adv-x="279" d="M175 424 C128 424 77 382 55 360 C57 371 59 382 61 393 C64 408 68 422 71 435 C111 573 184 615 240 615 C304 615 304 555 304 555 L304 555 L306 556 C306 620 241 620 241 620 C119 620 56 519 27 438 C16 405 -3 329 21 241 C36 198 63 158 113 158 C212 158 260 244 260 307 C260 370 239 424 175 424 L175 424 Z M142 182 C142 182 30 170 54 351 C126 436 255 455 255 319 C255 172 142 182 142 182 L142 182 Z " />
<glyph glyph-name="seven" unicode="7" horiz-adv-x="234" d="M146 411 C220 525 288 604 288 604 C38 658 21 577 18 571 C16 565 20 568 20 568 C51 660 255 592 255 592 C199 551 147 481 104 409 C90 408 74 405 56 400 C52 399 51 398 51 398 C50 396 49 394 51 395 C51 395 73 399 100 402 C27 281 -21 158 -21 158 C-26 147 14 158 14 158 C49 248 97 333 143 406 C161 406 177 404 182 397 C182 397 186 393 184 397 C184 400 173 409 146 411 L146 411 Z " />
<glyph glyph-name="eight" unicode="8" horiz-adv-x="270" d="M169 419 C64 519 79 560 79 560 C79 560 86 591 117 604 L117 604 C117 604 117 604 117 604 C125 607 134 610 144 610 C208 616 261 567 258 511 C254 446 162 449 162 449 C163 448 163 447 163 447 C238 449 263 484 259 523 C258 542 246 598 166 614 C164 614 162 614 160 615 C84 626 55 598 45 575 C45 575 42 571 40 561 C40 561 40 561 40 560 C40 560 40 560 40 560 C37 540 43 499 104 431 C98 430 92 428 87 426 L87 426 C85 425 84 424 82 423 C79 422 78 421 78 421 L78 421 C-50 356 -70 153 103 153 C289 153 274 319 169 419 L169 419 Z M203 270 C203 265 202 262 202 262 C200 145 88 157 88 157 C88 157 -35 168 -20 279 C-7 365 51 405 76 418 C88 424 99 427 107 428 C107 428 108 427 108 427 L108 427 C121 411 136 395 150 381 C183 349 195 316 200 293 C203 283 203 274 203 270 L203 270 Z " />
<glyph glyph-name="nine" unicode="9" horiz-adv-x="306" d="M157 624 C24 624 19 484 19 484 C19 484 8 359 113 359 C173 359 211 382 231 401 C231 399 231 398 231 396 L231 396 C231 396 231 396 231 396 C230 393 230 391 230 389 C228 376 222 345 202 304 C195 290 187 276 178 262 C177 261 177 259 176 258 C142 207 99 160 60 160 C-14 160 -12 218 -12 224 C-12 230 -15 225 -15 225 C-15 171 24 160 47 158 L47 158 C47 158 53 156 77 158 C83 159 90 160 96 161 C96 161 96 161 96 161 L96 161 C261 190 277 439 277 459 C277 480 289 624 157 624 L157 624 Z M232 406 C213 386 178 364 116 364 C4 364 25 484 25 484 C25 484 28 610 151 610 C258 610 240 474 232 406 L232 406 Z " />
<glyph glyph-name="colon" unicode="&#x3a;" horiz-adv-x="125" d="M78 392 C77 395 75 397 71 397 C60 397 55 394 50 381 C48 375 49 368 61 368 C71 368 76 375 77 382 C77 382 77 382 77 382 C78 386 78 389 78 392 L78 392 Z M55 324 C44 324 39 321 34 308 C32 301 33 294 44 294 C54 294 59 301 61 308 C61 308 61 309 61 309 C62 312 62 315 62 318 C61 321 59 324 55 324 L55 324 Z " />
<glyph glyph-name="semicolon" unicode="&#x3b;" horiz-adv-x="152" d="M72 321 C69 324 64 322 61 322 C56 320 50 317 49 311 C48 305 48 297 58 296 C58 296 52 278 42 277 C42 277 60 276 74 309 C75 313 76 318 72 321 L72 321 Z M89 392 C88 395 86 397 82 397 C71 397 66 394 61 381 C60 375 60 368 72 368 C82 368 87 375 89 382 C89 382 89 382 89 382 C89 386 89 389 89 392 L89 392 Z " />
<glyph glyph-name="less" unicode="&#x3c;" horiz-adv-x="194" d="M46 360 C114 348 133 281 133 281 C132 307 89 348 89 348 C89 348 147 411 150 414 C152 417 147 421 147 421 L46 360 L46 360 Z " />
<glyph glyph-name="equal" unicode="&#x3d;" horiz-adv-x="306" d="M57 401 L57 393 L252 393 L252 401 L57 401 L57 401 Z M50 333 L50 325 L244 325 L244 333 L50 333 L50 333 Z " />
<glyph glyph-name="greater" unicode="&#x3e;" horiz-adv-x="180" d="M132 360 C132 360 89 371 62 400 C62 400 62 400 62 400 C49 413 43 425 43 425 C50 399 106 365 106 365 C106 365 58 291 55 288 C53 285 61 281 61 281 L132 360 L132 360 L132 360 Z " />
<glyph glyph-name="question" unicode="&#x3f;" horiz-adv-x="266" d="M86 202 C86 206 86 210 85 213 C84 216 81 219 76 219 C63 218 59 215 54 200 C52 192 54 184 67 184 C79 185 84 193 86 201 C86 202 86 202 86 202 L86 202 Z M278 575 C269 704 54 693 29 562 C29 562 26 548 29 552 C29 552 44 656 150 656 C219 657 248 617 249 579 L249 579 C249 579 249 578 249 575 C249 562 246 549 240 538 C229 512 206 473 159 425 C67 334 58 300 57 291 C57 290 57 290 57 290 C60 251 120 266 120 266 L122 269 C122 269 63 252 60 290 C58 327 287 446 278 575 L278 575 Z " />
<glyph glyph-name="at" unicode="&#x40;" horiz-adv-x="372" d="M273 536 C171 546 23 475 23 282 C23 88 265 45 314 183 C314 183 315 192 311 183 C307 174 284 106 187 106 C90 106 65 208 65 285 C65 362 103 532 272 532 C272 532 335 531 336 459 C336 457 336 430 323 389 C322 386 321 383 320 379 C320 379 320 379 320 379 L320 379 C291 288 248 170 225 195 C195 229 252 390 279 445 L287 463 C287 463 259 447 252 430 C252 430 252 430 252 430 C250 425 248 419 245 411 L213 350 L213 350 C211 347 210 344 208 340 L208 340 L208 340 C182 290 155 243 148 248 C142 252 150 297 166 347 C167 350 214 505 262 476 C263 477 264 478 262 479 C262 479 206 517 140 359 C112 292 108 257 112 239 C112 239 112 239 112 239 C112 237 113 236 113 234 C114 231 116 229 117 227 C136 205 183 287 205 327 L205 328 C205 328 205 328 205 328 C207 331 210 338 215 347 L215 347 C221 358 228 370 233 380 C206 306 170 188 210 172 C251 158 300 303 322 378 C324 384 329 400 333 418 L333 418 L333 418 C336 430 339 443 339 452 C341 488 330 531 273 536 L273 536 Z " />
<glyph glyph-name="A" unicode="A" horiz-adv-x="324" d="M336 27 C328 10 318 -4 307 -14 C281 -37 263 -33 250 -20 C231 0 226 35 226 61 C229 137 242 229 259 317 C259 317 259 317 259 318 C259 319 259 321 260 322 L260 322 L262 338 L289 354 C288 354 287 353 286 353 C276 348 263 340 263 340 L265 350 L265 350 C265 352 266 353 266 355 C266 355 266 355 266 355 L269 369 C269 369 269 369 269 369 C270 374 271 380 272 386 L272 387 L272 387 C274 394 276 402 277 410 L277 410 C301 520 324 608 329 627 L329 627 C330 628 330 629 330 630 C330 632 331 633 331 634 C332 640 332 646 325 647 C324 647 323 647 322 647 C321 647 321 647 320 647 C244 641 190 546 153 437 L153 437 C153 437 145 414 136 381 C124 390 95 405 60 372 C103 410 135 378 135 378 L133 368 C133 368 133 367 132 366 C129 353 126 338 123 323 C120 310 117 295 114 281 L114 281 C111 264 108 246 104 229 C95 186 80 126 59 91 C58 89 56 87 55 84 C52 81 49 77 47 74 C35 63 21 62 12 63 C9 64 5 65 1 66 C1 66 1 66 1 66 L1 66 C-20 73 -48 93 -48 144 C-48 150 -48 158 -46 166 C-46 166 -46 166 -46 166 C-41 194 -23 233 38 249 C38 249 43 252 42 253 C27 249 -52 227 -52 142 C-51 94 -18 60 19 58 C62 58 83 103 91 124 C108 177 129 262 140 308 C144 327 149 349 149 349 L150 351 L153 363 C153 363 175 328 211 327 C209 317 207 307 206 302 C199 262 194 221 190 183 L190 183 C190 183 164 -14 252 -33 C279 -38 297 -27 304 -22 C321 -7 333 16 339 30 C337 28 336 27 336 27 L336 27 Z M220 370 L213 332 C213 332 185 325 154 366 L158 382 L159 386 L163 400 L163 400 C190 489 231 583 290 624 C290 624 265 556 253 510 C244 477 234 437 225 394 C225 394 223 384 220 370 L220 370 Z " />
<glyph glyph-name="B" unicode="B" horiz-adv-x="382" d="M367 461 C361 457 347 446 325 418 C325 418 315 457 283 463 C282 464 280 464 279 464 C269 466 256 465 241 461 C241 461 295 505 321 553 C330 568 354 623 287 612 C215 601 132 571 109 517 C107 512 106 507 105 501 C105 501 105 501 105 501 C104 500 104 499 104 498 C102 487 101 475 103 462 C103 462 105 460 107 459 C106 462 106 467 106 472 C102 549 172 566 172 566 C172 566 163 501 150 420 L150 420 C149 410 147 400 145 391 C145 391 145 390 145 390 L145 387 C145 387 145 387 145 387 C142 372 140 357 137 342 L137 341 L137 341 C132 311 126 280 120 252 C92 120 78 -64 -8 -64 C-82 -64 -86 122 -42 192 L-42 192 C-42 192 -42 192 -42 192 C-40 195 -37 199 -35 202 C-34 202 -34 202 -34 202 C-33 204 -34 206 -37 205 C-39 203 -41 200 -43 196 C-47 189 -84 123 -73 36 C-66 -19 -50 -61 -9 -73 C-9 -73 -9 -74 -8 -74 C-7 -74 -6 -74 -4 -75 C31 -83 57 -58 69 -42 C72 -38 75 -34 77 -30 L77 -30 L77 -30 C86 -17 91 -5 92 -3 C98 12 105 31 112 54 C113 56 113 58 114 62 C123 94 130 128 137 162 C158 261 187 396 193 425 L195 432 L195 432 L195 436 C203 445 223 451 226 452 C232 454 237 455 242 455 L242 455 C286 455 285 392 285 392 C286 389 286 385 286 381 C286 374 286 365 286 364 C286 364 193 218 153 89 C112 -39 180 -16 239 58 C239 58 239 58 239 58 C283 116 304 187 311 214 C324 270 335 335 332 384 C329 403 328 409 328 409 L328 409 C328 410 328 411 327 412 C327 413 327 414 327 415 L327 415 C340 433 353 448 366 459 L366 459 C366 459 367 460 367 461 L367 461 Z M214 459 C205 451 200 447 197 445 L204 477 L204 477 L224 586 C254 595 285 599 284 574 C284 574 284 574 284 573 C284 573 284 573 284 572 C284 572 284 571 284 571 C283 570 283 570 283 570 C279 546 260 511 214 459 L214 459 Z M280 313 L280 313 C278 297 274 281 270 263 C206 -33 130 -28 150 52 C154 70 163 100 176 134 C179 143 221 255 285 356 C284 332 280 313 280 313 L280 313 Z " />
<glyph glyph-name="C" unicode="C" horiz-adv-x="280" d="M336 649 C334 649 332 650 330 650 C289 655 240 611 193 546 C179 548 147 552 123 545 C82 535 62 478 57 464 C57 462 56 460 57 458 C57 458 57 458 57 458 C58 458 58 458 58 458 C86 571 189 541 189 541 L188 539 C188 539 188 539 188 539 C188 538 188 538 187 538 L175 520 C103 413 39 268 21 196 C-6 85 34 -24 99 -46 C171 -67 256 105 269 132 C264 130 256 118 256 118 L256 118 C254 115 253 113 253 113 C67 -243 46 115 134 329 C160 394 190 454 220 504 C220 504 220 504 220 504 C228 519 236 535 236 535 C332 540 351 582 352 613 C353 645 336 649 336 649 L336 649 Z M243 543 C301 632 349 672 349 614 C349 560 298 546 243 543 L243 543 Z " />
<glyph glyph-name="D" unicode="D" horiz-adv-x="430" d="M407 482 C399 479 394 477 394 477 L394 482 L394 484 L393 493 C386 564 344 624 220 624 C-17 625 24 462 37 424 C37 424 37 423 38 423 C-10 626 177 608 177 608 C177 608 79 -64 10 -76 C-59 -88 -55 117 -25 167 C-5 200 20 197 34 191 C36 193 36 195 30 197 C18 200 -51 210 -52 63 C-52 -85 -14 -87 7 -87 C21 -87 56 -79 90 -3 C95 10 100 27 100 27 C148 -65 260 100 260 100 C307 172 347 259 356 289 C361 307 377 348 386 395 C390 416 393 448 394 450 L394 472 C401 476 408 479 415 482 L407 482 Z M324 418 L322 402 L322 397 L318 373 L315 349 C270 97 124 -60 104 35 C113 62 122 96 130 137 L136 170 C136 170 136 171 137 171 C192 299 261 378 324 427 L324 418 Z M325 452 L325 441 C325 438 325 435 325 435 C325 435 206 346 141 198 L161 290 C198 455 237 607 237 607 C237 607 328 617 325 452 L325 452 Z " />
<glyph glyph-name="E" unicode="E" horiz-adv-x="233" d="M119 539 C217 517 277 622 259 664 C239 708 177 671 177 671 C141 650 113 612 94 579 C94 578 93 576 92 575 C92 575 92 575 92 575 C90 572 89 569 87 566 L87 566 L87 566 C85 563 84 560 82 557 C30 584 -26 589 -65 576 C-92 567 -110 536 -112 529 C-94 556 -76 570 -56 575 L-56 575 C-56 575 -56 575 -56 575 C-55 576 -54 576 -53 576 C2 589 58 564 81 552 C73 537 70 528 69 523 C63 502 61 480 61 480 L61 480 C61 479 60 479 60 478 C57 442 65 421 71 411 C72 410 73 408 75 407 C56 379 40 348 28 322 C17 301 8 280 0 258 C0 258 0 258 0 258 L0 258 C-28 179 -34 92 10 16 C29 -16 50 -30 72 -29 C129 -29 197 91 219 135 C221 139 223 145 217 142 C215 140 214 138 213 137 C212 135 211 133 210 131 C210 131 210 131 210 131 L210 131 C179 74 154 36 133 12 C133 12 133 12 133 12 C86 -47 49 18 48 18 C28 50 22 117 56 252 C68 304 81 345 94 377 L94 377 L101 395 C101 395 131 373 171 419 C171 419 210 467 177 479 C157 485 128 475 104 447 C103 446 102 445 101 444 C101 444 101 444 101 444 C97 439 93 434 90 429 C88 449 93 475 104 506 C108 516 114 529 119 539 L119 539 Z M128 559 C137 575 146 592 157 608 C160 613 163 617 165 621 L165 621 C165 621 214 704 248 672 C282 639 224 531 121 543 C125 552 128 559 128 559 L128 559 Z M186 461 C187 433 138 378 105 398 C104 398 104 398 104 399 C148 496 186 482 186 461 L186 461 Z " />
<glyph glyph-name="F" unicode="F" horiz-adv-x="345" d="M225 357 C232 380 236 396 236 396 L236 396 C251 454 264 505 272 538 C274 544 278 564 278 564 L281 564 C493 555 583 729 583 729 C581 728 576 724 572 719 C569 715 566 712 563 708 C563 708 562 708 562 707 C562 707 562 707 562 707 C545 688 517 663 473 634 C371 568 255 599 255 599 C97 633 -8 654 -59 509 C-61 504 -61 501 -60 500 C-60 501 -32 599 62 606 C157 613 229 574 229 574 L222 534 L222 534 C218 505 210 461 201 412 C201 412 201 412 201 412 C198 398 196 384 193 370 L193 370 L193 370 C192 364 190 357 189 351 L189 351 L188 348 C188 348 188 348 188 347 C188 347 188 347 188 347 L187 341 C187 341 152 359 129 348 C116 341 119 328 134 318 C135 318 136 317 137 317 C137 317 123 328 124 337 C125 338 127 349 153 348 C170 348 181 341 186 337 C185 334 185 331 184 329 C184 329 184 329 184 329 C183 322 181 313 179 305 C179 305 179 305 179 305 C178 299 177 293 175 288 C175 286 174 284 174 283 C174 283 174 283 174 283 C171 271 169 260 166 248 C164 242 163 237 162 232 C121 69 64 -86 -2 -67 C-136 -27 -55 216 -29 200 C-29 200 -23 201 -27 204 C-59 200 -79 113 -79 113 C-95 3 -56 -42 -31 -58 C-25 -62 -19 -65 -13 -68 L-13 -68 C36 -86 96 -64 127 23 C146 74 168 147 189 224 C192 232 205 280 216 324 C247 312 275 330 291 343 C295 346 299 350 303 355 C303 355 303 355 303 355 L303 355 C306 359 309 364 311 369 C265 306 218 330 218 330 L225 357 L225 357 L225 357 Z " />
<glyph glyph-name="G" unicode="G" horiz-adv-x="254" d="M245 371 C245 371 245 371 245 371 C231 359 216 348 200 337 L204 361 C205 365 205 367 205 368 C205 368 207 399 207 401 C207 401 239 468 215 470 L215 470 C205 470 192 453 182 403 C178 390 175 370 171 346 C146 313 110 288 65 290 C-34 295 58 448 111 523 C111 524 129 548 145 567 C156 566 169 564 182 563 C274 550 273 630 273 630 C273 631 273 632 273 633 C271 667 243 665 243 665 C224 665 189 645 134 590 C132 589 130 587 129 585 L129 585 C129 585 129 585 128 585 C125 582 121 578 117 575 C105 576 91 576 80 575 C9 568 6 502 6 502 C6 502 6 502 6 502 C22 566 60 576 115 571 C108 563 99 554 89 542 L88 542 C81 533 74 524 67 516 C67 516 67 516 67 515 C66 515 66 514 65 513 C40 479 21 449 8 423 C3 413 -9 387 -12 361 C-12 360 -12 360 -12 360 C-12 360 -12 360 -12 360 C-14 349 -18 286 53 286 C101 286 134 306 152 323 C164 333 171 342 171 342 L168 327 C168 326 167 324 167 322 C70 231 -103 -70 33 -68 C144 -67 186 194 201 332 C219 346 236 359 250 373 C253 375 245 371 245 371 L245 371 Z M219 460 C224 458 219 436 208 408 C208 413 208 416 208 416 C208 416 207 464 219 460 L219 460 Z M157 582 C205 633 276 690 266 619 C257 558 204 564 148 570 C151 575 154 579 157 582 L157 582 Z M161 286 C134 140 91 -66 26 -62 C-28 -62 -2 34 -2 34 C68 233 166 312 166 312 C166 310 161 286 161 286 L161 286 Z " />
<glyph glyph-name="H" unicode="H" horiz-adv-x="457" d="M494 556 C577 808 413 683 351 496 C342 469 333 440 323 409 L315 382 C315 382 217 370 214 365 C214 365 216 401 216 412 C217 435 218 458 218 482 L218 482 L218 495 C218 495 251 526 256 574 C261 622 228 684 185 583 C171 544 164 496 165 474 C165 473 165 473 165 472 C89 458 79 557 14 563 C-43 568 -67 488 -63 487 C-63 487 -40 555 3 560 C47 566 77 511 104 486 C131 460 166 468 166 468 L165 456 C165 453 165 450 165 446 L165 446 L165 446 C163 425 161 396 156 362 L156 362 L155 346 C155 346 113 322 109 273 C109 265 110 256 112 248 C114 240 118 232 121 230 C90 308 154 340 154 340 L148 305 L148 305 C137 235 120 153 97 73 C95 65 92 58 90 52 C90 52 90 52 90 52 C48 -89 -39 16 -39 124 C-39 214 26 251 47 261 C46 261 45 261 45 261 C-9 236 -34 196 -40 154 C-41 153 -42 139 -42 133 C-43 117 -41 105 -41 105 L-41 105 C-27 -37 64 -29 64 -29 L64 -29 C144 -28 204 263 213 355 C213 357 213 358 214 360 C226 366 313 376 313 376 L303 345 C272 242 247 138 260 82 C260 82 260 82 260 82 C288 -25 427 117 427 117 C427 120 396 95 381 83 C378 80 375 78 372 76 C372 76 372 76 372 76 C351 60 332 57 319 77 C291 120 320 256 363 386 C412 406 459 451 494 556 L494 556 Z M374 420 C378 432 382 444 386 455 L387 455 L387 455 C390 465 394 474 397 484 C419 544 450 620 472 659 L472 659 C472 659 491 693 499 693 C508 694 526 660 486 543 C445 426 365 394 365 394 L374 420 L374 420 Z M237 627 C256 625 264 545 219 500 C220 569 223 629 237 627 L237 627 Z " />
<glyph glyph-name="I" unicode="I" horiz-adv-x="231" d="M212 622 C178 627 191 571 98 527 C98 527 94 525 93 523 C133 536 162 570 162 570 L156 524 C146 454 123 294 92 164 C92 164 92 164 92 164 C60 3 27 -34 9 -34 C-9 -35 -75 -8 -63 91 C-53 176 -3 205 11 212 C11 213 10 213 9 212 C1 209 -66 177 -67 72 C-67 0 -33 -26 -5 -35 C-4 -35 -4 -35 -3 -35 C-1 -36 0 -36 2 -37 C42 -46 69 -6 77 9 C78 11 79 13 80 15 C80 15 80 15 80 15 L80 15 C107 67 141 167 178 362 C178 362 245 617 212 622 L212 622 Z " />
<glyph glyph-name="J" unicode="J" horiz-adv-x="387" d="M416 438 C410 424 380 365 325 376 L333 413 C370 587 367 619 349 610 C328 600 154 470 272 387 C271 380 270 373 268 365 L266 355 C254 288 237 212 217 142 L217 142 C217 142 217 142 217 142 C215 135 213 128 211 122 C207 105 200 82 194 64 C193 61 192 57 191 53 C190 49 188 45 188 42 C188 42 188 42 188 42 C177 11 161 -29 140 -57 C139 -60 137 -62 135 -64 C135 -64 135 -64 135 -65 C135 -65 135 -65 134 -65 C120 -82 104 -92 87 -91 L87 -91 C31 -91 -21 3 -15 88 C-6 221 40 314 116 324 C179 333 186 263 187 239 C193 243 188 336 122 329 C38 321 -1 237 -18 107 C-35 -24 47 -116 120 -96 C193 -76 240 -3 305 284 C313 317 319 346 325 373 C369 366 398 397 416 430 C416 431 419 437 416 438 L416 438 Z M302 539 L279 423 L279 423 L279 423 L274 398 L275 398 L273 391 C256 403 233 425 235 460 C238 517 309 573 309 573 L302 539 L302 539 Z " />
<glyph glyph-name="K" unicode="K" horiz-adv-x="309" d="M408 647 C408 647 374 690 295 587 C264 546 246 504 234 466 C232 460 229 451 226 442 C213 398 205 364 185 356 C180 356 175 357 169 357 L173 376 C175 384 177 393 178 402 C178 402 246 660 212 666 C178 671 191 614 97 569 C97 569 89 565 91 563 C91 563 149 588 164 611 C164 611 153 542 143 482 C116 303 60 -6 3 7 C-78 25 -89 183 3 243 C3 243 7 247 9 249 C9 249 -60 223 -66 116 C-72 14 21 -26 61 21 C63 23 64 26 66 29 C66 29 66 29 66 29 C68 31 69 33 70 35 C96 77 130 164 167 345 C206 343 221 305 227 262 L227 262 C228 250 229 238 230 226 C235 167 248 50 274 -10 C275 -12 278 -18 282 -24 C283 -24 284 -25 284 -26 C285 -28 287 -29 288 -31 C312 -55 361 -26 367 61 C373 153 319 172 319 172 C319 171 319 171 319 170 C319 170 319 170 319 170 C319 170 319 170 319 170 C319 170 319 170 319 170 C321 167 325 165 325 165 L325 165 C376 139 368 36 345 -7 L345 -7 C345 -7 331 -34 309 -34 C287 -34 279 34 279 34 C274 63 270 105 266 164 C264 188 262 209 260 227 C260 227 260 227 260 227 C246 324 212 347 197 353 C195 353 193 354 190 355 C191 355 191 355 191 355 C193 356 195 358 198 361 C212 380 227 430 231 446 C232 448 232 449 233 451 C233 451 233 451 233 451 L233 451 C254 527 343 688 408 647 L408 647 Z " />
<glyph glyph-name="L" unicode="L" horiz-adv-x="306" d="M467 -47 C420 -134 308 -33 246 15 C182 64 136 80 136 80 C136 81 142 93 143 96 C170 158 191 237 212 323 C228 389 241 446 254 492 C254 492 254 492 254 492 C259 511 270 549 270 549 C278 550 334 577 363 601 C368 604 378 614 378 623 C378 635 347 640 333 640 C311 640 296 633 290 630 C244 605 226 548 226 548 C225 543 223 538 221 533 C122 501 73 524 73 524 C97 490 220 530 220 530 L211 500 C183 401 147 222 116 134 C113 124 109 114 106 105 L106 105 L106 105 C106 105 106 105 106 105 L106 105 L102 93 C102 93 99 94 98 95 L98 95 C87 100 50 115 6 109 C-46 102 -85 79 -88 33 C-91 -11 -23 -63 80 7 C83 9 103 24 120 51 C120 51 120 52 120 52 C121 52 121 53 122 54 C124 58 126 62 129 66 L129 66 C129 66 129 66 129 66 C129 67 129 67 129 67 L129 67 L133 76 C133 76 190 53 262 -4 L262 -4 C262 -4 262 -4 262 -4 C266 -7 271 -11 276 -15 C305 -38 371 -87 414 -88 C414 -88 414 -88 415 -88 C437 -90 454 -69 454 -69 L454 -69 C458 -65 460 -61 462 -57 C465 -53 467 -49 467 -47 L467 -47 Z M342 636 C396 633 385 602 272 553 C292 609 313 638 342 636 L342 636 Z M-13 -23 C-80 -23 -95 23 -68 68 C-48 103 35 119 100 89 C68 7 44 -23 -13 -23 L-13 -23 Z " />
<glyph glyph-name="M" unicode="M" horiz-adv-x="444" d="M495 638 C416 633 355 492 315 360 L314 357 C276 321 229 282 234 320 L234 320 C242 389 284 505 313 577 L313 577 C313 577 202 584 140 381 C140 381 140 381 140 381 C114 292 107 203 106 181 C106 179 105 177 105 176 C105 176 105 176 105 176 C97 47 -33 66 -36 174 C-40 287 24 290 24 290 C24 291 23 292 23 292 C-15 295 -37 249 -41 200 C-41 198 -46 137 -11 104 C-5 98 2 94 10 90 C10 90 10 90 10 90 C11 90 12 89 13 89 C61 69 129 98 158 290 C191 518 249 558 274 565 C223 488 199 399 189 347 C188 340 186 334 185 328 C166 212 312 351 312 351 C312 351 229 -122 336 -149 C340 -150 344 -151 348 -151 C348 -150 349 -150 349 -150 C395 -149 459 -88 471 -21 C487 66 430 74 429 74 C429 74 482 60 470 -11 C458 -81 367 -202 337 -83 C324 -36 323 34 324 63 C325 98 333 243 373 383 L373 383 L373 384 C374 387 375 391 376 394 C376 394 376 394 376 394 L378 401 C378 401 452 462 514 569 C514 569 514 569 514 569 C536 612 535 640 495 638 L495 638 Z M518 590 C505 534 379 407 379 407 L385 424 C385 424 385 424 385 424 C398 463 414 501 433 535 C456 575 473 599 484 613 C484 613 484 613 484 613 C486 615 488 617 490 619 C495 624 500 627 503 627 C516 632 527 627 518 590 L518 590 Z " />
<glyph glyph-name="N" unicode="N" horiz-adv-x="422" d="M618 728 C618 728 618 728 617 728 C597 743 577 736 575 735 C545 723 451 665 357 384 C357 384 261 53 250 -11 C250 -11 247 45 247 74 C247 74 247 74 247 74 C239 421 367 676 367 676 C311 665 266 609 228 534 C228 532 208 489 199 463 C162 356 110 168 61 69 C49 45 38 26 27 17 C18 9 10 5 3 6 C-65 12 -64 121 -15 187 C34 253 57 219 57 219 C58 218 59 218 60 218 C60 218 60 219 60 219 C61 219 61 219 61 219 C71 221 67 225 60 228 L60 228 C60 228 60 228 60 228 C58 229 57 230 55 230 C50 232 42 234 32 231 C29 230 27 229 25 228 C25 228 25 228 24 228 C-48 195 -89 40 -13 5 C69 -33 110 107 110 107 L172 280 C172 280 173 280 173 280 C173 281 173 282 174 284 L234 451 C235 452 271 558 277 565 C278 567 278 568 278 568 C278 567 277 566 277 565 C275 559 254 495 243 449 C219 349 214 266 214 263 C205 103 228 -27 244 -33 C271 -44 315 266 381 431 C448 597 532 750 601 729 C633 720 629 694 615 669 C614 668 611 661 615 660 C619 660 627 665 630 672 C630 672 630 673 630 673 C630 673 630 673 630 674 C630 674 630 674 630 674 C640 700 630 717 618 728 L618 728 Z " />
<glyph glyph-name="O" unicode="O" horiz-adv-x="468" d="M361 217 L369 234 C371 238 373 241 374 245 C374 245 374 245 374 245 L374 245 C447 421 474 633 388 657 C380 659 366 659 350 648 C338 654 323 659 305 659 L305 659 C264 660 207 630 140 475 L136 464 C136 464 80 537 6 538 C-2 538 -17 535 -30 522 C-34 517 -39 510 -44 501 C-43 497 -33 517 -21 526 C-7 538 60 546 134 460 C130 450 126 439 121 427 C121 427 -30 7 161 5 C217 5 273 60 320 138 L320 138 C333 157 348 189 360 213 C386 230 406 245 413 250 C395 240 361 217 361 217 L361 217 Z M363 626 C365 625 366 624 367 623 L367 623 C382 609 410 570 374 498 L374 498 C344 442 289 390 249 381 C278 485 321 591 363 626 L363 626 Z M176 420 C177 423 178 425 178 428 L179 429 L179 429 C212 534 256 624 307 642 C309 643 322 647 340 640 C319 622 293 587 266 520 C247 473 231 426 220 382 C200 388 182 408 175 417 L176 420 C176 420 176 420 176 420 L176 420 Z M313 144 C307 136 302 127 296 120 C188 -22 103 -26 122 156 C129 225 147 322 174 412 C174 411 175 411 175 410 C197 385 219 378 219 378 C201 311 194 251 198 211 C198 211 198 210 198 209 C198 209 198 208 198 208 C198 208 198 208 198 208 C199 206 199 204 199 203 C209 150 268 168 270 169 C295 176 320 190 343 203 C330 174 314 147 313 144 L313 144 Z M349 215 C348 213 347 211 346 210 C285 170 208 136 218 225 C221 257 228 297 238 338 C238 338 238 338 238 338 C241 352 247 375 247 375 C276 386 301 402 321 421 L321 421 C321 421 321 421 321 421 C326 425 331 430 335 435 C396 501 398 562 398 562 L398 562 C401 590 388 611 379 623 L379 623 C379 623 377 627 371 632 C373 633 377 635 377 635 L377 635 C381 636 385 638 390 638 C450 641 421 385 349 215 L349 215 Z " />
<glyph glyph-name="P" unicode="P" horiz-adv-x="372" d="M395 573 C393 623 364 699 189 682 C175 680 163 679 152 678 L151 678 C151 678 151 678 151 678 C31 662 14 639 16 626 C43 665 150 671 150 671 C139 609 62 166 55 111 C47 57 37 27 -14 23 C-64 21 -76 80 -78 95 C-88 161 -63 253 34 287 C34 287 41 291 38 293 C38 293 -69 268 -85 141 C-89 107 -85 82 -77 64 C-76 60 -74 57 -72 54 C-56 28 -31 19 -10 17 C10 18 25 26 30 29 C53 44 74 72 87 112 C100 155 119 238 138 327 L152 396 L152 396 C180 538 205 674 205 674 C205 674 365 686 354 573 C342 463 267 357 200 367 C199 367 199 367 199 367 C172 371 166 388 166 388 L166 388 C150 421 189 476 198 478 C198 478 206 486 198 483 C192 481 145 423 158 388 C167 364 201 361 201 361 C255 357 320 420 359 474 C359 474 359 474 359 474 C397 531 396 572 395 573 L395 573 Z " />
<glyph glyph-name="Q" unicode="Q" horiz-adv-x="409" d="M410 -104 L410 -104 C351 -102 318 -22 301 29 C292 58 282 101 266 133 L264 137 C269 146 275 154 280 163 L280 163 C292 182 308 214 319 238 C345 255 366 270 373 275 C355 265 321 242 321 242 L329 259 C331 263 332 266 334 270 C334 270 334 270 334 270 L334 270 C407 446 433 658 348 682 C340 684 326 684 309 673 C298 679 283 684 265 684 L265 684 C223 685 166 655 100 500 L96 489 C96 489 39 562 -34 563 C-42 563 -58 560 -70 547 C-75 542 -80 535 -84 526 C-83 522 -73 542 -62 551 C-47 563 19 571 94 485 C90 475 85 464 81 452 C81 452 -70 32 120 30 C164 30 208 64 248 116 C270 43 310 -104 410 -104 L410 -104 Z M336 660 L336 660 C341 661 345 663 349 663 C410 666 381 410 308 240 C308 238 307 236 306 235 C245 195 168 161 177 250 C181 282 188 322 198 363 C198 363 198 363 198 363 C201 377 206 400 206 400 C236 411 261 427 281 446 L281 446 C281 446 281 446 281 446 C286 450 291 455 295 460 C356 526 358 587 358 587 L358 587 C361 615 348 636 339 648 L339 648 C339 648 336 652 331 657 C332 658 336 660 336 660 L336 660 Z M323 651 C324 650 325 649 327 648 L327 648 C342 634 369 595 333 523 L333 523 C304 467 249 415 209 406 C237 510 280 616 323 651 L323 651 Z M136 445 C137 448 137 450 138 453 L138 454 L138 454 C171 559 216 649 267 667 C268 668 282 672 300 665 C278 647 253 612 225 545 C206 498 191 451 179 407 C160 413 142 433 135 442 L136 445 C136 445 136 445 136 445 L136 445 Z M81 181 C88 250 107 347 133 437 C134 436 134 436 135 435 C157 410 178 403 178 403 C161 336 154 276 158 236 C158 236 158 235 158 234 C158 234 158 233 158 233 C158 233 158 233 158 233 C158 231 159 229 159 228 C168 175 228 193 230 194 C254 201 280 215 303 228 C290 199 274 172 273 169 C268 162 263 154 258 148 C249 162 238 171 225 174 L225 174 C224 174 223 174 223 174 C215 174 190 173 180 133 C180 133 185 150 195 159 C206 169 224 179 238 147 C240 143 242 137 244 130 C142 3 63 6 81 181 L81 181 Z " />
<glyph glyph-name="R" unicode="R" horiz-adv-x="453" d="M324 129 L324 129 C321 156 320 186 322 219 C325 298 299 340 271 363 C326 359 390 422 429 476 C429 476 429 476 429 476 C467 533 466 574 466 575 C463 625 434 701 259 684 C246 682 233 681 222 680 L222 680 C222 680 222 680 222 680 C101 664 84 641 86 628 C113 667 221 673 221 673 C210 611 133 168 125 113 C117 59 107 29 56 25 C7 23 -6 82 -8 97 C-18 163 7 255 104 289 C104 289 111 293 108 295 C108 295 1 270 -14 143 C-19 109 -15 84 -7 66 C-5 62 -4 59 -2 56 C14 30 40 21 60 19 C80 20 95 28 100 31 C123 46 144 74 157 114 C173 165 197 273 218 380 C285 365 285 300 283 174 C281 40 334 -13 388 -21 C418 -25 437 -15 448 -5 C438 -11 423 -15 404 -15 C336 -15 324 129 324 129 L324 129 Z M260 372 C254 375 249 378 244 380 C211 409 258 478 268 480 C268 480 276 488 268 485 C262 483 212 421 230 385 C227 387 223 387 220 388 C250 534 275 676 275 676 C275 676 436 688 424 575 C412 462 333 353 264 370 C263 371 261 371 260 372 L260 372 Z " />
<glyph glyph-name="S" unicode="S" horiz-adv-x="319" d="M357 438 C341 436 275 378 243 349 L242 359 C242 359 242 359 242 359 C241 372 240 385 239 398 L239 398 L239 398 C238 413 237 429 237 444 L237 444 L237 444 C236 453 236 462 236 470 L236 480 C269 521 286 547 293 563 C296 573 299 588 275 588 C250 588 235 577 230 572 C230 572 229 571 229 571 L229 571 C210 552 189 513 195 437 C179 418 162 400 156 393 C73 304 -18 215 -18 215 C-13 217 -5 224 4 231 C68 291 196 433 196 433 L199 409 L199 409 C203 378 206 349 208 323 C204 317 200 312 196 308 L196 308 C192 304 189 300 186 296 C186 295 186 295 186 295 L186 295 C27 94 30 -115 90 -115 C181 -115 249 121 249 241 C249 262 248 285 246 310 L243 344 C243 344 243 344 243 344 C296 396 355 435 357 436 C360 437 357 438 357 438 L357 438 Z M282 583 C309 583 283 540 236 484 C237 541 248 583 282 583 L282 583 Z M208 186 C206 142 192 85 173 32 C167 15 161 -1 154 -15 C117 -99 72 -146 61 -48 C42 123 209 316 209 316 L210 300 C210 296 210 291 210 287 L210 287 L210 287 C212 249 210 215 208 186 L208 186 L208 186 Z " />
<glyph glyph-name="T" unicode="T" horiz-adv-x="358" d="M622 719 C619 715 616 712 612 708 C612 708 612 708 612 707 C612 707 612 707 612 707 C594 688 566 663 522 634 C421 568 305 599 305 599 C146 633 41 654 -10 509 C-12 502 -11 500 -10 500 C-10 500 -11 500 -11 500 C-11 500 17 599 112 606 C207 613 278 574 278 574 L272 534 L272 534 C267 505 260 461 251 412 C251 412 251 412 251 412 C246 389 242 366 236 341 L236 341 C236 341 236 341 236 341 C236 337 235 333 234 329 C234 329 234 329 234 329 C232 322 230 313 229 305 C229 305 229 305 229 305 C227 299 226 293 225 288 C224 286 224 284 224 283 C224 283 224 283 224 283 C221 271 218 260 215 248 C214 242 213 237 212 232 C171 69 114 -86 48 -67 C-86 -27 -6 216 21 200 C21 200 27 201 22 204 C-10 200 -29 113 -29 113 C-45 3 -7 -42 18 -58 C24 -62 30 -65 37 -68 L37 -68 C86 -86 145 -64 177 23 C195 74 217 147 239 224 C243 239 286 396 286 396 L286 396 C301 454 314 505 322 538 C323 544 327 564 327 564 L330 564 C542 555 633 729 633 729 C631 728 626 724 622 719 L622 719 Z " />
<glyph glyph-name="U" unicode="U" horiz-adv-x="334" d="M239 -137 C240 -137 240 -137 240 -138 C245 -139 249 -141 254 -141 C254 -141 254 -141 254 -141 C294 -143 312 -70 312 -69 C312 -69 311 -69 310 -72 C306 -80 276 -180 235 -108 C211 -65 201 22 202 109 C292 249 338 526 273 522 C219 519 171 278 174 87 C157 69 137 54 115 42 C115 42 -6 -26 127 461 C127 461 154 543 144 584 C137 612 116 607 110 604 C81 592 0 547 22 447 C22 447 6 550 99 595 C99 595 99 595 100 595 C100 596 101 596 102 596 C107 598 109 595 109 593 C109 593 109 592 109 592 L109 592 L109 592 C111 579 110 545 81 478 C45 393 -36 78 73 36 C121 18 174 80 174 80 C175 77 174 61 174 61 C179 -36 197 -115 237 -136 C238 -136 239 -137 239 -137 L239 -137 Z M218 280 C242 394 260 516 278 511 C292 507 303 266 202 121 C203 179 209 236 218 280 L218 280 Z " />
<glyph glyph-name="V" unicode="V" horiz-adv-x="309" d="M422 630 C214 460 146 52 146 52 L132 225 L122 351 L119 382 C119 382 144 445 157 542 C166 615 146 638 134 645 C132 646 129 647 127 648 L127 648 L127 648 C99 658 84 635 76 611 C72 601 69 588 67 571 C67 568 67 566 67 566 L67 566 C65 543 65 514 67 475 L67 475 C68 454 70 430 71 404 L75 334 C51 325 22 355 -9 452 C-9 452 -10 453 -12 453 L-12 453 C-12 453 22 317 76 330 L77 302 L77 302 L84 196 C94 59 108 -64 123 -65 C160 -66 155 384 422 622 C422 622 433 629 422 630 L422 630 Z M114 448 C114 448 114 448 114 448 L114 453 C112 466 110 500 108 534 C107 540 107 545 107 551 C106 558 106 565 106 571 C106 576 106 581 106 586 C108 618 114 639 129 638 C152 638 155 590 155 589 C155 585 155 581 155 577 C153 523 140 445 119 392 L114 448 L114 448 Z " />
<glyph glyph-name="W" unicode="W" horiz-adv-x="334" d="M206 363 L202 341 C202 336 201 331 201 327 C199 317 198 306 197 293 C197 293 197 293 197 293 L197 293 C184 184 167 -12 208 -34 C209 -34 209 -34 209 -34 C211 -35 214 -36 217 -36 C217 -36 217 -36 217 -36 C217 -36 218 -36 218 -36 C218 -36 219 -36 219 -36 C219 -36 219 -36 219 -36 C273 -28 255 233 313 473 C373 717 490 695 490 695 C490 697 488 698 486 698 C455 701 340 688 285 361 L285 361 C281 325 273 267 268 205 C268 199 267 193 267 187 C266 182 266 178 266 175 C258 85 247 -17 230 -21 C215 -26 210 7 210 38 C210 38 210 38 210 38 C209 41 209 43 209 45 C209 79 206 224 214 323 C214 323 214 323 214 323 C216 363 215 372 207 372 C200 372 195 344 194 342 C190 319 186 294 183 270 C176 219 141 -49 109 4 C106 7 104 11 103 17 C103 17 103 17 103 17 L103 17 C89 69 113 225 138 372 C146 423 152 473 154 514 C154 541 147 586 103 586 C55 586 16 512 -3 462 C-8 450 -12 438 -16 424 C-16 424 -16 424 -16 424 C-31 375 -42 315 -48 240 C-48 240 -38 329 -14 416 C27 548 72 573 91 578 C93 578 95 579 97 579 C198 585 -19 93 83 1 C85 -1 109 -21 125 1 C165 57 188 293 193 325 C197 350 201 362 204 367 C205 368 207 371 206 363 C206 363 206 363 206 363 L206 363 Z " />
<glyph glyph-name="X" unicode="X" horiz-adv-x="242" d="M299 599 C245 601 154 409 154 409 C154 409 146 392 134 366 C134 372 133 379 133 385 L133 385 C133 400 133 415 134 428 C134 480 131 568 118 621 C118 622 117 623 117 624 C116 629 114 634 113 639 C103 661 90 665 80 665 C79 664 78 664 77 664 C76 664 75 664 75 664 C16 647 -5 588 0 581 C0 581 39 658 69 644 C98 629 88 416 93 354 C93 342 95 318 98 287 C61 211 17 121 -9 91 C-14 85 -24 77 -37 78 C-57 79 -59 104 -59 104 C-66 100 -64 89 -55 80 C-30 57 -6 86 -2 91 C24 127 60 196 99 274 C111 143 145 -86 236 -73 C236 -73 292 -78 266 54 C266 54 253 57 263 23 C273 -11 259 -90 238 -49 C220 -15 150 193 135 350 C140 361 145 372 150 382 C224 541 281 599 293 589 C305 578 307 570 309 585 C311 600 299 599 299 599 L299 599 Z " />
<glyph glyph-name="Y" unicode="Y" horiz-adv-x="320" d="M277 416 L282 440 C288 470 293 495 296 513 C298 522 301 552 268 524 C268 524 268 524 268 524 C205 467 115 310 86 270 C66 241 71 290 84 359 L89 391 C89 391 156 445 201 513 C230 557 220 581 209 593 C209 593 191 612 154 605 C81 588 54 466 44 363 C-25 311 -52 336 -60 351 L-60 351 C-60 351 -62 353 -63 353 C-64 353 -63 348 -62 346 C-62 346 -62 346 -62 346 C-62 346 -62 346 -62 345 C-55 332 -31 305 44 357 C39 303 39 255 40 232 C40 231 40 230 40 229 C40 229 40 229 40 229 C40 228 40 227 40 227 C43 182 139 338 156 368 C173 398 242 492 248 491 C254 489 240 421 240 421 L240 421 C238 414 237 407 235 398 L235 398 L228 369 C228 369 132 267 82 118 C32 -31 40 -130 75 -133 C77 -133 80 -133 82 -132 C157 -113 236 218 276 410 C296 427 315 438 331 446 C331 446 331 446 331 446 C333 447 337 449 338 452 C339 461 277 416 277 416 L277 416 Z M120 534 C145 648 320 609 111 417 C104 411 98 405 92 400 C101 445 112 495 120 534 L120 534 Z M95 -92 C88 -109 77 -129 64 -116 C37 -86 64 35 64 35 C107 189 167 292 226 362 C192 224 120 -10 95 -92 L95 -92 Z " />
<glyph glyph-name="Z" unicode="Z" horiz-adv-x="283" d="M293 440 C293 442 281 434 277 430 C266 420 254 408 241 394 C234 422 215 438 175 435 C198 492 213 545 209 576 C209 577 209 578 209 578 C208 582 207 585 206 588 C199 605 181 603 174 603 C69 583 -9 460 -9 460 C-9 460 95 589 155 589 C183 589 174 514 149 431 C31 399 -27 166 47 223 C82 251 133 336 169 419 C189 422 201 403 196 347 C196 347 48 174 8 63 C-30 -41 -26 -104 1 -112 C3 -113 5 -113 7 -113 C99 -111 205 188 205 188 C229 271 249 342 242 386 C255 399 267 411 280 424 L280 424 C280 424 290 434 291 436 C292 438 294 440 293 440 L293 440 Z M103 311 C103 311 103 311 103 310 C94 293 85 277 76 264 C62 242 43 219 29 219 C12 219 21 245 31 267 C34 275 39 283 44 292 C45 294 45 294 45 294 C69 336 109 385 142 408 C131 374 117 340 103 311 L103 311 L103 311 Z M161 183 C28 -274 -161 -64 195 336 C191 299 180 249 161 183 L161 183 Z " />
<glyph glyph-name="bracketleft" unicode="&#x5b;" horiz-adv-x="160" d="M155 747 L-21 95 L76 95 L76 100 L22 100 L194 739 L259 739 L259 747 L155 747 L155 747 Z " />
<glyph glyph-name="backslash" unicode="&#x5c;" horiz-adv-x="271" d="M18 746 L194 68 L201 68 L28 746 L18 746 L18 746 Z " />
<glyph glyph-name="bracketright" unicode="&#x5d;" horiz-adv-x="199" d="M120 747 L120 744 L120 739 L173 739 L2 104 L2 104 L1 100 L-64 100 L-64 95 L41 95 L217 747 L120 747 L120 747 Z " />
<glyph glyph-name="asciicircum" unicode="&#x5e;" horiz-adv-x="163" d="M105 681 L105 681 C105 681 105 681 105 681 C105 681 18 598 33 590 C37 588 41 593 43 595 L44 596 C44 596 44 596 44 596 L93 656 L93 656 L105 670 L118 647 C118 647 118 647 118 647 L118 646 L118 646 C132 618 153 590 155 590 C156 590 156 590 156 590 C136 608 105 681 105 681 L105 681 Z " />
<glyph glyph-name="underscore" unicode="&#x5f;" horiz-adv-x="272" d="M0 169 L-4 158 L207 158 L211 169 L0 169 L0 169 Z " />
<glyph glyph-name="grave" unicode="&#x60;" horiz-adv-x="89" d="M37 673 C37 675 37 676 37 677 C37 678 37 678 37 678 C37 679 37 679 37 679 C37 682 36 687 35 691 L35 691 L35 691 C35 691 34 692 34 693 C33 695 29 700 20 696 C20 696 7 689 17 674 C18 673 18 673 18 673 C18 672 19 672 19 672 C28 659 45 646 52 651 C52 651 39 656 37 673 L37 673 Z " />
<glyph glyph-name="a" unicode="a" horiz-adv-x="157" d="M184 428 C155 322 105 158 80 190 C49 228 107 411 135 474 L135 474 L143 494 C143 494 115 476 108 457 C108 457 108 457 108 457 C106 452 103 444 100 435 L68 366 L68 366 C66 362 65 359 63 355 L63 355 L63 355 C37 298 9 244 2 250 C-4 254 4 306 20 362 C21 366 69 543 117 509 C119 510 119 511 117 513 C117 513 61 557 -6 376 C-34 300 -39 260 -34 239 C-34 239 -34 239 -34 239 C-34 237 -34 235 -33 234 C-32 231 -31 228 -29 225 C-10 200 38 294 59 339 L60 341 C60 341 60 341 60 341 C61 344 65 353 70 363 L70 363 C76 374 83 389 88 400 C61 316 25 181 65 163 C115 143 178 395 189 440 C188 439 187 437 184 428 L184 428 Z " />
<glyph glyph-name="b" unicode="b" horiz-adv-x="168" d="M193 438 C192 438 191 438 191 437 C172 386 128 344 111 330 C113 355 107 368 99 375 C97 377 74 397 44 352 C41 346 37 338 33 330 C14 281 47 281 91 311 C77 257 46 188 23 177 C-3 165 23 322 46 431 C126 552 151 622 151 622 C157 641 159 654 159 663 C159 663 159 663 159 663 C159 666 158 668 158 670 C153 689 132 682 128 680 C97 667 74 627 62 600 C42 554 21 487 1 390 C-32 223 -20 165 6 163 L6 163 C9 163 12 163 16 165 C37 172 72 202 100 284 C106 300 109 314 111 326 C114 328 117 331 120 333 L120 333 L120 333 C136 348 152 366 166 386 L166 386 L166 386 C177 401 187 418 194 436 C195 437 195 438 193 438 L193 438 Z M69 525 C86 579 134 702 151 676 C166 653 105 519 48 439 C56 479 64 511 69 525 L69 525 Z M98 343 C97 330 93 317 93 317 C88 312 83 308 77 305 C57 294 31 291 46 330 C63 373 78 376 83 376 C83 376 84 375 84 375 C97 373 99 356 98 343 L98 343 Z " />
<glyph glyph-name="c" unicode="c" horiz-adv-x="158" d="M5 152 C5 152 5 152 5 152 C6 152 7 152 8 152 C62 153 166 401 181 438 L178 438 C178 438 104 263 57 197 L57 197 C57 197 31 154 14 171 C5 181 -3 233 6 296 C6 303 8 312 11 325 C11 325 11 325 11 325 C16 346 22 367 31 388 C60 458 94 479 94 479 C90 475 88 469 86 463 C86 460 86 458 85 456 C85 454 83 432 97 436 C98 436 98 436 98 436 C98 436 99 436 99 436 C99 436 100 436 100 436 C118 443 115 460 107 470 C103 476 97 482 88 485 C74 489 50 485 24 441 C9 414 -7 374 -19 310 C-43 182 -16 156 3 152 C3 152 4 152 5 152 L5 152 Z " />
<glyph glyph-name="d" unicode="d" horiz-adv-x="178" d="M207 450 C207 450 105 142 91 198 C80 246 123 512 157 617 L157 617 C158 621 159 623 160 626 C165 640 172 667 163 667 C162 666 161 666 159 665 C138 654 104 559 89 468 L85 442 C85 442 22 479 -11 405 L-11 405 C-16 395 -19 382 -22 367 C-35 305 -33 270 -27 251 C-25 245 -18 230 -3 228 C-3 228 -3 228 -3 228 C-2 228 -2 228 -1 228 C-1 228 -1 228 -1 228 C0 228 0 228 1 228 C35 229 65 295 65 295 L63 281 L64 281 C63 279 63 277 63 274 L62 273 C59 243 54 169 83 170 C118 171 195 405 209 450 L207 450 L207 450 Z M67 309 C58 278 40 255 24 249 C-5 244 -1 293 8 336 C9 339 9 342 10 346 C10 346 10 346 10 346 C13 357 15 367 18 376 C26 403 37 422 37 422 C62 459 84 439 84 439 L67 309 L67 309 Z " />
<glyph glyph-name="e" unicode="e" horiz-adv-x="154" d="M178 440 C178 440 115 285 68 234 C42 204 20 212 9 297 C8 309 8 320 8 331 L8 331 C8 331 8 346 9 348 C9 348 21 335 69 385 C77 394 86 405 97 417 C207 550 20 575 -12 385 C-29 282 -16 234 -1 212 C1 209 11 197 22 197 C23 197 24 197 25 197 C25 197 26 197 26 197 C91 210 179 439 179 439 C179 439 179 440 178 440 L178 440 Z M14 380 C28 436 45 470 61 489 C61 489 61 489 61 489 C76 508 99 523 112 518 C125 513 114 483 114 483 L114 483 C110 470 103 455 91 437 C38 357 17 344 9 350 C10 363 13 374 14 380 L14 380 Z " />
<glyph glyph-name="f" unicode="f" horiz-adv-x="132" d="M-2 240 C-2 243 50 308 50 308 C95 364 145 421 158 437 C157 436 156 435 155 434 C143 421 87 358 50 313 C37 296 24 280 13 265 L-1 248 L17 328 C31 345 50 369 68 395 L68 395 L68 395 C87 422 104 450 112 472 C112 472 113 472 113 473 C115 478 116 483 117 488 C120 503 120 523 99 523 C67 523 43 492 27 451 C8 409 -13 341 -34 232 C-66 65 -77 -8 -76 -39 C-76 -40 -76 -42 -76 -43 C-75 -49 -70 -71 -30 -35 C31 30 -4 206 -6 220 L-6 221 C-6 221 -7 221 -7 221 L-4 233 L-2 240 L-2 240 Z M21 346 L21 346 L21 346 C32 388 43 426 53 455 L53 455 C53 455 68 500 89 513 C93 516 98 519 102 519 L102 519 C102 519 102 519 102 519 C103 519 103 519 104 519 C117 518 117 502 115 491 C115 488 114 486 113 483 C113 481 113 480 113 480 L113 480 C108 465 99 446 87 428 C74 406 19 336 19 336 C19 336 19 336 19 336 C20 340 21 343 21 346 L21 346 Z M0 58 C-7 -16 -37 -40 -55 -47 L-48 -5 C-42 31 -33 83 -22 141 L-22 141 L-22 141 C-18 163 -13 186 -9 209 C-3 187 7 135 0 58 L0 58 Z " />
<glyph glyph-name="g" unicode="g" horiz-adv-x="198" d="M217 438 L217 438 C216 438 216 438 216 438 C216 437 216 437 215 437 L215 437 C197 426 178 406 159 380 C169 438 177 481 179 489 C182 502 169 493 157 481 C157 481 157 481 157 481 C157 481 156 481 156 480 C150 474 134 454 134 454 C127 464 72 534 18 432 C-31 340 -25 261 1 238 C1 238 1 238 1 238 C2 238 2 237 3 237 C39 210 121 376 121 376 L115 347 L104 285 C58 189 22 73 15 9 C12 -15 15 -39 35 -39 C68 -39 89 10 92 17 C100 38 104 58 105 63 C116 129 140 267 157 369 C157 369 157 369 157 369 L159 378 C159 378 197 429 222 437 C221 438 219 439 217 438 L217 438 Z M93 218 L67 76 C67 76 67 75 67 75 L67 72 C63 54 47 -32 32 -33 L32 -33 C32 -33 32 -33 31 -33 C31 -33 31 -33 31 -33 C27 -32 24 -29 22 -25 C20 -22 19 -19 18 -15 C18 -14 18 -14 18 -14 L18 -14 C7 53 103 274 103 274 L93 218 L93 218 Z M128 418 L122 385 C88 320 10 182 9 267 C9 304 16 346 28 382 L28 382 C28 382 28 382 28 382 C31 389 33 397 36 403 C87 525 134 451 134 451 L128 418 L128 418 Z " />
<glyph glyph-name="h" unicode="h" horiz-adv-x="160" d="M170 434 C169 428 142 188 98 190 C64 191 102 368 116 448 C75 456 43 408 22 360 L37 448 C62 490 105 572 125 658 C125 658 138 726 114 726 C91 726 69 692 45 620 C35 590 25 553 15 507 C15 506 15 505 14 504 C-5 411 -38 206 -38 206 C-36 186 -31 159 -18 165 C-9 169 -5 212 5 264 L5 264 L5 264 C17 332 37 413 82 439 C82 439 31 182 87 179 C149 179 173 439 173 439 C172 439 171 438 170 434 L170 434 Z M59 571 L65 602 C80 664 96 714 109 722 C109 722 109 722 109 722 C110 722 110 722 110 722 C110 722 110 722 110 722 C111 722 111 723 111 723 C111 723 111 723 111 723 C111 723 112 723 112 723 C112 723 112 723 112 723 C112 723 113 723 113 723 C146 723 112 582 38 451 L59 571 L59 571 Z " />
<glyph glyph-name="i" unicode="i" horiz-adv-x="86" d="M37 513 C51 517 78 577 62 582 C47 587 30 559 29 549 C29 549 23 509 37 513 L37 513 Z M116 436 C113 431 -4 169 11 262 C23 344 56 446 48 470 C48 470 48 470 48 470 C48 471 47 472 47 473 C44 477 40 474 37 472 C28 465 7 444 -1 406 C-2 405 -2 405 -2 404 C-2 403 -2 402 -2 401 C-2 401 -2 401 -2 401 C-3 400 -3 399 -3 398 C-12 353 -26 280 -25 238 C-24 234 -23 217 -15 214 C-15 214 -15 214 -14 214 C-14 214 -14 214 -14 214 C-14 214 -14 214 -14 214 C-13 214 -13 214 -13 214 L-13 214 C-13 214 -13 214 -12 214 C22 214 106 407 119 438 C118 438 117 439 116 436 L116 436 Z " />
<glyph glyph-name="j" unicode="j" horiz-adv-x="92" d="M41 525 C54 528 83 588 61 592 C38 596 31 571 31 560 C31 560 29 522 41 525 L41 525 Z M115 438 L113 438 C113 438 79 396 38 337 C44 379 48 407 48 407 C52 427 55 443 57 456 C58 469 56 485 40 472 C40 471 39 471 39 470 C39 470 35 468 31 464 C31 464 31 464 31 464 C18 451 13 412 13 412 C9 380 3 328 -4 272 C-45 204 -82 128 -87 68 L-87 68 C-87 68 -96 -4 -67 -23 L-67 -23 C-67 -23 -67 -23 -67 -23 C-64 -25 -61 -27 -57 -27 C-42 -30 -34 -15 -32 -10 C-9 40 16 187 32 292 L37 331 C37 331 115 437 115 438 C115 438 115 438 115 438 L115 438 Z M-7 249 L-7 249 L-7 247 C-7 247 -7 247 -7 247 C-9 232 -11 216 -13 201 C-13 201 -19 153 -27 103 C-27 101 -36 39 -45 3 C-46 2 -46 0 -47 -2 C-47 -4 -48 -6 -48 -7 C-54 -25 -64 -18 -66 -17 C-66 -17 -66 -17 -66 -17 C-66 -17 -66 -17 -66 -17 C-90 0 -86 51 -82 82 C-81 89 -80 97 -78 105 C-78 105 -78 105 -78 105 L-78 105 C-61 171 -4 266 -4 266 L-7 249 L-7 249 Z " />
<glyph glyph-name="k" unicode="k" horiz-adv-x="142" d="M54 346 C54 346 46 284 48 267 C49 257 51 248 54 242 C54 241 54 240 55 239 C55 238 56 237 56 236 C81 203 173 438 173 438 L173 438 C172 438 171 437 171 437 C171 437 110 294 82 254 C69 234 68 278 72 327 C72 327 80 398 55 419 C80 447 117 490 126 494 C139 502 126 500 126 500 C110 496 65 439 43 412 C93 503 182 727 116 723 C51 719 -1 419 -19 297 C-19 297 -30 204 -1 186 C-1 186 6 180 15 223 C16 233 18 243 20 254 C20 254 20 254 20 254 C20 256 20 259 21 261 C24 282 27 303 29 319 L35 377 L35 377 C36 384 37 391 38 400 C41 404 45 408 50 413 C60 404 58 373 54 346 L54 346 Z M38 411 L43 443 L50 484 C50 485 50 485 50 485 C50 485 50 486 50 486 C50 486 50 486 50 486 C59 541 70 601 83 645 L83 645 C83 645 83 646 84 648 C84 648 84 648 84 648 C84 649 84 650 85 651 C85 652 85 652 86 653 C86 654 86 654 86 654 C86 655 86 655 86 656 C93 676 109 719 121 719 C137 719 163 663 50 437 L50 437 L38 411 L38 411 Z " />
<glyph glyph-name="l" unicode="l" horiz-adv-x="83" d="M-4 96 C-6 122 -5 154 0 189 C0 189 0 189 0 189 C1 205 4 224 7 243 L7 243 C7 243 8 248 10 256 C15 286 21 310 21 310 L21 310 C29 348 39 386 50 422 L59 455 C59 455 143 552 130 599 C128 605 120 622 95 592 C95 592 95 592 95 592 C83 576 71 556 65 545 C64 543 63 541 62 539 L62 539 C62 539 62 539 62 539 C41 500 18 445 -3 367 C-15 325 -25 279 -32 227 C-45 135 -37 75 -22 41 C24 -51 68 71 68 71 L65 71 C65 71 9 -68 -4 96 L-4 96 Z M127 599 C136 564 93 500 61 459 C91 556 121 624 127 599 L127 599 Z " />
<glyph glyph-name="m" unicode="m" horiz-adv-x="232" d="M262 439 C235 407 198 362 164 307 C189 386 209 465 188 468 C155 474 107 393 87 357 C84 398 51 363 27 330 L68 473 C68 473 37 459 21 422 C20 421 19 419 19 418 C18 416 18 415 17 412 C16 411 16 409 15 407 C6 380 -9 323 -9 323 C-15 306 -21 287 -26 270 C-41 221 -50 161 -35 161 C-21 161 -14 183 -12 188 C-12 188 -12 189 -12 189 L-12 189 C-8 203 -4 220 0 238 L0 238 L1 240 L19 304 L19 304 L25 325 C76 397 60 325 60 325 L60 325 C59 321 59 317 58 313 C57 309 57 307 57 307 C53 283 46 252 39 223 C38 210 40 200 43 193 C50 183 61 215 62 217 C72 252 82 293 86 335 C87 346 87 355 87 355 C119 411 150 443 163 455 C176 467 158 399 158 399 L158 399 C146 353 127 287 114 246 C114 246 114 246 114 246 C102 208 134 219 134 219 C141 238 148 260 155 282 C156 282 156 282 156 283 L163 302 C163 302 228 401 266 439 C266 439 264 439 262 439 L262 439 Z " />
<glyph glyph-name="n" unicode="n" horiz-adv-x="150" d="M183 438 C183 438 161 432 101 297 C104 311 106 326 109 339 L109 339 C121 418 119 454 92 454 C65 454 19 323 19 323 L29 379 C33 399 38 423 41 440 C48 476 56 526 43 510 C31 492 15 460 6 415 C6 415 -25 277 -1 250 C-1 250 -1 250 -1 250 C13 228 14 264 14 264 L14 264 C14 267 15 271 15 276 C19 338 73 451 90 448 C106 446 48 224 69 197 C70 196 71 195 72 194 C72 193 73 193 73 192 C74 191 74 191 75 190 C83 183 87 202 89 212 C89 213 89 215 90 216 C90 216 90 216 90 216 C91 224 92 235 94 247 C97 268 99 288 99 288 C159 423 184 438 184 438 L183 438 L183 438 Z " />
<glyph glyph-name="o" unicode="o" horiz-adv-x="148" d="M180 439 C148 405 123 381 104 365 C112 396 118 426 122 452 C122 453 124 470 125 482 C125 482 125 483 125 483 C125 483 125 483 125 483 C125 484 125 485 125 486 C127 524 108 521 101 519 C89 514 51 495 10 425 C-1 403 -12 380 -22 353 C-82 200 -24 168 -6 162 C27 148 71 248 98 346 C101 355 102 361 102 361 C133 385 181 439 181 439 L180 439 L180 439 Z M87 321 C57 218 20 170 8 167 C3 165 -1 171 -3 178 C-5 182 -7 188 -8 196 C-8 196 -8 196 -8 196 C-8 200 -8 205 -9 210 C-9 230 -5 258 3 290 L3 290 C3 290 3 290 3 290 C4 291 4 292 4 293 C4 293 4 293 4 293 C4 294 4 295 5 296 C8 308 12 321 15 332 C15 332 15 332 15 332 C16 336 17 340 19 345 C20 348 21 351 21 353 C28 377 36 402 42 416 C42 416 42 416 42 416 C45 422 47 428 50 434 C50 434 75 491 98 511 C104 516 119 525 122 499 C122 499 122 499 122 499 C122 498 122 498 122 497 C124 464 109 395 87 321 L87 321 Z " />
<glyph glyph-name="p" unicode="p" horiz-adv-x="181" d="M205 438 C204 438 204 438 203 438 C187 433 125 379 125 379 C125 380 127 390 127 390 L127 390 C128 395 128 399 128 403 C128 410 129 474 55 425 L42 416 C42 416 44 419 51 451 L64 508 C64 508 35 523 4 386 C4 386 4 386 4 386 C3 379 1 371 0 363 C-9 317 -36 209 -51 128 C-51 128 -51 128 -51 128 C-61 74 -82 -3 -60 -15 C-59 -15 -59 -16 -58 -16 L-58 -16 C-38 -25 -25 78 -25 78 L-25 78 C-23 90 -21 99 -21 99 C-20 104 -20 109 -19 115 L-19 115 L-18 117 L-18 117 C-17 123 -16 130 -15 136 C-14 138 -14 140 -14 141 L-14 141 L-3 199 L0 221 C0 221 0 221 0 219 C0 211 2 188 24 193 C25 194 25 194 26 194 C26 194 26 194 27 194 C36 197 44 203 49 207 C85 244 109 318 118 352 C119 352 124 372 124 376 C124 376 184 430 206 437 C205 438 205 438 205 438 L205 438 Z M82 329 C81 324 80 320 79 315 L79 315 L79 315 C63 251 36 187 14 195 L14 195 C14 195 14 195 14 195 C12 195 10 197 8 199 C5 202 3 205 3 210 C-6 252 86 343 86 343 L82 329 L82 329 Z M86 346 C54 314 25 279 7 249 L18 299 C18 299 18 299 18 299 L21 313 C21 313 21 313 21 313 L42 411 C52 420 63 428 74 434 C96 445 96 400 86 346 L86 346 Z " />
<glyph glyph-name="q" unicode="q" horiz-adv-x="214" d="M236 442 C236 442 235 442 235 442 C230 442 158 372 106 306 C108 319 110 332 113 345 C123 407 142 520 133 511 C120 494 104 459 104 454 C104 454 17 560 -20 340 C-36 245 -26 209 -6 209 C-6 209 -6 209 -6 209 C34 209 75 323 90 371 L81 316 L76 293 C57 203 26 44 32 -32 L32 -32 C32 -32 32 -32 32 -32 C32 -36 34 -51 50 -57 C51 -57 51 -57 51 -57 C52 -57 52 -57 52 -58 C63 -61 71 -52 75 -45 C86 -28 96 6 103 42 C114 96 115 151 109 218 C106 252 103 267 101 274 C102 283 103 292 105 302 C188 404 236 442 236 442 L236 442 Z M68 -48 C62 -49 83 132 93 223 C95 237 97 253 100 270 C136 79 76 -47 68 -48 L68 -48 Z M96 406 L94 395 C92 388 90 381 88 375 C80 347 71 323 71 323 C69 319 68 315 66 311 C49 273 0 169 10 278 C10 278 10 278 10 278 C12 312 17 350 23 383 C23 383 23 383 23 383 C50 523 104 452 104 452 L96 406 L96 406 Z " />
<glyph glyph-name="r" unicode="r" horiz-adv-x="204" d="M233 438 C232 438 231 436 229 434 C229 433 229 432 228 431 L228 431 C207 389 101 181 73 181 C59 181 66 265 83 356 L83 356 C83 356 89 381 96 411 L96 411 L96 411 C96 413 97 415 97 416 L100 429 C100 429 168 540 182 576 C183 580 184 585 181 585 C177 585 164 578 150 563 C128 539 101 503 85 469 C85 469 84 468 84 468 C84 468 84 468 84 468 C83 466 83 464 82 463 C82 462 81 461 81 461 C73 441 65 420 58 397 C9 355 42 442 67 500 L67 500 C69 504 70 508 72 511 C74 517 76 522 73 522 C68 522 50 505 41 488 C41 487 40 486 40 486 C40 486 40 486 40 486 C40 486 40 486 40 486 C25 456 11 422 4 394 C4 393 3 391 3 390 C3 389 3 389 3 389 C2 385 2 382 2 380 C3 350 57 395 57 395 L50 363 C50 361 49 359 49 358 C49 358 49 358 49 358 C49 357 48 356 48 356 C48 355 48 354 48 353 L47 351 C47 348 46 344 46 343 C45 341 45 340 45 338 C45 337 44 336 44 336 C44 335 44 335 44 335 C39 305 36 272 36 236 C36 205 39 185 45 174 L45 174 C79 109 233 438 233 438 C233 438 233 438 233 438 L233 438 Z M119 495 C145 560 174 582 180 584 L180 584 C180 584 180 584 180 584 C180 584 182 584 182 582 C182 582 182 582 182 582 C182 581 181 581 181 581 C181 580 181 580 181 580 C180 576 178 569 172 557 C157 528 131 484 115 457 C109 446 104 438 101 434 C107 457 114 480 119 495 L119 495 Z " />
<glyph glyph-name="s" unicode="s" horiz-adv-x="116" d="M39 329 L35 353 L33 360 C102 420 146 437 147 437 C145 438 143 438 140 437 C137 436 100 417 60 386 C51 378 40 369 33 363 C30 404 39 431 39 431 C47 463 66 503 80 494 C97 482 75 454 89 460 C103 466 89 501 72 501 C72 501 21 503 -1 426 C-10 395 -7 363 -1 333 L2 321 C2 321 -30 284 -29 237 C-29 196 -18 154 9 157 C11 157 13 158 14 158 C17 159 19 160 22 162 C56 183 49 264 42 308 C41 315 40 323 39 329 L39 329 Z M-2 161 C-2 161 -17 159 -25 211 C-26 218 -27 225 -27 231 C-27 231 -27 231 -27 231 L-27 231 C-27 239 -27 247 -26 253 C-25 258 -24 263 -23 267 C-22 271 -21 273 -21 273 L-21 273 C-16 289 -8 304 2 318 C6 301 11 285 14 270 C14 270 42 161 -2 161 L-2 161 Z " />
<glyph glyph-name="t" unicode="t" horiz-adv-x="112" d="M142 440 C141 440 140 439 139 438 C99 343 33 192 20 200 C9 207 -3 259 25 372 L25 372 L25 372 C26 378 28 384 29 390 C29 390 29 390 29 390 L32 398 C32 399 33 399 33 399 C36 400 38 401 40 402 C40 402 40 402 40 402 L40 402 C82 422 133 464 133 464 L133 464 C133 464 132 464 132 464 C132 464 132 464 132 464 C131 464 129 463 124 459 C124 459 124 459 124 459 C99 438 68 420 39 406 L39 406 C39 406 39 406 39 406 C38 406 37 405 36 405 C35 404 34 404 33 403 C49 461 75 531 113 617 C113 617 121 639 106 634 C106 634 105 633 105 633 C104 633 103 633 102 632 C99 630 95 625 93 622 C79 596 33 509 6 416 C4 411 2 403 0 396 C-27 391 -54 389 -40 383 C-31 380 -16 382 -2 386 C-2 385 -2 384 -2 383 C-2 383 -2 383 -2 383 L-8 360 C-8 359 -8 358 -8 358 C-10 350 -11 342 -12 335 C-12 335 -17 300 -17 263 C-16 241 -14 227 -11 218 C4 170 29 202 31 206 L31 206 L31 206 C31 206 31 206 31 206 C32 206 32 206 32 206 L32 206 C68 258 142 440 142 440 L142 440 Z " />
<glyph glyph-name="u" unicode="u" horiz-adv-x="124" d="M150 428 L150 428 C112 276 87 219 75 197 C70 189 59 171 53 184 C42 214 87 379 91 393 C92 399 92 400 90 399 C71 399 53 330 41 276 L36 255 C36 255 35 254 34 251 C31 244 22 228 13 215 C1 197 -14 178 -30 171 C-63 156 4 309 14 335 C14 335 14 335 14 335 C43 410 84 518 83 522 C83 522 83 522 83 522 C83 522 82 521 82 521 C80 520 77 518 75 517 C73 515 71 513 67 511 C66 510 65 510 64 509 C64 509 48 497 38 476 C5 401 -100 161 -56 161 C-14 161 23 225 35 248 C34 246 34 243 34 241 C33 241 29 215 30 204 C31 194 33 185 39 179 C49 169 59 174 66 181 L66 181 L66 181 C68 183 69 185 71 187 C75 194 79 201 83 210 C97 241 111 283 123 323 C140 381 152 433 152 433 C151 432 150 430 150 428 L150 428 Z " />
<glyph glyph-name="v" unicode="v" horiz-adv-x="128" d="M152 433 C150 428 120 276 61 256 C57 255 55 254 52 254 C49 254 46 253 43 253 C38 253 36 255 35 256 C35 256 35 256 35 256 C36 257 36 259 37 260 L37 260 L37 260 C61 322 85 397 93 431 C98 460 66 406 39 339 C11 272 31 256 31 256 L28 248 L28 248 C24 238 20 229 16 220 C3 190 -14 154 -9 191 C-9 191 -9 192 -9 192 C1 249 42 468 46 514 C46 519 45 523 41 519 C25 506 -1 477 -1 471 C-1 471 -42 165 -13 168 C-4 169 10 196 26 234 L32 249 L32 249 L33 253 L33 253 L33 253 L33 254 C35 252 42 251 42 251 C116 242 155 437 155 437 C154 437 153 435 152 433 L152 433 Z M86 431 C86 431 62 334 32 259 C24 271 18 309 86 431 L86 431 Z " />
<glyph glyph-name="w" unicode="w" horiz-adv-x="220" d="M240 433 C238 428 216 290 161 302 C158 302 155 304 152 305 L151 307 C151 306 152 306 152 305 C151 306 150 307 149 307 L151 307 C142 314 140 327 140 336 C156 361 171 386 181 402 C214 459 172 465 154 415 C141 379 139 354 138 342 L138 342 C138 342 138 342 138 342 C138 338 138 335 138 335 L130 323 L103 286 L103 286 L103 286 L86 262 C86 262 86 262 86 262 C81 255 80 259 80 264 L82 272 L82 272 L82 276 C87 320 120 437 95 416 C69 394 19 198 0 190 C-20 182 52 554 34 545 C16 536 -6 510 -7 501 C-7 501 -33 295 -28 203 C-27 189 -23 177 -14 177 C-2 177 6 191 10 197 C34 250 62 340 62 340 L60 323 L60 323 C60 323 59 321 59 317 L57 308 L57 308 C55 296 53 277 51 261 L51 261 C51 261 51 261 51 261 C51 260 51 260 51 260 C51 257 50 241 59 241 C68 241 79 249 86 259 C87 260 88 260 89 261 C89 261 89 262 89 262 C89 262 89 262 89 262 C100 276 109 290 109 290 C119 304 129 319 138 334 C139 326 140 320 141 317 L141 317 C141 317 141 317 141 317 C142 313 143 312 143 312 L143 312 C149 301 159 299 163 298 C221 294 242 436 242 437 C241 436 240 435 240 433 L240 433 Z M185 446 C197 446 191 417 150 354 C147 348 143 343 140 338 C142 381 177 446 185 446 L185 446 Z " />
<glyph glyph-name="x" unicode="x" horiz-adv-x="161" d="M30 177 L30 177 C110 116 193 437 193 437 C192 437 191 436 190 434 C189 430 90 82 50 226 C38 268 37 316 39 360 C93 426 178 493 181 515 C146 477 39 365 39 365 L40 383 C40 385 40 388 40 390 L41 391 L41 391 C47 484 59 551 -1 496 C-1 496 -2 494 -2 493 C25 516 13 460 13 460 L13 460 C13 454 11 448 10 440 C4 413 0 371 -1 328 L-1 307 C-1 307 -45 230 -52 168 C-52 168 -51 168 -51 168 C-44 170 -39 232 -1 302 C0 248 9 196 30 177 L30 177 Z " />
<glyph glyph-name="y" unicode="y" horiz-adv-x="200" d="M221 438 C220 437 187 418 141 355 C150 438 153 504 150 510 C150 510 110 489 104 448 C98 408 61 233 34 291 C7 350 66 529 50 521 C35 513 16 493 16 493 C16 493 -12 353 1 290 C1 290 7 262 25 262 C40 262 55 278 64 294 C65 296 66 298 67 301 C67 302 68 302 68 303 C93 360 110 454 110 454 L109 424 C109 417 109 409 108 399 L108 399 L108 399 C107 373 106 338 104 298 C78 255 51 200 23 129 C22 126 0 67 2 26 L2 26 C2 26 1 -16 36 -14 C52 -15 63 -2 69 7 C100 60 123 197 137 314 C138 329 141 352 141 352 C194 423 224 438 224 438 C223 438 221 438 221 438 L221 438 Z M103 280 C99 223 94 160 85 108 C82 91 78 68 72 46 C66 28 60 13 53 3 C47 -6 40 -12 32 -12 C1 -12 6 41 6 41 C16 143 104 295 104 295 L103 280 L103 280 Z " />
<glyph glyph-name="z" unicode="z" horiz-adv-x="187" d="M207 438 C199 436 157 426 98 327 C96 327 94 326 92 325 L66 314 L23 292 C23 292 142 433 171 502 C184 533 168 538 161 539 C160 539 159 539 159 539 L159 539 L159 539 C158 539 158 539 157 539 C133 538 102 523 68 502 C21 472 25 442 25 442 L25 442 C25 437 26 433 28 428 C35 411 36 421 40 438 C40 438 40 445 43 455 C44 456 45 459 47 463 C47 463 47 464 47 465 C50 471 56 481 65 491 C74 500 83 508 92 513 L92 513 C92 513 92 514 93 514 C95 515 98 517 100 518 C115 526 145 541 157 534 C167 528 146 486 111 430 C91 396 66 359 46 331 C46 330 45 329 45 328 C25 300 11 281 12 280 C13 277 62 300 83 300 C83 300 -51 -16 -23 -59 L-23 -59 C-23 -59 -18 -69 -2 -63 C-1 -62 -1 -62 -1 -62 C-1 -62 0 -62 0 -62 L0 -62 C11 -57 19 -47 19 -47 C62 10 123 178 128 269 C128 269 128 270 128 271 C128 280 128 288 127 295 C123 329 102 327 102 327 C165 436 213 438 217 438 C216 439 214 439 207 438 L207 438 Z M87 268 C87 267 87 265 86 264 C86 264 86 264 86 264 C86 264 86 264 86 264 C80 234 70 187 58 137 C58 137 58 137 58 137 C50 105 17 -61 -12 -61 C-41 -61 -16 28 22 136 C23 140 24 143 25 146 C57 238 82 288 87 298 C89 295 91 288 87 268 L87 268 Z " />
<glyph glyph-name="braceleft" unicode="&#x7b;" horiz-adv-x="186" d="M271 724 C271 735 151 760 141 613 C131 466 60 450 60 450 C181 428 42 285 27 171 C12 57 125 64 125 64 C125 64 24 61 96 248 C168 435 75 448 75 448 C75 448 159 456 186 609 C213 762 271 724 271 724 L271 724 Z " />
<glyph glyph-name="bar" unicode="&#x7c;" horiz-adv-x="151" d="M59 752 L45 74 L52 74 L65 752 L59 752 L59 752 Z " />
<glyph glyph-name="braceright" unicode="&#x7d;" horiz-adv-x="174" d="M-72 55 C-72 45 50 23 55 170 C61 318 131 336 131 336 C9 354 144 501 156 616 C167 730 54 720 54 720 C54 720 155 726 89 537 C23 348 116 337 116 337 C116 337 32 327 10 173 C-12 19 -72 55 -72 55 L-72 55 Z " />
<glyph glyph-name="asciitilde" unicode="&#x7e;" horiz-adv-x="220" d="M30 342 C30 342 27 339 27 334 C27 328 32 329 34 329 C36 329 76 362 106 340 C137 318 182 333 188 339 C195 346 184 342 184 342 C171 338 135 328 109 347 C84 366 30 342 30 342 L30 342 Z " />
<glyph glyph-name="logicalnot" unicode="&#xac;" horiz-adv-x="87" d="M9 246 L7 243 C7 243 13 271 16 287 C16 287 16 287 16 288 C26 333 37 379 50 422 L59 455 C59 455 143 552 130 599 C128 605 120 622 95 592 C95 592 95 592 95 592 C83 576 71 556 65 545 C64 543 63 541 62 539 L62 539 C62 539 62 539 62 539 C41 501 19 445 -3 367 C-15 325 -25 279 -32 227 C-44 135 -37 75 -22 41 C24 -51 68 71 68 71 L68 71 L65 71 C65 71 9 -68 -4 96 C-7 134 -2 183 7 236 L123 439 L119 439 L9 246 L9 246 Z M127 599 C136 564 93 500 61 459 C91 556 121 624 127 599 L127 599 Z " />
</font>
</svg>
