<?xml version="1.0" encoding="UTF-8"?>
<svg xmlns="http://www.w3.org/2000/svg" xmlns:xlink="http://www.w3.org/1999/xlink" version="1.2" >
<font id="Baltism Alt">
<font-face  font-family="Baltism Alt" units-per-em="1000" ascent="750" descent="-250" font-style="normal" font-weight="400" font-stretch="normal" cap-height="753" x-height="312" underline-position="-75" underline-thickness="50" />
<missing-glyph  horiz-adv-x="285" d="" />
<glyph glyph-name="NULL" d="" />
<glyph glyph-name="nonmarkingreturn" unicode="&#xd;" horiz-adv-x="285" d="" />
<glyph glyph-name="space" unicode="&#x20;" horiz-adv-x="285" d="" />
<glyph glyph-name="E" unicode="E" horiz-adv-x="569" d="M1992 631 Q1991 630 1988 629 Q1983 627 1976 623 L1930 601 Q1900 587 1857 570 Q1814 553 1760 536 Q1706 519 1643 503 Q1580 487 1511 476 Q1441 464 1367.5 456.5 Q1294 449 1219 446 Q1181 445 1144 444 Q1107 443 1070 444 Q1060 444 1051 444 Q1042 444 1033 445 Q1024 445 1014.5 445 Q1005 445 996 446 Q978 448 960 449.5 Q942 451 924 454 Q854 465 791.5 480.5 Q729 496 675 508 Q648 515 623 519.5 Q598 524 576 528 L555 531 Q550 532 545.5 532 Q541 532 536 532 Q532 533 525 533 L517 518 Q503 494 482 470 Q477 465 471.5 459.5 Q466 454 459 449 Q452 444 444.5 440.5 Q437 437 426 435 Q421 434 415 434.5 Q409 435 403 438 L398 441 Q395 442 394 445 Q392 447 390 449 Q388 451 386 453 Q381 461 379 475 Q379 487 383 495 Q386 504 391.5 511 Q397 518 402 524 Q408 529 414 533.5 Q420 538 426 543 L427 544 L428 544 Q428 544 432 546 L446 553 Q465 561 499 564 Q500 564 500.5 564.5 Q501 565 502 565 Q504 570 506 580 Q508 603 494 617 Q480 628 452 630 Q446 630 440 629.5 Q434 629 427 628 L415 625 Q412 624 409 624 Q406 624 402 622 Q352 608 310 574 Q289 557 271 538 Q267 533 263 528 Q259 523 255 517 L247 507 L240 496 Q211 449 206 398 Q203 374 211 351 Q216 339 222 332 L230 325 L236 322 L239 320 Q240 320 241 319.5 Q242 319 243 319 L251 316 L253 316 L255 316 L260 316 L269 316 L271 300 L274 283 Q265 281 255 278.5 Q245 276 237 273 L229 270 L222 267 L215 264 Q208 260 201 257 Q194 254 187 249 Q157 232 134 210 Q122 199 110.5 188 Q99 177 88 164 Q83 158 78 151.5 Q73 145 68 138 L49 111 L32 83 Q29 75 25 68 Q21 61 18 53 Q11 38 5.5 23 Q0 8 -4 -8 Q-8 -24 -10 -39.5 Q-12 -55 -11 -70 Q-9 -85 -5 -99.5 Q-1 -114 7 -126 Q15 -138 26 -147 Q37 -156 51 -160 Q78 -169 109 -161 Q140 -153 168 -137 Q182 -129 195.5 -120 Q209 -111 222 -101 Q235 -90 247.5 -79.5 Q260 -69 272 -57 Q296 -35 317 -9 Q339 17 356 44.5 Q373 72 383 102 L415 91 Q403 57 384.5 26.5 Q366 -4 343 -30 Q320 -57 295 -81 Q282 -93 269 -104.5 Q256 -116 242 -127 Q214 -150 184 -166 Q152 -184 116 -193 Q99 -198 79.5 -198 Q60 -198 41 -192 Q21 -187 5.5 -174 Q-10 -161 -21 -144 Q-32 -127 -37 -109 Q-42 -91 -44 -72 Q-46 -53 -43.5 -35 Q-41 -17 -36 0 Q-32 18 -26 34.5 Q-20 51 -12 67 Q-9 75 -5 83 Q-1 91 3 99 L21 129 L41 158 Q46 165 51.5 171.5 Q57 178 63 185 Q74 199 86.5 211.5 Q99 224 112 236 Q140 260 170 278 Q183 286 201 294 L210 298 L197 310 Q192 316 187.5 323.5 Q183 331 180 339 Q174 355 172.5 370.5 Q171 386 172 401 Q176 431 185.5 459.5 Q195 488 211 513 L219 525 L228 537 Q235 548 247 560 Q257 571 267.5 581 Q278 591 289 600 Q312 618 338 632 Q364 646 393 654 Q398 656 408 658 L423 661 Q431 662 438 662.5 Q445 663 453 663 Q461 662 469 661 Q477 660 485 658 Q502 653 516 642 L522 635 L528 627 L532 620 Q533 618 534 615.5 Q535 613 535 611 Q541 593 538 576 Q538 574 537.5 571 Q537 568 537 566 L559 564 Q573 562 581 560 Q604 557 629.5 552 Q655 547 682 541 Q737 528 799 513 Q861 498 929 487 Q946 484 963.5 482.5 Q981 481 998 479 Q1007 479 1016 478.5 Q1025 478 1034 478 Q1043 478 1052 477.5 Q1061 477 1070 477 Q1107 476 1143.5 477 Q1180 478 1217 479 Q1292 482 1364 489.5 Q1436 497 1505 509 Q1574 520 1635.5 535 Q1697 550 1750 567 Q1803 584 1845 601 Q1887 618 1916 632 L1961 653 L1977 661 L1992 631 Z M458 493 Q473 509 485 529 Q468 526 458 521 Q454 520 451.5 519 Q449 518 447 517 L444 515 Q439 512 434.5 508.5 Q430 505 426 500 Q417 493 414 483 Q412 477 412 476 L414 472 Q414 471 415 471 Q415 470 416 469 L417 469 L417 468 L422 468 Q429 470 440 476 L458 493 Z " />
<glyph glyph-name="F" unicode="F" horiz-adv-x="530" d="M747 632 Q747 631 745 631 Q743 630 741 630 Q739 630 737 629 Q728 624 710 620 Q693 615 667.5 609.5 Q642 604 611 600 Q595 598 578 597 Q561 596 544 595 Q535 594 525.5 594 Q516 594 507 594 Q497 594 488 594 Q479 594 469 595 Q429 597 389 601.5 Q349 606 308 611 Q267 617 230 617 Q210 616 192.5 613 Q175 610 159 603 Q126 589 105 565 Q100 559 96 553 Q92 547 90 541 Q85 531 85 518 Q86 509 92 505 Q99 501 106 502 Q115 502 123 505.5 Q131 509 136 514 Q142 519 146 523 Q150 527 152 530 Q154 534 155 535 Q156 536 156 537 L185 521 Q185 520 184 518 Q183 516 182 514.5 Q181 513 179 511 Q176 506 170.5 500 Q165 494 157 487 Q148 481 136 475 Q130 473 123 471 Q116 469 108 468 Q100 468 91 469.5 Q82 471 72 478 Q63 484 58 494 Q53 504 52 515 Q51 534 59 554 Q66 572 80 587 Q108 618 146 634 Q184 650 229 650 Q250 651 271 649 Q292 647 312 645 Q354 640 393 635 Q432 630 470 628 Q480 627 489 627 Q498 627 507 627 Q516 627 525 627 Q534 627 542 628 Q560 629 576 630 Q592 631 607 633 Q636 637 660 642 Q684 647 701 652 Q709 654 715 656 Q721 658 726 660 L735 663 L747 632 Z M154 313 Q154 313 155 313 L154 313 Z M264 329 Q284 331 303.5 332 Q323 333 338 335 Q356 337 372 338 L375 305 Q359 304 341 302 Q326 300 307 298.5 Q288 297 268 295 Q254 293 240.5 292 Q227 291 215 290 L-14 -186 L-45 -171 L176 285 Q174 284 171 284 L170 284 L156 314 Q158 315 160 316 Q162 317 165 317 Q170 318 176 318.5 Q182 319 190 320 Q192 320 193 321 L322 587 L352 572 L232 325 Q240 326 248 326.5 Q256 327 264 329 Z " />
<glyph glyph-name="G" unicode="G" horiz-adv-x="535" d="M1673 13 L1658 1 Q1651 -4 1640.5 -12 Q1630 -20 1616 -30 Q1602 -39 1584.5 -49.5 Q1567 -60 1546 -71 Q1504 -94 1450 -113 Q1395 -133 1329.5 -146.5 Q1264 -160 1192 -163 Q1156 -165 1119 -164 Q1082 -163 1044 -160 Q1006 -157 969 -152 Q932 -147 894 -140 Q856 -134 819 -125.5 Q782 -117 745 -109 Q709 -100 673.5 -91 Q638 -82 604 -74 Q569 -66 536 -58.5 Q503 -51 471 -46 Q408 -36 351 -34 Q319 -33 291 -34 L261 -78 Q252 -90 242.5 -102 Q233 -114 222 -125 Q200 -148 173 -166 Q146 -184 111 -189 Q102 -190 93 -189.5 Q84 -189 73 -186 Q68 -184 63.5 -181 Q59 -178 55 -174 Q47 -168 42 -155 Q38 -145 38.5 -135 Q39 -125 41 -116 Q45 -98 56 -83 Q61 -78 65.5 -73 Q70 -68 75 -63 Q89 -51 105.5 -42.5 Q122 -34 140 -28 Q157 -22 174 -18 Q191 -14 208 -11 Q223 -9 238 -7 Q253 -5 268 -4 L273 3 L279 12 L279 13 Q292 32 303.5 51.5 Q315 71 326 91 Q300 73 271 61 Q250 53 226.5 48 Q203 43 180 44 Q156 45 132.5 52 Q109 59 89 73 Q66 89 54 111 Q48 122 44.5 134 Q41 146 39 158 Q37 170 37 181.5 Q37 193 37 204 L39 227 L42 250 Q50 295 66.5 337 Q83 379 106 417 Q129 455 158 489.5 Q187 524 219 554 Q252 584 290 609 Q328 634 372 648 Q395 655 417.5 659 Q440 663 464 662 Q489 662 511 655 Q522 652 533.5 647 Q545 642 556 634 Q566 627 575 615 Q583 601 586 590 Q590 576 589 562.5 Q588 549 584 538 Q577 514 564.5 494 Q552 474 538 456 L511 479 Q524 495 534.5 512 Q545 529 550 547 Q553 556 553.5 564.5 Q554 573 552 581 Q549 595 535 606 Q522 616 501 621 Q492 624 482.5 625 Q473 626 463 627 Q421 627 383 614 Q344 601 309 579 Q274 557 243 528 Q212 499 185 466.5 Q158 434 136 399 Q114 363 99 324 Q84 285 77 244 L74 223 Q73 218 73 213 Q73 208 73 203 Q71 180 74 163 Q80 122 109 102 Q124 91 142.5 86 Q161 81 181 79 Q201 78 220 82 Q239 86 258 94 Q296 109 327.5 136 Q359 163 379 198 L411 181 Q391 136 367 92 Q343 48 317 6 L311 -3 L324 -3 L338 -3 Q348 -3 353 -4 Q382 -5 413 -8 Q444 -11 476 -17 Q540 -28 611 -44 L752 -80 Q788 -89 825 -96.5 Q862 -104 899 -111 Q936 -118 973 -123 Q1010 -128 1047 -130 Q1084 -134 1120 -135 Q1156 -136 1191 -134 Q1261 -131 1324 -118 Q1387 -105 1440 -85 Q1491 -67 1532 -45 Q1552 -34 1569 -24 Q1586 -14 1600 -5 Q1613 4 1623 11.5 Q1633 19 1640 25 Q1648 31 1650 33 Q1652 35 1654 36 L1673 13 Z M240 -38 Q186 -46 154.5 -59 Q123 -72 111 -80 L104 -85 Q102 -87 101 -88 Q100 -89 99 -90 Q98 -91 97 -91 Q89 -97 85 -104 Q78 -112 75 -124 Q73 -129 73.5 -134 Q74 -139 75 -143 L79 -149 L85 -152 Q95 -156 106 -154 Q112 -153 118.5 -151.5 Q125 -150 131 -147 Q142 -143 154 -136 Q175 -122 196 -101 Q207 -90 216.5 -77.5 Q226 -65 236 -52 L240 -46 L246 -38 L240 -38 Z " />
<glyph glyph-name="H" unicode="H" horiz-adv-x="670" d="M549 246 Q554 244 557.5 244 Q561 244 564 243 Q568 242 570 242 L564 209 Q562 209 558 210 Q555 211 550.5 211 Q546 211 541 213 Q539 213 537.5 213.5 Q536 214 534 214 L337 -203 L307 -188 L499 219 Q488 220 475 222 Q454 224 428 226 Q402 228 373 229 Q344 230 310.5 228.5 Q277 227 241 222 Q233 220 223.5 218 Q214 216 205 214 Q186 180 167.5 145 Q149 110 129 74 Q118 53 106.5 31.5 Q95 10 83 -12 Q77 -23 71.5 -34 Q66 -45 60 -56 Q54 -67 48 -77.5 Q42 -88 35 -99 Q21 -121 7.5 -141.5 Q-6 -162 -22 -182 Q-24 -185 -26 -187.5 Q-28 -190 -30 -193 Q-37 -201 -50 -204 Q-62 -207 -73 -201 Q-83 -197 -88 -183 Q-90 -178 -90 -174 Q-90 -170 -91 -166 L-91 -152 Q-90 -146 -90 -139.5 Q-90 -133 -89 -127 Q-80 -29 -40 62 Q-30 84 -18.5 104.5 Q-7 125 9 144 Q24 162 42 177 Q60 192 80 203 Q118 225 159 237 Q165 239 171 240.5 Q177 242 182 243 Q184 247 186 250.5 Q188 254 190 258 Q212 299 233 338 Q254 377 274 415 Q285 434 294.5 452 Q304 470 313 488 Q323 505 332 521.5 Q341 538 347 555 Q349 563 351.5 570.5 Q354 578 355 586 Q356 594 356 601.5 Q356 609 354 614 Q352 620 350 621 Q348 623 345 624 Q335 626 323 621 Q310 617 299.5 611 Q289 605 280 597 Q272 589 265 580.5 Q258 572 253 564 Q248 557 244 548 Q240 538 239 534 Q237 527 237 521.5 Q237 516 237 512 Q238 508 239 506.5 Q240 505 241 503 L242 502 L220 477 L219 478 Q217 479 214 484 Q207 491 204 507 Q203 515 203.5 523.5 Q204 532 207 542 Q208 547 209.5 552 Q211 557 213 562 Q216 567 218.5 572 Q221 577 224 582 Q236 602 258 622 Q269 632 282.5 640 Q296 648 313 653 Q321 655 330.5 657 Q340 659 352 657 Q357 655 363 652.5 Q369 650 374 645 Q379 640 381.5 634 Q384 628 386 623 Q389 612 389 602 Q389 597 389 592 Q389 587 388 582 Q385 561 378 543 Q370 524 361 506.5 Q352 489 343 472 Q333 454 323.5 436 Q314 418 304 399 Q285 364 265 327.5 Q245 291 225 253 Q228 253 231 253.5 Q234 254 236 254 Q274 260 308.5 261.5 Q343 263 374 263 Q405 262 431 259.5 Q457 257 479 255 Q489 253 497.5 252.5 Q506 252 514 251 L702 649 L733 634 L549 246 Z M100 90 Q116 119 131 146.5 Q146 174 160 202 Q125 191 97 174 Q60 154 34 122 Q8 90 -10 48 Q-47 -37 -56 -130 Q-56 -136 -56.5 -142 Q-57 -148 -57 -154 Q-58 -158 -58 -164 Q-58 -171 -56 -171 L-55 -171 Q-53 -169 -51.5 -166.5 Q-50 -164 -48 -162 Q-21 -126 6 -82 Q19 -61 30 -40 Q36 -29 42 -18 Q48 -7 54 4 Q65 26 77 47 Q89 68 100 90 Z " />
<glyph glyph-name="I" unicode="I" horiz-adv-x="260" d="M321 631 Q322 621 321 612 Q319 594 306.5 566 Q294 538 287.5 525 Q281 512 274 498 Q260 471 247 443.5 Q234 416 220 388 Q164 278 112 173.5 Q60 69 18 -14 Q-30 -111 -73 -197 L-103 -182 Q-59 -96 -11 1 Q201 430 234 491 Q267 552 288 615 Q288 622 288 624 Q287 627 287 627 Q287 627 286.5 627.5 Q286 628 285 628 L274 626 Q242 609 233 601 Q212 587 194.5 571.5 Q177 556 163 539 Q135 505 123.5 471.5 Q112 438 111 414 Q110 402 111 393 Q112 384 114 378 Q115 372 117 369 L117 367 Q117 366 118 366 L86 354 L86 355 Q86 356 85.5 356 Q85 356 85 358 Q83 362 82 370 Q77 388 77 416 Q79 447 92 484 Q108 523 137 560 Q192 620 231 640.5 Q270 661 296 659 Q316 656 321 631 Z " />
<glyph glyph-name="J" unicode="J" horiz-adv-x="525" d="M582 553 Q572 551 563.5 550.5 Q555 550 547 549 Q509 475 469 399 Q429 323 391 244 Q351 163 310.5 83.5 Q270 4 220 -67 Q207 -84 193.5 -101 Q180 -118 165 -133 Q133 -165 96 -182 Q74 -192 53 -193 Q31 -195 11 -187 Q-10 -180 -26 -166 Q-42 -152 -51 -135 Q-61 -117 -64 -99 Q-67 -81 -67 -64 Q-66 -47 -63.5 -32 Q-61 -17 -57 -3 Q-49 25 -39.5 47.5 Q-30 70 -22 88 Q-13 107 -5 120.5 Q3 134 9 143 Q13 151 17 157 Q19 160 20 162 L48 144 Q47 142 45 139 Q43 137 41 134 Q39 131 37 126 Q27 109 8 74 Q0 57 -9 35.5 Q-18 14 -25 -11 Q-33 -38 -33 -65 Q-33 -72 -33 -79 Q-33 -86 -31 -93 Q-30 -100 -27.5 -106 Q-25 -112 -22 -119 Q-15 -131 -4 -140.5 Q7 -150 21 -155 Q35 -161 51 -159 Q59 -159 66.5 -157 Q74 -155 82 -152 Q113 -137 141 -109 Q155 -95 167.5 -79.5 Q180 -64 193 -47 Q216 -13 238 24 Q260 61 281 99 Q301 138 321 178 Q341 218 361 259 Q397 334 435 406.5 Q473 479 509 549 L480 549 L421 549 L327 549 L244 549 L244 582 L327 582 L421 582 L479 582 L525 582 Q528 587 530 592 Q532 597 535.5 602.5 Q539 608 543 613 Q551 623 559.5 630 Q568 637 578 644 Q597 657 621 661 Q633 664 646 661 Q654 660 662 655 Q670 648 673 640 Q677 632 675 621 Q672 612 669 607 Q664 598 655 589 Q651 585 647 581.5 Q643 578 638 575 Q637 574 633 572 L630 570 L628 569 Q626 568 623.5 567 Q621 566 619 565 Q602 558 582 553 Z M596 615 Q579 605 569 592 Q565 588 564 584 Q575 586 585 588.5 Q595 591 606 596 Q608 597 614 599 L616 600 L617 601 Q619 601 619 603 Q625 606 631 612 Q634 615 636.5 618 Q639 621 641 624 L642 628 L640 628 Q634 630 626 628 Q613 627 596 615 Z " />
<glyph glyph-name="K" unicode="K" horiz-adv-x="480" d="M361 384 Q313 346 268 310.5 Q223 275 188 247 Q168 231 152.5 219 Q137 207 126 199 Q127 197 128 194 Q129 191 131 187 Q134 179 137.5 167.5 Q141 156 145 142 Q153 113 162 77 Q171 41 182 4 Q188 -14 194 -31.5 Q200 -49 207 -65 Q221 -98 238 -118 Q253 -137 269 -144 Q271 -145 272 -146 Q273 -147 274 -147 Q278 -149 278 -149 Q279 -150 281 -150 L282 -150 L272 -182 L271 -182 Q269 -182 267 -180 Q265 -179 264 -179 Q263 -179 261 -178 Q257 -177 253 -174 Q244 -169 233.5 -160.5 Q223 -152 212 -139 Q192 -114 176.5 -78.5 Q161 -43 150 -5 Q139 33 130 69 Q121 105 113 132 Q109 146 105.5 156 Q102 166 100 174 Q68 114 38 60 Q8 6 -21 -39 Q-44 -75 -65 -104 Q-86 -133 -106 -151 Q-126 -171 -140 -178 Q-143 -180 -146.5 -181 Q-150 -182 -152 -183 Q-154 -184 -156 -184 L-157 -184 L-164 -152 Q-164 -152 -162 -151 Q-160 -150 -158.5 -150 Q-157 -150 -155 -148 Q-146 -144 -129 -128 Q-112 -111 -92 -83.5 Q-72 -56 -49 -21 Q-3 51 47.5 146 Q98 241 149 344 Q175 395 200 445 Q225 495 249 543 Q255 555 260.5 566 Q266 577 269 588 Q272 599 270.5 604.5 Q269 610 263 617 Q257 623 248 626 Q239 629 230 630 Q225 630 220.5 630 Q216 630 211 629 Q206 628 201.5 627.5 Q197 627 192 625 Q153 614 136 591 Q126 578 120.5 566 Q115 554 111 543 Q105 522 105 509 Q104 505 104 500 L104 497 L71 497 L71 500 L71 512 Q72 519 73.5 529.5 Q75 540 80 553 Q84 566 90.5 581 Q97 596 109 611 Q123 628 142 639.5 Q161 651 183 657 Q196 661 206 662 Q212 663 218.5 663.5 Q225 664 233 663 Q246 662 260 657 Q274 652 286 641 Q291 635 296 628 Q298 626 298.5 624.5 Q299 623 300 621 Q301 619 302 616.5 Q303 614 303 612 Q305 603 304 594.5 Q303 586 301 579 Q297 564 291 551.5 Q285 539 279 528 Q255 480 230 430 Q205 380 179 329 Q169 309 160 290.5 Q151 272 141 253 Q147 258 153 263 Q159 268 167 273 Q202 301 247 336.5 Q292 372 340 410 Q387 448 431.5 483.5 Q476 519 511 548 Q529 562 543 574 Q557 586 568 594 Q580 604 590 611 L611 585 Q601 578 589 568 Q578 560 563.5 548 Q549 536 532 522 Q497 493 452.5 457.5 Q408 422 361 384 Z " />
<glyph glyph-name="L" unicode="L" horiz-adv-x="461" d="M1592 -22 L1590 -24 Q1589 -25 1587.5 -26 Q1586 -27 1584 -29 Q1580 -32 1574.5 -37 Q1569 -42 1561 -47 Q1546 -59 1523 -74.5 Q1500 -90 1468 -107 Q1436 -123 1397 -139.5 Q1358 -156 1310 -170 Q1263 -184 1209.5 -195.5 Q1156 -207 1096 -215 Q1036 -223 971 -226 Q906 -229 837 -226 Q820 -224 802 -222.5 Q784 -221 767 -219 Q749 -217 731.5 -213.5 Q714 -210 696 -207 Q661 -200 625 -192.5 Q589 -185 553 -177 L516 -168 L480 -161 Q462 -157 443.5 -153.5 Q425 -150 406 -147 Q368 -141 330 -135 Q292 -129 253 -124 Q217 -119 181.5 -114 Q146 -109 111 -111 Q96 -134 81 -152 Q65 -170 50 -182 L32 -195 Q27 -198 21.5 -200.5 Q16 -203 11 -205 Q5 -207 -1 -208 Q-7 -209 -14 -210 Q-21 -210 -27.5 -209 Q-34 -208 -42 -204 Q-49 -201 -56 -194 Q-63 -186 -64 -177 Q-65 -172 -64.5 -168 Q-64 -164 -63 -159 Q-62 -153 -57 -145 Q-54 -140 -50 -135.5 Q-46 -131 -41 -126 Q-38 -123 -32 -119 Q-30 -117 -27.5 -116 Q-25 -115 -23 -113 Q-3 -100 16 -93 Q34 -86 52.5 -82 Q71 -78 90 -76 Q101 -57 110.5 -37.5 Q120 -18 130 2 Q163 73 194.5 142.5 Q226 212 255 281 Q269 315 283.5 348.5 Q298 382 312 415 Q326 447 341 477.5 Q356 508 374 537 Q350 540 327.5 542.5 Q305 545 284 547 Q264 549 245.5 550.5 Q227 552 210 552 Q175 552 149 549.5 Q123 547 105 544 Q96 543 89.5 542 Q83 541 78 540 Q72 538 71 538 L69 538 L62 573 Q62 574 64 574 Q68 574 71 575 L100 580 Q119 583 146.5 585.5 Q174 588 210 588 Q227 587 247 586 Q267 585 288 583 L378 573 L396 571 Q404 584 417 599 Q428 613 440.5 625 Q453 637 469 647 Q485 656 503 661 L508 662 L513 663 Q516 664 523 664 Q528 664 532.5 663.5 Q537 663 542 662 Q551 660 560.5 656 Q570 652 578 644 Q588 635 591 623 Q592 619 592 611 Q592 603 591 599 Q588 588 581.5 580 Q575 572 568 566 Q556 557 539 549 Q525 542 509.5 539 Q494 536 480 534 Q466 532 452 532 Q438 532 425 533 Q421 534 414 534 L407 523 Q372 466 345 400.5 Q318 335 288 266 Q259 197 227.5 127.5 Q196 58 162 -13 Q155 -28 147.5 -43.5 Q140 -59 132 -75 Q164 -76 195.5 -79.5 Q227 -83 258 -88 Q334 -98 412 -112 Q431 -115 449.5 -118 Q468 -121 487 -125 L524 -134 Q541 -137 560 -142 Q597 -150 632.5 -157.5 Q668 -165 703 -172 Q720 -175 737.5 -178.5 Q755 -182 772 -184 L839 -190 Q906 -193 969.5 -190 Q1033 -187 1091 -179 Q1150 -171 1202.5 -160.5 Q1255 -150 1300 -136 Q1346 -122 1383.5 -106 Q1421 -90 1452 -75 Q1481 -59 1503.5 -44.5 Q1526 -30 1540 -19 Q1547 -14 1552 -9 Q1557 -4 1561 -1 Q1563 0 1566 3 Q1567 4 1568 4 L1592 -22 Z M488 616 Q474 608 461.5 595.5 Q449 583 438 569 Q460 567 477 570 Q502 572 524 582 Q529 584 534.5 587 Q540 590 545 594 Q554 602 556 608 L556 612 L556 614 Q556 616 553 619 Q551 621 545.5 623 Q540 625 535 627 Q531 628 523 628 L517 628 L515 627 L512 626 Q506 624 499.5 622 Q493 620 488 616 Z M28 -154 Q35 -148 41.5 -142 Q48 -136 54 -129 L64 -116 Q55 -118 46 -120.5 Q37 -123 29 -127 Q12 -133 -3 -143 Q-5 -144 -7 -145 Q-9 -146 -11 -148 L-17 -153 Q-22 -157 -26 -163 Q-30 -170 -28 -170 L-28 -171 Q-28 -171 -26 -172 Q-22 -174 -16 -174 Q-8 -174 -2 -171 Q2 -169 5.5 -167.5 Q9 -166 13 -164 L28 -154 Z " />
<glyph glyph-name="M" unicode="M" horiz-adv-x="935" d="M928 501 Q918 453 901.5 407.5 Q885 362 865 318 Q845 274 823.5 232 Q802 190 780 148 Q735 64 696.5 -21 Q658 -106 623 -194 L592 -182 Q627 -93 666 -7 Q705 79 750 164 Q772 206 793.5 247.5 Q815 289 835 332 Q855 375 870.5 418.5 Q886 462 895 507 L897 518 Q898 521 898 524 Q898 527 899 529 Q899 534 899.5 539 Q900 544 899 549 Q899 557 895 567 Q892 573 887 577 Q882 580 873 579.5 Q864 579 854 576 Q849 574 844 572 Q839 570 834 568 Q831 566 828.5 565 Q826 564 824 563 Q821 561 818.5 560 Q816 559 814 558 Q774 535 741 503.5 Q708 472 679 435 Q621 361 573 281 Q525 201 478 118 L448 134 Q493 218 533.5 302.5 Q574 387 611 474 Q620 495 626 516 Q628 527 629.5 537.5 Q631 548 630 558 Q629 563 628.5 567 Q628 571 626 575 Q621 583 616 587 Q608 593 601 594 Q594 597 583 595 Q563 593 544 584 Q534 579 525 573.5 Q516 568 507 561 Q489 547 474 530.5 Q459 514 445 496 Q417 459 396 417.5 Q375 376 354 333 L273 170 Q271 165 268 159 Q265 153 263 148 Q225 65 185 -15.5 Q145 -96 102 -176 L72 -160 L240 179 L243 184 Q259 219 274 255 Q289 291 304 326 Q312 347 320 368 Q328 389 336 410 Q341 421 344.5 431 Q348 441 352 452 L359 473 Q361 478 362.5 483.5 Q364 489 366 494 Q372 514 376 535 Q380 556 378 576 Q376 585 373.5 593.5 Q371 602 366 608 Q354 621 337 626 Q319 631 299 626 Q279 623 260 614 Q250 609 241 604.5 Q232 600 223 594 Q215 588 206.5 581.5 Q198 575 190 567 Q173 553 158.5 537 Q144 521 132 503 Q108 468 97 428 Q95 417 93.5 407.5 Q92 398 92 387 Q92 366 98 348 Q104 329 116 319 Q129 310 149 310 L149 276 Q135 276 121.5 280 Q108 284 96 292 Q85 301 77.5 313 Q70 325 66 337 Q59 361 59 387 Q58 399 60 411.5 Q62 424 65 435 Q71 459 81 480.5 Q91 502 105 522 Q133 562 167 592 Q177 600 185.5 607 Q194 614 205 621 Q223 634 246 645 Q270 655 293 659 Q306 661 318.5 661.5 Q331 662 345 659 Q372 651 392 630 Q401 619 405 605.5 Q409 592 411 580 Q414 555 409 530 Q406 511 400 489 L418 516 Q447 555 486 587 Q496 595 507 602 Q518 609 529 614 Q541 619 553.5 623 Q566 627 580 628 Q595 630 609 627 Q613 625 616.5 624.5 Q620 624 623 622 Q627 620 630 617.5 Q633 615 637 613 Q649 604 656 589 Q661 577 663 561 Q665 547 663 534 Q661 521 658 508 Q655 496 651 484 Q647 472 642 461 Q637 449 632 437.5 Q627 426 622 414 Q630 425 637.5 435 Q645 445 653 456 Q668 475 684.5 493 Q701 511 718 528 Q737 545 756 560 Q775 575 798 587 Q809 593 820 598 Q831 603 844 607 Q856 611 871 613 Q879 613 887 612 Q895 611 903 606 Q919 596 926 581 Q932 566 932 552 Q934 538 932 526 Q931 522 931 519 Q931 516 930 513 L928 501 Z " />
<glyph glyph-name="N" unicode="N" horiz-adv-x="742" d="M701 386 L648 273 L435 -177 L405 -163 L617 288 L671 400 L697 456 Q704 470 709.5 484 Q715 498 720 512 Q724 526 726 539.5 Q728 553 726 565 Q723 577 717 586 Q709 596 698 600 Q687 606 674 608 Q661 610 647 608 Q633 606 619.5 602 Q606 598 592 593 Q537 569 489 532 Q440 495 400 449 Q358 404 323.5 354 Q289 304 257 250 Q254 246 250 238 Q199 128 144 21 Q89 -86 33 -193 L3 -179 Q53 -68 105 40.5 Q157 149 220 254 Q260 339 298 428 Q306 448 313.5 467 Q321 486 327 505 Q331 515 333.5 524.5 Q336 534 338 545 Q339 550 339.5 554.5 Q340 559 341 564 L341 582 Q340 591 338 599.5 Q336 608 332 613 Q327 619 322 622 Q319 624 316 625 Q313 626 308 626 Q300 627 291.5 625 Q283 623 273 620 Q264 617 255 613.5 Q246 610 236 606 Q201 588 170.5 561.5 Q140 535 119 501 Q108 484 101 466 Q94 448 92 429 Q89 411 92.5 393.5 Q96 376 107 364 L83 341 Q74 351 68.5 362.5 Q63 374 60 386 Q57 398 56.5 410 Q56 422 58 434 Q65 480 91 519 Q115 557 148.5 586.5 Q182 616 222 636 Q232 641 242 645 Q252 649 263 652 Q274 656 285.5 658.5 Q297 661 311 659 Q322 659 338 652 Q350 645 359 633 Q367 621 370 608.5 Q373 596 374 584 Q375 578 374.5 572 Q374 566 374 561 Q373 555 372.5 549 Q372 543 370 538 Q368 527 365.5 516.5 Q363 506 359 495 Q353 475 345.5 456 Q338 437 330 418 Q341 432 352 445 Q363 458 375 472 Q396 495 419 517 Q442 539 468 559 Q494 579 521.5 594.5 Q549 610 579 624 Q594 630 610 634.5 Q626 639 643 641 Q660 643 678 641 Q696 639 713 630 Q731 622 743 606 Q749 598 753 589 Q757 580 759 571 Q762 552 759.5 535 Q757 518 752 502 Q747 486 740.5 471 Q734 456 727 442 L701 386 Z " />
<glyph glyph-name="O" unicode="O" horiz-adv-x="790" d="M633 96 Q621 88 601 78 Q552 12 492 -44 Q485 -50 479 -56 Q473 -62 467 -67 Q461 -72 454.5 -78 Q448 -84 442 -89 Q435 -94 429 -99 Q423 -104 416 -109 Q409 -114 402.5 -118.5 Q396 -123 389 -128 Q333 -163 274 -184 Q245 -195 214 -202 Q184 -208 152 -205 Q122 -203 93.5 -193 Q65 -183 42 -163 Q19 -146 5 -119 Q-3 -107 -7 -94.5 Q-11 -82 -14 -69 Q-20 -43 -20 -19 Q-20 5 -18 27 Q-13 72 -2 109 Q9 146 22 175 Q35 204 47.5 225.5 Q60 247 71 261 Q76 268 80 273 Q84 278 87 281 Q89 283 89.5 284 Q90 285 91 286 L93 288 L118 266 L112 260 Q110 257 106.5 252 Q103 247 98 241 Q88 228 76 208.5 Q64 189 53 161 Q40 134 30 99.5 Q20 65 15 24 Q13 3 13 -18.5 Q13 -40 18 -61 Q23 -85 34 -103 Q45 -123 63 -138 Q81 -153 105 -161.5 Q129 -170 155 -172 Q181 -174 208 -169 Q222 -166 235.5 -162 Q249 -158 263 -153 Q290 -142 317.5 -129.5 Q345 -117 371 -100 Q377 -95 383.5 -91.5 Q390 -88 396 -83 Q402 -78 408 -73 Q414 -68 421 -63 L445 -42 Q451 -37 457 -31.5 Q463 -26 469 -20 Q487 -3 505 16 Q523 35 540 55 Q524 51 506 48.5 Q488 46 468 47 Q458 48 448.5 48.5 Q439 49 429 51 Q418 52 407.5 54 Q397 56 386 58 Q365 63 342 69.5 Q319 76 296 87 Q273 98 251 112.5 Q229 127 209 147 Q189 167 172 190.5 Q155 214 143 242 Q141 246 140 249 Q139 252 137 256 Q135 260 134.5 263.5 Q134 267 132 271 Q131 275 130 278.5 Q129 282 128 286 Q128 288 127.5 290 Q127 292 127 294 L126 302 Q123 318 123.5 334 Q124 350 126 366 Q131 398 144 428.5 Q157 459 175 487 Q212 542 268 584 Q295 605 326 621.5 Q357 638 392 648 Q426 659 463 661 Q500 663 536 655 Q572 647 605.5 629.5 Q639 612 666 585 Q679 572 690.5 556.5 Q702 541 710 524 Q727 488 730 451 Q734 413 729 377 Q724 341 713 306 Q704 271 691 238 Q678 205 661 173 Q656 165 651.5 156.5 Q647 148 642 140 L661 116 Q660 116 659 115 Q656 112 654 111 Q646 105 633 96 Z M532 87 Q558 94 579 104 Q593 124 606.5 145 Q620 166 631 189 Q664 251 681 315 Q691 348 696 381.5 Q701 415 697 448 Q695 465 691 480 Q687 495 680 510 Q672 524 663 537.5 Q654 551 642 562 Q619 585 590 600 Q561 615 529 622 Q497 630 464.5 627.5 Q432 625 401 616 Q370 607 342 592 Q314 577 288 558 Q263 538 241.5 516 Q220 494 203 468 Q186 443 175 416 Q164 389 159 361 Q155 335 158 307 L159 300 L161 294 Q162 289 164 281 Q166 276 168 268 Q172 260 173 256 Q196 206 232 171 Q267 136 309.5 117.5 Q352 99 393 90 Q404 88 413.5 86.5 Q423 85 433 84 Q443 82 452.5 81.5 Q462 81 470 80 Q487 79 502.5 81.5 Q518 84 532 87 Z " />
<glyph glyph-name="P" unicode="P" horiz-adv-x="760" d="M2294 -55 Q2297 -56 2301 -56 Q2302 -56 2303 -57 L2297 -86 L2295 -86 Q2294 -86 2288 -84 Q2283 -83 2276.5 -82 Q2270 -81 2262 -79 Q2245 -76 2219.5 -72 Q2194 -68 2161 -63 Q2129 -59 2089 -54 Q2083 -54 2080 -53 Q2077 -53 2074.5 -52.5 Q2072 -52 2069 -52 Q2064 -52 2059 -51.5 Q2054 -51 2048 -50 Q2037 -49 2026.5 -48 Q2016 -47 2004 -46 Q1959 -43 1907.5 -41 Q1856 -39 1799 -39 Q1743 -40 1682.5 -43 Q1622 -46 1557 -52 Q1553 -53 1549.5 -53.5 Q1546 -54 1541 -54 Q1537 -55 1533.5 -55 Q1530 -55 1525 -56 Q1517 -57 1508.5 -58 Q1500 -59 1492 -60 Q1484 -62 1476 -62.5 Q1468 -63 1459 -65 Q1453 -65 1443 -67 Q1441 -67 1439 -67.5 Q1437 -68 1435 -68 Q1433 -69 1430.5 -69 Q1428 -69 1426 -70 Q1410 -71 1392 -76 Q1386 -76 1376 -78 Q1371 -80 1367.5 -80 Q1364 -80 1359 -82 Q1350 -84 1341.5 -85 Q1333 -86 1325 -88 L1320 -89 Q1319 -89 1318.5 -89.5 Q1318 -90 1316 -90 Q1314 -91 1311.5 -91 Q1309 -91 1307 -92 Q1303 -93 1299 -94 Q1295 -95 1290 -96 Q1286 -97 1282 -97.5 Q1278 -98 1273 -99 Q1267 -101 1264 -101 Q1260 -103 1256 -103 Q1248 -105 1239 -107.5 Q1230 -110 1221 -112 Q1214 -114 1204 -116 Q1199 -118 1195 -119 Q1191 -120 1187 -121 Q1178 -123 1169.5 -126 Q1161 -129 1152 -131 Q1117 -142 1082.5 -153 Q1048 -164 1013 -176 Q942 -201 871.5 -226.5 Q801 -252 728 -275 L710 -281 L701 -284 L692 -286 L674 -292 L655 -297 L646 -300 L637 -302 Q632 -304 628 -305 Q624 -306 619 -307 Q614 -309 609.5 -309.5 Q605 -310 600 -312 L591 -314 L582 -316 Q544 -325 507.5 -331.5 Q471 -338 433 -342 Q395 -347 358 -348 Q339 -349 320.5 -349 Q302 -349 283 -347 Q245 -345 209 -338 Q191 -335 173 -330.5 Q155 -326 138 -319 Q121 -313 104.5 -305 Q88 -297 72 -288 Q56 -278 42 -267 Q28 -256 16 -242 Q14 -240 12.5 -239 Q11 -238 9 -236 Q7 -234 6 -232.5 Q5 -231 3 -229 Q-1 -225 -2 -223 Q-3 -221 -5 -219 L-8 -215 Q-19 -200 -28 -186 Q-29 -184 -30 -182 Q-31 -180 -32 -178 Q-33 -177 -33 -176.5 Q-33 -176 -34 -175 L-36 -171 Q-37 -169 -38 -167 Q-39 -165 -40 -163 Q-41 -159 -44 -155 Q-44 -154 -44.5 -153 Q-45 -152 -45 -151 L-47 -147 Q-48 -145 -48.5 -143 Q-49 -141 -50 -139 Q-52 -133 -52 -131 Q-54 -127 -54 -127 L-55 -122 Q-57 -114 -59 -105.5 Q-61 -97 -62 -89 Q-64 -79 -64 -72 L-65 -68 L-65 -64 L-65 -56 L-65 -47 L-65 -43 L-65 -39 Q-65 -35 -65 -31 Q-65 -27 -64 -23 Q-64 -15 -63 -7 Q-62 1 -60 9 Q-57 25 -53 40 Q-49 55 -44 69 Q-33 100 -19 124 Q-6 149 11 173 Q13 177 15 179 Q16 181 17 181.5 Q18 182 19 184 Q20 186 21 187 Q22 188 23 190 Q26 193 27 195 Q29 198 31.5 200.5 Q34 203 36 206 Q42 212 44 216 Q61 236 79.5 253.5 Q98 271 115 286 Q117 288 119.5 290 Q122 292 124 294 Q126 296 128 297.5 Q130 299 133 301 Q141 309 150 315 Q154 319 158 322 Q162 325 166 329 Q171 332 174.5 335 Q178 338 183 341 Q199 353 213.5 364 Q228 375 242 384 Q244 386 245 386.5 Q246 387 248 389 Q242 391 235 394.5 Q228 398 223 405 Q210 420 208 445 Q208 451 208 456.5 Q208 462 210 468 Q212 476 214 480 Q215 482 215.5 485 Q216 488 218 490 Q227 510 241 530.5 Q255 551 275 570 Q295 589 319 605 Q343 621 372 632 Q401 643 432 650 Q463 657 495 660 Q512 662 528.5 662 Q545 662 562 661 Q579 660 596.5 657.5 Q614 655 631 650 Q665 641 696.5 619.5 Q728 598 746 563 Q765 529 763 490 Q762 471 758 453.5 Q754 436 748 419 Q735 386 717.5 357 Q700 328 679 302 Q659 276 635.5 255 Q612 234 588 215 Q577 206 564.5 198 Q552 190 541 182 Q529 175 517 168 Q505 161 494 155 Q471 143 449 134 Q427 125 407 117 Q396 114 387 111 Q378 108 369 106 Q360 104 352 101.5 Q344 99 336 97 Q328 95 321.5 94 Q315 93 310 92 Q297 90 290 89 Q285 88 282 88 Q279 88 277 88 Q274 88 273 87 L270 120 Q271 121 274 121 Q276 121 278.5 121 Q281 121 285 122 Q290 123 294.5 123.5 Q299 124 304 125 Q309 126 315.5 127 Q322 128 329 130 Q336 132 344 134 Q352 136 360 138 Q368 140 377 143 Q386 146 396 149 Q415 156 435.5 164.5 Q456 173 478 185 Q489 190 500.5 196.5 Q512 203 523 210 Q534 218 545.5 225.5 Q557 233 568 242 Q591 259 612.5 279 Q634 299 654 323 Q674 347 690 374 Q706 401 717 430 Q722 445 725.5 460 Q729 475 729 491 Q730 521 717 548 Q710 561 699.5 572 Q689 583 677 592 Q654 609 622 618 Q592 626 560.5 627.5 Q529 629 498 627 Q467 624 438.5 618 Q410 612 384 601 Q334 580 298 546 Q281 529 268.5 511.5 Q256 494 248 476 Q246 470 245 468 Q243 462 243 461 Q241 451 241 446 Q241 443 242 440 Q244 432 247 428 L247 427 Q251 423 254 422 Q265 417 281 422.5 Q297 428 311 437 Q328 448 346 463 L364 444 L405 526 Q414 544 421 557 L451 542 L435 510 Q427 495 416.5 474 Q406 453 393 427 Q367 376 333.5 310 Q300 244 265 175 Q230 106 198.5 40 Q167 -26 142 -80 Q130 -106 120 -127.5 Q110 -149 103 -164 Q94 -182 88 -196 L58 -182 Q65 -168 73 -150 Q80 -135 89.5 -113 Q99 -91 112 -65 Q137 -12 168.5 54.5 Q200 121 235 190 Q267 255 298 316 Q329 377 355 428 Q353 426 351 424.5 Q349 423 347 421 Q345 421 343 419 Q337 416 327 407 Q322 404 317.5 401 Q313 398 308 394 Q297 386 285 377.5 Q273 369 259 360 Q233 340 201 317 Q169 294 135 264 Q118 249 101 232.5 Q84 216 67 196 Q61 190 59 187 Q57 184 55 181.5 Q53 179 51 177 Q49 175 48.5 174 Q48 173 47 172 Q45 170 44.5 169 Q44 168 43 167 Q42 165 41 164 Q40 163 39 161 Q38 159 37 158.5 Q36 158 35 156 Q27 145 20.5 133.5 Q14 122 7 110 Q1 98 -5 85.5 Q-11 73 -16 59 Q-24 35 -31 4 Q-32 -4 -33 -10.5 Q-34 -17 -35 -25 L-35 -40 L-35 -44 L-35 -47 L-35 -55 L-35 -62 L-35 -66 L-34 -70 Q-34 -74 -33.5 -77.5 Q-33 -81 -33 -85 Q-31 -93 -29.5 -100 Q-28 -107 -26 -114 L-25 -118 Q-25 -119 -24.5 -119.5 Q-24 -120 -24 -122 Q-22 -126 -22 -129 Q-21 -131 -20.5 -132.5 Q-20 -134 -19 -136 L-18 -139 Q-16 -143 -16 -143 Q-15 -146 -13 -150 Q-12 -152 -11 -153.5 Q-10 -155 -9 -157 L-7 -161 Q-7 -162 -6.5 -162.5 Q-6 -163 -6 -164 Q-4 -166 -3.5 -167.5 Q-3 -169 -2 -171 Q2 -178 6.5 -184.5 Q11 -191 16 -197 L18 -201 Q19 -201 19.5 -202 Q20 -203 21 -203 Q22 -206 26 -210 Q28 -212 28.5 -213 Q29 -214 31 -216 L37 -222 Q48 -233 61 -243.5 Q74 -254 88 -262 Q102 -271 117 -278 Q132 -285 148 -291 Q179 -303 215 -309 Q232 -312 249.5 -314 Q267 -316 285 -317 Q302 -319 320 -319 Q338 -319 357 -318 Q375 -317 393 -316 Q411 -315 429 -313 Q466 -308 502.5 -302 Q539 -296 575 -287 L584 -285 L593 -283 Q598 -281 602 -280.5 Q606 -280 611 -278 Q616 -277 620 -276 Q624 -275 629 -274 L638 -271 L647 -268 L665 -263 L683 -258 L692 -255 L701 -252 L719 -247 Q791 -224 861.5 -198.5 Q932 -173 1003 -148 Q1038 -136 1073.5 -124.5 Q1109 -113 1144 -102 Q1152 -100 1161 -97 Q1170 -94 1179 -92 Q1184 -91 1188 -90 Q1192 -89 1196 -88 Q1201 -86 1205 -85.5 Q1209 -85 1214 -83 Q1223 -81 1231.5 -78.5 Q1240 -76 1249 -74 Q1252 -74 1258 -72 Q1261 -72 1267 -70 Q1271 -69 1275 -68.5 Q1279 -68 1284 -67 Q1289 -65 1293 -64.5 Q1297 -64 1301 -63 Q1307 -61 1310 -61 Q1311 -61 1312 -60.5 Q1313 -60 1314 -60 L1319 -59 Q1327 -57 1336 -55.5 Q1345 -54 1353 -52 Q1358 -51 1362 -50.5 Q1366 -50 1370 -49 Q1375 -48 1379 -47.5 Q1383 -47 1387 -46 Q1396 -44 1404.5 -43 Q1413 -42 1421 -40 Q1423 -40 1425.5 -39.5 Q1428 -39 1430 -39 Q1432 -38 1434 -38 Q1436 -38 1438 -37 Q1445 -37 1455 -35 Q1463 -33 1471.5 -32.5 Q1480 -32 1488 -30 Q1497 -29 1505.5 -28.5 Q1514 -28 1522 -27 Q1526 -26 1530 -25.5 Q1534 -25 1538 -24 Q1542 -24 1546 -23.5 Q1550 -23 1554 -23 Q1620 -16 1681 -13 Q1742 -10 1799 -9 Q1856 -9 1908 -11 Q1960 -13 2007 -17 Q2018 -18 2029 -18.5 Q2040 -19 2051 -20 Q2056 -21 2061.5 -21.5 Q2067 -22 2072 -22 Q2076 -23 2082 -23 Q2086 -24 2093 -24 Q2113 -27 2131 -29 Q2149 -31 2166 -33 Q2199 -38 2224.5 -42.5 Q2250 -47 2267 -50 Q2276 -52 2282.5 -53 Q2289 -54 2294 -55 Z " />
<glyph glyph-name="Q" unicode="Q" horiz-adv-x="792" d="M470 -82 Q455 -98 439 -112.5 Q423 -127 406 -141 Q477 -169 529 -158 Q536 -157 543 -155 Q550 -153 556 -151 Q563 -149 569 -146.5 Q575 -144 581 -142 Q602 -133 615 -123 Q621 -118 626 -114.5 Q631 -111 634 -108 Q636 -106 637 -105.5 Q638 -105 639 -104 Q640 -103 641 -103 L663 -128 L661 -130 Q660 -131 659 -131.5 Q658 -132 656 -134 Q652 -137 647 -141.5 Q642 -146 634 -151 Q626 -156 616 -162 Q606 -168 593 -173 Q587 -175 580.5 -177.5 Q574 -180 567 -182 Q559 -184 552 -186.5 Q545 -189 535 -191 Q518 -195 498 -194.5 Q478 -194 458 -191 Q420 -184 374 -165 Q374 -165 373 -164 Q371 -165 370 -166 Q369 -167 367 -168 Q309 -203 243 -206 Q177 -209 123 -180 Q96 -166 75 -146 Q54 -126 40 -103 Q25 -80 16 -56 Q7 -32 3 -8 Q1 3 0.5 15 Q0 27 1 38 Q1 44 1.5 49.5 Q2 55 2 60 Q3 65 3.5 70 Q4 75 5 80 Q11 120 20 152 Q28 184 36 208 Q44 232 50 249 Q53 257 55.5 263 Q58 269 60 274 Q61 277 63 281 Q64 282 64 283 L94 269 Q93 268 93 267 Q93 267 91 261 Q88 253 82 237 Q76 221 68 197.5 Q60 174 52 144 Q48 128 44.5 111 Q41 94 38 75 Q37 70 36.5 65.5 Q36 61 36 56 Q35 51 34.5 46.5 Q34 42 34 37 Q33 20 36 -3 Q42 -46 68 -85 Q81 -105 98.5 -122 Q116 -139 139 -151 Q183 -175 241 -172 Q268 -171 297 -163 Q307 -159 317 -155 Q327 -151 337 -146 Q325 -139 312.5 -132 Q300 -125 288 -116 Q267 -102 246 -83.5 Q225 -65 207 -42 Q189 -19 173 6.5 Q157 32 145 61 Q139 75 134.5 90 Q130 105 125 120 Q121 136 118.5 151.5 Q116 167 114 184 Q110 217 111 250.5 Q112 284 119 319 Q126 353 138 386 Q150 419 168 451 Q185 483 208 511 Q231 539 258 564 Q266 570 272.5 576 Q279 582 287 588 Q295 593 302.5 598.5 Q310 604 318 609 Q334 620 351 628 Q368 636 385 643 Q421 657 460.5 661.5 Q500 666 539 657 Q579 647 612 626 Q643 606 670 573 Q695 540 708 504 Q715 485 719 466 Q723 447 724 427 Q726 388 718 350.5 Q710 313 697 278 Q671 208 636 144.5 Q601 81 559 24 Q539 -5 516.5 -31 Q494 -57 470 -82 Z M370 -126 Q390 -112 409 -95 Q428 -78 446 -59 Q469 -35 490.5 -9.5 Q512 16 533 44 Q573 99 606.5 160.5 Q640 222 665 289 Q677 322 684.5 356.5 Q692 391 690 426 Q688 461 677 493 Q666 523 643 552 Q622 579 593 599 Q564 618 531 625 Q498 633 463.5 628.5 Q429 624 397 612 Q381 606 365.5 598 Q350 590 336 581 Q328 576 321.5 571 Q315 566 307 561 Q300 556 293.5 550.5 Q287 545 281 540 Q228 492 197 434 Q164 376 151.5 312.5 Q139 249 147 188 Q150 160 158 129 Q166 98 176 74 Q199 19 233 -21 Q250 -41 268.5 -58 Q287 -75 307 -89 Q340 -111 370 -126 Z " />
<glyph glyph-name="R" unicode="R" horiz-adv-x="610" d="M289 509 Q281 494 270.5 473 Q260 452 247 426 Q221 374 188 308.5 Q155 243 120 174 Q85 104 53 38 Q21 -28 -4 -81 Q-16 -107 -26 -129 Q-36 -151 -43 -166 Q-51 -184 -57 -198 L-88 -184 Q-81 -170 -73 -152 Q-66 -137 -56.5 -115 Q-47 -93 -34 -67 Q-9 -14 23 52.5 Q55 119 90 188 Q125 257 158 323 Q191 389 217 441 Q230 467 240.5 488 Q251 509 259 524 L275 556 L305 541 L289 509 Z M242 -158 Q244 -159 245 -158.5 Q246 -158 247 -158 Q248 -158 249 -157 L263 -187 Q262 -188 261 -188 Q260 -188 259.5 -188.5 Q259 -189 257 -189 Q251 -192 239 -192 Q225 -190 214 -182 Q202 -173 194 -159 L188 -144 Q187 -140 186 -137 Q185 -134 184 -130 Q179 -117 175 -100 Q170 -85 165.5 -68.5 Q161 -52 157 -35 Q149 -2 142.5 29.5 Q136 61 131 86 L127 86 L124 119 L125 119 Q123 125 122.5 129.5 Q122 134 121 137 Q120 141 120 144 L153 150 Q153 147 154 143 Q155 139 155.5 134 Q156 129 158 123 Q164 125 170 126 Q176 127 183 128 Q191 130 198.5 132 Q206 134 214 136 Q222 138 231 141 Q240 144 250 147 Q269 155 289.5 163.5 Q310 172 332 184 Q343 189 354.5 195.5 Q366 202 377 209 Q388 217 399.5 224.5 Q411 232 422 240 Q445 257 466.5 277.5 Q488 298 508 322 Q528 345 544 372 Q560 399 571 429 Q576 443 579.5 458.5 Q583 474 584 489 Q584 521 571 546 Q558 573 531 590 Q508 607 476 617 Q446 625 414.5 626 Q383 627 352 625 Q291 621 239 599 Q213 589 191 575 Q169 561 152 544 Q135 527 123 509.5 Q111 492 103 475 Q101 472 99 466 Q97 462 97 459 Q95 451 96 445 Q96 433 102 425 Q107 419 115.5 418 Q124 417 130 418 Q132 418 133 418.5 Q134 419 135 419 Q137 420 140 420 Q141 420 141 420.5 Q141 421 142 421 L143 421 L152 389 Q152 388 151 388 L148 388 Q146 387 142 387 Q140 386 138 386 Q136 386 134 385 Q124 383 110 386 Q102 387 93.5 391 Q85 395 77 403 Q69 411 66 422 Q63 433 62 444 Q62 449 62.5 455 Q63 461 64 466 Q65 469 65.5 472.5 Q66 476 68 478 Q69 480 70 483 Q71 486 72 488 Q81 508 95 529 Q109 550 129 569 Q149 587 173 603 Q197 619 226 631 Q283 653 350 658 Q366 660 382.5 660.5 Q399 661 416 659 Q453 657 485 649 Q520 639 551 617.5 Q582 596 600 562 Q610 545 614 526 Q618 507 617 488 Q616 469 612 451.5 Q608 434 602 417 Q590 385 572.5 355.5 Q555 326 534 300 Q513 274 489.5 253 Q466 232 443 214 Q431 204 418.5 196.5 Q406 189 395 181 Q383 173 371.5 166 Q360 159 348 154 Q325 141 303 132.5 Q281 124 261 116 Q251 113 241.5 109.5 Q232 106 223 104 Q214 102 206.5 100 Q199 98 191 96 Q183 94 176.5 93 Q170 92 164 91 Q169 66 175 35.5 Q181 5 189 -27 Q194 -44 198 -60 Q202 -76 207 -91 Q209 -99 211.5 -106 Q214 -113 216 -120 Q217 -124 218 -127 Q219 -130 220 -133 Q222 -139 224 -143 Q226 -148 229 -150.5 Q232 -153 234 -155 Q240 -158 242 -158 Z " />
<glyph glyph-name="S" unicode="S" horiz-adv-x="610" d="M629 594 Q642 573 645 545 Q646 533 645 520.5 Q644 508 641 497 Q635 476 624 455 Q613 435 599.5 419.5 Q586 404 571 391 Q563 385 555 379.5 Q547 374 538 369 Q520 359 503 354 Q493 352 481.5 352.5 Q470 353 460 360 Q450 366 444 375 Q438 385 436 394 Q431 412 436 429 L442 444 Q445 451 450 456 Q458 468 467 476 Q476 484 484 489 Q492 495 499 499.5 Q506 504 512 507 Q519 510 523.5 511.5 Q528 513 531 515 Q533 516 534 516 Q535 516 536 517 Q537 517 538 518 L550 486 L548 486 Q546 486 544 484 Q541 483 536.5 481 Q532 479 527 477 Q522 474 516 470.5 Q510 467 503 462 Q496 457 489 451 Q482 445 477 437 Q475 435 474 433 Q473 431 472 429 Q471 427 470 424.5 Q469 422 469 420 Q466 412 468 401 Q472 392 477 388 Q484 384 495 387 Q508 390 522 398 Q529 403 536 407.5 Q543 412 549 417 Q578 439 595 471 Q604 487 608.5 505 Q613 523 611 542 Q610 560 600 577 Q591 594 574 606 Q558 617 538 621.5 Q518 626 495 624 Q473 622 451 614 Q429 606 408 595 Q366 572 332 535 Q298 498 278 452 Q268 429 262.5 404.5 Q257 380 259 355 Q261 331 269 307.5 Q277 284 290 261 Q302 238 317 216 Q332 194 347 170 Q361 147 372.5 121 Q384 95 389 66 Q394 38 391.5 8.5 Q389 -21 377 -47 Q366 -73 347.5 -94.5 Q329 -116 308 -133 Q266 -166 216 -182 Q166 -198 116 -194 Q91 -192 67.5 -185.5 Q44 -179 23 -167 Q-20 -144 -43 -103 Q-55 -83 -59.5 -62 Q-64 -41 -64 -21 Q-64 -1 -60 17.5 Q-56 36 -51 53 Q-48 61 -44.5 68.5 Q-41 76 -38 84 Q-34 92 -30.5 98.5 Q-27 105 -23 112 Q-17 120 -15 124 Q-9 132 -7 135 Q-2 141 2 146 Q6 151 10 156 Q27 175 42 187 Q57 199 68 207 Q73 211 77.5 213 Q82 215 85 217 Q87 218 89 220 Q90 221 91 221 L107 192 L106 191 Q105 190 104 189.5 Q103 189 102 188 Q100 186 96 184 Q92 182 87 179 Q77 172 63.5 161.5 Q50 151 35 134 Q31 129 27.5 124.5 Q24 120 20 115 Q18 113 16.5 110.5 Q15 108 13 105 Q11 102 9.5 99.5 Q8 97 6 94 Q2 89 -1 82.5 Q-4 76 -8 70 Q-11 63 -14 56.5 Q-17 50 -19 42 Q-29 14 -31 -21 Q-31 -38 -27 -54.5 Q-23 -71 -14 -87 Q3 -118 39 -138 Q75 -158 118 -160 Q161 -164 205.5 -150 Q250 -136 288 -106 Q306 -92 321.5 -73.5 Q337 -55 346 -33 Q356 -12 358.5 12 Q361 36 356 60 Q351 84 341.5 107.5 Q332 131 318 153 Q304 176 289 198 Q274 220 260 245 Q246 269 237 296.5 Q228 324 226 354 Q224 383 230 411 Q236 439 247 465 Q258 491 273 514 Q281 526 289.5 536.5 Q298 547 307 558 Q326 578 347.5 594.5 Q369 611 392 624 Q415 637 440.5 645.5 Q466 654 492 657 Q518 660 545 654 Q571 650 594 633 Q605 625 614 615 Q623 605 629 594 Z " />
<glyph glyph-name="T" unicode="T" horiz-adv-x="387" d="M150 206 Q183 277 215 344 Q247 411 272 465 Q301 527 328 583 L358 569 Q331 513 302 451 Q277 397 245.5 329.5 Q214 262 181 191 Q147 120 115 53 Q83 -14 57 -68 Q44 -94 34 -116 Q24 -138 16 -153 Q7 -171 0 -185 L-30 -170 L-14 -138 Q1 -107 27 -53 Q53 0 85 67 Q117 134 150 206 Z M2 510 L-31 507 L-31 511 L-31 519 Q-29 533 -21 548 Q-19 553 -16.5 556.5 Q-14 560 -11 565 Q-7 571 -4 573 Q0 580 4 582 Q19 600 44 617 Q57 625 71 632 Q85 639 101 644 Q134 655 168 658 Q204 662 241 658 Q278 654 314 646 Q350 638 384.5 628.5 Q419 619 452 611 Q484 603 514 598.5 Q544 594 570 593 Q595 592 614 598 Q630 602 639 613 Q647 621 649 627 Q650 629 650 630 Q650 631 651 632 L651 633 L684 626 L683 625 L683 623 Q682 621 682 619.5 Q682 618 680 615 Q677 605 663 589 Q656 582 646.5 576 Q637 570 624 566 Q612 561 598 560 Q584 559 570 560 Q541 561 509.5 566 Q478 571 444 579 Q411 587 376.5 596.5 Q342 606 307 614 Q272 621 237.5 624.5 Q203 628 171 625 Q138 622 111 612 Q86 604 63 589 Q41 575 28 559.5 Q15 544 8 533 Q5 527 4 522.5 Q3 518 2 516 L2 510 Z " />
<glyph glyph-name="U" unicode="U" horiz-adv-x="647" d="M583 325 Q569 298 556 271 Q543 244 530 217 Q507 166 485 116 Q463 66 444 14 Q425 -38 410 -90 Q395 -142 388 -196 L354 -193 Q360 -150 370.5 -108.5 Q381 -67 395 -26 Q393 -29 390 -32 Q387 -35 385 -38 Q361 -67 334 -93 Q307 -119 275 -142 Q259 -153 242.5 -162.5 Q226 -172 209 -180 Q200 -185 192 -188 Q187 -190 182.5 -191.5 Q178 -193 173 -195 Q155 -201 135 -204 Q115 -207 95 -207 Q72 -205 54 -197 Q45 -192 36 -185 Q27 -178 21 -168 Q15 -158 12.5 -147.5 Q10 -137 9 -126 Q8 -104 12 -85 Q16 -66 23 -48 Q30 -30 36.5 -13 Q43 4 51 21 Q65 55 80 88.5 Q95 122 110 156 Q141 223 171.5 289 Q202 355 233 422 Q249 456 264 489 Q279 522 294 556 Q302 570 302.5 584 Q303 598 295 607 Q293 611 286 615 Q282 617 279 618 L276 619 L274 620 L273 620 Q266 622 259 621 Q255 621 251.5 620.5 Q248 620 244 620 Q212 614 183 594 Q170 585 159 572.5 Q148 560 140 546 Q136 539 133.5 531 Q131 523 127 515 Q122 498 121 482 Q117 467 117 448 Q117 440 117 432 Q117 424 119 416 L87 407 Q84 418 83.5 428 Q83 438 83 448 Q83 458 84.5 467.5 Q86 477 87 487 Q90 507 96 524 Q99 534 102.5 543 Q106 552 111 561 Q113 563 113.5 565.5 Q114 568 116 570 L122 579 Q124 584 127.5 587.5 Q131 591 134 595 Q150 611 165 622 Q199 645 239 653 Q244 654 249.5 654.5 Q255 655 260 655 Q265 655 270.5 655 Q276 655 282 653 L286 652 L288 651 L293 649 Q297 648 303 644 Q308 641 312.5 637.5 Q317 634 321 629 Q325 624 328 618.5 Q331 613 333 608 Q335 602 335 596 Q335 590 335 584 Q335 572 332 562 Q331 560 330 557 Q329 554 328 552 Q327 550 326.5 547.5 Q326 545 325 543 Q310 509 294.5 475.5 Q279 442 264 409 Q233 342 202 275.5 Q171 209 141 142 Q125 109 110 75.5 Q95 42 81 8 Q74 -9 67 -25.5 Q60 -42 54 -59 Q48 -75 44 -91.5 Q40 -108 41 -123 Q43 -155 69 -167 Q82 -172 98 -173 Q114 -174 131 -171 Q139 -169 147 -167.5 Q155 -166 163 -163 Q168 -161 171.5 -160 Q175 -159 179 -157 L196 -150 Q227 -135 256 -114 Q314 -74 360 -17 Q383 11 401.5 41.5 Q420 72 437 104 Q454 136 469 169 Q484 202 501 236 Q514 262 526.5 287.5 Q539 313 553 339 Q590 413 627 484.5 Q664 556 701 629 L731 614 Q699 548 665 483 Q631 418 597 352 Q593 345 590 338.5 Q587 332 583 325 Z " />
<glyph glyph-name="V" unicode="V" horiz-adv-x="660" d="M769 566 Q735 535 691.5 487.5 Q648 440 600 377 Q575 345 549.5 310.5 Q524 276 500 238 Q474 200 450 158.5 Q426 117 400 74 Q375 30 346 -12.5 Q317 -55 283 -97 Q266 -117 248 -137 Q230 -157 207 -174 Q195 -182 182.5 -189.5 Q170 -197 156 -202 Q151 -203 148 -204 Q145 -205 141 -206 Q139 -207 136.5 -207 Q134 -207 132 -208 L127 -208 Q122 -208 120 -207 Q104 -205 95 -194 Q85 -183 90 -168 L90 -165 L90 -162 L92 -159 L93 -152 L96 -139 L102 -112 Q107 -99 110 -86 Q113 -73 117 -60 Q124 -33 130.5 -7 Q137 19 145 45 Q160 97 174.5 147 Q189 197 203 247 Q218 296 231 343 Q244 390 255 436 Q261 459 266 480.5 Q271 502 273 524 L276 545 Q277 551 277.5 555.5 Q278 560 279 565 Q278 574 276 583 Q274 592 270 599 Q268 603 265 606 Q262 609 260 611 Q256 613 253 615 Q250 617 246 619 Q231 625 215 625 Q197 624 182.5 619 Q168 614 156 606 Q130 589 114.5 568 Q99 547 91 527 Q84 507 84.5 490.5 Q85 474 90 466 Q95 457 98.5 454.5 Q102 452 102 451 L85 425 Q84 425 83 426 Q82 427 80.5 428 Q79 429 77 431 Q73 435 68.5 441 Q64 447 59 455 Q42 490 59 542 Q70 567 87 591 Q104 616 135 635 Q143 640 151 644 Q159 648 168 651 Q178 654 188 656 Q198 658 209 658 Q220 658 232 656.5 Q244 655 256 650 Q270 644 280 635 Q289 628 299 612 Q312 586 312 562 Q311 555 311 548.5 Q311 542 310 537 Q309 532 308.5 526 Q308 520 307 515 Q302 492 297.5 469.5 Q293 447 288 424 Q277 378 264 330.5 Q251 283 236 234 Q222 184 207 134 Q192 84 178 32 Q170 6 163.5 -20 Q157 -46 149 -72 Q146 -85 143 -98 Q140 -111 136 -124 L123 -174 L125 -174 Q128 -174 130 -173 Q132 -173 135.5 -172 Q139 -171 141 -170 Q153 -165 163 -159.5 Q173 -154 184 -146 Q204 -131 221.5 -112.5 Q239 -94 256 -74 Q289 -34 317.5 8 Q346 50 372 93 Q396 136 420.5 178.5 Q445 221 471 259 Q497 297 521.5 332.5 Q546 368 571 400 Q621 463 665.5 511.5 Q710 560 745 592 Q753 600 761 607 Q769 614 776 620 Q783 626 789 631 Q795 636 801 640 Q806 644 810 647 Q814 650 816 652 Q819 655 821 656 L844 627 Q842 625 838 623 Q835 621 831.5 618.5 Q828 616 823 612 Q814 607 800 593 Q793 588 785.5 581 Q778 574 769 566 Z " />
<glyph glyph-name="X" unicode="X" horiz-adv-x="635" d="M422 -192 Q427 -184 426 -184 L459 -190 Q458 -190 458 -191 Q458 -192 457.5 -193 Q457 -194 457 -195 Q456 -197 455 -200.5 Q454 -204 451 -209 Q446 -217 437 -226 Q432 -230 426 -234 Q420 -238 412 -241 Q396 -248 379 -248 Q374 -248 368.5 -247.5 Q363 -247 358 -246 Q344 -241 337 -236 Q317 -224 306 -202 Q300 -191 296 -180 Q292 -169 289 -158 Q277 -113 272 -61 Q267 -9 269 48 L272 105 Q235 66 199.5 27.5 Q164 -11 129 -47 Q108 -70 87.5 -91.5 Q67 -113 47 -134 Q36 -145 24.5 -154.5 Q13 -164 -1 -171 Q-13 -178 -31 -181 Q-48 -184 -64 -179 Q-72 -176 -80 -170 Q-88 -164 -91 -156 Q-96 -148 -97 -140.5 Q-98 -133 -99 -127 Q-100 -120 -99.5 -114 Q-99 -108 -99 -103 Q-99 -97 -98.5 -91.5 Q-98 -86 -98 -81 Q-93 -38 -86 -10 Q-82 5 -79 16 Q-76 27 -73 35 Q-72 39 -71 41.5 Q-70 44 -69 46 Q-68 48 -68 50 L-36 38 L-38 34 Q-39 32 -39.5 29.5 Q-40 27 -42 24 Q-47 9 -54 -18 Q-57 -32 -59.5 -48 Q-62 -64 -64 -84 Q-65 -89 -65 -94 Q-65 -99 -66 -104 Q-66 -109 -66 -114 Q-66 -119 -65 -124 Q-65 -134 -62 -140 Q-59 -145 -53 -147 Q-38 -152 -16 -142 Q-6 -137 3.5 -128.5 Q13 -120 23 -110 Q43 -90 63.5 -68.5 Q84 -47 105 -24 Q147 20 189.5 65.5 Q232 111 276 158 Q278 189 281 220 Q284 251 286 282 Q290 342 292 399 Q291 413 291 427.5 Q291 442 290 456 Q289 470 287.5 483.5 Q286 497 284 511 Q281 536 273 561 Q270 566 267.5 570.5 Q265 575 262 580 Q257 587 247 594 Q231 606 211 604 Q193 603 175 591 Q167 586 159 579.5 Q151 573 144 567 Q137 560 131 553.5 Q125 547 120 540 Q110 527 104 514 Q102 511 101 508 Q100 505 98 502 Q97 499 96 496 Q95 493 95 491 Q92 480 92 472 Q92 464 94 459 Q96 453 96 452 Q96 451 97 450 L97 449 L68 434 Q67 434 67 435 Q67 436 66.5 436 Q66 436 66 438 Q65 440 64 443 Q63 446 62 451 Q59 459 58.5 471.5 Q58 484 62 499 Q63 504 67 514 Q69 518 70.5 521.5 Q72 525 74 529 Q82 546 93 560 Q105 576 121 591 Q129 599 138 606 Q147 613 158 619 Q168 626 180.5 630.5 Q193 635 208 637 Q240 640 266 622 Q278 614 289 600 Q299 587 303 573 Q309 559 312 544.5 Q315 530 317 516 Q322 487 323 458 Q325 444 325 429 Q325 414 325 399 Q325 369 323.5 339 Q322 309 320 280 Q318 259 316.5 238 Q315 217 313 197 Q397 286 476.5 368.5 Q556 451 622 514 Q640 531 657 546.5 Q674 562 688 576 Q703 590 716 601.5 Q729 613 740 623 Q751 633 759.5 640.5 Q768 648 774 653 Q781 659 786 663 L808 638 Q803 634 796 628 Q790 623 781.5 615.5 Q773 608 762 598 Q751 588 738.5 576.5 Q726 565 711 551 Q696 537 679.5 522 Q663 507 646 490 Q574 421 486 330.5 Q398 240 308 143 Q306 119 304.5 95 Q303 71 303 48 Q301 -8 305.5 -57.5 Q310 -107 322 -149 Q324 -160 327.5 -169 Q331 -178 335 -186 Q343 -200 355 -208 Q358 -210 361 -211 Q364 -212 366 -213 Q374 -215 378 -215 Q389 -214 400 -210 Q409 -206 415 -201 Q420 -196 422 -192 Z " />
<glyph glyph-name="W" unicode="W" horiz-adv-x="1167" d="M2473 -105 Q2475 -107 2478 -107.5 Q2481 -108 2483 -110 Q2480 -126 2476 -131.5 Q2472 -137 2457 -132 Q2444 -128 2431.5 -124 Q2419 -120 2406 -116 Q2381 -108 2356 -102 Q2331 -96 2305 -90 Q2162 -59 2018 -53 Q1874 -47 1728 -60 Q1547 -76 1370.5 -117 Q1194 -158 1019 -206 Q974 -219 929 -231.5 Q884 -244 838 -257 Q826 -261 814.5 -264 Q803 -267 792 -270 Q779 -273 769 -277 L745 -283 Q697 -295 651 -304 Q627 -309 603 -312.5 Q579 -316 554 -318 Q529 -320 504.5 -320.5 Q480 -321 455 -320 Q405 -317 357 -306 Q309 -295 263 -274 Q251 -269 238.5 -262.5 Q226 -256 215 -249 Q175 -225 143.5 -192.5 Q112 -160 88.5 -121 Q65 -82 50.5 -38.5 Q36 5 30 50 Q16 158 44.5 266 Q73 374 132 465 Q143 483 155.5 500 Q168 517 182 534 Q208 566 241 594 Q274 624 310 641 Q331 652 355.5 657.5 Q380 663 404 660 Q445 655 470 626 Q483 611 487.5 591.5 Q492 572 493 553 Q495 529 489 506.5 Q483 484 478 461 Q471 437 464.5 413 Q458 389 450 365 Q421 275 387.5 188.5 Q354 102 321 14 Q316 0 310.5 -13.5 Q305 -27 300 -41 Q291 -71 285 -96 Q284 -99 284 -101.5 Q284 -104 283 -106 Q281 -122 284 -141 Q287 -160 305 -169 Q326 -177 350 -169 Q374 -161 395 -148.5 Q416 -136 430 -123.5 Q444 -111 444 -110 Q468 -86 486 -63 Q513 -28 538.5 9 Q564 46 588 84 Q603 110 617.5 135 Q632 160 646 186 Q660 212 671.5 238.5 Q683 265 693 292 L725 281 Q708 236 693 191 Q678 146 666 101 Q660 78 655.5 55 Q651 32 647 9 Q644 -14 643 -36.5 Q642 -59 644 -82 Q645 -87 645.5 -92.5 Q646 -98 647 -103 Q649 -108 650.5 -113 Q652 -118 654 -123 Q659 -132 664.5 -140.5 Q670 -149 678 -155 Q680 -157 681.5 -158 Q683 -159 685 -161 Q687 -162 689 -163 Q691 -164 693 -164 Q698 -166 702 -166.5 Q706 -167 710 -167 Q716 -167 719 -166 L724 -165 Q726 -165 728 -163 Q736 -161 746 -154 Q754 -149 761.5 -141 Q769 -133 777 -125 Q784 -116 790 -107 Q796 -98 803 -87 Q816 -67 828.5 -46.5 Q841 -26 853 -6 Q879 35 903 75.5 Q927 116 952 157 Q976 199 1000.5 239.5 Q1025 280 1050 321 Q1076 362 1101.5 402 Q1127 442 1154 483 Q1181 522 1211 561 Q1219 571 1227 580 Q1235 589 1243 598 Q1248 603 1252.5 607 Q1257 611 1262 616 Q1267 620 1273 624 Q1279 628 1288 631 L1298 599 Q1295 598 1291.5 595.5 Q1288 593 1283 590 Q1279 586 1275 582.5 Q1271 579 1267 575 Q1259 567 1252 558 Q1245 549 1237 540 Q1223 521 1209 502.5 Q1195 484 1182 464 Q1155 425 1129.5 385 Q1104 345 1079 304 Q1054 262 1029.5 222 Q1005 182 980 140 Q956 99 931.5 58.5 Q907 18 882 -24 L831 -105 Q824 -115 817.5 -125.5 Q811 -136 803 -146 Q795 -156 785.5 -165 Q776 -174 765 -182 Q754 -190 740.5 -195 Q727 -200 711 -201 Q696 -201 681.5 -195.5 Q667 -190 656 -181 Q645 -172 637 -160.5 Q629 -149 624 -137 Q618 -125 615 -111 Q613 -104 612.5 -98 Q612 -92 611 -86 Q608 -60 609 -35 Q610 -10 614 14 Q617 32 620 50.5 Q623 69 628 86 Q625 81 622 76.5 Q619 72 616 67 Q587 20 556.5 -24 Q526 -68 492 -110 Q489 -114 470.5 -133 Q452 -152 424 -171 Q396 -190 361.5 -201.5 Q327 -213 291 -202 Q279 -197 270 -189 Q256 -175 251.5 -158 Q247 -141 248 -122 Q249 -114 249.5 -106 Q250 -98 252 -90 Q255 -74 259.5 -59.5 Q264 -45 269 -31 Q274 -16 279.5 -2 Q285 12 290 26 L311 81 Q313 85 313 87 Q328 124 349 180 Q357 200 365.5 221.5 Q374 243 383 267 Q391 291 400.5 316.5 Q410 342 419 370 Q430 402 439.5 433.5 Q449 465 457 497 Q463 524 463.5 553 Q464 582 447 605 Q437 619 423.5 624.5 Q410 630 394 631 L390 631 Q372 631 356 627 Q348 624 339.5 621 Q331 618 323 614 Q289 597 261 572 Q246 559 232.5 545 Q219 531 205 515 Q178 482 157 448 Q141 425 128 400.5 Q115 376 104 350 Q83 300 70.5 246 Q58 192 56 137 Q54 82 63.5 28 Q73 -26 97 -76 Q99 -81 101.5 -86.5 Q104 -92 107 -97 Q130 -137 162.5 -170 Q195 -203 234 -226 Q244 -231 254 -236.5 Q264 -242 275 -247 Q318 -267 364.5 -277 Q411 -287 458 -289.5 Q505 -292 552.5 -288 Q600 -284 645 -275 Q691 -266 738 -254 Q744 -252 749.5 -251 Q755 -250 761 -248 Q767 -246 772.5 -245 Q778 -244 784 -242 Q795 -238 807 -235 Q819 -232 830 -229 Q876 -216 921.5 -203.5 Q967 -191 1012 -178 Q1041 -170 1070 -162 Q1099 -154 1128 -146 Q1194 -128 1259.5 -112 Q1325 -96 1391 -82 Q1569 -45 1748 -29 Q1927 -13 2109 -30 Q2169 -35 2219 -43.5 Q2269 -52 2311 -61 Q2352 -70 2393 -80.5 Q2434 -91 2473 -105 Z " />
<glyph glyph-name="Y" unicode="Y" horiz-adv-x="720" d="M599 39 Q558 28 518 15.5 Q478 3 439 -13 Q438 -15 437.5 -15.5 Q437 -16 436 -18 L416 -57 Q411 -67 405.5 -76.5 Q400 -86 394 -96 Q381 -115 366.5 -133 Q352 -151 332 -165 Q311 -181 288 -187 Q282 -189 275 -190.5 Q268 -192 260 -190 Q256 -190 251 -188.5 Q246 -187 241 -183 Q236 -180 234 -175 Q232 -170 230 -166 Q229 -161 228.5 -157.5 Q228 -154 228 -150 Q228 -147 228.5 -143.5 Q229 -140 229 -137 Q231 -129 233 -124 Q234 -121 234.5 -117.5 Q235 -114 237 -111 Q249 -89 267 -72 Q299 -40 338 -21 Q377 -2 415 14 Q451 83 486.5 151.5 Q522 220 557 289 Q540 266 523.5 243.5 Q507 221 490 198 Q471 174 452 150.5 Q433 127 410 104 Q399 93 387 83 Q375 73 362 64 Q335 43 307 32 Q293 25 277.5 20 Q262 15 246 13 Q229 11 212 11.5 Q195 12 178 17 Q145 28 121 56 Q99 82 93 117 Q89 134 89 150 Q89 166 91 182 Q95 213 106 244 Q116 273 128 301 Q140 329 153 357 Q167 384 181.5 411 Q196 438 212 464 Q220 477 228 489.5 Q236 502 244 515 Q252 528 261 540.5 Q270 553 277 565 Q281 571 283.5 576.5 Q286 582 288 588 Q292 601 288 607 Q287 614 276 621 Q271 623 266 625 Q261 627 255 627 Q243 628 230.5 624.5 Q218 621 206 615 Q183 604 161 583 Q141 563 127.5 539 Q114 515 108 488 Q103 461 107 434.5 Q111 408 128 388 L102 367 Q91 381 84 396.5 Q77 412 74 429 Q68 461 76 495 Q83 527 99 555.5 Q115 584 138 607 Q161 630 191 645 Q206 653 222.5 657.5 Q239 662 258 660 Q278 658 293 649 Q301 644 308.5 636.5 Q316 629 320 619 Q324 608 323 598 Q323 586 320 579 Q318 570 314 562.5 Q310 555 306 547 Q298 533 289 521.5 Q280 510 272 497 Q264 484 256.5 472 Q249 460 241 446 Q225 420 211 394.5 Q197 369 184 342 Q170 315 158 288 Q146 261 137 233 Q129 208 124 178 Q121 148 125 124 Q131 96 147 77 Q165 56 189 49 Q201 45 214 44.5 Q227 44 241 46 Q255 48 267.5 52.5 Q280 57 294 62 Q320 74 343 91 Q366 108 386 128 Q407 149 426 171.5 Q445 194 463 218 Q536 314 601 414 Q666 514 723 620 L753 605 Q610 315 462 32 Q525 54 591 71 L599 39 Z M365 -78 Q378 -59 386 -41 L391 -33 Q371 -41 357 -49 Q339 -59 321.5 -70.5 Q304 -82 290 -96 Q275 -111 268 -126 Q266 -128 266 -130 Q266 -132 264 -134 Q263 -136 263 -138 Q263 -140 262 -142 L262 -150 Q261 -152 261.5 -153.5 Q262 -155 262 -156 Q262 -157 263 -157 L264 -157 Q268 -159 279 -155 Q296 -151 312 -138 Q328 -127 341 -111 Q354 -95 365 -78 Z " />
<glyph glyph-name="Z" unicode="Z" horiz-adv-x="717" d="M817 577 Q819 554 810 537 Q800 517 783 507 Q764 496 745 496 Q726 496 709 501 Q687 506 666.5 513.5 Q646 521 626 529 Q614 520 604 510 Q556 469 512 425 Q468 381 424 335 Q379 290 335 245 Q291 200 243 158 Q148 72 51 -7 L9 -41 Q35 -42 59 -48 Q83 -54 105 -63 Q116 -68 127.5 -73 Q139 -78 150 -83 Q161 -88 172.5 -92.5 Q184 -97 195 -102 Q285 -138 380 -156 Q403 -161 425.5 -161 Q448 -161 469 -154 Q512 -140 539 -104 L566 -124 Q532 -169 479 -186 Q452 -194 426 -194 Q412 -194 399 -192.5 Q386 -191 374 -189 Q324 -179 276.5 -165.5 Q229 -152 182 -133 Q171 -128 159.5 -123.5 Q148 -119 137 -114 Q125 -109 114 -104 Q103 -99 92 -94 Q70 -85 48 -79.5 Q26 -74 3 -75 Q-20 -75 -40 -82 Q-41 -82 -41 -82.5 Q-41 -83 -42 -83 L-47 -87 Q-72 -107 -97.5 -126 Q-123 -145 -152 -162 L-164 -170 L-173 -159 Q-176 -156 -178 -148 Q-179 -145 -178.5 -142.5 Q-178 -140 -178 -138 Q-175 -130 -173 -128 Q-167 -119 -162 -115 Q-159 -112 -155 -110 L-150 -106 L-140 -99 Q-121 -86 -98 -72 Q-80 -62 -59 -54 L29 18 Q78 59 126 99.5 Q174 140 221 182 Q268 224 311.5 268.5 Q355 313 400 359 Q444 404 489 449 Q534 494 582 536 Q584 538 586.5 540 Q589 542 592 544 Q588 546 588 546 Q559 560 531 573.5 Q503 587 474 598 Q460 603 445 608 Q430 613 416 617 Q386 625 357 626 Q327 627 299 620 Q294 618 287.5 615.5 Q281 613 274 610 Q260 602 249 594 Q223 577 200 557 Q177 537 154 515 L131 539 Q154 562 178.5 582.5 Q203 603 230 622 Q237 627 243.5 631 Q250 635 258 639 Q266 643 274 647 Q282 651 291 653 Q323 662 358 660 Q390 659 424 649 Q454 642 486 629 Q516 618 544.5 604 Q573 590 602 577 Q607 574 611.5 572 Q616 570 621 568 Q654 593 689 610 Q697 614 705 617 Q713 620 721 623 Q739 628 757 628 Q766 628 776.5 625.5 Q787 623 796 616 Q807 607 811 598 Q814 593 815 587.5 Q816 582 817 577 Z M780 552 Q784 561 784 574 L781 583 Q780 586 776 589 Q769 594 756 594 Q744 595 730.5 590.5 Q717 586 703 580 Q691 575 679.5 568 Q668 561 657 553 Q672 547 687 542 Q702 537 717 533 Q748 525 765 535 Q774 541 780 552 Z " />
<glyph glyph-name="a" unicode="a" horiz-adv-x="311" d="M333 253 Q312 230 290 206.5 Q268 183 245 160 L200 115 L176 93 Q164 79 148 71 Q137 66 127 65 Q114 63 102 71 Q95 74 92 81 Q89 87 87 93 L87 99 L87 101 Q81 95 75 90 Q69 85 63 80 Q53 73 43 66.5 Q33 60 20 55 Q14 53 7.5 51 Q1 49 -7 48 Q-21 47 -39 53 Q-56 62 -67 77 Q-72 85 -74.5 92.5 Q-77 100 -79 108 Q-81 123 -79 136.5 Q-77 150 -72 162 Q-68 174 -63 184.5 Q-58 195 -52 206 Q-40 228 -24.5 246.5 Q-9 265 8 281 Q18 289 27.5 296 Q37 303 48 309 Q59 316 74 319 Q90 323 104 320 Q111 318 118 315.5 Q125 313 132 308 Q134 307 136 305 Q138 303 144 295 Q146 293 146.5 291.5 Q147 290 148 288 Q148 286 148.5 285.5 Q149 285 149 284 Q151 278 151.5 269 Q152 260 148 248 L172 292 L199 277 Q191 259 179 239 L169 221 Q161 207 154 193 Q147 179 139 165 Q131 151 125 137 Q119 123 117 110 Q115 104 117 99 Q117 97 119 95 L120 95 Q121 95 121.5 94.5 Q122 94 124 95 Q129 95 134 98 Q143 102 156 115 L179 136 L224 181 Q247 204 268.5 227 Q290 250 311 273 L333 253 Z M75 134 Q96 157 113 184 Q115 186 115 188 Q119 195 122.5 201.5 Q126 208 129 214 L130 215 L133 221 L110 234 Q112 239 114 244 Q116 249 118 254 Q122 263 122 273 Q120 282 117 284 Q111 290 103 291 Q94 293 84.5 290.5 Q75 288 65 283 Q47 273 30 257 Q-4 227 -25 189 Q-36 171 -44 149 Q-47 138 -49 128 Q-51 118 -49 108 Q-47 99 -42.5 91 Q-38 83 -30 80 Q-23 77 -13.5 78 Q-4 79 6 83 Q16 87 25 92.5 Q34 98 43 105 Q59 118 75 134 Z " />
<glyph glyph-name="b" unicode="b" horiz-adv-x="376" d="M376 273 L390 249 Q365 234 339 217 Q316 203 287.5 185.5 Q259 168 229 150 Q215 141 199.5 132 Q184 123 170 115 Q156 107 142.5 100 Q129 93 117 87 Q106 80 97 75.5 Q88 71 81 67 Q73 63 67 59 Q65 58 64.5 57.5 Q64 57 62 56 Q51 49 38 43.5 Q25 38 11 36 Q6 35 -4 35 L-11 35 Q-13 36 -15 36 Q-17 36 -19 37 Q-37 42 -47 53 Q-52 59 -56 66 Q-60 73 -61 81 L-73 57 L-100 70 Q-68 138 -35 204 Q-2 270 34 336 Q51 369 69.5 401.5 Q88 434 107 466 Q127 498 147 529.5 Q167 561 193 590 Q200 597 206.5 604 Q213 611 220 618 L235 630 Q239 633 243 636.5 Q247 640 252 642 Q260 647 271 651 Q283 656 295 655 L302 655 Q304 654 310 652 Q312 651 313.5 650 Q315 649 317 648 Q319 646 320 644.5 Q321 643 323 641 Q328 633 328 625 Q328 615 327 611 Q325 606 323.5 601 Q322 596 320 592 Q318 587 316 583 Q314 579 312 574 Q307 565 302 556.5 Q297 548 292 540 Q281 524 269.5 509 Q258 494 245 480 Q195 425 141.5 374.5 Q88 324 34 273 Q29 264 24.5 255 Q20 246 15 237 Q24 246 33.5 254 Q43 262 53 270 Q64 278 75 284.5 Q86 291 100 296 Q106 298 112.5 300 Q119 302 127 303 Q141 305 156 303 Q163 301 170 299 Q177 297 184 292 Q188 290 191 287 Q194 284 197 281 Q199 277 201.5 273.5 Q204 270 206 266 Q211 251 208 234 Q205 219 199 207 Q197 200 194 194.5 Q191 189 187 183 Q184 178 180.5 172.5 Q177 167 173 162 Q170 157 166.5 153 Q163 149 160 144 Q173 151 186.5 159 Q200 167 214 175 Q274 211 311.5 233.5 Q349 256 360 263 L376 273 Z M133 451 Q119 427 106 403.5 Q93 380 79 356 Q117 391 153 426.5 Q189 462 223 500 Q248 527 267 557 Q272 564 276.5 571.5 Q281 579 285 587 Q287 592 288.5 595.5 Q290 599 292 603 Q296 612 298 618 Q298 620 298.5 621 Q299 622 299 623 L298 624 Q298 625 297 625 L296 625 Q296 626 294 626 Q288 626 281 623 Q277 622 273.5 620.5 Q270 619 267 617 Q259 612 254 607 Q250 604 247 601 Q244 598 240 595 Q227 584 215 570 Q191 543 171.5 513 Q152 483 133 451 Z M7 66 Q17 68 27 72 Q37 76 47 81 Q57 87 66.5 94 Q76 101 85 109 Q122 140 149 179 Q163 197 172 219 Q183 240 178 255 Q173 270 151 273 Q141 274 131 273 Q126 272 120.5 271 Q115 270 110 268 Q90 260 71 245.5 Q52 231 35 215 Q12 192 -7.5 166.5 Q-27 141 -44 112 L-28 100 Q-32 95 -32 87 Q-32 82 -26 74 Q-20 67 -12 66 Q-11 65 -8 65 L-3 65 Q3 65 7 66 Z " />
<glyph glyph-name="c" unicode="c" horiz-adv-x="244" d="M266 252 Q263 249 259 245 Q256 241 251.5 236 Q247 231 241 225 Q228 212 210.5 195 Q193 178 170 158 Q158 147 145.5 136.5 Q133 126 119 115 Q105 104 90.5 93.5 Q76 83 59 73 Q45 64 29.5 56.5 Q14 49 -3 44 Q-7 43 -14.5 41.5 Q-22 40 -31 40 Q-40 40 -49.5 43 Q-59 46 -66 53 Q-67 53 -67 53.5 Q-67 54 -68 54 Q-69 55 -69 55.5 Q-69 56 -70 57 Q-73 60 -77 66 Q-80 71 -81 77 Q-83 81 -83 82 Q-83 84 -83.5 85 Q-84 86 -84 88 Q-85 91 -85 98 Q-86 109 -84.5 119 Q-83 129 -81 140 Q-79 145 -78.5 150 Q-78 155 -76 160 Q-74 165 -72.5 169.5 Q-71 174 -69 179 Q-65 189 -57 202.5 Q-49 216 -39.5 229.5 Q-30 243 -19.5 254.5 Q-9 266 1 274 Q9 280 15.5 284.5 Q22 289 29 294 Q35 297 41 300 Q47 303 53 305 Q59 307 67 309.5 Q75 312 84 312.5 Q93 313 101.5 310 Q110 307 116 300 L117 299 Q120 295 121.5 291 Q123 287 124 284 Q125 275 124 268 Q122 258 121 254 Q118 249 116 244 Q110 235 105 229.5 Q100 224 97 220 Q95 218 94 217 Q93 216 92 215 L90 213 L69 233 Q69 234 70 235 L75 240 Q78 244 82 248.5 Q86 253 90 259 Q93 266 95 272 Q95 276 94 278 Q93 285 83 283 Q73 281 68 279 Q46 269 31 258.5 Q16 248 -2 227 Q-13 214 -23 199 Q-33 184 -40 167 Q-42 162 -43.5 159 Q-45 156 -47 151 Q-49 146 -49.5 142 Q-50 138 -52 133 Q-57 115 -55 100 L-55 93 Q-55 91 -54.5 90.5 Q-54 90 -54 89 Q-54 88 -53.5 87.5 Q-53 87 -53 86 Q-52 84 -52 83 Q-52 82 -51 81 Q-50 80 -50 79.5 Q-50 79 -49 78 Q-49 78 -48 76 L-47 76 L-47 75 Q-40 68 -28.5 69 Q-17 70 -6 74 Q7 78 22 86 Q22 87 23 87 Q33 91 43 98 Q59 108 73 118 Q87 128 101 139 Q115 150 127 160 Q139 170 150 180 Q173 200 190 216.5 Q207 233 219 246 Q225 252 229.5 257 Q234 262 237 266 Q241 270 244 273 L266 252 Z " />
<glyph glyph-name="d" unicode="d" horiz-adv-x="433" d="M474 606 Q475 597 474 588 Q474 579 471 572 Q469 568 468.5 565 Q468 562 466 559 Q463 552 460.5 546 Q458 540 455 534 Q443 510 429.5 487 Q416 464 402 441 Q373 396 342 354 Q310 310 276 273 Q259 253 242 234.5 Q225 216 208 198 Q184 173 159 149 Q153 128 151.5 107 Q150 86 158 72 Q163 66 168 63 Q178 56 191.5 59.5 Q205 63 220 72 Q235 81 249 92.5 Q263 104 273 114 Q277 117 279.5 120 Q282 123 285 126 Q308 149 327.5 168.5 Q347 188 364 204 Q380 221 393 233.5 Q406 246 415 255 L433 273 L454 251 Q447 243 436 233 Q427 224 414 212 Q401 200 385 183 Q368 167 348.5 147.5 Q329 128 306 105 Q300 99 294 92.5 Q288 86 281 79 Q269 68 257 58 Q246 50 233 42 Q220 34 209 31 L208 30 L207 30 Q201 28 194 27 Q187 26 180 27 Q175 27 167 29 Q153 33 144.5 39 Q136 45 130 53 Q128 57 126 59 Q124 63 123 66 Q122 69 120 73 Q118 81 118.5 91 Q119 101 120 112 Q88 84 62 70.5 Q36 57 16 52 Q7 49 -4 49 L-6 49 Q-24 48 -34 51 Q-39 52 -43 54 Q-49 56 -59 63 Q-70 72 -76 85 Q-86 112 -83 132 Q-83 141 -81.5 150 Q-80 159 -74 174 Q-63 199 -45 223 Q-27 247 -8 266 Q12 286 38.5 303.5 Q65 321 94 326 Q106 329 121 327 Q129 325 134 324 L140 321 Q141 320 145 318 Q151 313 154 309 L155 308 Q157 306 157.5 304 Q158 302 160 300 Q166 287 165.5 273 Q165 259 162 247 Q158 233 151 219 L125 234 Q142 270 131.5 285 Q121 300 99 297 Q78 293 55 276.5 Q32 260 15 243 Q4 232 -6.5 219.5 Q-17 207 -26 193 Q-31 185 -35 177.5 Q-39 170 -43 162 L-45 158 L-46 154 Q-47 152 -49 146 Q-50 142 -50.5 138 Q-51 134 -52 129 Q-54 110 -48 97 Q-47 94 -46 92 Q-45 90 -43 88 Q-27 76 -4.5 79 Q18 82 42 95 Q66 108 89.5 127 Q113 146 133 164 Q135 171 137 176.5 Q139 182 140 184 Q143 192 145.5 198.5 Q148 205 151 213 Q168 255 186.5 299 Q205 343 230 387 Q243 409 255.5 431 Q268 453 282 475 Q296 497 311.5 518 Q327 539 343 559 Q347 565 351 570 Q355 575 359 580 L367 591 Q369 593 371.5 596 Q374 599 377 601 Q385 610 398 620 L410 629 Q414 631 417 632.5 Q420 634 425 636 L427 636 L431 637 Q432 637 433 637.5 Q434 638 436 638 Q439 638 441.5 637.5 Q444 637 447 636 Q457 633 465 624 Q468 621 471 615 Q471 614 473 610 Q473 607 474 606 Z M445 591 Q445 597 444 600 L444 602 L443 603 Q443 604 442 605 Q438 609 435 607 Q432 607 426 603 Q422 601 416 597 Q411 593 407 589 Q403 585 398 581 Q396 579 394.5 576.5 Q393 574 391 572 L383 562 Q378 557 374.5 551.5 Q371 546 366 541 Q350 521 335.5 500.5 Q321 480 307 459 Q293 438 281 416.5 Q269 395 257 373 Q234 334 217 294.5 Q200 255 184 216 Q186 218 187 218 Q204 236 220.5 254.5 Q237 273 254 292 Q271 311 286.5 331 Q302 351 318 371 Q333 392 347.5 413.5 Q362 435 376 457 Q390 479 403.5 501.5 Q417 524 428 547 Q433 558 438 570 Q444 583 445 591 Z " />
<glyph glyph-name="e" unicode="e" horiz-adv-x="244" d="M266 252 Q263 249 259 245 Q256 241 251.5 236 Q247 231 241 225 Q228 212 210.5 195 Q193 178 170 158 Q159 147 146.5 136.5 Q134 126 120 115 Q106 104 91 93.5 Q76 83 59 73 Q45 64 29.5 56.5 Q14 49 -3 44 Q-7 43 -14.5 41.5 Q-22 40 -31 40 Q-40 40 -49.5 43 Q-59 46 -66 53 Q-67 53 -67 53.5 Q-67 54 -68 54 Q-69 55 -69 55.5 Q-69 56 -70 57 Q-72 59 -73.5 61.5 Q-75 64 -77 66 Q-78 69 -79 71.5 Q-80 74 -81 77 Q-82 79 -82 79.5 Q-82 80 -83 82 Q-83 84 -83.5 85 Q-84 86 -84 88 Q-85 91 -85 98 Q-86 109 -84.5 119 Q-83 129 -81 140 Q-79 145 -78.5 150 Q-78 155 -76 160 Q-74 165 -72.5 169.5 Q-71 174 -69 179 Q-66 185 -63.5 191 Q-61 197 -57 203 Q-41 232 -17.5 256.5 Q6 281 36 298 Q45 303 58 307.5 Q71 312 83.5 312.5 Q96 313 106.5 308.5 Q117 304 122 291 Q127 277 122.5 262 Q118 247 110 235 Q100 221 87 209 Q74 197 59 189 Q50 184 38.5 180.5 Q27 177 15 177 Q3 177 -7.5 181.5 Q-18 186 -23 198 Q-23 199 -23.5 199 Q-24 199 -24 201 Q-29 193 -33 184.5 Q-37 176 -41 168 Q-43 163 -44 159.5 Q-45 156 -47 151 Q-49 146 -49.5 142 Q-50 138 -52 133 Q-54 124 -55 116 Q-56 108 -55 100 L-55 93 Q-54 91 -54 89 Q-53 88 -53 86 Q-51 82 -50 81 Q-50 79 -49 78 Q-49 78 -48 76 L-47 76 L-47 75 Q-40 68 -28.5 69 Q-17 70 -6 74 Q7 78 22 86 Q22 87 23 87 Q33 91 43 98 Q59 108 73 118 Q87 128 101 139 Q115 150 127 160 Q139 170 150 180 Q173 200 190 216.5 Q207 233 219 246 Q225 252 229.5 257 Q234 262 237 266 Q241 270 244 273 L266 252 Z M58 274 Q40 265 24 249 Q17 243 10.5 235 Q4 227 3 217 Q3 208 11 207 Q22 205 33.5 210 Q45 215 55 221 Q67 230 77.5 242.5 Q88 255 93 270 Q95 272 95 276 Q95 280 90 283 L85 283 Q78 283 71 280 Q64 277 58 274 Z " />
<glyph glyph-name="f" unicode="f" horiz-adv-x="271" d="M278 244 Q236 231 195 221 Q160 213 119 205.5 Q78 198 43 200 Q43 193 42.5 186 Q42 179 41 171 Q39 161 39 156 Q38 155 38 152 Q33 124 27.5 96 Q22 68 15 40 Q7 12 0 -15 Q-7 -42 -15 -70 Q-32 -127 -52 -180 Q-63 -206 -75.5 -232.5 Q-88 -259 -103 -284 Q-111 -297 -118.5 -309 Q-126 -321 -136 -333 Q-141 -339 -146.5 -345 Q-152 -351 -159 -356 Q-166 -361 -173.5 -365.5 Q-181 -370 -190 -372 Q-195 -373 -199.5 -373.5 Q-204 -374 -209 -373 Q-213 -373 -215 -372 Q-217 -371 -218 -371 Q-219 -371 -220 -370 Q-224 -368 -230 -364 Q-238 -356 -241 -347 Q-242 -345 -242 -342 L-244 -338 Q-244 -336 -244.5 -334 Q-245 -332 -245 -330 Q-247 -314 -246 -298.5 Q-245 -283 -243 -269 Q-240 -255 -236.5 -241 Q-233 -227 -229 -213 Q-221 -183 -211 -157 Q-206 -143 -200.5 -130 Q-195 -117 -190 -104 Q-185 -90 -179 -77 Q-173 -64 -167 -51 Q-155 -25 -142.5 1 Q-130 27 -116 52 L-17 240 L-17 244 Q-17 248 -16 251 Q-15 253 -14 255 Q-13 257 -12 259 Q-9 265 -2 270 Q49 368 102 464 Q155 560 212 655 L237 641 Q182 549 131.5 456 Q81 363 30 268 L31 267 Q33 265 37 257 Q41 249 43 229 Q55 229 74 231 Q93 233 120.5 237.5 Q148 242 185 250.5 Q222 259 271 273 L278 244 Z M14 237 L13 234 Q13 234 15 233 L15 236 L14 237 Z M15 203 Q10 204 6 205 Q2 206 -1 207 L-9 193 L-90 39 Q-103 13 -115.5 -11.5 Q-128 -36 -140 -62 Q-146 -75 -151.5 -88 Q-157 -101 -163 -114 Q-168 -128 -173 -140.5 Q-178 -153 -183 -167 Q-188 -180 -192 -193 Q-196 -206 -200 -220 Q-204 -234 -207.5 -247 Q-211 -260 -213 -273 Q-219 -300 -216 -325 Q-215 -327 -215 -330 L-214 -333 Q-214 -334 -213 -335 Q-211 -340 -209 -341 Q-209 -343 -207 -343 L-206 -343 L-205 -343 Q-203 -344 -200.5 -343.5 Q-198 -343 -196 -343 Q-186 -341 -176.5 -333.5 Q-167 -326 -159 -315 Q-151 -304 -143.5 -292.5 Q-136 -281 -128 -269 Q-114 -246 -102 -220.5 Q-90 -195 -79 -169 Q-59 -116 -44 -63 Q-36 -36 -28.5 -8.5 Q-21 19 -14 46 Q-7 74 -1.5 101 Q4 128 9 156 Q10 163 10.5 169.5 Q11 176 13 184 Q13 189 13.5 193 Q14 197 15 202 L15 203 Z " />
<glyph glyph-name="g" unicode="g" horiz-adv-x="355" d="M373 249 Q303 195 235.5 138.5 Q168 82 100 25 Q84 -7 68.5 -38.5 Q53 -70 37 -102 Q25 -125 13 -147.5 Q1 -170 -12 -192 Q-35 -236 -65 -281 Q-73 -292 -80.5 -302 Q-88 -312 -97 -323 Q-101 -328 -105 -332.5 Q-109 -337 -114 -342 Q-124 -352 -136 -361 Q-142 -365 -149 -368.5 Q-156 -372 -164 -374 Q-168 -375 -176 -375 Q-200 -375 -208.5 -362 Q-217 -349 -217.5 -332.5 Q-218 -316 -213.5 -301.5 Q-209 -287 -208 -284 Q-207 -281 -206 -278 Q-205 -275 -203 -271 Q-198 -259 -171 -213.5 Q-144 -168 -84 -104 Q-64 -82 -39 -57.5 Q-14 -33 15 -7 Q21 -2 27.5 3 Q34 8 39 13 Q49 21 58 28 Q67 35 76 43 Q77 45 77 46 Q77 47 78 48 L101 97 Q75 77 54 67 Q33 57 16 52 Q2 49 -13 49 Q-28 49 -42 54 Q-62 62 -72 80 Q-82 98 -82 118 Q-83 143 -74 165.5 Q-65 188 -52 209 Q-42 225 -31.5 239 Q-21 253 -9 265 Q3 277 16 286.5 Q29 296 41 304 Q68 322 93 326 Q105 329 120 327 Q128 325 133 324 L139 321 Q143 319 144 318 Q148 315 154 309 L154 308 Q157 304 159 300 Q166 287 165.5 273 Q165 259 162 247 Q158 233 151 219 L125 234 Q138 261 136 274 Q134 287 128 292 Q128 293 127 293 Q125 294 123 296 Q121 296 119.5 296.5 Q118 297 116 297 Q108 299 99 297 Q79 294 57 279 Q36 266 13 244 Q2 233 -8 220 Q-18 207 -27 193 Q-36 179 -43 164 Q-50 149 -52 132 Q-54 117 -50 101 Q-46 85 -28 81 Q-15 78 -1.5 80 Q12 82 24 87 Q75 108 109.5 146.5 Q144 185 167 233 L170 240 Q175 249 179.5 258.5 Q184 268 188 277 L216 265 Q197 220 176 177.5 Q155 135 133 92 Q188 138 243 183 Q298 228 355 273 L373 249 Z M10 -88 Q18 -72 26.5 -56 Q35 -40 43 -23 Q36 -29 29.5 -34.5 Q23 -40 16 -46 Q-1 -61 -24 -83.5 Q-47 -106 -72 -134 Q-97 -162 -121 -193 Q-145 -224 -163 -257 Q-166 -263 -172 -275 Q-178 -287 -182.5 -300 Q-187 -313 -188 -325 Q-189 -337 -183 -342 Q-182 -343 -178.5 -344 Q-175 -345 -169.5 -344 Q-164 -343 -156 -338.5 Q-148 -334 -137 -323 Q-137 -323 -135 -322 Q-131 -317 -127.5 -313 Q-124 -309 -119 -304 Q-111 -294 -104 -284.5 Q-97 -275 -90 -264 Q-76 -244 -63 -222 Q-50 -200 -38 -178 Q-25 -155 -13 -133 Q-1 -111 10 -88 Z " />
<glyph glyph-name="h" unicode="h" horiz-adv-x="308" d="M330 253 Q309 229 287 205.5 Q265 182 242 159 L197 114 L173 92 Q167 87 160.5 81 Q154 75 144 70 Q135 65 124 64 Q106 62 94 74 Q83 85 84 102 Q85 119 90 133 Q92 138 94 143.5 Q96 149 98 154 L121 214 L132 243 Q132 244 133.5 248 Q135 252 134 254 Q132 255 126 251 Q123 249 120 246 L118 243 Q111 236 104.5 228.5 Q98 221 91 213 Q79 199 67 185 Q55 171 43 157 L-24 81 Q-40 64 -48 54.5 Q-56 45 -61 40 Q-66 34 -68 33 L-97 46 L-102 49 Q-100 54 -97.5 59.5 Q-95 65 -92 71 L-85 87 L-73 114 L-65 133 L-64 136 L-59 146 Q-51 165 -42 183.5 Q-33 202 -25 221 Q-16 240 -7 258.5 Q2 277 11 295 Q12 297 28 330.5 Q44 364 70 419 Q83 447 100 479 Q108 495 116.5 511.5 Q125 528 136 545 Q146 562 157.5 579 Q169 596 183 613 L198 628 Q200 630 202 631.5 Q204 633 206 635 Q210 639 216 642 Q225 649 237 654 Q241 655 244 655.5 Q247 656 252 657 Q261 657 269 653 Q271 652 273 650.5 Q275 649 277 647 Q281 643 282 640 Q283 638 284 636.5 Q285 635 286 633 Q286 632 288 626 Q290 619 289.5 612.5 Q289 606 288 600 Q286 588 282 578 Q278 568 273 558 Q268 547 263 539 Q261 534 258.5 530 Q256 526 253 521 Q248 513 242.5 504 Q237 495 231 487 Q208 455 183 429 Q158 403 136 380 Q113 359 95 341.5 Q77 324 65 311 Q58 305 53 300 Q48 295 45 292 Q43 289 40 286 L38 283 Q29 264 20 246 Q11 228 2 209 Q-6 190 -15 171.5 Q-24 153 -32 133 L-49 96 L-52 90 L-38 105 Q-25 121 -12 137 Q1 153 15 169 Q28 185 41 201 Q54 217 68 233 Q75 241 82 248.5 Q89 256 96 264 L100 268 L102 270 Q103 270 103 271 Q103 271 104 272 Q107 274 109.5 276 Q112 278 116 280 Q120 283 131 285 L140 285 Q145 284 150.5 280.5 Q156 277 161 268 Q165 259 164.5 250.5 Q164 242 162 237 L160 234 L149 204 L126 144 L117 120 Q117 119 115.5 115 Q114 111 113.5 106.5 Q113 102 113.5 98 Q114 94 117 94 L121 94 Q126 94 131 97 Q140 101 153 114 L176 136 Q187 147 198.5 158 Q210 169 221 180 Q266 225 308 273 L330 253 Z M97 406 Q92 395 87 385 Q82 375 77 365 Q86 373 95 382.5 Q104 392 115 402 Q137 423 161 448.5 Q185 474 207 505 Q218 520 227.5 536.5 Q237 553 246 571 Q255 587 258 605 Q260 616 259 620 Q259 621 258.5 621.5 Q258 622 258 623 Q258 623 257 625 Q256 625 256 626 L255 626 Q255 627 253 627 Q251 627 247 625 Q243 624 239.5 622 Q236 620 232 618 Q228 614 226 613 Q224 611 222.5 609.5 Q221 608 219 606 Q215 603 211.5 599.5 Q208 596 205 593 Q192 579 181.5 563 Q171 547 161 530 Q152 513 143 497 Q134 481 126 466 Q118 450 111 435 Q104 420 97 406 Z " />
<glyph glyph-name="i" unicode="i" horiz-adv-x="196" d="M48 310 L21 322 L30 343 L58 331 L48 310 Z M218 252 L213 247 Q211 245 208 241.5 Q205 238 201 233 Q193 224 181.5 211 Q170 198 156 181 Q141 165 124.5 147 Q108 129 88 110 Q70 90 47 72 Q41 67 35.5 63 Q30 59 24 54 Q18 49 11 45 Q4 41 -5 39 Q-7 38 -9 37.5 Q-11 37 -13 36 Q-15 36 -18 35.5 Q-21 35 -23 35 Q-33 35 -42 38 Q-47 40 -51.5 42 Q-56 44 -60 48 Q-68 56 -71 67 Q-74 77 -73.5 85 Q-73 93 -71 101 Q-70 109 -68.5 115.5 Q-67 122 -65 129 Q-60 143 -55 155 Q-50 167 -45 178 Q-40 189 -35.5 199.5 Q-31 210 -26 220 Q-17 240 -9 255.5 Q-1 271 4 282 Q5 283 5 283.5 Q5 284 6 285 L34 275 L31 269 Q26 258 18 242.5 Q10 227 1 208 Q-4 198 -8.5 187.5 Q-13 177 -18 166 Q-23 155 -27.5 143.5 Q-32 132 -36 120 Q-41 108 -42 96 Q-45 83 -42 75 Q-40 71 -39 70 Q-37 68 -33 66 Q-30 65 -24 65 L-19 65 Q-18 66 -17 66 Q-16 66 -14 67 Q-7 69 7 78 Q12 83 17.5 86.5 Q23 90 28 95 Q49 113 67 131 Q86 150 102.5 167.5 Q119 185 133 201 Q147 217 158.5 230 Q170 243 178 253 Q182 258 185.5 261 Q189 264 191 267 Q194 270 196 273 L218 252 Z " />
<glyph glyph-name="j" unicode="j" horiz-adv-x="169" d="M183 248 Q113 191 48 136.5 Q-17 82 -86 25 Q-101 -7 -116.5 -38.5 Q-132 -70 -148 -102 Q-160 -125 -172 -147.5 Q-184 -170 -197 -192 Q-210 -215 -223 -237 Q-236 -259 -250 -281 Q-258 -292 -265.5 -302 Q-273 -312 -282 -323 Q-287 -328 -291 -332.5 Q-295 -337 -300 -342 Q-308 -351 -321 -361 Q-327 -365 -334 -368.5 Q-341 -372 -349 -374 Q-353 -375 -362 -375 Q-386 -375 -394.5 -362 Q-403 -349 -403 -332.5 Q-403 -316 -399 -301.5 Q-395 -287 -394 -284 Q-390 -276 -388 -271 Q-383 -259 -356 -213.5 Q-329 -168 -270 -104 Q-250 -82 -224.5 -57.5 Q-199 -33 -170 -7 Q-164 -2 -158 3 Q-152 8 -146 13 Q-137 21 -128 28 Q-119 35 -109 43 Q-109 46 -107 48 L2 277 L3 277 Q14 272 19 270.5 Q24 269 27 267 Q30 265 31 265 Q10 219 -10 177 Q-30 135 -52 92 Q3 138 57.5 183 Q112 228 169 273 L183 248 Z M-142 -23 Q-149 -29 -155.5 -34.5 Q-162 -40 -169 -46 Q-186 -61 -209.5 -83.5 Q-233 -106 -258 -133.5 Q-283 -161 -307 -192.5 Q-331 -224 -348 -257 Q-351 -263 -357 -275 Q-363 -287 -367.5 -300 Q-372 -313 -373 -324.5 Q-374 -336 -368 -341 Q-367 -342 -364 -343.5 Q-361 -345 -355.5 -344 Q-350 -343 -342 -338.5 Q-334 -334 -323 -324 L-321 -322 Q-313 -314 -305 -303 Q-289 -285 -275 -264 Q-261 -243 -248.5 -221.5 Q-236 -200 -223 -178 Q-210 -155 -198 -133.5 Q-186 -112 -175 -89 L-142 -23 Z M44 298 L16 310 L26 331 L53 320 L44 298 Z " />
<glyph glyph-name="k" unicode="k" horiz-adv-x="246" d="M301 629 Q302 618 299.5 607.5 Q297 597 294 588 Q291 576 287 569 Q285 565 283.5 561 Q282 557 280 552 Q272 534 262 517.5 Q252 501 241 485 Q219 454 193 426.5 Q167 399 140 373 Q114 347 86.5 322 Q59 297 33 271 L27 259 L15 232 L21 238 Q30 251 43 259 Q45 260 46.5 261 Q48 262 50 263 L58 267 Q62 269 65 269.5 Q68 270 71 272 Q75 272 77 273 L82 273 Q95 271 100 264 Q106 255 103 245 Q101 234 93 224 Q93 223 92 222 L92 221 L89 218 Q87 216 87 215 Q77 205 63 200 Q49 195 36 192 Q21 188 5 188 Q3 173 2 156 Q1 142 1.5 125 Q2 108 4 94 Q6 86 9 77.5 Q12 69 20 66 Q21 66 21.5 65.5 Q22 65 23 65 L24 65 L25 65 Q33 65 38 67 Q39 68 40 68 L41 68 Q41 69 42 69 Q43 69 43 69.5 Q43 70 44 70 Q49 72 57 78 Q62 83 68 86.5 Q74 90 79 95 Q100 113 118 131 Q137 150 153.5 167.5 Q170 185 184 201 Q198 217 209.5 230 Q221 243 229 253 Q233 258 236.5 261 Q240 264 242 267 Q245 270 246 273 L267 252 Q266 250 263 247 Q261 245 258 241.5 Q255 238 251 233 Q243 224 231.5 211 Q220 198 206 181 Q192 165 175.5 147 Q159 129 139 110 Q119 90 98 72 Q92 67 86.5 63 Q81 59 75 54 Q69 49 61.5 45 Q54 41 46 39 L37 36 Q35 36 32.5 35.5 Q30 35 27 35 L25 35 Q20 35 17 36 Q2 39 -6.5 49 Q-15 59 -19.5 71.5 Q-24 84 -25 97.5 Q-26 111 -26 121 L-25 137 L-60 56 L-67 39 L-94 51 Q-67 120 -37.5 188 Q-8 256 24 324 Q41 357 58 390 Q75 423 92 456 Q110 489 129 521 Q148 553 170 585 Q181 600 193 615 Q205 630 222 643 Q226 646 230 649 Q234 652 239 655 Q250 660 260 663 Q268 665 274 664 Q277 664 283 662 Q285 660 287 659.5 Q289 659 291 657 Q294 654 296 650 Q298 646 298 645 Q299 644 299 642 Q301 637 301 629 Z M60 234 Q54 230 50 226 Q52 226 53 227 Q55 228 57 229 Q59 230 61 232 L68 239 L65 237 Q63 236 62.5 236 Q62 236 60 234 Z M253 564 Q260 581 266 597.5 Q272 614 272 628 Q271 630 271 634 L271 635 L270 635 L269 635 Q268 635 268 634.5 Q268 634 267 634 Q263 633 253 629 Q250 627 246.5 624.5 Q243 622 240 620 Q226 609 215.5 595.5 Q205 582 194 568 Q173 537 154.5 505.5 Q136 474 118 442 Q106 418 93.5 394 Q81 370 69 346 L120 394 Q146 420 171 446.5 Q196 473 217 503 Q237 530 253 564 Z " />
<glyph glyph-name="l" unicode="l" horiz-adv-x="223" d="M273 630 Q277 622 278 615 Q279 608 279 601 Q278 590 274 577 Q270 566 265 555.5 Q260 545 255 535 Q244 515 232 498 Q220 481 207 464 Q182 432 157.5 403 Q133 374 111 350 Q89 326 71 306.5 Q53 287 40 273 L26 259 L17 238 Q11 224 5 208 Q-1 192 -8 175 Q-13 161 -18.5 143 Q-24 125 -26 108.5 Q-28 92 -25.5 80 Q-23 68 -12 65 Q-5 62 6 65 Q15 67 28.5 75 Q42 83 61 100 Q79 115 95 131 Q113 150 130 167.5 Q147 185 161 201 Q175 217 186 230 Q197 243 205 253 Q209 258 212.5 261 Q216 264 218 267 Q221 270 223 273 L245 252 L240 247 Q238 245 235 241.5 Q232 238 228 233 Q220 224 208.5 211 Q197 198 183 181 Q169 165 152 147 Q135 129 116 110 Q106 100 95.5 90.5 Q85 81 74 72 Q72 70 69.5 68.5 Q67 67 65 65 Q56 58 44 51 Q32 44 18 39.5 Q4 35 -10.5 36 Q-25 37 -38 47 Q-46 53 -51.5 63.5 Q-57 74 -57.5 91.5 Q-58 109 -52.5 133.5 Q-47 158 -33 192 Q-27 208 -21.5 222 Q-16 236 -10 249 Q-9 253 -5 261 Q-4 265 0 275 Q7 291 12.5 304 Q18 317 22 326 Q26 337 30 345 L30 344 Q36 358 43 374.5 Q50 391 58 409 Q66 424 73.5 439.5 Q81 455 90 472 Q98 489 107 506 Q116 523 127 541 Q138 559 150.5 576.5 Q163 594 178 611 L187 619 L195 627 Q205 635 215 641 Q221 644 227.5 646.5 Q234 649 243 649 Q253 649 261 644 Q270 638 273 630 Z M249 603 Q249 614 247 616 Q245 619 243 619 Q239 619 229 615 Q225 613 221.5 610 Q218 607 214 604 L207 598 L200 591 Q172 560 153 526 Q143 509 134 492 Q125 475 116 458 L85 396 Q78 380 71.5 366 Q65 352 60 339 Q67 346 74 354 Q81 362 89 370 Q111 394 135 422 Q159 450 183 482 Q195 498 206.5 515 Q218 532 229 550 Q238 566 245 586 Q247 591 248 595 Q249 599 249 603 Z " />
<glyph glyph-name="m" unicode="m" horiz-adv-x="355" d="M378 254 Q372 245 363 234 Q355 224 344.5 210 Q334 196 320 177 Q306 158 290 136 Q274 114 254 88 L248 79 Q246 77 245 75 Q244 73 242 71 Q237 64 227 53 Q217 42 205 31 Q193 20 180 12.5 Q167 5 155 5 L154 5 Q152 6 149 6 L147 6 L147 7 Q145 7 141 9 Q138 11 135.5 12.5 Q133 14 131 16 Q120 27 120.5 43.5 Q121 60 123 71 L123 72 Q124 74 124 74.5 Q124 75 125 77 Q126 82 127 85.5 Q128 89 129 93 L135 108 L138 114 L138 115 Q139 116 139 116.5 Q139 117 140 118 Q142 123 144.5 129 Q147 135 149 138 Q158 158 166.5 177 Q175 196 180 215 Q182 221 183.5 226.5 Q185 232 185 236 L185 243 Q184 244 184 244 L183 244 Q181 244 177 242 Q169 237 161 229 Q159 227 157.5 225 Q156 223 154 221 L147 212 Q143 207 139.5 202.5 Q136 198 132 193 Q125 183 118 173.5 Q111 164 104 154 Q91 135 78.5 116.5 Q66 98 52 78 L24 89 Q51 144 75 203 Q77 211 80 217.5 Q83 224 85 232 L86 236 Q86 237 86.5 237.5 Q87 238 87 239 Q87 241 87.5 242 Q88 243 88 245 Q89 247 89 251 L89 253 Q81 249 65 233 Q57 224 47.5 211.5 Q38 199 27 185 Q8 159 -10.5 131.5 Q-29 104 -44 80 Q-62 52 -78 25 L-110 33 L-104 47 Q-80 107 -52 163.5 Q-24 220 2 278 L29 267 Q19 244 9 222 Q-1 200 -12 178 L7 203 Q15 214 24 226 Q33 238 42 249 Q42 250 43 251 Q44 252 44 252.5 Q44 253 45 254 Q52 263 63 271 Q67 275 69 276 Q78 281 87.5 282.5 Q97 284 108 279 Q109 278 109 277.5 Q109 277 110 276 Q115 272 117 263 Q119 259 119 255 L119 250 Q119 248 118.5 245.5 Q118 243 118 241 Q117 238 117 236 Q117 234 116 232 Q116 230 115.5 229 Q115 228 115 227 L113 223 Q112 219 110 213 Q113 218 116.5 222 Q120 226 123 230 L131 240 Q133 242 135.5 245 Q138 248 140 250 Q149 261 162 268 Q166 270 170 271.5 Q174 273 179 274 Q184 275 190 274 Q196 273 201 269 Q211 263 214 251 Q215 246 215 242 Q215 238 215 234 Q215 226 212 219 L209 207 Q203 187 195.5 169 Q188 151 180 134 Q178 129 176 125 Q172 118 167 105 Q163 97 160 88.5 Q157 80 154 72 L153 66 Q152 64 152 62 Q152 61 151 60 Q149 55 149 51 Q147 43 151 39 L152 38 L154 36 Q155 35 156 35 L157 35 Q158 35 159 35.5 Q160 36 162 36 Q166 38 169 40 Q169 40 171 41 L173 43 Q173 43 175 44 L177 46 Q180 48 186 54 Q187 54 187 55 Q197 64 215 86.5 Q233 109 251 133 Q269 157 282.5 175.5 Q296 194 296 195 Q310 214 320.5 228.5 Q331 243 339 253 Q348 264 355 273 L378 254 Z " />
<glyph glyph-name="n" unicode="n" horiz-adv-x="282" d="M306 254 Q299 245 290 234 Q275 214 248 177 Q234 158 217.5 136 Q201 114 182 88 Q178 82 175 79 Q174 77 173 75 Q172 73 170 71 Q164 64 154.5 53 Q145 42 133 31 Q121 20 107.5 12.5 Q94 5 82 5 L81 5 Q80 6 77 6 L75 6 Q75 7 74 7 Q72 7 68 9 Q62 13 59 16 Q48 27 48.5 43.5 Q49 60 51 71 L51 72 Q51 73 51.5 74 Q52 75 52 76 Q56 88 60 100 Q63 110 66.5 121 Q70 132 73 140 Q74 141 74 142 Q74 143 75 144 L82 167 L91 193 Q96 207 98.5 216 Q101 225 102 231 Q103 238 103 242 Q95 242 79.5 227 Q64 212 48 194 Q30 173 9 147 Q-7 125 -21 104.5 Q-35 84 -46 67 Q-59 48 -70 29 L-105 44 L-87 86 Q-85 91 -82.5 95.5 Q-80 100 -78 105 L-78 106 Q-78 106 -77 108 L-65 134 Q-60 146 -54 158 Q-48 170 -43 183 Q-31 206 -20 230 Q-9 254 2 278 L30 266 Q19 242 7 218 Q-5 194 -16 170 L-37 125 Q-36 126 -24 145 Q-12 164 6.5 188.5 Q25 213 47 236 Q69 259 90 267 Q102 272 111 271 L111 270 L112 270 Q116 270 122 267 L126 263 Q130 259 133 251 Q133 249 133.5 248 Q134 247 134 245 L134 240 Q134 231 132 224 Q130 217 128 209 L110 157 L90 97 Q87 89 84 81 Q82 74 80 66 Q78 58 78 53 Q76 43 79 39 Q79 38 80 38 Q80 36 82 36 Q82 35 83 35 L85 35 Q86 35 87 35.5 Q88 36 90 36 Q94 38 96 40 Q97 40 98 41 L100 43 Q101 43 102 44 L104 46 Q108 48 114 54 Q114 54 115 55 Q121 60 126 66 Q131 72 136 77 Q140 82 145 88 Q146 90 148 92 Q151 96 153.5 99 Q156 102 158 105 Q177 131 193.5 153.5 Q210 176 224 195 Q238 214 248.5 228.5 Q259 243 267 253 Q276 264 282 273 L306 254 Z " />
<glyph glyph-name="o" unicode="o" horiz-adv-x="286" d="M306 249 L304 247 Q302 246 300.5 245 Q299 244 297 242 Q294 240 286 234 Q282 230 279 228 Q277 226 271 222 L262 216 Q260 214 257 212.5 Q254 211 252 209 Q247 205 241 202 Q235 199 228 195 Q214 188 199 181 Q184 174 166 169 L157 166 Q155 165 152.5 165 Q150 165 148 164 Q143 162 138 161.5 Q133 161 128 160 Q126 160 123 159.5 Q120 159 118 159 L117 159 Q115 154 112.5 149.5 Q110 145 108 140 Q103 129 96.5 118.5 Q90 108 83 98 Q75 88 67.5 79 Q60 70 51 62 Q50 60 49 59.5 Q48 59 47 58 L45 55 L42 54 Q36 48 33 46 Q22 37 11 32 Q9 31 8 31 Q7 31 5 30 Q4 29 2 29 Q1 28 -1 28 Q-3 27 -4.5 27 Q-6 27 -8 26 L-12 26 L-15 26 Q-23 26 -30 27 Q-37 28 -43 32 Q-47 33 -55 39 Q-58 41 -60 44 Q-62 44 -62 46 L-65 49 L-66 50 Q-66 50 -67 51 L-69 54 Q-69 55 -69.5 55.5 Q-70 56 -70 57 Q-71 58 -71 58.5 Q-71 59 -72 60 Q-74 63 -74.5 66 Q-75 69 -77 72 Q-80 84 -80 95 Q-81 101 -80.5 106.5 Q-80 112 -79 117 Q-78 135 -71 155 Q-66 173 -58.5 188.5 Q-51 204 -43 216 Q-27 241 -13 258 Q-6 266 -0.5 272 Q5 278 9 283 L15 289 L17 291 L38 269 L37 267 Q35 266 31 262 Q23 254 11 239 Q-1 226 -17 200 Q-25 189 -31 175 Q-34 168 -37 161 Q-40 154 -42 146 Q-44 138 -46 130 Q-48 122 -49 113 Q-50 109 -50 105 Q-50 101 -50 96 Q-50 87 -47 80 Q-47 79 -45 73 Q-44 73 -44 72 Q-44 71 -43.5 71 Q-43 71 -43 70 L-42 69 L-41 68 L-40 66 L-39 65 Q-38 64 -37.5 64 Q-37 64 -36 63 Q-34 61 -30 59 Q-24 56 -16 56 L-14 56 L-13 56 Q-11 57 -9 57 Q-8 57 -8 57.5 Q-8 58 -7 58 L-5 58 Q-4 59 -3 59 Q-2 59 -1 60 Q3 62 6.5 64.5 Q10 67 15 70 Q17 72 23 76 L25 78 L26 80 Q29 81 30 84 Q47 99 58 116 Q72 135 81 154 Q83 156 85 162 L83 162 Q78 164 72 166.5 Q66 169 61 173 Q58 175 55.5 177 Q53 179 50 181 L49 182 L48 183 L46 186 Q44 188 44 189 Q42 191 42 192 Q33 204 32 217 Q30 224 30.5 230.5 Q31 237 32 244 Q33 246 33 247.5 Q33 249 34 251 Q34 252 34.5 252.5 Q35 253 35 254 L36 258 Q37 259 37 261 L39 264 L41 267 Q41 268 41.5 268.5 Q42 269 42 270 Q48 278 51 281 Q54 284 62 290 Q70 296 75 297 Q85 301 91 301 L96 301 Q97 301 97.5 300.5 Q98 300 100 300 Q102 300 108 298 Q110 297 112 296 Q114 295 116 294 L117 293 L118 293 Q118 292 120 292 L123 289 Q128 283 133 276 Q137 268 139 261 Q142 248 140 233 Q139 226 138 220 Q137 214 135 208 Q133 200 131 196 L130 191 Q132 192 135 192 Q138 192 141 193 Q147 195 149 195 Q155 197 157 198 Q174 203 187.5 209 Q201 215 213 222 Q219 225 224.5 228 Q230 231 235 235 Q239 237 245 241 Q251 245 253 247 Q259 251 261 252 Q263 254 264.5 255 Q266 256 268 258 Q270 260 273 262 Q276 264 278 266 Q280 268 281.5 269 Q283 270 284 271 L286 273 L306 249 Z M92 192 Q93 191 94 191 Q95 191 97 190 Q98 192 98 192.5 Q98 193 99 195 Q99 196 101 200 L103 205 Q105 213 106 216 Q108 221 108.5 226 Q109 231 110 236 Q111 244 109 254 Q109 257 107 261 Q106 263 103 266 Q102 267 101 267 L101 268 L100 268 Q99 269 98 269 Q96 270 92 270 Q88 270 86 269 Q84 268 82.5 267.5 Q81 267 79 266 L73 260 Q71 258 70.5 257 Q70 256 68 254 Q68 253 67 252 L66 250 L65 248 Q65 248 64 246 L64 244 Q63 244 63 242 Q63 241 62.5 240.5 Q62 240 62 238 Q60 230 62 222 Q62 215 67 208 L68 207 Q68 206 68.5 206 Q69 206 69 205 L70 204 L71 203 L72 203 Q74 200 77 198 Q83 193 92 192 Z " />
<glyph glyph-name="p" unicode="p" horiz-adv-x="335" d="M355 251 Q329 228 296 201 Q263 174 227 147 Q191 120 155 96 Q119 72 86 55 Q80 52 74 49 Q68 46 63 44 Q57 42 54 40 Q53 40 53 39.5 Q53 39 52 39 L51 39 Q42 35 32.5 32 Q23 29 12 29 Q-14 27 -33 46 Q-43 56 -46 68 Q-47 70 -47 73 Q-53 62 -59 52.5 Q-65 43 -70 33 Q-88 0 -104.5 -33 Q-121 -66 -138 -100 Q-143 -110 -147 -120 Q-151 -130 -156 -140 Q-168 -166 -180 -193 Q-192 -220 -204 -247 Q-218 -279 -232 -311 Q-246 -343 -260 -375 L-288 -363 Q-274 -331 -260 -299.5 Q-246 -268 -232 -236 Q-218 -205 -204.5 -174.5 Q-191 -144 -176 -112 Q-130 -11 -84 88 Q-38 187 7 288 L34 276 Q25 256 16 235 Q7 214 -3 194 Q5 205 14 215.5 Q23 226 34 236 Q41 243 48.5 249.5 Q56 256 64 261 Q82 274 102 280 Q107 282 112.5 283 Q118 284 124 284 Q130 284 136.5 283.5 Q143 283 149 280 Q161 275 170 263 Q174 257 175.5 250.5 Q177 244 178 239 Q180 227 178 216.5 Q176 206 174 196 Q171 186 168 176.5 Q165 167 160 158 Q155 148 150.5 139 Q146 130 140 122 Q190 160 238.5 195.5 Q287 231 335 273 L355 251 Z M11 59 Q18 59 21 60 Q23 62 35 65 Q36 66 38 66 Q39 67 39.5 67 Q40 67 41 68 Q56 76 69 87 Q76 93 82.5 99 Q89 105 94 112 Q118 137 133 171 Q140 185 145 203 Q147 212 148.5 220 Q150 228 148 235 Q148 243 145 246 Q142 251 138 252 Q127 257 111 252 Q97 247 82 237 Q74 232 67.5 226.5 Q61 221 55 214 Q42 202 30.5 188 Q19 174 8 159 Q2 150 -4 141 Q-10 132 -16 124 L-6 113 Q-11 108 -14 102 Q-17 96 -18 89 Q-19 76 -12 67 Q-1 58 11 59 Z " />
<glyph glyph-name="q" unicode="q" horiz-adv-x="326" d="M345 250 Q308 220 273 188.5 Q238 157 203 125 Q186 109 168.5 93.5 Q151 78 133 62 Q124 54 115 46.5 Q106 39 97 31 Q87 22 84 17 Q83 15 82.5 14 Q82 13 81 11 Q81 9 79 1 Q78 -9 78.5 -20 Q79 -31 79 -42 Q79 -48 78.5 -54.5 Q78 -61 78 -67 L75 -91 Q73 -114 68 -137.5 Q63 -161 56 -184 Q42 -231 17 -274 Q11 -285 4 -294.5 Q-3 -304 -11 -314 Q-20 -324 -28 -332.5 Q-36 -341 -45 -350 Q-54 -359 -65 -366 Q-74 -374 -90 -380 Q-92 -380 -98 -382 L-106 -382 Q-112 -382 -115 -381 Q-117 -381 -117.5 -380.5 Q-118 -380 -120 -380 Q-121 -379 -125 -377 Q-126 -376 -127 -375.5 Q-128 -375 -129 -374 Q-130 -372 -131 -371.5 Q-132 -371 -133 -369 Q-134 -367 -134 -366.5 Q-134 -366 -135 -364 Q-136 -363 -136 -362 Q-136 -361 -137 -359 Q-138 -356 -138 -350 Q-138 -345 -137 -343 Q-136 -329 -131 -317 Q-129 -311 -126.5 -305 Q-124 -299 -121 -294 Q-116 -283 -111.5 -272.5 Q-107 -262 -102 -251 Q-82 -208 -60 -166 Q-38 -124 -17 -82 L26 1 Q32 14 38 26 Q44 38 49 50 L50 51 Q53 58 56.5 65 Q60 72 63 80 L63 79 Q53 71 42.5 65 Q32 59 20 54 Q8 49 -8 47 Q-22 45 -40 52 Q-58 62 -68 76 Q-78 92 -79 107 Q-82 122 -79.5 135.5 Q-77 149 -73 161 Q-66 181 -53 206 Q-28 249 8 280 Q17 288 27 295 Q37 302 48 308 Q54 311 60 313.5 Q66 316 73 318 Q89 322 104 319 Q111 317 118 314.5 Q125 312 132 307 Q134 306 136 304 Q138 302 144 294 Q144 293 144.5 293 Q145 293 145 292 Q147 287 149 282 Q151 277 151.5 270 Q152 263 150 254 L171 245 Q165 230 158 216 L132 159 Q122 138 112.5 116.5 Q103 95 93 74 Q91 70 89.5 67 Q88 64 86 60 Q94 66 100.5 72 Q107 78 114 84 Q131 100 149 115.5 Q167 131 184 147 Q219 179 254 210.5 Q289 242 326 273 L345 250 Z M48 -66 Q49 -60 49 -55 Q49 -50 49 -44 Q49 -38 48.5 -31.5 Q48 -25 49 -18 L9 -95 Q-12 -137 -33.5 -178.5 Q-55 -220 -75 -263 Q-80 -274 -84.5 -284 Q-89 -294 -94 -305 Q-97 -310 -99 -315.5 Q-101 -321 -103 -326 Q-107 -337 -108 -345 L-108 -349 L-108 -351 L-108 -352 L-107 -352 Q-106 -353 -105.5 -352.5 Q-105 -352 -104 -353 L-103 -353 Q-102 -353 -102 -352.5 Q-102 -352 -101 -352 Q-99 -352 -98 -351 Q-90 -349 -81.5 -343 Q-73 -337 -65 -329 Q-57 -321 -49 -312.5 Q-41 -304 -34 -296 Q-26 -287 -20 -278 Q-14 -269 -8 -259 Q15 -219 28 -177 Q40 -134 46 -88 Q47 -83 47 -77 Q47 -71 48 -66 Z M5 82 Q15 86 24 91.5 Q33 97 42 104 Q51 110 59 118 Q59 118 65.5 125 Q72 132 81 142.5 Q90 153 100 167 Q110 181 118 196 L118 198 Q119 199 119 199.5 Q119 200 120 201 L129 222 L109 233 Q115 243 118 253 Q120 258 121 262.5 Q122 267 121 272 Q121 280 117 283 Q112 288 103 290 Q93 292 83.5 289.5 Q74 287 65 282 Q47 272 30 256 Q-3 227 -26 188 Q-37 168 -44 148 Q-48 137 -50 127 Q-52 117 -50 107 Q-48 98 -43 90 Q-38 82 -31 79 Q-14 72 5 82 Z " />
<glyph glyph-name="r" unicode="r" horiz-adv-x="278" d="M293 251 L166 131 Q149 116 132 101 Q115 86 97 72 Q88 65 78.5 58.5 Q69 52 58 46 Q50 41 34 36 Q32 36 30 35.5 Q28 35 26 35 Q24 35 21.5 34.5 Q19 34 16 36 Q6 37 -2 47 Q-5 50 -7 60 L-7 67 Q-7 69 -6 70 L-6 73 Q-4 78 -2.5 82 Q-1 86 1 89 L15 114 L42 164 L55 189 L62 201 Q66 209 68 212 Q73 225 73 232 Q73 235 71 237 Q69 239 66 240 Q61 242 55 242.5 Q49 243 41 244 Q37 244 33.5 244.5 Q30 245 25 246 Q20 248 16 249.5 Q12 251 7 255 Q2 258 -1 263.5 Q-4 269 -6 274 Q-9 283 -7 295 Q-6 304 -1 313 Q2 317 4.5 320.5 Q7 324 12 328 Q15 331 19 333.5 Q23 336 28 338 Q30 338 31 338.5 Q32 339 33 339 Q35 340 40 340 Q50 340 54 338 Q68 335 71 320 Q73 313 71 307 Q69 303 69 300 Q68 298 67 297 Q66 296 66 295 Q64 290 61 287 Q58 284 55 281 L47 273 Q53 272 60 271.5 Q67 271 75 268 Q80 266 85 264 Q90 262 94 257 Q102 246 102 235 Q104 224 101 216 Q98 208 95 201 Q91 191 89 187 L82 174 L68 149 L41 100 L27 75 Q23 67 23 65 L24 65 L27 65 Q31 66 35 68 Q39 70 44 72 Q64 84 79 96 Q96 110 112.5 124 Q129 138 146 153 L278 273 L293 251 Z M40 310 L38 309 Q35 309 31 305 Q25 300 23 291 L24 292 L34 301 Q36 303 37.5 305 Q39 307 40 309 L40 310 Z " />
<glyph glyph-name="s" unicode="s" horiz-adv-x="253" d="M278 256 Q277 256 277 255 Q277 255 275 251 Q265 237 255.5 223 Q246 209 235 195 L232 191 Q200 147 163 110 Q154 100 144 91 Q134 82 124 74 Q113 66 102.5 59 Q92 52 81 45 Q65 34 47 25.5 Q29 17 10 12 Q-11 7 -33.5 6.5 Q-56 6 -76 17 Q-103 30 -111 55 L-92 83 Q-89 68 -78 56 Q-67 44 -51 41 Q-30 36 -10 45.5 Q10 55 22 72 Q36 91 36.5 112.5 Q37 134 28 154 Q23 164 16.5 174.5 Q10 185 4 195.5 Q-2 206 -5.5 217.5 Q-9 229 -9 241 Q-10 261 2.5 277 Q15 293 30 304 Q35 308 39.5 310 Q44 312 47 314 Q48 315 49 315 Q50 315 51 316 Q52 316 52 317 L68 289 Q51 281 40 270 Q30 261 25 248.5 Q20 236 28 221 Q45 192 55 169.5 Q65 147 66 130 Q68 116 65.5 98 Q63 80 50 61 L54 63 Q60 67 63 68 Q88 83 107 100 Q151 135 185 178.5 Q219 222 250 268 Q251 269 251 270 Q251 271 252 272 Q252 273 253 273 L278 256 Z " />
<glyph glyph-name="t" unicode="t" horiz-adv-x="267" d="M239 487 Q301 488 369 488.5 Q437 489 506.5 488 Q576 487 645 484.5 Q714 482 779 478 L778 448 Q706 450 618 453 Q543 455 440.5 456.5 Q338 458 217 456 Q208 444 201.5 436 Q195 428 193 425 L187 419 Q174 404 161.5 391 Q149 378 137 366 Q113 343 92.5 324.5 Q72 306 58 293 Q51 286 45.5 281 Q40 276 37 272 Q35 270 34 269.5 Q33 269 32 268 Q24 251 19 239 Q16 233 15 229 Q13 227 13 225 Q4 203 -5 177.5 Q-14 152 -19 123 Q-21 116 -22 109 Q-23 102 -24 95 Q-24 88 -24 81.5 Q-24 75 -22 70 Q-18 59 -10 56 Q-3 53 11 57 Q18 59 24 62.5 Q30 66 37 70 Q43 75 49.5 79 Q56 83 62 88 Q85 106 109 126 Q132 146 151.5 164.5 Q171 183 189 200 Q225 234 245 253 Q257 264 267 273 L287 252 Q278 243 266 232 Q255 222 240.5 209 Q226 196 209 179 Q192 162 171.5 143 Q151 124 128 104 Q117 93 105 83 Q93 73 80 64 Q73 59 66.5 54.5 Q60 50 53 45 Q45 40 37.5 36 Q30 32 21 29 Q16 27 11 26.5 Q6 26 1 25 Q-4 25 -9.5 25.5 Q-15 26 -21 28 Q-32 33 -40 42 Q-46 48 -50 61 Q-53 71 -53.5 80 Q-54 89 -53 97 Q-53 102 -53 105.5 Q-53 109 -51 114 Q-51 119 -49 129 Q-35 192 -16 236 Q-7 259 1.5 277 Q10 295 16 308 Q21 318 25 328 Q27 332 29 335 L30 335 Q34 344 38.5 354.5 Q43 365 48 376 Q53 388 59 400 Q65 412 71 426 L86 453 L-53 448 L-101 447 L-201 443 L-201 473 L-34 479 Q-8 481 26.5 481.5 Q61 482 103 484 Q109 495 113 502.5 Q117 510 119 512 Q130 530 141 549 Q152 568 166 585 Q181 605 198 619 L207 627 L217 634 Q222 637 227.5 640.5 Q233 644 240 646 Q244 647 247.5 648 Q251 649 256 649 Q266 649 275 642 Q280 637 282 634 Q284 632 286 626 Q289 618 289 610 Q289 603 288 596.5 Q287 590 285 585 Q283 579 281 573 Q279 567 277 562 L273 552 L271 547 L268 542 Q266 537 264 532 Q262 527 259 522 Q255 514 253 511 Q250 505 246.5 499 Q243 493 239 487 Z M160 433 Q165 438 169.5 443.5 Q174 449 179 455 Q164 455 149 454.5 Q134 454 120 454 Q118 450 116.5 447 Q115 444 113 441 Q111 437 109.5 434 Q108 431 106 428 Q97 411 89.5 395 Q82 379 75 364 Q72 357 69 351 Q66 345 64 338 Q75 349 88.5 361 Q102 373 116 387 Q127 398 138 409 Q149 420 160 432 L160 433 Z M232 535 Q234 540 236.5 544.5 Q239 549 241 554 L243 558 L245 564 L249 573 Q253 582 256 593 Q259 602 259 610 Q259 618 256 618 Q256 619 255 619 Q254 619 250 617 Q243 616 233 609 L225 603 L217 597 Q204 585 189 567 Q178 553 168 537.5 Q158 522 149 506 L146 500 Q143 494 137 485 Q153 485 169.5 485.5 Q186 486 203 486 Q211 498 215 505 Q217 508 219 511 Q221 514 223 517 L232 535 Z " />
<glyph glyph-name="u" unicode="u" horiz-adv-x="277" d="M299 253 Q277 228 255 204.5 Q233 181 210 158 L164 112 L141 89 L130 78 Q127 75 123.5 72 Q120 69 116 66 Q112 63 108 60 Q104 57 99 55 Q94 53 87.5 52 Q81 51 74 53 Q66 55 61 59 Q55 65 52 71 Q50 76 48 86 Q44 80 41 78 Q30 64 12 51 Q6 46 -6 41 Q-11 39 -16 37.5 Q-21 36 -27 35 Q-32 34 -38.5 34.5 Q-45 35 -52 38 Q-65 44 -72 56 Q-83 76 -78 101 Q-76 109 -74 112 L-71 121 L-64 137 Q-60 145 -57 153.5 Q-54 162 -50 170 Q-35 203 -19.5 235 Q-4 267 13 299 L40 285 Q23 253 7.5 221.5 Q-8 190 -23 158 Q-28 143 -37 126 L-41 115 L-42 113 Q-44 110 -46 103.5 Q-48 97 -48.5 89.5 Q-49 82 -47.5 75.5 Q-46 69 -40 65 Q-37 63 -31 65 Q-26 65 -18 69 Q-10 72 -5 76 Q8 85 19 97 Q30 110 39 124.5 Q48 139 58 154 Q67 170 76 186.5 Q85 203 94 220 Q102 235 110 249.5 Q118 264 126 278 L152 263 Q144 249 136.5 235 Q129 221 121 207 Q105 177 94 149 Q91 142 88.5 135 Q86 128 84 120 Q78 105 78 93 Q76 87 79 84 Q79 83 80 83 Q80 82 81 82 Q85 82 88 83 Q90 84 93 85.5 Q96 87 98 89 Q106 95 109 99 L120 110 L143 133 L188 179 Q211 202 233.5 225.5 Q256 249 277 273 L299 253 Z " />
<glyph glyph-name="v" unicode="v" horiz-adv-x="269" d="M196 244 Q168 241 152 232 L150 232 Q136 224 126 212 Q116 200 113 194 Q111 192 109 189 Q107 186 105 183 Q102 178 99 173.5 Q96 169 93 164 Q81 146 68.5 127.5 Q56 109 42 91 L29 73 Q25 68 22 64 Q19 60 15 55 Q11 50 6 45.5 Q1 41 -6 37 Q-10 35 -13.5 34 Q-17 33 -22 32 L-31 32 Q-33 33 -36 33.5 Q-39 34 -41 35 Q-50 40 -53 47 Q-57 55 -58 59 Q-59 64 -59.5 69 Q-60 74 -60 79 Q-60 96 -55 116 Q-50 132 -45 149 L-34 181 Q-23 213 -11 244.5 Q1 276 15 308 L42 296 Q29 265 17 234 Q5 203 -6 171 L-16 140 Q-18 132 -21 124 Q-24 116 -26 108 Q-28 100 -29 93 Q-30 86 -30 79 Q-30 70 -29 66 Q-27 62 -27 62 L-25 62 Q-24 62 -20 64 Q-15 65 -8 74 Q-5 78 -1.5 82 Q2 86 5 91 L18 109 Q32 126 44 144 Q56 162 68 181 Q71 186 74 190 Q77 194 80 199 Q83 204 86 208.5 Q89 213 92 218 Q93 220 94 221 Q95 222 96 224 Q100 229 108 237.5 Q116 246 129 254 Q142 262 159 267.5 Q176 273 199 273 L269 273 L275 244 L236 244 L208 244 L204 244 L196 244 Z " />
<glyph glyph-name="w" unicode="w" horiz-adv-x="350" d="M355 244 L317 244 L288 244 L284 244 L277 244 Q248 241 232 232 L231 232 L230 232 Q225 229 221 226 Q217 223 213 219 Q208 214 202.5 206.5 Q197 199 190 191 L187 185 Q182 176 171 159 Q160 142 151 128 L151 127 Q150 125 143 114.5 Q136 104 125 93.5 Q114 83 100 77 Q86 71 71 77 Q71 77 69 78 Q59 83 55 94 Q53 99 52.5 102.5 Q52 106 51 110 Q51 113 51.5 115.5 Q52 118 52 120 Q50 118 49.5 116 Q49 114 47 112 Q43 106 41 102 Q25 77 13.5 65.5 Q2 54 -4 49 Q-18 40 -27 38.5 Q-36 37 -38 36 Q-47 36 -52 39.5 Q-57 43 -60 48 Q-63 53 -64 57.5 Q-65 62 -65 65 L-65 67 Q-66 77 -63.5 88 Q-61 99 -59 108 Q-56 119 -53 129 Q-48 144 -42 159 Q-36 174 -31 189 Q-20 219 -9 249.5 Q2 280 15 310 L43 299 Q30 269 19 239 Q8 209 -3 179 Q-8 166 -12.5 153.5 Q-17 141 -22 128 L-22 127 Q-24 121 -26 118 Q-27 116 -27 114.5 Q-27 113 -28 111 Q-31 103 -33 94.5 Q-35 86 -35.5 79 Q-36 72 -33.5 69 Q-31 66 -23 70 Q-21 72 -18.5 74 Q-16 76 -13 78 Q-8 83 -4 89 Q0 95 5 101 Q9 108 13 114.5 Q17 121 22 128 Q39 156 55 183 Q71 210 84 239 L112 228 Q104 206 97.5 184.5 Q91 163 86 141 L84 130 Q83 125 81.5 116 Q80 107 86 105 Q89 104 93 105 Q98 107 103 112.5 Q108 118 113 124 Q118 131 123 139 Q127 144 136.5 160.5 Q146 177 157 192 L157 193 L160 199 Q163 204 166 208.5 Q169 213 172 218 Q174 220 174.5 221 Q175 222 177 224 Q181 229 189 237.5 Q197 246 209.5 254 Q222 262 239 267.5 Q256 273 279 273 L350 273 L355 244 Z " />
<glyph glyph-name="x" unicode="x" horiz-adv-x="296" d="M310 250 Q287 223 267 199 Q247 175 226 149 L179 98 L155 72 Q138 56 130.5 46.5 Q123 37 113 32 Q92 21 80.5 33.5 Q69 46 64 66.5 Q59 87 57.5 109.5 Q56 132 56 143 L56 154 L53 151 Q33 130 15 109.5 Q-3 89 -17 72 Q-24 63 -29.5 56 Q-35 49 -39 44 Q-44 38 -48 34 L-71 53 Q-67 57 -62 63 Q-58 68 -52.5 75 Q-47 82 -40 91 Q-26 108 -7.5 129 Q11 150 31 172 Q37 178 43 184 Q49 190 54 196 L54 213 Q53 222 53 230.5 Q53 239 52 247 Q51 251 51 254 Q51 257 49 260 Q47 264 47 264 Q45 266 45 267 Q45 267 44 266 Q42 265 39.5 264 Q37 263 34 261 Q29 258 23.5 254 Q18 250 12 245 L-6 269 Q-1 273 5 277 Q11 281 18 286 Q22 288 25.5 290 Q29 292 34 294 Q36 296 40 296 Q42 296 43.5 296.5 Q45 297 47 296 Q52 296 54 295 L60 292 Q65 289 67 286.5 Q69 284 71 282 Q73 279 74 276.5 Q75 274 77 271 Q79 266 80 260.5 Q81 255 82 250 Q82 243 82.5 237 Q83 231 83 224 Q90 231 96 236.5 Q102 242 107 247 Q123 262 134 271 Q139 276 144 280 L164 258 Q159 254 154 249 Q149 244 142.5 238.5 Q136 233 128 225 Q118 217 107 206 Q96 195 85 184 Q85 170 84.5 152.5 Q84 135 85 117.5 Q86 100 89.5 84.5 Q93 69 102 60 L133 92 L157 118 L204 169 Q227 195 250 221 Q273 247 296 273 L310 250 Z " />
<glyph glyph-name="y" unicode="y" horiz-adv-x="315" d="M330 249 Q260 195 194.5 138.5 Q129 82 61 25 L47 -3 Q35 -28 23 -52.5 Q11 -77 -2 -102 Q-14 -125 -26 -147.5 Q-38 -170 -51 -192 Q-64 -215 -77 -237 Q-90 -259 -104 -281 Q-112 -292 -120 -302 Q-128 -312 -136 -323 Q-140 -328 -144 -332.5 Q-148 -337 -153 -342 Q-163 -352 -175 -361 Q-181 -365 -188 -368.5 Q-195 -372 -203 -374 Q-207 -375 -215 -375 Q-239 -375 -247.5 -362 Q-256 -349 -256.5 -332.5 Q-257 -316 -253 -301.5 Q-249 -287 -248 -284 Q-244 -276 -242 -271 Q-237 -259 -210 -213.5 Q-183 -168 -124 -104 Q-104 -82 -78.5 -57.5 Q-53 -33 -24 -7 Q-18 -2 -12 3 Q-6 8 0 13 L18 28 Q4 20 -13 16 Q-24 14 -35.5 15 Q-47 16 -58 21 Q-71 27 -78 39 Q-85 50 -85 63 Q-86 75 -83.5 85.5 Q-81 96 -78 105 Q-75 115 -71.5 123.5 Q-68 132 -64 141 Q-50 176 -33 209 Q-16 242 1 275 L27 261 Q10 228 -6.5 195.5 Q-23 163 -37 129 Q-41 121 -44 112.5 Q-47 104 -50 96 Q-56 79 -56 65 Q-56 62 -55 59.5 Q-54 57 -53 55 Q-50 50 -45 48 Q-35 43 -18 46 Q-11 47 -4 50 Q3 53 10 58 Q17 63 23 68.5 Q29 74 35 80 Q47 93 57 107.5 Q67 122 76 137 Q81 145 85 153 Q89 161 93 169 Q98 177 102 185.5 Q106 194 111 202 Q120 219 128.5 234.5 Q137 250 143 267 L171 256 L93 91 L98 95 Q102 99 103 99 Q156 144 208.5 187 Q261 230 315 273 L330 249 Z M4 -23 Q-3 -29 -9.5 -34.5 Q-16 -40 -23 -46 Q-40 -61 -63.5 -83.5 Q-87 -106 -112 -133.5 Q-137 -161 -161 -192.5 Q-185 -224 -203 -257 Q-206 -263 -211.5 -275 Q-217 -287 -221.5 -300 Q-226 -313 -227 -324.5 Q-228 -336 -222 -341 Q-220 -343 -209.5 -343.5 Q-199 -344 -177 -323 Q-176 -323 -175 -322 Q-167 -314 -159 -303 Q-143 -285 -129 -264 Q-115 -243 -102.5 -221.5 Q-90 -200 -77 -178 Q-64 -155 -52 -133.5 Q-40 -112 -29 -89 L4 -23 Z " />
<glyph glyph-name="z" unicode="z" horiz-adv-x="298" d="M317 249 Q251 198 188 146 Q125 94 61 40 L33 18 Q30 5 26 -6.5 Q22 -18 17 -29 Q16 -31 4.5 -59 Q-7 -87 -26.5 -127.5 Q-46 -168 -72 -214 Q-98 -260 -126.5 -298 Q-155 -336 -185.5 -358.5 Q-216 -381 -244 -374 Q-263 -370 -269 -356.5 Q-275 -343 -274 -328 Q-273 -313 -269.5 -300 Q-266 -287 -265 -284 Q-261 -276 -259 -271 Q-254 -259 -227 -213.5 Q-200 -168 -141 -104 Q-121 -82 -95.5 -57.5 Q-70 -33 -41 -7 Q-35 -2 -29 3 Q-23 8 -17 13 Q-12 18 -6 22 Q0 26 5 31 Q6 36 6.5 40 Q7 44 7 47 Q8 68 0 75 Q-8 82 -18 82 Q-29 82 -45 75 L-60 97 L2 147 Q6 150 14.5 157.5 Q23 165 33.5 174 Q44 183 53.5 192.5 Q63 202 69 210 Q70 212 71 213 Q72 214 73 216 Q75 219 76.5 222.5 Q78 226 80 229 Q84 237 84 241 Q85 243 85 246 Q85 248 84.5 249 Q84 250 84 251 L84 252 L83 253 Q83 254 82 255 Q82 256 81.5 256 Q81 256 81 257 Q81 257 80 258 L79 258 Q79 259 78.5 259 Q78 259 78 260 Q77 260 76 261 Q75 261 74 261.5 Q73 262 72 262 Q69 263 66.5 263.5 Q64 264 61 263 Q54 263 48 261 Q42 259 36 257 Q28 253 25 251 Q23 249 20.5 248 Q18 247 16 245 Q7 237 1 230 Q-5 224 -8 218 Q-10 214 -11 213 Q-13 209 -13 209 Q-14 208 -14 207 L-14 206 L-44 218 L-44 219 Q-44 218 -42 222 Q-42 224 -40 228 Q-38 232 -36 234 Q-31 242 -23.5 251.5 Q-16 261 -5 270 Q-2 272 1 274.5 Q4 277 8 279 Q12 281 15.5 283 Q19 285 23 287 Q27 289 31 290 Q35 291 40 293 Q42 294 44.5 294 Q47 294 49 295 Q51 295 53.5 295.5 Q56 296 59 296 Q64 296 69.5 296 Q75 296 80 294 Q84 293 92 289 Q93 289 94 288 Q95 287 97 286 Q99 285 99.5 284 Q100 283 102 282 L103 281 Q103 280 104 280 Q106 278 106 277 Q108 276 110 272 Q111 270 111.5 269.5 Q112 269 113 267 Q113 266 113.5 265.5 Q114 265 114 264 Q115 262 115 260 Q117 256 117 248 Q118 245 117.5 242 Q117 239 117 236 Q113 222 110 215 Q108 210 105.5 206 Q103 202 100 198 Q99 196 98 194 Q97 192 95 190 L92 187 Q90 185 90 183 Q87 179 84 176 Q81 173 78 170 Q72 162 66 158 Q63 155 60 152 Q57 149 54 147 Q48 142 42.5 137.5 Q37 133 32 129 L6 110 Q16 110 24 105 Q31 100 36.5 90.5 Q42 81 41 61 L58 76 L86 99 Q139 144 191.5 187 Q244 230 298 273 L317 249 Z M-13 -23 Q-20 -29 -26.5 -34.5 Q-33 -40 -40 -46 Q-57 -61 -80.5 -83.5 Q-104 -106 -129 -133.5 Q-154 -161 -178 -192.5 Q-202 -224 -220 -257 Q-223 -263 -229 -275 Q-235 -287 -239.5 -300 Q-244 -313 -245 -324.5 Q-246 -336 -240 -341 Q-239 -342 -235.5 -343.5 Q-232 -345 -226.5 -344 Q-221 -343 -213 -338.5 Q-205 -334 -194 -323 Q-193 -323 -193 -322.5 Q-193 -322 -192 -322 Q-188 -317 -184 -312.5 Q-180 -308 -176 -303 Q-160 -285 -146 -264 Q-132 -243 -119.5 -221.5 Q-107 -200 -94 -178 Q-81 -155 -69 -133.5 Q-57 -112 -46 -89 L-13 -23 Z " />
<glyph glyph-name="zero" unicode="0" horiz-adv-x="333" d="M297 349 Q299 332 295.5 313.5 Q292 295 286 276 Q274 240 255 200.5 Q236 161 209 121 Q181 80 147 45 Q138 36 128 27 Q118 18 104 11 Q89 4 74 3 Q58 3 43 9 Q28 15 17 26 Q6 37 0 50 Q-7 63 -9 78 Q-11 85 -11 91.5 Q-11 98 -11 106 Q-10 133 -3 157 Q4 181 14 204 Q33 248 57 285 Q81 322 107 351 Q119 365 131.5 377 Q144 389 156 400 Q167 411 178.5 419.5 Q190 428 202 433 Q215 439 227 439.5 Q239 440 247 436 Q251 434 254 432.5 Q257 431 259 429 Q261 427 262 427 L263 426 L249 413 Q253 411 257 409.5 Q261 408 265 405 Q279 396 287 383 Q289 379 290.5 375 Q292 371 294 367 L297 349 Z M255 286 Q268 323 265 346 Q264 350 264 353 Q264 356 263 358 Q262 363 259 367 Q254 375 248 378 Q242 383 237 383 Q232 383 228 382 Q226 381 225 381 Q224 381 223 380 Q222 379 221 379 L209 401 Q197 394 177 376 Q166 366 154.5 354.5 Q143 343 131 329 Q107 302 84 267.5 Q61 233 44 191 Q35 170 28.5 148.5 Q22 127 21 105 Q21 94 22 83.5 Q23 73 28 64 Q38 45 55 39 Q71 32 90 40 Q99 45 107.5 52 Q116 59 124 67 Q155 100 182 139 Q208 177 226 214.5 Q244 252 255 286 Z " />
<glyph glyph-name="one" unicode="1" horiz-adv-x="167" d="M24 69 L25 37 L-77 33 L-78 65 L-32 67 Q19 161 67 259 Q80 284 92.5 309 Q105 334 117 360 L128 384 L125 382 Q119 380 117 379 Q101 372 79 369 L76 401 Q84 402 90.5 404 Q97 406 104 408 Q107 409 111 411 L115 414 Q117 415 119 416 Q121 417 123 418 Q131 424 138 431 Q139 431 139 432 Q139 432 140 434 L142 436 L147 442 L152 448 L158 456 L168 444 Q170 441 173 438 L176 432 Q176 430 176.5 429 Q177 428 177 426 Q176 426 176 422 L174 417 Q171 406 168.5 396 Q166 386 158 372 L146 346 Q134 320 121.5 295 Q109 270 96 244 Q74 199 51 155.5 Q28 112 5 68 L24 69 Z " />
<glyph glyph-name="two" unicode="2" horiz-adv-x="278" d="M24 100 Q13 93 4 87 Q-5 81 -13 74 L-17 71 L6 71 L53 72 Q76 72 99.5 72 Q123 72 147 71 L146 39 Q123 40 99.5 40 Q76 40 53 40 L-64 39 L-62 54 Q-62 62 -58 70 Q-57 72 -56 74 Q-55 76 -53 78 Q-49 84 -46 87 L-38 95 Q-37 96 -36 96.5 Q-35 97 -33 99 Q-24 107 -14 113.5 Q-4 120 6 127 Q25 139 43.5 152 Q62 165 80 179 Q116 206 149 237.5 Q182 269 209 304 Q222 322 231.5 341 Q241 360 245 380 Q246 385 246.5 390 Q247 395 247 400 Q247 410 244 416 Q241 422 236 423 Q232 426 221 424 Q216 423 211.5 422 Q207 421 202 419 Q197 417 192 415 Q187 413 182 411 Q173 406 163.5 400.5 Q154 395 146 388 Q129 375 115 358.5 Q101 342 91 323 L63 339 Q74 361 90 379.5 Q106 398 126 413 Q136 421 146.5 427.5 Q157 434 168 439 Q174 442 180 444.5 Q186 447 191 449 Q201 453 217 456 Q224 457 231.5 456.5 Q239 456 247 453 Q265 447 273 430 Q280 415 279 401 Q278 387 276 374 Q271 349 260 327 Q249 305 235 285 Q206 247 172 214.5 Q138 182 100 154 Q81 139 62 126 Q43 113 24 100 Z " />
<glyph glyph-name="three" unicode="3" horiz-adv-x="316" d="M274 449 Q283 443 289 434 Q299 418 301 397 Q302 387 300 378 Q298 369 295 361 Q292 353 288.5 345.5 Q285 338 281 331 Q273 317 262.5 304 Q252 291 241 280 Q234 273 227.5 267.5 Q221 262 213 256 Q214 256 218 254 Q230 250 238 238 Q245 226 247 214 Q248 208 247.5 202.5 Q247 197 247 191 Q245 186 244 181 Q243 176 241 171 Q239 166 237.5 162 Q236 158 234 153 Q226 136 216 120 Q205 104 192.5 89.5 Q180 75 165 63 Q150 51 132.5 41.5 Q115 32 95 27 Q76 23 53 26 Q32 30 14 44 Q-5 57 -13 79 Q-17 90 -17.5 101 Q-18 112 -16 123 Q-14 134 -10.5 142.5 Q-7 151 -2 161 Q8 181 25 194 L44 168 Q34 161 26 146 Q19 130 16 117 Q13 104 17 90 Q21 79 33 69 Q46 61 59 58 Q67 56 73.5 56.5 Q80 57 88 59 Q103 62 117.5 69.5 Q132 77 145 88 Q170 109 189 137 Q194 145 197.5 152 Q201 159 205 167 Q208 175 211 182 Q214 189 215 196 Q217 213 212 219 Q209 224 205 225 Q203 227 200 227 Q197 227 193 228 Q186 228 179 226.5 Q172 225 163 223 L145 218 Q142 218 136 216 Q132 216 130 215 L125 215 Q124 216 123 216 L121 216 L120 216 L119 217 Q117 218 116 218.5 Q115 219 112 221 Q111 223 110.5 224 Q110 225 109 227 Q109 229 108.5 230 Q108 231 108 233 L109 245 L121 248 Q177 262 218 303 Q239 323 253 347 Q261 359 265.5 372 Q270 385 269 396 Q269 405 262 416 Q255 425 248 426 Q239 428 225.5 423.5 Q212 419 200 412 Q149 388 116 338 L89 356 Q107 383 131.5 405 Q156 427 186 441 Q201 449 216 454 Q224 456 233.5 457.5 Q243 459 254 457 Q264 456 274 449 Z " />
<glyph glyph-name="four" unicode="4" horiz-adv-x="289" d="M211 266 Q206 257 202.5 247.5 Q199 238 194 229 Q177 191 162 154 Q147 117 136 88 Q123 54 112 24 L79 36 L104 101 Q115 130 130.5 167 Q146 204 163 243 Q165 248 167.5 253 Q170 258 172 263 L157 262 Q144 261 131 260.5 Q118 260 104 260 Q91 259 77 260 L73 261 L66 261 L54 264 L48 266 Q46 268 44 269 Q39 271 37 275 Q35 281 35 284 Q33 289 36 293 L42 303 L45 308 Q47 312 48 313 L62 334 L90 375 Q104 396 119 416 Q134 436 148 456 L176 436 Q162 416 147 396 Q132 376 118 356 L91 316 L77 295 L79 294 L104 294 Q116 295 128.5 295 Q141 295 155 296 L187 298 Q201 328 213 355 Q225 382 235 402 Q246 426 256 446 L287 431 Q279 413 269 393 Q261 375 249.5 351.5 Q238 328 226 301 L258 302 L260 268 L211 266 Z " />
<glyph glyph-name="five" unicode="5" horiz-adv-x="339" d="M241 280 Q249 277 256.5 272.5 Q264 268 270 260 Q275 253 278 243.5 Q281 234 281 226 Q281 216 279 208.5 Q277 201 274 193 Q272 187 268.5 181 Q265 175 262 168 Q255 157 248 146 Q241 135 233 124 Q225 113 217 102.5 Q209 92 199 83 Q190 73 180.5 65 Q171 57 160 49 Q117 18 66 12 Q40 10 17 19 Q6 23 -5 34 Q-15 41 -20 56 Q-25 69 -25 81 Q-25 93 -22 103 Q-16 122 -5 138 Q4 152 13 163.5 Q22 175 31 183 Q40 191 47.5 197 Q55 203 60 207 Q66 211 68 212 Q70 213 71 214 L89 186 Q88 185 86 184 Q84 183 78 179 Q71 174 54 159 Q46 151 38 141.5 Q30 132 22 120 Q15 109 10 94 Q5 80 10 68 Q15 57 29 51 Q37 47 46 46 Q55 45 64 45 Q66 46 68.5 46 Q71 46 73 47 Q76 47 79 48 Q82 49 84 50 Q89 52 93.5 53 Q98 54 103 56 Q113 60 122.5 64.5 Q132 69 141 77 Q150 83 159 90.5 Q168 98 176 107 Q192 123 206 143 Q214 154 220.5 164 Q227 174 233 185 Q239 196 244 207 Q246 212 247 216.5 Q248 221 248 226 Q248 241 230 248 Q225 250 220 251 Q215 252 210 252 Q205 253 197 253 L185 254 Q172 255 159.5 255.5 Q147 256 135 256 Q129 257 122.5 257 Q116 257 110 257 Q106 258 98 258 Q95 258 92.5 258 Q90 258 85 259 Q71 261 63 269 Q56 275 54 288 Q54 292 56 300 Q57 301 57 302 Q57 303 58 305 L59 307 L60 309 Q62 312 66 320 Q71 330 77 340 Q83 350 88 360 Q93 370 97.5 379.5 Q102 389 107 399 Q113 409 117 417 Q120 422 124 427 Q128 432 133 437 Q137 443 144 446 Q149 448 157 450 Q164 451 168.5 451 Q173 451 178 451 Q186 451 194.5 451.5 Q203 452 211 452 L265 452 L313 452 L311 418 L299 418 Q293 418 284.5 418.5 Q276 419 265 419 L212 419 Q204 418 195.5 418 Q187 418 178 418 Q168 418 163 417 Q160 416 158 415 Q156 414 154 412 Q150 408 146 401 Q144 396 141.5 391.5 Q139 387 137 382 Q132 373 127 363.5 Q122 354 116 344 Q111 334 105.5 324.5 Q100 315 95 304 Q93 301 92 298.5 Q91 296 89 292 Q112 290 136.5 289.5 Q161 289 186 287 Q198 286 212.5 285.5 Q227 285 241 280 Z " />
<glyph glyph-name="six" unicode="6" horiz-adv-x="295" d="M239 215 Q238 210 237 206 Q236 202 235 197 Q233 188 229.5 178.5 Q226 169 222 160 Q207 124 178 88 Q170 80 162.5 72.5 Q155 65 146 57 Q128 42 105 32 Q81 23 55 24 Q42 26 29 30 Q15 36 5 48 Q-4 61 -7 74 Q-8 77 -8 80 Q-8 83 -9 86 Q-10 89 -10 92.5 Q-10 96 -11 99 Q-12 111 -10.5 123 Q-9 135 -7 147 Q-1 170 9 190.5 Q19 211 30 229 Q41 247 53.5 263.5 Q66 280 78 295 Q103 326 124 350 Q146 376 164.5 395.5 Q183 415 197 429 Q204 436 209.5 441 Q215 446 219 450 Q223 454 227 457 L249 434 Q245 431 241 427 L220 406 Q206 392 188 373 Q170 354 148 329 Q127 303 103 275 Q91 260 79.5 244.5 Q68 229 57 212 Q46 195 38 177 Q30 159 25 140 Q23 130 21.5 120.5 Q20 111 22 101 Q22 95 23 91 Q23 89 23.5 86.5 Q24 84 24 82 Q27 74 31 68 Q40 56 58 56 Q76 54 93 62 Q111 70 126 82.5 Q141 95 154 109 Q167 124 176.5 140 Q186 156 193 172 Q196 180 199 188.5 Q202 197 204 205 Q205 209 205.5 213 Q206 217 207 221 Q209 231 209 235 Q209 249 203 254 Q199 258 190 258 Q181 257 172 253 Q163 249 155 244 Q147 240 141.5 236 Q136 232 132 229 Q129 227 126 224 Q125 223 124 223 L103 247 Q103 248 105 249 Q106 250 108 251 Q110 252 112 254 Q119 261 138 272 Q145 277 159 283 Q165 285 172.5 287.5 Q180 290 189 290 Q197 291 208 288 Q221 283 227 275 Q235 265 238 255 Q241 244 241 235 Q241 230 240.5 225 Q240 220 239 215 Z " />
<glyph glyph-name="seven" unicode="7" horiz-adv-x="250" d="M227 345 Q219 333 211 320.5 Q203 308 195 295 Q162 243 131 194 Q100 145 75 107 Q46 62 21 22 L-6 40 L168 312 Q176 325 184 337.5 Q192 350 200 363 Q204 369 208 375 Q212 381 216 387 Q219 393 223 399 Q225 402 226 404.5 Q227 407 229 410 Q231 416 231 419 L231 421 Q228 420 223 420 Q209 420 197 419.5 Q185 419 174 418 Q152 416 134 414.5 Q116 413 102 411 Q95 410 90.5 409.5 Q86 409 82 409 Q78 408 75 408 L71 440 Q74 440 78 441 Q82 441 87 441.5 Q92 442 99 443 Q112 445 130.5 446.5 Q149 448 172 450 Q183 451 195.5 451.5 Q208 452 222 452 Q224 452 225 452.5 Q226 453 228 453 L232 453 L239 452 Q247 452 251 451 Q257 445 259 441 Q261 436 263 428 L263 421 L263 416 Q262 411 261 406.5 Q260 402 258 398 Q256 394 254.5 390.5 Q253 387 251 383 Q249 379 247 376.5 Q245 374 243 370 Q239 364 235 358 Q231 352 227 345 Z " />
<glyph glyph-name="eight" unicode="8" horiz-adv-x="283" d="M228 329 Q207 315 196 309 Q195 308 194 307.5 Q193 307 192 306 Q194 302 195.5 298.5 Q197 295 199 291 Q213 266 216 238 Q225 182 203 127 Q197 114 189.5 102 Q182 90 172 79 Q152 57 127 44 Q100 30 73 27 Q59 25 44.5 26 Q30 27 16 33 Q0 39 -10 51 Q-19 63 -24 79 Q-29 93 -27 107 Q-27 120 -22 133 Q-14 156 1 176 Q12 192 27 209 Q53 240 78.5 261.5 Q104 283 123 297 Q131 302 138.5 306.5 Q146 311 151 315 Q149 317 148.5 318.5 Q148 320 147 322 Q141 335 139 349 Q137 364 139 378 Q146 409 165 427 Q175 437 186.5 443 Q198 449 210 452 Q217 454 223 454 Q229 454 236 454 Q239 453 242 453 Q245 453 248 452 Q256 450 260 448 Q271 444 282 433 Q287 428 290 421 Q293 415 293 406 Q293 398 290 392 Q286 384 284 381 Q281 376 277.5 373 Q274 370 271 367 Q249 344 228 329 Z M173 140 Q191 184 185 233 Q183 245 179.5 255.5 Q176 266 171 277 Q167 283 166 286 Q161 283 155 279 Q149 275 142 270 Q124 257 100 237 Q76 217 51 188 Q39 174 27 157.5 Q15 141 9 123 Q2 106 6.5 87.5 Q11 69 28 63 Q36 59 47 58 Q58 57 69 58 Q89 61 112 72 Q154 94 173 140 Z M176 335 Q176 334 177 334 Q179 336 181 337 Q186 339 193 343.5 Q200 348 209 355 Q218 361 228 369.5 Q238 378 248 389 L258 399 Q261 405 261 406 Q261 407 258 412 Q254 416 248 419 Q240 421 233 421 Q228 422 217 420 Q198 417 187 404 Q174 391 171 372 Q169 363 171 354 Q172 346 176 335 Z " />
<glyph glyph-name="nine" unicode="9" horiz-adv-x="294" d="M294 347 Q286 327 272 307 Q247 269 223 237 Q174 171 126 122 Q103 98 83.5 79.5 Q64 61 50 47 Q42 41 37 36 Q32 31 27 28 Q25 26 23.5 25 Q22 24 21 23 L19 21 L-1 45 L6 52 Q11 55 16 60 Q21 65 28 71 Q42 84 61 102 Q80 120 103 144 Q125 167 149 195.5 Q173 224 198 256 Q224 291 245 324 Q258 344 265 360 Q267 365 268.5 369 Q270 373 272 378 Q274 383 275 387.5 Q276 392 277 397 Q278 401 277.5 405 Q277 409 276 412 Q274 416 270 421 Q260 427 240 424 Q235 423 231 422.5 Q227 422 222 420 Q217 418 213 416.5 Q209 415 204 413 Q185 403 170 394 Q162 388 155 382 Q148 376 141 370 Q135 363 129 356.5 Q123 350 118 343 Q108 329 100.5 314 Q93 299 89 285 Q87 278 86 272 Q85 266 85 261 Q86 253 92 247 Q100 243 106 243 Q113 243 121 246 Q128 249 133 252.5 Q138 256 142 259 Q148 263 148 263 L150 265 L170 240 L168 238 Q166 237 164.5 236 Q163 235 161 233 Q157 230 150 225.5 Q143 221 132 216 Q120 211 105 211 Q98 211 89.5 213.5 Q81 216 73 222 Q65 227 60 236.5 Q55 246 53 257 Q52 275 58 294 Q69 331 92 361 Q105 379 119 393 Q127 400 135 407 Q143 414 152 420 Q161 426 170.5 431.5 Q180 437 191 442 Q202 447 211 450 Q221 454 235 456 Q241 457 247.5 457.5 Q254 458 261 457 Q277 455 288 447 Q302 438 307 421 Q309 413 309.5 406 Q310 399 309 393 Q307 379 303 369 Q300 358 294 347 Z " />
<glyph glyph-name="exclam" unicode="&#x21;" horiz-adv-x="244" d="M278 547 Q255 500 225 440.5 Q195 381 165 318 Q135 255 106.5 195 Q78 135 56 87 Q30 32 8 -18 L-20 -5 Q2 46 28 101 Q50 149 78 209 Q106 269 137 332 Q167 395 196.5 454.5 Q226 514 249 561 Q276 616 302 665 L330 651 L278 547 Z M-62 -64 L-33 -77 L-61 -137 L-90 -124 L-62 -64 Z " />
<glyph glyph-name="quotedbl" unicode="&#x22;" horiz-adv-x="261" d="M226 664 L250 651 L212 581 L188 594 L226 664 Z M265 653 L289 640 L258 581 L234 593 L265 653 Z " />
<glyph glyph-name="numbersign" unicode="&#x23;" horiz-adv-x="361" d="M252 248 Q258 247 262.5 247 Q267 247 271 247 L278 247 L277 219 Q272 220 267 220 Q262 220 255 220 Q248 220 240 221 L220 175 L260 175 L260 147 L207 148 L171 66 L146 77 L177 148 L95 148 Q88 131 82.5 116.5 Q77 102 73 91 Q68 78 64 67 L38 77 Q42 86 46 97 Q50 107 55 120 Q60 133 66 148 L32 148 L31 176 L77 175 Q80 183 83 190.5 Q86 198 89 206 Q91 211 93 215.5 Q95 220 97 225 L60 225 L60 252 L108 252 Q115 269 121.5 284 Q128 299 133 310 Q138 323 143 334 L168 323 Q163 313 159 302 Q155 292 149.5 279.5 Q144 267 138 252 Q146 251 153.5 251 Q161 251 169 251 Q183 250 196.5 250 Q210 250 222 249 L259 332 L284 321 L252 248 Z M210 222 Q200 222 189.5 222.5 Q179 223 168 223 Q157 224 147 224 Q137 224 126 224 Q123 217 120.5 210 Q118 203 114 195 Q112 190 110 185 Q108 180 106 175 L189 175 L210 222 Z " />
<glyph glyph-name="dollar" unicode="&#x24;" horiz-adv-x="261" d="M196 291 Q198 283 196.5 276.5 Q195 270 193 266 Q191 261 190 260 Q189 259 189 258 L188 258 L168 275 L169 277 Q169 278 169.5 279.5 Q170 281 169 283 Q169 285 167 287 Q165 289 163 289 L118 196 Q120 194 124 188 Q131 175 132 161 Q135 147 133 133.5 Q131 120 128 108 Q124 96 118 83.5 Q112 71 101 61 Q96 56 90 52 Q84 48 77 45 Q63 40 50 42 L45 42 L29 9 L4 20 L21 53 Q17 56 13.5 59 Q10 62 8 67 Q2 78 2 88.5 Q2 99 4 108 Q6 117 9 124 Q12 131 15 136 Q19 141 21.5 145 Q24 149 26 151 Q27 153 29 155 L30 156 L50 138 Q49 138 49 137 Q48 136 48 135.5 Q48 135 47 134 Q45 132 43 129.5 Q41 127 38 123 Q33 115 30 104 Q28 92 33 81 L87 192 Q84 197 80.5 202 Q77 207 74 214 Q72 220 70 227 Q68 234 69 242 Q72 270 90 290 Q108 308 130 315 Q139 318 147 318 L163 351 L188 341 L176 315 Q184 311 187 307 Q194 300 196 291 Z M100 224 Q100 223 101 223 L132 287 Q126 285 120.5 281 Q115 277 110 272 Q105 266 101 258 Q97 250 97 241 Q97 237 97.5 233.5 Q98 230 100 226 L100 224 Z M105 156 Q105 162 104 165 L58 69 Q71 69 82 80 Q89 86 93 95 Q97 104 101 115 Q104 126 105.5 136 Q107 146 105 156 Z " />
<glyph glyph-name="percent" unicode="&#x25;" horiz-adv-x="250" d="M196 333 Q181 311 165 286 Q151 265 133.5 238.5 Q116 212 98 183 Q80 154 63 126.5 Q46 99 33 77 Q18 51 5 29 L-19 43 Q-6 65 10 91 Q23 113 40 140.5 Q57 168 75 197 Q93 226 110.5 253.5 Q128 281 142 302 Q158 327 173 349 L196 333 Z M117 296 Q114 291 110.5 287 Q107 283 105 280 Q102 276 100 273 L78 289 L94 311 Q97 316 99.5 320 Q102 324 104 327 Q106 331 108 334 L132 320 Q130 316 127 312 Q125 308 122.5 304.5 Q120 301 117 296 Z M62 107 Q66 112 69.5 117 Q73 122 75 127 Q78 131 80 136 L104 122 L86 92 Q79 81 72 72 Q68 68 66 63 L43 79 Q45 84 49 88 Q52 92 55 97 Q58 102 62 107 Z " />
<glyph glyph-name="ampersand" unicode="&#x26;" horiz-adv-x="444" d="M258 166 Q273 166 287.5 165.5 Q302 165 313 164 Q326 163 339 163 L336 131 Q324 132 311 133 Q300 134 286 134.5 Q272 135 257 135 L253 135 Q247 120 239.5 105.5 Q232 91 223 77 Q213 62 201 48.5 Q189 35 173 24 Q142 0 103 -4 Q84 -5 63 1 Q42 9 29 22 Q13 38 6 56 Q-1 73 -1 95 Q-2 114 2.5 132 Q7 150 15 167 Q23 184 33 199 Q43 214 58 227 Q75 240 92 247 Q103 251 113 252 L118 252 L118 253 Q118 254 117.5 254.5 Q117 255 117 256 Q115 260 115 263 Q111 276 111 292 Q111 323 123 347 Q136 373 156 393 Q176 413 202 425 Q215 430 229 433.5 Q243 437 259 435 Q267 433 274.5 430.5 Q282 428 289 423 Q303 415 311 398 Q318 384 318.5 368 Q319 352 315 338 Q307 311 290 288 L264 306 Q279 327 284 346 Q290 369 282 384 Q275 400 255 403 Q245 405 235 402.5 Q225 400 214 396 Q194 387 178 370.5 Q162 354 152 334 Q142 312 142 292 L145 271 Q147 269 147 266 Q147 266 148 264 L149 262 Q149 261 149.5 260.5 Q150 260 150 259 Q152 256 153.5 253 Q155 250 157 247 Q160 243 163 240 Q166 237 169 233 L160 221 L150 208 L142 213 Q138 215 137 216 L131 218 Q129 219 126 219 L122 220 L120 220 L118 220 L115 220 Q109 220 103 217 Q89 212 79 203 Q56 183 44 154 Q30 124 30 95 Q32 64 51 45 Q71 26 101 28 Q115 29 128.5 35 Q142 41 155 49 Q168 58 178 69.5 Q188 81 197 94 Q210 115 218 134 Q209 133 201.5 133 Q194 133 189 133 Q183 133 178 132 L176 163 Q189 164 202 165 Q213 166 227.5 166 Q242 166 258 166 Z " />
<glyph glyph-name="quotesingle" unicode="&#x27;" horiz-adv-x="189" d="M220 657 Q218 651 216 645 Q213 633 206 620 Q200 606 193 596 Q189 591 187 586 L164 601 Q167 605 170 610 Q172 614 175 619.5 Q178 625 181 631 Q183 637 185.5 642.5 Q188 648 190 653 Q192 658 193 664 L220 657 Z " />
<glyph glyph-name="parenleft" unicode="&#x28;" horiz-adv-x="350" d="M440 633 Q436 629 430.5 625 Q425 621 417 614 Q401 602 381 584.5 Q361 567 337 544 Q289 497 236.5 430.5 Q184 364 142 286 Q121 246 104 207 Q96 187 88.5 167 Q81 147 75 127 Q50 46 46 -20 Q43 -52 43.5 -79 Q44 -106 46 -125 Q46 -130 46.5 -134 Q47 -138 47 -142 Q48 -146 48.5 -149 Q49 -152 49 -155 Q49 -157 49.5 -158.5 Q50 -160 50 -162 L50 -165 L19 -170 L19 -167 Q19 -165 18.5 -163.5 Q18 -162 18 -159 Q17 -157 17 -153.5 Q17 -150 16 -146 Q15 -142 15 -137.5 Q15 -133 14 -128 Q12 -108 11.5 -80 Q11 -52 14 -17 Q17 18 24.5 56 Q32 94 45 136 Q51 157 59 177.5 Q67 198 75 219 Q83 239 93 260 Q103 281 114 301 Q157 382 211 450 Q265 518 314 566 Q339 590 360 608.5 Q381 627 397 639 Q405 645 411 650 Q417 655 421 658 Q423 660 424.5 661 Q426 662 428 663 L430 665 L449 639 L440 633 L440 633 Z " />
<glyph glyph-name="parenright" unicode="&#x29;" horiz-adv-x="284" d="M200 577 Q202 563 201 548.5 Q200 534 200 517 Q200 509 199.5 501 Q199 493 198 484 Q197 479 197 475 Q197 471 196 466 Q196 461 195.5 457 Q195 453 194 448 Q192 439 191 429.5 Q190 420 188 410 Q186 404 186 401 Q184 395 184 391 Q182 386 181.5 381.5 Q181 377 179 372 Q177 367 176.5 362 Q176 357 174 352 Q173 347 172 342 Q171 337 169 332 Q165 322 162.5 312 Q160 302 156 292 Q148 272 141 252 Q134 232 124 213 Q116 193 106 174 Q96 155 87 136 Q82 127 76 118 Q70 109 65 100 Q63 95 60 91 Q57 87 55 82 Q52 77 49 73.5 Q46 70 44 65 Q38 57 32.5 49 Q27 41 22 33 Q16 25 10 17.5 Q4 10 -1 2 Q-12 -13 -23 -26 Q-34 -39 -44 -52 Q-47 -55 -49.5 -58 Q-52 -61 -54 -64 L-65 -75 Q-70 -80 -74.5 -85 Q-79 -90 -84 -95 Q-88 -100 -92 -104 Q-96 -108 -100 -113 Q-105 -117 -108.5 -120.5 Q-112 -124 -115 -127 Q-122 -134 -127 -138.5 Q-132 -143 -136 -147 L-143 -154 L-165 -131 L-158 -124 Q-154 -121 -149 -116 Q-144 -111 -137 -105 Q-134 -101 -130.5 -98 Q-127 -95 -123 -91 Q-119 -86 -115 -82 Q-111 -78 -107 -73 Q-102 -68 -97.5 -63 Q-93 -58 -88 -53 Q-86 -51 -83.5 -48 Q-81 -45 -78 -43 Q-76 -40 -73.5 -37 Q-71 -34 -68 -31 Q-58 -19 -47.5 -6 Q-37 7 -26 21 Q-21 29 -15.5 36 Q-10 43 -4 51 Q1 59 6.5 67 Q12 75 17 83 Q20 87 22.5 91 Q25 95 28 99 Q30 104 33 107.5 Q36 111 38 116 Q43 125 48.5 133.5 Q54 142 59 151 Q68 170 78 188 Q88 206 96 225 Q104 245 111 264 Q118 283 126 302 L138 341 Q140 346 141 350.5 Q142 355 144 360 Q145 365 146 369.5 Q147 374 148 379 Q150 384 150.5 388.5 Q151 393 153 398 Q154 400 154 402.5 Q154 405 155 407 Q156 409 156 411.5 Q156 414 157 416 Q160 435 163 452 Q164 457 164 461 Q164 465 165 470 Q165 474 165.5 478 Q166 482 166 487 Q167 495 168 503 Q169 511 169 519 Q169 534 169.5 548 Q170 562 168 575 Q168 581 168 587 Q168 593 167 598 Q167 606 166 609 Q166 611 165.5 613.5 Q165 616 165 618 Q163 627 162.5 633.5 Q162 640 161 645 Q160 650 159 655 L191 661 Q191 657 192 651 Q193 646 193.5 638.5 Q194 631 196 622 Q197 620 197 617 Q197 614 198 612 Q198 605 199 601 Q199 596 199.5 589.5 Q200 583 200 577 Z " />
<glyph glyph-name="asterisk" unicode="&#x2a;" horiz-adv-x="183" d="M280 630 Q269 625 258 620 Q248 615 236 609.5 Q224 604 210 597 Q213 589 216 582 Q219 575 221 570 Q224 564 227 559 L197 542 Q196 546 193 551 Q191 556 188 561 Q185 566 183 573 L165 545 L138 550 L147 565 Q142 562 137.5 559.5 Q133 557 130 555 Q126 553 123 552 L112 571 Q119 576 129 581 Q137 586 148 591 Q159 596 171 603 Q168 611 166 618.5 Q164 626 162 631 Q160 637 159 643 L191 656 Q191 654 192 651 Q193 649 193.5 645.5 Q194 642 196 638 L213 664 L240 659 L218 626 Q229 631 239 635.5 Q249 640 257 644 L273 652 L280 630 L280 630 Z " />
<glyph glyph-name="plus" unicode="&#x2b;" horiz-adv-x="300" d="M135 194 Q146 194 156 193.5 Q166 193 174 193 Q183 192 191 192 L189 165 Q180 165 169 166 Q160 166 148 166.5 Q136 167 123 167 Q116 152 110 138.5 Q104 125 99 114 Q93 102 87 91 L62 103 Q66 111 71 122 Q76 131 81.5 142 Q87 153 93 166 Q83 166 75 165.5 Q67 165 61 165 L48 165 L46 192 Q54 192 64 193 Q72 193 82.5 193.5 Q93 194 105 194 Q110 207 115 218.5 Q120 230 124 239 Q128 250 132 259 L157 249 Q155 242 151 233 Q148 225 144 215 Q140 205 135 194 Z " />
<glyph glyph-name="comma" unicode="&#x2c;" horiz-adv-x="184" d="M37 84 L62 71 L24 0 L0 13 L37 84 L37 84 Z " />
<glyph glyph-name="hyphen" unicode="&#x2d;" horiz-adv-x="300" d="M162 157 Q155 156 146 156 Q138 156 128.5 155.5 Q119 155 109 155 Q99 155 90 155 Q81 155 73 156 Q64 156 56 157 L58 184 Q65 183 74 183 L109 183 Q118 183 127 183 Q136 183 144 184 Q153 184 160 185 L162 157 Z " />
<glyph glyph-name="period" unicode="&#x2e;" horiz-adv-x="173" d="M43 60 L27 28 L0 36 L16 68 L43 60 L43 60 Z " />
<glyph glyph-name="slash" unicode="&#x2f;" horiz-adv-x="430" d="M-130 -140 L538 665 L562 645 L-106 -160 L-130 -140 L-130 -140 Z " />
<glyph glyph-name="colon" unicode="&#x3a;" horiz-adv-x="244" d="M68 152 L76 176 L102 167 L94 143 L68 152 L68 152 Z M90 242 L98 266 L124 258 L116 234 L90 242 L90 242 Z " />
<glyph glyph-name="semicolon" unicode="&#x3b;" horiz-adv-x="274" d="M98 252 L105 272 L131 263 L124 242 L98 252 L98 252 Z M52 115 L85 176 L109 163 L76 101 L52 115 L52 115 Z " />
<glyph glyph-name="less" unicode="&#x3c;" horiz-adv-x="420" d="M201 152 Q216 149 228 145.5 Q240 142 248 140 Q258 136 261 135 Q264 134 265 134 L257 108 Q255 108 252 109 Q250 110 247 111 Q244 112 240 114 Q232 116 220.5 119 Q209 122 195 125 Q181 129 165 132 Q149 135 131 138 Q122 140 113 140.5 Q104 141 94 143 Q91 143 83 145 Q76 146 69 152 Q61 158 59 168 Q57 178 62 187 Q64 191 68.5 194 Q73 197 75 198 Q83 202 86 203 Q91 205 95 206.5 Q99 208 104 210 Q112 213 121 216.5 Q130 220 139 223 Q156 230 171.5 236 Q187 242 201 247 Q215 252 226 256.5 Q237 261 245 264 Q255 268 262 270 L271 244 Q263 242 254 238 Q246 235 235.5 230.5 Q225 226 211 221 Q197 216 181.5 210 Q166 204 149 197 Q140 194 131 190.5 Q122 187 113 184 Q109 182 104.5 180.5 Q100 179 95 177 Q92 176 88 174 Q87 173 86 173 Q87 172 97 170 Q107 169 116.5 168 Q126 167 135 165 Q154 162 170.5 159 Q187 156 201 152 Z " />
<glyph glyph-name="greater" unicode="&#x3e;" horiz-adv-x="378" d="M254 203 Q257 196 253 187 Q252 185 251.5 183.5 Q251 182 250 180 L245 175 L236 169 Q231 166 227.5 164.5 Q224 163 220 161 Q216 159 212.5 157.5 Q209 156 205 154 Q198 151 191 148 Q184 145 176 142 Q162 136 148.5 131 Q135 126 124 121 Q113 116 103.5 113 Q94 110 87 108 Q83 106 80.5 105.5 Q78 105 76 104 Q73 103 72 103 L64 130 Q66 130 68 131 Q70 132 72 132 Q74 132 78 134 Q85 136 94 139 Q103 142 115 147 Q126 152 139 156.5 Q152 161 166 167 Q173 170 180 173 Q187 176 194 180 L209 186 Q213 188 216.5 189.5 Q220 191 222 193 Q230 197 227 197 Q226 199 218.5 202 Q211 205 204 207 Q190 212 176.5 216.5 Q163 221 152 225 Q127 233 115 236 Q108 237 105 239 Q103 240 101 240 L108 267 Q110 267 112 266 Q115 264 122 263 Q130 261 139.5 258.5 Q149 256 161 252 Q172 248 185.5 243 Q199 238 214 233 Q218 231 228 227 Q232 225 237 223 Q242 221 247 216 Q249 215 251 210 Q254 207 254 203 Z " />
<glyph glyph-name="equal" unicode="&#x3d;" horiz-adv-x="278" d="M113 216 Q122 216 130.5 216 Q139 216 146 215 Q154 214 161 214 L158 187 Q151 187 144 188 Q138 188 129.5 188.5 Q121 189 113 189 Q105 189 96.5 188.5 Q88 188 82 187 Q74 186 68 186 L65 213 Q72 213 80 214 Q87 215 95.5 215.5 Q104 216 113 216 Z M131 157 L131 129 L49 129 L49 157 L131 157 Z " />
<glyph glyph-name="question" unicode="&#x3f;" horiz-adv-x="428" d="M449 552 Q449 544 449 537.5 Q449 531 447 523 Q447 518 446 516 Q446 511 445 508 Q445 507 443 501 Q442 499 442 497.5 Q442 496 441 494 Q437 480 431.5 467 Q426 454 419 441 Q414 430 404 415 Q402 411 400 409 Q398 405 396 403 Q394 400 391.5 397.5 Q389 395 387 392 Q370 369 349.5 348.5 Q329 328 308 309 Q287 291 266 274.5 Q245 258 224 241 Q204 225 184.5 209.5 Q165 194 147 178 Q137 170 129 162.5 Q121 155 113 147 Q105 139 98 131.5 Q91 124 84 116 L81 113 Q80 111 78 109 Q73 104 72 101 Q70 99 69 97.5 Q68 96 66 94 Q65 92 63 90 Q62 89 62 88.5 Q62 88 60 86 Q58 84 57.5 82.5 Q57 81 55 79 Q53 77 52.5 75.5 Q52 74 50 72 Q48 67 46 65 Q45 63 44 61 Q43 59 42 57 Q34 43 27 30.5 Q20 18 15 7 Q10 -4 5.5 -12.5 Q1 -21 -1 -26 L-7 -38 L-35 -27 Q-34 -26 -33 -24 Q-32 -22 -31 -20 Q-30 -18 -28 -15 Q-26 -9 -22 0 Q-18 9 -13 20 Q-7 31 0 44 Q7 57 16 72 Q18 74 18.5 76 Q19 78 21 80 Q22 82 26 88 Q29 91 31 95 Q35 101 37 103 Q37 105 39 107 L43 111 Q47 117 48 120 Q50 122 54 128 Q56 129 59 132 Q60 133 60.5 134 Q61 135 62 136 Q69 144 76.5 152 Q84 160 92 168 Q100 176 109 184.5 Q118 193 127 201 Q146 217 166 232.5 Q186 248 206 265 Q227 281 247.5 297.5 Q268 314 288 332 Q308 350 327.5 369 Q347 388 364 410 Q366 412 367.5 415 Q369 418 371 420 Q375 424 376 426 Q377 427 379 431 Q382 437 386 442.5 Q390 448 392 454 Q406 478 412 501 Q412 503 413 504 Q414 505 414 507 Q414 509 414.5 510.5 Q415 512 415 514 Q415 516 415.5 516.5 Q416 517 416 519 Q416 523 418 526 Q418 532 418 537.5 Q418 543 419 549 Q418 555 417 560.5 Q416 566 415 571 Q413 576 410.5 580.5 Q408 585 406 590 Q403 595 399.5 598.5 Q396 602 392 606 Q390 608 388 609 Q386 610 384 612 Q383 614 382 614 Q381 614 379 616 Q377 616 375 618 Q355 629 335 633 Q325 635 315 635 Q305 635 294 634 Q274 632 256 625 Q247 622 239 618 Q231 614 224 609 Q216 604 209.5 599 Q203 594 198 589 Q194 586 188 578 Q186 576 184 573 Q182 570 180 567 Q177 564 176 562 Q176 561 175.5 560.5 Q175 560 175 559 Q175 558 174 557 Q173 556 173 555.5 Q173 555 172 554 Q172 552 171 551 Q171 550 169 546 Q161 525 161 515 L161 510 Q160 508 160.5 507.5 Q161 507 161 506 Q161 505 160 504 L160 503 L129 502 L129 503 Q129 504 130 506 L130 510 L130 516 Q130 519 131 520 L131 524 Q132 525 132 527 Q132 527 133 529 L133 534 Q135 539 137 544.5 Q139 550 141 557 Q141 559 143 563 Q144 564 144 564.5 Q144 565 145 566 Q147 568 147 570 Q148 571 148 571.5 Q148 572 149 573 Q149 574 151 576 Q152 579 154 583 Q157 587 159.5 590 Q162 593 165 597 Q171 605 177 610 Q190 623 208 635 Q217 640 226.5 645 Q236 650 247 654 Q258 658 269 660.5 Q280 663 292 664 Q318 667 342 663 Q369 658 391 645 Q393 644 396 641 L402 638 L414 629 Q424 619 431 608 Q436 602 439 595 Q442 588 444 581 Q446 574 447 567 Q448 560 449 552 Z M-58 -84 L-29 -97 L-60 -157 L-88 -144 L-58 -84 Z " />
<glyph glyph-name="at" unicode="&#x40;" horiz-adv-x="404" d="M314 173 Q296 151 276.5 129.5 Q257 108 234 89 Q212 70 184 56 Q170 50 155 46 Q140 42 123 41 Q91 38 61 55 Q44 65 36 79 Q27 94 24 111 Q22 128 24.5 143.5 Q27 159 32 174 Q37 188 44.5 201.5 Q52 215 60 227 Q68 240 78.5 251 Q89 262 100 272 Q120 292 149 308 Q162 315 176.5 320.5 Q191 326 206 329 Q221 332 237 331.5 Q253 331 270 325 Q278 321 285 316.5 Q292 312 298 304 Q311 289 311 270 Q312 253 306 237 Q301 220 294 209 Q286 195 277 183 Q268 171 257 160 Q251 155 245 150 Q239 145 232 141 Q228 139 224 137 Q220 135 215 134 Q209 132 205 132 Q197 132 191 135 Q183 141 181 146 Q181 146 179 148 Q171 141 159 136 Q154 133 148.5 131.5 Q143 130 137 128 Q125 125 112 128 Q102 130 98 134 Q91 138 87 148 Q85 153 85 156.5 Q85 160 85 164 Q87 172 89 177 Q91 183 94.5 187.5 Q98 192 101 197 Q104 201 107 205 Q110 209 114 213 Q122 221 130 228 Q138 235 147 240 Q155 246 165 251 Q175 256 188 258 Q202 260 215 254 Q221 251 227 244 Q232 239 234 228 L206 225 L206 227 Q204 229 203 229 Q200 231 192 231 Q178 228 162 217 Q149 209 134 194 Q127 187 123 180 Q116 171 114 166 Q112 159 113 157 Q113 157 114 156 Q115 156 115.5 155.5 Q116 155 118 155 Q123 153 132 155 Q139 156 146 160 Q162 168 175 180.5 Q188 193 196 208 L221 197 Q218 187 213.5 180.5 Q209 174 206 169 Q204 163 204 161 L204 160 L205 160 L208 160 Q210 161 212.5 162 Q215 163 218 165 Q230 172 238 180 Q248 189 255.5 199.5 Q263 210 270 222 Q276 233 280.5 245 Q285 257 284 268 Q282 279 277 287 Q269 294 259 299 Q248 304 236 304 Q224 304 211 302 Q198 299 185.5 294.5 Q173 290 162 283 Q114 257 83 211 Q75 200 69 188.5 Q63 177 58 164 Q53 152 51 139 Q49 126 51 115 Q54 92 75 79 Q97 67 122 68 Q135 69 147.5 72.5 Q160 76 172 81 Q194 92 217 110 Q238 127 256.5 147.5 Q275 168 293 191 L314 173 Z " />
<glyph glyph-name="bracketleft" unicode="&#x5b;" horiz-adv-x="339" d="M383 634 Q367 632 353 632 Q339 632 325 630 L323 629 L320 621 L307 596 L260 494 Q236 442 212.5 391 Q189 340 166 288 Q143 236 120.5 184.5 Q98 133 75 80 L31 -24 L-3 -107 L11 -107 Q20 -107 29 -107 Q38 -107 47 -106 L49 -138 Q39 -139 29.5 -139 Q20 -139 11 -139 L-50 -138 L2 -11 L46 93 Q69 145 91.5 197 Q114 249 137 300 Q160 353 183.5 404 Q207 455 231 507 L279 610 L291 635 L300 653 L301 656 Q303 658 303 658 L310 659 Q320 661 322 661 Q337 663 351 663 Q365 663 377 665 L383 634 Z " />
<glyph glyph-name="bracketright" unicode="&#x5d;" horiz-adv-x="311" d="M283 553 Q254 488 217.5 406.5 Q181 325 143 238 Q105 151 68.5 69.5 Q32 -12 3 -77 Q-5 -94 -11.5 -108 Q-18 -122 -24 -136 Q-25 -139 -29 -145 Q-33 -151 -40 -154 Q-46 -157 -51 -157 Q-56 -157 -60 -157 L-83 -157 Q-94 -157 -102 -156.5 Q-110 -156 -115 -156 L-126 -156 L-125 -125 L-82 -125 Q-77 -125 -71.5 -125 Q-66 -125 -59 -126 L-55 -126 Q-54 -126 -54 -125 L-52 -123 Q-47 -109 -40.5 -95 Q-34 -81 -26 -64 Q3 1 39.5 82.5 Q76 164 114 251 Q152 337 189 419 Q226 501 255 566 Q264 587 271.5 604 Q279 621 284 633 L276 633 L267 633 L253 633 L241 633 L243 664 L253 664 L267 664 L275 664 L280 664 L286 664 Q298 664 307 661 Q318 657 320 649 Q321 648 321 645 Q322 644 321 641 Q321 637 320 635 L317 629 Q315 624 313 620.5 Q311 617 309 612 Q304 598 297.5 584 Q291 570 283 553 Z " />
<glyph glyph-name="backslash" unicode="&#x5c;" horiz-adv-x="472" d="M220 270 Q231 196 244.5 121.5 Q258 47 269 -14 Q282 -85 295 -151 L264 -157 Q251 -91 238 -20 Q227 41 213.5 115.5 Q200 190 189 265 Q177 339 167 409.5 Q157 480 149 536 Q140 601 133 659 L164 663 Q171 605 180 540 Q188 484 198 414 Q208 344 220 270 Z " />
<glyph glyph-name="asciicircum" unicode="&#x5e;" horiz-adv-x="211" d="M249 584 Q247 566 246 558 Q245 553 245 548 L217 545 Q217 549 218 554 Q220 564 221 579 Q222 592 224 614 Q224 619 224.5 623.5 Q225 628 225 632 Q225 633 224.5 633.5 Q224 634 224 635 L224 636 L224 635 Q220 633 218 630 L214 627 L210 623 Q206 617 203 615 Q195 607 189 599.5 Q183 592 177 585 Q172 578 167.5 573 Q163 568 160 564 Q156 560 154 555 L133 568 Q136 572 140 577 Q143 582 147.5 587 Q152 592 158 600 Q164 607 170.5 615 Q177 623 185 631 Q187 633 189 635 Q191 637 193 639 L197 643 Q198 645 201 648 Q204 650 206.5 653 Q209 656 213 658 Q218 661 223 663 Q226 664 233 664 Q243 664 248 655 Q250 653 250 651 Q251 650 251 648 Q252 646 252 644.5 Q252 643 253 641 Q253 634 252.5 629.5 Q252 625 252 620 Q250 599 249 584 Z " />
<glyph glyph-name="underscore" unicode="&#x5f;" horiz-adv-x="343" d="M69 81 Q92 81 113.5 81.5 Q135 82 152 82 L190 82 L190 48 L152 48 Q135 48 113.5 48 Q92 48 69 47 Q46 46 24.5 46.5 Q3 47 -14 47 L-51 47 L-52 81 L-14 81 Q3 81 24.5 80.5 Q46 80 69 81 Z " />
<glyph glyph-name="grave" unicode="&#x60;" horiz-adv-x="178" d="M190 637 Q195 632 199.5 627.5 Q204 623 207 619 Q211 615 214 610 L193 592 Q190 596 186 600 Q183 604 179 608.5 Q175 613 170 618 L146 642 L165 662 L173 654 L190 637 L190 637 Z " />
<glyph glyph-name="braceleft" unicode="&#x7b;" horiz-adv-x="345" d="M371 609 Q362 602 352 586 L343 574 L335 560 Q318 532 303 503.5 Q288 475 272 446 Q257 417 240.5 389 Q224 361 204 333 Q199 326 193.5 320 Q188 314 183 307 Q172 293 161 282 L149 269 L137 258 Q132 253 124 247 L113 238 L115 236 Q121 229 124 219 Q126 214 126.5 210 Q127 206 128 201 Q128 183 123.5 168.5 Q119 154 114 140 L75 35 L56 -18 Q51 -32 46 -44.5 Q41 -57 38 -69 Q37 -76 36.5 -81.5 Q36 -87 37 -92 Q38 -94 38 -96.5 Q38 -99 40 -101 Q42 -105 45 -107 Q52 -114 61 -114 Q70 -114 77 -110 L95 -136 Q77 -147 58 -146 Q37 -143 23 -130 Q20 -127 16.5 -123.5 Q13 -120 11 -115 Q9 -110 8 -105.5 Q7 -101 6 -96 Q3 -80 8 -63 Q11 -47 16 -34 Q21 -21 26 -7 L46 46 L85 151 Q90 164 93.5 176 Q97 188 96 199 Q96 203 94 209 Q93 211 92.5 212.5 Q92 214 90 216 Q90 217 87 220 Q86 222 85 222.5 Q84 223 83 224 Q79 232 79 237 Q78 250 89 260 L104 272 Q112 278 116 282 L127 292 L138 303 Q144 309 149 315 Q154 321 159 327 Q169 338 178 352 Q197 378 213 405 Q229 432 245 461 Q260 490 275.5 518.5 Q291 547 308 576 L316 590 Q318 594 320.5 597.5 Q323 601 326 605 Q331 612 336.5 618.5 Q342 625 348 632 Q355 638 362 643.5 Q369 649 378 654 Q386 659 395.5 662 Q405 665 416 665 L416 633 Q392 633 371 609 Z " />
<glyph glyph-name="braceright" unicode="&#x7d;" horiz-adv-x="256" d="M123 298 Q115 284 114 275 Q113 271 114 268 Q114 265 117 261 Q122 256 123.5 248 Q125 240 123 232 Q121 227 115 219 Q111 216 110 215.5 Q109 215 107 213 Q102 208 97 203.5 Q92 199 87 194 Q68 172 56 145 Q49 131 43.5 117 Q38 103 33 88 L11 30 L-10 -29 Q-21 -61 -38 -89 Q-48 -104 -60 -116 Q-71 -127 -89 -137 Q-105 -145 -123 -148 Q-132 -150 -142 -149 Q-152 -148 -162 -143 L-149 -114 Q-140 -119 -127.5 -117 Q-115 -115 -103 -109 Q-93 -104 -82 -93 Q-71 -84 -64 -71 Q-56 -60 -50.5 -46 Q-45 -32 -40 -18 L-18 41 L3 99 Q8 113 14 128.5 Q20 144 27 158 Q35 173 43.5 187 Q52 201 63 215 Q73 226 88 238 Q92 241 92 242 Q84 249 83 260 Q80 270 82 281 Q84 291 87.5 298 Q91 305 94 312 L121 363 Q134 389 147 413.5 Q160 438 173 464 Q185 490 195 516 Q205 542 213 568 Q215 575 216.5 581.5 Q218 588 220 595 Q222 602 223 608.5 Q224 615 224 620 L224 629 Q223 629 223 630 L222 631 Q221 632 217 632 Q215 632 215 631 L192 653 Q197 658 203 660.5 Q209 663 215 664 Q221 664 227 663 Q233 662 238 658 Q243 655 248 649 L249 649 L249 648 L250 647 L250 646 L251 644 Q252 642 252.5 641.5 Q253 641 254 639 Q256 634 256 629 Q256 624 256 619 Q255 610 254 603 Q253 596 251 588 Q249 581 247.5 574 Q246 567 244 559 Q236 531 225 503.5 Q214 476 201 450 Q188 424 175 399 Q162 374 148 348 Q142 335 135.5 323 Q129 311 123 298 Z " />
<glyph glyph-name="bar" unicode="&#x7c;" horiz-adv-x="309" d="M368 650 Q336 586 302 516 Q272 456 234.5 378.5 Q197 301 159 220 Q121 139 89.5 69.5 Q58 0 35 -51 Q9 -111 -13 -159 L-42 -146 Q-21 -97 6 -37 Q29 14 61 83 Q93 152 131 234 Q169 315 206 392 Q243 469 273 530 Q308 601 340 665 L368 650 L368 650 Z " />
<glyph glyph-name="asciitilde" unicode="&#x7e;" horiz-adv-x="350" d="M266 205 L260 193 Q257 187 252 178.5 Q247 170 239 160 Q230 149 217 142 Q203 134 185 134 Q174 134 165 140 Q156 145 151 154 Q146 162 143 169.5 Q140 177 137 183 Q132 196 125 203 Q118 208 109 210 Q101 210 91 205 Q82 199 76 193 Q69 186 65 178.5 Q61 171 58 166 Q56 163 55 161.5 Q54 160 53 158 Q52 156 52 155 L27 168 L33 180 Q37 185 42 193.5 Q47 202 56 212 Q61 217 66 221 Q71 225 78 229 Q85 233 92.5 235.5 Q100 238 110 237 Q121 237 128 233 Q137 230 144 222 Q151 216 155.5 208.5 Q160 201 163 193 Q166 185 168.5 179.5 Q171 174 173 169 Q179 162 186 162 Q193 161 204 166 Q213 172 218 178 Q225 185 229 192.5 Q233 200 235 205 Q237 207 237.5 209.5 Q238 212 239 214 Q240 216 241 217 L266 205 Z " />
<glyph glyph-name="D" unicode="D" horiz-adv-x="820" d="M2287 -87 Q2293 -89 2294 -89 L2297 -89 L2291 -119 Q2290 -118 2289 -118 Q2285 -118 2282 -117 Q2277 -115 2270.5 -114.5 Q2264 -114 2255 -112 Q2238 -108 2212.5 -104 Q2187 -100 2155 -95 Q2138 -93 2120.5 -91 Q2103 -89 2083 -87 L2073 -85 Q2066 -85 2063 -84 Q2058 -84 2052.5 -83.5 Q2047 -83 2042 -83 Q2031 -81 2020 -80.5 Q2009 -80 1998 -79 Q1952 -75 1901 -73 Q1850 -71 1793 -72 Q1736 -72 1676 -75 Q1616 -78 1551 -85 Q1546 -85 1542.5 -85.5 Q1539 -86 1535 -86 Q1525 -88 1519 -88 Q1511 -90 1502.5 -90.5 Q1494 -91 1486 -92 L1453 -97 Q1448 -98 1444.5 -98.5 Q1441 -99 1437 -99 L1428 -101 Q1426 -101 1424 -101.5 Q1422 -102 1420 -102 L1386 -108 Q1376 -110 1369 -110 Q1365 -112 1361 -112.5 Q1357 -113 1352 -114 Q1344 -116 1335.5 -117.5 Q1327 -119 1318 -121 L1314 -121 Q1313 -122 1310 -122 L1301 -124 L1284 -128 Q1274 -130 1267 -132 Q1264 -132 1258 -134 Q1255 -134 1249 -136 Q1241 -138 1232 -140 Q1223 -142 1215 -144 Q1210 -146 1206 -146.5 Q1202 -147 1198 -149 L1180 -153 Q1172 -156 1163 -158.5 Q1154 -161 1146 -163 Q1111 -174 1076 -185 Q1041 -196 1006 -208 Q936 -233 865 -259 Q794 -285 722 -308 L704 -313 L695 -316 L685 -319 L667 -324 L649 -330 L640 -332 L631 -334 Q626 -336 621.5 -337 Q617 -338 612 -339 Q607 -341 603 -342 Q599 -343 594 -344 L584 -346 L575 -349 Q538 -357 501 -363.5 Q464 -370 426 -375 Q407 -377 388.5 -378 Q370 -379 351 -380 Q332 -381 313.5 -381 Q295 -381 276 -379 Q258 -378 239.5 -376 Q221 -374 203 -371 Q185 -367 167 -362.5 Q149 -358 132 -351 Q115 -345 98 -337.5 Q81 -330 66 -320 Q34 -301 9 -275 L3 -268 L-3 -262 L-9 -255 L-12 -251 L-14 -248 Q-19 -240 -24 -233 Q-29 -226 -34 -218 L-38 -211 Q-40 -209 -40 -207 L-42 -203 L-46 -195 L-50 -187 Q-50 -187 -52 -183 L-53 -179 L-56 -171 L-59 -163 Q-59 -161 -59.5 -160.5 Q-60 -160 -60 -159 L-61 -155 Q-64 -147 -65.5 -138 Q-67 -129 -69 -121 L-71 -104 L-71 -100 L-71 -96 Q-72 -93 -72 -88 L-72 -80 L-72 -75 L-72 -71 Q-72 -67 -71.5 -63 Q-71 -59 -71 -55 L-67 -23 Q-64 -7 -59.5 8 Q-55 23 -50 37 Q-45 51 -39 65 Q-33 79 -26 92 Q-18 105 -11 117.5 Q-4 130 4 141 L8 147 Q10 148 12 152 Q14 154 16 158 Q18 159 18.5 160 Q19 161 21 163 L29 173 L38 184 Q55 204 73 221 Q91 238 109 254 L117 262 L126 269 Q131 273 134.5 276.5 Q138 280 143 283 L160 296 Q164 300 168 303 Q172 306 176 309 L208 332 L241 355 L246 358 Q238 355 231 356 Q225 357 218 360 Q211 363 205 372 Q205 373 204.5 373 Q204 373 204 374 Q199 382 197 392 Q194 412 197 430 Q199 439 202.5 448 Q206 457 210 465 Q219 482 230.5 496.5 Q242 511 256 526 Q282 553 318 580 Q353 605 396 624 Q439 643 487 654 Q511 659 536.5 662 Q562 665 588 664 Q614 662 641 656 Q668 650 694 636 Q719 622 738.5 599.5 Q758 577 770 551 Q783 525 787.5 496 Q792 467 790 438 Q788 409 781.5 381 Q775 353 765 326 Q756 300 744.5 274 Q733 248 720 223 Q694 172 663 125.5 Q632 79 597 36 Q562 -7 523 -45 Q484 -83 440 -114 Q352 -176 254 -199 Q230 -204 206 -207 Q182 -210 156 -208 Q144 -206 132 -203.5 Q120 -201 108 -195 Q97 -190 87 -181.5 Q77 -173 70 -161 Q64 -152 60 -136 Q58 -121 61 -110 Q63 -98 68.5 -87.5 Q74 -77 80 -68 Q92 -52 107 -38 Q114 -31 121 -25.5 Q128 -20 136 -15 Q150 -5 165 3 Q180 11 195 16 Q200 18 206 19.5 Q212 21 217 23 L455 512 L486 497 L259 31 Q270 32 280 31.5 Q290 31 299 29 Q320 25 335 13 Q342 8 346 3 Q350 -2 352 -6 L356 -12 L356 -14 L357 -14 L325 -27 L323 -23 Q321 -21 319.5 -19 Q318 -17 314 -14 Q305 -7 292 -4 Q284 -2 275 -2 Q266 -2 255 -3 L241 -6 L185 -121 L154 -106 L195 -21 Q175 -30 155 -43 Q142 -52 129.5 -63 Q117 -74 108 -88 Q103 -95 99.5 -102 Q96 -109 94 -117 Q92 -132 99 -144 Q106 -155 123 -165 Q140 -173 160 -174 Q180 -176 201.5 -173.5 Q223 -171 246 -166 Q291 -155 334.5 -135 Q378 -115 420 -86 Q462 -57 499.5 -20.5 Q537 16 571 58 Q605 100 635 145 Q665 190 690 239 Q702 263 713 287.5 Q724 312 733 338 Q752 390 755 440 Q760 493 739 537 Q728 559 712.5 577 Q697 595 677 606 Q657 618 633.5 623 Q610 628 587 630 Q563 631 540 628.5 Q517 626 494 621 Q449 611 410 593 Q371 575 338 552 Q322 540 307.5 528 Q293 516 281 502 Q268 488 258 475.5 Q248 463 241 449 Q234 437 231 422 Q228 410 231 399 Q232 389 236 389 Q238 387 250 389 L273 396 Q297 406 314 416 Q319 419 323 421.5 Q327 424 329 426 Q330 427 331 427 Q332 427 333 428 Q334 428 334 429 L340 433 L363 406 L359 403 Q357 401 356 401 Q353 398 349 395 Q345 392 340 389 L337 387 L320 375 L301 361 Q290 354 278.5 345.5 Q267 337 253 328 Q226 308 194.5 284.5 Q163 261 128 232 Q93 202 60 164 L52 154 L44 145 L40 139 L36 134 L33 129 L29 124 Q21 113 14 101.5 Q7 90 1 78 Q-14 52 -22 27 Q-33 0 -37 -28 Q-39 -36 -39.5 -43 Q-40 -50 -41 -57 Q-42 -62 -42 -72 L-42 -76 L-42 -80 L-42 -87 L-42 -94 Q-42 -96 -41.5 -96.5 Q-41 -97 -41 -98 L-41 -102 Q-41 -107 -39 -117 Q-38 -125 -36.5 -132 Q-35 -139 -33 -147 L-32 -150 Q-31 -151 -31 -154 L-28 -161 L-25 -168 L-24 -172 Q-23 -173 -23 -175 L-19 -183 L-16 -189 L-14 -193 L-12 -196 Q-11 -201 -8 -203 Q-4 -210 0 -216.5 Q4 -223 9 -230 L12 -233 Q14 -235 14 -236 L20 -242 Q21 -244 25 -248 Q27 -250 28 -251 Q29 -252 31 -254 Q52 -276 81 -294 Q95 -303 110 -310.5 Q125 -318 142 -323 Q173 -335 208 -341 Q225 -345 242.5 -346.5 Q260 -348 278 -350 Q296 -351 314 -351 Q332 -351 350 -351 Q387 -349 423 -345 Q460 -341 496 -334.5 Q532 -328 569 -319 L578 -317 L587 -315 Q592 -313 596 -312.5 Q600 -312 605 -311 Q610 -309 614 -308 Q618 -307 623 -306 L632 -303 L641 -301 L659 -296 L677 -290 L686 -287 L695 -285 L713 -279 Q785 -256 855 -230.5 Q925 -205 996 -180 Q1066 -156 1137 -135 Q1146 -132 1155 -129.5 Q1164 -127 1172 -125 Q1177 -123 1181 -122 Q1185 -121 1190 -120 L1208 -115 L1243 -107 Q1247 -105 1251 -105 Q1257 -103 1260 -103 Q1265 -101 1269 -100.5 Q1273 -100 1277 -99 L1295 -95 L1304 -93 Q1305 -93 1306 -92.5 Q1307 -92 1308 -92 L1312 -91 L1347 -85 Q1351 -83 1355 -82.5 Q1359 -82 1364 -81 L1381 -78 L1415 -72 Q1421 -72 1424 -71 Q1426 -71 1428 -70.5 Q1430 -70 1432 -70 L1449 -67 L1482 -63 Q1490 -61 1498.5 -60.5 Q1507 -60 1515 -59 Q1520 -58 1523.5 -57.5 Q1527 -57 1532 -57 Q1536 -56 1539.5 -55.5 Q1543 -55 1548 -55 Q1614 -48 1675 -45 Q1736 -42 1793 -42 Q1850 -41 1902 -43 Q1954 -45 2000 -49 Q2012 -50 2023 -50.5 Q2034 -51 2045 -53 Q2050 -53 2055.5 -53.5 Q2061 -54 2066 -55 Q2073 -55 2076 -56 Q2083 -56 2086 -57 L2159 -66 Q2192 -71 2218 -75 Q2244 -79 2261 -82 Q2269 -84 2275.5 -85 Q2282 -86 2287 -87 Z " />
<glyph glyph-name="quotedblleft" unicode="&#x201c;" horiz-adv-x="262" d="M226 665 L250 652 L212 582 L188 595 L226 665 Z M265 654 L289 641 L258 582 L234 594 L265 654 Z " />
<glyph glyph-name="quotedblright" unicode="&#x201d;" horiz-adv-x="261" d="M226 665 L250 652 L212 582 L188 595 L226 665 Z M265 654 L289 641 L258 582 L234 594 L265 654 Z " />
<glyph glyph-name="quoteright" unicode="&#x2019;" horiz-adv-x="193" d="M221 658 Q219 652 217 646 Q214 634 207 621 Q201 607 194 597 Q190 592 188 587 L165 602 Q168 606 171 611 Q173 615 176 620.5 Q179 626 182 632 Q184 638 186.5 643.5 Q189 649 191 654 Q193 659 194 665 L221 658 Z " />
<glyph glyph-name="quoteleft" unicode="&#x2018;" horiz-adv-x="193" d="M221 658 Q219 652 217 646 Q214 634 207 621 Q201 607 194 597 Q190 592 188 587 L165 602 Q168 606 171 611 Q173 615 176 620.5 Q179 626 182 632 Q184 638 186.5 643.5 Q189 649 191 654 Q193 659 194 665 L221 658 Z " />
<glyph glyph-name="B" unicode="B" horiz-adv-x="794" d="M2278 -69 Q2284 -71 2285 -71 L2288 -71 L2282 -100 L2279 -100 Q2275 -100 2273 -99 Q2268 -97 2261.5 -96 Q2255 -95 2246 -93 Q2229 -90 2203.5 -86 Q2178 -82 2146 -77 Q2129 -75 2111.5 -73 Q2094 -71 2074 -68 Q2067 -68 2064 -67 Q2057 -67 2054 -66 Q2049 -66 2043.5 -65.5 Q2038 -65 2033 -64 Q2022 -63 2011 -62 Q2000 -61 1989 -61 Q1943 -57 1892 -55 Q1841 -53 1784 -53 Q1727 -54 1667 -57 Q1607 -60 1542 -67 Q1538 -67 1534 -67.5 Q1530 -68 1526 -68 Q1521 -69 1517.5 -69.5 Q1514 -70 1510 -70 Q1502 -72 1493.5 -72.5 Q1485 -73 1477 -74 Q1469 -76 1460.5 -76.5 Q1452 -77 1444 -79 Q1440 -80 1436 -80 Q1432 -80 1427 -81 Q1425 -82 1419 -82 Q1417 -83 1415 -83 Q1413 -83 1411 -84 Q1403 -86 1394 -87 Q1385 -88 1377 -90 Q1372 -91 1368.5 -91 Q1365 -91 1360 -93 Q1356 -94 1352 -94.5 Q1348 -95 1343 -96 Q1335 -98 1326.5 -99 Q1318 -100 1309 -102 L1305 -103 Q1303 -104 1301 -104 Q1295 -106 1292 -106 Q1287 -107 1283.5 -108 Q1280 -109 1275 -110 Q1265 -112 1258 -114 Q1255 -114 1249 -116 Q1246 -116 1240 -118 Q1232 -120 1223 -122 Q1214 -124 1206 -126 Q1201 -128 1197 -128.5 Q1193 -129 1189 -131 Q1184 -132 1180 -133 Q1176 -134 1171 -135 Q1163 -137 1154 -140 Q1145 -143 1136 -145 Q1101 -156 1066.5 -167 Q1032 -178 997 -191 Q927 -215 856 -240.5 Q785 -266 713 -289 L695 -295 L686 -298 L676 -301 L658 -306 L640 -311 L631 -314 L622 -317 Q617 -318 612.5 -319 Q608 -320 603 -321 Q598 -323 594 -323.5 Q590 -324 585 -326 L576 -328 L566 -330 Q493 -348 417 -357 Q398 -359 379.5 -360 Q361 -361 342 -362 Q323 -363 304.5 -363 Q286 -363 267 -361 Q249 -360 230.5 -358 Q212 -356 194 -353 Q156 -346 122 -334 Q105 -327 88.5 -319.5 Q72 -312 56 -302 Q25 -282 0 -257 Q-2 -255 -3 -253.5 Q-4 -252 -6 -250 L-12 -244 Q-14 -241 -18 -237 Q-19 -236 -19.5 -235 Q-20 -234 -21 -233 L-23 -229 Q-29 -222 -33.5 -215 Q-38 -208 -43 -200 Q-44 -198 -45 -196.5 Q-46 -195 -47 -193 Q-49 -189 -49 -189 L-51 -185 Q-54 -181 -55 -177 Q-58 -173 -59 -169 Q-59 -169 -61 -165 L-62 -161 Q-63 -159 -65 -153 Q-66 -151 -66.5 -149 Q-67 -147 -68 -145 Q-68 -144 -68.5 -143 Q-69 -142 -69 -141 L-70 -137 Q-73 -129 -74.5 -120 Q-76 -111 -78 -103 Q-78 -97 -80 -87 L-80 -82 L-80 -78 Q-80 -73 -81 -70 L-81 -61 L-81 -57 L-81 -53 Q-80 -49 -80 -45 Q-80 -41 -80 -37 Q-79 -29 -78 -21 Q-77 -13 -76 -5 Q-73 11 -68.5 26 Q-64 41 -59 55 Q-49 84 -35 110 Q-28 123 -20.5 135 Q-13 147 -5 159 Q-4 161 -3 162 Q-2 163 -1 165 Q2 168 3 170 Q5 172 7 176 L12 181 Q14 184 16 186.5 Q18 189 20 191 Q22 194 24.5 196.5 Q27 199 29 202 Q64 242 99 272 Q103 275 108 280 Q110 282 112.5 283.5 Q115 285 117 287 Q122 291 125.5 294.5 Q129 298 134 301 Q139 305 143 308 Q147 311 151 314 Q155 318 159 321 Q163 324 167 327 Q184 339 198.5 349.5 Q213 360 227 370 Q232 374 236.5 377 Q241 380 246 384 Q229 387 216 399 Q215 400 214 400.5 Q213 401 212 403 Q197 417 190 442 Q186 462 191 485 Q196 505 206 522.5 Q216 540 229 555 Q254 584 286 604.5 Q318 625 354 638 Q426 664 501 658 Q521 656 539 653 Q557 650 576 643 Q594 636 611.5 626 Q629 616 642 599 Q650 591 654.5 582.5 Q659 574 664 565 Q671 548 674 526 Q677 506 675 486.5 Q673 467 668 448 Q657 410 636 378 Q626 362 614 348 Q602 334 589 320 Q576 308 563.5 297 Q551 286 537 276 Q544 275 550.5 274 Q557 273 563 271 Q592 263 613 246 Q635 230 649 203 Q662 180 665 151 Q667 137 666.5 124 Q666 111 664 97 Q659 71 649.5 46.5 Q640 22 626 0 Q612 -23 595.5 -42.5 Q579 -62 561 -79 Q542 -96 522.5 -111.5 Q503 -127 480 -141 Q436 -168 387.5 -183.5 Q339 -199 288 -204 Q262 -206 236 -204.5 Q210 -203 185 -197 Q159 -191 135 -180.5 Q111 -170 90 -153 L79 -145 L69 -136 Q64 -131 60 -126 Q56 -121 52 -114 Q44 -103 38.5 -90.5 Q33 -78 29 -65 Q27 -58 26 -51.5 Q25 -45 24 -38 Q23 -30 24 -22.5 Q25 -15 27 -8 Q30 6 35 18 Q40 30 46 42 Q53 55 61 65 Q66 71 70 75.5 Q74 80 79 85 Q100 103 123 116 Q170 142 224 145 Q229 145 235 145 Q241 145 246 144 L431 539 L461 524 L281 138 Q307 130 327 117 Q351 101 368 81 Q384 62 397 38 L367 22 Q356 42 341.5 59 Q327 76 309 88 Q291 100 266 107 L169 -100 L138 -85 L230 111 L225 111 Q181 108 139 86 Q119 75 102.5 60 Q86 45 76 26 Q71 16 66.5 6 Q62 -4 60 -15 Q59 -21 58.5 -25.5 Q58 -30 58 -34 Q60 -48 62 -56 Q69 -79 80 -95 Q82 -100 86 -103.5 Q90 -107 94 -111 L102 -119 L110 -126 Q146 -153 192 -164 Q215 -169 238 -170.5 Q261 -172 284 -170 Q332 -165 377 -151 Q422 -137 463 -112 Q483 -99 501.5 -85 Q520 -71 537 -54 Q554 -38 569.5 -20 Q585 -2 597 18 Q609 38 617.5 59 Q626 80 630 102 Q634 125 631.5 147 Q629 169 619 187 Q609 205 592 219 Q577 232 554 238 Q534 243 512 241.5 Q490 240 471 230 L454 260 Q484 279 512 299.5 Q540 320 565 345 Q589 369 608 397 Q627 425 635 457 Q644 490 640 521 Q638 536 632 551 Q625 568 616 577 Q607 589 593.5 597.5 Q580 606 564 611 Q549 616 532.5 619 Q516 622 499 624 Q430 629 365 606 Q333 595 304.5 576.5 Q276 558 254 532 Q243 520 235.5 506 Q228 492 224 477 Q221 462 224 449 Q227 436 236 427 Q245 417 258 415 Q264 413 271 415 Q277 415 285 418 Q297 423 308 430.5 Q319 438 330 449 L354 424 Q353 423 352 422.5 Q351 422 350 421 Q349 420 348.5 420 Q348 420 347 419 Q344 416 340 413 Q336 410 331 407 Q330 407 328 405 Q324 402 320 399 Q316 396 312 393 Q307 390 302 386.5 Q297 383 292 380 Q281 372 269.5 363.5 Q258 355 244 346 Q217 326 185.5 302.5 Q154 279 119 250 Q102 235 85 218 Q68 201 52 182 Q46 176 43 172 Q41 169 35 163 Q33 159 31 157 Q28 154 27 152 Q26 150 23 147 Q21 143 20 142 Q12 131 5 119.5 Q-2 108 -8 96 Q-23 70 -31 45 Q-42 18 -46 -10 Q-48 -18 -48.5 -24.5 Q-49 -31 -50 -39 Q-50 -49 -51 -54 L-51 -58 L-51 -61 L-51 -69 Q-51 -71 -50.5 -72.5 Q-50 -74 -50 -76 L-50 -80 L-50 -84 Q-50 -89 -48 -99 Q-46 -107 -45 -114 Q-44 -121 -42 -128 L-41 -132 Q-40 -133 -40 -136 Q-39 -138 -38.5 -139.5 Q-38 -141 -37 -143 Q-36 -145 -35.5 -146.5 Q-35 -148 -34 -150 L-33 -154 Q-33 -155 -31 -157 Q-30 -160 -28 -164 Q-27 -167 -25 -171 L-23 -175 Q-23 -176 -21 -178 Q-20 -180 -19.5 -181.5 Q-19 -183 -17 -185 Q-10 -199 1 -212 L3 -215 Q5 -217 5 -218 L11 -224 Q12 -226 16 -230 Q20 -234 21 -236 Q33 -247 45.5 -257.5 Q58 -268 72 -276 Q86 -285 101 -292 Q116 -299 133 -305 Q164 -317 199 -323 Q232 -329 269 -332 Q305 -334 341 -332 Q359 -332 377.5 -330.5 Q396 -329 414 -327 Q451 -322 487 -316 Q523 -310 559 -301 L569 -299 L578 -297 Q583 -295 587 -294.5 Q591 -294 596 -292 Q601 -291 605 -290 Q609 -289 614 -288 L623 -285 L632 -283 L650 -278 L668 -272 L677 -270 L686 -267 L704 -261 Q776 -238 846 -212.5 Q916 -187 987 -162 Q1022 -150 1057.5 -138.5 Q1093 -127 1128 -116 Q1137 -114 1146 -111.5 Q1155 -109 1163 -106 Q1168 -105 1172 -104 Q1176 -103 1181 -102 Q1186 -100 1190 -99.5 Q1194 -99 1198 -97 Q1207 -95 1216 -93 Q1225 -91 1234 -89 Q1238 -87 1242 -87 L1251 -84 Q1256 -83 1260 -82.5 Q1264 -82 1268 -81 Q1273 -80 1277 -79 Q1281 -78 1286 -77 Q1288 -76 1290 -76 Q1292 -76 1294 -75 Q1296 -75 1296.5 -74.5 Q1297 -74 1299 -74 L1303 -73 Q1312 -71 1320.5 -69.5 Q1329 -68 1338 -66 Q1342 -65 1346 -64.5 Q1350 -64 1355 -63 Q1359 -62 1363 -61.5 Q1367 -61 1372 -60 Q1380 -58 1389 -57 Q1398 -56 1406 -55 Q1412 -53 1414 -53 Q1416 -53 1418.5 -52.5 Q1421 -52 1423 -52 Q1427 -51 1431 -50.5 Q1435 -50 1440 -49 Q1448 -48 1456.5 -47 Q1465 -46 1473 -44 L1506 -41 Q1511 -40 1514.5 -39.5 Q1518 -39 1522 -39 Q1527 -38 1530.5 -37.5 Q1534 -37 1539 -37 Q1605 -30 1666 -27 Q1727 -24 1784 -24 Q1841 -23 1893 -25 Q1945 -27 1991 -31 Q2003 -32 2014 -32.5 Q2025 -33 2036 -35 Q2041 -35 2046.5 -35.5 Q2052 -36 2057 -37 Q2064 -37 2067 -38 Q2074 -38 2077 -39 Q2097 -41 2115 -43 Q2133 -45 2150 -48 Q2183 -53 2209 -57 Q2235 -61 2252 -64 Q2260 -66 2266.5 -67 Q2273 -68 2278 -69 Z " />
<glyph glyph-name="C" unicode="C" horiz-adv-x="737" d="M1750 571 L1750 570 Q1750 569 1748 567 L1745 563 L1741 558 L1735 552 L1728 544 Q1721 537 1709 528 Q1698 518 1683 511 Q1669 503 1649 495 Q1614 481 1562 473 Q1537 469 1510.5 467 Q1484 465 1455 463 Q1426 461 1396 460 Q1366 459 1334 459 Q1271 458 1204 461 Q1137 464 1068 470 Q999 476 932 485 Q865 494 800 505 Q784 507 768.5 510 Q753 513 737 516 L677 526 L653 529 Q651 518 647 505 Q643 492 635 478 Q620 453 597 432 Q590 425 584 422 Q561 407 543 405 Q525 403 511.5 407.5 Q498 412 490 420.5 Q482 429 478 434 Q467 450 464.5 467.5 Q462 485 469 501 Q471 506 474 510 Q477 514 480 519 L496 534 L501 537 L506 540 L511 543 Q512 543 516 545 Q538 556 563 559 Q590 563 618 562 Q620 562 621 561 Q621 565 620 566 Q618 574 617 576 Q616 578 615 579 Q607 593 587 606 Q569 616 545 622 Q501 633 455 623 Q410 614 367 591 Q325 568 289 536.5 Q253 505 220 469 L203 450 Q199 445 195 440.5 Q191 436 187 431 L172 412 L157 392 Q153 387 149.5 381.5 Q146 376 143 371 L129 350 Q122 339 115.5 328.5 Q109 318 103 307 Q91 285 80.5 262 Q70 239 60 215 Q51 192 44 167.5 Q37 143 32 118 Q30 105 28 92.5 Q26 80 24 67 Q23 54 22.5 42 Q22 30 22 16 Q24 -9 29 -33.5 Q34 -58 46 -81 Q57 -104 74.5 -121.5 Q92 -139 114 -150 Q136 -161 158.5 -164.5 Q181 -168 204 -167 Q247 -164 286 -147 Q305 -139 321.5 -130 Q338 -121 354 -110 Q385 -88 411 -66 Q437 -44 460 -22 Q481 -1 498.5 19 Q516 39 530 56 Q556 89 569 112 Q572 117 574 121 Q576 125 578 127 Q580 130 582 132 L611 112 L608 106 Q606 103 603.5 99 Q601 95 598 90 Q591 80 581 65.5 Q571 51 557 33 Q529 -2 485 -47.5 Q441 -93 376 -138 Q344 -160 303 -178 Q283 -186 260.5 -192 Q238 -198 212 -199 Q186 -201 159 -197 Q132 -193 104 -179 Q97 -175 90 -171.5 Q83 -168 77 -163 Q63 -154 53 -142 Q30 -120 17 -91 Q2 -64 -4 -35 Q-10 -6 -11 22 Q-11 36 -11 49.5 Q-11 63 -9 77 Q-8 90 -5.5 103 Q-3 116 -1 130 Q9 182 29 232 Q39 256 49.5 279.5 Q60 303 73 326 Q79 338 86 349 Q93 360 100 371 L114 393 Q118 398 121 403.5 Q124 409 129 414 L144 435 L160 455 Q164 460 167.5 464.5 Q171 469 176 474 L193 493 Q210 512 228 529.5 Q246 547 265 563 Q276 571 285 578.5 Q294 586 305 594 Q316 601 326.5 607.5 Q337 614 348 620 Q392 644 442 655 Q468 660 494.5 660 Q521 660 547 654 Q561 650 574 645.5 Q587 641 600 633 Q612 625 623.5 615 Q635 605 643 591 Q644 591 644 589 Q649 582 654 559 Q659 558 665 557.5 Q671 557 676 555 Q691 553 706.5 550.5 Q722 548 737 545 Q752 542 767.5 539.5 Q783 537 800 534 Q863 523 930 514.5 Q997 506 1065 500 Q1133 494 1199 491 Q1265 488 1328 489 Q1360 489 1389.5 490 Q1419 491 1447 493 Q1504 496 1552 502 Q1600 510 1634 523 Q1652 530 1664 537 Q1672 541 1677.5 545 Q1683 549 1688 553 Q1693 557 1697 560.5 Q1701 564 1705 567 L1711 574 L1716 579 L1720 584 Q1722 586 1722 588 Q1723 588 1724 589 L1724 590 L1750 571 Z M607 502 Q617 517 620 532 Q607 533 595.5 532.5 Q584 532 573 530 Q562 528 552 525 Q542 522 533 518 Q531 516 529 516 L525 513 Q523 513 521 511 Q519 509 517 509 L505 497 Q499 489 498 485 Q495 478 494 470.5 Q493 463 497 455 Q504 440 517.5 437.5 Q531 435 542 440 L543 440 L544 440 L550 443 Q564 450 572 458 Q591 476 607 501 L607 502 Z " />
<glyph glyph-name="A" unicode="A" horiz-adv-x="917" d="M947 631 Q948 627 948.5 624 Q949 621 949 618 Q949 605 946 594.5 Q943 584 939 574 Q934 565 929.5 556 Q925 547 920 539 L911 524 Q909 519 906.5 515.5 Q904 512 902 508 Q884 476 866 445 Q848 414 831 384 Q796 322 762 266 Q728 210 702 156 Q691 136 682.5 116.5 Q674 97 666 77 Q674 74 680.5 71.5 Q687 69 694 67 Q718 60 736 60 Q745 60 751 60 Q757 60 762 61 Q764 61 765.5 61.5 Q767 62 769 62 Q770 62 771 63 L778 30 Q777 29 775 29 Q773 29 771 28.5 Q769 28 767 28 Q762 27 754 26.5 Q746 26 735 27 Q724 27 711.5 28.5 Q699 30 685 35 Q677 37 670 39.5 Q663 42 655 45 Q647 21 642.5 -2 Q638 -25 638 -46 Q637 -69 643.5 -88 Q650 -107 662 -121 Q672 -135 687 -140 Q701 -145 715 -140 Q728 -137 741 -129 Q746 -125 751 -121.5 Q756 -118 761 -113 Q780 -95 791 -80 Q797 -73 801 -67.5 Q805 -62 808 -58 Q810 -56 810.5 -54.5 Q811 -53 812 -52 Q813 -51 813 -50 L841 -69 L839 -71 Q839 -71 835 -77 Q832 -81 828 -87 Q824 -93 817 -101 Q811 -109 803 -118 Q795 -127 784 -137 Q775 -146 758 -158 Q750 -163 742 -167 Q734 -171 723 -173 Q712 -175 700.5 -175.5 Q689 -176 677 -172 Q651 -162 636 -143 Q621 -124 612 -99 Q607 -86 605.5 -73 Q604 -60 604 -46 Q604 -20 610 6.5 Q616 33 624 59 Q607 67 590 75.5 Q573 84 553 93 Q533 102 512.5 112 Q492 122 469 131 Q467 132 464.5 133 Q462 134 459 135 Q417 82 374 31.5 Q331 -19 283 -67 Q254 -95 225 -123 Q196 -151 161 -173 Q143 -184 123 -192 Q103 -200 81 -202 Q76 -203 70.5 -203.5 Q65 -204 59 -203 Q56 -203 53.5 -202.5 Q51 -202 48 -202 L37 -199 Q13 -193 -3 -178 Q-11 -170 -18 -161 Q-25 -152 -30 -142 Q-31 -140 -32 -137.5 Q-33 -135 -34 -133 Q-35 -130 -36 -127.5 Q-37 -125 -38 -123 L-40 -112 Q-42 -110 -42 -107.5 Q-42 -105 -43 -102 L-44 -92 Q-45 -89 -45 -82 Q-46 -77 -46 -72 Q-46 -67 -46 -62 Q-46 -52 -45 -42.5 Q-44 -33 -43 -23 Q-38 15 -23.5 51 Q-9 87 14 116 Q25 130 39 142.5 Q53 155 68 166 Q100 187 132 197 Q148 203 164.5 207 Q181 211 198 213 Q215 215 230.5 215.5 Q246 216 262 216 Q294 215 324 210 Q354 205 381 198 Q399 193 415.5 187.5 Q432 182 448 176 Q453 182 457.5 188.5 Q462 195 467 201 Q516 266 564 331 Q612 396 663 459 Q689 491 716.5 520 Q744 549 773 577 Q801 604 833 628 Q848 640 868 651 Q873 653 878 655.5 Q883 658 888 660 Q901 663 915 662 Q922 660 930 656 Q938 649 941 644 Q946 638 947 631 Z M260 -43 Q305 2 346 49.5 Q387 97 427 148 Q389 162 348 171.5 Q307 181 261 183 Q232 183 202 180 Q187 178 172 174.5 Q157 171 143 166 Q111 155 87 138 Q73 130 62 119 Q51 108 40 95 Q20 69 7.5 38 Q-5 7 -10 -28 Q-11 -36 -12 -45 Q-13 -54 -13 -63 Q-13 -67 -13 -71 Q-13 -75 -12 -80 Q-12 -85 -11 -88 L-10 -96 Q-9 -98 -9 -100 Q-9 -102 -8 -104 L-6 -112 L-3 -120 Q-2 -122 -1.5 -124 Q-1 -126 0 -128 Q4 -136 9 -142 Q14 -148 19 -153 Q24 -158 31 -161.5 Q38 -165 46 -167 L53 -169 L61 -169 Q65 -170 69 -169.5 Q73 -169 78 -169 Q110 -165 143 -144 Q175 -125 203 -98.5 Q231 -72 260 -43 Z M908 588 Q916 604 916 617 Q916 618 915.5 619 Q915 620 915 622 Q915 624 913 626 Q911 628 909 629 Q907 629 904.5 629 Q902 629 898 627 Q895 626 891 624.5 Q887 623 883 621 Q875 617 868 612 Q861 607 853 602 Q838 591 824 578.5 Q810 566 796 552 Q768 526 741.5 497 Q715 468 689 438 Q638 376 591 311.5 Q544 247 494 181 Q491 176 487.5 172 Q484 168 481 163 Q481 162 483 162 Q528 142 567 123 Q586 114 603 106 Q620 98 635 90 Q643 110 652 130.5 Q661 151 672 171 Q699 227 733 283.5 Q767 340 802 400 Q819 431 837 462 Q855 493 873 525 Q875 529 877.5 532.5 Q880 536 882 541 Q884 545 887 548.5 Q890 552 892 557 Q897 565 901 572.5 Q905 580 908 588 Z " />
</font>
</svg>
