<?xml version="1.0" encoding="UTF-8"?>
<svg xmlns="http://www.w3.org/2000/svg" xmlns:xlink="http://www.w3.org/1999/xlink" version="1.2" >
<font id="Baltism">
<font-face  font-family="Baltism" units-per-em="1000" ascent="750" descent="-250" font-style="normal" font-weight="400" font-stretch="normal" cap-height="753" x-height="312" underline-position="-75" underline-thickness="50" />
<missing-glyph  horiz-adv-x="285" d="" />
<glyph glyph-name="NULL" d="" />
<glyph glyph-name="CR" unicode="&#xd;" horiz-adv-x="285" d="" />
<glyph glyph-name="space" unicode="&#x20;" horiz-adv-x="285" d="" />
<glyph glyph-name="exclam" unicode="&#x21;" horiz-adv-x="244" d="M330 651 L302 665 C302 665 217 500 137 332 C56 165 -20 -5 -20 -5 L8 -18 C8 -18 85 151 165 318 C246 486 330 651 330 651 L330 651 Z M-90 -124 L-61 -137 L-33 -77 L-62 -64 L-90 -124 L-90 -124 Z " />
<glyph glyph-name="quotedbl" unicode="&#x22;" horiz-adv-x="261" d="M226 664 L188 594 L212 581 L250 651 L226 664 L226 664 Z M265 653 L234 593 L258 581 L289 640 L265 653 L265 653 Z " />
<glyph glyph-name="numbersign" unicode="&#x23;" horiz-adv-x="361" d="M284 321 L259 332 L222 249 C206 250 187 250 169 251 C158 251 148 251 138 252 C155 292 168 323 168 323 L143 334 C143 334 127 297 108 252 C80 252 60 252 60 252 L60 225 C60 225 75 225 97 225 C94 218 92 212 89 206 C85 196 81 186 77 175 L31 176 L32 148 L66 148 C50 108 38 77 38 77 L64 67 C64 67 77 103 95 148 L177 148 L146 77 L171 66 L207 148 L260 147 L260 175 L220 175 L240 221 C262 220 277 219 277 219 L278 247 C278 247 268 247 252 248 L284 321 L284 321 Z M189 175 L106 175 C109 182 112 189 114 195 C119 205 122 215 126 224 C140 224 154 224 168 223 C183 223 197 222 210 222 L189 175 L189 175 Z " />
<glyph glyph-name="dollar" unicode="&#x24;" horiz-adv-x="261" d="M196 291 C195 296 192 302 187 307 C185 310 180 313 176 315 L188 341 L163 351 L147 318 C142 318 136 317 130 315 C117 311 102 302 90 290 C79 278 71 261 69 242 C68 232 71 222 74 214 C78 205 83 199 87 192 L33 81 C33 81 33 81 33 81 C30 88 29 96 30 104 C32 111 35 118 38 123 C42 128 45 132 47 134 C49 137 50 138 50 138 L30 156 C30 156 29 155 26 151 C23 148 20 143 15 136 C11 129 6 120 4 108 C1 96 0 81 8 67 C11 61 16 57 21 53 L4 20 L29 9 L45 42 C47 42 48 42 50 42 C59 41 68 42 77 45 C86 49 95 54 101 61 C115 74 123 92 128 108 C132 124 136 143 132 161 C131 171 128 180 124 188 C122 191 120 194 118 196 L163 289 C165 289 166 288 167 287 C168 286 169 284 169 283 C170 280 169 278 169 277 C168 275 168 275 168 275 L188 258 C188 258 189 258 190 260 C191 261 192 263 193 266 C195 271 199 280 196 291 L196 291 Z M100 226 C97 231 97 236 97 241 C97 253 103 264 110 272 C117 278 124 284 132 287 L101 223 C101 223 100 225 100 226 L100 226 Z M105 156 C108 143 105 129 101 115 C96 101 91 88 82 80 C75 73 67 69 58 69 L104 165 C105 162 105 159 105 156 L105 156 Z " />
<glyph glyph-name="percent" unicode="&#x25;" horiz-adv-x="250" d="M196 333 L173 349 C173 349 123 274 75 197 C27 121 -19 43 -19 43 L5 29 C5 29 50 107 98 183 C146 259 196 333 196 333 L196 333 Z M117 296 C125 308 132 320 132 320 L108 334 C108 334 102 323 94 311 C86 300 78 289 78 289 L100 273 C100 273 109 284 117 296 L117 296 Z M62 107 C53 93 43 79 43 79 L66 63 C66 63 76 77 86 92 C95 107 104 122 104 122 L80 136 C80 136 72 121 62 107 L62 107 Z " />
<glyph glyph-name="ampersand" unicode="&#x26;" horiz-adv-x="444" d="M258 166 C217 167 176 163 176 163 L178 132 C178 132 195 133 218 134 C212 120 205 107 197 94 C185 77 172 61 155 49 C138 38 119 29 101 28 C82 27 64 33 51 45 C38 58 31 76 30 95 C30 115 35 135 44 154 C52 173 64 190 79 203 C86 209 95 214 103 217 C107 219 111 220 115 220 C116 220 117 220 118 220 L120 220 C121 220 121 220 122 220 L126 219 C128 219 129 219 131 218 L137 216 C138 215 140 214 142 213 L150 208 L160 221 L169 233 C165 238 161 242 157 247 C155 251 152 255 150 259 C150 260 149 261 149 262 L148 264 C148 265 147 266 147 266 C147 268 146 270 145 271 C144 278 143 285 142 292 C142 307 146 321 152 334 C165 361 188 384 214 396 C228 401 242 405 255 403 C268 401 277 395 282 384 C288 373 288 360 284 346 C280 332 273 319 264 306 L290 288 C300 302 309 319 315 338 C320 356 320 379 311 398 C306 408 299 417 289 423 C280 430 269 433 259 435 C238 437 219 432 202 425 C167 409 140 381 123 347 C115 331 111 311 111 292 C111 282 112 273 115 263 C115 261 116 258 117 256 C117 255 118 254 118 253 C118 252 118 252 118 252 C118 252 118 252 118 252 C116 252 114 252 113 252 C105 251 98 249 92 247 C79 242 68 235 58 227 C38 210 25 189 15 167 C5 145 -2 120 -1 95 C-1 81 1 68 6 56 C11 43 19 32 29 22 C38 13 50 6 63 1 C76 -3 90 -5 103 -4 C129 -1 153 9 173 24 C194 38 210 57 223 77 C235 95 245 115 253 135 C254 135 256 135 257 135 C297 135 336 131 336 131 L339 163 C339 163 298 166 258 166 L258 166 Z " />
<glyph glyph-name="quotesingle" unicode="&#x27;" horiz-adv-x="189" d="M193 664 C193 664 188 647 181 631 C174 615 164 601 164 601 L187 586 C187 586 198 602 206 620 C215 637 220 657 220 657 L193 664 L193 664 Z " />
<glyph glyph-name="parenleft" unicode="&#x28;" horiz-adv-x="350" d="M440 633 C446 637 449 639 449 639 L430 665 C430 665 427 662 421 658 C416 654 407 647 397 639 C376 623 347 598 314 566 C249 503 171 408 114 301 C100 274 86 246 75 219 C64 191 53 164 45 136 C28 81 18 29 14 -17 C10 -63 12 -102 14 -128 C15 -135 15 -141 16 -146 C17 -151 17 -156 18 -159 C19 -166 19 -170 19 -170 L50 -165 C50 -165 50 -161 49 -155 C49 -151 48 -147 47 -142 C47 -137 46 -132 46 -125 C43 -100 42 -63 46 -20 C49 24 59 74 75 127 C83 153 93 180 104 207 C115 233 128 260 142 286 C197 390 273 482 337 544 C369 574 396 598 417 614 C427 623 435 628 440 633 L440 633 Z " />
<glyph glyph-name="parenright" unicode="&#x29;" horiz-adv-x="284" d="M200 577 C200 585 199 594 199 601 C198 605 198 609 198 612 C197 615 197 619 196 622 C193 647 191 661 191 661 L159 655 C159 655 162 642 165 618 C165 615 166 612 166 609 C167 606 167 602 167 598 C168 591 168 583 168 575 C170 558 169 539 169 519 C169 508 167 498 166 487 C166 481 165 475 165 470 C164 464 164 458 163 452 C161 441 159 429 157 416 C156 413 156 410 155 407 C154 404 154 401 153 398 C151 392 150 385 148 379 C147 373 145 367 144 360 C142 354 140 347 138 341 C134 328 130 315 126 302 C116 277 107 251 96 225 C85 200 71 176 59 151 C52 139 45 128 38 116 C35 110 31 105 28 99 C24 94 21 88 17 83 C10 72 3 61 -4 51 C-12 41 -19 31 -26 21 C-40 2 -55 -15 -68 -31 C-72 -35 -75 -39 -78 -43 C-82 -46 -85 -50 -88 -53 C-95 -60 -101 -67 -107 -73 C-112 -79 -118 -85 -123 -91 C-128 -96 -133 -100 -137 -105 C-155 -121 -165 -131 -165 -131 L-143 -154 C-143 -154 -133 -144 -115 -127 C-111 -123 -106 -118 -100 -113 C-95 -107 -89 -101 -84 -95 C-78 -89 -71 -82 -65 -75 C-61 -71 -58 -68 -54 -64 C-51 -60 -48 -56 -44 -52 C-31 -35 -15 -18 -1 2 C6 12 14 22 22 33 C29 43 36 54 44 65 C47 71 51 76 55 82 C58 88 62 94 65 100 C72 112 80 124 87 136 C99 161 113 186 124 213 C137 238 146 266 156 292 C161 305 164 319 169 332 C171 339 173 345 174 352 C176 358 177 365 179 372 C181 378 182 385 184 391 C184 394 185 398 186 401 C186 404 187 407 188 410 C190 423 192 436 194 448 C195 454 196 460 196 466 C197 472 197 478 198 484 C199 496 200 507 200 517 C200 539 202 559 200 577 L200 577 Z " />
<glyph glyph-name="asterisk" unicode="&#x2a;" horiz-adv-x="183" d="M280 630 L273 652 C273 652 248 640 218 626 L240 659 L213 664 L196 638 C192 649 191 656 191 656 L159 643 C159 643 164 624 171 603 C139 586 112 571 112 571 L123 552 C123 552 133 557 147 565 L138 550 L165 545 L183 573 C190 556 197 542 197 542 L227 559 C227 559 218 576 210 597 C246 615 280 630 280 630 L280 630 Z " />
<glyph glyph-name="plus" unicode="&#x2b;" horiz-adv-x="300" d="M135 194 C148 224 157 249 157 249 L132 259 C132 259 120 228 105 194 C74 194 46 192 46 192 L48 165 C48 165 68 166 93 166 C77 133 62 103 62 103 L87 91 C87 91 106 128 123 167 C157 167 189 165 189 165 L191 192 C191 192 165 194 135 194 L135 194 Z " />
<glyph glyph-name="comma" unicode="&#x2c;" horiz-adv-x="184" d="M37 84 L0 13 L24 0 L62 71 L37 84 L37 84 Z " />
<glyph glyph-name="hyphen" unicode="&#x2d;" horiz-adv-x="300" d="M160 185 C160 185 134 183 109 183 C83 183 58 184 58 184 L56 157 C56 157 83 155 109 155 C136 156 162 157 162 157 L160 185 L160 185 Z " />
<glyph glyph-name="period" unicode="&#x2e;" horiz-adv-x="173" d="M43 60 L16 68 L0 36 L27 28 L43 60 L43 60 Z " />
<glyph glyph-name="slash" unicode="&#x2f;" horiz-adv-x="430" d="M-130 -140 L-106 -160 L562 645 L538 665 L-130 -140 L-130 -140 Z " />
<glyph glyph-name="zero" unicode="0" horiz-adv-x="333" d="M297 349 C296 355 295 361 294 367 C292 372 290 378 287 383 C281 393 273 400 265 405 C260 409 254 411 249 413 L263 426 C263 426 262 427 259 429 C256 431 252 434 247 436 C236 441 219 441 202 433 C186 426 171 414 156 400 C140 386 123 370 107 351 C73 312 39 262 14 204 C1 174 -10 142 -11 106 C-11 96 -11 87 -9 78 C-8 69 -5 59 0 50 C8 33 23 17 43 9 C53 5 63 3 74 3 C85 4 95 7 104 11 C122 20 135 33 147 45 C170 69 191 95 209 121 C245 174 270 228 286 276 C294 301 299 326 297 349 L297 349 Z M255 286 C241 241 216 189 182 139 C165 114 146 90 124 67 C113 56 102 46 90 40 C78 35 66 34 55 39 C44 43 34 53 28 64 C22 76 21 90 21 105 C22 134 32 163 44 191 C67 246 99 293 131 329 C147 348 162 363 177 376 C189 387 200 396 209 401 L221 379 C221 379 224 381 228 382 C233 383 240 384 248 378 C252 376 256 372 259 367 C261 364 262 362 263 358 C264 355 264 351 265 346 C267 330 263 309 255 286 L255 286 Z " />
<glyph glyph-name="one" unicode="1" horiz-adv-x="167" d="M5 68 C36 126 67 185 96 244 C113 278 130 312 146 346 L158 372 C168 390 170 402 174 417 L176 422 C176 423 178 426 177 426 C177 428 176 430 176 432 C175 434 174 436 173 438 C172 439 170 441 168 444 L158 456 L152 448 L147 442 L142 436 L140 434 C139 432 138 431 138 431 C133 426 127 421 123 418 C120 417 118 415 115 414 L111 411 C109 410 107 409 104 408 C95 405 86 402 76 401 L79 369 C92 371 105 374 117 379 C119 380 122 381 125 382 L128 384 L117 360 C101 326 84 292 67 259 C35 194 2 130 -32 67 L-78 65 L-77 33 L25 37 L24 69 L5 68 L5 68 Z " />
<glyph glyph-name="two" unicode="2" horiz-adv-x="278" d="M24 100 C49 117 75 134 100 154 C150 191 196 234 235 285 C254 311 270 341 276 374 C279 391 282 410 273 430 C268 440 258 449 247 453 C236 457 226 457 217 456 C207 454 199 452 191 449 C184 446 176 443 168 439 C154 432 139 424 126 413 C100 393 78 368 63 339 L91 323 C104 348 123 371 146 388 C157 397 170 404 182 411 C189 413 195 416 202 419 C209 421 215 423 221 424 C227 425 233 425 236 423 C240 422 242 420 244 416 C246 412 247 406 247 400 C247 394 246 387 245 380 C240 353 226 328 209 304 C173 257 128 215 80 179 C56 161 31 143 6 127 C-7 118 -21 110 -33 99 C-35 97 -37 96 -38 95 C-41 92 -44 89 -46 87 C-49 84 -51 81 -53 78 C-55 75 -57 73 -58 70 C-61 64 -62 59 -62 54 L-64 39 L53 40 C84 40 115 40 146 39 L147 71 C115 72 84 72 53 72 L6 71 L-17 71 L-13 74 C-2 83 10 91 24 100 L24 100 Z " />
<glyph glyph-name="three" unicode="3" horiz-adv-x="316" d="M274 449 C268 453 261 456 254 457 C240 460 227 457 216 454 C205 450 196 446 186 441 C146 422 113 392 89 356 L116 338 C137 370 166 396 200 412 C216 421 236 428 248 426 C254 425 258 421 262 416 C266 410 269 403 269 396 C270 381 263 363 253 347 C244 331 232 316 218 303 C191 276 157 257 121 248 L109 245 L108 233 C108 231 109 229 109 227 C110 224 111 223 112 221 C116 218 117 218 119 217 L120 216 L121 216 L123 216 C124 216 124 216 125 215 C127 215 128 215 130 215 C132 216 134 216 136 216 C139 217 142 218 145 218 L163 223 C175 226 184 228 193 228 C198 227 202 227 205 225 C208 224 210 222 212 219 C215 215 216 206 215 196 C214 187 209 177 205 167 C200 157 195 147 189 137 C177 119 162 102 145 88 C128 74 108 63 88 59 C78 57 69 56 59 58 C50 60 41 64 33 69 C26 75 20 82 17 90 C15 98 14 107 16 117 C18 126 22 137 26 146 C31 155 37 163 44 168 L25 194 C13 185 4 173 -2 161 C-8 148 -13 137 -16 123 C-18 109 -18 94 -13 79 C-8 65 2 52 14 44 C26 35 39 29 53 26 C67 24 82 24 95 27 C122 33 145 47 165 63 C185 79 202 99 216 120 C223 131 229 142 234 153 C237 159 239 165 241 171 C244 178 245 184 247 191 C247 199 248 206 247 214 C246 222 243 230 238 238 C233 245 226 251 218 254 C216 255 215 256 213 256 C223 264 232 271 241 280 C256 295 270 312 281 331 C286 340 291 350 295 361 C299 372 302 384 301 397 C300 410 296 423 289 434 C285 440 280 445 274 449 L274 449 Z " />
<glyph glyph-name="four" unicode="4" horiz-adv-x="289" d="M260 268 L258 302 L226 301 C259 373 287 431 287 431 L256 446 C256 446 224 379 187 298 L155 296 C137 295 120 295 104 294 C95 294 87 294 79 294 L77 295 L91 316 L118 356 C137 383 157 409 176 436 L148 456 C129 429 109 403 90 375 L62 334 L48 313 C47 312 46 310 45 308 L42 303 L36 293 C34 290 34 287 35 284 C35 281 36 278 37 275 C39 272 42 270 44 269 C46 268 47 267 48 266 L54 264 C58 263 62 262 66 261 C68 261 71 261 73 261 L77 260 C87 259 95 259 104 260 C122 260 140 261 157 262 L172 263 C169 257 165 250 163 243 C118 140 79 36 79 36 L112 24 C112 24 150 127 194 229 C200 241 205 254 211 266 L260 268 L260 268 Z " />
<glyph glyph-name="five" unicode="5" horiz-adv-x="339" d="M241 280 C222 286 202 286 186 287 C153 289 120 290 89 292 C89 292 89 292 89 292 C91 297 93 300 95 304 C102 318 109 331 116 344 C124 357 131 370 137 382 C140 388 143 395 146 401 C149 406 152 410 154 412 C157 414 159 416 163 417 C168 418 173 418 178 418 C190 418 201 418 212 419 C232 419 251 419 265 419 C295 419 311 418 311 418 L313 452 C313 452 296 452 265 452 C251 452 232 452 211 452 C200 452 189 451 178 451 C172 451 166 451 157 450 C153 449 149 448 144 446 C140 444 136 441 133 437 C126 431 121 423 117 417 C114 410 111 405 107 399 C101 386 95 373 88 360 C81 347 73 333 66 320 C64 316 62 312 60 309 L59 307 L58 305 C57 303 57 301 56 300 C55 296 54 291 54 288 C55 281 58 273 63 269 C69 263 77 260 85 259 C91 258 94 258 98 258 C102 258 106 258 110 257 C118 257 127 257 135 256 C151 256 168 255 185 254 L197 253 C201 253 205 253 210 252 C217 252 224 250 230 248 C243 243 248 236 248 226 C248 220 246 213 244 207 C241 200 237 192 233 185 C225 171 217 157 206 143 C197 130 187 118 176 107 C166 95 153 85 141 77 C129 67 116 61 103 56 C97 53 90 52 84 50 C81 49 77 47 73 47 C70 46 67 46 64 45 C52 45 40 46 29 51 C19 55 13 61 10 68 C7 76 7 85 10 94 C13 103 17 112 22 120 C32 136 44 149 54 159 C64 168 72 175 78 179 C85 184 89 186 89 186 L71 214 C71 214 67 212 60 207 C53 202 43 194 31 183 C19 173 7 157 -5 138 C-12 128 -18 116 -22 103 C-26 90 -27 73 -20 56 C-17 47 -12 39 -5 34 C2 27 9 22 17 19 C33 13 50 11 66 12 C100 16 132 29 160 49 C175 59 187 70 199 83 C212 95 223 109 233 124 C243 138 253 154 262 168 C266 177 271 185 274 193 C278 203 281 213 281 226 C281 237 277 251 270 260 C262 271 251 276 241 280 L241 280 Z " />
<glyph glyph-name="six" unicode="6" horiz-adv-x="295" d="M239 215 C240 222 241 228 241 235 C241 241 240 248 238 255 C236 262 232 269 227 275 C222 281 215 285 208 288 C201 290 195 291 189 290 C177 290 167 286 159 283 C150 279 144 276 138 272 C126 265 117 259 112 254 C106 249 103 247 103 247 L124 223 C124 223 127 225 132 229 C137 233 144 239 155 244 C165 250 178 257 190 258 C196 258 200 257 203 254 C207 251 209 244 209 235 C209 231 208 226 207 221 C206 216 205 210 204 205 C201 194 197 183 193 172 C184 151 171 129 154 109 C137 90 117 72 93 62 C82 57 69 55 58 56 C46 56 36 61 31 68 C28 72 26 76 24 82 C24 85 23 88 23 91 C22 95 22 98 22 101 C20 114 22 127 25 140 C31 165 43 190 57 212 C71 235 87 255 103 275 C119 294 134 312 148 329 C177 362 202 388 220 406 C238 424 249 434 249 434 L227 457 C227 457 216 447 197 429 C179 410 153 384 124 350 C109 333 94 315 78 295 C62 275 45 253 30 229 C15 205 1 178 -7 147 C-10 131 -12 115 -11 99 C-10 95 -10 90 -9 86 C-8 82 -8 78 -7 74 C-5 66 -1 57 5 48 C12 40 20 34 29 30 C38 27 47 25 55 24 C73 23 90 26 105 32 C121 39 134 47 146 57 C158 67 168 77 178 88 C197 111 212 135 222 160 C227 172 232 185 235 197 C236 203 238 209 239 215 L239 215 Z " />
<glyph glyph-name="seven" unicode="7" horiz-adv-x="250" d="M227 345 C232 354 238 362 243 370 C246 375 248 378 251 383 C254 388 256 393 258 398 C261 403 262 409 263 416 C263 418 263 419 263 421 C263 424 263 426 263 428 C262 433 261 437 259 441 C257 445 254 448 251 451 C247 452 243 452 239 452 L232 453 C230 453 230 453 228 453 C226 453 224 452 222 452 C204 452 187 451 172 450 C142 447 116 445 99 443 C81 441 71 440 71 440 L75 408 C75 408 85 409 102 411 C120 413 145 415 174 418 C189 419 205 420 223 420 C225 420 228 420 231 421 C231 420 231 420 231 419 C231 417 230 413 229 410 C227 406 225 403 223 399 C221 396 218 391 216 387 C211 379 205 371 200 363 C189 346 178 329 168 312 C81 176 -6 40 -6 40 L21 22 C21 22 108 158 195 295 C206 312 216 329 227 345 L227 345 Z M231 421 C231 421 231 421 231 421 L231 421 L231 421 Z " />
<glyph glyph-name="eight" unicode="8" horiz-adv-x="283" d="M228 329 C241 338 256 351 271 367 C275 371 280 375 284 381 C286 384 288 388 290 392 C292 396 293 401 293 406 C293 412 292 417 290 421 C288 426 285 430 282 433 C275 440 268 445 260 448 C256 450 252 451 248 452 C244 453 240 453 236 454 C227 454 219 454 210 452 C194 448 178 440 165 427 C151 414 143 397 139 378 C138 369 138 359 139 349 C140 340 143 330 147 322 C148 320 149 317 151 315 C144 310 134 304 123 297 C98 279 62 250 27 209 C18 199 9 188 1 176 C-8 164 -16 150 -22 133 C-25 125 -27 116 -27 107 C-28 98 -27 88 -24 79 C-21 69 -17 60 -10 51 C-3 43 6 37 16 33 C35 25 54 25 73 27 C92 29 110 35 127 44 C144 53 159 65 172 79 C185 93 195 110 203 127 C217 162 222 201 216 238 C214 257 208 275 199 291 C197 296 194 301 192 306 C193 307 195 308 196 309 C204 313 215 320 228 329 L228 329 Z M173 140 C161 111 139 86 112 72 C98 65 84 60 69 58 C54 57 39 58 28 63 C6 71 0 100 9 123 C17 147 35 169 51 188 C84 227 118 253 142 270 C151 277 159 282 166 286 C167 283 169 280 171 277 C178 263 182 249 185 233 C189 202 185 169 173 140 L173 140 Z M176 335 C174 341 172 348 171 354 C170 360 170 366 171 372 C173 385 179 396 187 404 C195 413 206 418 217 420 C223 421 228 422 233 421 C239 421 244 420 248 419 C252 417 256 414 258 412 C260 409 261 408 261 406 C261 405 260 403 258 399 C256 397 252 393 248 389 C235 374 221 363 209 355 C197 346 187 340 181 337 C179 336 178 335 177 334 C177 334 176 334 176 335 L176 335 Z " />
<glyph glyph-name="nine" unicode="9" horiz-adv-x="294" d="M294 347 C298 354 301 361 303 369 C306 376 308 384 309 393 C310 401 310 411 307 421 C304 431 297 441 288 447 C280 453 270 456 261 457 C252 458 243 457 235 456 C227 455 218 453 211 450 C204 448 197 445 191 442 C177 436 164 428 152 420 C140 412 129 402 119 393 C109 383 100 372 92 361 C76 340 65 317 58 294 C54 282 52 270 53 257 C55 243 62 229 73 222 C84 214 96 211 105 211 C116 211 125 213 132 216 C147 222 156 229 161 233 C167 237 170 240 170 240 L150 265 C150 265 148 263 142 259 C137 255 130 250 121 246 C116 244 112 243 106 243 C101 243 96 245 92 247 C89 250 86 254 85 261 C85 267 86 276 89 285 C94 304 105 324 118 343 C125 352 133 361 141 370 C150 378 160 386 170 394 C181 401 192 407 204 413 C210 415 216 418 222 420 C228 422 234 423 240 424 C252 426 264 425 270 421 C273 418 275 415 276 412 C277 408 278 402 277 397 C276 391 274 385 272 378 C270 372 268 366 265 360 C260 348 253 336 245 324 C230 301 214 278 198 256 C165 213 132 175 103 144 C73 112 47 88 28 71 C19 63 12 56 6 52 C1 47 -1 45 -1 45 L19 21 C19 21 22 23 27 28 C33 32 40 39 50 47 C69 65 96 90 126 122 C157 154 190 193 223 237 C240 259 256 282 272 307 C280 319 288 333 294 347 L294 347 Z " />
<glyph glyph-name="colon" unicode="&#x3a;" horiz-adv-x="244" d="M68 152 L94 143 L102 167 L76 176 L68 152 Z M90 242 L116 234 L124 258 L98 266 L90 242 Z " />
<glyph glyph-name="semicolon" unicode="&#x3b;" horiz-adv-x="274" d="M98 252 L124 242 L131 263 L105 272 L98 252 Z M52 115 L76 101 L109 163 L85 176 L52 115 Z " />
<glyph glyph-name="less" unicode="&#x3c;" horiz-adv-x="420" d="M201 152 C182 157 160 161 135 165 C123 167 110 169 97 170 C92 171 87 172 86 173 C87 173 87 173 88 174 C90 175 92 176 95 177 C101 179 108 182 113 184 C125 188 137 193 149 197 C171 206 192 214 211 221 C247 235 271 244 271 244 L262 270 C262 270 237 261 201 247 C183 240 161 232 139 223 C127 219 115 214 104 210 C98 207 92 205 86 203 C83 202 79 200 75 198 C72 197 65 192 62 187 C55 175 59 160 69 152 C74 148 78 146 83 145 C87 144 91 143 94 143 C107 141 119 140 131 138 C155 134 176 130 195 125 C214 121 229 116 240 114 C250 110 257 108 257 108 L265 134 C265 134 259 136 248 140 C237 143 221 148 201 152 L201 152 Z " />
<glyph glyph-name="equal" unicode="&#x3d;" horiz-adv-x="278" d="M113 216 C89 216 65 213 65 213 L68 186 C68 186 91 189 113 189 C136 189 158 187 158 187 L161 214 C161 214 137 217 113 216 L113 216 Z M49 157 L49 129 L131 129 L131 157 L49 157 L49 157 Z " />
<glyph glyph-name="greater" unicode="&#x3e;" horiz-adv-x="378" d="M254 203 C254 206 253 208 251 210 C250 213 249 215 247 216 C240 223 233 225 228 227 C223 229 218 231 214 233 C194 240 176 247 161 252 C145 257 132 261 122 263 C113 266 108 267 108 267 L101 240 C101 240 106 239 115 236 C124 234 137 230 152 225 C167 220 185 214 204 207 C213 204 226 199 227 197 C227 197 227 197 227 197 C227 197 227 197 227 197 L227 197 C228 197 226 195 222 193 C219 191 214 188 209 186 C204 184 199 182 194 180 C185 175 175 171 166 167 C147 159 130 153 115 147 C99 141 87 137 78 134 C69 131 64 130 64 130 L72 103 C72 103 77 105 87 108 C96 111 109 115 124 121 C139 127 157 134 176 142 C186 146 196 150 205 154 C210 157 215 159 220 161 C225 164 230 165 236 169 C239 171 242 173 245 175 C247 177 248 178 250 180 C251 182 252 185 253 187 C255 192 256 198 254 203 L254 203 Z " />
<glyph glyph-name="question" unicode="&#x3f;" horiz-adv-x="428" d="M449 552 C448 562 447 572 444 581 C441 590 437 600 431 608 C426 616 420 623 414 629 C410 632 406 635 402 638 C400 639 398 640 396 641 C394 643 393 644 391 645 C376 654 359 660 342 663 C325 666 308 666 292 664 C276 663 261 659 247 654 C232 649 220 642 208 635 C196 627 186 619 177 610 C172 606 168 601 165 597 C161 592 158 588 154 583 C153 581 152 579 151 576 C150 575 149 574 149 573 C148 572 148 571 147 570 C147 568 146 567 145 566 C144 565 144 564 143 563 C142 561 141 559 141 557 C138 548 135 541 133 534 C133 532 133 531 133 529 C132 528 132 527 132 527 C132 526 132 525 131 524 C131 523 131 522 131 520 C130 519 130 518 130 516 C130 514 130 512 130 510 C130 508 130 507 130 506 C129 503 129 502 129 502 L160 503 C160 503 161 504 161 506 C161 507 160 508 161 510 C161 511 161 513 161 515 C161 522 164 533 169 546 C170 548 171 550 171 551 C172 552 172 553 172 554 C173 555 173 556 174 557 C174 557 175 558 175 559 C175 560 176 561 176 562 C177 564 178 565 180 567 C183 571 185 575 188 578 C191 582 194 586 198 589 C205 596 213 603 224 609 C233 615 244 621 256 625 C268 630 281 633 294 634 C308 635 322 635 335 633 C349 630 362 625 375 618 C376 617 378 616 379 616 C381 614 383 614 384 612 C387 610 389 608 392 606 C397 601 402 596 406 590 C409 584 413 578 415 571 C416 564 418 557 419 549 C418 541 418 534 418 526 C416 523 416 521 416 519 C416 517 415 516 415 514 C415 512 414 509 414 507 C414 505 412 503 412 501 C408 485 401 469 392 454 C389 446 383 439 379 431 C378 429 377 427 376 426 C375 424 373 422 371 420 C369 417 366 413 364 410 C342 381 315 356 288 332 C262 308 234 286 206 265 C179 243 152 222 127 201 C115 190 103 179 92 168 C82 158 71 147 62 136 C61 135 60 133 59 132 C57 130 56 129 54 128 C52 125 50 122 48 120 C47 117 45 114 43 111 C42 110 41 109 39 107 C38 106 37 105 37 103 C35 101 33 98 31 95 C30 93 28 90 26 88 C24 85 22 82 21 80 C19 77 18 75 16 72 C4 52 -5 34 -13 20 C-19 5 -25 -7 -28 -15 C-33 -22 -35 -27 -35 -27 L-7 -38 C-7 -38 -5 -34 -1 -26 C2 -19 8 -7 15 7 C22 21 31 39 42 57 C43 60 45 62 46 65 C48 67 49 69 50 72 C52 74 53 76 55 79 C57 81 58 84 60 86 C62 88 62 89 63 90 C64 91 65 92 66 94 C68 96 70 99 72 101 C73 104 75 106 78 109 C79 110 80 111 81 113 C82 114 83 115 84 116 C93 127 103 137 113 147 C124 158 134 168 147 178 C171 199 197 220 224 241 C252 263 280 285 308 309 C336 334 364 361 387 392 C390 396 393 399 396 403 C398 405 399 407 400 409 C402 411 403 413 404 415 C410 424 415 432 419 441 C428 458 436 476 441 494 C442 497 442 499 443 501 C444 504 445 506 445 508 C446 511 446 513 446 516 C447 518 447 520 447 523 C449 533 449 542 449 552 L449 552 Z M-88 -144 L-60 -157 L-29 -97 L-58 -84 L-88 -144 L-88 -144 Z " />
<glyph glyph-name="at" unicode="&#x40;" horiz-adv-x="404" d="M293 191 C269 161 245 133 217 110 C203 99 188 89 172 81 C156 74 139 69 122 68 C105 67 89 71 75 79 C62 87 53 99 51 115 C49 130 52 148 58 164 C64 181 73 197 83 211 C103 241 130 266 162 283 C177 292 194 298 211 302 C228 305 245 305 259 299 C266 296 272 292 277 287 C281 281 283 275 284 268 C285 254 278 237 270 222 C261 206 251 192 238 180 C232 174 225 169 218 165 C214 163 211 161 208 160 C206 160 205 160 205 160 L204 160 L204 161 C204 163 205 166 206 169 C210 176 217 184 221 197 L196 208 C185 188 167 170 146 160 C142 158 137 156 132 155 C127 154 121 154 118 155 C116 155 115 156 114 156 C114 157 113 157 113 157 C112 159 113 162 114 166 C116 171 119 175 123 180 C126 185 130 190 134 194 C143 203 152 211 162 217 C172 224 182 229 192 231 C196 231 200 231 203 229 C204 229 205 228 206 227 C206 226 206 226 206 225 L234 228 C233 234 231 240 227 244 C224 248 220 252 215 254 C206 258 196 259 188 258 C171 256 158 248 147 240 C135 233 124 223 114 213 C109 208 105 202 101 197 C97 191 92 185 89 177 C87 173 86 169 85 164 C85 159 85 154 87 148 C89 143 93 137 98 134 C102 130 107 129 112 128 C121 126 129 126 137 128 C145 130 152 132 159 136 C166 139 173 143 179 148 C180 147 180 146 181 146 C183 141 187 138 191 135 C195 133 200 132 205 132 C209 132 212 133 215 134 C222 135 227 138 232 141 C241 146 249 153 257 160 C272 174 284 191 294 209 C299 217 303 227 306 237 C310 247 312 258 311 270 C311 282 306 295 298 304 C290 314 281 320 270 325 C248 333 226 333 206 329 C186 325 166 317 149 308 C131 298 114 286 100 272 C85 259 71 244 60 227 C49 211 39 193 32 174 C26 154 21 133 24 111 C26 100 30 89 36 79 C42 69 51 61 61 55 C80 44 102 39 123 41 C145 42 165 48 184 56 C202 65 219 76 234 89 C265 114 290 144 314 173 L293 191 L293 191 Z " />
<glyph glyph-name="A" unicode="A" horiz-adv-x="917" d="M947 631 C946 636 944 640 941 644 C939 648 935 652 930 656 C925 659 920 661 915 662 C905 663 896 662 888 660 C881 657 874 654 868 651 C855 644 844 637 833 628 C812 612 792 595 773 577 C734 540 698 501 663 459 C595 376 532 287 467 201 C461 193 455 184 448 176 C427 184 405 191 381 198 C363 203 344 207 324 210 C304 213 284 215 262 216 C241 216 220 216 198 213 C176 210 153 205 132 197 C110 190 88 179 68 166 C48 152 29 135 14 116 C-17 77 -36 27 -43 -23 C-44 -36 -46 -49 -46 -62 C-46 -69 -46 -75 -45 -82 C-45 -86 -45 -89 -44 -92 L-43 -102 C-42 -106 -42 -109 -40 -112 L-38 -123 C-37 -126 -35 -129 -34 -133 C-33 -136 -31 -139 -30 -142 C-24 -155 -14 -167 -3 -178 C8 -188 22 -195 37 -199 L48 -202 C52 -202 55 -203 59 -203 C67 -204 74 -203 81 -202 C110 -199 137 -187 161 -173 C208 -144 245 -104 283 -67 C347 -4 404 65 459 135 C463 134 466 132 469 131 C500 119 527 105 553 93 C579 81 602 69 624 59 C624 59 624 59 624 59 C613 24 604 -11 604 -46 C604 -64 606 -82 612 -99 C618 -115 626 -130 636 -143 C646 -156 661 -166 677 -172 C693 -177 709 -176 723 -173 C737 -170 748 -164 758 -158 C768 -151 777 -144 784 -137 C798 -124 809 -111 817 -101 C826 -91 831 -82 835 -77 C839 -71 841 -69 841 -69 L813 -50 C813 -50 812 -53 808 -58 C804 -63 799 -71 791 -80 C784 -90 774 -101 761 -113 C755 -119 748 -124 741 -129 C733 -134 724 -138 715 -140 C706 -143 696 -143 687 -140 C678 -137 669 -131 662 -121 C646 -103 637 -76 638 -46 C638 -18 645 13 655 45 C665 41 675 38 685 35 C704 29 721 27 735 27 C749 26 760 27 767 28 C774 29 778 30 778 30 L771 63 C771 63 768 62 762 61 C756 60 748 60 736 60 C725 60 711 62 694 67 C685 70 676 73 666 77 C676 103 688 130 702 156 C737 228 784 302 831 384 C854 424 878 465 902 508 C905 513 908 518 911 524 C914 529 917 534 920 539 C927 550 933 562 939 574 C944 587 949 601 949 618 C949 622 948 626 947 631 L947 631 Z M260 -43 C222 -81 185 -119 143 -144 C122 -157 100 -166 78 -169 C72 -169 66 -170 61 -169 C59 -169 56 -169 53 -169 L46 -167 C36 -164 26 -160 19 -153 C12 -146 5 -138 0 -128 C-1 -125 -2 -123 -3 -120 L-6 -112 L-8 -104 C-9 -102 -9 -99 -10 -96 L-11 -88 C-12 -85 -12 -82 -12 -80 C-13 -74 -13 -68 -13 -63 C-13 -51 -11 -39 -10 -28 C-3 18 13 61 40 95 C54 112 69 127 87 138 C104 150 123 159 143 166 C162 173 182 177 202 180 C222 182 242 183 261 183 C322 181 377 166 427 148 C374 81 319 16 260 -43 L260 -43 Z M908 588 C904 577 898 567 892 557 C889 551 885 546 882 541 C879 535 876 530 873 525 C849 482 825 441 802 400 C756 320 708 245 672 171 C658 144 646 117 635 90 C615 100 592 111 567 123 C541 136 513 149 483 162 C482 162 481 162 481 163 C485 169 490 175 494 181 C560 268 622 356 689 438 C723 478 759 517 796 552 C815 570 833 587 853 602 C863 609 873 616 883 621 C888 624 894 626 898 627 C903 629 907 629 909 629 C911 628 911 628 913 626 C914 625 915 623 915 622 C915 620 916 618 916 617 C916 608 913 598 908 588 L908 588 Z " />
<glyph glyph-name="B" unicode="B" horiz-adv-x="615" d="M610 533 C607 549 601 564 593 579 C585 593 574 605 561 615 C548 625 535 633 520 639 C492 652 462 657 432 660 C371 663 311 650 257 626 C203 601 153 566 114 520 C95 497 77 472 68 440 C66 432 64 425 64 416 C63 407 64 397 67 388 C71 378 77 370 85 363 C92 357 100 353 109 350 C125 345 142 344 158 346 C175 348 191 353 205 362 C233 378 254 403 270 427 L243 446 C227 423 210 403 188 391 C177 384 166 380 154 379 C142 377 130 378 119 382 C114 384 110 386 106 389 C103 392 100 395 99 399 C96 407 97 419 100 431 C107 455 122 478 139 499 C175 540 221 573 271 595 C296 607 322 615 349 620 C375 625 403 628 429 626 C456 624 483 619 507 609 C531 598 552 583 564 561 C577 541 580 515 576 490 C573 464 563 439 550 415 C496 320 397 251 290 231 L296 198 C319 202 345 201 368 195 C391 189 412 177 424 159 C435 142 437 118 435 93 C433 69 426 44 415 22 C405 -1 391 -22 375 -41 C367 -51 358 -60 349 -69 C339 -77 330 -85 319 -93 C314 -97 309 -100 304 -104 C299 -107 293 -111 288 -114 L271 -123 C266 -126 260 -128 254 -131 C248 -134 242 -136 236 -138 C230 -140 224 -143 218 -145 C206 -148 194 -152 182 -155 C157 -160 131 -162 107 -161 C94 -160 82 -158 70 -155 C59 -152 49 -147 38 -141 C28 -135 19 -128 11 -119 C2 -111 -4 -101 -8 -91 C-16 -71 -18 -45 -15 -21 C-13 -10 -10 2 -6 13 C-3 18 -1 23 2 28 C4 31 5 34 7 36 L12 43 C27 63 46 80 66 92 C87 104 111 111 134 112 C139 112 144 111 150 111 C102 18 64 -51 64 -51 L94 -67 C94 -67 133 6 182 101 C189 98 195 95 201 92 L218 120 C212 124 205 128 198 131 C213 161 230 194 246 226 C320 373 389 523 389 523 L359 537 C359 537 290 388 216 241 C199 207 182 173 166 142 C155 144 144 145 134 145 C104 145 75 135 50 121 C25 106 3 87 -14 63 L-21 55 C-23 52 -24 48 -26 45 C-30 39 -33 32 -36 26 C-43 12 -46 -2 -48 -17 C-52 -46 -50 -75 -39 -104 C-33 -119 -24 -132 -14 -142 C-3 -153 9 -162 21 -170 C34 -177 47 -183 62 -187 C76 -191 90 -193 104 -194 C133 -196 161 -193 188 -187 C202 -185 215 -181 228 -177 C235 -174 242 -172 248 -170 C255 -167 261 -164 267 -162 C274 -159 280 -156 286 -153 L305 -143 C311 -139 316 -135 322 -132 C328 -128 334 -124 339 -120 C351 -112 361 -102 372 -93 C382 -83 392 -74 400 -63 C418 -41 434 -18 446 8 C458 34 466 62 468 90 C468 97 469 104 469 112 C469 119 469 126 468 134 C466 149 461 164 452 178 C443 191 431 202 417 210 C407 216 395 221 383 225 C410 236 436 251 459 268 C508 302 549 347 579 399 C594 425 605 454 610 485 C612 500 612 516 610 533 L610 533 Z " />
<glyph glyph-name="C" unicode="C" horiz-adv-x="717" d="M690 555 C686 567 680 578 673 587 C660 605 643 621 624 633 C605 645 583 653 560 657 C538 661 515 661 493 657 C471 654 449 648 428 640 C408 632 388 622 369 611 C350 600 332 588 314 574 C297 561 280 547 264 533 C200 473 146 404 103 330 C60 256 28 178 8 98 C-2 59 -10 19 -10 -22 C-10 -42 -8 -63 -2 -83 C4 -102 13 -122 25 -138 C38 -154 53 -168 71 -178 C88 -188 106 -194 125 -198 C144 -201 162 -202 180 -200 C198 -198 215 -195 231 -191 C263 -182 293 -170 320 -156 C347 -143 371 -127 392 -111 C414 -95 432 -77 449 -61 C465 -45 479 -30 491 -15 C516 14 534 37 546 53 C558 69 565 78 565 78 L538 98 C538 98 532 90 520 73 C508 58 490 34 466 7 C454 -7 441 -22 425 -37 C409 -53 392 -69 372 -84 C352 -99 330 -114 305 -127 C280 -140 252 -150 223 -158 C208 -162 192 -165 177 -166 C162 -168 146 -168 131 -165 C101 -159 71 -144 52 -118 C32 -92 24 -58 24 -22 C24 14 30 52 40 90 C59 166 90 242 132 313 C173 384 225 451 286 508 C302 522 318 535 334 548 C351 560 368 572 386 582 C403 592 422 601 440 608 C459 616 479 621 498 624 C517 627 536 627 555 624 C573 621 591 614 606 605 C622 595 636 582 646 568 C657 553 661 538 662 520 C662 512 662 503 661 494 C660 495 659 495 658 495 C653 497 644 499 634 501 C612 505 579 506 540 494 C502 483 457 460 421 416 C403 395 388 368 381 337 C377 321 375 304 376 287 C377 278 379 269 383 259 C386 250 392 241 401 234 C409 227 419 222 429 219 C440 217 450 217 459 218 C469 219 478 221 487 223 C496 227 505 229 513 234 C547 249 577 274 603 302 C616 316 628 331 638 348 C644 356 649 365 654 373 C656 378 658 382 661 386 C663 391 665 395 667 400 C676 418 682 438 688 458 C692 478 696 499 695 521 C695 532 693 544 690 555 L690 555 Z M637 414 C635 410 633 406 631 401 L625 389 C620 382 616 374 610 366 C601 351 589 337 578 324 C554 299 528 277 499 264 C492 260 485 258 477 255 C470 253 463 252 456 251 C449 250 442 251 437 252 C431 254 426 256 422 259 C415 265 411 277 410 290 C408 303 410 316 413 329 C420 355 432 377 447 395 C478 432 517 453 550 462 C583 472 610 471 628 468 C637 467 644 465 648 463 C651 462 653 462 654 461 C649 445 644 429 637 414 L637 414 Z " />
<glyph glyph-name="D" unicode="D" horiz-adv-x="680" d="M610 524 C597 555 576 582 550 603 C526 624 497 639 468 649 C438 658 409 662 380 662 C351 661 324 657 298 650 C247 636 204 611 172 581 C156 566 143 550 133 534 C123 517 116 500 112 485 C111 481 110 478 109 474 C108 470 107 466 107 462 C106 454 106 447 107 440 C108 426 113 414 119 405 C126 396 134 391 140 388 C143 387 145 387 147 386 C148 386 149 386 149 386 L156 418 C156 418 155 419 153 419 C151 420 149 421 146 425 C141 432 136 451 144 476 C147 489 153 502 161 516 C170 530 181 544 195 557 C223 583 261 606 307 618 C353 630 406 634 458 617 C483 609 508 596 529 578 C550 560 568 537 579 510 C591 484 596 454 596 424 C596 408 595 393 593 377 C592 369 591 362 589 354 C588 346 586 338 585 330 C570 268 543 209 506 154 C471 99 427 50 380 5 C332 -39 281 -77 228 -107 C201 -122 174 -136 146 -146 C119 -156 92 -162 65 -164 C39 -165 12 -162 -8 -151 C-28 -141 -45 -123 -53 -103 C-62 -84 -64 -63 -58 -45 C-56 -35 -51 -27 -46 -19 C-41 -11 -36 -3 -29 3 C-16 15 -1 23 13 28 C18 29 22 30 27 31 C-10 -41 -36 -91 -36 -91 L-6 -106 C-6 -106 23 -51 62 26 C70 23 76 20 81 16 C89 10 94 4 98 -1 C102 -6 104 -11 105 -13 C106 -17 107 -18 107 -18 L139 -7 C139 -7 137 -4 136 0 C134 5 130 11 125 19 C120 26 112 35 101 43 C95 48 87 52 78 56 C100 101 126 151 150 202 C227 357 298 515 298 515 L267 528 C267 528 196 371 120 217 C94 164 68 111 44 64 C31 65 17 64 3 60 C-16 54 -36 43 -52 27 C-61 19 -68 10 -75 -1 C-81 -11 -87 -23 -90 -35 C-94 -48 -96 -62 -95 -76 C-94 -90 -90 -104 -84 -117 C-72 -143 -51 -167 -23 -181 C-16 -185 -9 -188 -2 -190 C6 -192 13 -194 21 -195 C36 -197 52 -198 67 -197 C98 -195 129 -188 158 -177 C188 -166 216 -152 244 -136 C300 -105 353 -65 402 -19 C451 27 497 78 534 136 C572 193 602 256 617 323 C619 331 621 340 622 348 C624 356 625 365 626 373 C628 390 629 407 629 424 C629 458 624 492 610 524 L610 524 Z " />
<glyph glyph-name="E" unicode="E" horiz-adv-x="642" d="M612 582 C608 595 602 605 595 616 C588 626 579 634 569 642 C548 655 524 661 501 663 C496 663 490 663 484 663 C478 663 473 663 467 662 C455 660 445 658 434 655 C424 653 413 649 403 646 C393 643 383 639 373 635 C352 626 333 615 315 602 C298 589 281 575 265 560 C234 530 208 494 188 455 C178 436 170 415 165 394 C158 373 154 350 156 326 C157 315 159 302 165 291 C170 279 178 268 188 260 C188 260 188 260 188 260 C163 250 139 238 117 223 C76 195 42 158 15 118 C1 98 -11 78 -23 56 C-34 34 -44 11 -47 -15 C-49 -28 -50 -41 -49 -54 C-48 -67 -45 -81 -40 -93 C-35 -106 -29 -118 -20 -128 C-16 -133 -11 -138 -7 -143 C-2 -147 3 -152 8 -156 C30 -171 54 -181 78 -187 C103 -193 128 -195 153 -192 C203 -188 251 -170 293 -145 C335 -120 372 -87 403 -49 C434 -11 458 31 477 76 L446 89 C429 47 406 7 377 -28 C349 -63 314 -94 276 -116 C237 -139 194 -155 150 -159 C129 -161 107 -160 86 -155 C65 -149 45 -141 28 -128 C24 -126 20 -122 16 -119 C13 -115 9 -112 6 -107 C0 -99 -5 -90 -9 -81 C-16 -62 -17 -41 -14 -20 C-11 0 -3 21 7 41 C18 61 29 81 42 99 C68 137 99 170 136 195 C170 218 208 235 247 240 C252 240 256 241 260 242 L256 275 C252 274 249 274 245 274 C232 273 219 277 209 285 C203 291 198 297 195 304 C192 312 190 320 189 329 C188 347 191 366 197 385 C202 404 209 423 218 440 C236 476 260 508 289 536 C303 550 318 563 335 575 C351 586 368 597 386 604 C394 608 404 611 414 614 C423 617 433 620 443 623 C452 625 462 628 471 629 C475 629 480 629 485 630 C490 630 495 630 499 629 C518 628 536 624 550 614 C557 609 563 603 568 596 C573 589 577 581 579 574 C584 559 580 540 573 523 C566 506 555 490 542 475 C530 460 516 446 500 437 C492 432 484 428 476 426 C473 426 469 425 466 425 C465 426 463 426 463 426 C462 426 462 426 462 427 C462 427 462 426 461 427 C461 427 461 428 461 430 C462 433 463 437 465 440 C470 448 479 455 489 463 L468 489 C458 481 447 472 437 458 C433 451 429 443 428 433 C428 428 428 423 429 417 C431 412 434 406 439 402 C447 395 456 393 464 392 C471 392 478 392 484 394 C497 397 508 402 518 408 C538 421 554 436 568 453 C583 470 595 489 604 511 C608 521 612 533 614 545 C615 557 615 570 612 582 L612 582 Z " />
<glyph glyph-name="F" unicode="F" horiz-adv-x="530" d="M735 663 C735 663 732 662 726 660 C720 658 712 655 701 652 C679 645 646 638 607 633 C587 630 566 629 542 628 C531 627 519 627 507 627 C495 627 483 627 470 628 C420 630 367 638 312 645 C285 648 257 651 229 650 C200 650 172 645 146 634 C120 623 98 607 80 587 C71 577 64 566 59 554 C54 542 51 529 52 515 C53 508 55 501 58 494 C61 488 66 482 72 478 C85 469 97 468 108 468 C119 469 128 472 136 475 C144 479 151 483 157 487 C168 496 175 505 179 511 C184 517 185 521 185 521 L156 537 C156 537 155 535 152 530 C149 526 144 520 136 514 C129 508 118 502 106 502 C101 501 95 503 92 505 C89 507 86 511 85 518 C85 525 86 533 90 541 C93 549 99 557 105 565 C119 581 138 594 159 603 C180 612 204 616 230 617 C255 617 281 615 308 611 C362 605 416 597 469 595 C482 594 494 594 507 594 C519 594 532 594 544 595 C567 596 590 597 611 600 C652 605 687 613 710 620 C722 623 731 626 737 629 C744 631 747 632 747 632 L735 663 L735 663 Z M155 314 C155 314 155 314 155 313 C155 314 155 314 155 314 L155 314 Z M154 313 C154 313 154 313 155 313 C155 313 155 313 155 313 C154 313 153 312 154 313 L154 313 Z M264 329 C253 327 243 326 232 325 L352 572 L322 587 L193 321 C192 320 191 320 190 320 C180 319 171 318 165 317 C161 317 158 315 156 314 L170 284 C170 284 172 284 176 285 L-45 -171 L-14 -186 L215 290 C231 291 249 293 268 295 C321 301 375 305 375 305 L372 338 C372 338 318 334 264 329 L264 329 Z M155 314 C155 314 156 314 156 314 L156 314 C156 314 156 314 155 314 L155 314 Z " />
<glyph glyph-name="G" unicode="G" horiz-adv-x="602" d="M660 595 C656 604 650 612 644 619 C637 626 630 632 622 636 C606 645 590 650 574 654 C558 658 541 659 525 660 C492 660 460 655 429 646 C367 629 311 596 262 557 C213 518 169 472 133 420 C97 368 69 309 57 246 C57 241 56 237 55 233 L54 221 C53 213 53 205 53 197 C52 181 53 164 56 147 C58 139 61 130 64 122 C68 114 73 106 78 99 C90 85 104 74 119 66 C149 50 183 43 216 43 C249 43 281 49 312 61 C327 66 342 73 356 81 C362 84 368 88 375 92 C373 90 372 88 371 86 C353 57 333 29 313 0 C277 -3 241 -9 206 -18 C185 -23 164 -29 143 -38 C123 -46 102 -57 84 -73 C67 -90 51 -114 55 -144 C55 -151 58 -159 63 -166 C67 -172 73 -178 80 -182 C93 -189 106 -191 119 -191 C131 -191 143 -189 154 -186 C165 -183 176 -179 187 -174 C207 -164 227 -152 244 -137 C261 -123 276 -107 290 -89 C304 -72 315 -54 328 -37 C329 -35 330 -34 332 -32 C374 -29 417 -30 460 -35 L465 -2 C428 3 392 4 356 3 C371 25 385 46 399 69 C422 105 444 142 465 178 L436 196 C404 149 354 112 300 92 C273 82 245 76 216 76 C187 77 159 82 135 95 C123 102 113 110 105 120 C101 125 98 130 95 136 C92 142 90 148 89 154 C86 168 85 182 86 196 C86 204 86 211 87 218 L88 229 C89 232 90 236 90 240 C100 297 127 352 160 401 C194 450 236 493 283 531 C329 568 382 598 438 614 C467 622 496 626 525 626 C539 626 553 625 567 621 C581 619 594 614 605 607 C616 601 625 593 628 583 C632 573 632 560 628 548 C620 523 603 498 583 478 L607 455 C619 466 629 479 638 493 C647 507 655 522 660 539 C665 556 667 575 660 595 L660 595 Z M264 -69 C251 -84 237 -99 222 -112 C207 -125 190 -135 173 -143 C164 -147 155 -151 146 -153 C136 -156 127 -157 118 -157 C110 -157 102 -156 97 -153 C91 -150 89 -146 88 -139 C87 -133 88 -125 92 -118 C95 -111 100 -104 107 -98 C121 -86 138 -76 156 -69 C175 -61 194 -55 214 -50 C239 -44 263 -40 288 -37 C280 -48 272 -59 264 -69 L264 -69 Z " />
<glyph glyph-name="H" unicode="H" horiz-adv-x="670" d="M733 634 L702 649 L514 251 C504 252 492 253 479 255 C450 258 415 262 374 263 C333 263 286 262 236 254 C233 254 229 253 225 253 C252 303 279 352 304 399 C317 424 330 448 343 472 C355 495 368 518 378 543 C383 556 386 568 388 582 C389 588 389 595 389 602 C389 608 388 616 386 623 C384 630 381 638 374 645 C368 651 359 655 352 657 C336 660 323 656 313 653 C291 646 273 635 258 622 C244 609 232 595 224 582 C220 575 217 568 213 562 C211 555 208 548 207 542 C203 529 203 517 204 507 C206 497 210 488 214 484 C216 481 217 479 219 478 C220 477 220 477 220 477 L242 502 C242 502 242 502 241 503 C240 505 238 507 237 512 C237 517 237 525 239 534 C240 538 242 543 244 548 C246 553 249 559 253 564 C259 575 269 586 280 597 C292 607 306 616 323 621 C331 624 339 625 345 624 C348 623 349 622 350 621 C352 620 353 617 354 614 C356 607 356 596 355 586 C354 576 350 566 347 555 C339 533 326 511 313 488 C301 464 288 440 274 415 C247 365 219 312 190 258 C188 253 185 248 182 243 C175 242 167 239 159 237 C132 229 106 218 80 203 C54 188 29 168 9 144 C-12 119 -27 91 -40 62 C-66 3 -83 -61 -89 -127 C-90 -135 -90 -144 -91 -152 C-91 -156 -91 -161 -91 -166 C-90 -171 -90 -176 -88 -183 C-85 -191 -80 -198 -73 -201 C-66 -205 -58 -206 -50 -204 C-41 -202 -35 -199 -30 -193 C-27 -189 -25 -186 -22 -182 C-1 -156 17 -128 35 -99 C44 -85 52 -70 60 -56 C68 -41 75 -27 83 -12 C99 17 114 46 129 74 C155 122 180 169 205 214 C217 217 230 219 241 222 C289 229 334 230 373 229 C412 228 447 225 475 222 C484 221 492 220 499 219 L307 -188 L337 -203 L534 214 C536 214 539 213 541 213 C556 210 564 209 564 209 L570 242 C570 242 562 243 549 246 L733 634 L733 634 Z M100 90 C85 61 69 33 54 4 C46 -11 38 -25 30 -40 C23 -54 15 -68 6 -82 C-11 -110 -29 -137 -48 -162 C-50 -165 -53 -168 -55 -171 C-55 -171 -57 -172 -56 -171 C-57 -171 -58 -167 -58 -164 C-58 -161 -58 -158 -57 -154 C-57 -146 -56 -138 -56 -130 C-50 -67 -34 -7 -10 48 C2 76 17 101 34 122 C52 144 73 161 97 174 C117 186 138 195 160 202 C141 165 121 128 100 90 L100 90 Z " />
<glyph glyph-name="I" unicode="I" horiz-adv-x="260" d="M321 631 C318 648 309 657 296 659 C261 662 210 640 137 560 C118 535 103 510 92 484 C83 459 78 437 77 416 C77 397 79 382 82 370 L85 358 C85 355 86 356 86 355 L86 354 L118 366 C117 366 117 366 117 367 L117 369 L114 378 C111 386 110 398 111 414 C112 446 126 494 163 539 C182 562 205 582 233 601 C239 606 253 615 274 626 L285 628 C287 628 287 628 288 624 L288 615 C274 573 256 532 234 491 C212 450 130 287 -11 1 C-43 -64 -74 -125 -103 -182 L-73 -197 C-44 -140 -14 -79 18 -14 C74 97 145 241 220 388 C239 425 255 462 274 498 C283 517 290 529 306 566 C315 585 320 600 321 612 C322 618 322 624 321 631 L321 631 Z " />
<glyph glyph-name="J" unicode="J" horiz-adv-x="525" d="M582 553 C594 556 607 560 619 565 C622 566 625 568 628 569 L630 570 L633 572 C635 573 637 574 638 575 C645 579 650 584 655 589 C660 594 665 600 669 607 C671 610 673 614 675 621 C676 627 676 634 673 640 C671 646 667 651 662 655 C657 658 652 660 646 661 C637 663 629 663 621 661 C604 658 590 652 578 644 C565 635 553 626 543 613 C538 606 533 599 530 592 C529 589 527 585 525 582 C510 582 494 582 479 582 C459 582 440 582 421 582 C385 582 353 582 327 582 C274 582 244 582 244 582 L244 549 C244 549 274 549 327 549 C353 549 385 549 421 549 C440 549 459 549 480 549 C489 549 499 549 509 549 C461 456 409 358 361 259 C334 205 308 151 281 99 C253 48 224 -2 193 -47 C176 -70 160 -91 141 -109 C123 -127 103 -142 82 -152 C72 -156 62 -159 51 -159 C41 -160 31 -159 21 -155 C2 -149 -13 -135 -22 -119 C-26 -110 -30 -102 -31 -93 C-33 -84 -33 -74 -33 -65 C-33 -46 -30 -28 -25 -11 C-16 22 -3 51 8 74 C20 96 30 114 37 126 C44 138 48 144 48 144 L20 162 C20 162 16 155 9 143 C1 131 -10 113 -22 88 C-33 64 -47 34 -57 -3 C-62 -21 -66 -42 -67 -64 C-67 -75 -66 -87 -64 -99 C-62 -111 -57 -124 -51 -135 C-39 -158 -17 -178 11 -187 C24 -192 39 -194 53 -193 C68 -192 82 -188 96 -182 C122 -170 145 -153 165 -133 C185 -113 203 -90 220 -67 C286 27 338 137 391 244 C442 349 496 451 547 549 C558 550 569 551 582 553 L582 553 Z M596 615 C606 622 616 627 626 628 C631 629 636 629 640 628 C641 628 642 628 642 628 C642 628 642 628 641 624 C638 620 635 616 631 612 C627 608 623 605 619 603 C619 602 618 601 617 601 L616 600 L614 599 C611 598 608 597 606 596 C592 589 578 586 564 584 C565 587 567 590 569 592 C576 601 586 609 596 615 L596 615 Z " />
<glyph glyph-name="K" unicode="K" horiz-adv-x="480" d="M361 384 C423 434 485 484 532 522 C579 560 611 585 611 585 L590 611 C590 611 559 586 511 548 C465 510 402 460 340 410 C277 360 214 310 167 273 C157 266 149 259 141 253 C154 278 166 303 179 329 C213 397 247 464 279 528 C287 543 296 559 301 579 C304 588 306 600 303 612 C303 615 301 618 300 621 C299 623 298 626 296 628 C293 633 290 637 286 641 C270 656 250 662 233 663 C223 664 214 663 206 662 C198 661 190 659 183 657 C154 649 128 634 109 611 C93 591 85 570 80 553 C74 536 72 521 71 512 C71 507 71 503 71 500 C71 498 71 497 71 497 L104 497 C104 497 104 501 105 509 C105 517 107 529 111 543 C116 557 123 574 136 591 C147 606 167 618 192 625 C198 627 205 628 211 629 C218 630 224 630 230 630 C242 629 255 625 263 617 C271 608 273 602 269 588 C265 574 257 559 249 543 C217 479 183 412 149 344 C82 208 12 74 -49 -21 C-79 -68 -107 -106 -129 -128 C-140 -138 -149 -145 -155 -148 C-158 -150 -160 -150 -162 -151 C-163 -151 -164 -152 -164 -152 L-157 -184 C-157 -184 -155 -184 -152 -183 C-149 -182 -144 -181 -140 -178 C-130 -173 -119 -164 -106 -151 C-80 -127 -52 -87 -21 -39 C17 21 58 94 100 174 C103 164 108 150 113 132 C123 96 135 45 150 -5 C165 -55 185 -106 212 -139 C226 -156 241 -168 253 -174 C256 -176 258 -177 261 -178 C263 -179 265 -179 267 -180 C270 -182 272 -182 272 -182 L282 -150 C282 -150 281 -150 278 -149 C277 -148 276 -148 274 -147 C273 -147 271 -145 269 -144 C260 -140 249 -132 238 -118 C227 -105 216 -86 207 -65 C198 -44 190 -20 182 4 C168 53 156 104 145 142 C140 161 135 176 131 187 C129 192 127 196 126 199 C140 210 161 226 188 247 C235 284 298 334 361 384 L361 384 Z " />
<glyph glyph-name="L" unicode="L" horiz-adv-x="461" d="M477 627 C475 633 473 639 469 644 C465 649 460 652 455 654 C450 657 445 658 441 659 C431 660 423 660 415 659 C406 657 398 655 391 653 C383 650 376 647 369 644 C340 630 315 609 294 585 C272 561 255 534 239 505 C233 493 226 480 220 468 C219 467 218 467 216 467 C188 460 166 456 151 454 C136 452 127 451 127 451 L131 418 C131 418 140 418 156 421 C167 422 182 425 201 429 C156 337 113 241 66 147 C37 87 5 27 -28 -29 C-33 -38 -38 -46 -43 -53 C-47 -54 -51 -54 -55 -55 C-84 -60 -117 -65 -146 -85 C-154 -90 -161 -95 -167 -103 C-174 -110 -179 -119 -182 -128 C-185 -138 -187 -149 -182 -162 C-180 -169 -175 -175 -169 -180 C-163 -184 -157 -186 -150 -187 C-138 -188 -128 -184 -119 -181 C-110 -177 -102 -172 -95 -166 C-88 -161 -81 -155 -75 -149 C-69 -143 -63 -136 -58 -130 C-45 -116 -34 -100 -24 -85 C-5 -83 13 -82 31 -82 C57 -83 83 -86 107 -90 C156 -98 201 -109 241 -119 C282 -128 319 -134 349 -137 C379 -139 402 -140 418 -141 C434 -141 442 -141 442 -141 L444 -108 C444 -108 435 -108 419 -107 C404 -107 381 -106 352 -103 C323 -101 289 -95 249 -86 C209 -77 164 -65 113 -57 C87 -53 60 -49 32 -49 C21 -49 10 -49 -1 -50 C-1 -49 0 -48 0 -46 C34 11 66 72 96 132 C147 236 194 342 243 439 C268 447 297 456 328 469 C347 477 368 487 389 500 C409 513 430 530 447 551 C456 562 464 574 470 588 C473 595 475 603 477 612 C478 616 478 621 477 627 L477 627 Z M-83 -108 C-88 -114 -93 -120 -99 -125 C-104 -131 -109 -135 -115 -139 C-121 -144 -126 -147 -132 -150 C-138 -153 -144 -154 -147 -153 C-149 -153 -150 -153 -150 -152 C-150 -152 -150 -152 -151 -151 C-151 -149 -152 -144 -150 -139 C-148 -134 -145 -128 -142 -124 C-138 -120 -133 -116 -128 -112 C-117 -105 -105 -100 -91 -97 C-85 -94 -77 -93 -70 -92 C-74 -97 -78 -103 -83 -108 L-83 -108 Z M444 616 C443 612 441 607 439 601 C435 591 429 581 421 573 C407 555 389 540 371 529 C352 517 333 508 315 500 C297 492 280 486 264 481 C266 484 267 486 269 489 C283 516 299 541 319 563 C338 584 360 602 383 614 C390 617 396 619 402 621 C407 623 414 625 419 626 C425 626 430 626 435 626 C440 625 443 623 443 622 C444 622 444 622 444 621 C444 620 444 618 444 616 L444 616 Z " />
<glyph glyph-name="M" unicode="M" horiz-adv-x="935" d="M917 513 C918 517 918 521 919 526 C920 534 920 543 919 552 C919 561 917 571 913 581 C909 590 900 600 890 606 C880 612 868 613 858 613 C848 612 839 610 831 607 C814 602 800 595 785 587 C770 579 756 570 743 560 C730 550 717 539 705 528 C682 506 660 481 640 456 C629 442 619 428 609 414 C615 430 623 445 629 461 C635 476 641 492 645 508 C649 525 652 542 650 561 C649 570 647 580 643 589 C639 598 632 607 624 613 C619 616 615 620 610 622 C606 624 601 625 596 627 C586 629 576 629 567 628 C549 627 532 621 516 614 C501 607 486 597 473 587 C447 566 424 542 405 516 C399 507 393 498 387 489 C391 503 394 516 396 530 C399 546 400 562 398 580 C396 596 391 615 379 630 C366 644 350 654 332 659 C314 663 297 662 280 659 C264 656 248 651 233 645 C219 638 205 630 192 621 C178 612 167 603 154 592 C131 572 110 548 92 522 C74 496 60 467 52 435 C48 420 45 403 46 387 C46 371 48 354 53 337 C58 321 68 304 83 292 C99 281 118 276 136 276 L136 310 C123 310 112 313 103 319 C95 326 89 336 85 348 C81 360 79 373 79 387 C79 401 81 414 84 428 C91 454 103 480 119 503 C135 527 155 548 177 567 C187 577 199 586 210 594 C222 602 234 608 247 614 C260 620 273 624 286 626 C299 629 312 629 324 626 C335 623 345 617 353 608 C360 600 363 588 365 576 C368 550 361 521 353 494 C351 487 349 480 346 473 L339 452 C334 438 329 424 323 410 C313 382 302 354 291 326 C271 279 251 231 230 184 L227 179 L59 -160 L89 -176 C146 -70 200 38 250 148 C253 155 257 163 260 170 L341 333 C369 390 395 447 432 496 C450 520 470 542 494 561 C506 570 518 578 531 584 C543 590 557 594 570 595 C576 596 583 596 588 594 C594 593 599 590 603 587 C607 584 610 580 613 575 C615 570 616 564 617 558 C618 545 616 531 613 516 C609 502 604 488 598 474 C549 359 494 245 435 134 L465 118 C527 228 589 337 666 435 C705 484 748 528 801 558 C804 559 807 561 811 563 C814 564 817 566 821 568 C828 571 835 574 841 576 C854 580 867 581 874 577 C877 575 880 572 882 567 C884 562 886 556 886 549 C887 543 886 536 886 529 C885 526 885 522 884 518 L882 507 C870 447 848 389 822 332 C796 275 766 220 737 164 C678 51 625 -64 579 -182 L610 -194 C656 -78 708 37 767 148 C796 204 826 260 852 318 C879 376 902 437 915 501 L917 513 L917 513 Z " />
<glyph glyph-name="N" unicode="N" horiz-adv-x="742" d="M727 442 C736 461 745 481 752 502 C758 523 763 546 759 571 C756 583 751 596 743 606 C735 617 725 625 713 630 C691 642 666 644 643 641 C621 639 599 632 579 624 C539 606 502 585 468 559 C434 533 403 503 375 472 C359 454 344 437 330 418 C341 443 351 469 359 495 C364 509 367 524 370 538 C372 545 373 553 374 561 C374 568 375 576 374 584 C373 600 370 617 359 633 C354 640 347 647 338 652 C329 656 320 659 311 659 C293 661 278 657 263 652 C249 648 235 642 222 636 C169 609 123 569 91 519 C74 493 63 465 58 434 C56 418 56 402 60 386 C64 370 71 354 83 341 L107 364 C93 380 88 405 92 429 C95 454 105 479 119 501 C147 546 189 582 236 606 C249 611 261 616 273 620 C286 624 298 627 308 626 C314 626 318 624 322 622 C326 620 329 617 332 613 C337 606 340 594 341 582 C341 576 341 570 341 564 C340 557 339 551 338 545 C335 531 332 518 327 505 C319 480 309 454 298 428 C273 369 247 311 220 254 C137 115 69 -32 3 -179 L33 -193 C107 -51 182 92 250 238 C252 242 254 246 257 250 C299 321 345 389 400 449 C427 480 456 507 489 532 C520 556 555 577 592 593 C610 600 628 606 647 608 C665 610 683 608 698 600 C706 597 712 592 717 586 C721 580 724 573 726 565 C729 549 725 530 720 512 C714 493 706 475 697 456 L671 400 L617 288 L405 -163 L435 -177 L648 273 L701 386 L727 442 L727 442 Z " />
<glyph glyph-name="O" unicode="O" horiz-adv-x="790" d="M633 96 C642 102 649 107 654 111 C659 114 661 116 661 116 L642 140 C649 151 655 162 661 173 C683 215 701 260 713 306 C727 352 735 401 730 451 C728 476 721 501 710 524 C699 547 683 568 666 585 C630 621 584 644 536 655 C488 666 437 662 392 648 C346 635 304 612 268 584 C232 557 200 524 175 487 C151 450 133 409 126 366 C123 345 122 323 126 302 L127 294 C127 291 128 289 128 286 C129 281 131 276 132 271 C134 266 135 261 137 256 C139 251 141 247 143 242 C159 205 182 173 209 147 C235 121 266 101 296 87 C327 73 358 64 386 58 C401 55 415 52 429 51 C442 49 455 48 468 47 C495 46 519 50 540 55 C517 28 493 3 469 -20 C461 -28 453 -35 445 -42 C437 -49 429 -56 421 -63 C412 -70 404 -77 396 -83 C388 -89 379 -94 371 -100 C336 -122 299 -139 263 -153 C244 -159 226 -165 208 -169 C190 -172 172 -173 155 -172 C120 -169 87 -158 63 -138 C51 -128 41 -116 34 -103 C26 -90 21 -76 18 -61 C12 -33 12 -4 15 24 C21 78 36 125 53 161 C68 198 85 224 98 241 C104 249 109 256 112 260 C116 264 118 266 118 266 L93 288 C93 288 91 286 87 281 C83 277 78 270 71 261 C57 242 39 214 22 175 C5 136 -11 87 -18 27 C-21 -2 -22 -35 -14 -69 C-10 -86 -5 -103 5 -119 C14 -136 26 -151 42 -163 C72 -189 112 -202 152 -205 C173 -207 194 -206 214 -202 C235 -197 255 -191 274 -184 C313 -170 352 -151 389 -128 C398 -122 407 -116 416 -109 C425 -103 433 -95 442 -89 C450 -82 459 -74 467 -67 C475 -60 483 -52 492 -44 C531 -8 568 33 601 78 C613 84 624 90 633 96 L633 96 Z M532 87 C514 83 493 79 470 80 C459 81 446 82 433 84 C420 85 407 88 393 90 C339 102 279 124 232 171 C208 194 188 223 173 256 C172 260 170 264 168 268 C167 272 166 276 164 281 C163 285 162 289 161 294 L159 300 L158 307 C156 324 156 343 159 361 C165 398 181 435 203 468 C225 502 255 532 288 558 C322 583 360 604 401 616 C442 628 487 632 529 622 C571 613 611 592 642 562 C658 547 670 529 680 510 C689 490 695 470 697 448 C702 404 694 359 681 315 C669 271 652 229 631 189 C616 159 598 131 579 104 C566 98 550 92 532 87 L532 87 Z " />
<glyph glyph-name="P" unicode="P" horiz-adv-x="622" d="M310 543 L280 558 C280 558 256 512 222 443 C187 375 140 283 94 191 C48 99 3 6 -29 -65 C-62 -135 -83 -181 -83 -181 L-53 -195 C-53 -195 -32 -149 1 -79 C34 -9 78 84 124 176 C170 268 217 360 251 428 C286 497 310 543 310 543 L310 543 Z M605 564 C581 610 535 638 490 651 C467 657 443 661 421 662 C398 663 376 662 354 661 C310 657 268 648 231 633 C193 618 160 596 134 571 C108 546 88 518 77 491 C75 487 74 484 72 480 C71 477 69 473 69 469 C67 461 67 453 67 446 C68 431 72 416 82 405 C91 395 104 389 114 388 C124 386 132 387 138 387 C142 388 144 388 147 389 C149 389 151 390 152 390 C155 391 157 391 157 391 L148 423 C148 423 147 423 144 423 C143 422 142 422 140 422 C138 421 136 421 135 421 C126 420 113 420 107 428 C103 431 101 439 100 448 C100 452 100 457 101 462 C102 464 103 466 103 469 C105 471 106 474 107 477 C117 500 134 525 157 547 C180 568 209 588 243 602 C277 616 316 624 357 627 C398 630 441 630 481 619 C500 613 519 605 536 593 C552 581 566 566 575 548 C585 531 589 512 588 492 C587 471 583 451 575 431 C560 392 538 356 513 324 C487 292 457 266 427 243 C412 231 397 221 382 211 C366 202 352 193 337 186 C308 170 280 159 255 150 C242 146 230 141 219 139 C207 136 197 133 188 131 C179 129 170 127 163 126 C156 124 149 124 144 123 C134 122 129 121 129 121 L132 88 C132 88 138 89 148 90 C154 91 161 91 169 93 C176 94 185 96 195 98 C205 100 216 103 228 106 C240 109 252 114 266 118 C292 128 322 140 352 156 C368 164 383 173 400 183 C415 193 432 204 447 216 C479 241 510 269 538 303 C566 337 590 376 607 420 C615 442 621 465 622 490 C622 515 617 542 605 564 L605 564 Z " />
<glyph glyph-name="Q" unicode="Q" horiz-adv-x="832" d="M510 -82 C542 -49 572 -14 599 24 C655 99 702 185 737 278 C754 324 766 375 764 427 C763 453 757 479 748 504 C739 529 726 552 710 573 C693 594 674 612 652 626 C629 641 604 651 579 657 C527 669 473 661 425 643 C402 634 379 623 358 609 C347 602 337 595 327 588 C317 580 308 572 298 564 C262 531 231 493 208 451 C184 409 168 364 159 319 C150 273 149 228 154 184 C156 162 160 141 165 120 C171 100 177 80 185 61 C201 22 223 -12 247 -42 C271 -72 300 -97 328 -116 C344 -128 361 -137 377 -146 C364 -153 350 -158 337 -163 C318 -168 300 -171 281 -172 C244 -174 208 -167 179 -151 C149 -135 125 -111 108 -85 C91 -59 80 -30 76 -3 C74 11 73 24 74 37 C74 44 75 50 76 56 C76 63 77 69 78 75 C82 100 87 123 92 144 C103 184 114 216 122 237 C126 248 129 256 131 261 C133 267 134 269 134 269 L104 283 C104 283 102 280 100 274 C98 268 94 260 90 249 C82 227 71 194 60 152 C54 131 49 107 45 80 C44 74 43 67 42 60 C42 53 41 46 41 38 C40 24 41 7 43 -8 C48 -40 60 -73 80 -103 C99 -134 127 -162 163 -180 C234 -219 330 -214 407 -168 C409 -167 411 -165 413 -164 C414 -164 414 -165 414 -165 C443 -177 471 -186 498 -191 C525 -195 552 -196 575 -191 C588 -189 597 -185 607 -182 C616 -180 625 -176 633 -173 C650 -166 663 -158 674 -151 C684 -144 691 -138 696 -134 C701 -130 703 -128 703 -128 L681 -103 C681 -103 678 -104 674 -108 C670 -112 663 -117 655 -123 C646 -130 635 -136 621 -142 C613 -145 605 -148 596 -151 C588 -153 578 -157 569 -158 C536 -165 492 -159 446 -141 C469 -123 490 -103 510 -82 L510 -82 Z M410 -126 C390 -116 368 -103 347 -89 C321 -71 295 -48 273 -21 C250 6 231 38 216 74 C209 91 203 110 198 129 C193 148 189 168 187 188 C177 269 193 357 237 434 C258 473 287 509 321 540 C329 547 338 554 347 561 C357 568 366 575 376 581 C395 593 416 604 437 612 C480 628 527 635 571 625 C593 620 614 611 633 599 C652 586 669 570 683 552 C697 534 709 514 717 493 C725 471 729 449 730 426 C732 380 721 333 705 289 C672 200 626 117 573 44 C545 7 516 -27 486 -59 C462 -84 437 -107 410 -126 L410 -126 Z " />
<glyph glyph-name="R" unicode="R" horiz-adv-x="610" d="M305 541 L275 556 C275 556 252 510 217 441 C182 372 136 280 90 188 C44 96 -1 3 -34 -67 C-67 -137 -88 -184 -88 -184 L-57 -198 C-57 -198 -36 -151 -4 -81 C29 -11 74 81 120 174 C166 265 212 357 247 426 C282 495 305 541 305 541 L305 541 Z M242 -158 C240 -158 238 -157 234 -155 C231 -152 227 -149 224 -143 C222 -140 221 -137 220 -133 C219 -129 217 -125 216 -120 C213 -111 210 -101 207 -91 C201 -71 195 -49 189 -27 C179 15 170 58 164 91 C172 92 181 94 191 96 C201 98 211 101 223 104 C235 107 248 112 261 116 C287 126 317 137 348 154 C364 161 379 171 395 181 C410 191 427 201 443 214 C474 238 506 266 534 300 C562 334 586 374 602 417 C610 440 616 463 617 488 C618 513 613 539 600 562 C576 607 531 636 485 649 C462 655 439 658 416 659 C394 661 371 660 350 658 C306 655 264 646 226 631 C188 615 155 593 129 569 C103 544 84 515 72 488 C71 485 69 481 68 478 C66 475 65 470 64 466 C63 459 62 451 62 444 C63 429 67 414 77 403 C87 392 100 387 110 386 C120 384 128 384 134 385 C137 386 140 386 142 387 C144 387 146 387 148 388 C151 388 152 389 152 389 L143 421 C143 421 142 421 140 420 C139 420 137 420 135 419 C134 419 132 418 130 418 C122 417 109 417 102 425 C99 429 96 436 96 445 C95 450 96 455 97 459 C97 462 98 464 99 466 C100 469 101 472 103 475 C113 498 129 522 152 544 C175 566 204 586 239 599 C273 613 311 622 352 625 C393 628 436 628 476 617 C496 611 515 602 531 590 C548 579 562 564 571 546 C580 529 584 509 584 489 C583 469 578 448 571 429 C556 389 534 353 508 322 C482 290 452 263 422 240 C408 229 392 219 377 209 C362 200 347 191 332 184 C303 168 275 157 250 147 C237 143 225 139 214 136 C203 133 193 130 183 128 C174 127 166 125 158 123 C158 123 158 123 158 123 C155 140 153 150 153 150 L120 144 C120 144 122 135 125 119 C124 119 124 119 124 119 L127 86 C127 86 129 86 131 86 C137 53 146 9 157 -35 C162 -58 169 -80 175 -100 C178 -111 181 -121 184 -130 C185 -135 187 -139 188 -144 C190 -149 192 -154 194 -159 C199 -168 207 -177 214 -182 C222 -188 231 -191 239 -192 C247 -192 253 -191 257 -189 C261 -188 263 -187 263 -187 L249 -157 C249 -157 246 -159 242 -158 L242 -158 Z " />
<glyph glyph-name="S" unicode="S" horiz-adv-x="610" d="M629 594 C621 609 608 622 594 633 C580 643 563 651 545 654 C527 658 509 659 492 657 C457 653 423 641 392 624 C361 607 332 585 307 558 C295 544 283 530 273 514 C263 499 254 482 247 465 C232 431 224 393 226 354 C228 314 242 277 260 245 C278 212 300 183 318 153 C336 124 350 92 356 60 C362 28 359 -5 346 -33 C334 -62 312 -87 288 -106 C238 -146 175 -165 118 -160 C61 -157 9 -128 -14 -87 C-26 -66 -31 -43 -31 -21 C-30 1 -26 23 -19 42 C-16 52 -12 61 -8 70 C-3 78 1 87 6 94 C8 98 11 101 13 105 C15 109 18 112 20 115 C25 122 30 128 35 134 C55 156 74 170 87 179 C93 183 99 186 102 188 C105 191 107 192 107 192 L91 221 C91 221 89 220 85 217 C81 215 75 212 68 207 C53 197 32 181 10 156 C5 149 -1 143 -7 135 C-9 132 -12 128 -15 124 C-17 120 -20 116 -23 112 C-28 103 -33 94 -38 84 C-42 74 -47 64 -51 53 C-58 31 -64 6 -64 -21 C-64 -47 -59 -77 -43 -103 C-28 -130 -5 -152 23 -167 C51 -183 83 -191 116 -194 C182 -199 252 -177 308 -133 C336 -111 362 -82 377 -47 C393 -12 396 29 389 66 C382 104 366 139 347 170 C327 202 306 231 290 261 C273 291 261 323 259 355 C257 388 265 422 278 452 C304 513 352 565 408 595 C436 610 466 621 495 624 C525 626 553 621 574 606 C585 598 594 588 600 577 C606 566 610 554 611 542 C614 517 607 492 595 471 C583 449 567 431 549 417 C541 410 531 404 522 398 C513 393 503 389 495 387 C487 385 481 386 477 388 C473 391 470 396 468 401 C467 408 467 414 469 420 C469 423 471 426 472 429 C473 432 475 434 477 437 C484 448 494 456 503 462 C512 469 520 473 527 477 C534 480 540 483 544 484 C547 486 550 486 550 486 L538 518 C538 518 536 517 531 515 C527 513 521 511 512 507 C504 503 494 497 484 489 C473 482 460 472 450 456 C447 453 444 449 442 444 C440 439 438 434 436 429 C433 418 433 406 436 394 C437 388 440 381 444 375 C448 369 453 364 460 360 C473 351 490 351 503 354 C516 358 527 363 538 369 C550 375 560 383 571 391 C591 408 610 429 624 455 C631 468 637 482 641 497 C645 512 646 529 645 545 C643 562 638 579 629 594 L629 594 Z " />
<glyph glyph-name="T" unicode="T" horiz-adv-x="377" d="M150 206 C106 111 61 17 27 -53 C-7 -124 -30 -170 -30 -170 L0 -185 C0 -185 23 -138 57 -68 C91 3 136 97 181 191 C269 380 358 569 358 569 L328 583 C328 583 239 394 150 206 L150 206 Z M2 516 C3 519 4 525 8 533 C17 548 34 571 63 589 C77 598 93 606 111 612 C130 619 150 623 171 625 C214 629 261 623 307 614 C353 604 400 590 444 579 C489 568 531 561 570 560 C589 559 608 560 624 566 C641 571 654 580 663 589 C672 599 678 608 680 615 C682 619 682 621 683 623 C683 625 684 626 684 626 L651 633 C651 633 651 632 651 632 C650 631 650 629 649 627 C648 624 645 619 639 613 C634 607 625 601 614 598 C602 594 588 592 570 593 C536 594 495 601 452 611 C408 622 362 636 314 646 C266 656 216 663 168 658 C145 656 122 651 101 644 C80 637 61 627 44 617 C28 606 14 594 4 582 C1 580 -2 576 -4 573 C-7 571 -9 568 -11 565 C-15 559 -19 554 -21 548 C-27 537 -30 527 -31 519 C-31 516 -31 512 -31 511 C-31 508 -31 507 -31 507 L2 510 C2 510 2 512 2 516 L2 516 Z " />
<glyph glyph-name="U" unicode="U" horiz-adv-x="675" d="M577 325 C582 334 586 343 591 352 C636 439 682 526 725 614 L695 629 C646 532 596 437 547 339 C529 305 512 270 495 236 C473 191 453 147 431 104 C409 61 385 20 354 -17 C324 -54 289 -87 250 -114 C231 -128 211 -140 190 -150 L173 -157 C168 -159 163 -161 157 -163 C147 -167 136 -169 125 -171 C103 -175 80 -174 63 -167 C45 -159 36 -143 35 -123 C34 -103 40 -80 48 -59 C56 -37 66 -14 75 8 C94 53 114 98 135 142 C175 231 217 320 258 409 C278 453 299 498 319 543 C320 545 321 549 322 552 C323 555 325 559 326 562 C328 569 329 577 329 584 C329 592 329 600 327 608 C324 615 320 623 315 629 C310 635 303 640 297 644 C294 646 291 648 287 649 L282 651 L280 652 L276 653 C268 655 261 655 254 655 C247 655 240 654 233 653 C207 648 181 637 159 622 C148 614 138 605 128 595 C124 590 119 585 116 579 C114 576 112 573 110 570 C108 567 107 564 105 561 C98 549 94 537 90 524 C86 512 83 499 81 487 C80 474 77 461 77 448 C77 435 77 422 81 407 L113 416 C111 426 111 437 111 448 C111 459 112 471 115 482 C116 493 118 504 121 515 C126 526 129 537 134 546 C144 565 160 582 177 594 C196 607 217 616 238 620 C243 620 248 621 253 621 C259 622 264 621 267 620 L268 620 L270 619 L273 618 C276 617 278 616 280 615 C283 613 287 610 289 607 C299 595 298 575 288 556 C268 511 248 467 227 422 C186 333 145 245 104 156 C84 111 64 66 45 21 C35 -2 26 -24 17 -48 C8 -72 2 -97 3 -126 C4 -140 7 -155 15 -168 C23 -181 36 -191 48 -197 C61 -203 75 -206 89 -207 C103 -207 116 -206 129 -204 C142 -202 155 -199 167 -195 C173 -193 180 -190 186 -188 C192 -186 198 -183 203 -180 C226 -169 248 -156 269 -142 C311 -112 347 -77 379 -38 C382 -34 386 -30 389 -26 C371 -80 356 -136 348 -193 L382 -196 C391 -125 413 -55 438 14 C463 83 493 150 524 217 C541 253 559 289 577 325 L577 325 Z " />
<glyph glyph-name="V" unicode="V" horiz-adv-x="660" d="M769 566 C781 577 791 586 800 593 C808 601 816 608 823 612 C835 622 844 627 844 627 L821 656 C821 656 814 650 801 640 C793 635 785 628 776 620 C767 612 756 603 745 592 C698 549 637 484 571 400 C538 357 505 310 471 259 C436 208 404 150 372 93 C338 36 300 -21 256 -74 C233 -100 210 -126 184 -146 C170 -156 157 -164 141 -170 C138 -171 133 -173 130 -173 C128 -174 127 -174 125 -174 L123 -174 L136 -124 C141 -107 145 -89 149 -72 C159 -37 168 -2 178 32 C197 101 218 168 236 234 C256 299 274 363 288 424 C295 455 301 485 307 515 C308 522 309 530 310 537 C311 544 311 553 312 562 C312 578 307 596 299 612 C293 621 287 629 280 635 C272 642 265 646 256 650 C240 656 224 658 209 658 C194 658 181 655 168 651 C156 647 145 641 135 635 C114 622 98 607 87 591 C75 574 66 558 59 542 C48 509 48 477 59 455 C65 444 72 436 77 431 C82 427 85 425 85 425 L102 451 C102 452 96 454 90 466 C84 477 82 500 91 527 C101 553 122 584 156 606 C172 617 191 624 215 625 C226 625 236 623 246 619 C251 617 255 614 260 611 C263 608 267 604 270 599 C275 590 278 577 279 565 C278 559 277 553 276 545 C275 538 274 531 273 524 C270 495 263 466 255 436 C241 375 223 312 203 247 C185 181 165 114 145 45 C135 11 126 -24 117 -60 C112 -77 108 -95 102 -112 L96 -139 L93 -152 L92 -159 L90 -162 L90 -165 C90 -166 90 -167 90 -168 C87 -177 89 -187 95 -194 C101 -202 110 -206 120 -207 C122 -208 124 -208 127 -208 C129 -208 131 -208 132 -208 C135 -207 138 -207 141 -206 C146 -205 150 -203 156 -202 C174 -195 191 -185 207 -174 C237 -151 260 -124 283 -97 C328 -42 367 16 400 74 C435 131 466 188 500 238 C532 289 567 335 600 377 C664 460 724 525 769 566 L769 566 Z " />
<glyph glyph-name="W" unicode="W" horiz-adv-x="997" d="M894 305 C927 359 961 413 997 466 C1015 492 1033 517 1052 542 C1062 554 1072 566 1082 577 C1088 582 1093 587 1098 592 C1104 596 1109 600 1113 601 L1103 633 C1091 629 1084 623 1077 618 C1070 612 1064 606 1058 600 C1047 588 1036 575 1026 562 C1006 537 987 511 969 484 C933 431 899 377 866 323 C832 268 800 214 767 159 C734 104 702 50 668 -4 C652 -32 635 -58 618 -85 C609 -99 601 -111 592 -123 C582 -134 572 -145 561 -152 C555 -156 549 -159 543 -162 C542 -162 540 -163 539 -163 L534 -164 C531 -165 528 -165 525 -165 C520 -165 514 -165 508 -162 C506 -162 503 -160 500 -159 C498 -157 495 -156 493 -153 C483 -145 475 -134 469 -121 C466 -115 464 -108 462 -102 C461 -95 460 -87 459 -80 C456 -50 458 -19 462 11 C466 42 473 72 481 103 C497 163 519 223 540 283 L508 294 C495 258 479 223 461 188 C443 153 423 119 403 86 C361 20 316 -45 266 -104 C242 -132 211 -154 177 -165 C145 -176 100 -174 98 -146 C95 -131 97 -112 100 -94 C104 -76 109 -58 116 -39 C122 -21 129 -3 136 16 L157 71 C186 144 215 218 243 292 C257 330 270 367 282 405 C294 443 305 482 312 522 C316 543 317 565 312 587 C310 598 307 609 301 620 C295 630 287 640 276 648 C266 655 254 659 242 661 C230 663 217 662 206 659 C183 654 164 642 147 628 C131 614 117 598 105 580 C94 562 84 543 77 523 C63 484 59 440 67 398 L100 404 C93 440 97 478 109 512 C115 530 123 546 133 562 C143 577 155 591 169 602 C182 614 198 623 214 627 C222 629 230 629 237 628 C244 627 251 624 257 620 C269 612 276 597 279 581 C283 564 283 546 279 528 C273 490 262 453 250 415 C238 378 225 341 211 304 C184 230 155 157 126 83 L105 27 C98 9 91 -9 84 -29 C77 -48 71 -67 67 -88 C66 -98 64 -109 63 -120 C63 -131 63 -142 66 -154 L67 -158 C67 -160 68 -161 68 -163 L70 -167 C71 -169 71 -170 72 -172 C74 -175 76 -178 78 -181 C80 -184 83 -186 86 -188 C97 -197 109 -201 121 -203 C144 -207 166 -204 187 -197 C228 -183 264 -158 292 -126 C343 -64 389 1 431 69 C435 75 439 81 443 88 C437 64 432 40 429 16 C425 -17 422 -50 426 -84 C427 -92 428 -100 430 -109 C432 -118 435 -127 439 -135 C446 -151 457 -167 471 -179 C486 -191 506 -200 526 -199 C547 -198 565 -191 580 -180 C595 -170 607 -157 618 -144 C628 -131 638 -117 646 -103 C663 -76 680 -49 697 -22 C730 32 763 87 795 142 C828 196 861 251 894 305 L894 305 Z " />
<glyph glyph-name="X" unicode="X" horiz-adv-x="635" d="M422 -192 C421 -194 419 -197 415 -201 C411 -204 406 -207 400 -210 C394 -212 386 -214 378 -215 C374 -215 370 -214 366 -213 C363 -212 359 -211 355 -208 C348 -203 341 -196 335 -186 C330 -176 325 -163 322 -149 C306 -94 301 -26 303 48 C303 79 306 111 308 143 C428 272 550 398 646 490 C669 512 691 533 711 551 C731 569 748 585 762 598 C791 624 808 638 808 638 L786 663 C786 663 769 649 740 623 C726 610 708 594 688 576 C669 558 646 537 622 514 C534 430 424 315 313 197 C315 224 317 252 320 280 C323 319 325 359 325 399 C325 419 325 439 323 458 C322 478 320 497 317 516 C315 535 311 554 303 573 C300 583 295 592 289 600 C282 609 275 616 266 622 C249 634 228 639 208 637 C188 635 171 628 158 619 C144 611 132 601 121 591 C110 581 101 571 93 560 C85 550 79 540 74 529 C71 524 69 519 67 514 C65 509 63 504 62 499 C57 479 58 462 62 451 C63 445 65 441 66 438 C67 435 68 434 68 434 L97 449 C97 449 97 450 96 452 C96 453 95 456 94 459 C92 466 91 476 95 491 C95 494 97 498 98 502 C100 506 101 510 104 514 C108 523 113 531 120 540 C126 549 135 558 144 567 C153 575 164 584 175 591 C186 598 199 603 211 604 C223 605 236 602 247 594 C253 590 258 586 262 580 C266 574 269 568 273 561 C278 546 282 529 284 511 C286 493 289 475 290 456 C291 437 291 418 292 399 C291 361 289 322 286 282 C283 241 279 199 276 158 C218 96 160 34 105 -24 C77 -54 49 -83 23 -110 C10 -123 -3 -135 -16 -142 C-29 -148 -44 -150 -53 -147 C-57 -146 -60 -144 -62 -140 C-64 -136 -65 -130 -65 -124 C-66 -118 -66 -111 -66 -104 C-65 -97 -65 -90 -64 -84 C-62 -58 -58 -36 -54 -18 C-49 0 -45 14 -42 24 C-38 33 -36 38 -36 38 L-68 50 C-68 50 -70 45 -73 35 C-77 25 -81 10 -86 -10 C-91 -29 -95 -53 -98 -81 C-98 -88 -99 -95 -99 -103 C-99 -110 -100 -118 -99 -127 C-98 -135 -97 -145 -91 -156 C-89 -161 -85 -166 -80 -170 C-75 -174 -70 -177 -64 -179 C-52 -183 -41 -183 -31 -181 C-20 -179 -10 -176 -1 -171 C18 -162 33 -148 47 -134 C73 -106 101 -78 129 -47 C175 1 223 53 272 105 C271 86 270 67 269 48 C267 -27 273 -99 289 -158 C293 -173 298 -188 306 -202 C313 -216 324 -228 337 -236 C343 -240 350 -243 358 -246 C365 -247 372 -248 379 -248 C392 -248 403 -245 412 -241 C422 -237 430 -231 437 -226 C443 -220 448 -214 451 -209 C455 -203 456 -198 457 -195 C458 -192 459 -190 459 -190 L426 -184 C425 -184 425 -187 422 -192 L422 -192 Z " />
<glyph glyph-name="Y" unicode="Y" horiz-adv-x="747" d="M606 39 L598 71 C554 60 511 47 469 32 C568 221 665 412 760 605 L730 620 C655 479 567 345 470 218 C446 186 421 156 393 128 C366 101 335 78 301 62 C283 55 266 49 248 46 C230 44 212 44 196 49 C179 54 165 64 154 77 C143 90 136 106 132 124 C129 141 129 159 131 178 C134 197 138 215 144 233 C156 270 173 306 191 342 C208 378 227 412 248 446 C258 464 268 480 279 497 C290 514 302 529 313 547 C318 557 324 567 327 579 C329 584 330 591 330 598 C331 605 330 612 327 619 C322 632 311 643 300 649 C289 656 277 659 265 660 C240 662 218 655 198 645 C178 635 160 622 145 607 C115 576 92 538 83 495 C78 473 77 451 81 429 C85 407 94 385 109 367 L135 388 C113 414 108 452 115 488 C123 524 142 557 168 583 C182 596 197 607 213 615 C229 623 246 628 262 627 C270 627 277 624 283 621 C289 617 294 612 295 607 C298 602 297 595 295 588 C293 580 289 573 284 565 C275 549 262 532 251 515 C240 498 229 481 219 464 C198 429 178 393 160 357 C143 320 126 283 113 244 C106 224 101 204 98 182 C95 161 95 139 100 117 C104 95 114 73 128 56 C143 38 163 24 185 17 C208 10 231 10 253 13 C274 16 295 23 314 32 C334 40 352 51 369 64 C386 76 402 90 417 104 C447 134 472 166 497 198 C520 228 542 258 564 289 C517 197 470 105 422 14 C371 -7 317 -30 274 -72 C262 -83 252 -96 244 -111 C242 -115 241 -120 240 -124 C238 -128 237 -132 236 -137 C236 -141 235 -146 235 -150 C235 -155 236 -160 237 -166 C239 -171 242 -179 248 -183 C254 -188 262 -190 267 -190 C278 -192 287 -189 295 -187 C311 -183 326 -175 339 -165 C365 -146 384 -121 401 -96 C409 -83 416 -70 423 -57 L443 -18 C444 -16 445 -15 446 -13 C498 8 552 25 606 39 L606 39 Z M372 -78 C358 -101 340 -123 319 -138 C309 -146 298 -152 286 -155 C280 -157 274 -158 271 -157 C270 -157 270 -157 270 -157 C270 -157 270 -157 270 -157 C270 -157 270 -157 270 -157 C270 -157 269 -157 269 -156 C269 -155 268 -153 269 -150 C269 -148 269 -145 269 -142 C270 -139 270 -137 271 -134 C273 -131 273 -129 275 -126 C280 -115 288 -105 297 -96 C316 -77 340 -62 364 -49 C375 -43 386 -38 398 -33 L393 -41 C387 -54 380 -66 372 -78 L372 -78 Z " />
<glyph glyph-name="Z" unicode="Z" horiz-adv-x="717" d="M817 577 C816 584 815 591 811 598 C808 605 802 611 796 616 C784 625 769 628 757 628 C744 628 732 626 721 623 C710 619 699 615 689 610 C664 598 642 584 621 568 C615 571 608 573 602 577 C564 594 526 614 486 629 C466 637 445 644 424 649 C403 655 381 659 358 660 C336 661 313 659 291 653 C279 650 268 644 258 639 C248 634 239 628 230 622 C194 597 162 569 131 539 L154 515 C184 544 215 571 249 594 C257 600 265 605 274 610 C283 614 292 618 299 620 C318 625 337 627 357 626 C377 625 396 622 416 617 C435 612 455 605 474 598 C512 583 549 564 588 546 C589 546 590 545 592 544 C588 541 585 539 582 536 C518 480 458 419 400 359 C341 298 283 238 221 182 C159 126 94 72 29 18 L-59 -54 C-73 -59 -86 -65 -98 -72 C-113 -81 -127 -90 -140 -99 L-150 -106 L-155 -110 C-157 -111 -160 -113 -162 -115 C-166 -118 -169 -122 -173 -128 C-175 -130 -176 -133 -178 -138 C-178 -141 -179 -144 -178 -148 C-177 -152 -176 -156 -173 -159 L-164 -170 L-152 -162 C-114 -140 -80 -114 -47 -87 L-42 -83 C-41 -83 -41 -82 -40 -82 C-26 -77 -11 -75 3 -75 C33 -74 63 -82 92 -94 C107 -100 121 -107 137 -114 C152 -120 167 -127 182 -133 C244 -158 308 -176 374 -189 C390 -192 408 -194 426 -194 C444 -194 462 -191 479 -186 C513 -175 544 -153 566 -124 L539 -104 C522 -127 497 -145 469 -154 C441 -163 410 -162 380 -156 C317 -144 255 -126 195 -102 C180 -96 165 -90 150 -83 C135 -77 120 -70 105 -63 C76 -51 43 -42 9 -41 L51 -7 C116 46 180 101 243 158 C306 214 365 275 424 335 C482 396 541 456 604 510 C611 517 618 523 626 529 C653 518 680 508 709 501 C719 498 732 496 745 496 C757 496 771 500 783 507 C795 514 804 525 810 537 C816 549 818 563 817 577 L817 577 Z M780 552 C776 545 771 539 765 535 C753 528 736 528 717 533 C697 538 677 545 657 553 C672 563 687 573 703 580 C721 588 740 595 756 594 C765 594 772 592 776 589 C779 587 780 586 781 583 C782 580 783 577 784 574 C784 566 783 559 780 552 L780 552 Z " />
<glyph glyph-name="bracketleft" unicode="&#x5b;" horiz-adv-x="339" d="M377 665 C361 662 342 663 322 661 C321 661 315 660 310 659 L303 658 C302 658 302 657 301 656 L300 653 L291 635 L279 610 L231 507 C199 438 168 370 137 300 C106 232 76 162 46 93 L2 -11 L-50 -138 L11 -139 C23 -139 36 -139 49 -138 L47 -106 C35 -107 23 -107 11 -107 L-3 -107 L31 -24 L75 80 C105 150 135 219 166 288 C196 357 228 425 260 494 L307 596 L320 621 L323 629 L325 630 C343 632 362 631 383 634 L377 665 Z " />
<glyph glyph-name="backslash" unicode="&#x5c;" horiz-adv-x="472" d="M220 270 C188 466 164 663 164 663 L133 659 C133 659 157 462 189 265 C220 68 264 -157 264 -157 L295 -151 C295 -151 251 74 220 270 L220 270 Z " />
<glyph glyph-name="bracketright" unicode="&#x5d;" horiz-adv-x="311" d="M283 553 C293 575 302 594 309 612 C312 618 315 623 317 629 C318 631 319 633 320 635 C321 637 321 639 321 641 C322 643 322 644 321 645 C321 647 321 648 320 649 C318 656 313 659 307 661 C301 663 293 664 286 664 C284 664 282 664 280 664 C279 664 277 664 275 664 C273 664 270 664 267 664 C262 664 257 664 253 664 C246 664 243 664 243 664 L241 633 C241 633 246 633 253 633 C257 633 262 633 267 633 C270 633 273 633 276 633 C278 633 281 633 284 633 C277 617 267 594 255 566 C216 480 165 365 114 251 C63 136 12 22 -26 -64 C-36 -86 -45 -105 -52 -123 C-53 -124 -54 -125 -54 -125 C-54 -125 -54 -125 -54 -125 C-54 -125 -56 -126 -59 -126 C-68 -125 -75 -125 -82 -125 C-109 -125 -125 -125 -125 -125 L-126 -156 C-126 -156 -110 -156 -83 -157 C-76 -157 -68 -157 -60 -157 C-55 -157 -48 -158 -40 -154 C-36 -152 -32 -149 -29 -145 C-27 -142 -25 -139 -24 -136 C-16 -118 -7 -99 3 -77 C41 9 92 123 143 238 C194 353 245 467 283 553 L283 553 Z " />
<glyph glyph-name="asciicircum" unicode="&#x5e;" horiz-adv-x="211" d="M249 584 C250 594 251 606 252 620 C252 626 253 632 253 641 C252 643 252 645 251 648 C251 649 251 650 250 651 C250 653 249 654 248 655 C245 661 240 664 233 664 C230 664 226 664 223 663 C220 662 216 660 213 658 C208 655 205 651 201 648 C199 646 198 645 197 643 L193 639 C190 636 188 633 185 631 C175 620 166 609 158 600 C143 581 133 568 133 568 L154 555 C154 555 163 568 177 585 C185 594 193 604 203 615 C206 617 208 620 210 623 L214 627 L218 630 C220 633 222 634 224 635 L224 636 L224 636 C224 635 224 635 224 635 C224 634 225 633 225 632 C225 627 224 620 224 614 C223 601 222 589 221 579 C219 558 217 545 217 545 L245 548 C245 548 247 562 249 584 L249 584 Z " />
<glyph glyph-name="underscore" unicode="&#x5f;" horiz-adv-x="343" d="M69 81 C8 80 -52 81 -52 81 L-51 47 C-51 47 9 46 69 47 C130 49 190 48 190 48 L190 82 C190 82 129 82 69 81 L69 81 Z " />
<glyph glyph-name="grave" unicode="&#x60;" horiz-adv-x="178" d="M190 637 C178 650 165 662 165 662 L146 642 C146 642 158 630 170 618 C182 606 193 592 193 592 L214 610 C214 610 203 624 190 637 L190 637 Z " />
<glyph glyph-name="a" unicode="a" horiz-adv-x="311" d="M311 273 C283 242 254 211 224 181 C209 166 194 151 179 136 L156 115 C148 107 141 101 134 98 C131 96 127 95 124 95 C121 94 119 95 119 95 C118 96 117 96 117 99 C116 102 116 106 117 110 C120 127 129 146 139 165 C149 183 158 202 169 221 L179 239 C186 251 193 264 199 277 L172 292 L148 248 C153 264 152 276 149 284 C149 285 148 286 148 288 C147 290 146 293 144 295 C139 304 132 308 132 308 L132 308 C123 315 113 318 104 320 C93 322 83 321 74 319 C64 317 56 314 48 309 C33 301 21 291 8 281 C-15 260 -36 235 -52 206 C-60 192 -67 178 -72 162 C-78 146 -82 128 -79 108 C-77 97 -74 87 -67 77 C-60 67 -51 59 -39 53 C-28 49 -17 47 -7 48 C3 49 12 52 20 55 C37 61 50 71 63 80 C71 87 79 93 87 101 C87 100 87 99 87 99 C87 99 87 99 87 99 C87 97 87 95 87 93 C88 90 90 85 92 81 C94 77 98 73 102 71 C111 65 120 64 127 65 C134 66 141 68 148 71 C160 77 169 85 176 93 L200 115 C215 130 230 145 245 160 C275 190 305 222 333 253 L311 273 L311 273 Z M75 134 C65 124 54 114 43 105 C31 96 19 88 6 83 C-7 78 -21 76 -30 80 C-40 84 -47 96 -49 108 C-51 121 -48 135 -44 149 C-39 163 -33 176 -25 189 C-11 215 8 238 30 257 C41 267 53 276 65 283 C78 289 91 293 103 291 C109 290 114 287 117 284 C120 282 121 278 122 273 C122 267 121 261 118 254 C116 248 113 241 110 234 L133 221 C132 219 131 217 130 215 L129 214 L129 214 C125 206 120 197 115 188 L115 188 L115 188 C115 186 114 185 113 184 C102 166 90 150 75 134 L75 134 Z " />
<glyph glyph-name="b" unicode="b" horiz-adv-x="376" d="M360 263 C345 254 294 223 214 175 C195 164 177 153 160 144 C164 150 169 155 173 162 C178 169 183 176 187 183 C192 191 196 198 199 207 C203 215 206 224 208 234 C210 244 210 255 206 266 C204 271 200 276 197 281 C193 285 189 289 184 292 C175 298 165 301 156 303 C146 304 136 304 127 303 C117 302 108 299 100 296 C82 289 67 280 53 270 C40 259 27 249 15 237 C21 249 28 261 34 273 C106 340 179 407 245 480 C262 498 278 519 292 540 C299 551 306 562 312 574 C314 580 317 586 320 592 C322 597 325 604 327 611 C328 615 328 620 328 625 C328 630 326 636 323 641 C321 643 319 646 317 648 C314 649 312 651 310 652 C307 653 304 654 302 655 C299 655 297 655 295 655 C286 656 278 654 271 651 C265 649 258 646 252 642 C246 639 240 634 235 630 C230 626 225 622 220 618 C211 609 202 599 193 590 C159 552 133 508 107 466 C82 423 57 380 34 336 C-14 249 -58 160 -100 70 L-100 70 C-100 70 -100 70 -100 70 L-73 57 C-73 57 -73 57 -73 57 L-73 57 C-69 65 -65 73 -61 81 C-60 70 -54 61 -47 53 C-40 45 -30 40 -19 37 C-17 36 -14 36 -11 35 C-8 35 -6 35 -4 35 C1 35 6 35 11 36 C30 39 47 47 62 56 C64 57 65 58 67 59 L67 59 C67 59 87 70 117 87 C133 95 151 105 170 115 C189 126 210 138 229 150 C309 198 390 249 390 249 L376 273 L360 263 Z M133 451 C158 493 183 534 215 570 C223 579 232 588 240 595 C245 599 249 603 254 607 C258 611 262 614 267 617 C271 619 276 622 281 623 C286 625 291 626 294 626 C295 626 296 626 296 625 C297 625 297 625 297 625 C298 625 298 625 298 624 C298 624 298 624 299 623 C299 622 298 620 298 618 C297 614 295 609 292 603 C290 598 287 593 285 587 C280 577 274 566 267 557 C254 536 240 518 223 500 C178 450 129 403 79 356 C97 388 115 419 133 451 L133 451 Z M7 66 C3 65 0 65 -3 65 C-5 65 -6 65 -8 65 C-9 65 -11 65 -12 66 C-17 67 -22 70 -26 74 C-29 78 -32 83 -32 87 C-32 92 -31 96 -28 100 L-44 112 C-22 150 4 185 35 215 C58 236 83 257 110 268 C117 270 124 272 131 273 C138 274 144 274 151 273 C164 271 175 264 178 255 C181 246 179 232 172 219 C166 205 158 191 149 179 C131 153 109 129 85 109 C73 99 60 89 47 81 C34 74 20 68 7 66 L7 66 Z " />
<glyph glyph-name="c" unicode="c" horiz-adv-x="244" d="M244 273 C244 273 235 263 219 246 C203 229 180 206 150 180 C135 167 119 153 101 139 C83 125 64 111 43 98 C37 94 30 90 23 87 C23 87 22 87 22 86 C22 86 -29 58 -47 75 C-47 76 -47 76 -47 76 C-47 76 -48 76 -48 76 C-48 77 -49 78 -49 78 L-49 78 C-50 79 -50 80 -51 81 C-52 82 -52 84 -53 86 C-53 87 -54 88 -54 89 C-54 90 -55 91 -55 93 C-55 95 -55 97 -55 100 C-56 110 -55 121 -52 133 C-50 139 -49 145 -47 151 C-45 157 -42 161 -40 167 C-31 189 -17 210 -2 227 C22 255 39 266 68 279 C75 282 93 287 94 278 C95 276 95 274 95 272 C94 268 92 263 90 259 C85 251 79 245 75 240 C71 236 69 233 69 233 L90 213 C90 213 93 215 97 220 C101 225 108 232 116 244 C117 247 119 251 121 254 C122 258 123 263 124 268 C125 273 125 278 124 284 C123 288 121 294 117 299 C117 299 117 299 117 299 C117 299 116 300 116 300 C100 320 68 311 53 305 C45 302 37 298 29 294 C20 288 11 282 1 274 C-25 254 -57 207 -69 179 C-71 173 -73 166 -76 160 C-78 153 -79 146 -81 140 C-84 126 -86 113 -85 98 C-85 95 -85 91 -84 88 C-84 86 -83 84 -83 82 C-83 80 -82 79 -81 77 C-80 73 -79 70 -77 66 C-75 63 -73 60 -70 57 C-69 56 -69 55 -68 54 C-67 54 -67 53 -66 53 C-46 34 -14 41 -3 44 C20 51 40 61 59 73 C81 86 101 101 119 115 C138 130 154 144 170 158 C200 184 224 208 241 225 C257 242 266 252 266 252 L244 273 L244 273 Z " />
<glyph glyph-name="d" unicode="d" horiz-adv-x="433" d="M474 606 C473 607 473 609 473 610 C472 612 471 614 471 615 C469 619 467 622 465 624 C460 630 454 634 447 636 C443 637 440 638 436 638 C434 638 432 637 431 637 L427 636 L425 636 C419 634 415 631 410 629 C406 626 402 623 398 620 C390 614 383 608 377 601 C373 598 370 594 367 591 L359 580 C354 573 348 567 343 559 C322 532 301 504 282 475 C263 446 247 416 230 387 C197 329 173 269 151 213 C147 203 144 194 140 184 C139 181 136 173 133 164 C80 115 1 55 -43 88 C-45 91 -47 93 -48 97 C-52 106 -53 118 -52 129 C-51 135 -50 141 -49 146 C-48 149 -47 152 -46 154 L-45 158 L-43 162 C-38 173 -33 183 -26 193 C-14 212 1 228 15 243 C37 265 71 292 99 297 C128 301 148 282 125 234 L151 219 C151 219 177 267 160 300 C158 303 157 306 155 308 C155 308 154 309 154 309 C152 312 149 315 145 318 C143 319 141 320 140 321 C138 322 136 323 134 324 C129 325 125 326 121 327 C112 328 103 328 94 326 C56 320 18 292 -8 266 C-33 241 -60 207 -74 174 C-82 154 -83 144 -83 132 C-85 117 -82 102 -76 85 C-72 77 -66 69 -59 63 C-53 59 -48 56 -43 54 L-43 54 C-43 54 -30 47 -6 49 C-6 49 -6 49 -6 49 C-5 49 -5 49 -4 49 C3 49 10 50 16 52 C16 52 16 52 16 52 C43 59 78 75 120 112 C119 98 118 84 120 73 C122 68 124 64 126 59 L126 59 C128 57 129 55 130 53 C138 43 149 34 167 29 C171 28 175 27 180 27 C189 26 199 28 207 30 C208 30 208 30 208 30 C208 30 209 31 209 31 C240 40 281 79 281 79 C290 88 298 97 306 105 C337 135 363 162 385 183 C428 227 454 251 454 251 L433 273 C433 273 407 248 364 204 C342 183 316 156 285 126 C281 122 278 118 273 114 C246 88 194 45 168 63 C164 65 161 68 158 72 C147 90 151 121 159 149 C176 165 192 181 208 198 C231 222 254 247 276 273 C299 298 321 325 342 354 C363 382 383 411 402 441 C421 471 439 502 455 534 C459 542 462 550 466 559 C468 563 469 567 471 572 C473 577 474 583 474 588 C475 594 475 600 474 606 L474 606 Z M445 591 C444 584 442 579 438 570 C435 562 432 555 428 547 C413 516 395 486 376 457 C358 428 338 399 318 371 C297 344 276 317 254 292 C232 267 209 242 187 218 C186 218 185 217 184 216 C205 268 227 321 257 373 C273 402 289 431 307 459 C325 487 345 514 366 541 C372 548 377 555 383 562 L391 572 C393 575 396 578 398 581 C404 586 410 592 416 597 C419 599 422 601 426 603 C429 605 432 607 435 607 C437 608 440 607 442 605 C443 604 443 604 443 603 C444 602 444 602 444 602 C444 601 444 600 444 600 C445 597 445 594 445 591 L445 591 Z " />
<glyph glyph-name="e" unicode="e" horiz-adv-x="244" d="M244 273 C244 273 235 263 219 246 C203 229 180 206 150 180 C135 167 119 153 101 139 C83 125 64 111 43 98 C37 94 30 90 23 87 C23 87 22 87 22 86 C22 86 -29 58 -47 75 C-47 76 -47 76 -47 76 C-47 76 -47 76 -48 76 C-48 77 -49 78 -49 78 C-50 79 -50 80 -50 81 C-51 82 -52 84 -53 86 C-53 87 -53 88 -54 89 C-54 90 -54 91 -55 93 C-55 95 -55 97 -55 100 C-56 110 -54 121 -52 133 C-50 139 -49 145 -47 151 C-45 157 -43 162 -41 168 C-36 179 -31 190 -24 201 C-24 199 -23 199 -23 198 C-9 166 36 177 59 189 C79 200 97 217 110 235 C121 251 129 272 122 291 C108 326 61 311 36 298 C-4 276 -36 242 -57 203 C-62 195 -65 187 -69 179 C-71 173 -73 166 -76 160 C-78 153 -79 146 -81 140 C-84 126 -86 113 -85 98 C-85 95 -85 91 -84 88 C-84 86 -83 84 -83 82 C-82 80 -82 79 -81 77 C-80 73 -78 70 -77 66 C-75 63 -72 60 -70 57 C-69 56 -69 55 -68 54 C-67 54 -67 53 -66 53 C-46 34 -14 41 -3 44 C20 51 40 61 59 73 C81 86 101 101 120 115 C138 130 155 144 170 158 C200 184 224 208 241 225 C257 242 266 252 266 252 L244 273 L244 273 Z M58 274 C66 278 76 283 85 283 C87 283 88 283 90 283 C93 281 95 279 95 276 C95 273 94 271 93 270 C86 250 71 233 55 221 C42 213 26 205 11 207 C5 208 3 211 3 217 C4 230 15 241 24 249 C34 259 46 268 58 274 L58 274 Z " />
<glyph glyph-name="f" unicode="f" horiz-adv-x="271" d="M278 244 L271 273 C141 237 76 229 43 229 C41 255 34 264 31 267 C31 267 31 267 30 268 C97 394 164 519 237 641 L212 655 C136 529 66 400 -2 270 C-6 267 -10 263 -12 259 C-13 256 -15 254 -16 251 C-17 248 -17 247 -17 244 C-17 243 -17 242 -17 240 L-116 52 C-134 19 -151 -16 -167 -51 C-175 -68 -183 -86 -190 -104 C-197 -121 -205 -139 -211 -157 C-218 -175 -224 -194 -229 -213 C-234 -231 -239 -250 -243 -269 C-246 -288 -248 -309 -245 -330 C-245 -333 -244 -335 -244 -338 L-242 -342 C-242 -343 -242 -345 -241 -347 C-239 -353 -235 -359 -230 -364 C-227 -366 -224 -368 -220 -370 C-219 -371 -217 -371 -215 -372 C-213 -373 -211 -373 -209 -373 C-203 -374 -196 -373 -190 -372 C-178 -369 -168 -363 -159 -356 C-150 -349 -143 -341 -136 -333 C-123 -317 -113 -301 -103 -284 C-83 -251 -66 -215 -52 -180 C-38 -143 -26 -107 -15 -70 C-5 -33 5 3 15 40 C24 77 32 115 38 152 C38 154 38 155 39 156 C39 161 40 166 41 171 C42 182 43 191 43 200 C136 197 278 244 278 244 L278 244 Z M15 236 C15 235 15 234 15 233 C15 233 15 233 15 233 C14 234 13 234 13 234 L14 237 C14 237 15 236 15 236 L15 236 Z M15 202 C14 196 13 190 13 184 C11 174 10 165 9 156 C3 119 -5 83 -14 46 C-23 10 -33 -27 -44 -63 C-54 -99 -66 -135 -79 -169 C-93 -204 -109 -238 -128 -269 C-138 -285 -148 -301 -159 -315 C-170 -329 -183 -340 -196 -343 C-199 -343 -202 -344 -205 -343 C-206 -343 -206 -343 -206 -343 C-207 -343 -207 -343 -207 -343 C-208 -343 -209 -342 -209 -341 C-211 -340 -212 -338 -213 -335 C-213 -335 -214 -334 -214 -333 L-215 -330 C-215 -329 -215 -327 -216 -325 C-218 -309 -217 -291 -213 -273 C-210 -256 -205 -238 -200 -220 C-195 -202 -190 -184 -183 -167 C-177 -149 -170 -132 -163 -114 C-155 -97 -148 -79 -140 -62 C-124 -28 -107 5 -90 39 L-9 193 L-1 207 C3 206 9 204 15 203 C15 203 15 202 15 202 L15 202 Z " />
<glyph glyph-name="g" unicode="g" horiz-adv-x="355" d="M355 273 C279 214 206 153 133 92 C162 149 191 206 216 265 C216 265 188 277 188 277 C183 265 177 252 170 240 C170 240 167 233 167 233 C137 170 91 115 24 87 C8 81 -11 77 -28 81 C-52 86 -55 112 -52 132 C-49 154 -39 174 -27 193 C-15 212 -1 229 13 244 C28 258 43 270 57 279 C72 289 86 295 99 297 C105 298 111 298 116 297 C118 297 121 296 123 296 C124 295 125 294 127 293 C128 293 128 293 128 292 C136 286 142 270 125 234 L151 219 C151 219 177 267 159 300 C158 303 156 306 154 308 C154 308 154 309 154 309 C151 312 148 315 144 318 C143 319 141 320 139 321 C137 322 135 323 133 324 C128 325 124 326 120 327 C111 328 102 328 93 326 C76 323 58 315 41 304 C25 294 7 281 -9 265 C-25 249 -39 230 -52 209 C-69 181 -83 151 -82 118 C-82 91 -69 64 -42 54 C-24 47 -3 48 16 52 C38 58 67 70 101 97 L78 48 C78 48 78 48 78 48 C77 47 77 45 76 43 C64 33 52 23 39 13 C32 6 23 -1 15 -7 C-24 -41 -57 -75 -84 -104 C-164 -189 -196 -255 -203 -271 C-205 -276 -207 -280 -208 -284 C-211 -292 -241 -375 -176 -375 C-172 -375 -168 -375 -164 -374 C-153 -371 -144 -366 -136 -361 C-128 -355 -121 -349 -114 -342 C-108 -336 -102 -330 -97 -323 C-85 -309 -75 -295 -65 -281 C-46 -252 -28 -222 -12 -192 C5 -163 21 -132 37 -102 C58 -60 79 -17 100 25 C190 100 280 177 373 249 L355 273 L355 273 Z M10 -88 C-5 -119 -21 -148 -38 -178 C-54 -207 -71 -237 -90 -264 C-99 -278 -109 -291 -119 -304 C-125 -310 -130 -316 -135 -322 C-136 -322 -137 -323 -137 -323 C-166 -351 -180 -344 -183 -342 C-199 -328 -171 -272 -163 -257 C-116 -170 -28 -86 16 -46 C25 -38 34 -31 43 -23 C32 -45 21 -67 10 -88 L10 -88 Z " />
<glyph glyph-name="h" unicode="h" horiz-adv-x="308" d="M308 273 C280 241 251 210 221 180 C206 165 191 150 176 136 L153 114 C145 106 138 100 131 97 C128 95 124 94 121 94 C120 94 118 94 117 94 C109 95 116 117 117 120 C120 128 123 136 126 144 L149 204 L160 234 L162 237 C164 244 166 256 161 268 C155 280 146 284 140 285 C137 285 134 285 131 285 C125 284 120 283 116 280 C111 278 108 275 104 272 C103 272 102 270 102 270 L100 268 L96 264 C87 253 77 243 68 233 C50 212 32 190 15 169 C-3 148 -21 126 -38 105 L-52 90 L-49 96 L-32 133 C-21 159 -9 184 2 209 C14 234 26 258 38 283 L40 286 C41 287 43 289 45 292 C49 296 56 303 65 311 C81 328 106 352 136 380 C165 410 200 445 231 487 C239 498 246 510 253 521 C257 527 260 533 263 539 C267 545 270 551 273 558 C279 571 285 584 288 600 C289 608 290 617 288 626 C287 629 286 631 286 633 C285 636 283 638 282 640 C281 643 279 645 277 647 C274 649 272 652 269 653 C263 656 257 657 252 657 C246 656 242 655 237 654 C229 651 222 647 216 642 C212 640 209 638 206 635 C203 633 201 630 198 628 C193 623 188 618 183 613 C164 591 149 568 136 545 C122 522 111 500 100 479 C89 458 79 438 70 419 C35 346 12 297 11 295 C-1 271 -13 246 -25 221 C-36 196 -48 171 -59 146 L-64 136 L-64 136 L-65 133 L-73 114 L-85 87 L-85 87 L-92 71 C-96 63 -99 56 -102 49 C-102 49 -102 49 -102 49 L-97 46 L-68 33 C-68 33 -65 37 -24 81 C-24 81 -24 81 -24 81 L43 157 L43 157 C59 176 75 195 91 213 C100 223 109 234 118 243 L120 246 C120 246 131 257 134 254 C135 252 132 244 132 243 L121 214 L98 154 C96 147 93 140 90 133 C84 115 79 89 94 74 C102 66 113 63 124 64 C132 65 138 67 144 70 C157 76 165 85 173 92 L197 114 C212 129 227 144 242 159 C272 190 302 221 330 253 L308 273 L308 273 Z M97 406 C106 425 115 445 126 466 C137 486 149 508 161 530 C174 552 188 574 205 593 C209 597 214 602 219 606 C221 608 223 611 226 613 C228 614 230 616 232 618 C237 621 242 624 247 625 C249 626 251 627 253 627 C254 627 255 627 255 626 C256 626 256 626 256 626 C256 626 256 625 257 625 C257 624 258 623 258 623 C258 622 259 621 259 620 C260 616 259 611 258 605 C256 594 252 582 246 571 C234 547 222 525 207 505 C178 464 144 430 115 402 C101 389 89 376 77 365 C83 378 90 392 97 406 L97 406 Z M-68 33 L-68 33 C-68 33 -68 33 -68 33 L-68 33 Z " />
<glyph glyph-name="i" unicode="i" horiz-adv-x="196" d="M58 331 L30 343 L21 322 L48 310 L58 331 L58 331 Z M196 273 C196 273 189 265 178 253 C167 240 152 222 133 201 C114 180 92 156 67 131 C55 119 42 107 28 95 C21 89 14 84 7 78 C-1 73 -8 69 -14 67 C-16 66 -18 66 -19 65 C-21 65 -22 65 -24 65 C-27 65 -30 65 -33 66 C-35 67 -37 68 -39 70 C-40 71 -41 73 -42 75 C-44 80 -44 88 -42 96 C-41 104 -39 112 -36 120 C-31 136 -25 152 -18 166 C-12 181 -5 195 1 208 C13 233 24 254 31 269 C32 271 33 273 34 275 L6 285 C5 284 5 283 4 282 C-3 267 -14 246 -26 220 C-32 207 -39 193 -45 178 C-52 163 -59 147 -65 129 C-67 120 -70 111 -71 101 C-73 91 -75 80 -71 67 C-69 60 -65 53 -60 48 C-55 43 -48 40 -42 38 C-36 36 -29 35 -23 35 C-20 35 -16 36 -13 36 C-10 37 -8 38 -5 39 C7 42 16 48 24 54 C32 60 39 66 47 72 C62 84 76 97 88 110 C114 135 136 160 156 181 C175 203 190 221 201 233 C211 246 218 252 218 252 L196 273 L196 273 Z " />
<glyph glyph-name="j" unicode="j" horiz-adv-x="169" d="M169 273 C94 214 21 153 -52 92 C-23 149 3 204 31 265 C31 265 31 266 3 277 C3 277 2 277 2 277 L-107 48 C-107 48 -107 48 -107 48 C-108 47 -109 45 -109 43 C-122 33 -134 23 -146 13 C-154 6 -162 -1 -170 -7 C-209 -41 -243 -75 -270 -104 C-349 -189 -381 -255 -388 -271 C-390 -276 -392 -280 -394 -284 C-396 -292 -427 -375 -362 -375 C-357 -375 -353 -375 -349 -374 C-338 -371 -329 -366 -321 -361 C-313 -355 -306 -349 -300 -342 C-293 -336 -288 -329 -282 -323 C-270 -309 -260 -295 -250 -281 C-231 -252 -214 -222 -197 -192 C-180 -163 -164 -132 -148 -102 C-127 -60 -106 -18 -86 25 C5 101 90 173 183 248 L169 273 L169 273 Z M-175 -89 C-190 -119 -206 -148 -223 -178 C-240 -207 -256 -236 -275 -264 C-284 -278 -294 -291 -305 -303 C-310 -310 -315 -316 -321 -322 C-321 -322 -322 -323 -323 -324 C-352 -351 -365 -344 -368 -341 C-385 -328 -356 -272 -348 -257 C-302 -170 -213 -85 -169 -46 C-160 -38 -151 -31 -142 -23 C-153 -45 -164 -67 -175 -89 L-175 -89 Z M53 320 L26 331 L16 310 L44 298 L53 320 L53 320 Z " />
<glyph glyph-name="k" unicode="k" horiz-adv-x="246" d="M301 629 C301 633 301 637 299 642 C299 643 299 644 298 645 C298 647 297 648 296 650 C295 652 293 655 291 657 C289 659 286 660 283 662 C280 663 277 664 274 664 C269 665 264 664 260 663 C252 661 245 658 239 655 C233 651 227 647 222 643 C200 626 184 605 170 585 C141 543 116 500 92 456 C69 412 46 368 24 324 C-19 234 -58 143 -94 51 L-67 39 L-60 56 L-25 137 L-26 121 C-27 95 -22 43 17 36 C17 36 17 36 17 36 C20 35 22 35 25 35 C26 35 26 35 27 35 C27 35 27 35 27 35 C31 35 34 36 37 36 C40 37 43 38 46 39 C57 42 67 48 75 54 C83 60 90 66 98 72 C112 84 126 97 139 110 C165 135 187 160 206 181 C225 203 241 221 251 233 C262 246 267 252 267 252 L246 273 C246 273 240 265 229 253 C218 240 203 222 184 201 C165 180 143 156 118 131 C106 119 93 107 79 95 C72 89 64 84 57 78 C53 75 49 72 44 70 C44 70 44 70 44 70 C43 70 43 69 42 69 C42 69 41 69 41 68 C40 68 40 68 40 68 C39 68 39 68 38 67 C38 67 38 67 38 67 C33 65 29 65 25 65 C25 65 24 65 24 65 C24 65 24 65 24 65 C24 65 23 65 23 65 C22 65 21 66 20 66 C10 70 6 84 4 94 C-2 133 5 188 5 188 C5 188 61 190 87 215 C87 216 88 217 89 218 C90 219 91 220 92 221 C92 221 92 222 92 222 C93 223 93 223 93 224 C98 230 102 238 103 245 C105 252 104 258 100 264 C96 270 90 272 82 273 C81 273 79 273 77 273 C75 272 73 272 71 272 C67 270 63 269 58 267 C54 265 52 264 50 263 C47 262 45 260 43 259 C34 253 27 246 21 238 C19 236 17 234 15 232 L27 259 C29 263 31 267 33 271 L33 271 C68 305 105 338 140 373 C176 407 212 444 241 485 C256 506 270 528 280 552 C283 558 285 564 287 569 C290 575 292 581 294 588 C298 600 302 614 301 629 L301 629 Z M60 234 C62 236 63 236 65 237 L68 239 L61 232 C58 230 56 228 53 227 C52 226 51 226 50 226 C53 229 57 232 60 234 L60 234 Z M253 564 C243 543 231 522 217 503 C189 463 155 429 120 394 C103 378 86 362 69 346 C85 378 102 410 118 442 C142 485 166 527 194 568 C208 587 222 606 240 620 C244 623 249 626 253 629 C258 631 263 633 267 634 C269 635 270 635 270 635 L270 635 L271 635 L271 635 L271 634 C271 633 271 630 272 628 C272 609 262 586 253 564 L253 564 Z " />
<glyph glyph-name="l" unicode="l" horiz-adv-x="223" d="M273 630 C271 635 267 640 261 644 C255 648 248 649 243 649 C231 649 223 645 215 641 C208 637 201 632 195 627 L187 619 L178 611 C158 589 141 565 127 541 C113 517 101 494 90 472 C78 450 68 429 58 409 C47 385 38 363 30 344 L30 345 C30 345 18 318 0 275 C0 275 0 275 0 275 C-2 270 -4 265 -5 261 L-5 261 C-7 257 -9 253 -10 249 C-18 232 -25 213 -33 192 L-33 192 C-71 102 -58 63 -38 47 L-38 47 C-4 21 42 47 65 65 C68 67 71 70 74 72 C89 84 103 97 116 110 C141 135 164 160 183 181 C202 203 217 221 228 233 C238 246 245 252 245 252 L223 273 C223 273 216 265 205 253 C194 240 179 222 161 201 C142 180 119 156 95 131 C84 120 73 110 61 100 C61 100 61 100 61 100 C12 54 -12 65 -12 65 C-41 73 -22 137 -8 175 C-8 175 -8 175 -8 175 C1 197 9 219 17 238 C20 245 23 252 26 259 C30 263 34 267 40 273 C57 292 82 318 111 350 C140 382 174 421 207 464 C224 486 240 509 255 535 C262 548 269 562 274 577 C276 584 278 592 279 601 C279 610 278 620 273 630 L273 630 Z M249 603 C249 598 247 592 245 586 C241 574 236 562 229 550 C215 526 199 503 183 482 C151 440 118 402 89 370 C79 359 69 348 60 339 C67 356 76 375 85 396 C95 416 105 436 116 458 C128 480 140 503 153 526 C166 549 182 571 200 591 L207 598 L214 604 C219 608 224 612 229 615 C234 617 240 619 243 619 C246 619 245 619 247 616 C249 614 249 609 249 603 L249 603 Z " />
<glyph glyph-name="m" unicode="m" horiz-adv-x="355" d="M355 273 C355 273 333 245 296 195 C295 193 213 79 187 55 C187 54 187 54 186 54 C183 51 180 48 177 46 L175 44 C174 44 173 43 173 43 L171 41 C170 41 169 40 169 40 C166 38 164 37 162 36 C160 36 158 35 157 35 C156 35 156 35 156 35 C155 35 155 35 154 36 C154 36 153 37 152 38 C152 38 152 38 151 39 C151 39 151 39 151 39 C147 44 151 60 151 60 C151 60 152 61 152 62 C152 63 152 64 153 66 L154 72 C158 83 162 94 167 105 C167 105 167 105 167 105 C173 121 180 134 180 134 C190 157 201 181 209 207 C210 211 211 215 212 219 C214 224 215 229 215 234 C215 239 215 244 214 251 C212 258 207 265 201 269 C194 274 185 275 179 274 C172 273 167 270 162 268 C153 263 146 257 140 250 C137 247 134 243 131 240 L123 230 C119 225 114 219 110 213 C111 216 112 219 113 223 L115 227 C115 228 116 230 116 232 C117 235 117 237 118 241 C118 244 119 247 119 250 C119 252 119 254 119 255 C119 258 118 261 117 263 C116 268 114 273 110 276 C109 277 109 278 108 279 C94 286 81 283 69 276 C67 275 65 273 63 271 C55 265 49 259 45 254 L45 254 L45 254 C44 253 44 252 43 251 C43 251 42 250 42 249 C30 235 18 218 7 203 L-12 178 L-12 178 C2 207 16 236 29 267 L2 278 C-32 201 -72 127 -104 47 L-110 33 L-78 25 C-78 25 -22 118 27 185 C41 204 55 221 65 233 C75 243 83 250 89 253 C89 252 89 252 89 251 C89 249 89 247 88 245 C88 243 87 241 87 239 C87 238 86 237 86 236 L85 232 C82 222 78 213 75 203 C59 164 42 126 24 89 L52 78 C70 104 87 129 104 154 C113 167 123 180 132 193 C137 199 142 206 147 212 L154 221 C156 224 159 227 161 229 C166 234 172 239 177 242 C179 243 181 244 183 244 C184 244 184 244 184 244 C185 244 184 244 185 243 C185 242 185 239 185 236 C185 231 182 223 180 215 C173 190 161 164 149 138 C149 138 149 138 149 138 C147 134 142 124 140 118 C139 117 139 116 138 115 C138 114 138 114 138 114 L138 114 C137 112 136 110 135 108 C133 103 131 98 129 93 C128 88 126 83 125 77 C124 75 124 74 123 72 L123 71 C123 71 123 71 123 71 C120 56 117 31 131 16 C134 14 137 11 141 9 C143 8 145 7 147 7 C147 7 147 7 147 6 C148 6 149 6 149 6 C151 6 152 6 154 5 C154 5 154 5 154 5 C154 5 154 5 155 5 C187 4 228 53 242 71 C244 74 246 76 248 79 L248 79 C250 82 252 85 254 88 C280 122 302 152 320 177 C357 227 378 254 378 254 L355 273 L355 273 Z " />
<glyph glyph-name="n" unicode="n" horiz-adv-x="282" d="M282 273 C282 273 261 245 224 195 C206 170 183 140 158 105 C155 101 152 97 148 92 C147 91 146 90 145 88 C145 88 131 70 115 55 C115 54 114 54 114 54 C111 51 108 48 104 46 L102 44 C102 44 101 43 100 43 L98 41 C98 41 97 40 96 40 C94 38 92 37 90 36 C87 36 86 35 85 35 C84 35 84 35 83 35 C83 35 82 35 82 36 C81 36 80 37 80 38 C79 38 79 38 79 39 C79 39 79 39 79 39 C77 42 77 48 78 53 L78 53 C79 68 90 97 90 97 L110 157 L128 209 C131 219 134 228 134 240 C134 241 134 243 134 245 C134 247 133 249 133 251 C131 256 129 260 126 263 C125 264 123 266 122 267 C118 269 115 270 112 270 C112 270 111 270 111 270 C111 270 111 271 111 271 C104 272 97 270 90 267 C35 245 -35 127 -37 125 C-30 140 -23 155 -16 170 C-1 202 15 234 30 266 L2 278 C-12 246 -27 214 -43 183 C-50 166 -58 150 -65 134 L-77 108 C-78 107 -78 106 -78 106 L-78 106 L-78 105 C-81 98 -84 92 -87 86 L-105 44 L-70 29 C-70 29 -32 90 9 147 L9 147 C9 147 82 242 103 242 C103 242 104 230 91 193 L82 167 L75 144 C74 143 74 141 73 140 C66 120 52 76 52 76 C52 75 51 73 51 72 L51 71 C51 71 51 71 51 71 C48 56 45 31 59 16 C61 14 65 11 68 9 C70 8 72 7 74 7 C75 7 75 7 75 6 C76 6 76 6 77 6 C78 6 80 6 81 5 C81 5 82 5 82 5 C82 5 82 5 82 5 C115 4 155 53 170 71 C172 74 174 76 175 79 L175 79 C178 82 180 85 182 88 C207 122 230 152 248 177 C284 227 306 254 306 254 L282 273 L282 273 Z " />
<glyph glyph-name="o" unicode="o" horiz-adv-x="286" d="M286 273 C286 273 283 270 278 266 C275 263 271 261 268 258 C266 256 263 254 261 252 C259 251 256 249 253 247 C251 245 248 243 245 241 C242 239 239 237 235 235 C229 230 221 226 213 222 C197 213 179 204 157 198 C155 197 152 196 149 195 C147 195 144 194 141 193 C137 192 133 192 130 191 L131 196 C133 200 134 204 135 208 C137 216 139 224 140 233 C141 242 141 251 139 261 C138 266 136 271 133 276 C130 281 127 285 123 289 C122 290 121 291 120 292 C119 292 118 292 118 293 L118 293 L117 293 L116 294 C114 295 111 297 108 298 C105 299 103 300 100 300 C98 300 97 301 96 301 C94 301 93 301 91 301 C86 301 80 299 75 297 C70 296 66 293 62 290 C58 287 54 284 51 281 C48 278 45 274 42 270 C42 269 41 268 41 267 L39 264 L37 261 C37 260 37 259 36 258 L35 254 C35 253 34 252 34 251 C33 249 33 247 32 244 C31 235 30 226 32 217 C33 208 37 199 42 192 C42 191 43 190 44 189 C44 188 45 187 46 186 L48 183 L49 182 L50 181 C54 178 57 175 61 173 C68 168 76 165 83 162 C84 162 85 162 85 162 C84 159 83 156 81 154 C75 141 67 128 58 116 C50 104 40 93 30 84 C29 82 28 81 26 80 L25 78 L23 76 C20 74 17 72 15 70 C9 66 4 62 -1 60 C-2 59 -4 59 -5 58 C-6 58 -6 58 -7 58 C-8 58 -8 57 -9 57 C-10 57 -11 57 -13 56 C-13 56 -14 56 -14 56 C-15 56 -16 56 -16 56 C-21 56 -26 57 -30 59 C-32 60 -34 61 -36 63 C-37 64 -38 64 -39 65 L-40 66 L-41 68 L-41 68 C-42 69 -42 69 -42 69 L-43 70 C-43 71 -44 71 -44 72 C-44 72 -44 73 -45 73 C-46 76 -47 78 -47 80 C-49 85 -50 91 -50 96 C-50 102 -50 108 -49 113 C-48 125 -45 136 -42 146 C-39 157 -35 166 -31 175 C-27 184 -22 193 -17 200 C-7 216 2 229 11 239 C19 249 26 257 31 262 C33 264 35 266 37 267 C38 269 38 269 38 269 L17 291 C17 291 16 290 15 289 C13 287 11 285 9 283 C4 277 -4 269 -13 258 C-22 247 -32 233 -43 216 C-53 200 -64 179 -71 155 C-75 143 -78 130 -79 117 C-80 110 -81 103 -80 95 C-80 88 -79 80 -77 72 C-75 68 -74 64 -72 60 C-71 59 -71 58 -70 57 C-70 56 -69 55 -69 54 L-67 51 C-66 51 -66 50 -66 50 L-65 49 L-62 46 C-62 45 -61 44 -60 44 C-59 42 -57 40 -55 39 C-51 36 -47 33 -43 32 C-35 27 -25 26 -15 26 C-14 26 -13 26 -12 26 C-11 26 -10 26 -8 26 C-6 27 -4 27 -1 28 C0 28 1 28 2 29 C3 29 4 29 5 30 C7 31 9 31 11 32 C20 36 27 41 33 46 C36 48 39 51 42 54 L45 55 L47 58 C48 59 50 60 51 62 C63 73 73 85 83 98 C92 111 101 125 108 140 C111 146 114 153 117 159 C117 159 118 159 118 159 C121 159 125 160 128 160 C135 161 142 162 148 164 C151 165 154 165 157 166 C160 167 163 168 166 169 C190 176 210 186 228 195 C237 200 245 204 252 209 C255 211 259 214 262 216 C265 218 268 220 271 222 C274 224 277 226 279 228 C282 230 284 232 286 234 C290 237 294 240 297 242 C303 247 306 249 306 249 L286 273 L286 273 Z M92 192 C86 193 81 195 77 198 C75 199 73 201 72 203 L71 203 L70 204 L69 205 C69 206 68 206 68 207 C68 207 67 208 67 208 C64 212 62 217 62 222 C61 227 61 233 62 238 C62 240 63 241 63 242 C63 243 63 244 64 244 L64 246 C65 247 65 248 65 248 L66 250 L67 252 C67 252 68 253 68 254 C70 256 71 258 73 260 C75 262 77 264 79 266 C81 267 84 268 86 269 C88 270 90 270 92 270 C94 270 96 270 98 269 C98 269 99 269 100 268 L100 268 L100 268 L101 268 C101 268 101 267 101 267 C102 267 102 267 103 266 C104 265 106 263 107 261 C108 259 109 257 109 254 C110 249 111 243 110 236 C109 230 108 223 106 216 C105 213 104 209 103 205 L101 200 C100 198 99 196 99 195 C98 193 98 192 97 190 C95 191 93 191 92 192 L92 192 Z " />
<glyph glyph-name="p" unicode="p" horiz-adv-x="335" d="M335 273 C272 217 206 172 140 122 C148 133 154 145 160 158 C166 170 170 183 174 196 C177 209 180 223 178 239 C177 246 175 255 170 263 C165 270 157 277 149 280 C141 284 132 284 124 284 C116 284 109 282 102 280 C88 276 76 270 64 261 C53 254 43 245 34 236 C20 223 8 208 -3 194 C10 221 22 249 34 276 L7 288 C-53 154 -115 22 -176 -112 C-196 -154 -214 -195 -232 -236 C-251 -278 -270 -320 -288 -363 L-260 -375 C-242 -332 -223 -289 -204 -247 C-188 -211 -172 -175 -156 -140 C-150 -127 -144 -113 -138 -100 C-116 -55 -94 -11 -70 33 C-63 46 -55 59 -47 73 C-47 71 -47 70 -46 68 C-44 60 -39 52 -33 46 C-21 34 -4 28 12 29 C26 29 39 34 51 39 C51 39 53 40 54 40 C57 42 60 43 63 44 C70 47 78 51 86 55 C173 100 286 190 355 251 L335 273 L335 273 Z M11 59 C2 58 -6 62 -12 67 C-17 73 -19 80 -18 89 C-17 98 -12 106 -6 113 L-16 124 C-8 135 0 147 8 159 C23 179 38 198 55 214 C63 223 72 230 82 237 C91 243 100 248 111 252 C121 255 131 255 138 252 C141 251 143 249 145 246 C147 244 148 240 148 235 C150 226 148 215 145 203 C142 192 138 181 133 171 C123 149 110 129 94 112 C87 103 78 95 69 87 C60 79 51 73 41 68 C40 67 39 67 38 66 C37 66 36 66 35 65 C27 63 22 61 21 60 C18 59 15 59 11 59 L11 59 Z " />
<glyph glyph-name="q" unicode="q" horiz-adv-x="326" d="M326 273 C277 232 230 189 184 147 C161 126 137 105 114 84 C105 76 96 68 86 60 C88 65 91 69 93 74 C106 102 119 131 132 159 L158 216 C163 226 167 235 171 245 L150 254 C154 278 145 292 145 292 L145 292 C145 293 144 293 144 294 C138 303 132 307 132 307 L132 307 C123 314 113 317 104 319 C93 321 82 320 73 318 C64 316 56 312 48 308 C33 300 20 290 8 280 C-16 259 -37 233 -53 206 C-61 191 -68 176 -73 161 C-78 145 -83 127 -79 107 C-78 96 -74 86 -68 76 C-61 66 -51 58 -40 52 C-29 48 -17 46 -8 47 C2 48 11 50 20 54 C36 60 50 69 63 79 C63 79 63 80 63 80 C59 70 54 60 50 51 C50 51 49 50 49 50 C42 34 34 18 26 1 L-17 -82 C-45 -138 -75 -194 -102 -251 C-108 -265 -115 -280 -121 -294 C-125 -301 -128 -309 -131 -317 C-134 -325 -136 -333 -137 -343 C-138 -345 -138 -348 -138 -350 C-138 -354 -138 -356 -137 -359 C-136 -361 -136 -363 -135 -364 C-134 -366 -134 -367 -133 -369 C-132 -371 -130 -372 -129 -374 C-128 -375 -126 -376 -125 -377 C-123 -378 -121 -379 -120 -380 C-118 -380 -117 -381 -115 -381 C-112 -382 -109 -382 -106 -382 C-103 -382 -100 -382 -98 -382 C-95 -381 -92 -380 -90 -380 C-80 -376 -72 -372 -65 -366 C-57 -361 -51 -356 -45 -350 C-33 -338 -23 -327 -11 -314 C-1 -301 9 -288 17 -274 C34 -245 47 -215 56 -184 C65 -153 72 -122 75 -91 C76 -83 77 -75 78 -67 C78 -59 79 -50 79 -42 C79 -27 78 -12 79 1 C80 5 81 8 81 11 C82 14 83 15 84 17 C86 21 91 26 97 31 C109 41 121 52 133 62 C157 83 180 104 203 125 C250 168 296 210 345 250 L326 273 L326 273 Z M48 -66 C47 -73 47 -81 46 -88 C42 -118 36 -148 28 -177 C19 -206 7 -233 -8 -259 C-16 -272 -24 -284 -34 -296 C-43 -307 -55 -318 -65 -329 C-76 -339 -87 -348 -98 -351 C-99 -352 -100 -352 -101 -352 C-102 -352 -104 -353 -104 -353 C-105 -352 -106 -353 -107 -352 C-107 -352 -107 -352 -108 -352 L-108 -352 C-108 -352 -108 -352 -108 -352 C-108 -352 -108 -352 -108 -352 L-108 -352 C-108 -352 -108 -351 -108 -351 C-108 -351 -108 -350 -108 -349 C-108 -348 -108 -346 -108 -345 C-107 -339 -105 -332 -103 -326 C-100 -319 -98 -312 -94 -305 C-88 -291 -82 -277 -75 -263 C-49 -206 -19 -151 9 -95 L49 -18 C48 -27 49 -36 49 -44 C49 -52 49 -58 48 -66 L48 -66 Z M5 82 C-7 76 -21 75 -31 79 C-40 83 -48 95 -50 107 C-52 120 -49 134 -44 148 C-39 162 -33 175 -26 188 C-11 214 8 237 30 256 C41 266 53 275 65 282 C77 288 90 292 103 290 C108 289 114 286 117 283 C120 281 121 277 121 272 C122 266 120 260 118 253 C116 247 113 240 109 233 L129 222 L120 201 C119 200 119 199 118 198 L118 196 C98 156 60 119 59 118 C54 113 48 108 42 104 C30 95 18 87 5 82 L5 82 Z " />
<glyph glyph-name="r" unicode="r" horiz-adv-x="278" d="M278 273 L146 153 C124 133 102 114 79 96 C68 87 56 79 44 72 C38 69 32 66 27 65 C26 65 25 65 24 65 C23 65 23 65 23 65 L23 65 C23 67 25 71 27 75 L41 100 L68 149 L82 174 L89 187 C91 191 93 196 95 201 C99 210 104 221 102 235 C102 242 99 250 94 257 C89 263 81 266 75 268 C64 272 55 272 47 273 L55 281 C59 285 63 289 66 295 C66 296 68 298 69 300 C69 302 70 305 71 307 C72 311 72 316 71 320 C69 329 62 336 54 338 C50 340 45 340 40 340 C38 340 35 340 33 339 C32 339 30 338 28 338 C22 335 16 332 12 328 C6 323 3 318 -1 313 C-4 307 -6 301 -7 295 C-8 288 -8 281 -6 274 C-4 267 0 259 7 255 C13 250 19 248 25 246 C31 245 36 244 41 244 C51 243 60 242 66 240 C69 239 70 238 71 237 C72 236 73 235 73 232 C73 228 71 220 68 212 C66 209 64 205 62 201 L55 189 L42 164 L15 114 L1 89 C-1 85 -4 80 -6 73 C-6 72 -6 71 -6 70 C-7 69 -7 68 -7 67 C-7 64 -7 62 -7 60 C-6 55 -5 50 -2 47 C3 41 9 37 16 36 C20 34 23 35 26 35 C29 35 32 36 34 36 C43 39 51 42 58 46 C73 54 85 63 97 72 C121 91 144 111 166 131 L293 251 L278 273 L278 273 Z M40 309 C39 307 36 304 34 301 L24 292 L23 291 C24 296 27 302 31 305 C33 307 36 309 38 309 L40 310 L40 309 L40 309 Z " />
<glyph glyph-name="s" unicode="s" horiz-adv-x="253" d="M253 273 C253 273 252 271 250 268 C209 207 165 146 107 100 C93 88 78 78 63 68 C59 67 56 65 53 63 C52 62 51 62 50 61 C66 86 68 112 66 130 C64 152 50 182 27 221 C6 261 68 289 68 289 L52 317 C52 317 50 316 46 314 C42 312 37 309 30 304 C10 290 -10 267 -10 241 C-10 208 15 182 28 154 C40 127 40 97 22 72 C6 50 -24 35 -52 41 C-77 46 -92 70 -91 95 C-89 116 -80 142 -67 158 C-66 160 -65 161 -65 161 L-85 183 C-84 183 -87 181 -90 177 C-94 173 -98 167 -102 159 C-112 139 -120 115 -121 92 C-121 61 -105 31 -76 17 C-50 3 -18 5 10 12 C35 19 59 30 81 45 C95 54 110 63 123 74 C137 85 150 97 163 110 C188 135 210 162 232 191 C233 192 234 193 235 195 C249 213 262 232 275 251 C277 255 278 256 278 256 L253 273 L253 273 Z " />
<glyph glyph-name="t" unicode="t" horiz-adv-x="267" d="M418 482 C369 484 305 486 239 486 C242 491 245 497 249 502 C252 508 255 515 259 522 C262 528 265 535 268 542 L271 547 L273 552 L277 562 C280 569 283 577 285 584 C287 592 289 601 289 610 C289 615 288 620 286 626 C285 629 284 632 282 634 C280 637 278 639 275 642 C270 646 262 648 256 649 C250 649 245 647 240 646 C231 642 224 638 217 634 L207 627 L198 619 C186 609 175 597 166 585 C147 561 132 536 118 512 C113 502 108 493 103 484 C63 483 25 482 -6 481 C-64 478 -102 476 -102 476 L-101 446 C-101 446 -62 448 -5 451 C22 452 53 453 86 454 C71 429 59 399 47 376 C12 304 14 306 -16 236 C-28 206 -43 170 -52 129 C-56 107 -56 82 -50 60 C-48 54 -45 47 -40 41 C-35 35 -28 31 -20 28 C-13 26 -6 25 1 25 C8 26 15 27 21 29 C32 33 43 39 53 45 C62 51 71 57 80 64 C97 76 113 90 129 103 C159 130 186 157 209 179 C256 223 287 252 287 252 L267 273 C267 273 235 244 189 200 C165 178 138 152 109 126 C94 113 79 100 62 87 C54 81 45 76 37 70 C28 65 20 60 12 58 C3 55 -5 54 -10 56 C-16 58 -19 62 -22 69 C-26 87 -23 105 -19 123 C-11 161 1 196 13 225 C14 226 14 227 15 229 L15 229 C15 229 21 243 32 268 C34 269 35 270 37 272 C42 277 49 284 58 293 C77 310 105 335 137 366 C153 382 170 399 187 419 C198 430 208 443 218 456 C291 456 363 454 417 452 C475 450 513 448 513 448 L515 478 C515 478 476 480 418 482 L418 482 Z M144 497 C158 521 172 545 189 567 C198 578 207 588 217 597 L225 603 L233 609 C239 613 245 616 250 618 C252 618 254 619 255 619 C257 619 256 618 257 618 C258 618 259 615 259 610 C259 605 258 599 256 593 C254 586 252 580 249 573 L245 563 L243 558 L241 554 C238 548 235 541 232 535 C229 529 226 523 223 517 C219 511 216 505 212 500 C209 495 206 491 203 486 C181 486 159 486 138 485 C140 489 142 493 144 497 L144 497 Z M116 387 C97 369 79 352 64 338 C68 346 71 355 75 364 C84 384 94 405 106 428 C110 437 115 446 120 455 C140 455 160 456 180 456 C159 430 137 407 116 387 L116 387 Z " />
<glyph glyph-name="u" unicode="u" horiz-adv-x="277" d="M277 273 C249 241 219 210 188 179 L143 133 L120 110 L109 99 C106 95 102 92 98 89 C95 87 91 84 88 83 C85 82 83 82 81 82 C80 82 80 82 80 83 C80 83 79 83 79 84 C78 85 77 89 78 93 C78 101 80 110 84 120 C87 130 90 140 94 149 C102 169 111 188 121 207 C131 226 141 245 152 263 L126 278 C115 259 105 240 94 220 C82 198 70 175 58 154 C45 134 33 114 19 97 C12 89 4 82 -5 76 C-9 73 -13 71 -18 69 C-22 67 -27 65 -31 65 C-35 64 -38 64 -40 65 C-56 75 -46 104 -42 113 L-41 115 L-41 115 L-41 115 L-37 126 C-32 136 -27 147 -23 158 C-3 201 18 243 40 285 L13 299 C-9 256 -30 214 -50 170 C-55 159 -59 148 -64 137 L-71 121 L-74 112 C-76 109 -77 105 -78 101 C-81 86 -80 71 -72 56 C-68 49 -61 42 -52 38 C-43 34 -34 34 -27 35 C-19 36 -12 39 -6 41 C1 44 7 47 12 51 C23 59 33 68 41 78 C44 80 46 83 48 86 C49 81 50 76 52 71 C54 67 57 63 61 59 C65 56 70 54 74 53 C83 51 92 53 99 55 C106 58 111 62 116 66 C121 70 126 74 130 78 L141 89 L164 112 L210 158 C240 189 270 220 299 253 L277 273 L277 273 Z " />
<glyph glyph-name="v" unicode="v" horiz-adv-x="269" d="M204 244 L204 244 C205 244 206 244 208 244 C219 244 229 244 236 244 L275 244 L269 273 L199 273 C199 273 199 273 199 273 C139 273 107 238 96 224 C95 222 93 220 92 218 C88 211 84 205 80 199 C76 192 72 187 68 181 C52 156 36 132 18 109 L5 91 C1 85 -4 79 -8 74 C-12 69 -16 65 -20 64 C-22 63 -24 62 -25 62 C-26 62 -27 62 -27 62 C-27 62 -27 62 -27 62 C-27 62 -27 62 -27 62 C-28 63 -28 64 -29 66 C-30 70 -30 74 -30 79 C-30 88 -28 98 -26 108 C-23 118 -19 129 -16 140 L-6 171 C9 214 25 255 42 296 L15 308 C-3 266 -20 224 -34 181 L-45 149 C-48 138 -51 128 -55 116 C-58 104 -60 92 -60 79 C-60 72 -59 65 -58 59 C-57 55 -55 51 -53 47 C-51 43 -46 38 -41 35 C-38 34 -34 33 -31 32 C-28 32 -25 32 -22 32 C-16 33 -11 35 -6 37 C3 42 10 49 15 55 C20 62 24 67 29 73 L42 91 C60 115 77 140 93 164 C97 170 101 177 105 183 C108 187 110 191 113 194 C117 202 132 222 150 232 C150 232 150 232 150 232 C151 232 151 232 152 232 C163 238 178 242 196 244 C199 244 201 244 204 244 L204 244 L204 244 Z " />
<glyph glyph-name="w" unicode="w" horiz-adv-x="350" d="M350 273 C350 273 279 273 279 273 C219 273 187 238 177 224 C175 222 174 220 172 218 C168 211 164 205 160 199 C159 197 158 195 157 193 C157 192 157 192 157 192 C143 172 128 146 123 139 C123 139 106 111 93 105 C90 104 88 104 86 105 C78 108 83 124 84 130 L86 141 C93 170 102 199 112 228 L84 239 C67 201 45 165 22 128 C16 119 10 110 5 101 C-1 93 -7 85 -13 78 C-17 75 -20 72 -23 70 C-43 60 -35 91 -28 111 C-27 113 -27 116 -26 118 C-24 121 -23 124 -22 127 C-22 128 -22 128 -22 128 L-22 128 C-15 145 -9 162 -3 179 C11 219 26 259 43 299 L15 310 C-2 270 -17 229 -31 189 C-38 169 -46 149 -53 129 C-53 129 -66 94 -65 67 C-65 66 -65 65 -65 65 C-65 58 -61 36 -38 36 C-38 36 -38 36 -38 36 C-36 37 -22 37 -4 49 C4 55 20 69 41 102 C43 106 45 109 47 112 C49 115 50 118 52 120 C52 117 51 114 51 110 C52 105 52 100 55 94 C57 88 63 81 69 78 C70 78 71 77 71 77 C111 60 148 121 151 127 C151 127 151 128 151 128 C163 147 180 173 187 185 C188 187 189 189 190 191 C199 202 207 213 213 219 C218 224 224 228 230 232 C231 232 231 232 231 232 C231 232 232 232 232 232 C243 238 258 242 277 244 C279 244 282 244 284 244 L284 244 C286 244 287 244 288 244 C300 244 309 244 317 244 L355 244 L350 273 L350 273 Z " />
<glyph glyph-name="x" unicode="x" horiz-adv-x="296" d="M296 273 C266 238 235 204 204 169 L157 118 L133 92 L102 60 C78 84 86 148 85 184 C100 199 115 214 128 225 C149 245 164 258 164 258 L144 280 C144 280 129 267 107 247 C100 240 92 233 83 224 C83 233 82 241 82 250 C81 257 80 264 77 271 C75 275 73 278 71 282 C68 285 66 288 60 292 C58 293 56 294 54 295 C52 296 49 296 47 296 C45 297 42 296 40 296 C38 296 35 295 34 294 C27 292 23 289 18 286 C9 280 1 274 -6 269 L12 245 C20 251 27 257 34 261 C38 263 41 265 44 266 C44 267 45 267 45 267 C45 266 46 265 47 264 C47 263 48 262 49 260 C51 256 51 252 52 247 C53 237 53 225 54 213 C54 207 54 201 54 196 C47 188 39 180 31 172 C4 143 -21 113 -40 91 C-58 68 -71 53 -71 53 L-48 34 C-48 34 -35 49 -17 72 C2 94 27 123 53 151 C54 152 55 153 56 154 C56 150 56 147 56 143 C57 115 57 4 113 32 C126 38 133 51 155 72 L179 98 L226 149 C254 183 279 214 310 250 L296 273 L296 273 Z " />
<glyph glyph-name="y" unicode="y" horiz-adv-x="315" d="M315 273 C243 216 173 158 103 99 C102 99 100 97 98 95 L93 91 L171 256 C171 256 171 256 171 256 C171 256 171 256 171 256 L143 267 C143 267 143 267 143 267 C135 245 123 224 111 202 C105 192 99 180 93 169 C88 158 82 148 76 137 C64 117 51 97 35 80 C27 72 19 64 10 58 C1 52 -9 47 -18 46 C-28 44 -38 44 -45 48 C-49 50 -51 52 -53 55 C-54 57 -56 61 -56 65 C-56 74 -54 85 -50 96 C-46 107 -42 118 -37 129 C-18 174 5 217 27 261 L1 275 C-22 231 -45 187 -64 141 C-69 129 -74 118 -78 105 C-82 93 -86 79 -85 63 C-85 55 -83 47 -78 39 C-73 31 -66 25 -58 21 C-43 14 -27 14 -13 16 C-1 19 9 23 18 28 C12 23 6 18 0 13 C-8 6 -16 -1 -24 -7 C-63 -41 -97 -75 -124 -104 C-203 -189 -235 -255 -242 -271 C-244 -276 -246 -280 -248 -284 C-250 -292 -280 -375 -215 -375 C-211 -375 -207 -375 -203 -374 C-192 -371 -183 -366 -175 -361 C-167 -355 -160 -349 -153 -342 C-147 -336 -141 -329 -136 -323 C-125 -309 -114 -295 -104 -281 C-85 -252 -68 -222 -51 -192 C-34 -163 -18 -132 -2 -102 C15 -69 31 -36 47 -3 L61 25 C151 101 237 177 330 249 L315 273 L315 273 Z M-29 -89 C-44 -119 -60 -148 -77 -178 C-94 -207 -110 -236 -129 -264 C-138 -278 -148 -291 -159 -303 C-164 -310 -169 -316 -175 -322 C-175 -322 -176 -323 -177 -323 C-206 -351 -219 -344 -222 -341 C-239 -328 -210 -272 -203 -257 C-156 -170 -67 -85 -23 -46 C-14 -38 -5 -31 4 -23 C-7 -45 -18 -67 -29 -89 L-29 -89 Z " />
<glyph glyph-name="z" unicode="z" horiz-adv-x="298" d="M317 249 L298 273 C226 216 156 158 86 99 L58 76 L41 61 C43 113 6 110 6 110 L32 129 C38 134 46 140 54 147 C58 150 62 154 66 158 C70 161 74 165 78 170 C82 174 86 178 90 183 C90 184 91 186 92 187 C93 188 94 189 95 190 C97 193 99 195 100 198 C104 203 107 209 110 215 C113 221 115 228 117 236 C117 240 118 244 117 248 C117 252 117 256 115 260 C115 261 115 262 114 264 C114 265 113 266 113 267 C112 269 111 270 110 272 C109 274 108 276 106 277 C106 278 105 279 104 280 C104 280 103 280 103 281 L102 282 C100 283 99 285 97 286 C95 287 93 289 92 289 C88 291 84 293 80 294 C73 296 65 296 59 296 C55 296 52 295 49 295 C46 294 43 294 40 293 C34 291 28 289 23 287 C18 285 13 282 8 279 C3 276 -1 273 -5 270 C-20 258 -30 244 -36 234 C-38 232 -39 230 -40 228 C-41 226 -42 224 -42 222 C-44 219 -44 218 -44 218 L-14 206 C-14 206 -14 207 -13 209 C-12 210 -12 211 -11 213 C-10 214 -9 216 -8 218 C-6 222 -3 226 1 230 C5 235 10 240 16 245 C18 247 22 249 25 251 C28 253 32 255 36 257 C44 260 52 263 61 263 C65 264 68 263 72 262 C73 262 75 261 76 261 C77 260 77 260 78 260 C78 259 79 259 79 258 L80 258 C80 258 80 258 80 258 C80 257 81 257 81 257 C81 256 82 256 82 255 C83 254 83 254 83 253 C83 253 84 252 84 252 C84 252 84 251 84 251 C84 250 85 248 85 246 C85 245 85 243 84 241 C84 237 82 233 80 229 C78 225 76 220 73 216 C72 214 70 212 69 210 C54 189 12 155 2 147 C2 147 2 147 2 147 L-60 97 L-45 75 C-45 75 9 103 7 47 C7 43 6 37 5 31 C-2 25 -10 19 -17 13 C-25 6 -33 -1 -41 -7 C-80 -41 -114 -75 -141 -104 C-220 -189 -252 -255 -259 -271 C-261 -276 -263 -280 -265 -284 C-267 -291 -294 -364 -244 -374 L-244 -374 C-130 -401 14 -36 17 -29 C23 -15 29 1 33 18 L61 40 L61 40 C146 111 230 182 317 249 L317 249 Z M-46 -89 C-61 -119 -77 -148 -94 -178 C-111 -207 -128 -236 -146 -264 C-155 -278 -165 -291 -176 -303 C-181 -310 -187 -316 -192 -322 C-193 -322 -193 -323 -194 -323 C-223 -351 -236 -344 -240 -341 C-256 -328 -228 -272 -220 -257 C-173 -170 -84 -85 -40 -46 C-31 -38 -22 -31 -13 -23 C-24 -45 -35 -67 -46 -89 L-46 -89 Z " />
<glyph glyph-name="braceleft" unicode="&#x7b;" horiz-adv-x="345" d="M371 609 C384 624 401 633 416 633 L416 665 C402 665 389 660 378 654 C366 648 357 640 348 632 C340 623 332 614 326 605 C322 600 319 595 316 590 L308 576 C285 538 265 499 245 461 C224 423 203 386 178 352 C172 343 166 335 159 327 C152 319 146 311 138 303 L127 292 L116 282 C112 278 108 275 104 272 L89 260 C82 254 78 246 79 237 C79 233 81 228 83 224 C84 223 86 222 87 220 C88 219 90 217 90 216 C92 214 93 211 94 209 C95 206 96 203 96 199 C97 185 91 168 85 151 L46 46 L26 -7 C20 -25 12 -42 8 -63 C5 -73 4 -85 6 -96 C7 -103 8 -108 11 -115 C14 -121 19 -126 23 -130 C33 -139 45 -144 58 -146 C71 -147 84 -143 95 -136 L77 -110 C72 -113 67 -114 61 -114 C55 -114 49 -111 45 -107 C42 -105 41 -103 40 -101 C38 -99 38 -95 37 -92 C36 -85 37 -78 38 -69 C42 -53 49 -36 56 -18 L75 35 L114 140 C121 158 128 177 128 201 C127 207 126 213 124 219 C122 225 119 231 115 236 L113 238 L124 247 C128 250 133 254 137 258 L149 269 L161 282 C169 290 176 298 183 307 C190 316 197 324 204 333 C230 370 252 408 272 446 C293 485 313 523 335 560 L343 574 C346 578 349 582 352 586 C358 595 364 603 371 609 L371 609 Z " />
<glyph glyph-name="bar" unicode="&#x7c;" horiz-adv-x="309" d="M368 650 L340 665 C340 665 232 450 131 234 C29 17 -42 -146 -42 -146 L-13 -159 C-13 -159 57 4 159 220 C261 437 368 650 368 650 L368 650 Z " />
<glyph glyph-name="braceright" unicode="&#x7d;" horiz-adv-x="256" d="M123 298 C131 315 140 331 148 348 C166 382 184 416 201 450 C218 485 233 522 244 559 C247 569 249 579 251 588 C253 598 255 607 256 619 C256 625 256 632 254 639 C253 641 252 642 251 644 L250 646 L250 647 L249 648 L249 649 L248 649 C245 653 242 656 238 658 C231 663 223 664 215 664 C207 663 198 660 192 653 L215 631 C215 632 216 632 217 632 C219 632 221 632 222 631 C222 631 222 631 222 631 L223 630 L223 630 L223 630 C223 630 223 629 224 629 C224 627 224 624 224 620 C224 613 222 604 220 595 C218 586 216 577 213 568 C203 533 189 498 173 464 C156 430 138 397 121 363 C112 346 103 329 94 312 C90 303 85 294 82 281 C81 275 81 267 83 260 C84 253 88 246 92 242 C92 242 92 242 92 242 C92 242 92 242 92 242 L92 242 C92 241 91 240 88 238 C79 231 70 223 63 215 C48 197 37 178 27 158 C18 139 10 118 3 99 L-18 41 L-40 -18 C-47 -37 -54 -56 -64 -71 C-69 -80 -75 -87 -82 -93 C-88 -99 -95 -105 -103 -109 C-119 -117 -137 -120 -149 -114 L-162 -143 C-149 -149 -135 -150 -123 -148 C-111 -146 -99 -142 -89 -137 C-78 -131 -68 -124 -60 -116 C-51 -107 -44 -98 -38 -89 C-26 -69 -17 -49 -10 -29 L11 30 L33 88 C40 108 47 127 56 145 C64 163 74 179 87 194 C93 201 100 207 107 213 C109 215 110 215 115 219 C118 223 121 227 123 232 C126 242 124 254 117 261 C115 264 114 266 114 268 C113 270 113 272 114 275 C115 282 118 289 123 298 L123 298 Z " />
<glyph glyph-name="asciitilde" unicode="&#x7e;" horiz-adv-x="350" d="M241 217 C241 217 239 212 235 205 C232 198 227 187 218 178 C214 173 210 170 204 166 C198 163 191 161 186 162 C180 162 177 164 173 169 C170 175 167 183 163 193 C159 203 153 214 144 222 C140 227 135 231 128 233 C123 236 116 237 110 237 C97 238 87 234 78 229 C69 224 62 218 56 212 C44 199 38 187 33 180 C29 172 27 168 27 168 L52 155 C52 155 54 159 58 166 C62 173 67 184 76 193 C80 197 85 201 91 205 C97 208 103 210 109 210 C115 209 120 207 125 203 C130 198 134 191 137 183 C141 175 144 164 151 154 C154 148 159 143 165 140 C171 136 178 134 185 134 C198 134 208 137 217 142 C226 147 234 154 239 160 C250 173 256 185 260 193 C264 201 266 205 266 205 L241 217 L241 217 Z " />
<glyph glyph-name="quoteleft" unicode="&#x2018;" horiz-adv-x="193" d="M194 665 C194 665 189 648 182 632 C175 616 165 602 165 602 L188 587 C188 587 199 603 207 621 C216 638 221 658 221 658 L194 665 L194 665 Z " />
<glyph glyph-name="quoteright" unicode="&#x2019;" horiz-adv-x="193" d="M194 665 C194 665 189 648 182 632 C175 616 165 602 165 602 L188 587 C188 587 199 603 207 621 C216 638 221 658 221 658 L194 665 L194 665 Z " />
<glyph glyph-name="quotedblleft" unicode="&#x201c;" horiz-adv-x="262" d="M226 665 L188 595 L212 582 L250 652 L226 665 L226 665 Z M265 654 L234 594 L258 582 L289 641 L265 654 L265 654 Z " />
<glyph glyph-name="quotedblright" unicode="&#x201d;" horiz-adv-x="261" d="M226 665 L188 595 L212 582 L250 652 L226 665 L226 665 Z M265 654 L234 594 L258 582 L289 641 L265 654 L265 654 Z " />
</font>
</svg>
