<?xml version="1.0" encoding="UTF-8"?>
<svg xmlns="http://www.w3.org/2000/svg" xmlns:xlink="http://www.w3.org/1999/xlink" version="1.2" >
<font id="Birocratic Two">
<font-face  font-family="Birocratic Two" units-per-em="1000" ascent="750" descent="-250" font-style="normal" font-weight="400" font-stretch="normal" cap-height="700" x-height="500" underline-position="-75" underline-thickness="50" />
<missing-glyph  horiz-adv-x="94" d="" />
<glyph glyph-name="NULL" d="" />
<glyph glyph-name="nonmarkingreturn" unicode="&#xd;" horiz-adv-x="94" d="" />
<glyph glyph-name="space" unicode="&#x20;" horiz-adv-x="94" d="" />
<glyph glyph-name="D" unicode="D" horiz-adv-x="486" d="M521 512 Q516 477 505.5 443 Q495 409 481 377 Q455 314 420.5 255.5 Q386 197 347 141 Q327 113 307 85.5 Q287 58 266 31 Q244 3 222 -24 Q200 -51 177 -77 Q154 -103 129.5 -127 Q105 -151 78 -172 Q52 -192 22.5 -206.5 Q-7 -221 -40 -225 Q-70 -228 -99.5 -216.5 Q-129 -205 -145 -176 Q-153 -161 -153.5 -145 Q-154 -129 -151 -112 Q-149 -97 -145 -82 Q-141 -67 -136 -52 Q-116 6 -79.5 55.5 Q-43 105 7 142 Q11 144 14.5 146.5 Q18 149 22 152 Q44 206 68.5 258.5 Q93 311 121 362 Q135 391 148 420.5 Q161 450 174 479 Q203 543 232 606.5 Q261 670 290 734 Q292 739 297 736.5 Q302 734 300 729 L234 585 L176 456 Q200 495 228 531 Q256 567 291 598 Q338 638 391 660 Q406 666 422.5 670 Q439 674 456 672 Q486 666 505 641 Q526 613 526 578.5 Q526 544 521 512 Z M220 -8 Q262 43 302 96 Q342 149 377 205 Q413 260 442.5 318.5 Q472 377 492 440 Q503 472 510 506.5 Q517 541 515 576 Q514 592 510 606.5 Q506 621 497 634 Q476 661 445 661 Q428 661 412.5 656.5 Q397 652 383 645 Q357 633 334 617 Q310 601 289.5 581.5 Q269 562 250 539 Q212 495 182 444 Q168 423 155.5 401 Q143 379 131 357 L119 331 L44 166 Q90 192 141 206 Q192 220 245 222 Q250 222 250 216.5 Q250 211 245 211 Q213 209 184 205 Q145 197 107.5 183 Q70 169 36 148 L3 75 Q1 71 -4 73 Q-9 75 -7 80 L14 133 Q3 125 -8 115.5 Q-19 106 -30 96 Q-72 54 -100 2 Q-128 -50 -139 -108 Q-142 -125 -142 -141.5 Q-142 -158 -134 -172 Q-121 -196 -93 -207 Q-62 -220 -29 -212.5 Q4 -205 33 -189 Q61 -173 85 -152.5 Q109 -132 132 -109 Q155 -85 177 -59.5 Q199 -34 220 -8 Z " />
<glyph glyph-name="E" unicode="E" horiz-adv-x="486" d="M373 169 Q376 174 380.5 171 Q385 168 383 163 L366 134 Q330 77 291 22.5 Q252 -32 208 -84 Q188 -108 166.5 -132.5 Q145 -157 120.5 -177.5 Q96 -198 67.5 -211 Q39 -224 6 -225 Q-23 -226 -51 -213.5 Q-79 -201 -93 -174 Q-106 -148 -104.5 -118.5 Q-103 -89 -95 -62 Q-80 -8 -52 39 Q-24 86 14 127 Q47 162 85.5 191.5 Q124 221 167 244 Q148 247 133 260 Q118 273 110 290 Q99 317 104 346 Q109 375 120 401 Q140 452 169.5 497.5 Q199 543 235 583 Q254 603 273.5 622 Q293 641 315 658 Q336 675 359 691 Q382 707 407 719 Q432 730 459 736.5 Q486 743 513 739 Q526 737 537.5 732.5 Q549 728 557 718 Q565 710 568.5 698.5 Q572 687 572 676 Q572 663 569 650.5 Q566 638 561 627 Q552 601 538 574 Q524 546 508.5 520.5 Q493 495 476 470 Q473 465 468 467.5 Q463 470 466 475 Q471 481 474.5 487 Q478 493 482 499 Q498 522 511.5 546.5 Q525 571 537 596 Q546 617 555.5 641.5 Q565 666 560 690 Q557 703 549 711 Q541 719 530.5 723.5 Q520 728 507.5 729 Q495 730 484 729 Q458 727 433 717.5 Q408 708 385 695 Q363 681 342.5 665.5 Q322 650 302 633 Q264 600 231 562 Q198 524 170.5 480 Q143 436 126 388 Q118 364 114.5 336.5 Q111 309 125 286 Q136 269 155 259 Q174 249 194 258 Q199 261 202 256 Q205 251 200 249 Q194 246 188 243 Q182 240 176 236 Q128 210 85.5 177.5 Q43 145 8 103 Q-27 63 -52.5 16 Q-78 -31 -89 -84 Q-94 -110 -91.5 -139 Q-89 -168 -69 -188 Q-47 -209 -17 -213 Q13 -217 41 -209 Q71 -200 96 -182 Q121 -164 143 -142 Q165 -119 185 -95 Q205 -71 225 -46 Q267 5 303.5 58.5 Q340 112 373 169 Z " />
<glyph glyph-name="F" unicode="F" horiz-adv-x="266" d="M517 690 Q515 676 510 663 Q505 650 499 636 Q467 565 421 504 Q418 499 413.5 502 Q409 505 412 510 Q417 518 422.5 525 Q428 532 433 540 Q456 572 471 603 Q479 619 487 634.5 Q495 650 500 667 Q503 676 505 687 Q507 698 506 708 Q505 718 499.5 726 Q494 734 482 737 Q467 740 450.5 735 Q434 730 420 724 Q404 716 389 705 Q374 694 360 683 Q305 638 260 579 Q237 550 216.5 519.5 Q196 489 176 458 Q155 426 135.5 392.5 Q116 359 96 325 L72 280 Q139 296 204 303 Q209 304 209 298.5 Q209 293 204 292 Q169 287 134.5 281 Q100 275 65 267 Q8 160 -43 51 Q-76 -20 -107 -90 Q-138 -160 -170 -232 Q-172 -237 -176.5 -234 Q-181 -231 -179 -226 L-164 -190 Q-132 -117 -99.5 -45 Q-67 27 -32 99 Q-12 141 8.5 181.5 Q29 222 50 264 Q31 259 12 254 Q-7 249 -26 243 Q-31 241 -32.5 246.5 Q-34 252 -29 254 Q-8 260 13.5 266 Q35 272 57 277 Q71 303 86 329.5 Q101 356 116 382 Q136 416 157 449 Q178 482 200 515 Q221 545 243 575 Q265 605 290 632 Q315 659 343 684 Q371 709 403 727 Q413 733 427.5 739.5 Q442 746 457 748.5 Q472 751 486 748 Q500 745 509 732 Q515 723 516.5 712 Q518 701 517 690 Z " />
<glyph glyph-name="G" unicode="G" horiz-adv-x="563" d="M416 47 Q408 32 399.5 17.5 Q391 3 382 -11 Q362 -42 341 -72 Q320 -102 295 -129 Q272 -155 245.5 -177 Q219 -199 188 -214 Q160 -227 129 -232.5 Q98 -238 69 -228 Q41 -220 26 -199 Q18 -187 16 -173.5 Q14 -160 17 -146 Q25 -117 50.5 -98 Q76 -79 102 -68 Q120 -60 138.5 -52.5 Q157 -45 176 -37 L258 -4 L409 56 Q438 109 462 164 Q486 219 506 276 L505 275 Q480 237 451.5 201.5 Q423 166 390 135 Q358 105 322 80.5 Q286 56 245 40 Q227 33 205 27 Q183 21 161 20 Q139 19 118.5 25 Q98 31 83 48 Q68 64 62.5 84 Q57 104 57 125 Q57 146 61.5 167.5 Q66 189 71 208 Q94 297 136 378 Q179 460 237 532 Q266 567 298 599.5 Q330 632 366 661 Q384 675 404 689.5 Q424 704 445.5 714.5 Q467 725 490 731 Q513 737 537 735 Q557 733 575 726.5 Q593 720 607 707 Q640 677 638 631 Q637 606 630 578 Q624 552 615 527 Q598 477 574 430 Q572 425 567 428 Q562 431 565 436 L586 480 Q606 528 618 577 Q623 600 626.5 625 Q630 650 619 672 Q611 689 596.5 701 Q582 713 564 719 Q525 731 483 717 Q460 710 440 698.5 Q420 687 400 673 Q364 646 331 616 Q268 557 214 485 Q164 414 127 333 Q109 294 95 252.5 Q81 211 73 168 Q69 148 68 127.5 Q67 107 73 87 Q78 68 91.5 54 Q105 40 125 35 Q145 30 166.5 32 Q188 34 208 39 Q249 51 284 70 Q361 112 417.5 178.5 Q474 245 519 318 Q522 323 526.5 321 Q531 319 529 314 Q525 297 517 276 Q481 165 425 63 L416 47 Z M400 41 L235 -25 Q215 -33 195.5 -41 Q176 -49 156 -57 Q140 -64 124 -70.5 Q108 -77 92 -85 Q80 -91 68 -99.5 Q56 -108 46 -118.5 Q36 -129 30.5 -141.5 Q25 -154 26 -169 Q27 -183 35 -193 Q43 -203 54 -209.5 Q65 -216 78.5 -219.5 Q92 -223 104 -223 Q135 -224 164.5 -211.5 Q194 -199 220 -182 Q248 -163 271.5 -138.5 Q295 -114 316 -87 Q339 -58 358.5 -27 Q378 4 397 36 L400 41 Z " />
<glyph glyph-name="H" unicode="H" horiz-adv-x="495" d="M439 259 Q421 215 405 171 Q389 127 375 82 Q361 34 349 -15 Q337 -64 328 -115 Q326 -125 324 -140.5 Q322 -156 323.5 -170.5 Q325 -185 332 -196 Q339 -207 356 -207 Q361 -207 361 -212.5 Q361 -218 356 -218 Q347 -218 341 -215 Q327 -210 320.5 -196.5 Q314 -183 313 -169 Q313 -154 314.5 -139 Q316 -124 318 -110 Q328 -57 340 -6 Q352 45 369 96 Q382 139 397 180.5 Q412 222 429 264 Q408 275 384.5 279 Q361 283 337 281 Q304 279 272.5 268.5 Q241 258 213 243 L202 237 L188 208 Q166 159 144.5 110.5 Q123 62 101 12 L82 -29 Q65 -64 47.5 -97 Q30 -130 9 -160 Q-6 -179 -22.5 -196.5 Q-39 -214 -60 -226 Q-74 -235 -92 -239 Q-110 -243 -127 -235 Q-139 -229 -145 -218.5 Q-151 -208 -152 -195.5 Q-153 -183 -151 -170 Q-149 -157 -146 -147 Q-138 -116 -123.5 -87.5 Q-109 -59 -92 -32 Q-70 5 -43.5 39 Q-17 73 12 104 Q35 129 61.5 152 Q88 175 116 196 Q135 210 154 222 Q173 234 193 245 Q216 299 238.5 353 Q261 407 280 464 Q291 493 299.5 522 Q308 551 315 581 Q317 596 319 611.5 Q321 627 321 642 Q323 655 322 668.5 Q321 682 316 695 Q312 704 305.5 712.5 Q299 721 289 724 Q281 726 274 724.5 Q267 723 260 720 Q243 712 230 698.5 Q217 685 206 671 Q175 631 157 584 Q139 537 139 485 Q138 480 132.5 480 Q127 480 128 485 Q127 498 130 514 Q141 617 210 692 Q221 706 236.5 719 Q252 732 270 735 Q292 740 308 725.5 Q324 711 330 691 Q333 677 333.5 663 Q334 649 333 635 Q331 619 328.5 603.5 Q326 588 324 573 Q309 510 288 450 Q270 400 249.5 351 Q229 302 208 253 Q216 258 223.5 261 Q231 264 239 268 Q270 281 303.5 288 Q337 295 371 292 Q403 288 433 274 L446 302 Q467 353 490 402 Q513 451 538 501 Q563 549 588 597 Q613 645 639 693 Q641 698 646 695.5 Q651 693 649 688 L637 665 Q611 617 586.5 570.5 Q562 524 538 476 Q515 428 492.5 380.5 Q470 333 449 283 L439 259 Z M185 228 Q162 214 140.5 199 Q119 184 99 167 Q42 123 -3 71 Q-31 40 -55 6 Q-79 -28 -99 -65 Q-112 -89 -123.5 -114 Q-135 -139 -140 -167 Q-142 -178 -141.5 -189.5 Q-141 -201 -136 -211 Q-131 -220 -122.5 -224 Q-114 -228 -104 -228 Q-89 -229 -74.5 -221.5 Q-60 -214 -49 -204 Q-28 -188 -11.5 -167.5 Q5 -147 18 -125 Q32 -102 45 -78.5 Q58 -55 70 -30 L69 -29 L83 0 Q86 10 92 19 L92 20 L185 228 Z " />
<glyph glyph-name="I" unicode="I" horiz-adv-x="180" d="M295 666 Q269 598 241.5 532 Q214 466 185 400 Q119 241 47 85 Q11 4 -27 -75.5 Q-65 -155 -105 -235 Q-107 -240 -111.5 -237 Q-116 -234 -114 -229 L-96 -192 Q-58 -114 -21.5 -37 Q15 40 50 118 Q85 193 117.5 268 Q150 343 182 419 L232 540 L259 605 Q266 623 273.5 641 Q281 659 288 678 Q290 684 291.5 690 Q293 696 293 703 Q293 706 292.5 710 Q292 714 290 717 Q288 720 281 720 Q274 719 265 713 Q252 705 241 693.5 Q230 682 220 670 Q209 655 199.5 639.5 Q190 624 181 607 Q164 575 149.5 542 Q135 509 124 474 Q112 439 102.5 403 Q93 367 82 332 Q80 327 75 328.5 Q70 330 72 335 L83 375 Q93 410 102.5 444.5 Q112 479 125 512 Q139 548 155.5 582.5 Q172 617 193 649 Q203 665 214 679.5 Q225 694 239 707 Q247 715 257.5 721.5 Q268 728 279 730 Q298 734 303 715 Q306 703 303 690 Q300 677 295 666 Z " />
<glyph glyph-name="J" unicode="J" horiz-adv-x="422" d="M518 718 Q527 705 529 690.5 Q531 676 529 661 Q527 646 522.5 631.5 Q518 617 514 605 Q506 582 497 558.5 Q488 535 480 512 Q475 501 471 489 Q467 477 462 466 Q457 453 452 441 Q447 429 441 416 Q435 400 428 384 Q421 368 414 352 Q406 335 398.5 318 Q391 301 383 284 Q374 266 365.5 248.5 Q357 231 347 213 Q339 196 329.5 179.5 Q320 163 310 146 Q299 129 289.5 112 Q280 95 269 78 Q258 62 247.5 46.5 Q237 31 225 16 Q204 -13 180 -41 Q169 -55 157.5 -68 Q146 -81 135 -94 Q111 -119 83.5 -146 Q56 -173 27 -196 Q11 -210 -4 -220 Q-19 -230 -33 -238 Q-46 -245 -60 -250.5 Q-74 -256 -91 -256 L-95 -256 Q-129 -254 -148 -229 Q-166 -205 -158 -168 Q-153 -151 -145 -136 Q-137 -121 -129 -108 Q-120 -94 -111 -80.5 Q-102 -67 -91 -54 Q-46 3 7.5 48 Q61 93 123 124 Q188 157 256 172 Q286 181 314 179 Q325 198 334 215 Q343 232 351 249 Q383 312 414 383 Q445 454 475 537 L499 599 Q510 626 515 654 Q517 663 517.5 678 Q518 693 510 707 Q502 722 491 728 Q477 734 458 733 Q403 733 334 691 Q279 656 232 609 Q181 559 146 499 Q111 435 99 369 Q98 364 92 364 Q86 366 86 372 Q90 389 94 405.5 Q98 422 106 440 Q131 506 174 563 Q195 590 219.5 615 Q244 640 273 663 Q333 711 397 735 Q411 739 427 742.5 Q443 746 461 746 Q503 745 518 718 Z M185 -16 Q217 26 248 71 Q279 116 307 167 Q283 167 254 160 Q238 155 222 150 Q206 145 189 140 Q123 114 69 79 Q-40 6 -116 -110 Q-122 -119 -129.5 -133 Q-137 -147 -142.5 -162.5 Q-148 -178 -147.5 -194 Q-147 -210 -136 -223 Q-119 -246 -83 -243 Q-68 -241 -53 -234 Q-38 -227 -24 -219 Q8 -199 34.5 -174.5 Q61 -150 84 -127 Q110 -103 134.5 -75.5 Q159 -48 185 -16 Z " />
<glyph glyph-name="K" unicode="K" horiz-adv-x="355" d="M476 617 Q425 566 375 516 Q325 466 274 415 Q225 366 176.5 317.5 Q128 269 79 221 Q101 197 122.5 173 Q144 149 167 126 Q250 39 337 -47 Q381 -90 424.5 -132 Q468 -174 513 -216 Q518 -221 514 -225 Q510 -229 505 -225 Q479 -202 454.5 -178 Q430 -154 405 -130 Q360 -88 317.5 -45.5 Q275 -3 232 41 Q150 126 71 211 Q63 195 56 180 Q49 165 41 149 Q18 102 -4.5 56 Q-27 10 -50 -37 Q-73 -84 -95 -130 Q-117 -176 -140 -224 Q-142 -229 -147 -225.5 Q-152 -222 -150 -217 Q-143 -205 -139 -194 L-49 -8 Q-26 39 -3.5 85 Q19 131 42 178 Q47 189 52 199 Q57 209 62 220 Q63 221 63 222 Q80 257 98 293 Q116 329 133 364 Q156 411 178.5 457 Q201 503 224 550 Q247 597 270 642.5 Q293 688 316 735 Q319 740 324 737 Q329 734 327 729 Q324 723 321 717.5 Q318 712 315 706 Q292 659 269 613 Q246 567 223 520 Q200 474 177.5 428 Q155 382 132 335 Q121 313 110.5 291.5 Q100 270 89 248 Q112 270 133.5 291.5 Q155 313 177 335 Q228 386 278 436 Q328 486 379 537 L580 738 Q585 742 589 738 Q593 734 589 729 Q560 701 532.5 673 Q505 645 476 617 Z " />
<glyph glyph-name="L" unicode="L" horiz-adv-x="229" d="M868 -37 Q873 -34 876 -39.5 Q879 -45 874 -48 Q866 -53 857.5 -57 Q849 -61 840 -65 Q768 -100 689.5 -111 Q611 -122 533 -120 Q447 -118 362 -107 Q277 -96 193 -75 Q153 -64 114.5 -51.5 Q76 -39 37 -26 Q32 -34 27 -43 Q18 -58 3 -78 Q-7 -92 -17 -105 Q-27 -118 -38 -131 Q-51 -147 -64.5 -162.5 Q-78 -178 -95 -191 Q-110 -204 -129 -212 Q-148 -220 -168 -219 Q-187 -218 -202 -209 Q-217 -200 -228 -185 Q-239 -170 -246 -151.5 Q-253 -133 -256 -115 Q-260 -97 -258.5 -78.5 Q-257 -60 -247 -43 Q-230 -15 -199 -1 Q-168 13 -136 16 Q-94 21 -52 12 Q-10 3 31 -11 Q37 1 43 13 Q49 25 54 37 Q80 90 105 145 Q130 200 156 261 Q180 318 203.5 375.5 Q227 433 249 491 Q271 547 292 604.5 Q313 662 333 722 Q333 724 336 726 L340 726 Q343 724 344 723 Q345 722 345 718 Q340 705 335 689 Q332 682 329.5 675 Q327 668 324 661 Q302 595 279 534 Q256 473 237 425 Q217 373 193 316 Q169 259 140 194 Q117 143 93 91 Q69 39 43 -15 Q61 -21 79 -27.5 Q97 -34 115 -39 Q137 -47 158.5 -53 Q180 -59 203 -64 Q376 -108 554 -108 Q635 -108 715.5 -93.5 Q796 -79 868 -37 Z M-75 -154 Q-19 -95 25 -22 Q-14 -9 -54 -0.5 Q-94 8 -136 4 Q-166 1 -195.5 -13 Q-225 -27 -239 -55 Q-248 -73 -246.5 -92.5 Q-245 -112 -240 -130 Q-235 -147 -227.5 -163 Q-220 -179 -206 -190 Q-192 -204 -173.5 -206 Q-155 -208 -137 -202 Q-118 -195 -103 -181.5 Q-88 -168 -75 -154 Z " />
<glyph glyph-name="M" unicode="M" horiz-adv-x="635" d="M707 567 Q700 545 692 524 Q684 503 675 483 Q655 441 633.5 400 Q612 359 591 317 Q571 275 551 232.5 Q531 190 512 146 Q474 60 442 -27.5 Q410 -115 384 -206 Q382 -211 376.5 -209.5 Q371 -208 373 -203 Q376 -192 379 -181.5 Q382 -171 386 -160 Q412 -72 444.5 12 Q477 96 515 179 Q534 221 553.5 262 Q573 303 593 345 Q613 385 634 424.5 Q655 464 673 506 Q681 526 688.5 546.5 Q696 567 702 589 Q707 606 709.5 625 Q712 644 710 663 Q708 678 701.5 692 Q695 706 680 713 Q661 721 639.5 715.5 Q618 710 601 701 Q533 665 483.5 607.5 Q434 550 399 483 Q383 454 370 424 Q357 394 345 362 Q331 310 317 259 Q303 208 287 156 Q285 151 280 152.5 Q275 154 276 159 L286 205 Q296 246 308 286 Q320 326 335 365 L351 432 Q359 462 366.5 492 Q374 522 378 553 Q380 565 381 580 Q382 595 380 608.5 Q378 622 371 633 Q364 644 349 649 Q335 653 324 646 Q313 639 303 630 Q292 621 283.5 610 Q275 599 267 588 Q250 565 235.5 540.5 Q221 516 207 490 Q151 388 112 281 Q93 227 78.5 172 Q64 117 53 60 Q51 55 46 56.5 Q41 58 42 63 Q49 100 56.5 136.5 Q64 173 73 209 Q90 274 110 337 Q130 400 155 463 Q180 526 209 586 Q238 646 273 704 Q276 709 280.5 706 Q285 703 282 698 Q244 633 211 565 Q157 451 119 328 Q160 434 220 535 Q235 560 251 584.5 Q267 609 287 630 Q296 640 306.5 649 Q317 658 331 660 Q343 663 355 658.5 Q367 654 375 645 Q384 635 387.5 622.5 Q391 610 392 597 Q393 581 391 565.5 Q389 550 386 535 Q377 487 365 438 Q375 461 386 483 Q397 505 411 526 Q451 594 506 646 Q520 660 535.5 671 Q551 682 567 693 Q584 704 602 713.5 Q620 723 640 727 Q658 730 675.5 725.5 Q693 721 705 707 Q716 694 719.5 678 Q723 662 722 646 Q722 626 717.5 606 Q713 586 707 567 Z " />
<glyph glyph-name="N" unicode="N" horiz-adv-x="548" d="M547 717 Q579 702 592 667 Q600 648 600.5 627.5 Q601 607 599 587 Q594 533 579 481 Q564 429 546 378 Q527 326 505 276 Q483 226 459 175 Q436 127 412 79 Q388 31 367 -19 Q347 -69 335 -119 Q330 -142 329 -167.5 Q328 -193 340 -215 Q342 -220 337.5 -223 Q333 -226 331 -221 Q325 -211 322.5 -200.5 Q320 -190 319 -179 Q317 -154 322 -129 Q327 -104 334 -81 Q341 -56 350 -32 Q359 -8 370 16 Q392 64 415.5 111.5 Q439 159 462 207 Q485 257 506 306.5 Q527 356 545 408 Q562 458 575 509.5 Q588 561 589 615 Q590 632 586.5 649.5 Q583 667 573 681 Q562 697 545.5 705.5 Q529 714 511 716 Q488 719 465.5 712 Q443 705 423 694 Q403 682 384 667 Q365 652 348 636 Q280 571 223 496 Q194 459 169 420.5 Q144 382 121 341 Q76 262 36 175 Q17 133 -0.5 91 Q-18 49 -35 6 Q-37 1 -42 2 Q-47 3 -46 8 Q-38 46 -28 83 Q-18 120 -7 158 Q14 224 39.5 288.5 Q65 353 95 416 Q127 480 162.5 540.5 Q198 601 238 660 Q241 665 245.5 662 Q250 659 247 654 Q224 622 203.5 588.5 Q183 555 163 520 Q94 398 43 268 Q25 220 9.5 172.5 Q-6 125 -18 77 Q-3 114 13 150.5 Q29 187 46 223 Q67 265 89 306.5 Q111 348 136 388 Q185 469 246 543 Q261 561 277 579 Q293 597 310 614 Q327 631 344 647 Q361 663 380 678 Q398 691 418 703 Q438 715 459.5 721.5 Q481 728 503 727.5 Q525 727 547 717 Z " />
<glyph glyph-name="O" unicode="O" horiz-adv-x="538" d="M433 734 Q462 735 486 720.5 Q510 706 527 683 Q548 654 556.5 620.5 Q565 587 565 552 Q565 517 559 482 Q553 447 544 415 Q523 341 494 267 Q480 231 465.5 195.5 Q451 160 434 125 Q401 55 363 -11 Q346 -41 327.5 -70 Q309 -99 287 -125 Q265 -151 239 -174.5 Q213 -198 182 -212 Q166 -219 149.5 -222 Q133 -225 116 -223 Q86 -220 59 -201 Q30 -181 13 -152 Q-4 -123 -13 -91 Q-22 -56 -24.5 -20 Q-27 16 -25 51 Q-22 124 -2 193.5 Q18 263 55 326 Q58 331 62.5 328.5 Q67 326 65 321 Q48 293 34 260 Q6 196 -6 126.5 Q-18 57 -13 -14 Q-11 -48 -3.5 -81.5 Q4 -115 21 -145 Q37 -171 63 -190.5 Q89 -210 121 -213 Q155 -216 185.5 -198 Q216 -180 239 -159 Q264 -136 284.5 -110 Q305 -84 323 -56 Q342 -26 359 5.5 Q376 37 393 69 Q410 101 426 134.5 Q442 168 456 202 Q471 237 484 272 Q497 307 509 342 Q522 378 532.5 414.5 Q543 451 549 489 Q554 523 554 558.5 Q554 594 543 627 Q535 652 519.5 675 Q504 698 480 712 Q465 720 449 721.5 Q433 723 417.5 720 Q402 717 386.5 710.5 Q371 704 357 696 Q328 678 301.5 656 Q275 634 252 608 Q210 560 178 506 Q146 452 124 392 Q82 275 82 148 Q83 85 94.5 24 Q106 -37 129 -95 Q131 -100 125.5 -101.5 Q120 -103 118 -98 Q107 -71 97 -39 Q62 86 74 215 Q86 346 142 462 Q171 522 212 576.5 Q253 631 306 673 Q332 695 364 713 Q380 721 397.5 727 Q415 733 433 734 Z " />
<glyph glyph-name="P" unicode="P" horiz-adv-x="508" d="M593 554 Q586 528 574.5 503 Q563 478 549 455 Q535 432 518.5 409.5 Q502 387 485 365 Q450 321 409 283 Q368 245 323 213 Q300 196 275.5 182 Q251 168 226 154 Q202 141 177 129.5 Q152 118 126 110 Q114 107 101 104.5 Q88 102 74 102 Q44 23 20 -57.5 Q-4 -138 -21 -221 Q-22 -226 -27.5 -224.5 Q-33 -223 -32 -218 Q-21 -164 -7.5 -112 Q6 -60 23 -8 Q41 47 62 103 Q42 105 27 114 Q1 130 -5 158 Q-7 173 -4.5 187.5 Q-2 202 3 216 Q9 232 17 247.5 Q25 263 34 277 Q51 303 70 326 Q89 349 109 371 Q138 401 170 428.5 Q202 456 236 482 Q263 535 291 587 Q319 639 346 692 Q349 697 353.5 694.5 Q358 692 356 687 Q331 639 306 592 Q281 545 257 497 Q264 502 270.5 507 Q277 512 284 517 Q289 521 291.5 516 Q294 511 290 508 L247 476 Q247 476 245 474 Q203 393 164 311.5 Q125 230 91 145 L78 113 Q101 114 123.5 121 Q146 128 167 137 Q191 148 214 160 Q237 172 260 186 Q308 214 349 246 Q432 312 497 399 Q512 420 526.5 441.5 Q541 463 554 486 Q566 508 575 531.5 Q584 555 586 580 Q588 603 584.5 624.5 Q581 646 570 666 Q559 685 542 698 Q525 711 505 718 Q461 735 415.5 730 Q370 725 326 711 Q302 703 279 693 Q256 683 234 670 Q231 668 218 659.5 Q205 651 192 641.5 Q179 632 170 622.5 Q161 613 166 609 Q170 605 166 601.5 Q162 598 158 602 Q150 610 155 620 Q160 630 168 636 Q251 705 355 731 Q378 736 401.5 739.5 Q425 743 449 741 Q472 739 494 733.5 Q516 728 536 716 Q577 692 591 647 Q598 624 598 600.5 Q598 577 593 554 Z M66 113 Q89 172 114.5 228.5 Q140 285 167 342 L224 458 Q192 433 162.5 406.5 Q133 380 106 350 Q85 327 66.5 303 Q48 279 32 252 Q24 238 18 224 Q12 210 8 195 Q5 183 5 170 Q5 157 11 146 Q19 131 34 123 Q49 115 66 113 Z " />
<glyph glyph-name="Q" unicode="Q" horiz-adv-x="601" d="M627 574 Q633 534 624.5 493 Q616 452 605 413 Q584 338 552.5 266.5 Q521 195 478 129 Q438 68 389 17 Q363 -9 335.5 -32.5 Q308 -56 277 -75 Q270 -80 263 -83.5 Q256 -87 249 -91 Q258 -143 276 -191 Q278 -196 272.5 -197.5 Q267 -199 265 -194 Q258 -176 253 -157.5 Q248 -139 243 -120 L238 -95 Q215 -105 189.5 -108 Q164 -111 139 -104 Q108 -95 83.5 -73.5 Q59 -52 44 -24 Q25 10 19.5 48 Q14 86 16 124 Q18 162 25 200.5 Q32 239 43 276 Q63 348 95.5 416 Q128 484 170 545 Q190 574 211 600 Q232 626 256 650 Q306 700 375 712 Q380 713 381.5 708 Q383 703 378 701 Q362 698 346.5 693.5 Q331 689 317 681 Q288 667 265 643.5 Q242 620 222 595 Q200 569 180.5 540.5 Q161 512 143 483 Q106 420 79.5 351.5 Q53 283 39 211 Q32 177 28.5 140 Q25 103 28.5 67 Q32 31 45.5 -2 Q59 -35 87 -61 Q111 -83 139 -92 Q170 -102 207 -94 Q215 -92 222 -89.5 Q229 -87 236 -84 Q225 -14 229 56 Q233 126 248 195 Q265 275 294 350 Q323 425 358 499 Q374 532 390.5 566 Q407 600 432 628 Q455 654 487.5 670 Q520 686 555 675 Q587 664 605 635 Q623 606 627 574 Z M330 -23 Q384 23 427 78 Q470 133 504 195 Q542 263 569 335.5 Q596 408 611 484 Q619 520 618 558.5 Q617 597 596 629 Q588 642 576 651.5 Q564 661 550 665 Q533 670 516 667 Q499 664 484 656 Q452 639 431.5 610.5 Q411 582 396 552 Q378 517 362 482 Q346 447 331 412 Q300 340 277 265 Q254 190 245 112 Q239 64 239 16.5 Q239 -31 247 -79 Q270 -68 290.5 -53.5 Q311 -39 330 -23 Z " />
<glyph glyph-name="R" unicode="R" horiz-adv-x="576" d="M490 51 Q493 55 498 51 Q503 47 498 44 Q481 26 467.5 6 Q454 -14 437 -32 Q425 -46 407.5 -57.5 Q390 -69 370 -74.5 Q350 -80 329 -76.5 Q308 -73 289 -56 Q270 -40 259 -19 Q248 2 239 22 Q228 47 220 71.5 Q212 96 207 122 L207 124 Q188 113 169 103 Q150 93 130 86 Q113 19 101 -49.5 Q89 -118 83 -189 Q82 -194 76.5 -192 Q71 -190 72 -185 Q77 -141 83 -98 Q89 -55 97 -12 Q101 12 106.5 35.5 Q112 59 117 82 Q109 80 102.5 79 Q96 78 88 77 Q68 75 49 81 Q30 87 14 101 Q-3 117 -9.5 137.5 Q-16 158 -15 178 Q-13 201 -5 220.5 Q3 240 14 257 Q29 278 46.5 296.5 Q64 315 83 332 Q148 391 236 428 Q256 473 280 515 Q304 557 331 596 Q334 601 339 597 Q344 593 341 588 Q316 553 295 515.5 Q274 478 254 438 L252 434 L260 437 Q265 439 267.5 433.5 Q270 428 265 426 Q260 424 254.5 422.5 Q249 421 244 419 Q181 280 140 126 Q138 119 137 113 Q136 107 134 101 Q151 107 167 115.5 Q183 124 199 133 Q219 144 238 154.5 Q257 165 277 176 Q322 204 363.5 234.5 Q405 265 443 300 Q462 317 480.5 334.5 Q499 352 517 371 Q534 389 550.5 407.5 Q567 426 583 446 Q596 463 608 483 Q620 503 627.5 525.5 Q635 548 636 572 Q637 596 629 621 Q621 642 607 659.5 Q593 677 573 688 Q553 699 531.5 703.5 Q510 708 490 708 Q467 709 444.5 705.5 Q422 702 402 697 Q378 691 355 682.5 Q332 674 310 664 Q219 621 153 555 Q149 551 144 555 Q139 559 144 562 Q152 571 161 579 Q170 587 179 595 Q217 627 261.5 652 Q306 677 354 694 Q396 709 443 717.5 Q490 726 538 713 Q560 707 580 696 Q600 685 615 667 Q632 647 639 624.5 Q646 602 647 579 Q648 526 622 483 Q596 440 565 405 Q529 365 491 328 Q453 291 411 257 Q369 222 323.5 192 Q278 162 229 136 L213 127 Q218 125 218 122 Q224 96 232.5 69.5 Q241 43 253 17 Q262 -2 272.5 -21 Q283 -40 302 -53 Q320 -67 340.5 -67 Q361 -67 378 -59 Q397 -51 412 -38 Q427 -25 439.5 -10 Q452 5 464 21 Q476 37 490 51 Z M121 96 Q148 207 187 312 Q196 338 207 362.5 Q218 387 229 412 Q225 411 219 407 Q127 365 59 292 Q43 275 29.5 257 Q16 239 7 217 Q0 200 -3.5 180.5 Q-7 161 -1 141 Q6 121 22 107.5 Q38 94 58 89 Q75 86 90.5 88.5 Q106 91 121 96 Z " />
<glyph glyph-name="S" unicode="S" horiz-adv-x="333" d="M664 651 Q652 666 638 677 Q579 727 505 730 Q451 733 388.5 712.5 Q326 692 267.5 650 Q209 608 161 544 Q113 480 88 396 Q74 348 69.5 303.5 Q65 259 70 209 Q75 174 85 140 Q95 106 107 72 L109 74 Q114 78 117.5 74 Q121 70 117 67 L111 61 Q116 49 119.5 37.5 Q123 26 127 14 Q140 -31 142.5 -79.5 Q145 -128 120 -170 Q100 -206 65 -224 Q48 -234 27.5 -237 Q7 -240 -12 -233 Q-38 -224 -45 -204 Q-52 -184 -47.5 -161 Q-43 -138 -32 -115.5 Q-21 -93 -11 -77 Q12 -39 39 -3.5 Q66 32 98 64 Q94 76 90.5 88 Q87 100 82 111 Q58 175 56.5 245 Q55 315 73.5 383.5 Q92 452 130 515 Q168 578 222 628 Q251 655 287 677.5 Q323 700 363 715.5 Q403 731 445 737 Q487 743 527.5 737.5 Q568 732 605 713 Q642 694 672 659 Q677 654 672 650 Q667 646 664 651 Z M131 -83 Q132 -48 123 -14.5 Q114 19 102 52 L84 33 Q67 15 52 -4.5 Q37 -24 23 -44 Q10 -64 -2.5 -84 Q-15 -104 -25 -126 Q-29 -135 -33 -147 Q-37 -159 -38 -171 Q-39 -183 -36.5 -194 Q-34 -205 -25 -213 Q-10 -227 11 -227 Q32 -227 50 -220 Q68 -212 82.5 -199 Q97 -186 108 -169 Q121 -149 126 -127.5 Q131 -106 131 -83 Z " />
<glyph glyph-name="T" unicode="T" horiz-adv-x="241" d="M795 726 Q800 726 800 720.5 Q800 715 795 715 Q790 714 784 713.5 Q778 713 772 713 L762 713 Q723 711 684 713 Q645 715 606 718 Q549 722 492.5 724.5 Q436 727 379 722 Q359 673 338.5 624.5 Q318 576 297 528 Q255 432 213.5 338 Q172 244 128 150 Q84 56 39.5 -37 Q-5 -130 -52 -223 Q-54 -228 -59 -225.5 Q-64 -223 -61 -218 Q-35 -166 -10 -114 Q15 -62 40 -9 Q85 85 128 177.5 Q171 270 213 365 Q253 454 291 542 Q329 630 367 721 Q352 719 336.5 716.5 Q321 714 306 711 Q272 703 239 690.5 Q206 678 176 661 Q161 651 146.5 641 Q132 631 119 618 Q107 606 98 590.5 Q89 575 91 557 Q92 552 86 552 Q80 552 80 557 Q78 577 87.5 594 Q97 611 111 625 Q125 640 142.5 651.5 Q160 663 177 674 Q222 700 271.5 713.5 Q321 727 372 732 L377 744 Q379 749 384 747.5 Q389 746 387 741 L384 733 Q418 736 452 736 Q495 736 538 733.5 Q581 731 624 728 Q667 725 709.5 724 Q752 723 795 726 Z " />
<glyph glyph-name="U" unicode="U" horiz-adv-x="690" d="M770 711 Q771 703 769 688.5 Q767 674 763.5 657.5 Q760 641 756 623 Q752 605 749 590 Q740 549 728.5 509 Q717 469 703 430 Q677 358 642.5 289 Q608 220 565 155 Q556 141 546.5 127.5 Q537 114 527 100 Q525 94 524.5 88 Q524 82 523 77 Q515 36 510 -4.5 Q505 -45 505 -87 Q506 -107 506.5 -126.5 Q507 -146 511 -166 Q515 -183 524 -197 Q533 -211 551 -215 Q557 -216 555.5 -221 Q554 -226 549 -225 Q532 -222 521 -210 Q510 -198 505 -183 Q501 -175 500 -165.5 Q499 -156 497 -146 Q496 -135 495.5 -125 Q495 -115 495 -104 Q494 -82 494.5 -61 Q495 -40 497 -19 Q500 6 503.5 30 Q507 54 512 79 L476 34 Q452 5 426.5 -23 Q401 -51 373 -77 Q346 -101 314.5 -120.5 Q283 -140 247 -148 Q218 -153 189.5 -149 Q161 -145 136 -130 Q111 -116 92.5 -93.5 Q74 -71 62 -45 Q47 -12 42.5 24 Q38 60 39 96 Q41 138 48 179 Q55 220 66 260 Q88 341 117 419 Q145 497 180 570.5 Q215 644 256 716 Q257 718 260 718.5 Q263 719 265 716 Q268 715 266 710 L226 640 Q188 569 159 498 Q130 427 106 351 Q80 275 62 196 Q44 117 53 36 Q56 5 65.5 -23.5 Q75 -52 94 -77 Q110 -99 132.5 -114.5 Q155 -130 181 -137 Q212 -144 243 -137 Q274 -130 302 -115 Q334 -98 360.5 -73 Q387 -48 412 -22 Q467 38 517 104 L526 148 Q546 232 569 314 Q592 396 619 478 Q633 519 647 559 Q661 599 677 640 Q685 659 692.5 678 Q700 697 710 715 Q713 721 718.5 728 Q724 735 730.5 740 Q737 745 744 746.5 Q751 748 759 742 Q766 737 768 728 Q770 719 770 711 Z M749 641 Q750 647 753 661.5 Q756 676 758 691.5 Q760 707 758.5 719.5 Q757 732 750 735 Q741 740 730.5 726.5 Q720 713 711 694 Q702 675 695 655.5 Q688 636 685 629 Q677 610 670.5 591 Q664 572 657 553 Q643 514 630 475 Q617 436 605 396 Q581 316 560 237 Q553 209 546 182 Q539 155 533 127 Q547 147 560.5 168 Q574 189 587 210 Q625 276 656 345 Q687 414 710 486 Q734 562 749 641 Z " />
<glyph glyph-name="V" unicode="V" horiz-adv-x="512" d="M627 604 Q559 499 495 392 Q431 285 370 176 Q341 123 314.5 70.5 Q288 18 259 -33 Q241 -65 224 -98.5 Q207 -132 191.5 -159 Q176 -186 162.5 -203 Q149 -220 139 -220 Q127 -220 121 -207.5 Q115 -195 113 -179 Q111 -163 111.5 -147.5 Q112 -132 112 -125 Q114 -93 116.5 -61.5 Q119 -30 122 2 Q127 66 133 129 Q139 192 145 256 Q156 364 165 471.5 Q174 579 176 690 Q176 694 175.5 700.5 Q175 707 174 714 Q173 721 171 726 Q169 731 166 731 Q160 731 155 725 Q150 719 145.5 710.5 Q141 702 137.5 693.5 Q134 685 133 680 Q120 629 118 573.5 Q116 518 120 463 Q121 457 116.5 457 Q112 457 111 462 Q108 489 107.5 524 Q107 559 109.5 594.5 Q112 630 118.5 663 Q125 696 138 719 Q141 724 146 730 Q151 736 156.5 739 Q162 742 168 742 Q174 742 179 735 Q182 730 184.5 719.5 Q187 709 186 687 Q185 575 176 464.5 Q167 354 156 245 Q149 180 143 116 Q137 52 131 -12 Q128 -44 126.5 -65.5 Q125 -87 123 -119 Q123 -127 122.5 -137.5 Q122 -148 122 -160 Q122 -172 123.5 -183 Q125 -194 128 -201 Q131 -209 135.5 -208.5 Q140 -208 145 -203.5 Q150 -199 154.5 -193 Q159 -187 161 -184 Q210 -109 249 -31 Q288 47 330 125 Q344 153 359 179.5 Q374 206 389 233 L516 450 Q550 504 583 556 Q616 608 651 661 Q654 666 659 663.5 Q664 661 661 656 L627 604 Z " />
<glyph glyph-name="W" unicode="W" horiz-adv-x="835" d="M968 679 Q924 588 881.5 498.5 Q839 409 794 318 Q773 274 751 231 Q729 188 706 143 Q686 101 663 61 Q640 21 616 -20 Q603 -40 591 -59.5 Q579 -79 565 -98 Q552 -116 539.5 -132.5 Q527 -149 512 -166 Q500 -178 485 -188 Q470 -198 453.5 -204 Q437 -210 420 -210.5 Q403 -211 386 -203 Q363 -193 351 -170.5 Q339 -148 334 -125 Q329 -98 329 -70 Q329 -42 331 -15 Q335 22 342 57 Q349 92 360 128 Q366 151 372 173 Q378 195 385 218 Q385 220 385.5 221 Q386 222 386 224 Q375 204 364 183 Q353 162 342 141 Q329 115 317 89 Q305 63 291 37 Q267 -14 239 -60.5 Q211 -107 176 -150 Q166 -164 154 -175 Q142 -186 128 -196 Q115 -207 99.5 -215.5 Q84 -224 68 -229 Q55 -232 40.5 -231.5 Q26 -231 15 -222 Q3 -211 0 -195.5 Q-3 -180 -1 -165 Q5 -121 20 -83 Q30 -55 41 -28 Q52 -1 63 26 Q86 84 109.5 140 Q133 196 157 254 Q179 308 200.5 361.5 Q222 415 239 472 Q247 500 253.5 527.5 Q260 555 265 584 Q267 598 269.5 612 Q272 626 273 639 Q273 647 272 655.5 Q271 664 266 671 Q261 676 254.5 676 Q248 676 241.5 673 Q235 670 229 665 Q223 660 220 656 Q212 646 206 635 Q200 624 194 613 Q187 601 181.5 589.5 Q176 578 171 565 Q153 515 145.5 464 Q138 413 146 361 Q147 356 141 356 Q135 356 134 361 Q131 386 131 410 Q130 463 143.5 513.5 Q157 564 180 612 Q190 636 207 657 Q218 674 232 681 Q245 688 258.5 686.5 Q272 685 279 671 Q286 654 284 634 L276 578 Q271 549 264 521 Q257 493 249 466 Q232 409 210.5 354.5 Q189 300 166 246 Q142 189 119 132.5 Q96 76 73 19 Q62 -8 50.5 -34.5 Q39 -61 29 -88 Q22 -109 16.5 -129.5 Q11 -150 9 -171 Q9 -179 9.5 -185.5 Q10 -192 13 -199 Q16 -205 20 -210.5 Q24 -216 30 -219 Q45 -224 59.5 -219.5 Q74 -215 86 -209 Q103 -201 116.5 -191 Q130 -181 143 -170 Q159 -155 172 -138 Q185 -121 198 -103 Q230 -57 255 -8.5 Q280 40 305 91 Q331 145 359 198 Q387 251 414 305 Q416 310 420.5 307 Q425 304 423 298 Q418 289 414.5 279 Q411 269 408 259 Q400 238 395 217 Q390 196 385 173 Q377 150 371 127.5 Q365 105 359 81 Q344 22 341 -38 Q340 -59 341.5 -87.5 Q343 -116 351 -141 Q359 -166 375.5 -183 Q392 -200 422 -199 Q441 -199 458 -190.5 Q475 -182 490 -169.5 Q505 -157 517 -141.5 Q529 -126 540 -112 Q567 -75 591.5 -36.5 Q616 2 639 42 Q662 82 682.5 122.5 Q703 163 725 204 Q746 247 767.5 290 Q789 333 810 378 Q854 465 895.5 552.5 Q937 640 978 730 Q980 735 985 732 Q990 729 988 724 L968 679 Z " />
<glyph glyph-name="X" unicode="X" horiz-adv-x="446" d="M282 255 Q284 177 286 99 Q288 21 299 -58 Q301 -75 303.5 -92.5 Q306 -110 310 -128 Q313 -140 316.5 -152 Q320 -164 325 -176 Q331 -190 342 -205 Q353 -220 370 -218 Q378 -217 385 -213.5 Q392 -210 399 -206 Q415 -196 430 -181 Q434 -177 438.5 -181 Q443 -185 439 -189 Q432 -196 425 -202 Q418 -208 409 -213 Q398 -221 383 -227 Q368 -233 354 -226 Q337 -219 328 -204 Q319 -189 312 -174 Q307 -162 304.5 -149.5 Q302 -137 299 -125 Q295 -108 292.5 -90.5 Q290 -73 288 -56 Q277 22 275 99 Q273 176 271 254 L271 265 L211 198 Q179 163 150 126 Q121 89 98 48 Q79 14 67.5 -22.5 Q56 -59 54 -99 Q53 -104 47.5 -104 Q42 -104 43 -99 L44 -80 Q48 -39 62 -2.5 Q76 34 96 67 Q122 109 152.5 147 Q183 185 216 221 L270 281 L266 388 Q265 426 264.5 464 Q264 502 262 540 Q261 559 259.5 577.5 Q258 596 254 615 Q251 631 247 646.5 Q243 662 237 677 Q230 691 218.5 703 Q207 715 193.5 722.5 Q180 730 165 731 Q150 732 136 724 Q129 719 123.5 712.5 Q118 706 112 699 Q102 683 98 667 Q90 635 96 597 Q98 578 104 560 Q110 542 118 524 Q125 507 133.5 490 Q142 473 156 460 Q160 456 156.5 452 Q153 448 148 453 Q143 458 138.5 464 Q134 470 130 477 Q118 496 109.5 516 Q101 536 95 557 Q90 574 86.5 590 Q83 606 82 623 Q80 661 95 692 Q103 706 114 719.5 Q125 733 142 739 Q157 744 172.5 741 Q188 738 201.5 730 Q215 722 226.5 710 Q238 698 245 684 Q253 669 257 653 Q261 637 264 621 Q268 602 269.5 583.5 Q271 565 273 545 Q275 507 275 468.5 Q275 430 277 392 Q279 367 279.5 342.5 Q280 318 281 293 L373 393 L481 510 Q570 606 654 701 Q659 705 663 701 Q667 697 663 693 L642 670 Q599 622 556.5 575 Q514 528 470 481 Q444 453 419 425.5 Q394 398 368 371 Q347 347 325.5 323.5 Q304 300 282 276 L282 255 Z " />
<glyph glyph-name="Y" unicode="Y" horiz-adv-x="744" d="M787 498 Q766 450 744 403.5 Q722 357 699 309 Q678 262 657 216 Q636 170 613 123 Q603 105 594 86.5 Q585 68 575 49 Q582 53 589.5 55.5 Q597 58 604 60 Q610 62 611 56 Q612 50 607 48 L568 35 L520 -51 Q497 -89 471 -124 Q445 -159 411 -186 Q377 -213 334.5 -229.5 Q292 -246 247 -241 Q230 -239 215 -233 Q200 -227 189 -215 Q169 -192 177 -163 Q183 -148 195.5 -135 Q208 -122 219 -111 Q235 -98 252 -87 Q269 -76 286 -65 Q351 -28 419.5 -3.5 Q488 21 559 44 Q601 124 638.5 204 Q676 284 713 365 L797 548 Q805 565 812.5 581.5 Q820 598 828 615 Q823 607 818.5 599 Q814 591 809 583 Q794 559 779.5 535.5 Q765 512 749 489 Q720 444 690 401.5 Q660 359 627 317 Q595 275 561.5 236 Q528 197 493 160 Q459 125 424 92 Q389 59 351 30 Q331 15 311 1.5 Q291 -12 269 -23 Q250 -34 229.5 -43 Q209 -52 187 -56 Q170 -59 153 -58 Q136 -57 120 -49 Q105 -41 94 -30 Q83 -19 74 -5 Q65 12 60 31 Q55 50 53 70 Q49 122 56 171 Q65 224 83 273.5 Q101 323 124 371 Q146 419 171.5 465 Q197 511 226 557 Q255 602 286 644.5 Q317 687 349 730 Q353 735 357.5 732 Q362 729 359 725 L329 683 Q266 599 212.5 511.5 Q159 424 117 329 Q97 281 82 231.5 Q67 182 64 129 Q63 110 63.5 89.5 Q64 69 68 49 Q72 29 80 10.5 Q88 -8 103 -23 Q127 -45 158 -47 Q179 -49 198 -42 Q217 -35 235 -27 Q278 -7 316.5 19.5 Q355 46 390 78 Q426 109 459.5 142.5 Q493 176 525 211 Q560 250 592.5 290 Q625 330 655 372 Q686 415 715.5 458.5 Q745 502 772 546 Q787 569 801 592.5 Q815 616 829 639 Q840 659 850.5 679.5 Q861 700 877 717 Q879 720 883 718.5 Q887 717 886 713 Q886 704 882.5 694.5 Q879 685 874 677 L853 640 Q847 629 842 617.5 Q837 606 832 594 L787 498 Z M551 30 Q477 4 404.5 -22.5 Q332 -49 266 -91 Q250 -102 235.5 -113 Q221 -124 208 -137 Q198 -148 191 -160.5 Q184 -173 188 -187 Q191 -201 201.5 -210 Q212 -219 224 -224 Q243 -231 263.5 -230.5 Q284 -230 304 -226 Q349 -216 384 -192 Q419 -168 447 -135 Q475 -102 498 -64.5 Q521 -27 541 10 L551 30 Z " />
<glyph glyph-name="Z" unicode="Z" horiz-adv-x="571" d="M761 16 Q766 16 766 10.5 Q766 5 761 5 Q712 7 664 7.5 Q616 8 567 6 Q481 2 396.5 -9 Q312 -20 228 -40 Q189 -50 150.5 -61.5 Q112 -73 74 -87 Q43 -111 10.5 -132.5 Q-22 -154 -57 -169 Q-62 -171 -64.5 -168 Q-67 -165 -64 -160 Q-37 -131 -2.5 -111.5 Q32 -92 69 -77 Q83 -66 95.5 -54.5 Q108 -43 122 -32 Q194 32 260 103 Q293 138 325.5 174 Q358 210 390 246 Q422 282 453.5 318 Q485 354 516 391 Q579 465 634 542 Q647 561 660 580.5 Q673 600 683 621 Q687 629 690 639.5 Q693 650 693.5 661 Q694 672 691 682 Q688 692 680 699 Q666 711 642 714 Q618 717 591 714.5 Q564 712 538.5 706.5 Q513 701 496 695 Q452 680 410.5 660.5 Q369 641 327 620 Q244 578 166.5 528.5 Q89 479 17 422 Q13 418 9 422 Q5 426 10 430 L45 457 Q197 572 367 653 Q388 663 409.5 672 Q431 681 452 690 Q475 699 507 708.5 Q539 718 571.5 723.5 Q604 729 634 727 Q664 725 683 711 Q701 698 704 677 Q707 655 699.5 634 Q692 613 681 594 Q669 573 655.5 553.5 Q642 534 628 515 Q599 474 567.5 436 Q536 398 504 360 Q438 284 374 212 Q341 175 308 138.5 Q275 102 240 67 Q206 32 171.5 -1 Q137 -34 99 -66 Q175 -40 254 -23 Q333 -6 413 4 Q500 15 586.5 17.5 Q673 20 761 16 Z M-23 -140 Q-9 -132 4.5 -123.5 Q18 -115 32 -106 Q-1 -121 -30 -144 L-23 -140 Z " />
<glyph glyph-name="b" unicode="b" horiz-adv-x="92" d="M119 508 Q120 505 118 499 Q103 454 78 412 Q53 370 25 324 L17 305 Q17 301 13 295 Q18 300 22 304 Q26 308 31 311 Q37 316 44 317.5 Q51 319 55 311 Q57 306 56.5 300.5 Q56 295 54 290 Q63 293 72.5 295.5 Q82 298 91 300 Q96 301 97.5 295.5 Q99 290 94 289 Q82 286 70.5 283.5 Q59 281 48 276 Q45 271 41.5 266.5 Q38 262 34 257 Q30 252 24.5 246.5 Q19 241 12 242 Q4 243 4 249.5 Q4 256 6 261 Q10 267 15.5 271 Q21 275 27 279 L40 285 L43 293 L46 303 Q46 306 45 306 Q44 307 41.5 305.5 Q39 304 38 303 Q33 300 29.5 296.5 Q26 293 21 288 Q7 271 -4 249 Q-7 245 -12 246.5 Q-17 248 -15 253 Q-6 289 21.5 351.5 Q49 414 88 493 Q90 496 93 500.5 Q96 505 99.5 508.5 Q103 512 107 514 Q111 516 115 513 Q119 511 119 508 Z M16 254 Q19 256 22 259.5 Q25 263 28 267 L22 262 Q18 259 16 254 Z M98 476 Q100 482 102.5 488.5 Q105 495 107 501 Q89 475 76 444.5 Q63 414 48 383 Q48 382 47 382 Q50 386 54 394 Q66 414 77.5 434 Q89 454 98 476 Z " />
<glyph glyph-name="c" unicode="c" horiz-adv-x="82" d="M81 299 Q85 302 88.5 298.5 Q92 295 88 291 Q77 282 65.5 272.5 Q54 263 45 258 Q36 253 24 250 Q12 247 2 251 Q-10 256 -11 266 Q-12 276 -8 286 Q-3 296 4.5 305.5 Q12 315 23 318 Q34 321 39 312 Q41 307 39 301.5 Q37 296 35 292 Q32 287 27.5 289.5 Q23 292 25 297 Q26 299 28.5 303 Q31 307 29 308 Q27 309 19.5 302.5 Q12 296 6 287 Q0 278 -1 270 Q-2 262 9 261 Q19 259 28 262.5 Q37 266 46 271 Q55 276 64 284 Q73 292 81 299 Z " />
<glyph glyph-name="d" unicode="d" horiz-adv-x="112" d="M162 515 Q168 511 164 498 Q162 493 159.5 486 Q157 479 154 471 Q144 446 133 423 Q122 400 108 375 Q99 358 89.5 342.5 Q80 327 69 311 Q63 296 59 280 Q57 274 58.5 268.5 Q60 263 66 262 Q70 262 77 266 Q84 270 91 276 Q98 282 103.5 288 Q109 294 112 298 Q116 303 120 299 Q124 295 120 291 Q114 283 107 276 Q100 269 92 262 Q85 256 77.5 252.5 Q70 249 61 251 Q51 254 48.5 263 Q46 272 48 281 Q40 274 32.5 266.5 Q25 259 14 257 Q2 254 -6.5 260 Q-15 266 -12 279 Q-10 288 -2 297 Q6 306 15.5 311 Q25 316 34 315 Q43 314 47 302 Q49 297 43.5 296 Q38 295 36 300 Q35 305 29 304 Q23 303 19 301 Q12 297 6.5 290.5 Q1 284 -1 276 Q-3 270 -0.5 268 Q2 266 5.5 266 Q9 266 13 267.5 Q17 269 20 271 Q26 275 31.5 280 Q37 285 42 290 Q48 298 51 303.5 Q54 309 59 316 L84 385 Q95 412 106 438 Q117 464 133 491 Q137 497 140.5 502.5 Q144 508 149 513 Q155 519 162 515 Z M101 385 Q114 408 124.5 432.5 Q135 457 146 481 L154 502 Q146 494 139.5 482 Q133 470 128 460 Q105 413 86 359 L101 385 Z " />
<glyph glyph-name="e" unicode="e" horiz-adv-x="73" d="M72 298 Q77 303 80.5 298.5 Q84 294 80 291 Q68 281 54 271.5 Q40 262 26 254 Q16 249 5 249.5 Q-6 250 -11 263 Q-14 274 -8.5 285.5 Q-3 297 4 304 Q13 313 24 315 Q29 316 34 314.5 Q39 313 40 307 Q42 302 38.5 297 Q35 292 31 289 Q21 281 11 278 Q6 276 4.5 281.5 Q3 287 8 289 Q14 291 19.5 294 Q25 297 29 304 Q13 302 6 290 Q-1 278 -1 270 Q-1 262 3.5 261 Q8 260 14 262 Q20 264 26 267.5 Q32 271 36 273 Q47 280 55 285.5 Q63 291 72 298 Z " />
<glyph glyph-name="f" unicode="f" horiz-adv-x="68" d="M70 395 Q59 377 48 359 Q37 341 25 324 L-8 244 Q7 262 27.5 274.5 Q48 287 68 299 Q72 302 75 297.5 Q78 293 73 290 Q68 286 62.5 283 Q57 280 52 277 Q41 269 30 262 Q19 255 9 245 Q-11 225 -15 200 Q-17 186 -18.5 173 Q-20 160 -22 146 Q-24 135 -26.5 121.5 Q-29 108 -33 97 Q-37 86 -41.5 75.5 Q-46 65 -54 55 Q-56 53 -58 50 Q-60 47 -63 44.5 Q-66 42 -69.5 42 Q-73 42 -77 46 Q-82 51 -79.5 64 Q-77 77 -75 85 Q-72 99 -68 111.5 Q-64 124 -59 138 Q-52 159 -44 184 Q-36 209 -22 245.5 Q-8 282 14 334.5 Q36 387 71 462 Q76 473 82.5 487 Q89 501 96 509 Q99 512 102 514.5 Q105 517 110 516 Q116 515 118 507 Q120 498 116.5 488 Q113 478 110 470 Q103 450 92 431.5 Q81 413 70 395 Z M50 383 Q65 407 80 434 Q86 445 91 455.5 Q96 466 101 480 Q103 487 105 492.5 Q107 498 107 503 Q104 500 100.5 493.5 Q97 487 93 479 L50 383 Z M-32 150 Q-30 161 -29 171.5 Q-28 182 -27 195 L-33 177 Q-43 151 -52 124.5 Q-61 98 -67 69 Q-68 65 -68.5 61 Q-69 57 -68 55 L-66 57 Q-51 77 -43.5 100.5 Q-36 124 -32 150 Z " />
<glyph glyph-name="g" unicode="g" horiz-adv-x="108" d="M108 299 Q113 302 115.5 297 Q118 292 114 289 Q100 280 87 269.5 Q74 259 62 248 Q54 240 46 231.5 Q38 223 30 214 Q23 192 16 171 Q9 150 0 130 Q-14 89 -41 52 Q-45 47 -50 43 Q-55 39 -60 39 Q-66 39 -66 45 Q-66 59 -59 78.5 Q-52 98 -46 111 Q-33 140 -16.5 167.5 Q0 195 21 220 L39 274 L28 265 Q16 256 4 259 Q-9 263 -9 275 Q-9 282 -4.5 291.5 Q0 301 7 308.5 Q14 316 23 319.5 Q32 323 40 318 Q51 309 45 299 Q42 294 37.5 296.5 Q33 299 35 304 Q37 306 34 309 Q28 311 21.5 306.5 Q15 302 10 295 Q5 288 3 280.5 Q1 273 5 270 Q8 268 12.5 269 Q17 270 21 272.5 Q25 275 28.5 278.5 Q32 282 34 284 Q47 296 55 311 Q58 316 62.5 313.5 Q67 311 65 306 Q57 290 51.5 273.5 Q46 257 39 240 Q72 274 108 299 Z M-25 100 Q-14 121 -6 143 Q2 165 10 188 Q4 180 -1.5 171.5 Q-7 163 -12 155 Q-20 142 -26 129 Q-32 116 -38 102 Q-43 91 -48 78.5 Q-53 66 -55 53 Q-50 56 -46.5 61.5 Q-43 67 -41 71 L-25 100 Z " />
<glyph glyph-name="h" unicode="h" horiz-adv-x="78" d="M63 399 Q53 380 42 361 Q31 342 20 323 Q16 308 9 289 Q11 293 13 296 Q15 299 18 303 Q22 308 25.5 312 Q29 316 34 317 Q39 318 42.5 315 Q46 312 46 307 Q46 301 44.5 296 Q43 291 41 285 Q39 280 37 272 Q35 264 36 264 L47 273 Q57 281 62 285.5 Q67 290 77 298 Q82 303 85.5 298 Q89 293 85 290 L47 258 Q43 255 39 253 Q35 251 30 253 Q25 256 24 261 Q23 266 25 271 Q28 281 30 289 Q32 297 35 306 Q31 304 27 297 Q19 285 11.5 273 Q4 261 -4 250 Q-6 246 -12 247.5 Q-18 249 -16 254 Q6 315 20.5 357.5 Q35 400 46.5 429.5 Q58 459 68 478 Q78 497 90 511 Q93 515 97.5 516 Q102 517 105 513 Q109 509 108 504 Q107 499 106 495 Q98 469 87 445.5 Q76 422 63 399 Z M62 437 Q56 423 50.5 408.5 Q45 394 40 380 Q44 386 48 394 Q52 402 56 409 Q67 430 79 454 Q91 478 96 501 Q83 485 76.5 469 Q70 453 62 437 Z " />
<glyph glyph-name="i" unicode="i" horiz-adv-x="51" d="M50 298 Q55 303 58.5 298.5 Q62 294 58 290 Q50 283 43 276.5 Q36 270 28 264 Q23 259 14 253 Q5 247 -1 247 Q-10 247 -11.5 255 Q-13 263 -11 270 L4 311 Q6 316 12 314.5 Q18 313 16 308 L4 277 L0 267 Q-1 265 -1.5 262 Q-2 259 0 258 Q1 258 4.5 260.5 Q8 263 9 264 Q21 272 30 280.5 Q39 289 50 298 Z M19 324 Q14 324 14 330 Q14 336 20 336 Q26 336 26 330 Q26 322 19 324 Z " />
<glyph glyph-name="j" unicode="j" horiz-adv-x="45" d="M44 298 Q49 303 52 298.5 Q55 294 50 289 Q30 270 13.5 254 Q-3 238 -21 219 Q-35 187 -51 156 Q-59 139 -67.5 123 Q-76 107 -86 90 Q-94 76 -103.5 63 Q-113 50 -127 40 Q-134 35 -141 39 Q-144 41 -144 49 Q-143 66 -135 83 Q-129 97 -120.5 111 Q-112 125 -103 139 Q-87 162 -68.5 183.5 Q-50 205 -30 226 Q-11 271 6 316 Q8 321 13.5 319.5 Q19 318 17 313 Q11 296 4.5 280 Q-2 264 -9 248 Q5 261 17.5 273 Q30 285 44 298 Z M-80 123 Q-70 140 -61.5 158.5 Q-53 177 -44 194 Q-58 180 -70.5 165 Q-83 150 -94 133 Q-112 107 -123 82 Q-127 74 -131 62.5 Q-135 51 -133 50 Q-132 50 -128.5 53 Q-125 56 -121.5 60 Q-118 64 -115 67.5 Q-112 71 -111 73 Q-99 89 -93.5 98.5 Q-88 108 -80 123 Z M19 328 Q13 329 13.5 335.5 Q14 342 21 341 Q27 340 26.5 333.5 Q26 327 19 328 Z " />
<glyph glyph-name="k" unicode="k" horiz-adv-x="86" d="M128 539 Q129 533 128 528 Q125 514 119 502 Q101 457 76.5 415.5 Q52 374 27 332 Q26 330 26 329 Q26 328 25 326 L24 322 Q23 322 23 321 L22 317 Q20 313 19 309 Q18 305 16 300 Q20 306 25 311.5 Q30 317 37 318 Q46 322 50 312 Q53 304 47 295 Q43 288 36.5 283 Q30 278 22 276 Q24 270 27 267 Q33 260 44 264 Q50 266 54.5 270 Q59 274 64 278 Q69 283 74.5 288 Q80 293 85 298 Q90 302 94 298 Q98 294 94 289 Q80 275 67 265 Q61 260 54.5 256 Q48 252 40 251 Q28 249 21 256 Q14 263 11 274 Q6 266 1 259.5 Q-4 253 -9 245 Q-11 240 -16.5 242.5 Q-22 245 -20 250 L1 301 Q4 307 8 317 Q12 327 16 336 Q16 337 17 340 Q18 343 19 345 Q27 365 34.5 385.5 Q42 406 50 426 Q60 451 70 475 Q80 499 95 522 Q99 528 107 538 Q115 548 123 544 Q125 543 127 541 L127 540 L128 539 Z M30 298 Q28 296 26 293.5 Q24 291 22 289 Q32 292 37 302 Q37 304 38 305 Q32 301 30 298 Z M116 529 L115 529 Q107 521 101 511 Q95 501 90 491 Q78 469 69.5 445 Q61 421 52 398 L52 396 Q54 399 55.5 402.5 Q57 406 59 409 Q73 432 84.5 455 Q96 478 106 502 Q109 508 111.5 514.5 Q114 521 116 528 L116 529 Z " />
<glyph glyph-name="l" unicode="l" horiz-adv-x="66" d="M123 534 Q125 529 122 520 Q119 508 113 496 Q91 441 60 383 Q50 365 39 347 Q28 329 17 312 Q15 309 12 299.5 Q9 290 7.5 280.5 Q6 271 7 264 Q8 257 16 257 L17 257 L18 257 Q25 258 30 263 Q35 268 40 273 Q53 285 65 298 Q69 303 73.5 298.5 Q78 294 74 289 Q59 272 42 257 Q30 245 17 244 Q6 244 1.5 249.5 Q-3 255 -5 262 Q-6 269 -4.5 278 Q-3 287 -1 297 Q1 302 2 306.5 Q3 311 4 313 Q5 316 5 317 L23 365 Q25 373 28 379.5 Q31 386 34 394 Q45 424 58 454.5 Q71 485 88 512 Q92 519 96 524.5 Q100 530 105 535 Q111 541 115 540 Q117 540 121 538 Q121 537 122 536 Q122 535 123 534 Z M102 501 Q104 506 106 511.5 Q108 517 110 522 Q108 520 107 518 Q105 516 102.5 512.5 Q100 509 98 506 Q90 494 83 478 Q69 451 58.5 423.5 Q48 396 37 368 Q36 367 36 365 Q45 380 52 394 Q82 448 102 501 Z " />
<glyph glyph-name="m" unicode="m" horiz-adv-x="101" d="M100 297 Q106 303 109.5 298.5 Q113 294 108 289 Q98 278 92.5 272.5 Q87 267 76 258 Q72 255 66.5 252 Q61 249 56 250 Q47 251 47 262 Q49 272 53 281 Q57 290 59 300 L48 288 L32 268 Q29 264 24.5 265.5 Q20 267 22 272 L28 291 L32 301 Q18 285 10.5 273 Q3 261 -8 250 Q-12 247 -16.5 248.5 Q-21 250 -19 254 L7 315 Q9 320 14 318 Q19 316 17 311 L8 289 Q13 297 19 304.5 Q25 312 35 317 Q37 318 39.5 317.5 Q42 317 43 315 Q45 310 44.5 306.5 Q44 303 43 299 Q48 306 55 311 Q63 319 69 313 Q73 309 71.5 300.5 Q70 292 66.5 283.5 Q63 275 60 268.5 Q57 262 58 261 Q59 260 63 263 Q67 266 68 267 Q74 272 77.5 275.5 Q81 279 84.5 282 Q88 285 91.5 288.5 Q95 292 100 297 Z " />
<glyph glyph-name="n" unicode="n" horiz-adv-x="74" d="M73 298 Q78 303 82 299 Q86 295 81 290 L48 257 Q46 255 42.5 252.5 Q39 250 36 250 Q30 250 27.5 254.5 Q25 259 27 264 L36 295 Q27 284 16.5 269.5 Q6 255 -2 250 Q-8 246 -12.5 250.5 Q-17 255 -15 261 Q-11 276 -6 288 Q-1 300 7 314 Q9 319 14.5 317 Q20 315 18 310 Q13 300 8.5 290 Q4 280 -1 266 L16 289 Q19 293 24.5 300 Q30 307 35 309 Q43 313 48 304 Q50 299 46.5 287.5 Q43 276 39 265 L46 272 L73 298 L73 298 Z " />
<glyph glyph-name="o" unicode="o" horiz-adv-x="75" d="M74 299 Q79 302 81.5 297 Q84 292 80 289 Q70 282 57 277.5 Q44 273 33 278 Q25 262 12 252 Q7 248 -0.5 249.5 Q-8 251 -10 260 Q-12 274 -4.5 291 Q3 308 15 316 Q22 320 31 318.5 Q40 317 42 308 Q43 299 38 288 Q47 284 57 289 Q67 294 74 299 Z M28 306 Q26 301 29 296 Q30 296 31 299 Q32 302 32 304 Q30 304 28 306 Z M2 260 Q3 258 7 261 Q11 264 15 268.5 Q19 273 22 277.5 Q25 282 24 284 L20 290 Q16 298 16 303 Q13 300 9.5 294.5 Q6 289 3.5 282 Q1 275 0 269 Q-1 263 2 260 Z " />
<glyph glyph-name="p" unicode="p" horiz-adv-x="95" d="M94 300 Q99 302 100.5 296.5 Q102 291 95 289 L47 272 Q44 269 39.5 263 Q35 257 29.5 252 Q24 247 18 244 Q12 241 6 243 Q1 246 -1 253 L-19 220 Q-43 174 -62 132.5 Q-81 91 -101 44 Q-103 40 -108 42 Q-113 44 -109 53 Q-103 68 -96.5 82 Q-90 96 -77 125 L5 311 Q7 316 12 313 Q17 310 15 305 Q9 293 2 277 Q10 287 17.5 300 Q25 313 38 318 Q43 320 49.5 319.5 Q56 319 59 314 Q63 307 60 300 Q57 293 55 287 Q65 291 74.5 294 Q84 297 94 300 Z M10 270 Q18 273 28.5 277 Q39 281 40 281 Q40 282 42 287 Q44 292 45.5 297 Q47 302 47.5 306 Q48 310 45 309 Q37 306 31.5 299.5 Q26 293 21 286 L10 270 Z M10 254 Q12 251 18.5 256.5 Q25 262 27 264 Q24 263 16 260.5 Q8 258 10 254 Z " />
<glyph glyph-name="q" unicode="q" horiz-adv-x="92" d="M91 299 Q95 302 99 298.5 Q103 295 99 291 Q83 277 67.5 263.5 Q52 250 39 233 Q30 220 23 206.5 Q16 193 11 179 Q7 168 4.5 155.5 Q2 143 -1 132 Q-6 115 -11.5 99 Q-17 83 -27 69 Q-31 64 -35 58.5 Q-39 53 -44 48 Q-47 45 -51 42 Q-55 39 -60 41 Q-64 41 -64 46 Q-60 74 -47 102 L26 264 L25 263 Q20 259 15 255.5 Q10 252 4 252 Q-1 251 -5.5 253.5 Q-10 256 -12 261 Q-15 267 -13 274 Q-11 281 -9 286 Q-2 298 5 305 Q13 313 25.5 315.5 Q38 318 45 307 Q47 309 47 310 Q49 315 54 312.5 Q59 310 57 305 L31 247 Q28 242 25.5 236 Q23 230 21 225 Q25 231 29.5 237.5 Q34 244 39 249 Q50 263 63.5 275 Q77 287 91 299 Z M28 281 Q32 285 35 289 Q38 293 40 297 Q39 298 38.5 298 Q38 298 37 300 Q32 309 22.5 303 Q13 297 8 292 Q7 290 4.5 286 Q2 282 -0.5 277 Q-3 272 -3 268 Q-3 264 0 263 Q5 261 9 264 Q13 267 16 269 L28 281 Z M-43 65 Q-38 72 -33.5 79.5 Q-29 87 -25 95 Q-16 115 -11.5 135.5 Q-7 156 -1 176 L-15 145 Q-21 133 -26.5 120.5 Q-32 108 -38 95 Q-42 86 -45.5 76.5 Q-49 67 -51 56 L-43 65 Z " />
<glyph glyph-name="r" unicode="r" horiz-adv-x="66" d="M65 298 Q70 303 73.5 298.5 Q77 294 73 290 L55 270 Q49 264 41.5 254 Q34 244 23 246 Q11 248 11 258 Q11 268 14 276 Q16 282 12 285 L3 291 Q1 292 -1 294 Q-3 296 -2 298 Q-5 305 -4 312 Q0 325 12 325 Q18 325 20.5 321 Q23 317 22.5 312.5 Q22 308 19 303.5 Q16 299 12 298 Q16 294 20 292 Q24 290 25 284 Q26 279 25 275.5 Q24 272 22 267 Q21 265 21 261.5 Q21 258 25 257 Q28 256 32 260.5 Q36 265 38 267 Q45 275 51 282.5 Q57 290 65 298 Z M7 308 Q8 309 10.5 311 Q13 313 12 314 Q7 314 7 308 Z " />
<glyph glyph-name="s" unicode="s" horiz-adv-x="71" d="M70 299 Q75 302 77.5 297 Q80 292 75 290 L30 263 Q33 248 28 233 Q24 221 13 213.5 Q2 206 -9 218 Q-15 224 -14.5 230.5 Q-14 237 -10 243 Q-6 249 -1 253.5 Q4 258 9 261 L18 267 Q17 274 12.5 280 Q8 286 3.5 291.5 Q-1 297 -4 303.5 Q-7 310 -5 318 Q-3 324 2 328 Q7 332 13 331 Q25 329 22 316 Q20 307 11 300 Q13 296 15.5 293 Q18 290 20 288 Q25 281 28 274 Q38 281 48.5 287 Q59 293 70 299 Z M6 317 Q4 313 6 310 Q11 315 12 320 Q7 320 6 317 Z M18 236 Q21 246 20 256 L9 248 Q4 245 -1 237.5 Q-6 230 -1 225 Q5 219 10.5 225 Q16 231 18 236 Z " />
<glyph glyph-name="t" unicode="t" horiz-adv-x="62" d="M224 469 Q229 468 229 462.5 Q229 457 224 458 Q188 460 152 460.5 Q116 461 80 460 Q63 424 47.5 387.5 Q32 351 18 314 L6 282 Q4 278 4 269 Q4 260 14 260 Q22 260 29 265.5 Q36 271 41 276 L61 297 Q66 302 70 299 Q74 296 70 291 Q63 283 56 275 Q49 267 41 261 Q34 256 26 251.5 Q18 247 9 249 Q1 251 -2.5 256.5 Q-6 262 -7 269 Q-8 275 -4 286.5 Q0 298 2 304 Q9 323 16 341 Q23 359 31 377 L68 460 L7 457 Q2 457 2 462.5 Q2 468 7 468 Q24 470 40 470 Q56 470 73 471 L96 517 Q98 522 102.5 519 Q107 516 105 511 L85 471 Q120 472 154.5 471.5 Q189 471 224 469 Z " />
<glyph glyph-name="u" unicode="u" horiz-adv-x="70" d="M69 297 Q72 302 76.5 299.5 Q81 297 78 292 Q76 288 71.5 280 Q67 272 60.5 265 Q54 258 47 254 Q40 250 34 253 Q25 259 27 270 Q22 265 17.5 259.5 Q13 254 6 253 Q-3 253 -6 259 Q-8 264 -8 270 Q-8 276 -6 282 Q-3 293 -1 299 Q1 305 6 315 Q8 320 12.5 317 Q17 314 15 309 Q11 301 10.5 299.5 Q10 298 6 285 Q5 283 4 279 Q3 275 3 274 Q1 265 5 266 Q9 267 12 270 Q21 279 26.5 289 Q32 299 37 310 L39 315 Q41 320 46 317 Q51 314 49 309 L47 306 Q45 301 43.5 295.5 Q42 290 40 285 Q39 283 37 273.5 Q35 264 40 263 Q43 262 47.5 266.5 Q52 271 56.5 277.5 Q61 284 64.5 289.5 Q68 295 69 297 Z " />
<glyph glyph-name="v" unicode="v" horiz-adv-x="75" d="M74 299 Q79 302 81.5 297.5 Q84 293 80 289 Q71 282 59 279.5 Q47 277 37 285 L35 287 Q27 275 15 263 Q10 258 4 255 Q-4 253 -5 260.5 Q-6 268 -5 273 Q-3 284 -1 295 Q1 306 3 317 Q5 322 10 320.5 Q15 319 14 314 L5 269 L17 281 Q20 285 23 288.5 Q26 292 28 297 Q27 298 27 299 Q27 300 26 302 Q25 307 26 312 Q27 317 32 320 Q37 322 41.5 319 Q46 316 47 311 Q47 307 45 303.5 Q43 300 41 296 Q43 294 47 292 Q54 289 61.5 291.5 Q69 294 74 299 Z " />
<glyph glyph-name="w" unicode="w" horiz-adv-x="94" d="M93 298 Q98 302 101.5 298 Q105 294 101 290 Q93 282 80 279 Q67 276 56 281 L47 269 Q43 264 38.5 258.5 Q34 253 29 250 Q20 246 17 252.5 Q14 259 13 269 Q7 257 -1 249 Q-3 247 -6 247 Q-9 247 -10 249 Q-13 253 -11.5 262.5 Q-10 272 -7 282 Q-4 292 0 301 Q4 310 5 315 Q7 320 12.5 318.5 Q18 317 16 312 Q14 304 11.5 297 Q9 290 6 282 L3 273 L16 293 Q18 296 22 295.5 Q26 295 26 290 Q25 283 24.5 276.5 Q24 270 25 261 Q27 263 30 266.5 Q33 270 35 272 Q39 277 41.5 279.5 Q44 282 47 287 Q40 295 42 305.5 Q44 316 55 320 Q59 322 65 321.5 Q71 321 73 315 Q74 312 73 308 Q72 304 70 302 Q68 299 66.5 297 Q65 295 62 290 Q70 288 79 290.5 Q88 293 93 298 Z M56 309 Q50 305 54 297 Q58 302 61 310 Q60 310 59.5 309.5 Q59 309 58 309 L56 309 Z " />
<glyph glyph-name="x" unicode="x" horiz-adv-x="80" d="M79 298 Q83 303 87 299 Q91 295 88 291 Q80 282 72.5 272 Q65 262 56 253 Q54 251 50.5 247 Q47 243 42.5 239.5 Q38 236 34 235 Q30 234 27 239 Q26 240 26 246 Q26 252 26 259 Q26 266 26.5 272.5 Q27 279 27 282 L7 260 Q3 256 -1 260 Q-5 264 -1 268 L26 297 Q26 304 24 312 Q22 316 18.5 309.5 Q15 303 8 292 Q4 288 0.5 291.5 Q-3 295 0 299 Q2 302 5.5 307 Q9 312 13 316.5 Q17 321 21.5 322.5 Q26 324 31 320 Q35 316 35 307 L45 319 Q49 324 52.5 320 Q56 316 53 312 Q45 301 37 293 L37 252 L37 249 L79 298 L79 298 Z " />
<glyph glyph-name="y" unicode="y" horiz-adv-x="79" d="M78 299 Q82 302 86 298.5 Q90 295 86 291 Q72 281 59.5 270 Q47 259 36 248 Q29 241 23 235 Q17 229 12 222 L-26 132 Q-32 118 -38 104.5 Q-44 91 -51 78 Q-56 67 -63 57 Q-70 47 -81 42 Q-89 38 -89 47 Q-91 57 -88 66 Q-85 75 -82 84 L-70 114 Q-56 146 -38 174 Q-20 202 2 228 L12 251 L6 249 Q-2 248 -5.5 254.5 Q-9 261 -8 269 Q-6 279 -3 288.5 Q0 298 2 307 Q4 312 9.5 311 Q15 310 13 305 L4 274 Q3 272 2.5 264.5 Q2 257 9 262 Q14 267 17.5 273.5 Q21 280 24 285 L37 311 Q39 316 44 314.5 Q49 313 47 308 Q41 294 35 279.5 Q29 265 24 251 Q36 264 50 276 Q64 288 78 299 Z M-54 96 Q-43 119 -33 143.5 Q-23 168 -13 192 Q-19 184 -24.5 175 Q-30 166 -35 158 Q-43 145 -49.5 132.5 Q-56 120 -61 106 Q-67 94 -72 79 Q-74 74 -75.5 68.5 Q-77 63 -78 57 Q-75 59 -72.5 62.5 Q-70 66 -68 69 L-54 96 Z " />
<glyph glyph-name="z" unicode="z" horiz-adv-x="70" d="M69 298 Q73 302 77 299 Q81 296 77 292 Q65 280 54.5 268.5 Q44 257 33 245 Q30 242 28 239 Q26 236 23 233 Q20 222 16 210 Q12 198 7 186 Q-4 156 -17 130 Q-24 116 -31.5 102 Q-39 88 -47 75 Q-52 68 -55.5 61.5 Q-59 55 -64 50 Q-75 39 -85 44 Q-88 45 -88 51 Q-83 66 -77 81.5 Q-71 97 -64 112 Q-35 178 13 238 Q15 243 16 246.5 Q17 250 17 255 Q17 261 12 264 Q8 264 5 262 Q1 259 -1.5 263 Q-4 267 -1 270 L6 276 Q14 282 22.5 293.5 Q31 305 29 305 Q23 304 16 298.5 Q9 293 4 290 Q-1 287 -3.5 291 Q-6 295 -2 299 Q7 304 19 312 Q31 320 38 315 Q43 312 41.5 306 Q40 300 35.5 293.5 Q31 287 25.5 281.5 Q20 276 18 273 Q26 268 28 255 Q38 267 48 277 Q58 287 69 298 Z M3 206 Q-47 138 -75 55 Q-71 58 -67.5 64 Q-64 70 -62 72 Q-54 84 -48 95 L3 206 Z " />
<glyph glyph-name="C" unicode="C" horiz-adv-x="547" d="M-21 16 Q-32 -11 -43 -38.5 Q-54 -66 -61 -94 Q-67 -117 -68.5 -142 Q-70 -167 -57 -188 Q-47 -203 -31 -211.5 Q-15 -220 2 -221 Q24 -223 43 -215.5 Q62 -208 80 -197 Q102 -183 121.5 -166 Q141 -149 160 -131 Q178 -114 195.5 -95.5 Q213 -77 231 -59 L314 23 L481 182 Q485 186 489 182.5 Q493 179 489 175 L445 132 Q402 91 359 51 Q316 11 274 -31 L196 -111 Q176 -131 157 -149.5 Q138 -168 116 -185 Q98 -199 77 -212 Q56 -225 33 -230 Q14 -234 -5 -232 Q-24 -230 -41 -219 Q-64 -205 -72 -183 Q-80 -161 -79 -136 Q-78 -111 -70.5 -86 Q-63 -61 -55 -41 Q-33 18 -8 75 Q17 132 45 189 Q98 301 165 409 Q193 454 220.5 498.5 Q248 543 280 585 Q296 606 313 626 Q330 646 350 663 Q368 680 387.5 695 Q407 710 430 720 Q450 730 472 734.5 Q494 739 516 734 Q539 730 557 715 Q575 700 584 679 Q593 658 594 635.5 Q595 613 591 590.5 Q587 568 580 545.5 Q573 523 566 502 Q564 497 559 499 Q554 501 556 506 L568 544 Q574 564 579 587 Q584 610 583.5 632.5 Q583 655 574.5 675 Q566 695 546 710 Q528 723 506.5 724.5 Q485 726 464 721 Q441 715 421.5 703.5 Q402 692 385 678 Q344 646 312 607.5 Q280 569 251 526 Q237 505 224 483.5 Q211 462 197 440 Q183 416 168 392.5 Q153 369 139 344 Q109 292 81.5 238 Q54 184 29 129 Q16 101 3 73 Q-10 45 -21 16 Z " />
<glyph glyph-name="braceleft" unicode="&#x7b;" horiz-adv-x="87" d="M166 545 Q172 547 173.5 540.5 Q175 534 170 532 Q158 528 151 518 Q144 508 139 497 Q133 486 127 474 Q121 462 115 450 Q104 427 91 406 Q78 385 61 366 Q63 359 61 352 Q59 345 57 338 Q53 328 49.5 318.5 Q46 309 43 300 Q39 290 36 280.5 Q33 271 30 261 Q28 256 26.5 252 Q25 248 25 243 Q25 238 26 237 Q28 234 30 236 Q35 240 39 235.5 Q43 231 39 227 Q31 220 23 224 Q15 228 13 237 Q11 242 12 247 Q13 252 15 257 Q17 262 19 268 Q21 274 23 280 Q26 291 30 302 Q34 313 38 324 Q40 329 42 334.5 Q44 340 46 346 Q52 357 48 365 Q45 368 49 372 Q57 381 64.5 390 Q72 399 79 410 Q90 427 99.5 446 Q109 465 118 484 Q126 501 136.5 519 Q147 537 166 545 Z " />
<glyph glyph-name="braceright" unicode="&#x7d;" horiz-adv-x="77" d="M116 544 Q125 547 130 540 Q135 533 135 525 Q135 520 134 516 Q133 512 131 507 Q129 502 128 496.5 Q127 491 125 485 Q121 474 117 463 Q113 452 108 441 Q103 430 98 420 Q93 410 88 399 Q83 390 78.5 379.5 Q74 369 78 358 Q78 354 75 351 Q58 338 51.5 317.5 Q45 297 37 278 Q30 260 18 244 Q6 228 -14 223 Q-20 221 -21.5 227 Q-23 233 -17 235 Q3 240 13 257 Q23 274 29 291 Q35 309 42.5 327 Q50 345 65 358 Q63 370 67 381 Q71 392 76 403 Q82 415 88 427 Q94 439 99 451 Q104 464 109 477 Q114 490 117 504 Q119 509 120.5 514.5 Q122 520 122 525 Q122 526 122 528 Q122 530 121 531 Q120 532 120.5 532.5 Q121 533 119 532 Q114 530 112.5 536 Q111 542 116 544 Z " />
<glyph glyph-name="bracketleft" unicode="&#x5b;" horiz-adv-x="92" d="M172 545 Q178 545 178 538.5 Q178 532 172 532 L152 532 Q149 532 148 529 Q147 527 146 524.5 Q145 522 144 520 Q139 512 135.5 503 Q132 494 128 485 Q113 453 98.5 421 Q84 389 70 357 Q63 341 56.5 325.5 Q50 310 42 293 Q39 285 35.5 276.5 Q32 268 28 260 Q26 256 24.5 252.5 Q23 249 21 244 Q20 242 18 236 Q18 236 17 235 L25 235 L43 235 Q49 236 49 229.5 Q49 223 43 223 Q38 222 32 222 Q26 222 20 222 Q16 222 11.5 222 Q7 222 4 225 Q1 229 3.5 234 Q6 239 8 243 L17 267 Q34 306 51 345 Q68 384 86 423 Q94 443 103 462 Q112 481 121 500 Q123 505 125.5 510 Q128 515 130 520 Q132 525 134 529 Q136 533 138 538 Q142 545 152 545 L172 545 L172 545 Z " />
<glyph glyph-name="bracketright" unicode="&#x5d;" horiz-adv-x="81" d="M152 542 Q155 538 152.5 533 Q150 528 148 524 Q146 518 143.5 512 Q141 506 138 501 Q121 461 104 422 Q87 383 70 345 Q62 325 53 306 Q44 287 35 267 Q33 262 30.5 257 Q28 252 26 247 Q24 243 22 238.5 Q20 234 18 229 Q14 222 4 222 Q-1 222 -6 222.5 Q-11 223 -16 223 Q-22 222 -22 228.5 Q-22 235 -16 235 L4 235 Q7 235 8 238 Q9 240 10 242.5 Q11 245 12 247 Q16 255 20 264 Q24 273 28 282 Q57 344 86 410 Q93 426 99.5 442 Q106 458 114 474 Q117 482 120.5 490.5 Q124 499 128 507 Q130 511 131.5 515 Q133 519 135 523 Q136 525 136.5 527 Q137 529 138 531 Q138 531 139 532 L138 532 L130 532 L113 532 Q106 532 106.5 538 Q107 544 113 544 Q118 545 124 545 Q130 545 136 545 Q140 545 144.5 545 Q149 545 152 542 Z " />
<glyph glyph-name="parenleft" unicode="&#x28;" horiz-adv-x="80" d="M161 542 Q166 546 170 542 Q174 538 169 533 Q155 521 143 507.5 Q131 494 120 480 Q100 455 84 427 Q68 399 57 369 Q44 337 37 301.5 Q30 266 35 231 Q37 225 31 223 Q29 222 26 223.5 Q23 225 23 227 Q20 249 21 270.5 Q22 292 27 313 Q41 379 75.5 438 Q110 497 161 542 Z " />
<glyph glyph-name="parenright" unicode="&#x29;" horiz-adv-x="85" d="M118 539 Q118 545 124.5 545 Q131 545 130 539 Q130 499 121 462 Q107 395 73.5 334 Q40 273 -9 225 Q-14 220 -18.5 224.5 Q-23 229 -18 233 Q-4 247 8 261 Q20 275 31 290 Q71 344 93.5 407.5 Q116 471 118 539 Z " />
<glyph glyph-name="question" unicode="&#x3f;" horiz-adv-x="122" d="M184 543 Q194 539 197 530 Q200 521 198 511 Q196 502 192 493.5 Q188 485 184 477 Q179 469 173.5 460.5 Q168 452 162 444 Q150 428 137 413 Q124 398 110 384 Q84 355 60 323 Q36 291 27 251 Q25 245 19 247 Q13 249 15 255 Q24 293 49 329 Q69 359 94.5 385 Q120 411 143 440 Q155 454 165 470 Q175 486 182 503 Q184 508 186.5 517 Q189 526 182 530 Q174 535 165.5 531 Q157 527 151 522 Q146 518 142.5 523.5 Q139 529 144 533 Q153 539 163 543.5 Q173 548 184 543 Z M14 237 Q20 237 20 230.5 Q20 224 14 224 Q8 224 8 230.5 Q8 237 14 237 Z " />
<glyph glyph-name="exclam" unicode="&#x21;" horiz-adv-x="75" d="M12 237 Q18 237 18 231 Q18 225 12 225 Q6 225 6 231 Q6 237 12 237 Z M144 542 Q146 547 151.5 543.5 Q157 540 155 535 Q153 533 149 523.5 Q145 514 143 510 Q117 454 93.5 402.5 Q70 351 47 299 Q42 288 38 278.5 Q34 269 29 259 Q28 257 25.5 256 Q23 255 21 256 Q16 259 18 265 Q20 267 20.5 269.5 Q21 272 23 275 L49 335 Q66 372 82.5 408.5 Q99 445 116 482 Q125 500 130 511 Q135 522 137.5 528 Q140 534 141.5 537 Q143 540 144 542 Z " />
<glyph glyph-name="quotedbl" unicode="&#x22;" horiz-adv-x="108" d="M122 544 Q126 542 124 538 Q120 530 117 521 Q115 517 110 519 Q106 522 108 526 Q111 535 115 543 Q118 548 122 544 Z M129 543 Q131 547 135 544.5 Q139 542 137 538 L128 517 Q126 512 121.5 513 Q117 514 119 519 Q121 525 123.5 531 Q126 537 129 543 Z " />
<glyph glyph-name="quotesingle" unicode="&#x27;" horiz-adv-x="100" d="M112 539 Q114 544 118.5 541.5 Q123 539 121 534 Q116 524 113 515 Q111 510 106.5 512.5 Q102 515 104 520 Q106 525 108 529.5 Q110 534 112 539 Z " />
<glyph glyph-name="grave" unicode="&#x60;" horiz-adv-x="84" d="M103 517 Q105 512 100 510.5 Q95 509 93 514 Q91 520 88.5 526 Q86 532 84 539 Q82 544 87 545 Q92 546 94 541 Q96 535 98 529 Q100 523 103 517 Z " />
<glyph glyph-name="asciitilde" unicode="&#x7e;" horiz-adv-x="103" d="M76 296 Q79 301 84.5 298 Q90 295 87 290 Q81 276 70 267 Q65 262 58.5 258 Q52 254 46 259 Q41 264 41.5 271.5 Q42 279 42 285 L42 287 Q41 285 39.5 284.5 Q38 284 37 282 Q34 280 32 277 Q32 277 29 274 Q29 267 23 267 Q18 266 16 269.5 Q14 273 16 277 Q18 281 21 284 Q24 287 27 290 Q32 295 39.5 299 Q47 303 52 295 Q56 290 54 281 L54 272 Q54 272 55 270 L55 271 Q57 273 58.5 273.5 Q60 274 62 276 Q64 278 64.5 279 Q65 280 67 282 Q73 288 76 296 Z " />
<glyph glyph-name="less" unicode="&#x3c;" horiz-adv-x="138" d="M118 312 Q123 314 124.5 309 Q126 304 121 302 Q98 294 76.5 287 Q55 280 33 272 Q49 264 64.5 257.5 Q80 251 95 243 Q100 241 97.5 236.5 Q95 232 90 234 Q72 243 54 251.5 Q36 260 17 268 Q14 270 15 273 Q16 276 18 277 Q44 286 68.5 294.5 Q93 303 118 312 Z " />
<glyph glyph-name="greater" unicode="&#x3e;" horiz-adv-x="146" d="M111 281 Q113 279 114 276 Q115 273 112 272 Q84 259 56 248.5 Q28 238 -1 229 Q-6 227 -7.5 232 Q-9 237 -4 239 Q22 247 47 256 Q72 265 97 276 Q80 282 64 288.5 Q48 295 31 302 Q26 304 27 308.5 Q28 313 33 311 L111 281 L111 281 Z " />
<glyph glyph-name="plus" unicode="&#x2b;" horiz-adv-x="118" d="M92 286 Q97 286 97 281 Q97 276 92 276 L63 276 Q58 265 52 253.5 Q46 242 41 231 Q39 226 34.5 228.5 Q30 231 32 236 Q37 246 42 255.5 Q47 265 52 276 L24 276 Q19 276 19 281 Q19 286 24 286 L57 286 Q60 293 63.5 299 Q67 305 70 312 Q72 317 76.5 314.5 Q81 312 79 307 Q76 302 73 296.5 Q70 291 68 286 L92 286 L92 286 Z " />
<glyph glyph-name="hyphen" unicode="&#x2d;" horiz-adv-x="110" d="M79 285 Q84 285 84 280 Q84 275 79 275 L25 275 Q20 275 20 280 Q20 285 25 285 L79 285 L79 285 Z " />
<glyph glyph-name="equal" unicode="&#x3d;" horiz-adv-x="112" d="M88 297 Q93 297 93 291.5 Q93 286 88 286 L30 286 Q25 286 25 291 Q25 296 30 296 Q45 297 59.5 297 Q74 297 88 297 Z M79 276 Q84 276 84 271 Q84 266 79 266 L22 266 Q17 266 17 271 Q17 276 22 276 L79 276 Z " />
<glyph glyph-name="underscore" unicode="&#x5f;" horiz-adv-x="128" d="M97 254 Q102 254 102 249 Q102 244 97 244 L8 244 Q3 244 3 249 Q3 254 8 254 L97 254 L97 254 Z " />
<glyph glyph-name="semicolon" unicode="&#x3b;" horiz-adv-x="52" d="M36 303 Q38 299 38 299 Q38 297 36 295 Q35 295 34.5 294.5 Q34 294 33 294 L32 294 Q32 294 30 295 L29 295 Q27 297 27 299 Q27 299 29 303 Q30 303 30.5 303.5 Q31 304 32 304 L33 304 Q34 304 35 303 L36 303 Z M21 269 Q24 272 28 269 Q31 265 28 262 Q26 259 24 256.5 Q22 254 20 252 Q17 248 13 252 Q9 254 13 259 Q15 261 17 263.5 Q19 266 21 269 Z " />
<glyph glyph-name="colon" unicode="&#x3a;" horiz-adv-x="48" d="M34 301 Q35 299 35 297 Q35 294 34 293 Q33 292 30 292 Q27 289 27 293 Q25 295 25 297 Q25 297 27 301 L28 301 Q29 301 29 301.5 Q29 302 30 302 Q31 302 32 301.5 Q33 301 34 301 Z M19 268 Q22 268 23 267 Q24 266 24 263 Q25 262 23 260 Q21 258 19 258 Q19 258 15 260 Q14 261 14 263 Q14 265 14.5 265.5 Q15 266 15 267 Q17 268 19 268 Z " />
<glyph glyph-name="period" unicode="&#x2e;" horiz-adv-x="54" d="M15 254 Q17 254 19 252 Q20 251 20 249 L20 248 Q20 246 19 245 Q18 244 15 244 Q14 243 12 245 Q10 247 10 248 L10 249 Q10 250 12 252 Q14 254 15 254 Z " />
<glyph glyph-name="comma" unicode="&#x2c;" horiz-adv-x="68" d="M18 254 Q20 259 24.5 256 Q29 253 26 249 Q24 246 22 243 Q20 240 18 236 Q16 232 11.5 234.5 Q7 237 10 241 Q12 246 18 254 Z " />
<glyph glyph-name="numbersign" unicode="&#x23;" horiz-adv-x="126" d="M105 302 Q111 301 111 295 Q111 289 105 289 L82 289 Q78 281 76 276 L95 276 Q101 276 101 270 Q101 264 95 264 L70 264 Q64 249 57 235 Q55 230 49.5 233 Q44 236 47 242 Q49 247 51.5 253 Q54 259 57 264 L45 264 Q41 257 38 250 Q35 243 32 235 Q29 230 23.5 233 Q18 236 21 242 Q23 247 26 253 Q29 259 31 265 L19 265 Q13 265 13 271 Q13 277 19 277 L37 277 Q38 283 42 290 L30 290 Q24 290 24 296.5 Q24 303 30 303 Q35 302 39 302 Q43 302 48 302 Q50 308 53 313.5 Q56 319 58 325 Q60 330 65.5 327 Q71 324 69 319 Q67 314 65 310.5 Q63 307 61 302 L74 302 Q78 314 84 325 Q86 330 91.5 327 Q97 324 95 319 Q93 314 91 310 Q89 306 87 302 L105 302 Z M62 277 Q66 285 68 290 L56 290 Q54 285 50 277 L62 277 Z " />
<glyph glyph-name="bar" unicode="&#x7c;" horiz-adv-x="86" d="M145 543 Q147 548 152 545 Q157 542 155 537 L125 468 Q98 407 71.5 346.5 Q45 286 18 225 Q16 220 11 223 Q6 226 8 231 L38 300 Q65 361 91.5 421.5 Q118 482 145 543 Z " />
<glyph glyph-name="slash" unicode="&#x2f;" horiz-adv-x="142" d="M212 543 Q215 548 220 545 Q225 542 222 537 Q211 520 199.5 503 Q188 486 177 469 Q137 407 97 346.5 Q57 286 17 225 Q14 220 8.5 223 Q3 226 6 231 Q18 248 29 265 Q40 282 51 299 Q92 361 131.5 421.5 Q171 482 212 543 Z " />
<glyph glyph-name="backslash" unicode="&#x5c;" horiz-adv-x="196" d="M77 549 Q75 554 80.5 555 Q86 556 88 550 L107 477 L170 220 Q172 214 166 213.5 Q160 213 158 218 L140 291 L77 549 L77 549 Z " />
<glyph glyph-name="asciicircum" unicode="&#x5e;" horiz-adv-x="106" d="M125 538 Q127 540 130 539 Q133 538 133 534 Q133 530 132 526 Q131 522 130 518 Q128 513 127.5 509 Q127 505 125 500 Q123 495 118.5 496 Q114 497 116 502 L119 517 Q116 513 113 510 Q110 507 107 504 Q104 500 100.5 503.5 Q97 507 100 511 Q106 518 112.5 524.5 Q119 531 125 538 Z " />
<glyph glyph-name="one" unicode="1" horiz-adv-x="38" d="M29 363 Q31 368 36 364.5 Q41 361 38 356 Q26 327 13 298 Q0 269 -14 240 Q-16 235 -21 238.5 Q-26 242 -24 247 Q-14 268 -4.5 289.5 Q5 311 15 331 Q13 331 13 330.5 Q13 330 12 330 Q6 327 3 332 Q0 337 5 342 Q13 345 18.5 350.5 Q24 356 29 363 Z " />
<glyph glyph-name="two" unicode="2" horiz-adv-x="93" d="M60 364 Q69 369 78 363.5 Q87 358 86 346 Q84 335 79 323.5 Q74 312 67 303 Q53 286 37 275 Q21 264 4 253 Q15 254 25.5 253.5 Q36 253 47 252 Q52 251 52 244.5 Q52 238 47 239 Q14 244 -18 238 Q-24 237 -26 241.5 Q-28 246 -23 250 Q-1 265 22 279.5 Q45 294 61 317 Q62 318 65.5 324.5 Q69 331 71 337.5 Q73 344 72.5 349.5 Q72 355 65 354 Q56 352 47 343 Q36 334 31 322 Q29 318 23.5 321 Q18 324 21 329 Q27 341 37 350.5 Q47 360 60 364 Z " />
<glyph glyph-name="three" unicode="3" horiz-adv-x="98" d="M77 315 Q72 308 67.5 302.5 Q63 297 56 292 Q66 287 66 274 Q65 264 57 255.5 Q49 247 39 242 Q31 237 20.5 236.5 Q10 236 1 244 Q-7 249 -7.5 259 Q-8 269 -1 277 Q3 281 7.5 276.5 Q12 272 7 267 Q4 263 5.5 258 Q7 253 13 251 Q22 247 34 252 Q45 259 51 269 Q53 277 52 280 Q50 282 48 283.5 Q46 285 44 283 Q38 281 36 286.5 Q34 292 38 295 Q45 300 51.5 304.5 Q58 309 63 317 Q66 322 71.5 329.5 Q77 337 77 345 Q77 352 72 353.5 Q67 355 62 353 Q54 351 48 345.5 Q42 340 37 334 Q35 329 29.5 332 Q24 335 28 340 Q33 348 41.5 355.5 Q50 363 61 365 Q69 367 76 364.5 Q83 362 87 354 Q91 343 86.5 333 Q82 323 77 315 Z " />
<glyph glyph-name="four" unicode="4" horiz-adv-x="92" d="M78 361 Q80 366 85.5 364.5 Q91 363 89 358 Q84 345 79 333.5 Q74 322 70 310 Q74 308 73.5 302.5 Q73 297 68 297 L63 297 Q57 283 50.5 269 Q44 255 38 241 Q35 236 30 239.5 Q25 243 27 249 Q33 260 38.5 272.5 Q44 285 51 297 L6 297 Q3 299 1 302.5 Q-1 306 3 308 Q17 322 31.5 336 Q46 350 60 364 Q63 368 67.5 364 Q72 360 68 355 Q57 344 45 333 Q33 322 21 310 L56 310 Q61 322 66.5 335 Q72 348 78 361 Z " />
<glyph glyph-name="five" unicode="5" horiz-adv-x="102" d="M37 350 Q35 348 34 345 Q33 342 31 340 Q29 335 28 334 L29 334 Q34 334 39 334.5 Q44 335 49 335 Q55 335 61.5 334.5 Q68 334 73 330 Q82 323 84 311 Q85 298 79 286.5 Q73 275 63 265 Q54 254 42 245 Q30 236 15 237 Q3 239 -6 248.5 Q-15 258 -11 271 Q-9 276 -3 275 Q3 274 1 269 Q-1 263 3 258 Q7 253 13 251 Q19 249 25.5 251 Q32 253 37 257 Q47 264 56.5 274.5 Q66 285 70 298 Q74 308 70 315 Q67 321 61.5 322 Q56 323 51 323 Q47 323 43.5 322.5 Q40 322 35 322 Q29 322 26 321 L22 321 Q21 319 21 321 Q18 315 13 318 Q8 321 10 326 Q13 332 16.5 338.5 Q20 345 22 350 Q25 355 28 359 Q31 363 37 365 Q48 366 58.5 366 Q69 366 80 366 Q86 365 86 358.5 Q86 352 80 354 Q72 354 62.5 354 Q53 354 46 352 Q39 352 37 350 Z " />
<glyph glyph-name="six" unicode="6" horiz-adv-x="86" d="M58 364 Q63 368 66 362.5 Q69 357 64 354 Q51 347 41.5 337 Q32 327 24 317 Q20 310 16 304 Q33 311 47 302 Q63 292 58 276 Q56 264 45 251.5 Q34 239 22 237 Q9 236 -2 243 Q-7 249 -8 256 Q-9 263 -8 269 Q-5 298 14 324 Q33 350 58 364 Z M19 291 Q14 289 12 296 Q7 288 5.5 280.5 Q4 273 3 265 Q3 248 18 248 Q24 249 28.5 253 Q33 257 37 262 Q42 267 45.5 274 Q49 281 44 288 Q40 296 32.5 295.5 Q25 295 19 291 Z " />
<glyph glyph-name="seven" unicode="7" horiz-adv-x="72" d="M72 366 Q75 366 76.5 363 Q78 360 76 356 Q68 344 60 330.5 Q52 317 43 303 Q43 302 43.5 302 Q44 302 44 301 Q44 299 42 296.5 Q40 294 38 295 L37 295 Q28 281 18.5 267.5 Q9 254 0 240 Q-3 235 -8.5 238 Q-14 241 -10 247 Q-2 258 6.5 270.5 Q15 283 24 296 Q17 296 17 302 Q17 308 24 308 Q26 308 27.5 307.5 Q29 307 31 307 Q38 318 45 329.5 Q52 341 60 352 Q49 351 38.5 350.5 Q28 350 17 348 Q10 348 10 353.5 Q10 359 17 361 Q31 362 44.5 363 Q58 364 72 366 Z " />
<glyph glyph-name="eight" unicode="8" horiz-adv-x="98" d="M75 365 Q83 363 85.5 357.5 Q88 352 86 344 Q84 336 78 331 Q72 326 67 322 Q62 317 58 321.5 Q54 326 59 330 Q66 334 72 343 Q74 344 74.5 347 Q75 350 75 352 Q74 354 70 354 Q60 353 53 347.5 Q46 342 48 333 Q50 323 54 314 Q58 305 63 295 Q65 288 66 280 Q67 272 64 264 Q60 257 54 253 Q48 249 42 246 Q34 242 24.5 239 Q15 236 7 237 Q-10 240 -17 251 Q-22 259 -20 266.5 Q-18 274 -15 280 Q2 310 33 322 Q36 324 38 322 Q37 325 36 328.5 Q35 332 35 336 Q34 350 47.5 359.5 Q61 369 75 365 Z M50 268 Q55 275 53 284 Q51 293 46 301 Q44 304 43.5 307 Q43 310 41 315 Q41 311 37 311 Q29 306 20.5 301 Q12 296 6 288 Q1 283 -5 274.5 Q-11 266 -8 258 Q-2 250 7 249.5 Q16 249 24 251 Q32 253 39 257 Q46 261 50 268 Z " />
<glyph glyph-name="nine" unicode="9" horiz-adv-x="96" d="M50 365 Q63 369 77 364 Q91 359 89 342 Q87 323 78.5 307.5 Q70 292 57.5 279 Q45 266 29 256 Q13 246 -2 238 Q-7 234 -10 239.5 Q-13 245 -8 248 Q6 256 19.5 264.5 Q33 273 45 284 Q64 300 75 328 Q76 332 78 339.5 Q80 347 75 351 Q71 355 66 354.5 Q61 354 57 354 Q46 351 37 343.5 Q28 336 23 325 Q21 320 21 313.5 Q21 307 29 305 Q35 303 41 306.5 Q47 310 52 312 Q57 315 60 310 Q63 305 58 302 Q50 297 41.5 293.5 Q33 290 23 294 Q14 297 11 305 Q8 313 10 322 Q12 337 23.5 348 Q35 359 50 365 Z " />
<glyph glyph-name="zero" unicode="0" horiz-adv-x="100" d="M73 361 Q82 355 84.5 346 Q87 337 85 328 Q83 309 74 292 Q65 275 54 261 Q49 255 43 248.5 Q37 242 29 239 Q12 234 1 248 Q-4 255 -5 263.5 Q-6 272 -4.5 281 Q-3 290 0 299 Q3 308 6 315 Q19 344 48 365 Q52 368 54 365 Q64 368 73 361 Z M72 322 Q73 330 73.5 337 Q74 344 69 350 Q65 355 59 354.5 Q53 354 48 350 L47 350 Q28 334 19 312 Q14 305 12 299 Q10 293 8 287 Q7 279 6.5 272 Q6 265 10 258 Q14 250 19 250 Q24 250 29.5 253.5 Q35 257 40 262.5 Q45 268 48 272 Q66 296 72 322 Z " />
<glyph glyph-name="asterisk" unicode="&#x2a;" horiz-adv-x="92" d="M67 306 Q70 310 74 306 Q78 302 74 299 Q68 294 62 289 Q56 284 51 279 Q53 274 56 268.5 Q59 263 62 258 Q64 254 60 251 Q56 248 53 253 Q51 258 49 261.5 Q47 265 45 270 Q43 266 42 262 Q41 258 39 254 Q37 249 32 250.5 Q27 252 29 257 Q30 259 32 265 Q28 262 25 259.5 Q22 257 19 255 Q14 252 11.5 256.5 Q9 261 13 263 Q20 268 26 272.5 Q32 277 38 282 L29 300 Q27 305 31.5 307.5 Q36 310 38 305 Q40 303 40.5 300 Q41 297 43 295 Q45 300 47 305 Q49 310 51 315 Q53 320 57.5 319 Q62 318 60 313 L54 295 Q57 298 60.5 300.5 Q64 303 67 306 Z " />
<glyph glyph-name="dollar" unicode="&#x24;" horiz-adv-x="117" d="M100 345 Q102 347 102.5 350.5 Q103 354 104 357 Q105 358 104.5 358.5 Q104 359 105 360 Q104 360 103 359.5 Q102 359 101 359 Q93 355 90 353 Q88 349 86.5 345.5 Q85 342 83 338 Q77 324 71 311 Q65 298 59 285 Q67 283 73.5 281.5 Q80 280 85 275 Q95 265 88 254 Q81 243 74 236 Q66 227 57 219.5 Q48 212 38 206 Q28 199 21 197 Q12 174 2 153 Q0 148 -5 149 Q-11 151 -9 156 Q-5 165 -1.5 174 Q2 183 6 191 L-2 191 Q-15 195 -13.5 206.5 Q-12 218 -7 226 Q-1 237 6 247.5 Q13 258 21 269 Q25 274 29.5 269.5 Q34 265 30 260 Q25 254 21 248 Q17 242 13 236 Q9 231 5 225 Q1 219 -1 212 Q-1 210 -1.5 207.5 Q-2 205 0 204 Q2 202 5 203 Q8 204 10 205 Q11 205 12 206 Q12 207 12.5 207.5 Q13 208 13 209 L43 278 Q34 282 31 293 Q28 304 33.5 313 Q39 322 46 330 Q54 339 62.5 346.5 Q71 354 81 361 Q85 369 88.5 378 Q92 387 97 396 Q99 401 104 398 Q109 395 107 390 Q105 385 103 380.5 Q101 376 99 371 Q108 375 114 369 Q120 361 115.5 350 Q111 339 108 332 Q102 321 95.5 312 Q89 303 82 292 Q79 287 74 290.5 Q69 294 72 299 Q79 310 87 321 Q95 332 100 345 Z M70 337 Q63 331 56.5 324.5 Q50 318 46 311 Q42 304 42 298.5 Q42 293 48 289 Q53 301 59 313 Q65 325 70 337 Z M60 273 Q58 273 57 273.5 Q56 274 55 274 L28 214 Q30 215 32 217 Q53 229 68 247 Q71 250 75 256 Q77 259 78 261.5 Q79 264 77 266 Q74 269 69.5 270 Q65 271 60 273 Z " />
<glyph glyph-name="percent" unicode="&#x25;" horiz-adv-x="93" d="M113 382 Q113 381 112.5 380.5 Q112 380 112 379 Q81 334 51 291 Q21 248 -10 203 Q-6 205 -3 208 Q0 211 4 213 Q9 217 14 220.5 Q19 224 24 228 Q27 231 29 232 Q33 237 37 240.5 Q41 244 46 248 Q49 250 52.5 247.5 Q56 245 55 241 L52 235 Q59 237 61 229 Q62 224 59.5 219 Q57 214 55 211 Q52 206 48.5 203 Q45 200 41 197 Q37 194 33 191.5 Q29 189 24 188 Q19 187 15 189.5 Q11 192 10 197 Q10 201 11 203 Q0 195 -11 186.5 Q-22 178 -33 170 Q-36 167 -40 171 Q-44 175 -41 179 Q-6 229 28 278.5 Q62 328 96 378 Q94 377 88 375 L73 369 Q69 367 67 367 Q69 359 64 352 Q59 345 52 341 Q46 337 37 336.5 Q28 336 24 344 Q21 350 25 358 Q29 366 34 371 Q34 375 39 377 Q44 379 49.5 379 Q55 379 60 377 Q66 379 72 381.5 Q78 384 84 386 Q88 388 93 390 Q98 392 103 392 Q113 392 113 383 L113 382 Z M55 364 L45 364 Q39 359 36 351 Q34 349 36 349 Q36 349 40 349 Q42 349 46 351 Q49 353 52 356 Q55 359 55 363 L55 364 Z M45 217 Q46 219 46.5 219.5 Q47 220 48 222 Q48 222 49 224 Q45 225 45 229 Q43 227 41.5 226.5 Q40 226 38 224 L37 223 L34 220 Q30 214 28 210 Q26 208 24 205 Q22 202 22 200 Q21 199 22 199 Q23 200 23.5 200 Q24 200 25 201 Q25 201 29 203 Q35 207 37 209 Q39 211 41 213 Q43 215 45 217 Z " />
<glyph glyph-name="ampersand" unicode="&#x26;" horiz-adv-x="134" d="M117 318 Q116 317 116 316 Q114 312 110 313.5 Q106 315 105 319 L105 320 Q103 336 88 341.5 Q73 347 61 337 Q56 332 53 324 Q50 316 58 311 Q66 306 75 305.5 Q84 305 93 305 Q98 305 98.5 300 Q99 295 94 293 Q68 288 47 274 Q42 271 37 267 Q32 263 27 259 Q22 254 18 249.5 Q14 245 10 240 Q8 235 8.5 229.5 Q9 224 17 226 Q23 227 29.5 229.5 Q36 232 41 234 Q64 246 83 266 Q88 271 92 265 Q94 262 93 258 Q79 228 65.5 198 Q52 168 38 137 Q35 132 30 135 Q25 138 27 143 Q38 167 49 191 Q60 215 71 238 Q65 234 59.5 230.5 Q54 227 47 224 Q42 222 36 219.5 Q30 217 24 215 Q18 213 12.5 213 Q7 213 2 217 Q-8 227 -3 238 Q2 249 9 257 Q31 282 62 296 Q57 298 53 299.5 Q49 301 46 305 Q38 314 41.5 326 Q45 338 53 345 Q71 361 92 353 Q104 348 112 336 Q124 363 136 390 Q148 417 161 444 Q163 449 168 446 Q173 443 171 438 L117 318 Z " />
<glyph glyph-name="at" unicode="&#x40;" horiz-adv-x="182" d="M169 342 Q173 325 169 309 Q165 293 157 279 Q148 264 136 252 Q131 247 123 240.5 Q115 234 107 238 Q100 242 99 249 Q97 247 97 247 Q90 236 82 231 Q68 224 59 235 Q54 243 56 251 Q56 273 69 294 Q74 302 81 310 Q88 318 98 320 Q111 323 119 312 Q120 311 120 310.5 Q120 310 121 309 L121 310 Q123 315 129 312.5 Q135 310 133 305 Q133 304 132.5 304 Q132 304 132 303 L132 302 Q131 301 129 297 Q126 289 122.5 281 Q119 273 115 265 Q114 263 111.5 257.5 Q109 252 112 250 Q114 249 118.5 252.5 Q123 256 124 258 Q149 279 157 312 Q159 324 157.5 336.5 Q156 349 147 358 Q131 376 106 371 Q83 366 67.5 347.5 Q52 329 41 310 Q36 300 32 289 Q28 278 26 267 Q23 253 24 238.5 Q25 224 34 213 Q43 202 53.5 200 Q64 198 75 201 Q86 204 95.5 211.5 Q105 219 111 228 Q115 233 120 229.5 Q125 226 122 221 Q113 208 100 198.5 Q87 189 70 187 Q53 185 38.5 193.5 Q24 202 17 218 Q10 234 11 251.5 Q12 269 17 285 Q24 309 40 333 Q55 355 78.5 372.5 Q102 390 131 382 Q145 378 155.5 367.5 Q166 357 169 342 Z M87 254 Q102 270 110 287 Q106 288 104.5 292 Q103 296 108 298 Q112 300 109 304 Q106 308 103 308 Q100 308 98 307 Q95 307 93 305 Q86 300 82 293 Q78 286 74 278 Q72 271 69.5 263.5 Q67 256 68 248 Q68 247 69 245 L69 243 L70 242 Q70 242 70 241 L71 241 Q73 241 77 243 Q81 246 87 254 Z " />
<glyph glyph-name="quoteleft" unicode="&#x2018;" horiz-adv-x="98" d="M112 539 Q114 544 118.5 541.5 Q123 539 121 534 L113 515 Q111 510 106.5 512.5 Q102 515 104 520 L112 539 L112 539 Z " />
<glyph glyph-name="quoteright" unicode="&#x2019;" horiz-adv-x="102" d="M112 539 Q114 544 118.5 541.5 Q123 539 121 534 L113 515 Q111 510 106.5 512.5 Q102 515 104 520 L112 539 L112 539 Z " />
<glyph glyph-name="quotedblleft" unicode="&#x201c;" horiz-adv-x="105" d="M122 544 Q126 542 124 538 L117 521 Q115 517 110 519 Q106 522 108 526 L115 543 Q118 548 122 544 Z M129 543 Q131 547 135 544.5 Q139 542 137 538 L128 517 Q126 512 121.5 513 Q117 514 119 519 Q121 525 123.5 531 Q126 537 129 543 Z " />
<glyph glyph-name="quotedblright" unicode="&#x201d;" horiz-adv-x="105" d="M122 544 Q126 542 124 538 L117 521 Q115 517 110 519 Q106 522 108 526 L115 543 Q118 548 122 544 Z M129 543 Q131 547 135 544.5 Q139 542 137 538 L128 517 Q126 512 121.5 513 Q117 514 119 519 Q121 525 123.5 531 Q126 537 129 543 Z " />
<glyph glyph-name="A" unicode="A" horiz-adv-x="407" d="M358 265 Q353 265 349 265 Q345 265 341 266 L276 117 L199 -65 Q179 -110 160 -155.5 Q141 -201 121 -246 Q119 -249 117 -249 L116 -249 Q113 -249 110 -246 Q108 -243 110 -240 Q115 -229 119.5 -218 Q124 -207 129 -196 L148 -152 Q168 -106 187.5 -60 Q207 -14 226 31 L305 214 Q308 221 311 227 Q314 233 316 240 Q319 247 322 253 Q325 259 327 266 Q300 267 275.5 265 Q251 263 232 261 Q189 256 145 245.5 Q101 235 56 218 L49 216 Q35 212 18 205 Q-14 167 -46 131 Q-78 95 -110 62 Q-128 45 -145 28 Q-162 11 -182 -5 L-183 -6 Q-196 -17 -209.5 -27 Q-223 -37 -240 -42 Q-251 -46 -262 -43 Q-275 -38 -274.5 -26 Q-274 -14 -272 -7 Q-258 31 -231 58 Q-204 85 -177 107 Q-142 135 -106 157 Q-70 179 -28 199 L-5 208 L10 215 L21 227 L40 248 L73 284 L155 379 L213 450 L270 521 Q305 564 333.5 596.5 Q362 629 389 658 Q406 674 422 689.5 Q438 705 458 718 Q466 723 475.5 728.5 Q485 734 495 737 Q508 740 515 736 Q524 729 523.5 717 Q523 705 521 697 Q519 688 516 678.5 Q513 669 510 660 L433 480 Q422 455 411 429.5 Q400 404 389 379 L345 278 Q350 277 353.5 277 Q357 277 361 277 Q365 275 364 271 Q363 268 362 267 Q361 266 360 265 Q359 264 358 265 Z M-61 133 Q-48 148 -34.5 163 Q-21 178 -8 194 Q-61 170 -104 144 Q-124 131 -141.5 118.5 Q-159 106 -175 93 Q-190 80 -205 66.5 Q-220 53 -233 37 Q-238 30 -242.5 22.5 Q-247 15 -252 7 Q-255 2 -258.5 -5.5 Q-262 -13 -263 -20 Q-263 -27 -260 -30 L-260 -31 L-259 -31 Q-259 -31 -258 -32 L-257 -32 L-255 -32 L-248 -32 Q-246 -32 -245 -31 Q-243 -31 -242 -30 L-231 -25 Q-223 -21 -216 -16 Q-209 -11 -202 -6 Q-185 8 -167.5 24 Q-150 40 -133 56 L-61 133 Z M397 429 Q413 466 429.5 504 Q446 542 462 580 Q466 588 469.5 597.5 Q473 607 478 616 L498 665 Q502 673 505 683.5 Q508 694 510 705 Q511 709 511.5 713.5 Q512 718 510 722 Q510 726 505 726 L502 726 Q492 724 482.5 718.5 Q473 713 466 708 Q456 702 447 694.5 Q438 687 430 680 Q412 664 396.5 647.5 Q381 631 365 614 Q350 597 334.5 580 Q319 563 305 545 Q285 520 265 495.5 Q245 471 225 446 Q216 435 207.5 424 Q199 413 190 402 Q157 362 127 327 Q97 292 68 260 L51 242 L36 225 Q65 236 92 244 Q119 252 141 257 Q237 281 332 278 L397 429 Z " />
<glyph glyph-name="B" unicode="B" horiz-adv-x="446" d="M394 183 Q401 167 402 150 Q403 133 401 116 Q398 94 388.5 73.5 Q379 53 366 33.5 Q353 14 338.5 -3.5 Q324 -21 309 -37 Q278 -70 243.5 -99.5 Q209 -129 171 -153 Q133 -177 92 -195 Q51 -213 6 -221 Q-18 -226 -43 -227 Q-68 -228 -91 -220 Q-111 -214 -127.5 -201.5 Q-144 -189 -153 -169 Q-164 -149 -163 -126 Q-162 -103 -154 -83 Q-146 -62 -132.5 -44.5 Q-119 -27 -102 -11 Q-69 19 -31.5 44.5 Q6 70 45 92 Q122 133 205 157.5 Q288 182 375 192 Q366 204 352 212 Q333 225 311 228.5 Q289 232 267 231 Q243 230 219 226 Q195 222 172 215 Q128 203 83 180 Q78 178 75.5 183 Q73 188 78 190 L114 211 Q186 257 247.5 316.5 Q309 376 366 441 Q394 474 420 509 Q446 544 466 582 Q476 602 485.5 623.5 Q495 645 493 668 Q493 688 480 701 Q467 713 451 715 Q434 718 417 713.5 Q400 709 384 703 Q356 691 327 671 Q297 650 269.5 625 Q242 600 217 573 Q166 517 127 453.5 Q88 390 54 323 L53 322 L46 306 L-71 52 Q-73 47 -77.5 49.5 Q-82 52 -80 57 L-65 91 Q-39 151 -12 210 Q15 269 44 327 Q58 359 72.5 390.5 Q87 422 102 454 L219 708 Q221 713 225.5 710 Q230 707 228 702 L163 560 L113 451 Q141 496 174 538 Q207 580 245 617 Q271 643 300.5 665 Q330 687 362 704 Q378 712 395 718.5 Q412 725 430 727 Q446 729 462.5 724.5 Q479 720 490 706 Q504 689 504 668.5 Q504 648 498 629 Q491 607 481 587 Q471 567 460 548 Q437 510 408.5 475.5 Q380 441 351 408 Q303 354 252.5 306 Q202 258 143 218 Q161 224 179.5 228.5 Q198 233 217 237 Q242 241 267 242.5 Q292 244 317 239 Q337 234 354.5 224 Q372 214 385 197 L388 193 Q390 193 391 193.5 Q392 194 394 194 Q399 195 399 189 Q399 183 394 183 Z M321 -6 Q335 10 348.5 28 Q362 46 372 65.5 Q382 85 387.5 106 Q393 127 391 149 Q389 168 381 182 L352 178 Q265 166 182.5 139 Q100 112 25 67 Q6 56 -12 44.5 Q-30 33 -47 20 Q-64 7 -80.5 -6.5 Q-97 -20 -111 -36 Q-126 -53 -137 -71.5 Q-148 -90 -151 -112 Q-154 -133 -148 -153.5 Q-142 -174 -125 -188 Q-108 -203 -87 -209 Q-66 -215 -44 -215.5 Q-22 -216 0.5 -211.5 Q23 -207 43 -201 Q85 -189 123 -168.5 Q161 -148 196 -123 Q266 -71 321 -6 Z " />
<glyph glyph-name="a" unicode="a" horiz-adv-x="96" d="M95 298 Q100 303 103.5 298.5 Q107 294 103 290 Q95 283 85.5 274.5 Q76 266 68 258 Q62 253 54.5 248.5 Q47 244 39 248 Q34 251 33 256.5 Q32 262 33 268 L30 265 Q26 262 20.5 258 Q15 254 9 252.5 Q3 251 -2.5 252.5 Q-8 254 -12 261 Q-18 272 -10 285.5 Q-2 299 6 306 Q11 310 17 312.5 Q23 315 30 313 Q43 310 43 296 L43 295 Q46 298 47 301 Q48 304 53 312 Q56 317 59.5 314 Q63 311 61 306 L54 292 Q51 285 48.5 278.5 Q46 272 44 265 Q42 258 48 259 Q55 261 59.5 265.5 Q64 270 71 276 L95 298 Z M20 272 Q24 274 27 277 Q30 280 33 283 L40 291 Q38 290 35 291 Q32 292 32 296 Q32 301 27 302 Q22 303 19 301 Q16 299 10.5 293 Q5 287 1.5 280 Q-2 273 -2.5 267.5 Q-3 262 5 263 Q9 264 13 266.5 Q17 269 20 272 Z " />
</font>
</svg>
