<?xml version="1.0" encoding="UTF-8"?>
<svg xmlns="http://www.w3.org/2000/svg" xmlns:xlink="http://www.w3.org/1999/xlink" version="1.2" >
<font id="Athen Alt One">
<font-face  font-family="Athen Alt One" units-per-em="1000" ascent="750" descent="-250" font-style="normal" font-weight="400" font-stretch="normal" cap-height="700" x-height="500" underline-position="-75" underline-thickness="50" />
<missing-glyph  horiz-adv-x="157" d="" />
<glyph glyph-name="NULL" d="" />
<glyph glyph-name="CR" unicode="&#xd;" horiz-adv-x="157" d="" />
<glyph glyph-name="space" unicode="&#x20;" horiz-adv-x="157" d="" />
<glyph glyph-name="exclam" unicode="&#x21;" horiz-adv-x="143" d="M92 739 C91 745 83 753 79 748 C76 747 76 743 75 739 C73 690 71 641 70 591 C69 568 68 545 68 521 C67 490 64 458 64 426 C63 403 61 379 62 355 C60 320 61 284 61 248 C63 216 62 185 64 154 C64 145 64 136 64 128 C64 123 64 123 69 122 C70 122 71 122 72 122 C76 122 78 122 78 128 C80 148 80 170 81 190 C82 206 82 223 83 239 C83 261 86 283 87 305 C88 345 89 384 90 425 C90 456 91 487 92 518 C92 539 93 561 93 582 C94 607 94 631 95 655 C94 678 97 702 94 726 C94 730 93 735 92 739 L92 739 Z M78 54 C77 63 65 68 64 58 C64 43 67 25 67 10 C68 3 76 0 79 2 C82 6 81 17 81 21 C79 29 81 37 79 45 C79 49 79 51 79 53 C79 54 78 54 78 54 L78 54 Z " />
<glyph glyph-name="quotedbl" unicode="&#x22;" horiz-adv-x="83" d="M93 673 C93 671 94 666 98 665 C102 664 106 665 108 669 C111 673 110 679 110 683 C111 689 114 725 112 729 C111 730 108 731 106 731 C104 731 101 731 100 731 C97 729 97 724 97 722 C95 706 94 694 93 673 L93 673 Z M69 677 C69 673 70 669 73 667 C76 666 80 668 81 671 C82 672 83 674 83 675 C84 690 85 706 86 721 C86 723 86 726 86 728 C84 732 81 733 78 734 C74 734 71 734 71 730 C69 722 69 713 69 704 C68 695 68 686 69 677 L69 677 Z " />
<glyph glyph-name="numbersign" unicode="&#x23;" horiz-adv-x="215" d="M214 244 C209 245 205 245 200 245 C183 243 165 242 148 240 C149 253 151 268 152 286 C153 292 155 301 152 306 C149 311 141 312 138 308 C134 304 133 301 133 296 C130 282 129 270 127 257 L125 238 C125 238 104 236 98 235 C98 236 101 263 101 275 C102 286 104 304 91 305 C76 305 76 285 75 277 C74 265 74 254 74 243 L74 243 L73 233 L61 232 C56 231 51 231 46 230 C38 228 30 227 22 225 C20 224 18 222 17 220 C16 216 19 214 22 214 C30 213 73 218 73 218 L73 210 C73 205 72 199 72 193 L72 193 L71 184 C71 184 64 183 63 183 C63 183 63 183 63 183 C54 182 46 180 37 179 C31 178 24 176 18 175 C15 174 14 171 15 168 C15 167 16 166 17 166 C20 166 24 166 28 166 C37 167 46 168 55 169 C60 170 66 171 71 172 C72 155 70 139 72 122 C72 118 74 117 78 117 C80 117 82 117 84 117 C90 117 89 126 89 130 C89 142 91 176 91 176 L107 177 L107 177 C111 178 116 179 121 180 C121 178 121 176 121 175 C120 155 119 137 119 117 C119 114 120 111 123 110 C125 109 126 109 128 109 C130 109 132 109 133 110 C136 112 136 115 136 118 C136 123 136 127 136 132 C137 146 138 159 140 173 L140 183 L149 184 L149 184 C154 185 159 185 164 186 C168 186 172 186 176 187 C178 188 184 189 186 191 C186 192 186 193 184 194 C179 196 174 196 168 196 C163 196 157 195 152 194 C148 194 145 194 142 193 C142 197 142 200 143 203 C143 209 144 211 144 214 C144 215 145 227 145 227 L160 229 L160 229 C180 231 199 232 218 236 C220 236 221 236 222 237 C226 241 216 244 214 244 L214 244 Z M123 213 C123 207 122 191 122 191 L118 190 L118 190 C110 189 102 188 93 186 C93 194 95 221 95 221 L105 222 C111 223 118 224 124 225 C124 220 124 216 123 213 L123 213 Z " />
<glyph glyph-name="dollar" unicode="&#x24;" horiz-adv-x="240" d="M98 -9 C98 -9 102 -8 102 -4 C103 1 103 23 104 28 C104 37 104 39 104 49 C106 70 107 80 108 102 C109 104 110 116 110 116 C113 117 117 118 120 118 C123 119 126 120 129 120 C149 127 168 139 181 155 C193 169 202 186 202 205 C203 224 192 241 176 251 C162 260 147 267 132 275 C130 275 124 278 124 278 C128 300 130 324 132 347 C135 366 138 386 140 405 C142 423 145 441 147 459 C146 460 156 458 157 458 C159 457 161 457 163 456 C169 454 176 450 180 445 C189 433 189 417 188 404 C186 393 184 382 181 372 C178 361 173 350 169 339 C168 335 165 329 167 325 C168 323 179 324 182 325 C187 327 188 333 190 337 C202 361 210 386 209 413 C209 420 208 427 205 434 C204 438 203 441 201 445 C193 457 181 465 167 470 C166 470 148 474 148 474 C149 482 150 491 151 499 C153 514 157 529 161 544 C162 546 161 548 163 549 C163 550 167 553 167 552 C164 558 156 559 151 556 C147 554 145 549 144 544 C136 522 132 499 128 476 C127 474 126 473 123 473 C120 473 116 472 112 471 C93 467 76 459 62 447 C38 430 21 409 17 379 C15 367 15 354 19 340 C23 320 37 305 56 293 C69 285 84 279 97 272 C102 269 102 269 102 269 C101 262 101 255 100 248 C100 246 99 242 99 242 C96 243 89 243 86 243 C66 240 51 219 44 203 C35 184 32 162 43 141 C47 132 54 124 64 120 C69 118 75 117 80 116 C84 116 90 115 90 115 C90 107 89 96 88 87 C88 78 88 69 87 60 C87 50 86 41 86 31 C85 24 85 18 86 0 C86 -3 88 -8 91 -8 C95 -9 94 -9 98 -9 L98 -9 Z M123 454 C112 399 108 343 103 286 C99 289 95 291 90 293 C83 297 76 301 69 305 C59 313 53 323 49 333 C41 352 43 368 49 384 C55 401 66 414 79 426 C90 437 103 446 117 452 C119 453 122 455 123 455 C123 455 123 454 123 454 L123 454 Z M112 140 C116 178 120 220 123 259 C132 255 140 250 148 244 C152 240 157 236 160 232 C165 225 170 213 167 204 C163 187 155 177 143 164 C136 157 130 152 120 146 C119 145 112 140 112 140 L112 140 Z M62 161 C62 168 63 176 62 179 C64 198 73 215 87 227 C89 229 99 237 99 229 C98 213 96 197 95 180 C94 166 92 148 92 134 C92 134 89 132 85 133 C72 134 65 147 62 161 L62 161 Z " />
<glyph glyph-name="percent" unicode="&#x25;" horiz-adv-x="220" d="M234 509 C229 520 211 520 200 518 C171 513 144 510 115 507 C109 507 106 500 108 494 C110 491 111 489 112 486 C116 478 119 470 118 461 C116 446 107 436 93 430 C80 424 85 451 86 456 C89 473 94 487 103 502 C107 507 109 510 117 516 C119 518 121 521 123 523 C125 525 125 526 123 528 C95 555 62 486 57 466 C50 435 66 407 101 414 C116 417 128 427 134 441 C139 451 140 462 137 472 C136 476 130 496 127 496 C148 497 196 504 207 506 C205 502 200 494 196 487 C139 392 83 307 44 202 C27 155 11 108 4 58 C3 52 2 45 6 40 C9 37 13 36 17 36 C27 35 37 43 44 50 C62 67 78 84 93 103 C108 95 126 94 141 99 C157 105 169 119 173 135 C176 151 170 169 157 180 C155 182 151 183 148 183 C145 182 142 178 144 175 C134 190 115 183 107 172 C100 164 97 154 93 145 C79 110 56 79 27 56 C31 77 39 98 46 118 C81 216 127 308 180 397 C197 426 213 455 229 486 C231 490 233 494 234 498 C235 502 235 506 234 509 L234 509 Z M145 173 C155 162 157 149 150 137 C145 128 137 121 127 116 C127 115 126 115 126 115 C125 115 125 115 125 115 C123 138 133 156 145 173 L145 173 Z " />
<glyph glyph-name="ampersand" unicode="&#x26;" horiz-adv-x="214" d="M97 362 C108 354 116 342 121 330 C129 314 134 295 134 275 C134 271 136 269 139 269 C144 269 146 269 150 269 C150 269 150 269 150 269 C159 269 161 271 162 273 C164 274 164 277 164 277 C166 352 172 438 172 460 C175 503 177 547 181 591 C183 623 186 713 186 725 C186 733 187 740 179 746 C172 751 161 746 159 736 C154 721 146 565 141 529 C140 513 138 433 136 365 C131 368 127 373 120 377 C101 390 73 386 62 362 C61 352 60 343 61 333 C62 318 65 302 73 286 C76 277 80 267 84 259 C84 257 85 256 85 255 C62 244 41 219 29 194 C13 160 16 120 29 85 C37 72 45 60 54 48 C63 37 79 30 92 25 C104 19 119 17 133 18 C133 18 133 18 133 18 C133 15 133 12 133 9 C133 -34 133 -75 133 -118 C133 -160 133 -203 137 -244 C138 -251 144 -254 149 -253 C151 -253 156 -250 157 -247 C157 -244 157 -242 157 -239 C159 -193 159 -147 159 -101 C159 -58 159 -15 161 29 C183 46 181 84 175 109 C170 127 162 142 152 158 C148 165 137 169 129 168 C128 168 124 160 131 152 C141 143 148 131 151 117 C157 95 157 73 149 51 C145 40 139 37 128 40 C108 46 91 60 79 80 C68 96 62 114 59 132 C52 160 59 189 73 212 C80 223 90 231 99 236 C105 237 110 238 116 240 C120 240 123 243 123 248 C121 266 115 280 109 295 C102 311 95 328 91 345 C91 349 90 368 97 362 L97 362 Z " />
<glyph glyph-name="quotesingle" unicode="&#x27;" horiz-adv-x="70" d="M62 676 C62 674 62 669 66 668 C71 667 74 668 76 672 C79 676 78 682 79 686 C79 692 83 728 80 732 C79 733 76 734 74 734 C73 734 70 734 68 734 C65 732 65 727 65 725 C63 709 63 697 62 676 L62 676 Z " />
<glyph glyph-name="parenleft" unicode="&#x28;" horiz-adv-x="180" d="M144 12 C146 14 121 63 119 70 C69 225 66 396 107 550 C118 589 128 628 146 664 C154 681 163 699 174 714 C179 719 195 731 192 741 C191 748 187 748 183 748 C171 748 158 727 150 718 C140 704 133 689 124 675 C107 646 94 612 83 579 C44 450 29 298 60 160 C65 138 114 -24 144 12 L144 12 Z " />
<glyph glyph-name="parenright" unicode="&#x29;" horiz-adv-x="155" d="M104 583 C102 605 97 625 93 646 C83 685 70 717 51 746 C49 749 47 748 45 748 C45 748 44 744 44 743 C44 741 44 737 45 735 C66 680 74 617 76 556 C83 384 57 207 12 48 C10 37 7 28 3 17 C-1 2 9 -1 17 6 C24 12 27 26 30 34 C36 48 40 63 45 76 C73 153 88 236 99 320 C112 406 116 496 104 583 L104 583 Z " />
<glyph glyph-name="asterisk" unicode="&#x2a;" horiz-adv-x="224" d="M122 230 C122 237 123 247 124 252 C124 257 124 263 122 268 C118 281 101 283 99 268 C97 258 97 256 96 244 C95 241 95 234 94 226 C87 233 81 238 75 243 C67 249 56 260 49 254 C45 249 49 243 52 241 C62 232 67 228 76 220 C80 216 85 211 90 207 C81 205 69 203 57 200 C47 198 41 196 30 193 C25 192 23 189 24 184 C24 180 28 179 41 181 C50 183 60 184 69 186 C72 187 75 187 78 188 C74 182 70 176 67 172 C62 165 58 161 54 153 C53 150 52 148 52 144 C51 139 57 134 62 137 C66 139 69 144 73 150 C83 164 86 168 95 178 C95 172 95 158 95 155 C95 148 96 140 97 133 C97 131 97 129 98 128 C101 125 106 125 110 126 C112 126 113 127 113 129 C114 133 114 137 114 141 C115 156 116 170 117 184 C120 181 123 178 124 178 C134 168 138 164 148 154 C150 152 153 150 155 150 C159 150 162 155 160 158 C158 160 156 163 154 165 C145 175 136 186 126 195 C127 196 128 196 128 196 C150 198 172 201 194 204 C196 205 198 206 195 208 C181 218 165 214 149 212 C144 212 126 209 126 209 C126 209 132 216 134 217 C143 226 147 230 156 238 C161 242 170 249 170 253 C171 258 163 261 160 261 C152 260 135 243 122 230 L122 230 Z " />
<glyph glyph-name="plus" unicode="&#x2b;" horiz-adv-x="217" d="M191 215 C182 223 170 221 160 221 C147 220 133 220 120 220 C120 220 120 220 120 220 C120 232 120 245 120 262 C120 279 121 285 118 290 C117 292 114 293 113 293 C111 294 109 292 108 291 C100 282 102 270 101 260 C100 246 100 233 99 220 C99 220 99 220 99 219 C79 219 60 218 41 218 C35 218 30 216 27 211 C24 208 24 203 27 201 C34 196 48 198 56 198 C71 198 84 198 98 198 C97 179 96 160 96 140 C95 135 96 130 101 127 C105 125 109 125 112 128 C117 135 116 149 117 157 C118 172 119 185 120 199 C131 199 144 200 161 201 C178 203 184 202 189 205 C191 206 193 209 193 210 C194 212 192 214 191 215 L191 215 Z " />
<glyph glyph-name="comma" unicode="&#x2c;" horiz-adv-x="100" d="M31 144 C27 142 26 127 26 123 C23 107 21 90 21 74 C21 70 21 62 26 61 C35 60 36 72 37 78 C40 88 42 98 44 108 C45 114 46 119 47 125 C48 130 48 135 44 139 C41 141 35 144 31 144 L31 144 Z " />
<glyph glyph-name="hyphen" unicode="&#x2d;" horiz-adv-x="197" d="M157 210 C158 212 157 214 156 215 C150 221 141 219 134 219 C124 219 115 219 105 218 C86 218 67 217 48 217 C45 217 41 215 38 211 C37 208 37 204 39 202 C45 197 55 199 60 199 C83 199 99 199 135 202 C148 203 152 203 156 206 C157 207 157 209 157 210 L157 210 Z " />
<glyph glyph-name="period" unicode="&#x2e;" horiz-adv-x="76" d="M41 113 C42 135 44 140 41 142 C25 149 22 135 22 135 L20 113 C20 113 40 106 41 113 L41 113 Z " />
<glyph glyph-name="slash" unicode="&#x2f;" horiz-adv-x="185" d="M-2 0 C-1 0 3 1 5 4 C5 5 6 9 6 11 C20 50 32 91 45 129 C57 169 71 207 84 247 C95 278 164 470 175 500 C189 536 203 574 217 611 C226 639 253 715 256 725 C259 732 262 738 257 745 C252 751 243 748 239 739 C231 728 181 594 171 565 C160 541 98 360 88 332 C76 299 67 267 57 234 C57 232 55 230 55 228 C43 191 32 155 21 119 C9 82 -2 46 -10 10 C-11 3 -6 0 -2 0 L-2 0 Z " />
<glyph glyph-name="zero" unicode="0" horiz-adv-x="183" d="M-4 212 C-4 209 -5 204 -5 201 C-6 179 -6 156 -1 136 C2 121 6 109 16 106 C24 103 30 101 38 101 C59 101 78 115 94 139 C112 166 125 199 136 236 C154 289 165 346 167 403 C168 442 160 489 133 495 C118 500 94 495 91 464 C91 461 92 455 94 455 C99 452 103 453 107 461 C109 462 110 464 110 465 C114 471 118 472 121 465 C129 449 131 425 132 405 C132 382 129 360 125 338 C121 305 113 274 103 243 C92 209 79 176 61 148 C55 139 48 129 39 127 C33 124 32 126 29 134 C26 154 25 174 26 193 C27 224 29 252 34 283 C39 316 47 350 55 383 C60 399 65 415 70 430 C71 433 72 438 71 442 C68 455 55 458 49 444 C48 441 47 439 45 436 C36 416 28 394 24 371 C10 318 1 266 -4 212 L-4 212 Z " />
<glyph glyph-name="one" unicode="1" horiz-adv-x="90" d="M13 119 C13 120 17 136 18 147 C26 189 27 199 35 237 C41 269 47 300 52 331 C52 334 54 337 54 340 C61 374 66 409 70 444 C70 452 71 461 70 469 C70 478 69 488 64 494 C61 498 56 500 51 498 C47 497 43 492 40 488 C37 485 35 480 36 477 C39 471 42 472 47 475 C49 477 47 466 47 463 C46 458 44 452 44 446 C42 435 40 424 37 413 C30 378 24 343 17 308 C13 285 8 260 5 237 C0 198 -5 158 -10 119 C-10 119 -21 117 -22 117 C-26 117 -31 116 -36 116 C-41 114 -44 108 -45 100 C-46 97 -44 94 -41 94 C-9 94 22 94 54 96 C57 96 61 96 63 99 C65 102 65 108 63 113 C61 116 57 116 55 116 C51 116 49 117 47 117 C35 117 25 119 13 119 L13 119 Z " />
<glyph glyph-name="two" unicode="2" horiz-adv-x="145" d="M128 91 C130 92 130 94 130 97 C130 98 130 100 130 102 C128 106 123 108 120 108 C115 109 111 111 106 112 C95 117 86 120 75 123 C67 125 60 128 52 129 C49 131 45 132 41 134 C39 134 31 136 31 136 C42 151 54 168 64 186 C75 207 84 227 92 248 C112 296 127 347 135 398 C138 424 139 449 128 471 C116 495 90 502 72 491 C52 480 38 458 27 430 C22 418 19 404 18 389 C18 384 18 378 21 375 C23 369 30 372 34 375 C37 383 38 387 39 392 C45 410 52 427 62 441 C71 454 86 475 98 463 C102 458 103 452 104 446 C107 432 104 418 102 404 C99 390 95 376 92 363 C80 313 62 265 42 220 C30 194 17 169 1 149 C-3 143 -9 140 -14 139 C-18 137 -23 137 -27 131 C-31 128 -33 122 -34 117 C-34 114 -34 111 -33 109 C-30 103 -19 106 -14 108 C-6 108 1 109 7 108 C15 106 22 106 30 105 C55 98 80 94 104 88 C110 88 124 83 128 91 L128 91 Z " />
<glyph glyph-name="three" unicode="3" horiz-adv-x="169" d="M89 353 C90 354 91 356 91 357 C96 368 101 379 106 389 C113 406 119 424 122 443 C124 452 125 462 122 472 C116 499 91 505 73 490 C52 473 35 447 28 414 C24 403 23 392 23 383 C22 377 23 371 28 370 C32 368 37 370 42 368 C46 368 47 371 48 376 C50 398 56 418 66 437 C73 452 82 464 92 473 C101 479 97 458 96 453 C90 433 80 415 73 398 C66 380 58 365 55 347 C54 341 56 338 60 336 C65 335 70 335 74 332 C83 325 91 316 96 304 C107 280 108 246 100 216 C94 195 85 175 74 157 C61 134 43 119 23 112 C13 111 10 112 7 126 C2 149 6 173 13 198 C18 213 25 228 35 239 C42 246 40 255 38 255 C32 259 23 252 17 243 C6 228 -4 210 -10 189 C-18 161 -24 117 -5 97 C11 82 36 85 55 94 C68 100 83 109 92 122 C103 134 112 147 119 163 C136 201 144 245 133 284 C125 313 110 341 89 353 L89 353 Z " />
<glyph glyph-name="four" unicode="4" horiz-adv-x="133" d="M106 498 C105 498 105 498 105 498 C101 497 98 486 98 479 C93 456 87 432 79 410 C69 383 61 356 48 333 C41 322 33 312 22 308 C9 303 8 320 7 333 C4 347 5 363 7 379 C9 396 12 413 16 429 C20 446 24 462 27 478 C30 486 27 494 23 497 C20 498 18 498 15 498 C14 498 12 498 11 498 C9 497 8 495 8 494 C5 489 4 486 3 483 C-7 459 -14 435 -18 412 C-23 386 -26 360 -21 334 C-19 320 -14 306 -6 298 C5 289 19 289 31 293 C46 301 56 320 65 339 C67 345 69 350 72 356 C68 333 65 312 61 292 C54 241 49 192 42 143 C39 131 38 120 38 107 C37 106 37 102 38 99 C39 96 44 96 46 95 C50 95 54 93 58 93 C61 93 64 93 65 95 C67 96 68 98 69 101 C72 109 73 118 75 128 C76 137 78 148 79 159 C82 180 84 200 88 222 C93 251 97 281 102 309 C106 334 110 361 114 388 C120 412 124 437 127 462 C128 470 128 478 125 484 C123 494 113 500 106 498 L106 498 Z " />
<glyph glyph-name="five" unicode="5" horiz-adv-x="155" d="M40 366 C43 387 46 407 49 426 C50 434 56 465 62 470 C65 472 69 472 72 472 C80 472 93 470 103 472 C119 472 116 489 114 491 C110 495 105 497 99 497 C80 498 62 498 42 494 C33 492 28 486 23 476 C21 472 1 369 -2 322 C-2 321 -2 318 -1 316 C1 314 3 314 5 314 C11 314 15 314 19 316 C22 316 26 316 29 318 C35 321 38 327 43 332 C46 338 52 343 56 347 C59 349 60 351 63 352 C66 355 69 357 72 357 C73 355 75 354 76 352 C82 344 86 335 87 325 C93 302 92 277 89 253 C83 212 68 178 46 146 C38 132 26 122 13 118 C12 118 9 116 6 118 C5 119 5 122 3 126 C1 140 1 155 3 171 C5 185 9 200 15 215 C16 218 19 223 18 226 C15 228 8 228 5 225 C3 225 2 222 1 218 C-8 203 -14 187 -18 170 C-25 141 -24 104 2 96 C13 91 28 93 39 96 C50 99 62 104 72 113 C86 124 96 138 105 155 C124 196 133 239 133 284 C133 316 126 343 110 363 C106 369 100 374 95 377 C89 380 79 382 73 382 C59 380 52 374 40 366 L40 366 Z " />
<glyph glyph-name="six" unicode="6" horiz-adv-x="150" d="M42 233 C39 226 32 197 32 208 C36 233 40 257 45 282 C56 338 72 392 90 445 C92 456 96 466 98 477 C98 479 100 482 98 485 C96 495 82 500 75 491 C65 476 59 459 52 442 C34 396 20 349 10 301 C1 262 -4 223 -4 184 C-4 152 -1 111 22 98 C48 83 73 109 88 139 C101 164 138 284 114 314 C99 333 76 302 67 285 C58 268 50 251 42 233 L42 233 Z M97 295 C100 291 97 269 97 266 C94 218 82 170 59 130 C56 125 52 119 45 118 C32 118 32 132 31 142 C42 184 59 223 77 260 C83 272 88 283 95 294 C95 295 96 295 96 295 C97 297 97 295 97 295 L97 295 Z " />
<glyph glyph-name="seven" unicode="7" horiz-adv-x="97" d="M71 463 C69 458 68 453 67 449 C52 407 45 379 33 335 C32 331 27 314 27 314 C17 312 4 309 -7 307 C-10 306 -13 301 -13 296 C-13 295 -12 293 -10 293 C-3 293 2 295 8 295 C14 296 17 296 24 296 C23 292 23 289 22 284 C21 276 18 269 17 261 C9 220 -1 178 -8 138 C-9 130 -10 123 -12 115 C-13 109 -14 101 -10 98 C-7 93 -1 93 4 95 C9 96 11 105 14 113 C14 118 15 123 16 127 C29 177 39 206 51 256 C53 264 58 284 63 300 C70 301 73 303 75 303 C76 304 79 312 77 314 C76 315 74 315 69 317 C75 335 83 357 89 377 C95 399 103 421 107 444 C112 458 110 472 103 481 C94 494 79 500 65 494 C55 489 42 484 30 478 C24 477 18 474 12 470 C9 469 5 467 3 461 C2 458 2 455 3 452 C5 446 14 447 18 447 C24 449 29 450 34 450 C44 453 53 458 64 461 C67 461 68 463 71 463 L71 463 Z " />
<glyph glyph-name="eight" unicode="8" horiz-adv-x="155" d="M128 445 C130 464 131 503 105 500 C72 496 33 392 24 361 C17 336 14 311 27 291 C30 286 15 269 14 266 C10 258 4 250 0 243 C-9 222 -19 199 -24 176 C-28 158 -32 141 -29 126 C-28 107 -17 99 -5 96 C6 93 18 93 30 96 C60 102 85 124 104 160 C115 180 119 204 111 226 C108 233 104 241 100 247 C97 254 89 258 92 268 C104 326 120 382 128 445 L128 445 Z M49 265 C53 260 57 257 61 252 C64 249 64 247 62 241 C61 236 61 230 61 226 C60 222 61 219 64 221 C68 221 72 221 76 222 C78 224 78 222 80 221 C85 205 87 190 78 173 C65 141 45 123 19 116 C10 115 7 118 7 130 C7 146 10 162 15 177 C23 207 34 233 46 260 C47 261 47 263 49 265 L49 265 Z M103 473 C104 458 103 445 100 431 C91 383 81 335 72 285 C72 285 72 283 72 283 C49 300 41 310 45 344 C46 357 49 371 53 383 C65 416 79 450 103 473 L103 473 Z " />
<glyph glyph-name="nine" unicode="9" horiz-adv-x="150" d="M99 325 C99 325 99 324 99 324 C98 309 97 292 93 276 C88 239 81 204 67 172 C60 153 51 136 39 125 C33 121 27 116 21 116 C16 116 6 118 6 127 C6 133 5 136 1 138 C-4 138 -10 132 -10 124 C-11 116 -6 110 -2 107 C10 93 28 90 44 95 C73 102 94 141 105 184 C119 233 127 282 132 333 C136 364 137 395 137 427 C136 441 133 455 125 459 C121 462 111 467 106 462 C105 461 104 456 103 453 C99 436 95 418 92 399 C84 365 77 333 65 302 C59 287 51 273 42 264 C34 258 32 259 29 270 C26 285 24 302 26 319 C26 356 32 392 43 427 C46 441 51 455 59 465 C66 476 69 476 75 464 C75 462 75 462 75 462 C77 450 83 447 91 447 C98 449 99 449 98 461 C98 462 97 462 97 464 C88 505 51 509 31 479 C28 475 26 472 23 467 C12 447 5 422 0 398 C-5 372 -9 345 -9 319 C-9 295 -5 270 5 252 C13 236 28 232 32 232 C46 230 60 236 72 255 C81 268 87 285 92 302 C94 310 97 318 99 325 L99 325 Z " />
<glyph glyph-name="colon" unicode="&#x3a;" horiz-adv-x="110" d="M59 234 C60 256 62 261 59 262 C42 270 39 256 39 256 L38 234 C38 234 58 227 59 234 L59 234 Z M60 154 C61 175 63 181 60 182 C43 189 40 176 40 176 L39 154 C39 154 59 146 60 154 L60 154 Z " />
<glyph glyph-name="semicolon" unicode="&#x3b;" horiz-adv-x="90" d="M40 184 C35 183 35 167 34 164 C32 147 30 131 30 115 C30 111 29 103 34 102 C43 100 44 113 46 118 C48 128 50 138 52 148 C53 154 55 160 56 166 C57 171 57 176 53 179 C50 182 44 185 40 184 L40 184 Z M55 234 C56 256 58 261 56 262 C39 270 36 256 36 256 L35 234 C35 234 55 227 55 234 L55 234 Z " />
<glyph glyph-name="less" unicode="&#x3c;" horiz-adv-x="203" d="M157 282 C147 280 135 275 132 274 C114 266 96 255 80 241 C61 227 29 202 38 175 C42 161 56 155 67 150 C86 142 104 134 123 127 C137 121 158 108 174 114 C181 124 129 142 109 152 C99 157 66 167 71 184 C76 200 99 217 112 226 C131 240 141 247 160 261 C163 262 174 271 174 274 C174 282 166 283 157 282 L157 282 Z " />
<glyph glyph-name="equal" unicode="&#x3d;" horiz-adv-x="217" d="M182 223 C183 225 181 227 180 228 C173 235 162 233 153 233 C141 232 129 232 118 232 C94 231 71 231 47 230 C42 230 38 229 35 225 C33 222 33 217 36 215 C42 211 55 213 62 213 C90 212 110 212 154 216 C170 217 176 216 180 219 C181 220 182 223 182 223 L182 223 Z M182 183 C183 185 181 187 180 188 C173 195 162 193 153 193 C141 192 129 192 118 192 C94 191 71 191 47 190 C42 190 38 189 35 185 C33 181 33 177 36 175 C42 171 55 173 62 173 C90 172 110 172 154 176 C170 177 176 176 180 179 C181 180 182 183 182 183 L182 183 Z " />
<glyph glyph-name="greater" unicode="&#x3e;" horiz-adv-x="193" d="M33 283 C30 281 31 277 33 274 C37 268 42 265 48 263 C56 259 92 241 113 229 C116 228 117 225 115 223 C92 198 68 174 46 149 C40 143 27 133 28 123 C29 112 46 109 54 111 C62 115 74 126 83 134 C100 149 109 156 131 173 C144 184 154 191 158 205 C159 211 158 215 154 221 C147 234 132 243 119 250 C101 259 82 268 63 276 C56 280 40 287 33 283 L33 283 Z " />
<glyph glyph-name="question" unicode="&#x3f;" horiz-adv-x="277" d="M282 662 C281 676 279 688 272 700 C263 718 248 731 231 740 C222 745 212 746 202 747 C185 749 169 748 154 742 C137 737 123 727 109 714 C98 702 87 688 79 671 C70 654 66 633 63 611 C62 603 62 595 63 586 C64 580 66 576 71 576 C74 576 81 577 81 580 C82 587 82 594 83 600 C87 623 96 645 107 664 C123 690 143 711 169 723 C181 728 193 730 207 726 C225 719 239 704 244 683 C248 668 249 652 248 636 C247 618 246 599 241 581 C239 566 235 552 231 538 C225 520 220 502 214 484 C208 468 202 451 197 434 C188 407 180 381 172 355 C165 329 157 301 151 275 C145 253 141 230 137 207 C132 184 126 162 122 139 C120 132 119 126 118 118 C117 112 117 112 124 112 C132 111 133 113 135 119 C140 137 145 153 149 171 C155 189 160 209 165 228 C170 242 175 256 179 270 C188 298 196 326 205 354 C215 388 227 422 239 457 C246 477 253 497 259 518 C266 542 273 566 278 591 C282 614 284 638 282 662 L282 662 Z M113 57 C109 54 108 46 107 42 C107 35 107 30 106 23 C106 15 102 -1 113 1 C118 2 120 8 121 13 C122 21 124 30 124 37 C124 43 125 48 123 54 C120 57 116 60 113 57 L113 57 Z " />
<glyph glyph-name="at" unicode="&#x40;" horiz-adv-x="300" d="M158 186 C160 175 162 161 172 154 C183 147 201 148 212 152 C246 162 260 203 267 234 C271 250 272 267 271 284 C270 305 265 325 254 344 C244 361 231 376 214 388 C199 398 183 403 167 406 C145 409 125 407 105 401 C82 393 63 379 48 361 C35 345 25 328 17 308 C8 286 3 262 0 237 C-3 215 -3 192 -1 169 C1 145 6 122 17 99 C35 63 65 32 107 28 C134 25 167 30 188 48 C209 67 221 94 229 121 C231 127 231 140 220 137 C215 136 213 130 211 126 C203 110 195 94 185 79 C171 59 152 46 126 42 C106 39 89 45 75 60 C57 80 46 102 40 126 C35 145 33 164 32 183 C30 207 32 232 36 256 C42 291 54 324 76 352 C87 368 102 380 120 389 C134 395 149 398 165 395 C183 391 198 384 212 371 C223 360 231 346 236 332 C243 313 246 294 246 275 C246 257 244 239 239 221 C235 207 229 193 220 181 C214 174 207 167 197 164 C194 162 193 163 192 167 C187 177 187 188 187 199 C187 220 189 240 192 260 C193 269 196 276 195 284 C195 291 190 295 183 297 C180 298 177 298 175 297 C168 295 162 281 164 275 C163 277 163 279 162 280 C155 294 143 304 127 305 C108 307 95 293 87 277 C80 262 76 246 73 229 C71 211 70 192 74 172 C76 164 80 154 86 148 C94 140 107 140 118 141 C135 143 144 155 151 170 C154 175 156 180 158 186 L158 186 Z M161 255 C160 248 158 241 156 235 C150 217 143 198 134 181 C129 173 124 166 117 160 C115 159 113 157 110 155 C108 160 107 163 106 167 C101 181 100 195 100 209 C101 226 103 242 109 258 C113 270 118 281 127 290 C130 293 131 293 135 290 C140 286 144 281 146 275 C148 270 149 266 150 262 C152 257 153 256 159 255 C159 255 160 255 161 255 L161 255 Z " />
<glyph glyph-name="A" unicode="A" horiz-adv-x="437" d="M416 339 C411 345 405 349 398 350 C398 352 398 353 398 355 C400 381 400 458 400 459 C399 493 396 526 390 560 C385 585 380 610 370 634 C361 659 350 681 331 701 C309 726 282 742 248 746 C226 749 205 747 184 741 C157 733 135 719 114 701 C83 674 58 642 39 606 C28 586 22 565 17 543 C14 530 11 516 13 502 C15 495 16 489 20 484 C25 479 31 477 37 479 C36 481 34 482 33 483 C31 484 30 486 29 489 C29 492 28 494 28 497 C27 510 29 523 33 536 C41 561 51 584 64 607 C77 628 91 647 107 665 C129 690 156 711 189 724 C203 730 218 734 234 734 C263 732 285 720 304 699 C317 685 326 668 333 650 C342 630 347 609 351 588 C353 574 356 560 357 546 C361 515 362 484 363 452 C362 450 362 434 362 433 C362 418 362 402 362 387 C362 375 361 361 360 350 C360 350 358 349 353 349 C345 347 341 347 332 345 C305 339 278 333 252 327 C245 325 238 323 231 321 C231 323 243 442 245 462 C245 476 244 491 241 505 C237 524 226 531 208 530 C203 530 200 527 196 524 C185 513 176 499 170 484 C161 466 155 446 148 427 C143 411 138 395 133 379 C129 365 125 350 121 335 C117 320 113 304 109 289 C108 287 107 286 105 286 C98 283 -39 222 -60 217 C-62 216 -61 213 -62 212 C-62 209 -60 210 -59 209 C-50 208 -41 209 -32 212 C-16 218 2 224 19 230 C44 241 70 251 97 261 C99 262 100 262 102 263 C102 261 101 259 101 258 C99 252 98 246 96 240 C92 223 88 206 84 189 C78 162 72 135 66 108 C57 72 49 40 39 4 C28 -38 2 -135 -5 -156 C-6 -157 -6 -159 -7 -160 C-7 -155 -7 -152 -8 -148 C-8 -146 -10 -144 -11 -143 C-13 -143 -16 -143 -17 -145 C-20 -149 -20 -153 -21 -158 C-23 -163 -23 -168 -22 -173 C-21 -182 -13 -184 -10 -184 C-5 -185 -3 -184 1 -183 C7 -180 10 -173 12 -167 C16 -160 25 -134 26 -129 C31 -114 59 -28 67 0 C77 29 86 59 94 89 C105 127 116 165 126 203 C133 227 139 251 145 275 C146 277 147 278 149 279 C164 283 180 288 196 293 C201 295 207 296 213 298 C211 292 211 287 211 281 C206 250 202 219 200 188 C196 156 194 124 191 93 C188 56 187 19 191 -18 C192 -39 195 -60 202 -80 C204 -85 206 -90 208 -94 C208 -94 208 -94 208 -94 C208 -94 208 -94 208 -94 C209 -97 211 -100 214 -103 C215 -104 215 -105 216 -106 C220 -110 224 -114 228 -116 C237 -119 249 -118 253 -117 C261 -115 269 -112 275 -107 C280 -103 284 -98 289 -93 C302 -76 312 -57 321 -38 C333 -8 343 23 351 55 C360 86 367 118 373 151 C378 175 381 200 386 224 C391 258 394 292 397 327 C397 330 397 333 397 337 C399 336 400 333 403 332 C403 331 405 329 406 329 C409 328 410 328 412 328 C415 329 417 330 417 333 C418 335 417 337 416 339 L416 339 Z M154 300 C153 300 153 300 151 300 C152 301 152 301 152 302 C162 338 172 374 183 410 C191 438 200 466 213 492 C215 496 217 501 219 505 C220 505 220 505 220 505 C223 498 224 491 224 484 C226 461 225 439 223 417 C220 384 217 352 214 319 C214 318 213 317 212 317 C193 311 174 306 154 300 L154 300 Z M359 314 C356 289 355 264 352 239 C349 213 345 187 342 161 C338 138 334 115 329 93 C324 64 316 35 307 7 C302 -10 295 -27 288 -43 C282 -60 273 -74 262 -88 C257 -94 250 -99 244 -102 C240 -103 237 -102 233 -99 C231 -96 229 -92 227 -88 C221 -75 217 -62 215 -49 C210 -22 207 6 207 34 C208 59 207 85 209 111 C210 137 213 163 215 190 C217 219 221 249 225 278 C226 286 227 293 227 300 C228 302 229 303 230 303 C254 310 277 316 301 322 C319 327 338 330 355 334 C356 334 358 335 360 335 C360 328 359 320 359 314 L359 314 Z " />
<glyph glyph-name="B" unicode="B" horiz-adv-x="390" d="M44 587 C40 592 42 597 45 602 C46 607 50 611 52 616 C66 637 82 654 100 670 C122 691 147 706 172 717 C197 728 222 733 247 733 C268 733 289 727 308 715 C322 706 333 694 340 677 C347 661 349 644 348 627 C348 612 343 597 337 584 C329 561 319 541 306 520 C293 499 279 479 264 460 C241 430 216 403 190 378 C176 363 163 350 148 336 C137 325 124 313 113 302 C107 297 98 291 96 284 C94 277 98 269 104 267 C109 266 113 267 118 269 C124 271 129 274 135 276 C141 278 148 280 154 282 C166 285 178 287 190 289 C201 289 211 291 221 289 C241 287 260 279 275 263 C284 254 290 243 295 231 C298 219 300 208 301 196 C301 181 300 166 296 151 C293 134 286 118 280 102 C276 92 270 82 266 71 C255 47 242 24 226 2 C199 -36 168 -68 132 -92 C121 -99 109 -106 97 -110 C80 -117 59 -122 43 -108 C38 -103 34 -97 32 -89 C23 -64 20 -35 21 -9 C19 12 20 33 22 54 C24 75 27 96 30 116 C32 136 34 156 37 176 C41 196 44 216 48 237 C54 271 62 304 69 338 C76 373 84 410 92 445 C95 463 100 481 104 499 C109 517 112 536 120 553 C121 560 125 567 132 568 C130 573 125 578 121 578 C116 579 110 576 107 572 C103 566 99 559 96 552 C87 527 80 501 73 475 C63 438 55 400 45 361 C40 337 34 312 29 288 C23 262 17 235 12 208 C-2 151 -13 94 -16 34 C-18 -7 -19 -50 -8 -89 C11 -148 64 -151 109 -136 C140 -127 168 -108 194 -85 C214 -66 233 -46 251 -24 C268 -3 284 21 298 46 C308 64 316 84 323 104 C333 130 342 158 342 186 C342 201 340 215 336 230 C332 244 325 255 317 266 C301 289 281 302 257 308 C232 314 208 315 183 312 C182 312 179 312 178 311 C182 316 186 320 191 324 C206 341 223 357 238 375 C249 388 261 401 271 414 C291 438 309 463 325 489 C340 513 354 538 364 564 C371 583 376 602 378 623 C380 640 380 657 372 673 C362 699 346 717 326 730 C304 742 281 746 258 748 C239 750 221 748 202 745 C188 742 173 738 158 732 C138 723 119 712 101 698 C83 684 66 666 51 646 C43 634 35 621 31 605 C30 600 29 591 32 586 C35 582 38 583 44 587 L44 587 Z " />
<glyph glyph-name="C" unicode="C" horiz-adv-x="275" d="M179 -30 C168 -34 155 -51 150 -56 C130 -76 104 -103 76 -97 C64 -95 54 -85 46 -73 C25 -41 19 7 16 46 C8 137 18 229 37 317 C42 339 47 362 53 384 C61 414 70 444 80 475 C90 502 101 527 113 553 C123 573 133 593 144 611 C164 644 184 677 211 701 C226 714 261 741 274 710 C277 704 279 697 280 690 C284 660 276 631 271 601 C264 571 258 539 251 509 C238 449 224 389 211 330 C207 314 203 297 199 280 C186 225 174 169 161 116 C159 110 158 104 159 98 C161 88 169 87 176 90 C186 98 188 118 192 130 C196 145 199 160 203 176 C212 213 222 250 231 287 C239 317 248 348 255 379 C271 433 287 488 299 544 C310 585 320 628 318 672 C317 701 305 732 280 744 C235 765 188 715 160 679 C122 634 93 580 69 523 C57 496 47 469 38 439 C33 422 28 404 23 386 C15 356 9 328 3 298 C0 279 -4 258 -7 238 C-13 195 -16 149 -15 105 C-15 63 -12 19 -2 -22 C6 -57 20 -91 49 -109 C91 -133 143 -115 174 -76 C182 -67 197 -49 192 -35 C189 -28 184 -27 179 -30 L179 -30 Z " />
<glyph glyph-name="D" unicode="D" horiz-adv-x="396" d="M130 674 C126 671 122 664 121 655 C115 627 108 598 105 568 C85 466 69 362 56 258 C53 240 49 221 46 204 C44 167 38 130 33 93 C33 91 32 90 30 89 C23 86 17 83 9 80 C-8 72 -24 55 -35 35 C-57 -2 -67 -61 -42 -103 C-16 -144 34 -147 69 -136 C128 -122 173 -76 213 -28 C232 -6 250 20 264 46 C275 63 286 82 294 101 C307 128 318 155 328 184 C337 210 344 236 352 264 C358 297 365 331 366 366 C377 444 377 533 347 609 C319 677 266 733 203 743 C189 746 171 746 154 743 C137 739 118 729 102 716 C85 704 69 686 60 664 C56 652 46 623 60 617 C65 616 70 615 73 619 C69 625 69 631 73 638 C76 650 82 658 88 667 C113 701 151 732 191 729 C216 727 237 715 255 697 C263 689 272 680 278 670 C288 657 295 642 302 628 C304 617 309 606 311 595 C315 582 316 571 319 559 C322 541 323 522 326 503 C327 480 325 459 325 435 C324 415 323 394 321 376 C318 356 315 337 313 319 C309 309 309 299 306 291 C302 271 297 254 293 234 C290 221 287 211 282 199 C277 183 271 167 265 151 C260 135 253 118 245 101 C237 83 228 65 218 49 C218 49 199 57 192 60 C179 64 164 70 153 75 C128 83 104 91 78 93 C76 93 59 92 57 94 C57 94 57 95 57 96 C58 98 58 101 59 106 C76 210 96 313 115 416 C128 490 142 564 150 639 C151 648 152 655 150 664 C148 670 142 676 136 676 C135 676 132 675 130 674 L130 674 Z M205 25 C200 17 194 9 190 2 C175 -16 162 -32 148 -48 C117 -78 81 -107 40 -116 C27 -118 14 -118 2 -112 C-34 -91 -28 -25 -14 9 C-3 34 16 64 43 61 C47 60 51 60 53 65 C56 74 77 68 84 67 C96 63 110 60 122 55 C149 49 175 38 202 28 C203 27 203 27 205 25 L205 25 Z " />
<glyph glyph-name="E" unicode="E" horiz-adv-x="329" d="M162 219 C144 199 123 183 105 165 C87 147 71 128 56 108 C41 87 28 65 17 42 C8 24 1 5 -4 -14 C-15 -53 -21 -95 -8 -134 C1 -160 18 -183 46 -187 C52 -188 58 -188 64 -188 C64 -188 65 -188 65 -188 C65 -188 66 -188 66 -188 C102 -185 131 -159 154 -133 C178 -105 198 -72 218 -41 C238 -11 258 19 277 50 C282 57 286 64 290 72 C292 76 292 80 291 84 C289 88 288 88 284 88 C281 88 280 87 278 85 C275 81 272 77 269 73 C252 47 235 22 217 -3 C196 -33 174 -63 152 -92 C138 -112 122 -129 105 -144 C96 -152 85 -159 74 -163 C66 -166 58 -167 50 -164 C48 -163 46 -162 44 -161 C44 -161 43 -160 43 -160 C30 -150 25 -131 23 -115 C21 -96 21 -77 24 -58 C30 -21 45 14 63 46 C73 63 83 79 95 94 C107 108 118 122 130 136 C146 154 164 171 180 188 C186 194 190 200 194 206 C208 226 175 236 161 240 C141 246 119 250 100 259 C87 265 75 272 66 283 C55 296 50 312 47 329 C44 351 45 374 49 396 C54 425 63 454 73 481 C82 506 93 531 107 554 C118 574 129 594 141 613 C154 632 168 650 182 667 C196 682 210 697 227 709 C239 719 252 728 266 733 C274 736 281 734 287 729 C295 722 298 712 300 702 C303 686 302 670 300 654 C296 623 290 593 280 564 C270 529 258 495 247 461 C239 438 232 416 225 393 C218 370 211 346 205 323 C202 312 200 302 198 292 C197 288 199 284 203 283 C207 281 210 284 212 288 C219 297 222 307 226 317 C230 329 235 341 239 353 C247 375 255 399 263 422 C269 441 275 460 281 479 C288 502 296 526 302 549 C312 582 319 615 324 650 C326 666 327 683 325 700 C322 716 315 729 301 739 C289 748 275 749 260 748 C244 747 229 739 215 731 C193 718 174 701 157 682 C123 647 95 607 71 564 C60 542 49 519 40 496 C34 480 29 465 25 448 C16 417 11 384 12 351 C13 330 17 309 28 289 C34 279 42 270 51 262 C65 251 81 244 98 239 C113 234 129 230 145 225 C150 223 156 221 162 219 L162 219 Z " />
<glyph glyph-name="F" unicode="F" horiz-adv-x="269" d="M88 390 C88 384 89 376 88 371 C86 353 86 335 85 317 C84 297 82 277 81 257 C80 235 78 213 77 191 C76 169 74 148 73 127 C71 102 70 77 69 53 C68 30 66 7 64 -15 C65 -25 64 -35 63 -44 C61 -68 61 -91 60 -114 C59 -118 58 -123 58 -128 C59 -137 58 -146 58 -155 C57 -159 58 -162 58 -165 C57 -168 58 -171 61 -172 C65 -173 69 -173 73 -170 C78 -166 80 -160 81 -154 C82 -143 83 -133 83 -123 C87 -100 88 -76 90 -52 C91 -30 94 -8 96 14 C98 41 100 67 103 94 C104 122 106 152 109 182 C111 205 113 228 114 252 C117 274 119 296 121 318 C123 344 127 372 129 398 C129 398 130 399 132 399 C152 405 174 411 195 416 C212 420 229 423 247 426 C253 427 259 424 265 423 C268 422 276 421 275 427 C275 428 273 429 272 430 C269 435 265 438 260 439 C254 441 248 441 244 441 C234 441 225 440 216 438 C193 434 169 429 147 425 C141 424 137 422 132 421 C132 423 132 424 132 425 C134 447 136 470 138 493 C141 525 145 556 147 587 C149 612 154 676 155 682 C155 690 156 697 155 702 C155 702 171 705 178 706 C194 707 210 709 225 711 C239 712 253 713 268 715 C290 716 312 718 334 720 C359 722 383 724 407 725 C423 726 440 727 456 728 C464 729 472 729 481 730 C497 730 513 731 529 731 C532 731 534 731 536 730 C541 728 546 726 551 727 C554 727 558 727 558 731 C559 732 557 734 556 735 C554 738 551 741 547 743 C542 746 535 746 529 746 C523 747 516 747 510 747 C497 748 484 748 469 747 C443 747 416 745 389 744 C365 743 340 741 315 740 C289 738 264 737 240 735 C223 733 205 732 187 731 C161 728 134 726 109 722 C86 719 64 715 43 711 C24 707 6 702 -11 697 C-20 694 -29 691 -39 687 C-45 685 -58 682 -56 674 C-54 665 -39 670 -35 671 C-26 673 -17 675 -5 677 C13 681 33 685 53 689 C77 693 100 696 123 699 C126 700 127 700 131 700 C130 693 128 687 128 681 C123 661 120 642 116 621 C112 595 109 569 106 543 C102 521 100 500 97 479 C95 457 92 433 91 412 C91 412 66 405 61 403 C18 387 10 384 -32 366 C-39 363 -46 355 -41 346 C-40 342 -33 345 -20 350 C-10 355 -3 357 26 368 C53 378 74 385 88 390 L88 390 Z " />
<glyph glyph-name="G" unicode="G" horiz-adv-x="334" d="M264 354 C264 353 264 353 264 353 C260 352 258 347 256 343 C222 267 184 192 137 125 C121 102 82 38 48 53 C37 58 31 71 27 83 C3 159 19 241 32 313 C48 392 71 469 98 544 C105 561 111 576 118 592 C126 607 134 623 143 637 C153 653 214 751 238 714 C243 704 243 691 242 680 C241 642 226 607 215 573 C200 523 179 472 164 422 C163 419 163 416 163 412 C164 404 174 401 180 403 C186 407 190 414 193 421 C215 462 236 504 253 550 C269 589 288 636 286 682 C285 712 268 744 241 748 C186 754 144 684 119 638 C87 580 54 496 36 429 C11 352 -6 271 -11 187 C-15 136 -14 50 42 32 C49 30 56 30 64 30 C100 35 131 68 155 96 C179 125 200 160 218 194 C222 203 227 211 231 219 L231 219 L249 255 C249 255 248 252 247 248 C247 249 247 249 247 249 C246 241 244 232 243 223 C242 221 242 220 242 219 C242 219 242 218 242 218 C227 126 200 37 161 -44 C160 -47 156 -54 156 -54 C153 -55 148 -54 146 -54 C109 -53 72 -51 35 -49 C22 -49 10 -48 -2 -49 C-21 -51 -40 -55 -54 -68 C-69 -81 -80 -102 -76 -127 C-74 -150 -57 -171 -38 -180 C-20 -189 2 -189 22 -187 C84 -177 140 -139 176 -82 C178 -78 184 -70 184 -70 C190 -71 195 -72 200 -72 C216 -75 228 -77 243 -80 C244 -73 244 -68 234 -66 C232 -65 215 -63 192 -60 C257 49 290 183 288 318 C288 327 287 336 285 345 C280 352 271 358 264 354 L264 354 Z M143 -76 C126 -101 109 -123 86 -139 C62 -159 35 -171 4 -171 C-11 -172 -24 -169 -39 -158 C-45 -151 -51 -142 -54 -133 C-59 -111 -51 -91 -37 -79 C-24 -70 -13 -66 1 -65 C25 -63 48 -64 71 -65 C85 -65 100 -65 116 -66 C126 -66 136 -66 147 -67 C146 -70 144 -73 143 -76 L143 -76 Z " />
<glyph glyph-name="H" unicode="H" horiz-adv-x="385" d="M402 699 C401 703 401 707 400 711 C398 718 394 724 388 726 C380 728 373 727 368 719 C365 717 364 715 362 713 C355 703 348 691 343 679 C334 658 327 637 320 615 C305 570 296 524 288 477 C284 448 280 420 275 391 C272 368 269 344 266 320 C265 300 263 278 261 258 C261 254 260 251 258 249 C238 223 184 186 182 185 C183 188 185 195 187 201 C191 215 192 218 195 231 C211 302 222 373 228 446 C232 493 233 540 231 587 C230 615 226 643 218 670 C213 691 204 709 193 725 C184 735 174 743 162 746 C159 747 154 748 150 749 C141 750 131 749 123 745 C110 740 98 731 88 720 C59 688 37 650 21 605 C18 595 1 537 18 536 C22 536 24 537 25 542 C27 547 27 553 28 558 C34 583 43 605 53 626 C68 656 86 683 107 705 C117 715 129 724 141 730 C146 732 150 732 154 729 C167 724 175 713 180 700 C188 683 193 664 195 645 C198 618 199 590 199 563 C197 526 195 489 192 454 C188 416 183 378 177 341 C171 308 166 275 158 243 C153 221 140 167 140 167 C140 167 128 164 128 164 C114 160 106 158 91 154 C70 149 49 143 27 135 C7 125 -14 114 -29 91 C-40 69 -42 42 -34 17 C-26 -8 -12 -24 9 -31 C25 -35 40 -34 56 -29 C71 -24 85 -14 97 -1 C114 19 128 41 140 66 C150 91 162 116 170 143 L175 156 C175 156 233 190 255 212 C256 213 257 213 258 215 L259 216 L258 201 L258 201 C257 179 257 159 255 139 C254 87 251 52 250 0 C249 -46 247 -80 247 -130 C247 -144 250 -205 262 -221 C266 -226 276 -226 279 -222 C283 -215 277 -195 275 -186 C275 -176 275 -165 274 -154 C274 -129 275 -87 277 -62 C282 34 286 97 294 185 C298 213 302 241 304 269 C305 280 313 301 314 301 C338 351 356 405 369 461 C377 489 383 519 390 549 C395 582 400 615 403 648 C403 664 405 682 402 699 L402 699 Z M131 138 C131 138 131 138 131 138 C131 137 131 137 131 137 L131 136 C131 136 131 136 131 136 C121 104 110 74 96 46 C88 29 78 13 65 1 C55 -9 43 -17 29 -19 C15 -21 2 -15 -7 1 C-20 27 -22 54 -12 80 C-7 92 2 100 10 106 C24 114 36 119 50 123 C70 129 88 133 107 137 C114 139 121 140 128 142 C128 142 128 142 128 142 C128 142 128 142 128 142 C129 142 129 142 130 142 C130 142 130 142 130 142 C132 143 132 143 132 143 L131 138 L131 138 Z M388 665 C382 574 365 486 338 403 C331 381 327 362 317 342 C316 340 311 329 311 328 C311 331 312 339 313 346 C322 419 332 492 347 565 C353 601 362 638 372 674 C374 684 379 694 383 704 C384 706 384 707 387 710 C387 706 388 704 388 701 C390 689 389 677 388 665 L388 665 Z " />
<glyph glyph-name="I" unicode="I" horiz-adv-x="247" d="M216 571 C216 599 213 626 209 651 C206 671 201 690 192 709 C188 717 181 726 174 733 C160 751 133 754 115 738 C97 724 84 706 75 682 C71 674 69 666 69 658 C69 656 69 654 69 652 C72 650 78 651 80 653 C82 656 81 659 82 662 C83 666 83 670 85 673 C95 696 109 715 125 728 C138 737 150 738 160 725 C169 715 174 702 178 686 C182 666 183 645 185 625 C188 573 186 523 183 474 C180 425 174 378 169 330 C163 281 155 232 146 182 C137 142 128 103 117 64 C111 38 97 -3 97 -3 L89 -24 C89 -24 71 -13 70 -12 C41 2 6 20 -27 9 C-28 9 -29 8 -30 8 C-48 0 -63 -16 -72 -38 C-76 -45 -78 -53 -79 -61 C-88 -95 -83 -139 -63 -166 C-62 -168 -60 -170 -58 -172 C-33 -199 5 -192 31 -172 C64 -147 89 -103 109 -60 C109 -59 109 -59 110 -58 C110 -58 110 -58 110 -58 C110 -58 110 -57 110 -57 C111 -57 111 -57 111 -56 C111 -55 111 -53 111 -53 C111 -53 138 -74 139 -75 C143 -80 147 -88 153 -86 C160 -83 156 -79 154 -74 C147 -62 134 -53 117 -40 C118 -36 119 -33 119 -32 C132 -3 139 22 148 52 C167 120 182 188 194 258 C203 320 211 384 215 447 C216 489 218 530 216 571 L216 571 Z M73 -65 C64 -84 55 -104 42 -121 C31 -139 19 -156 2 -165 C-5 -170 -12 -172 -20 -174 C-27 -175 -34 -171 -40 -166 C-50 -160 -54 -148 -58 -134 C-65 -110 -67 -84 -60 -61 C-54 -40 -43 -22 -28 -12 C-14 -4 2 -4 17 -8 C28 -12 40 -17 51 -22 C54 -23 83 -39 83 -39 C80 -48 76 -57 73 -65 L73 -65 Z " />
<glyph glyph-name="J" unicode="J" horiz-adv-x="370" d="M76 499 C71 514 71 534 74 551 C80 583 92 619 108 645 C144 702 223 777 275 700 C286 684 292 666 298 647 C314 592 315 531 311 473 C309 413 304 374 291 315 C287 298 280 273 280 272 C247 342 182 372 122 341 C60 307 13 228 -12 147 C-23 108 -31 68 -33 26 C-35 -10 -34 -46 -28 -81 C-24 -104 -19 -125 -9 -144 C1 -164 16 -177 35 -179 C39 -179 42 -179 46 -180 C55 -182 64 -181 72 -179 C97 -173 120 -159 140 -140 C153 -128 165 -114 175 -99 C210 -51 238 7 260 67 C318 223 361 411 338 586 C328 660 291 743 227 749 C218 749 209 749 200 747 C165 738 134 709 111 674 C87 640 63 594 58 546 C58 531 59 498 76 499 L76 499 Z M269 256 C271 255 272 255 273 253 C275 250 276 251 274 246 C272 239 271 232 268 224 C265 210 261 196 257 182 C248 154 239 127 230 100 C215 58 198 17 178 -21 C162 -53 144 -83 121 -108 C107 -126 91 -141 73 -151 C67 -154 59 -157 53 -158 C39 -161 27 -155 17 -142 C11 -134 8 -124 5 -114 C-1 -97 -5 -78 -7 -59 C-11 -7 -7 46 4 98 C10 130 19 160 30 189 C55 251 100 322 157 334 C196 342 234 316 258 276 C261 270 263 262 268 257 C268 256 269 256 269 256 L269 256 Z " />
<glyph glyph-name="K" unicode="K" horiz-adv-x="314" d="M95 263 C109 282 130 314 143 333 C155 353 169 373 182 393 C195 413 209 433 222 453 C241 481 260 508 279 536 C289 551 298 565 308 580 C320 596 330 613 341 629 C354 650 367 671 381 691 C392 709 396 716 407 731 C414 742 404 751 401 747 C396 741 391 735 386 728 C376 715 364 694 351 677 C336 655 325 638 307 612 C279 569 266 550 245 520 C219 481 200 452 175 413 C156 386 139 359 121 332 C103 306 86 280 69 253 C87 400 107 546 125 692 C126 703 125 720 116 721 C108 722 104 711 102 702 C71 543 46 381 26 217 C15 229 2 245 -4 250 C-18 265 -42 279 -44 249 C-46 226 -42 202 -30 183 C-17 165 6 157 22 169 C8 52 -4 -66 -14 -184 C-5 -191 6 -186 12 -176 C23 -159 23 -130 26 -108 C30 -82 33 -57 35 -31 C41 21 47 76 53 128 C143 18 237 -91 336 -192 C358 -213 383 -242 394 -223 C397 -218 391 -209 377 -195 C280 -95 220 -29 190 5 C165 32 150 51 75 149 C52 179 64 214 64 214 C72 226 87 250 95 263 L95 263 Z M-7 177 C-12 177 -14 180 -16 184 C-21 195 -24 206 -25 218 C-25 221 -25 227 -25 227 L-25 234 C-25 234 -23 231 -22 230 C-12 214 -1 201 11 185 C5 181 -2 177 -7 177 L-7 177 Z " />
<glyph glyph-name="L" unicode="L" horiz-adv-x="221" d="M-4 -4 C1 -48 16 -112 62 -124 C92 -131 116 -123 148 -110 C179 -98 249 -61 279 -46 C286 -42 294 -37 304 -30 C307 -30 308 -28 308 -25 C309 -23 308 -19 305 -18 C303 -17 299 -18 298 -19 C293 -24 286 -26 281 -30 C252 -45 223 -60 194 -72 C161 -88 127 -104 91 -107 C81 -108 69 -108 62 -102 C35 -86 31 -46 29 -19 C25 22 27 66 32 108 C51 275 92 434 142 590 C154 619 164 649 175 679 C180 697 185 713 192 729 C193 736 195 745 185 748 C183 748 183 749 181 749 C180 748 179 748 178 747 C175 746 174 743 173 740 C168 734 164 725 161 718 C149 698 140 673 133 652 C126 635 121 618 113 602 C105 577 97 555 90 531 C56 427 26 321 9 212 C1 149 -8 83 -6 16 C-5 11 -5 4 -4 -4 L-4 -4 Z " />
<glyph glyph-name="M" unicode="M" horiz-adv-x="509" d="M539 699 C535 702 528 704 524 702 C520 699 517 690 515 686 C511 676 508 671 504 662 C490 633 475 606 461 577 C449 551 437 526 425 500 C412 470 398 440 385 409 C373 383 363 356 352 330 C343 307 333 285 324 262 C314 237 305 212 295 187 C284 160 272 132 261 106 C256 94 237 64 236 69 C233 79 232 83 231 89 C230 96 229 104 229 111 C227 125 227 139 227 153 C227 180 228 207 229 234 C231 261 234 289 236 316 C238 335 241 354 243 373 C248 402 252 432 257 461 C260 479 264 496 267 513 C273 541 279 568 285 596 C289 618 294 639 297 662 C298 669 297 675 289 680 C283 684 275 687 269 683 C265 678 263 673 260 667 C237 620 217 570 198 520 C187 493 177 465 167 438 C158 412 149 386 140 360 C129 325 118 291 107 255 C100 234 94 212 89 190 C82 164 75 137 69 111 C61 80 54 48 47 17 C46 14 45 11 44 8 C44 14 43 19 43 20 C43 34 42 39 42 52 C43 80 44 107 45 134 C49 184 52 233 56 283 C59 319 63 354 67 390 C69 409 71 428 73 447 C77 480 80 514 84 547 C86 572 87 598 87 624 C87 643 86 662 80 682 C77 694 71 706 62 716 C55 723 47 730 38 733 C34 734 30 735 25 735 C1 738 -21 727 -38 714 C-40 713 -41 712 -43 711 C-58 698 -71 682 -79 664 C-84 654 -91 640 -92 626 C-94 615 -92 605 -84 597 C-82 594 -77 590 -76 596 C-76 596 -76 597 -77 598 C-78 605 -79 610 -79 616 C-78 640 -67 660 -54 678 C-41 695 -24 711 -4 720 C11 727 29 730 42 712 C48 705 51 697 53 690 C58 673 59 657 59 641 C59 614 57 587 53 560 C51 541 49 521 46 502 C44 482 41 463 39 443 C36 424 34 406 31 387 C29 368 27 349 25 331 C23 312 21 294 19 275 C17 256 16 237 14 219 C13 202 12 186 11 170 C10 139 9 109 9 78 C10 46 11 12 17 -21 C19 -29 19 -39 26 -45 C35 -53 52 -50 58 -43 C59 -42 60 -40 61 -38 C64 -29 66 -20 69 -10 C71 0 73 10 76 21 C80 42 84 64 88 85 C92 105 96 125 101 144 C112 186 123 227 134 268 C138 285 143 302 148 319 C157 346 166 373 175 400 C184 425 193 450 203 474 C213 501 224 527 234 553 C236 557 237 561 239 566 C237 554 236 550 236 549 C233 535 233 535 230 521 C226 499 221 477 218 455 C214 430 210 406 207 381 C205 362 203 344 202 325 C200 303 198 280 197 258 C196 226 196 193 197 161 C198 143 199 125 202 107 C204 91 206 73 215 58 C222 48 236 47 245 49 C255 52 263 60 268 68 C276 82 283 98 289 113 C296 133 304 154 312 174 C324 207 337 241 350 275 C358 295 366 314 374 334 C385 360 396 385 407 411 C415 430 424 450 432 470 C441 492 451 513 460 534 C461 536 467 549 467 549 C467 549 456 511 452 494 C447 477 442 459 438 442 C433 421 428 400 423 379 C419 356 414 333 410 310 C406 290 403 271 400 251 C396 223 392 196 390 169 C387 146 385 122 383 99 C381 66 378 33 376 0 C374 -24 373 -49 372 -74 C371 -90 370 -106 370 -122 C369 -153 368 -183 371 -216 C371 -225 373 -239 383 -245 C387 -247 396 -248 398 -245 C401 -242 398 -236 397 -233 C395 -223 395 -215 395 -207 C394 -181 396 -154 397 -128 C399 -98 401 -67 404 -37 C406 -4 410 30 413 63 C417 100 420 137 426 173 C433 215 440 257 447 299 C453 334 461 368 468 403 C474 431 481 460 488 489 C497 521 506 553 516 585 C516 587 516 588 517 589 C521 605 526 620 531 636 C535 651 541 665 544 681 C546 687 545 694 539 699 L539 699 Z " />
<glyph glyph-name="N" unicode="N" horiz-adv-x="348" d="M365 702 C363 709 360 712 355 717 C346 725 330 732 322 726 C317 723 312 719 308 715 C293 701 282 683 272 667 C258 644 244 621 232 598 C215 568 201 538 188 507 C178 484 169 461 161 438 C153 417 145 394 139 373 C131 346 124 320 116 294 C111 277 108 259 103 242 C99 228 96 214 92 200 C90 189 87 176 85 164 C79 143 77 133 73 113 C73 112 72 108 71 104 L71 104 L71 104 C70 102 69 98 69 98 C69 98 69 104 69 106 L69 106 L69 106 C69 108 69 110 69 110 C69 116 69 126 70 131 C71 154 71 162 73 187 C75 210 76 233 78 256 C80 274 82 291 84 308 C86 334 90 360 92 385 C96 414 100 443 104 472 C107 498 110 525 114 552 C117 575 120 597 122 621 C125 645 125 669 124 693 C124 704 123 713 118 724 C108 743 91 752 73 747 C64 744 57 739 51 734 C30 713 16 689 7 661 C5 653 -1 634 9 626 C11 625 16 623 18 625 C19 626 18 629 17 631 C16 636 15 640 16 644 C17 650 19 655 21 661 C30 684 43 705 61 722 C67 728 75 734 83 737 C85 738 87 738 89 736 C92 733 94 730 95 726 C99 714 100 705 100 694 C100 666 96 640 92 614 C90 591 86 568 82 546 C80 528 77 509 75 492 C72 477 70 461 67 446 C65 427 62 409 59 391 C57 371 55 353 52 334 C50 315 48 297 45 278 C44 266 42 253 41 241 C41 215 39 190 38 164 C37 148 37 130 37 112 C37 97 39 81 42 66 C44 59 45 49 55 48 C61 47 71 46 76 50 C81 53 84 58 86 64 C89 73 91 82 92 91 C95 101 97 111 99 121 C106 148 111 176 118 203 C124 228 130 253 137 278 C143 304 150 329 158 354 C167 385 177 415 190 445 C198 468 208 491 217 514 C227 536 238 559 249 581 C259 601 270 622 282 640 C293 659 307 678 323 694 C326 696 328 699 332 703 C332 698 328 664 326 650 C322 630 317 612 313 594 C309 571 303 548 298 526 C295 512 293 500 290 486 C286 472 283 457 280 442 C276 425 273 409 270 392 C267 379 264 365 262 353 C260 340 258 328 255 316 C252 300 250 284 247 268 C244 251 242 234 239 218 C237 205 235 193 234 181 C232 156 229 130 227 104 C226 84 225 65 223 45 C222 11 220 -23 218 -57 C217 -79 216 -101 217 -125 C218 -135 217 -147 220 -157 C223 -170 235 -171 244 -168 C248 -167 245 -162 244 -159 C243 -155 242 -150 242 -145 C241 -133 242 -123 242 -111 C243 -65 247 -18 251 27 C255 68 260 108 267 148 C271 166 273 185 276 203 C278 216 280 228 282 242 C286 260 289 278 292 297 C293 309 296 323 298 335 C302 355 306 374 310 393 C312 407 315 421 317 433 C323 456 327 479 332 503 C335 518 339 534 343 550 C346 567 350 585 353 603 C357 620 360 636 362 652 C364 668 368 685 365 702 L365 702 Z " />
<glyph glyph-name="O" unicode="O" horiz-adv-x="496" d="M131 582 C131 585 127 590 128 593 C131 608 137 623 144 637 C159 664 177 688 201 705 C217 718 235 727 255 731 C268 733 282 733 297 728 C307 724 318 719 328 712 C338 705 346 698 354 689 C363 677 370 666 377 652 C385 637 391 619 396 603 C400 590 403 577 405 564 C408 549 410 535 412 520 C416 489 417 458 417 427 C417 399 416 371 413 344 C412 328 410 313 409 296 C407 283 405 269 403 255 C402 248 400 239 399 231 C396 219 394 205 391 191 C388 176 384 160 379 145 C376 129 371 115 367 99 C361 85 356 69 350 55 C344 39 337 23 329 8 C320 -9 310 -27 299 -44 C280 -75 256 -103 227 -126 C207 -141 184 -153 158 -156 C148 -158 138 -158 128 -154 C103 -147 84 -131 68 -109 C47 -80 33 -46 24 -12 C18 8 14 28 11 48 C7 73 6 97 6 123 C5 149 6 174 8 199 C10 223 14 248 19 271 C25 299 32 325 41 350 C51 380 63 407 78 433 C91 458 106 485 123 507 C141 527 179 565 203 573 C204 574 206 571 208 571 C213 573 211 577 207 580 C199 586 186 578 179 573 C155 558 135 538 115 515 C86 483 63 446 43 405 C32 381 22 354 13 328 C6 306 0 282 -5 258 C-14 219 -18 178 -18 136 C-19 114 -18 92 -15 69 C-13 51 -10 33 -7 16 C-5 3 -2 -8 2 -21 C5 -32 8 -41 12 -51 C17 -63 22 -74 28 -86 C35 -100 44 -114 55 -127 C62 -135 71 -144 81 -151 C113 -175 160 -175 172 -173 C200 -168 225 -159 248 -142 C272 -126 292 -105 309 -83 C323 -65 336 -47 347 -29 C364 0 379 31 391 62 C404 93 415 125 423 158 C431 187 438 217 442 247 C446 270 449 294 452 318 C456 349 457 381 458 412 C458 439 457 466 454 494 C452 528 446 562 436 595 C430 613 423 631 414 648 C405 665 394 680 382 694 C368 709 351 723 333 732 C317 739 301 743 285 745 C252 749 222 741 195 724 C178 712 163 698 150 681 C141 669 131 656 125 641 C119 628 110 611 112 595 C113 585 120 580 128 580 C130 580 131 581 131 582 L131 582 Z " />
<glyph glyph-name="P" unicode="P" horiz-adv-x="377" d="M376 519 C374 538 372 556 366 576 C356 609 343 639 318 666 C296 694 269 716 237 730 C215 740 193 745 171 747 C150 749 130 748 110 744 C85 739 62 728 41 713 C26 705 15 693 9 679 C5 670 0 659 0 647 C0 644 2 641 4 638 C6 631 15 628 20 630 C18 633 17 634 15 634 C10 636 9 639 8 645 C9 653 10 659 13 666 C23 685 38 699 57 709 C76 721 98 729 122 732 C134 734 147 735 160 734 C179 733 197 728 213 721 C234 713 249 701 268 686 C279 675 290 662 299 647 C308 636 313 625 318 613 C323 601 328 589 330 578 C337 556 339 535 341 513 C341 497 343 480 341 463 C338 448 338 434 335 420 C330 404 327 389 322 374 C318 358 315 344 307 329 C305 318 299 308 296 297 C286 275 275 255 262 234 C243 205 225 179 202 155 C183 130 157 109 131 93 C118 84 102 78 87 74 C83 74 81 73 78 73 C78 81 81 87 81 94 C82 112 85 129 87 148 C89 164 90 181 91 198 C96 222 98 246 103 271 C105 293 133 529 135 544 C135 550 138 558 132 565 C130 568 127 570 123 572 C118 573 114 572 112 569 C110 562 81 353 78 341 C75 325 52 110 52 93 C52 87 49 82 49 75 C49 75 45 76 44 76 C22 85 3 102 -7 127 C-24 155 -29 184 -29 213 C-29 232 -26 249 -22 266 C-20 269 -18 272 -17 275 C-16 284 -12 291 -7 298 C-3 306 0 312 4 319 C7 323 13 327 17 321 C17 320 18 318 20 318 C23 318 20 324 18 325 C13 331 5 327 1 323 C-21 306 -35 277 -42 247 C-45 221 -47 195 -42 167 C-39 155 -34 143 -29 133 C-27 123 -20 114 -15 106 C-6 95 3 85 12 78 C21 71 31 66 43 63 L49 62 C49 62 46 37 44 26 C43 1 40 -24 37 -49 C35 -83 31 -117 28 -152 C29 -158 30 -163 36 -164 C40 -165 45 -164 48 -162 C53 -160 53 -155 53 -150 C57 -123 58 -97 61 -71 C63 -49 67 -28 67 -6 C71 11 72 26 76 43 C76 47 76 59 76 59 L88 59 C93 60 97 60 100 61 C131 65 156 78 182 96 C200 111 220 127 236 146 C256 169 275 193 292 219 C307 243 321 268 334 295 C344 318 353 341 360 368 C369 395 375 422 375 451 C379 473 377 496 376 519 L376 519 Z " />
<glyph glyph-name="Q" unicode="Q" horiz-adv-x="358" d="M342 527 C342 544 341 561 339 578 C337 598 333 618 327 638 C323 651 318 665 312 677 C305 691 297 703 287 714 C272 733 254 745 230 748 C214 749 200 746 186 738 C173 728 162 716 152 702 C140 685 130 665 123 645 C117 630 113 614 109 598 C105 579 103 560 101 540 C100 520 100 501 102 481 C103 462 106 443 110 424 C114 411 117 397 120 383 C124 370 129 357 133 343 C135 334 137 326 140 319 C143 308 146 299 149 289 C154 271 158 254 163 237 C167 222 170 206 173 191 C175 173 178 155 179 137 C180 123 182 85 182 85 C182 85 176 77 176 76 C176 76 176 76 176 76 C163 58 148 41 132 26 C114 11 89 -6 65 0 C52 3 41 14 34 26 C16 56 8 96 4 132 C2 151 1 171 1 191 C0 221 2 253 6 283 C10 309 15 336 21 362 C27 388 36 419 43 441 C49 458 57 480 59 484 C60 487 62 490 60 493 C58 494 56 495 54 495 C51 495 49 492 47 489 C45 486 43 481 41 477 C34 463 21 436 7 394 C0 368 -7 341 -11 313 C-18 275 -22 237 -23 199 C-24 171 -23 145 -20 118 C-15 74 -2 18 33 -7 C65 -29 109 -20 139 0 C152 8 164 19 175 32 C177 33 179 35 181 37 C181 31 179 -46 177 -76 C176 -92 176 -103 174 -123 C174 -125 174 -140 174 -144 C175 -150 182 -152 186 -151 C190 -151 194 -147 195 -144 C196 -140 200 -114 201 -103 C203 -87 206 -71 207 -53 C211 -31 213 -8 216 16 C218 40 222 96 222 96 C222 96 231 112 231 112 C231 112 231 112 231 112 C236 121 240 130 245 139 C256 162 267 184 276 208 C285 230 293 253 301 275 C311 307 320 338 326 369 C332 398 337 427 340 457 C341 481 343 505 342 527 L342 527 Z M316 450 C314 422 309 395 302 368 C297 347 291 326 284 305 C276 278 266 253 256 227 C247 204 236 181 225 159 C223 155 221 151 219 146 C218 149 218 151 218 153 C214 189 206 225 195 260 C188 282 181 304 174 326 C165 352 157 378 150 404 C142 433 137 461 136 490 C133 526 136 562 142 596 C147 619 154 640 163 661 C171 679 180 695 193 710 C200 718 207 723 216 729 C223 733 230 733 238 729 C254 722 266 709 276 694 C282 685 288 675 293 665 C299 651 303 636 308 622 C316 593 320 562 320 532 C321 505 320 476 316 450 L316 450 Z " />
<glyph glyph-name="R" unicode="R" horiz-adv-x="354" d="M46 290 C46 290 46 290 46 290 C64 375 81 460 98 545 C99 552 100 562 94 565 C87 568 82 558 78 550 C59 508 49 464 40 420 C27 359 14 297 2 235 C-4 204 -9 174 -13 143 C-16 128 -17 112 -19 97 C-28 43 -37 -13 -46 -69 C-47 -77 -48 -87 -44 -96 C-41 -104 -31 -108 -26 -101 C-22 -97 -22 -91 -20 -86 C-1 26 19 138 38 248 C137 109 242 -23 355 -148 C371 -165 392 -184 413 -171 C364 -124 319 -69 276 -13 C201 82 128 177 54 273 C112 275 171 303 222 344 C272 385 314 441 346 501 C370 543 390 591 384 637 C379 674 359 704 333 722 C306 739 274 745 242 744 C138 742 36 671 -35 577 C-69 535 -99 487 -114 433 C-120 417 -119 394 -105 394 C-110 420 -98 450 -83 475 C-36 567 36 645 121 693 C165 719 215 736 263 730 C297 725 332 707 346 672 C357 644 355 609 347 577 C339 546 323 517 305 490 C273 438 237 390 193 354 C150 317 98 291 46 290 L46 290 Z " />
<glyph glyph-name="S" unicode="S" horiz-adv-x="401" d="M281 6 C281 11 282 16 282 20 C281 34 279 47 277 61 C272 81 265 101 253 119 C240 140 224 158 206 174 C185 194 161 211 138 227 C114 245 89 261 67 281 C56 290 48 299 40 311 C27 332 20 356 19 381 C19 402 21 423 27 442 C33 474 47 502 61 529 C75 555 91 579 109 601 C131 630 157 656 184 678 C210 699 236 716 268 726 C286 733 306 737 326 734 C344 732 362 724 376 709 C386 701 393 690 397 678 C403 662 406 645 404 629 C405 609 401 591 397 573 C392 552 386 532 378 513 C368 490 357 465 346 442 C336 420 326 399 314 379 C299 350 284 322 269 294 C262 282 253 271 248 258 C240 247 258 255 262 257 C266 261 271 266 274 271 C290 287 302 305 313 324 C327 344 339 365 350 386 C367 418 383 451 398 488 C408 513 416 539 422 567 C425 589 428 610 426 633 C424 651 421 669 413 686 C400 713 380 731 355 741 C330 750 306 751 283 748 C264 746 245 739 229 732 C199 719 173 701 147 680 C125 661 104 638 84 615 C61 589 40 559 25 527 C15 508 6 488 -1 466 C-6 446 -11 424 -11 401 C-12 382 -11 363 -5 344 C-2 332 4 320 11 310 C18 297 28 286 37 276 C55 258 74 244 93 230 C111 217 131 203 148 189 C163 178 178 165 189 150 C198 141 205 131 212 121 C222 104 231 84 235 64 C242 42 243 21 241 0 C241 0 170 -30 138 -56 C125 -68 106 -90 101 -111 C97 -126 98 -146 107 -161 C116 -174 130 -179 142 -180 C195 -185 232 -142 255 -94 C264 -74 271 -54 275 -32 C277 -25 280 -9 280 -9 C291 -8 301 -9 309 -12 C311 -13 320 -19 320 -14 C320 -12 320 -11 319 -10 C308 5 294 5 281 6 L281 6 Z M238 -21 C237 -24 236 -28 235 -30 C230 -51 225 -67 217 -86 C208 -108 198 -126 181 -141 C173 -151 162 -158 148 -161 C143 -162 138 -163 133 -159 C131 -158 130 -156 128 -154 C125 -146 125 -138 125 -130 C125 -116 130 -105 137 -95 C145 -79 160 -70 173 -60 C191 -47 209 -36 229 -26 C232 -25 236 -22 238 -21 L238 -21 Z " />
<glyph glyph-name="T" unicode="T" horiz-adv-x="307" d="M352 726 C313 752 262 752 222 731 C174 708 143 661 123 608 C113 581 108 553 103 525 C81 523 61 522 59 521 C54 521 50 521 45 521 C22 520 -1 520 -24 519 C-50 519 -75 518 -101 517 C-116 516 -132 514 -146 510 C-165 507 -182 500 -194 488 C-208 475 -215 459 -216 439 C-214 433 -214 424 -210 419 C-209 416 -205 415 -203 414 C-200 413 -199 413 -200 416 C-201 420 -203 423 -203 427 C-204 433 -205 439 -204 445 C-199 462 -188 474 -175 483 C-162 492 -145 498 -127 499 C-110 501 -93 503 -76 503 C-45 504 -15 503 14 503 C25 504 57 504 73 504 C80 505 90 505 99 506 C98 498 96 491 97 484 C90 438 89 391 86 344 L86 344 C78 222 65 110 64 104 C61 81 59 58 54 35 C43 -13 31 -62 15 -108 C8 -122 0 -137 -10 -148 C-11 -149 -11 -149 -12 -149 C-12 -151 -13 -152 -15 -152 C-18 -152 -22 -152 -26 -152 C-40 -152 -56 -153 -69 -157 C-77 -159 -79 -162 -85 -166 C-89 -172 -89 -179 -88 -187 C-87 -187 -87 -190 -86 -191 C-68 -217 -26 -195 -15 -187 C-7 -181 1 -174 8 -166 L12 -160 L19 -160 C21 -160 23 -160 24 -160 C24 -160 25 -160 25 -160 C39 -160 54 -161 72 -163 C78 -164 88 -166 96 -168 C101 -170 105 -172 110 -174 C112 -175 117 -177 119 -177 C121 -178 126 -179 124 -177 C122 -175 119 -172 118 -171 C110 -165 102 -162 93 -160 C74 -155 54 -154 36 -153 C35 -152 34 -152 33 -152 C30 -152 20 -152 20 -152 C49 -110 73 -44 86 19 C87 20 88 20 88 21 C88 21 88 21 88 21 C89 26 90 29 91 33 C112 135 125 360 125 360 L125 360 C129 422 136 508 136 508 L163 510 C176 512 189 514 203 516 C235 522 267 530 295 545 C308 551 319 557 329 564 C359 586 372 610 379 622 C401 681 368 713 352 726 L352 726 Z M-29 -171 C-35 -177 -52 -191 -62 -190 C-65 -190 -68 -190 -69 -187 C-71 -181 -68 -175 -63 -172 C-59 -168 -55 -166 -49 -165 C-38 -163 -19 -161 -19 -161 C-22 -164 -26 -168 -29 -171 L-29 -171 Z M363 629 C357 613 345 600 332 590 C312 575 292 564 268 556 C239 545 208 537 179 532 C166 531 155 529 144 528 C143 528 142 528 140 528 C141 535 143 542 143 548 C151 575 158 601 172 624 C177 641 188 655 195 668 C207 680 218 692 230 702 C252 720 282 731 309 727 C334 723 362 703 368 674 C373 659 371 643 363 629 L363 629 Z " />
<glyph glyph-name="U" unicode="U" horiz-adv-x="421" d="M432 697 C426 695 422 689 420 683 C409 646 399 611 384 577 C379 561 372 545 367 529 C357 508 349 486 340 463 C332 442 323 421 315 400 C308 383 301 366 295 349 C288 335 283 320 277 305 C271 291 266 276 260 260 C254 244 247 227 241 211 C234 193 227 175 221 158 C209 131 198 104 188 76 C179 57 170 38 159 20 C154 13 148 5 141 0 C135 -4 136 -4 132 4 C128 13 125 22 123 32 C117 54 117 76 116 100 C115 142 119 183 123 224 C124 245 126 266 129 290 C132 307 135 325 137 342 C139 362 143 381 145 400 C149 420 151 439 154 458 C157 474 159 489 162 504 C164 524 167 544 170 564 C172 583 174 602 175 621 C177 639 176 659 172 678 C170 693 165 708 155 720 C147 731 137 740 125 744 C105 750 86 749 71 741 C44 731 21 713 2 690 C-12 674 -23 654 -32 633 C-37 617 -43 601 -43 584 C-43 573 -37 551 -24 553 C-21 554 -24 558 -26 560 C-29 563 -31 565 -31 570 C-32 586 -28 601 -23 615 C-15 634 -5 651 7 668 C22 688 41 705 60 718 C71 725 85 732 98 734 C111 735 123 730 132 717 C140 707 142 696 145 684 C147 669 147 652 147 637 C145 621 143 605 141 588 C139 573 137 557 136 541 C133 528 131 515 128 502 C126 491 125 481 123 470 C120 456 118 443 116 430 C113 413 111 395 108 378 C102 338 99 304 93 264 C91 249 90 233 89 218 C86 190 85 161 86 133 C86 115 86 98 88 80 C89 57 93 34 101 11 C104 5 108 -2 112 -8 C119 -18 129 -20 140 -20 C151 -20 162 -16 170 -9 C179 0 185 10 191 21 C203 42 213 65 221 89 C232 117 242 145 252 174 C262 198 271 223 281 247 C293 281 304 312 315 344 C324 362 331 381 338 400 C344 417 348 424 353 440 C356 447 358 451 362 462 C360 450 357 439 356 434 C353 417 351 411 348 395 C346 384 344 373 341 363 C340 351 337 340 335 328 C333 317 331 306 328 295 C327 283 326 269 324 257 C322 241 319 226 318 210 C315 196 314 181 313 166 C311 148 309 131 309 113 C308 85 306 57 306 30 C305 7 304 -15 304 -37 C305 -58 305 -79 305 -100 C306 -128 307 -156 311 -182 C312 -190 316 -200 326 -195 C333 -193 330 -181 330 -173 C328 -165 327 -158 328 -151 C328 -129 328 -105 329 -82 C329 -57 330 -31 332 -6 C333 15 333 35 335 56 C337 78 340 101 342 123 C344 136 346 150 348 163 C352 186 354 209 358 231 C360 250 364 269 367 290 C371 316 375 342 380 368 C384 390 389 411 393 433 C397 454 402 477 407 498 C410 519 416 541 421 563 C428 586 433 610 439 633 C443 650 447 667 451 683 C454 693 444 698 436 698 C434 698 433 698 432 697 L432 697 Z " />
<glyph glyph-name="V" unicode="V" horiz-adv-x="327" d="M324 748 C323 748 322 746 322 746 C318 710 314 675 310 641 C304 614 299 586 294 557 C292 540 289 522 285 504 C282 481 277 457 273 433 C267 406 263 381 257 353 C254 335 252 317 247 299 C244 284 242 270 239 254 C234 231 230 208 225 186 C222 170 218 153 214 139 C212 126 209 111 205 98 C202 80 197 61 193 44 C190 29 186 13 183 -2 C179 -15 176 -29 172 -42 C165 -69 158 -95 150 -121 C145 -137 138 -153 131 -167 C128 -172 124 -177 122 -180 C117 -185 115 -186 112 -176 C107 -163 102 -150 100 -135 C93 -105 92 -77 90 -48 C88 -21 87 5 87 33 C87 76 87 119 87 159 C88 192 90 223 91 254 C92 296 92 338 94 381 C95 410 94 440 92 473 C91 491 87 510 82 530 C72 560 56 583 34 588 C28 590 21 591 13 588 C2 584 -9 575 -18 562 C-26 551 -33 538 -38 521 C-40 514 -43 499 -37 491 C-34 486 -29 486 -26 487 C-25 488 -25 488 -25 489 C-25 490 -25 492 -25 494 C-29 504 -25 515 -21 523 C-16 538 -9 550 -1 559 C13 576 34 584 52 555 C56 547 60 537 62 526 C66 506 68 488 68 469 C69 450 69 429 68 408 C68 388 67 365 66 343 C66 332 64 321 64 309 C64 294 63 281 62 266 C62 253 61 239 61 225 C61 215 61 207 60 198 C59 183 58 167 58 149 C57 130 56 108 57 86 C57 58 57 31 58 1 C59 -15 61 -32 61 -51 C62 -71 64 -88 68 -110 C70 -122 72 -134 75 -147 C79 -165 83 -183 92 -199 C103 -217 122 -215 135 -211 C157 -205 168 -176 177 -149 C183 -128 189 -108 194 -87 C201 -63 207 -37 213 -13 C218 10 223 35 228 58 C234 86 240 114 246 142 C251 162 254 186 259 208 C263 237 267 263 273 291 C278 322 284 352 289 383 C293 404 296 427 299 450 C304 480 310 509 314 540 C319 571 324 604 328 635 C332 663 339 709 336 722 C336 730 332 753 324 748 L324 748 Z " />
<glyph glyph-name="W" unicode="W" horiz-adv-x="810" d="M784 520 C784 520 784 521 784 521 C784 522 783 523 783 524 C783 544 779 563 775 582 C768 612 758 643 742 671 C733 689 721 706 706 720 C681 744 650 753 620 746 C602 742 578 726 575 702 C575 700 576 695 578 695 C579 695 580 696 580 697 C583 700 585 705 588 709 C610 747 669 740 698 708 C710 696 719 680 727 663 C733 649 739 634 742 620 C749 593 755 566 758 540 C761 510 762 480 762 450 C761 420 757 390 753 360 C748 332 742 307 735 281 C728 256 720 233 712 209 C705 191 698 172 689 155 C678 131 667 108 655 85 C640 56 624 30 606 4 C590 -18 575 -40 557 -60 C542 -77 528 -93 512 -107 C494 -120 476 -131 454 -136 C440 -139 426 -136 412 -125 C403 -117 396 -106 390 -93 C376 -66 367 -36 362 -5 C356 24 354 53 354 82 C352 121 354 159 358 197 C362 230 367 262 374 292 C376 308 390 341 371 347 C354 352 350 332 346 319 C343 308 340 297 337 286 C333 274 329 263 324 251 C315 230 306 208 297 187 C283 157 269 127 255 97 C243 73 231 49 218 25 C206 3 195 -19 183 -41 C168 -67 153 -91 137 -117 C126 -135 112 -154 97 -168 C90 -173 83 -178 76 -181 C73 -182 71 -182 69 -177 C68 -174 66 -171 65 -168 C58 -151 54 -133 53 -115 C49 -82 49 -49 51 -16 C53 5 54 27 56 48 C60 88 65 127 71 166 C76 195 81 224 86 251 C92 283 98 314 104 346 C109 375 114 405 119 434 C124 461 127 487 127 515 C127 528 126 542 123 555 C118 573 110 589 96 598 C83 607 69 607 55 605 C39 602 23 594 9 584 C-17 564 -38 539 -54 507 C-62 491 -69 473 -71 453 C-71 448 -70 443 -70 439 C-69 438 -69 436 -69 435 C-67 433 -64 432 -62 434 C-60 435 -60 437 -60 440 C-60 445 -60 451 -60 457 C-57 471 -52 483 -46 494 C-39 512 -28 527 -17 541 C-2 559 15 575 34 586 C45 592 55 596 67 596 C79 596 90 590 97 578 C102 566 104 555 104 543 C105 525 104 508 102 491 C97 464 92 436 87 408 C82 381 76 354 70 327 C66 305 61 283 57 262 C54 242 50 224 47 204 C43 180 39 155 35 130 C32 106 29 80 26 55 C23 27 21 -3 20 -34 C20 -67 21 -100 27 -133 C30 -150 34 -166 43 -181 C47 -188 51 -193 58 -196 C65 -199 71 -200 79 -200 C88 -200 97 -197 105 -193 C116 -188 124 -178 132 -169 C151 -147 167 -121 182 -93 C196 -68 210 -42 223 -15 C241 22 260 59 277 95 C291 124 304 152 318 181 C319 185 321 188 323 192 C324 189 323 186 323 183 C320 152 320 121 321 90 C322 65 324 38 328 12 C331 -8 335 -28 340 -47 C345 -60 349 -73 354 -85 C362 -102 371 -117 383 -130 C392 -142 404 -150 416 -154 C428 -158 440 -159 453 -159 C474 -159 493 -154 512 -145 C528 -136 543 -125 556 -113 C570 -99 584 -86 597 -71 C616 -46 633 -19 650 8 C667 37 683 67 698 99 C707 118 716 137 724 157 C730 172 736 189 741 205 C748 227 755 248 761 271 C769 300 775 330 779 361 C782 386 784 410 785 435 C786 458 786 480 785 503 C785 508 785 514 784 520 L784 520 Z " />
<glyph glyph-name="X" unicode="X" horiz-adv-x="274" d="M344 706 C343 710 340 713 337 713 C331 714 326 708 322 703 C319 698 313 692 309 686 C298 671 288 656 278 640 C257 609 237 576 219 541 C203 514 190 485 175 457 C164 433 156 415 145 392 C144 391 142 387 140 384 C140 386 140 393 140 394 C139 407 139 413 137 426 C132 477 127 528 119 581 C115 610 110 639 101 667 C96 685 89 702 78 717 C60 744 34 753 11 746 C-11 741 -29 729 -45 712 C-62 694 -76 673 -87 648 C-90 637 -98 606 -90 587 C-89 584 -83 582 -86 587 C-89 596 -87 617 -85 628 C-75 658 -52 699 -11 724 C1 731 20 738 33 733 C43 730 51 723 57 713 C72 691 76 663 80 637 C85 617 87 597 89 577 C93 547 94 517 97 488 C100 459 102 429 104 399 C106 386 108 373 108 359 L112 319 C112 319 98 282 97 280 C97 280 97 280 97 280 C88 260 79 239 71 218 C60 191 47 164 37 136 C22 101 7 67 -7 32 C-22 -4 -37 -40 -51 -76 C-60 -100 -71 -123 -79 -148 C-82 -157 -86 -166 -87 -176 C-89 -181 -89 -187 -88 -193 C-87 -195 -87 -197 -86 -197 C-81 -199 -78 -197 -75 -192 C-73 -186 -71 -179 -68 -172 C-61 -152 -52 -131 -45 -111 C-32 -84 -21 -56 -9 -27 C1 -2 13 23 22 47 C35 78 48 107 62 137 C70 158 78 179 88 200 C96 218 105 237 112 256 C114 260 117 265 118 269 C120 258 121 246 123 235 C125 212 129 190 132 167 C135 154 136 141 139 128 C141 110 145 92 148 75 C152 56 155 37 160 18 C164 8 165 -1 168 -11 C174 -32 179 -52 186 -73 C195 -99 203 -127 218 -149 C223 -154 226 -160 231 -164 C233 -166 234 -167 236 -168 C240 -170 244 -173 247 -174 C247 -174 247 -174 248 -174 C248 -174 248 -174 249 -175 C249 -175 249 -175 250 -175 C251 -175 251 -175 251 -176 C251 -176 251 -176 251 -176 C307 -191 336 -86 341 -73 C346 -60 336 -53 336 -52 C335 -52 335 -52 335 -52 L335 -52 C326 -71 318 -89 307 -106 C296 -126 283 -144 265 -151 C253 -156 242 -135 236 -122 C230 -107 224 -92 218 -76 C206 -38 198 1 189 39 C185 61 181 83 178 104 C171 137 168 170 162 203 C158 222 156 240 155 259 C152 282 151 286 148 310 C148 311 147 332 148 333 C155 349 162 364 169 380 C181 408 195 436 208 463 C221 490 235 517 249 544 C257 560 265 576 273 592 C282 609 291 627 300 644 C304 648 305 652 308 657 C310 660 312 664 315 669 C320 677 324 685 329 693 C333 696 335 701 337 701 C339 702 341 701 342 702 C343 702 344 705 344 706 L344 706 Z " />
<glyph glyph-name="Y" unicode="Y" horiz-adv-x="393" d="M377 640 C374 651 366 661 357 664 C343 667 335 650 331 636 C292 509 252 382 214 254 C195 197 177 147 149 88 C143 74 125 53 118 83 C105 175 111 264 122 351 C136 448 155 543 161 642 C161 648 162 654 162 660 C161 680 159 702 146 719 C140 727 130 733 122 736 C105 743 89 743 73 737 C47 726 8 688 -1 661 C-2 656 -3 651 -3 646 C-2 641 0 635 3 631 C7 628 13 626 16 629 C13 633 11 639 10 645 C10 650 13 655 14 659 C18 670 25 679 33 688 C45 699 57 711 71 719 C83 726 101 736 117 726 C127 719 132 704 134 693 C138 670 134 649 131 627 C107 473 71 322 75 159 C75 137 77 116 80 94 C81 88 89 49 110 39 C111 38 113 37 115 36 C115 36 115 36 116 36 C125 34 135 37 148 48 C149 49 159 58 168 74 C172 79 173 84 176 89 C177 90 177 91 177 92 C184 106 189 120 193 130 C251 288 340 588 340 588 L334 541 L334 541 C321 408 307 275 278 148 C242 -8 204 -74 188 -98 C184 -103 180 -108 180 -108 C180 -108 162 -105 153 -104 C129 -100 113 -96 89 -92 C69 -88 50 -84 33 -92 C17 -101 11 -125 18 -147 C23 -164 39 -179 54 -185 C70 -193 91 -193 109 -190 C141 -184 167 -161 190 -138 C194 -133 203 -124 203 -124 C203 -124 213 -124 224 -125 C255 -126 262 -127 287 -128 C305 -129 329 -131 323 -118 C273 -115 258 -115 211 -112 C325 94 352 353 378 609 C379 619 379 630 377 640 L377 640 Z M163 -130 C148 -145 135 -157 118 -166 C105 -172 92 -176 78 -175 C66 -175 55 -170 46 -161 C35 -151 27 -130 37 -115 C44 -104 55 -100 67 -103 C82 -105 91 -106 107 -109 C125 -112 144 -116 162 -119 C165 -119 167 -120 171 -120 C168 -124 165 -127 163 -130 L163 -130 Z " />
<glyph glyph-name="Z" unicode="Z" horiz-adv-x="376" d="M204 282 C200 268 197 259 194 250 C187 229 181 207 175 186 C169 167 163 150 157 132 C149 110 140 86 133 65 C122 41 112 18 100 -3 C88 -21 80 -35 67 -51 C66 -53 63 -55 63 -55 C60 -53 57 -50 53 -48 C22 -25 -39 5 -51 -48 C-57 -71 -47 -97 -30 -108 C-20 -113 -13 -115 -4 -115 C9 -115 19 -111 27 -109 C40 -104 53 -97 65 -87 C67 -86 67 -85 67 -85 C130 -123 176 -153 244 -173 C288 -186 362 -203 395 -161 C397 -158 404 -146 398 -140 C392 -135 385 -148 380 -151 C370 -160 356 -164 341 -165 C312 -168 280 -158 251 -150 C197 -133 143 -107 91 -74 C89 -73 87 -71 84 -69 C85 -68 86 -67 88 -67 C102 -51 114 -33 126 -13 C138 6 149 26 159 47 C170 72 180 99 190 127 C200 154 209 182 218 213 C225 236 231 260 239 284 C240 286 240 287 240 287 C263 289 289 291 314 291 C319 292 326 291 330 284 C331 282 331 281 331 279 C339 271 341 289 334 295 C326 302 310 302 302 302 C284 301 266 300 247 299 C247 299 245 299 243 299 C243 300 244 301 244 301 C252 334 261 366 269 396 C290 470 310 543 337 612 C349 637 361 663 373 689 C379 698 383 707 389 716 C393 729 381 737 369 739 C366 739 361 740 357 740 C292 747 229 745 168 731 C121 719 74 701 34 668 C-8 635 -43 578 -39 501 C-39 484 -26 471 -26 493 C-26 621 75 680 151 703 C190 714 227 721 267 723 C287 724 312 725 332 724 C343 723 357 723 368 723 C348 694 329 662 311 629 C279 567 260 494 240 420 C235 400 230 381 225 361 C217 340 212 315 205 294 C205 294 204 293 203 293 C190 291 183 289 170 287 C155 284 138 281 117 276 C110 274 104 261 119 264 C123 265 144 270 148 271 C156 273 162 274 182 278 C191 280 195 281 204 282 L204 282 Z M47 -72 C43 -75 40 -78 37 -80 C28 -86 18 -92 7 -95 C0 -97 -13 -96 -22 -91 C-30 -85 -35 -71 -34 -59 C-30 -47 -25 -39 -15 -38 C-10 -36 -2 -40 3 -42 C19 -49 24 -54 37 -63 C40 -66 44 -68 47 -72 L47 -72 Z " />
<glyph glyph-name="bracketleft" unicode="&#x5b;" horiz-adv-x="163" d="M133 730 C136 730 148 729 149 734 C150 749 132 750 124 750 C108 751 89 747 85 717 C83 701 81 686 79 671 C72 618 67 566 65 514 C60 427 58 341 57 255 C57 212 58 169 58 126 C59 105 59 83 60 62 C61 43 60 8 75 4 C88 0 98 -1 111 1 C118 2 121 0 121 12 C120 28 91 9 88 30 C87 40 87 84 87 90 C87 145 87 160 87 214 C88 382 91 551 112 716 C114 731 122 730 133 730 L133 730 Z " />
<glyph glyph-name="backslash" unicode="&#x5c;" horiz-adv-x="300" d="M227 4 C231 5 235 10 235 15 C231 54 222 89 215 126 C207 161 200 197 192 234 C193 237 192 239 191 241 C184 273 179 306 172 339 C165 367 122 546 114 571 C105 600 71 732 64 743 C61 751 54 753 47 745 C43 738 45 731 45 725 C47 715 67 639 74 612 C83 575 94 538 102 502 C111 471 158 281 166 251 C174 210 184 171 193 132 C200 95 210 54 218 14 C217 11 219 9 220 8 C222 5 224 4 227 4 L227 4 Z " />
<glyph glyph-name="bracketright" unicode="&#x5d;" horiz-adv-x="153" d="M21 -2 C33 -2 44 -1 56 1 C65 4 73 6 81 10 C87 12 91 18 93 27 C93 33 93 40 92 46 C93 71 93 96 93 121 C93 145 93 168 94 191 C93 233 94 275 96 317 C97 361 98 405 99 449 C100 483 103 517 103 551 C105 592 108 634 110 674 C110 681 110 688 110 695 C110 703 109 710 108 719 C104 740 89 751 73 747 C65 744 57 741 48 738 C41 736 34 733 28 730 C26 729 24 727 25 724 C26 721 29 722 32 722 C39 722 45 726 54 727 C60 729 69 731 75 733 C84 735 84 720 82 714 C83 671 78 629 75 587 C74 570 72 551 72 533 C70 504 68 475 68 446 C66 414 64 381 64 348 C62 302 62 255 61 209 C61 180 59 150 60 121 C60 96 60 70 60 45 C61 34 58 27 51 24 C43 19 33 15 23 14 C19 13 13 13 8 13 C5 14 0 17 0 10 C0 3 0 -1 5 -1 C11 -2 16 -2 21 -2 L21 -2 Z " />
<glyph glyph-name="asciicircum" unicode="&#x5e;" horiz-adv-x="154" d="M143 628 C144 620 160 631 162 641 C165 668 171 720 164 739 C158 754 135 755 124 733 C118 719 89 655 81 637 C76 625 74 614 81 614 C85 614 93 619 101 635 C111 654 120 671 129 687 C136 699 140 710 148 722 C148 712 144 643 143 628 L143 628 Z " />
<glyph glyph-name="underscore" unicode="&#x5f;" horiz-adv-x="274" d="M237 133 C238 134 236 136 234 137 C223 144 206 142 193 142 C175 141 158 141 140 141 C105 140 69 140 34 139 C27 139 19 138 16 134 C13 131 13 126 17 124 C27 120 45 122 56 122 C99 121 128 121 195 125 C219 126 227 125 234 128 C236 129 237 132 237 133 L237 133 Z " />
<glyph glyph-name="grave" unicode="&#x60;" horiz-adv-x="100" d="M102 693 C102 696 101 698 100 700 C96 710 92 721 88 731 C86 736 78 755 70 749 C66 746 70 737 71 733 C74 723 78 714 81 704 C83 699 85 693 89 690 C93 686 101 686 102 693 C102 693 102 693 102 693 L102 693 Z " />
<glyph glyph-name="a" unicode="a" horiz-adv-x="613" d="M613 235 L603 222 C588 202 560 164 543 143 C534 132 524 119 513 109 C510 106 505 103 500 101 C498 100 496 101 495 103 L494 105 C494 105 494 106 494 106 C492 112 491 118 491 123 C491 126 491 129 491 132 C490 152 493 172 497 191 C504 224 512 256 522 287 C523 290 524 294 524 297 C523 307 510 312 502 312 C495 312 492 307 489 301 C475 271 466 240 458 207 C458 205 458 202 457 200 C451 189 445 178 436 169 C431 164 426 159 419 157 C412 154 409 155 405 162 C401 170 399 179 399 188 C397 209 401 230 408 250 C413 264 419 278 429 290 C433 293 435 297 439 294 C447 288 447 278 449 270 C450 265 456 265 460 266 C465 267 468 271 469 277 C469 280 468 284 466 287 C453 313 419 315 400 295 C391 286 384 273 379 261 C378 258 377 255 376 252 C305 188 217 126 122 113 C92 109 54 113 33 136 C6 164 13 207 34 233 C43 243 57 254 70 255 C83 256 96 253 109 245 C106 262 82 265 69 263 C32 257 5 221 2 185 C-2 131 42 101 92 99 C144 97 196 113 242 136 C288 160 330 191 370 225 C369 221 369 217 368 213 C367 201 368 187 371 175 C377 155 394 142 415 142 C429 143 440 148 450 158 C450 159 451 160 452 161 C452 160 452 155 452 155 C453 141 452 126 456 113 C457 110 458 108 459 106 C462 98 472 83 495 86 C495 86 495 86 495 86 C495 86 495 86 495 86 L495 86 C497 86 498 86 500 86 C512 89 522 98 530 107 C551 129 568 153 586 178 C588 181 591 184 593 187 L614 215 C614 215 615 216 615 216 C625 229 613 235 613 235 L613 235 Z " />
<glyph glyph-name="b" unicode="b" horiz-adv-x="556" d="M419 242 C420 246 420 250 422 253 C442 285 461 316 479 348 C504 393 527 439 548 486 C570 534 588 582 600 630 C606 651 609 672 608 692 C608 699 606 706 602 712 C593 727 570 724 555 710 C549 704 542 697 537 690 C518 666 503 641 490 615 C475 586 463 556 453 526 C440 492 429 457 419 423 C411 392 403 360 396 329 C390 302 385 276 381 249 C381 247 380 245 380 243 C310 180 221 119 126 105 C97 101 59 105 38 128 C11 156 18 199 39 226 C48 236 62 247 75 248 C88 249 101 245 114 238 C111 254 87 258 74 255 C37 249 10 214 7 178 C3 123 47 94 97 92 C149 89 201 105 247 129 C293 153 337 185 377 220 C376 211 375 202 374 194 C372 173 371 153 370 132 C370 121 370 109 370 97 C371 82 372 68 376 54 C380 39 387 18 407 19 C417 20 430 23 441 27 C464 37 471 61 475 80 C478 96 478 111 476 125 C474 137 471 148 466 157 C464 161 462 164 460 167 C460 167 468 170 469 170 C486 174 503 181 519 191 C535 201 543 208 556 221 C561 226 563 230 556 235 C556 235 540 223 523 211 L523 211 C523 211 523 211 523 211 C519 208 515 205 511 203 C480 184 448 179 447 179 C446 179 445 180 444 180 C441 182 436 184 432 185 C426 185 421 184 415 181 C415 182 414 182 414 182 C416 202 418 222 419 242 L419 242 Z M426 293 C427 297 427 300 428 304 C433 330 438 356 443 382 C450 417 460 452 470 487 C479 516 488 545 499 574 C514 611 532 647 556 682 C563 691 569 700 578 707 C580 709 581 709 582 708 C586 703 587 698 587 692 C589 678 586 663 583 648 C577 621 568 594 558 567 C548 541 537 515 526 489 C520 473 512 457 504 441 C489 412 474 382 459 353 C448 334 438 314 428 294 C428 294 427 292 426 291 C426 292 426 292 426 293 L426 293 Z M421 165 C423 165 426 164 428 164 C435 165 437 162 440 158 C447 147 451 135 452 120 C453 107 453 94 449 79 C446 68 441 58 433 47 C431 45 429 43 426 40 C425 44 424 46 423 48 C419 60 417 72 416 84 C413 110 413 137 414 164 C414 165 414 166 414 167 C416 166 418 166 421 165 L421 165 Z " />
<glyph glyph-name="c" unicode="c" horiz-adv-x="555" d="M555 235 L555 235 C535 207 512 180 485 158 C478 151 470 145 462 140 C462 140 462 140 462 140 C459 138 457 137 455 136 C431 123 422 137 418 144 C417 148 416 152 415 156 C413 171 414 187 417 202 C421 223 429 243 438 263 C443 272 449 281 457 288 C463 294 468 287 469 281 C470 276 470 271 469 266 C469 261 472 259 477 262 C482 264 485 269 487 274 C489 281 490 288 486 295 C474 314 447 317 429 304 C414 294 403 280 395 264 C324 199 232 133 134 120 C105 116 67 120 46 143 C19 171 26 214 47 240 C56 250 70 261 83 262 C96 263 109 260 122 252 C119 268 95 272 82 270 C45 264 17 228 15 192 C11 138 55 108 105 106 C157 104 209 119 254 143 C301 167 344 199 384 233 C383 230 383 227 382 225 C377 200 375 164 386 140 C387 140 387 139 387 139 C387 139 387 139 387 139 C393 126 414 99 463 126 C490 142 513 164 533 187 C542 198 552 210 560 222 C567 232 555 235 555 235 L555 235 Z " />
<glyph glyph-name="d" unicode="d" horiz-adv-x="623" d="M648 724 C644 733 632 739 622 734 C614 730 608 719 603 712 C597 700 590 689 585 677 C575 656 564 635 555 613 C544 588 534 562 525 535 C517 512 509 488 502 465 C495 438 488 412 481 385 C472 349 464 313 458 277 C457 276 457 275 457 274 C449 283 436 286 424 282 C419 281 413 278 409 274 C408 274 408 274 408 274 C408 274 407 273 407 273 C407 273 406 273 406 272 C406 272 406 272 405 272 C405 271 405 271 404 271 C404 271 404 271 404 271 C402 268 399 266 397 263 C393 259 390 254 387 250 C317 187 230 127 137 115 C107 111 70 115 48 138 C22 165 28 209 50 235 C58 245 72 256 85 257 C98 258 111 255 124 247 C121 263 97 267 84 265 C47 258 20 223 17 187 C13 133 57 103 107 101 C159 99 211 114 257 138 C298 159 336 186 372 216 L372 215 C371 213 369 204 367 193 C367 193 367 193 367 193 C365 182 363 169 362 154 L362 154 C361 148 362 143 363 138 C364 127 369 116 380 112 C394 106 412 110 425 118 C430 121 435 125 439 130 C440 130 447 138 447 138 C447 138 447 138 447 138 C450 121 450 105 455 88 C458 78 461 68 468 60 C475 50 486 45 498 43 C499 43 501 43 502 43 C504 43 506 43 508 43 C516 43 523 46 530 49 C568 72 601 146 610 170 C616 183 625 209 630 220 C635 232 623 235 623 235 L603 190 C603 190 559 94 528 71 L528 71 C523 66 517 62 510 60 C504 58 500 59 496 64 C495 65 494 67 494 68 C485 84 481 101 479 118 C476 139 476 159 478 180 C478 183 478 188 479 191 C489 212 500 233 509 255 C528 297 544 340 559 384 C572 423 584 453 599 500 C616 549 621 576 633 621 C640 649 646 678 649 704 C650 710 650 718 648 724 L648 724 Z M447 194 C447 192 447 191 446 190 C437 174 428 158 416 145 C412 140 406 135 401 130 C399 129 397 128 394 127 C392 134 391 140 390 147 C389 180 397 211 412 240 C417 250 423 260 432 267 C436 270 437 270 440 266 C441 264 443 262 444 260 C446 258 447 255 449 253 C451 250 453 248 452 244 C451 227 449 211 447 194 L447 194 Z M571 480 C543 402 523 349 492 271 C502 332 511 372 514 385 C535 464 546 503 576 586 C590 622 604 657 622 691 C627 700 634 713 635 713 C618 641 610 603 571 480 L571 480 Z " />
<glyph glyph-name="e" unicode="e" horiz-adv-x="562" d="M562 235 C562 235 490 143 446 132 C445 131 445 131 444 131 C444 131 444 131 444 131 C444 131 444 131 444 131 C442 131 440 130 437 130 C415 131 412 165 412 175 C412 186 413 198 415 208 C417 216 421 235 425 236 C439 237 444 238 458 241 C468 243 480 254 485 264 C493 281 488 300 472 308 C459 316 441 314 429 305 C418 297 409 288 402 278 C402 277 402 277 401 277 C398 274 394 270 391 267 C376 255 361 243 346 231 C331 219 315 208 298 198 C282 188 265 178 247 170 C230 162 212 155 193 150 C184 147 175 145 166 143 C157 141 149 140 140 139 C124 138 107 139 91 144 C76 149 62 159 53 173 C45 186 42 202 44 218 C46 233 52 248 62 260 C68 267 75 273 82 278 C86 280 91 281 95 282 C100 283 104 283 109 282 C119 281 128 278 137 273 C136 280 130 285 123 287 C116 290 109 291 101 290 C93 290 84 288 77 284 C69 280 61 274 55 268 C42 254 33 237 31 219 C28 202 30 184 39 169 C46 156 58 145 72 138 C88 130 104 127 121 126 C145 125 168 128 191 134 C214 139 236 147 257 157 C278 167 299 179 318 192 C338 205 357 219 376 234 C379 237 382 240 386 242 C382 232 380 220 378 209 C378 204 377 198 377 193 C376 182 377 156 390 136 C390 135 390 135 391 135 C391 135 391 135 391 135 C396 128 403 121 412 117 C478 93 563 214 568 222 C573 229 562 235 562 235 L562 235 Z M457 289 C464 294 471 288 470 281 C469 273 462 266 457 261 C453 258 448 255 444 253 C439 251 434 250 429 249 C431 253 432 257 434 260 C434 261 435 263 436 265 C441 274 448 283 457 289 L457 289 Z " />
<glyph glyph-name="f" unicode="f" horiz-adv-x="570" d="M592 734 C589 737 583 738 579 738 C575 737 571 732 569 725 C564 711 559 696 554 681 C545 654 536 626 526 599 C519 579 512 560 506 540 C500 521 494 503 489 484 C484 469 480 455 476 440 C469 410 461 380 453 351 C446 322 439 293 432 265 C424 233 416 201 409 168 C403 145 396 110 395 107 C394 102 390 83 389 79 C317 18 228 -44 133 -54 C104 -58 67 -53 46 -29 C20 -1 27 42 50 68 C58 78 73 89 86 89 C99 90 112 86 124 78 C122 95 98 99 85 97 C48 92 20 57 16 21 C11 -33 54 -64 104 -68 C155 -71 208 -57 254 -34 C299 -12 344 19 383 50 C382 46 381 42 380 37 C376 14 373 -8 369 -31 C365 -58 362 -85 361 -112 C360 -140 360 -169 365 -197 C368 -215 373 -237 393 -244 C450 -265 471 -179 477 -140 C489 -67 475 12 434 75 C432 79 430 83 432 87 C433 89 434 91 436 93 C440 96 457 112 480 135 C508 161 552 203 559 210 C566 216 567 217 573 223 C577 227 575 231 570 235 C570 235 516 190 492 168 C475 151 437 116 434 113 C435 117 438 132 440 141 C446 169 452 198 459 227 C466 258 473 288 481 319 C489 351 497 384 506 417 C513 444 521 470 529 497 C537 523 544 549 552 574 C562 609 573 643 583 677 C588 692 591 707 595 721 C596 726 595 731 592 734 L592 734 Z M432 45 C442 27 447 7 451 -13 C459 -50 459 -86 454 -123 C451 -145 446 -166 438 -186 C434 -194 430 -203 425 -210 C423 -213 410 -231 406 -225 C401 -216 399 -205 398 -195 C396 -180 395 -164 396 -149 C397 -127 399 -104 401 -82 C404 -54 409 -26 413 2 C416 20 423 60 423 60 C424 59 426 56 426 56 C429 51 429 50 432 45 L432 45 Z " />
<glyph glyph-name="g" unicode="g" horiz-adv-x="600" d="M600 235 C600 235 576 200 568 188 C545 157 523 126 501 95 C499 93 496 88 494 85 C497 99 501 114 504 128 C509 151 514 175 519 199 C523 218 527 237 530 257 C532 264 533 271 534 278 C534 284 531 291 526 294 C519 299 505 300 499 292 C496 288 494 282 492 277 C490 271 487 266 484 260 C483 257 481 254 480 250 C477 267 472 276 465 284 C456 294 444 301 430 299 C417 298 405 289 397 281 C391 275 387 269 382 262 C312 199 224 138 129 125 C100 121 62 124 41 147 C14 175 21 219 42 245 C50 255 65 266 78 267 C91 268 104 265 117 257 C114 273 90 277 76 275 C40 268 13 233 10 197 C6 143 50 113 100 111 C152 109 204 124 249 148 C290 169 329 196 364 226 C359 212 357 198 356 184 C355 170 357 156 364 143 C373 128 392 125 407 128 C424 131 438 141 447 155 C457 168 465 182 474 196 C476 199 479 204 480 207 C480 204 479 200 478 196 C475 181 473 173 470 159 C465 135 460 110 455 86 C452 72 449 55 446 41 C445 37 444 34 441 30 C416 3 389 -23 363 -49 C341 -70 321 -92 303 -116 C288 -136 277 -157 274 -182 C270 -204 272 -237 299 -242 C311 -244 325 -242 337 -237 C354 -229 367 -216 379 -202 C395 -182 408 -160 418 -137 C431 -109 442 -81 451 -52 C461 -21 469 5 479 37 C488 49 508 78 520 94 C529 107 537 121 546 134 C561 157 577 180 592 204 C596 210 600 216 604 222 C607 228 607 231 600 235 L600 235 Z M457 209 C446 193 436 177 424 163 C418 156 412 149 404 145 C394 140 395 141 391 149 C386 163 385 177 386 191 C389 222 401 250 421 275 C424 279 428 282 432 285 C437 290 437 289 443 285 C454 278 458 267 459 254 C460 250 460 246 460 241 C460 237 461 236 466 236 C468 235 469 235 472 235 C466 226 462 217 457 209 L457 209 Z M427 -27 C422 -41 417 -56 413 -70 C404 -95 395 -119 384 -143 C375 -160 365 -178 353 -194 C344 -206 334 -216 322 -224 C318 -226 314 -227 310 -229 C306 -230 303 -229 301 -224 C299 -219 298 -213 297 -207 C295 -186 301 -166 311 -148 C323 -125 340 -105 358 -86 C378 -64 399 -43 419 -22 C423 -18 429 -12 433 -7 C433 -8 428 -22 427 -27 L427 -27 Z " />
<glyph glyph-name="h" unicode="h" horiz-adv-x="617" d="M617 235 C617 235 596 198 595 196 C586 181 574 159 565 143 C554 125 544 106 530 90 C527 86 519 78 514 77 C497 77 513 165 514 175 C517 192 521 209 522 226 C522 241 504 246 495 236 C493 233 485 222 478 211 C463 188 456 177 440 147 C434 136 426 125 419 114 C417 111 414 109 410 105 C409 109 408 111 407 114 C406 124 405 133 405 142 C404 178 408 209 413 245 C413 247 414 251 414 251 C430 268 445 290 456 310 C477 346 494 384 509 423 C530 475 547 529 562 583 C570 613 576 643 578 674 C579 683 579 692 576 701 C573 711 562 719 551 716 C541 714 533 705 527 698 C515 683 506 667 498 650 C476 609 461 566 446 522 C432 479 421 434 410 390 C397 341 386 291 380 241 C315 182 231 120 129 105 C99 100 62 104 40 128 C14 155 20 199 42 225 C50 235 64 246 78 247 C90 248 104 244 116 237 C113 253 89 257 76 254 C39 248 12 213 10 177 C6 123 53 91 103 91 C146 90 203 104 249 128 C295 152 339 187 378 221 C377 219 377 210 377 208 C377 203 376 199 376 194 C376 185 376 176 376 167 C377 148 377 130 383 112 C388 96 406 86 422 94 C431 99 437 109 442 118 C459 147 475 177 491 206 C484 171 473 136 477 100 C478 90 482 81 488 73 C507 49 535 68 550 86 C565 104 575 125 586 146 C594 163 614 205 622 223 C625 230 623 233 617 235 L617 235 Z M417 271 C418 279 419 287 421 295 C432 357 447 419 464 479 C476 525 491 571 509 615 C518 637 528 658 540 678 C543 684 547 690 552 695 C553 698 556 700 558 703 C561 699 562 695 562 691 C564 675 563 660 561 645 C555 599 542 555 527 511 C512 466 494 422 475 378 C464 351 451 324 437 299 C432 290 427 284 422 276 C421 274 417 270 416 269 C417 270 417 271 417 271 L417 271 Z " />
<glyph glyph-name="i" unicode="i" horiz-adv-x="519" d="M519 235 C519 235 459 167 446 152 C439 144 431 136 420 135 C417 140 414 150 414 159 C412 179 414 193 416 211 C417 229 420 247 424 265 C427 276 432 297 416 300 C415 300 414 300 413 300 C409 299 406 297 404 294 C404 293 403 293 403 292 C331 227 240 161 142 148 C112 143 75 147 53 171 C27 199 33 242 55 268 C63 278 77 289 90 290 C103 291 116 288 129 280 C126 296 102 300 89 298 C52 291 25 256 22 220 C18 166 62 136 112 134 C164 132 216 147 262 171 C308 195 352 227 392 262 C390 253 387 244 386 236 C381 211 380 185 384 160 C387 143 394 124 413 122 C431 119 444 127 457 142 C476 163 514 211 522 222 C526 226 526 230 519 235 L519 235 Z M433 390 C435 390 438 397 439 399 C443 417 444 421 446 434 C448 446 453 458 443 459 C439 460 437 459 436 455 C430 429 428 423 425 403 C424 396 427 390 433 390 L433 390 Z " />
<glyph glyph-name="j" unicode="j" horiz-adv-x="523" d="M523 235 C523 235 426 147 414 137 C417 167 424 218 428 248 C430 266 432 283 432 300 C432 305 431 309 430 313 C427 320 418 327 411 322 C340 256 250 189 152 176 C123 172 85 176 64 199 C37 227 44 270 65 296 C73 306 88 317 101 318 C114 319 127 316 140 308 C137 325 113 328 99 326 C63 320 36 284 33 248 C29 194 73 164 123 162 C175 160 227 176 272 199 C319 224 363 256 403 291 C398 259 392 228 387 196 C383 167 379 138 376 109 C373 106 370 101 369 99 C359 85 354 77 344 63 C313 21 281 -21 251 -63 C233 -87 217 -113 204 -141 C197 -155 191 -171 190 -187 C189 -201 193 -215 202 -226 C212 -237 227 -241 242 -242 C273 -243 303 -233 325 -212 C349 -188 365 -159 375 -127 C385 -97 389 -66 394 -35 C398 -8 402 18 405 45 C407 61 408 69 409 88 L413 121 C449 156 478 182 519 217 C531 226 528 230 523 235 L523 235 Z M365 44 C363 29 360 10 356 -17 C351 -52 346 -88 336 -122 C329 -148 318 -173 300 -194 C287 -210 271 -221 251 -226 C243 -227 236 -228 228 -225 C220 -222 214 -216 211 -208 C207 -197 207 -186 209 -175 C213 -158 220 -143 228 -128 C242 -103 258 -79 274 -56 C304 -11 320 9 335 30 C342 40 358 63 369 79 C369 73 366 49 365 44 L365 44 Z M431 399 C433 399 436 406 437 408 C441 425 441 430 444 443 C446 455 451 467 441 468 C437 469 435 468 434 464 C428 438 426 432 423 412 C422 405 424 399 431 399 L431 399 Z " />
<glyph glyph-name="k" unicode="k" horiz-adv-x="572" d="M572 235 C572 235 548 191 539 175 C525 151 517 133 499 112 C498 111 489 101 486 104 C481 107 481 114 480 119 C477 133 474 147 471 161 C467 179 465 196 451 209 C457 213 463 217 468 221 C483 231 495 246 502 263 C505 270 508 281 504 289 C499 299 486 298 478 291 C468 283 459 272 452 261 C439 241 432 230 420 208 C417 201 412 194 410 191 C412 202 415 223 416 229 C417 241 418 245 419 257 C420 258 420 260 421 261 C428 273 439 284 445 297 C471 344 491 395 509 445 C525 491 539 537 549 584 C558 623 566 663 568 703 C568 711 568 718 566 725 C564 736 553 744 541 741 C523 737 513 716 505 701 C495 681 487 661 479 640 C460 585 442 529 428 472 C413 416 401 358 393 300 C391 289 389 279 388 268 C317 205 228 143 133 129 C103 125 66 129 45 152 C18 180 25 223 46 250 C54 260 69 271 82 272 C95 273 108 269 121 262 C118 278 94 282 80 279 C44 273 16 238 14 202 C10 147 54 118 103 116 C155 113 208 129 253 153 C300 177 344 209 384 244 C382 230 380 217 378 203 C376 192 375 181 375 170 C374 164 374 159 374 153 C374 148 374 141 377 138 C381 132 398 133 403 138 C409 143 414 157 417 164 C422 177 424 182 429 193 C431 198 433 203 435 205 C442 200 445 184 446 175 C453 145 455 129 460 111 C467 85 499 85 514 105 C530 127 569 209 573 217 C581 232 577 232 572 235 L572 235 Z M426 297 C435 356 445 415 458 474 C472 534 489 593 511 650 C519 670 527 691 538 709 C540 714 541 715 544 719 C545 720 547 723 548 724 C548 717 549 711 549 706 C548 677 544 648 539 620 C532 584 524 548 515 513 C505 475 491 439 477 403 C464 371 451 340 436 310 C433 304 429 298 425 292 C425 294 425 296 426 297 L426 297 Z M490 287 C490 275 465 239 446 227 C450 243 479 283 490 287 L490 287 Z " />
<glyph glyph-name="l" unicode="l" horiz-adv-x="533" d="M585 718 C585 722 584 726 582 730 C576 740 563 743 552 736 C545 732 540 726 535 720 C530 712 525 704 520 695 C500 654 483 611 467 567 C454 529 442 490 431 451 C416 398 402 342 393 287 C322 224 234 164 139 150 C109 146 72 150 50 173 C24 202 30 245 52 271 C60 281 74 292 88 293 C100 294 114 290 126 283 C123 299 99 303 86 300 C49 294 22 259 19 223 C16 168 60 139 109 137 C161 135 213 150 259 174 C306 198 349 230 389 265 C388 257 387 248 386 240 C384 225 383 209 383 192 L383 192 C383 192 383 170 392 152 C397 140 414 117 448 135 C449 136 451 137 452 138 C469 148 483 162 497 176 C511 190 524 206 538 222 C544 230 533 235 533 235 C510 208 487 180 460 158 C456 155 452 152 448 149 C447 149 447 148 446 148 C446 148 445 147 444 147 C417 131 414 175 414 183 C413 193 414 202 414 212 C416 237 419 262 423 287 C424 293 426 299 431 304 C452 332 469 362 484 394 C503 432 519 472 534 512 C554 566 572 622 582 680 C585 692 586 705 585 718 L585 718 Z M566 666 C558 621 545 578 529 536 C509 485 488 433 463 384 C455 366 446 350 436 333 C435 330 431 324 430 322 C430 324 430 325 430 327 C431 332 432 336 433 341 C447 409 464 476 485 543 C501 590 519 637 540 682 C546 695 553 707 561 718 C563 720 565 722 567 725 C570 719 570 714 570 709 C570 695 568 680 566 666 L566 666 Z " />
<glyph glyph-name="m" unicode="m" horiz-adv-x="679" d="M679 235 C679 235 641 161 624 129 C616 114 609 98 600 84 C596 78 592 71 585 69 C581 88 586 108 588 126 C591 145 595 165 599 183 C608 227 621 270 628 314 C629 317 629 321 628 324 C626 334 613 342 603 337 C601 335 598 333 596 330 C565 277 549 246 525 199 C515 180 502 152 485 139 C484 145 483 149 483 154 C482 174 485 193 489 212 C493 236 499 260 504 284 C505 292 507 300 508 309 C509 316 502 324 495 324 C490 324 486 321 483 317 C477 311 443 245 429 219 C421 203 413 188 404 172 C403 171 402 170 401 170 C398 177 400 184 400 191 C403 215 407 238 411 262 C412 268 415 275 413 282 C412 287 406 292 401 288 C401 288 401 288 401 288 C400 287 399 286 398 285 C330 216 236 154 138 141 C108 137 71 141 49 164 C23 192 29 235 51 261 C59 272 73 282 87 283 C99 284 112 281 125 273 C122 289 98 293 85 291 C48 285 21 249 18 213 C14 159 59 129 108 127 C160 125 212 141 258 164 C305 189 349 221 390 256 C389 251 387 245 386 238 C383 222 380 212 378 190 C377 179 377 160 389 154 C411 143 424 173 431 188 C442 211 452 233 463 256 C466 262 471 271 474 277 C474 276 462 222 459 197 C457 180 456 164 459 147 C461 140 463 133 470 129 C490 119 509 133 517 151 C533 185 549 216 565 250 C573 267 575 270 584 287 C589 296 593 301 597 307 C597 304 593 291 593 290 C583 259 576 227 569 195 C561 163 556 131 555 98 C555 85 554 68 567 60 C576 54 589 54 598 59 C609 65 616 80 621 90 C634 116 648 142 660 169 C669 186 683 218 683 220 C688 231 684 233 679 235 L679 235 Z " />
<glyph glyph-name="n" unicode="n" horiz-adv-x="586" d="M586 235 C576 212 564 191 554 169 L535 131 C528 119 521 106 511 97 C510 96 502 90 502 91 C497 135 511 183 523 225 C528 245 534 265 539 285 C541 295 542 310 531 315 C514 323 501 300 493 289 C478 268 464 245 450 222 C443 211 418 170 408 164 C406 182 408 197 409 209 C411 232 416 255 421 278 C423 287 430 311 417 314 C415 315 413 316 410 315 C407 313 405 310 403 308 C387 295 372 282 356 269 C341 256 324 244 308 233 C291 222 274 212 257 203 C239 194 221 186 202 180 C183 174 164 169 145 166 C145 166 144 166 144 166 C114 162 77 166 55 189 C29 217 35 260 57 287 C65 297 79 307 93 308 C106 309 119 306 132 299 C129 315 105 318 91 316 C54 310 27 275 25 238 C21 184 65 154 115 152 C166 150 218 166 264 190 C309 213 352 244 391 277 C386 262 383 246 380 230 C377 216 375 202 375 188 C375 176 375 158 386 149 C394 144 406 144 415 146 C431 152 437 168 444 182 C452 197 460 211 468 226 C480 249 494 272 511 292 C512 293 514 295 515 296 C512 287 511 282 508 275 C506 268 503 260 500 252 C495 237 491 222 487 207 C479 176 473 145 472 114 C471 99 472 82 489 79 C525 71 540 111 553 136 C570 173 579 192 587 211 C589 214 591 219 592 222 C594 229 595 233 586 235 L586 235 Z " />
<glyph glyph-name="o" unicode="o" horiz-adv-x="613" d="M613 235 C613 235 592 214 581 203 C570 193 556 180 545 171 C528 158 508 145 486 143 C485 143 479 144 478 142 C479 144 479 145 479 145 C490 168 498 192 502 217 C504 238 505 260 502 281 C500 296 495 309 485 321 C480 326 475 332 467 334 C452 339 438 336 425 327 C419 322 413 316 408 310 C409 311 409 311 409 312 C408 311 408 310 407 310 C336 244 244 179 146 165 C116 161 79 165 57 188 C31 216 37 259 59 286 C67 296 81 307 95 307 C108 308 121 305 133 298 C131 314 107 317 93 315 C56 309 29 274 27 237 C23 183 67 153 117 151 C168 149 220 165 266 189 C310 212 352 241 390 274 C384 257 382 239 383 221 C383 220 382 218 382 217 C378 209 373 202 370 194 C363 175 359 157 357 137 C357 136 357 134 357 133 C356 113 361 90 381 81 C396 74 415 77 430 85 C447 94 460 109 469 126 C470 127 471 129 473 129 C493 131 513 134 529 145 C547 156 566 172 581 187 C598 203 602 207 615 222 C620 228 619 231 613 235 L613 235 Z M442 118 C432 108 421 100 409 94 C406 93 403 92 400 92 C396 91 394 92 393 96 C389 103 387 110 387 118 C387 135 389 150 393 166 C393 168 393 169 394 171 C407 148 426 135 452 130 C448 126 445 122 442 118 L442 118 Z M468 160 C466 155 463 150 461 145 C460 143 459 143 458 143 C441 148 428 158 420 174 C413 189 409 205 408 222 C407 240 409 257 415 274 C420 290 427 305 440 317 C443 319 446 322 449 323 C456 327 460 327 466 322 C474 315 478 306 481 297 C485 285 486 273 486 258 C485 226 480 192 468 160 L468 160 Z " />
<glyph glyph-name="p" unicode="p" horiz-adv-x="587" d="M587 235 C587 235 538 205 519 198 C520 201 521 202 521 204 C527 222 532 240 532 260 C531 281 522 309 499 316 C481 323 463 314 451 302 C441 291 433 278 427 264 C425 257 422 249 419 242 C420 255 421 268 422 281 C422 290 424 309 414 314 C408 318 401 313 401 313 C330 247 239 180 141 166 C111 162 74 166 52 189 C26 217 32 260 54 287 C62 297 76 308 90 309 C102 309 115 306 128 299 C125 315 101 318 88 316 C51 310 24 275 22 238 C18 184 62 154 111 152 C163 150 215 166 261 190 C308 214 357 249 397 285 C397 285 397 285 397 285 C393 252 389 220 385 187 C382 162 380 137 377 111 C375 82 372 52 370 22 C368 1 367 -21 366 -42 C365 -71 363 -100 361 -129 C360 -147 359 -182 359 -210 C359 -211 359 -212 359 -214 C358 -215 358 -217 358 -219 L358 -219 C358 -220 358 -222 358 -225 C358 -246 377 -252 381 -229 C382 -221 382 -216 383 -211 L383 -211 C385 -187 387 -159 388 -138 C390 -112 392 -85 394 -58 C396 -32 398 -5 400 20 C403 52 405 83 408 114 C408 115 408 117 408 118 C452 100 489 138 507 171 C514 185 535 190 549 198 C565 207 572 212 587 223 C589 226 593 228 587 235 L587 235 Z M459 149 C452 141 444 133 434 128 C431 127 429 126 426 126 C422 125 419 126 417 130 C413 137 414 145 419 150 C424 155 429 158 435 160 C447 164 459 167 471 170 C472 170 472 170 473 170 C473 170 473 170 473 169 C469 163 464 156 459 149 L459 149 Z M500 250 C496 235 492 221 488 207 C487 201 484 195 482 190 C482 188 480 187 479 187 C463 183 448 180 432 176 C425 175 419 172 412 169 C412 176 414 181 416 187 C422 204 427 220 433 237 C439 254 446 271 457 286 C464 295 471 302 481 307 C485 309 487 308 491 305 C497 300 500 293 501 285 C503 273 502 261 500 250 L500 250 Z " />
<glyph glyph-name="q" unicode="q" horiz-adv-x="581" d="M581 235 C534 195 489 152 447 107 C442 102 438 98 434 94 L438 105 L438 105 C447 132 456 159 466 186 C473 208 481 230 489 253 C492 262 495 272 497 282 C500 293 477 305 472 294 C469 288 466 282 463 275 C450 243 435 211 416 181 C409 170 402 160 393 152 C390 150 386 148 383 146 C382 149 381 151 381 153 C377 166 378 180 381 194 C385 221 393 246 405 271 C409 279 413 287 420 294 C425 299 427 299 431 292 C434 285 435 278 434 270 C434 267 434 264 434 260 C435 260 437 260 438 260 C443 260 445 261 446 266 C448 274 447 283 443 291 C436 307 419 309 408 300 C405 298 403 296 401 294 C330 229 240 165 143 152 C114 148 76 152 54 175 C28 203 35 246 56 273 C64 283 78 293 92 294 C105 295 118 292 131 284 C128 301 104 304 90 302 C53 296 27 260 24 224 C20 170 64 140 114 138 C166 136 218 151 263 175 C302 195 339 221 373 249 C370 242 367 235 365 228 C358 210 354 191 353 172 C353 162 354 152 358 142 C361 137 365 133 372 132 C382 130 389 130 398 132 C404 134 408 136 413 140 C414 141 416 143 418 144 C417 139 416 137 415 136 C397 81 380 27 368 -29 C363 -54 358 -79 354 -104 C351 -121 349 -139 348 -157 C347 -169 348 -180 348 -192 C349 -204 351 -216 355 -227 C360 -239 369 -244 381 -245 C393 -246 409 -245 419 -237 C428 -230 434 -220 440 -210 C447 -195 452 -180 456 -164 C461 -143 465 -122 466 -100 C466 -83 465 -67 463 -51 C461 -33 458 -15 453 1 C450 8 448 15 446 21 C441 36 431 57 428 66 C470 113 515 157 562 200 C569 206 575 212 582 218 C582 218 582 218 582 218 C596 230 582 235 581 235 L581 235 Z M445 -88 C444 -113 439 -137 432 -160 C427 -178 420 -195 409 -209 C403 -216 398 -223 389 -226 C386 -219 384 -212 383 -204 C381 -188 382 -171 383 -154 C385 -112 392 -70 401 -29 C406 -6 416 35 419 45 C419 42 420 39 421 35 C426 21 431 6 435 -8 C443 -34 446 -61 445 -88 L445 -88 Z " />
<glyph glyph-name="r" unicode="r" horiz-adv-x="574" d="M454 21 C468 25 493 42 526 109 C527 111 528 113 529 114 C539 135 549 156 559 178 C563 186 576 214 579 223 C583 231 580 234 574 235 C574 235 558 206 557 205 C545 182 533 160 520 138 C513 125 504 112 496 99 C486 84 476 68 464 54 C461 50 457 46 453 42 C452 43 452 43 452 43 C451 47 451 51 451 56 C452 72 456 87 458 103 C461 118 463 132 465 147 C467 162 464 178 455 191 C447 201 440 211 432 220 C426 228 423 231 419 237 C417 240 413 245 413 245 C423 255 432 270 437 283 C440 291 442 299 440 307 C436 324 417 329 405 322 C393 315 385 304 380 291 C373 272 374 253 381 238 C312 177 226 116 134 103 C104 99 67 103 45 126 C19 154 25 197 47 223 C55 233 69 244 83 245 C96 246 109 243 121 235 C119 252 95 255 81 253 C44 247 17 211 15 175 C11 121 55 91 104 89 C156 87 208 103 254 126 C301 150 351 187 391 224 C397 213 404 204 411 194 C419 182 425 170 423 155 C422 142 420 130 418 117 C415 99 412 82 411 64 C411 54 412 44 416 35 C422 21 440 19 454 21 L454 21 Z M408 264 C403 277 406 303 420 312 C423 308 423 303 423 298 C421 288 417 280 412 271 C411 268 409 266 408 264 L408 264 Z " />
<glyph glyph-name="s" unicode="s" horiz-adv-x="611" d="M611 235 C611 235 546 169 516 137 C515 136 513 135 513 135 C501 150 489 165 477 179 C463 195 449 212 435 228 C430 234 426 240 422 246 C423 247 424 247 425 248 C439 263 445 278 448 297 C449 310 446 322 437 331 C427 342 410 343 399 334 C385 322 378 302 377 284 C376 270 381 258 387 246 C389 243 391 239 394 235 C324 172 236 111 142 99 C112 94 75 98 53 121 C27 149 33 193 55 219 C63 229 77 240 91 241 C104 242 117 238 129 231 C126 247 102 251 89 249 C52 242 25 207 23 171 C19 116 63 87 112 85 C164 82 216 98 262 122 C308 146 360 189 400 224 C405 217 411 209 417 201 C433 180 449 159 465 137 C472 128 479 118 485 109 C486 107 486 106 485 105 C481 101 477 96 473 92 C451 65 427 39 405 13 C386 -9 369 -32 353 -56 C336 -84 323 -113 319 -146 C316 -165 317 -184 326 -202 C331 -212 338 -219 348 -224 C357 -229 368 -230 378 -229 C392 -229 405 -226 417 -220 C433 -213 447 -203 460 -192 C489 -168 512 -139 528 -104 C536 -86 542 -67 547 -47 C553 -22 556 3 553 29 C551 47 547 63 541 80 C535 94 529 107 521 120 C520 122 520 124 522 125 C527 130 531 136 535 141 C558 165 576 184 599 209 C603 213 608 219 613 224 C615 228 616 231 611 235 L611 235 Z M416 257 C404 278 400 299 411 321 C413 324 415 326 417 328 C418 330 419 330 420 328 C425 325 428 320 429 315 C433 296 429 279 419 262 C418 261 416 257 416 257 L416 257 Z M514 -34 C511 -63 502 -91 488 -116 C471 -148 448 -176 419 -197 C408 -205 396 -211 383 -215 C364 -221 351 -213 344 -196 C338 -183 337 -169 338 -155 C339 -120 353 -88 371 -58 C389 -31 410 -5 431 20 C451 44 471 67 490 90 C491 91 492 92 492 93 C493 93 493 93 494 93 C496 87 499 80 501 74 C504 62 508 51 510 39 C515 15 517 -10 514 -34 L514 -34 Z " />
<glyph glyph-name="t" unicode="t" horiz-adv-x="145" d="M350 592 C329 599 306 600 284 599 C260 599 236 595 212 591 C182 586 152 580 122 572 C117 571 112 570 107 569 C108 573 108 577 109 580 C116 604 122 628 128 651 C132 668 136 684 140 701 C145 720 143 726 143 726 C143 731 142 735 140 738 C136 745 123 748 120 739 C118 733 116 727 114 721 L114 721 C106 697 99 673 91 649 C85 631 80 613 74 595 C71 584 67 572 64 561 C64 558 63 557 61 557 C38 551 9 542 -15 536 C-21 534 -29 532 -36 530 C-120 509 -216 497 -299 524 C-327 534 -359 553 -368 583 C-380 620 -355 656 -324 670 C-312 676 -295 680 -282 675 C-271 670 -260 661 -252 649 C-248 665 -268 678 -281 682 C-316 693 -356 673 -374 641 C-402 594 -375 548 -332 525 C-286 500 -232 491 -181 493 C-135 494 -88 501 -43 512 C-43 512 -43 512 -43 512 C-17 517 10 526 35 533 C43 535 50 536 58 539 C58 537 58 536 58 536 C54 519 49 502 45 485 C39 456 32 427 26 398 C22 379 19 361 15 342 C11 319 7 297 4 274 C-1 244 -3 214 -2 184 C-1 163 0 136 16 121 C32 106 65 108 80 122 C89 130 96 140 102 149 C121 179 132 196 147 220 C152 227 153 230 145 235 C145 235 95 167 69 142 C64 136 58 131 50 128 C46 126 45 127 43 131 C38 143 36 156 35 169 C34 196 37 222 40 248 C45 293 53 337 62 380 C67 405 72 430 78 455 C85 486 93 517 101 548 C102 550 103 551 105 552 C137 561 169 569 201 576 C231 582 262 587 293 588 C317 589 343 587 363 572 C369 568 375 562 377 554 C378 546 373 540 369 533 C369 531 368 530 367 530 C364 529 358 528 361 524 C363 521 367 522 369 523 C376 525 380 530 384 536 C402 564 376 584 350 592 L350 592 Z " />
<glyph glyph-name="u" unicode="u" horiz-adv-x="599" d="M599 235 C599 235 563 169 546 143 C534 127 522 105 503 95 C503 97 502 99 502 101 C500 114 501 128 502 141 C506 174 512 207 520 240 C524 255 528 270 531 285 C534 295 524 311 512 304 C507 302 504 293 502 288 C499 282 496 275 492 269 C482 248 471 228 459 208 C451 193 443 179 432 166 C428 162 424 158 419 154 C418 159 418 163 417 166 C417 188 420 210 424 231 C427 247 431 263 434 279 C436 289 429 294 420 296 C418 296 415 296 414 294 C413 294 413 293 412 293 C345 233 247 160 150 147 C120 143 83 147 61 170 C35 198 41 241 63 267 C71 278 85 288 98 289 C112 290 124 287 137 279 C134 296 110 299 97 297 C60 291 33 255 31 219 C27 165 71 135 120 133 C172 131 224 147 270 170 C317 195 361 226 401 260 C396 239 388 200 387 184 C386 166 386 140 409 137 C419 136 429 137 437 142 C446 148 451 159 456 169 C463 181 470 194 476 207 C478 210 480 214 482 218 C482 218 482 218 483 218 C483 217 483 217 483 217 C480 205 478 193 475 181 C472 162 470 142 470 123 C471 105 472 82 494 79 C495 79 497 79 499 78 C510 79 531 89 557 136 C557 136 557 136 557 136 C559 140 561 143 563 147 C563 148 564 150 565 151 C572 166 579 180 587 195 C591 203 600 220 604 228 C605 231 604 233 599 235 L599 235 Z " />
<glyph glyph-name="v" unicode="v" horiz-adv-x="649" d="M649 235 C649 235 620 213 605 208 C595 205 584 204 574 207 C557 213 551 228 544 243 C543 246 543 250 545 253 C561 293 578 336 584 380 C586 395 587 423 567 428 C558 430 550 423 546 415 C531 392 523 363 519 336 C514 308 514 276 521 249 C521 249 520 246 520 245 C506 215 492 186 474 159 C465 146 456 135 444 125 C439 122 435 119 428 117 C427 121 426 125 425 129 C416 176 431 224 430 271 C430 283 429 295 422 304 C417 309 407 315 401 309 C398 307 401 305 404 305 C406 304 407 303 405 301 C334 235 249 174 152 160 C122 156 85 160 63 183 C37 211 43 254 65 281 C73 291 87 302 100 303 C113 304 126 300 139 293 C136 309 112 312 99 310 C62 304 35 268 32 232 C29 178 73 148 122 146 C174 144 226 160 272 183 C319 208 362 240 402 275 C401 267 400 259 398 252 C391 211 383 169 393 128 C395 120 397 113 402 108 C416 93 446 97 461 108 C471 116 479 125 486 136 C502 158 514 183 525 208 C527 212 529 217 531 221 C539 213 545 205 555 200 C563 195 573 193 583 192 C607 190 624 198 641 213 C644 217 648 220 651 224 C654 227 654 231 649 235 L649 235 Z M535 283 L536 298 C536 298 536 298 536 298 C537 338 543 378 563 414 C564 414 564 414 565 414 C565 408 566 403 565 397 C564 382 562 367 558 353 C551 332 535 283 535 283 L535 283 Z " />
<glyph glyph-name="w" unicode="w" horiz-adv-x="778" d="M778 235 C778 235 708 177 677 169 C650 163 638 184 633 195 C633 197 633 198 633 200 C639 214 646 228 651 242 C664 276 675 311 681 347 C684 368 686 391 679 412 C674 429 654 435 642 421 C635 414 629 406 625 398 C599 343 584 280 592 219 C594 205 597 192 604 180 C605 178 605 176 603 175 C586 149 569 123 544 103 C540 100 512 77 509 85 C504 100 503 115 504 130 C505 164 511 198 517 232 C519 239 520 247 519 256 C518 264 514 272 507 276 C503 278 497 279 492 276 C488 273 486 269 484 264 C473 240 461 217 446 194 C435 176 422 157 404 145 C403 178 408 213 418 245 C420 251 422 257 422 263 C421 269 417 275 411 276 C408 276 406 276 403 274 C403 274 403 274 403 274 C403 274 403 274 403 274 C403 274 402 273 401 272 C400 272 399 271 399 270 C327 205 236 139 138 126 C108 122 70 125 49 149 C23 177 29 220 51 246 C59 256 73 267 86 268 C99 269 112 266 125 258 C122 274 98 278 85 276 C48 269 21 234 18 198 C14 144 58 114 108 112 C160 110 212 125 258 149 C303 172 345 203 383 236 C375 212 370 187 369 161 C369 153 370 143 375 137 C380 130 389 126 398 126 C408 126 418 130 425 136 C432 142 436 149 441 156 C450 171 460 185 470 200 C470 200 470 200 470 200 C465 170 462 140 466 110 C467 97 471 83 481 74 C490 67 501 65 511 65 C557 68 586 115 607 150 C610 154 612 159 615 164 C615 164 626 157 628 156 C631 154 635 153 638 152 C652 148 688 144 733 181 C734 183 736 184 737 185 C740 188 742 190 745 192 C757 202 770 214 778 222 C784 227 784 231 778 235 L778 235 Z M626 220 C625 226 624 233 624 239 C622 256 623 272 624 289 C626 312 629 335 635 357 C638 372 643 387 649 401 C652 406 656 411 659 416 C659 417 660 417 661 419 C665 413 667 407 668 401 C671 383 669 365 666 347 C661 314 651 281 639 249 C636 240 632 232 628 223 C628 222 627 221 626 220 L626 220 Z " />
<glyph glyph-name="x" unicode="x" horiz-adv-x="570" d="M570 235 C570 235 542 203 528 188 C527 187 527 187 526 186 C526 186 526 186 526 186 C508 166 492 153 479 144 C478 143 476 142 475 141 C475 141 475 141 475 141 C474 141 473 140 472 139 C457 130 453 140 453 144 C450 158 449 169 450 183 C450 199 449 217 458 229 C468 244 534 337 540 346 C541 347 546 354 543 357 C539 362 533 362 529 358 C523 352 460 273 453 263 C454 271 454 297 453 307 C453 319 452 330 440 336 C429 342 419 339 411 332 C411 332 411 332 411 332 C411 332 410 331 410 331 C409 331 409 331 409 330 C340 269 238 183 140 169 C111 164 73 167 51 190 C25 218 30 261 52 288 C59 298 73 309 87 310 C100 311 113 308 126 301 C123 317 99 320 85 317 C48 311 22 275 20 239 C17 184 61 155 111 154 C163 153 220 172 265 197 C312 222 356 261 396 296 C396 297 396 297 396 297 C396 297 396 297 396 297 C402 302 403 304 408 308 C411 311 415 314 418 317 C418 317 418 286 418 278 C418 260 418 241 415 223 C414 217 328 46 327 38 C327 35 326 32 330 30 C337 26 341 33 341 34 C341 36 359 71 367 85 C376 100 407 157 413 169 C413 157 414 144 418 133 C421 125 425 119 430 115 C444 104 464 111 482 123 C508 140 545 183 545 184 C554 194 563 205 572 217 C579 225 579 230 570 235 L570 235 Z " />
<glyph glyph-name="y" unicode="y" horiz-adv-x="661" d="M661 235 C661 235 628 182 614 160 C598 136 562 82 559 77 C559 80 570 220 573 278 C574 285 574 292 572 299 C567 313 548 322 541 305 C529 278 517 250 503 224 C489 198 474 164 445 153 C443 152 441 152 439 152 C436 153 434 157 433 159 C426 180 425 201 426 223 C428 244 431 265 431 287 C431 291 431 295 430 299 C428 303 425 307 421 308 C418 308 414 307 412 305 L412 305 C412 305 412 305 412 305 C411 304 411 304 411 304 C340 239 244 168 147 154 C117 150 80 154 58 177 C32 205 38 248 60 275 C68 285 82 296 95 297 C108 298 121 294 134 287 C131 303 107 306 94 304 C57 298 30 262 27 226 C24 172 68 142 117 140 C169 138 221 154 267 178 C313 202 361 236 401 270 C398 246 393 205 396 184 C399 169 404 153 416 143 C424 138 433 136 442 135 C455 135 467 143 474 148 C495 163 504 188 516 210 C518 214 537 256 541 267 C540 255 539 240 539 239 C532 166 529 135 520 51 C515 45 510 38 504 33 C458 -19 402 -60 358 -113 C346 -128 335 -144 330 -163 C324 -188 325 -219 349 -235 C370 -247 399 -245 421 -236 C468 -219 501 -167 518 -123 C531 -93 539 -63 545 -32 C551 -5 555 23 560 50 C560 50 610 122 621 140 C634 162 663 213 667 222 C671 228 669 232 661 235 L661 235 Z M518 -1 C516 -13 513 -26 510 -38 C504 -65 497 -92 487 -119 C477 -144 464 -167 447 -188 C435 -203 422 -215 405 -223 C398 -226 391 -229 384 -230 C370 -231 358 -223 353 -209 C347 -194 348 -179 353 -165 C359 -148 369 -134 380 -121 C396 -102 415 -85 434 -68 C457 -47 480 -26 501 -3 C508 4 521 18 522 19 C521 13 519 5 518 -1 L518 -1 Z " />
<glyph glyph-name="z" unicode="z" horiz-adv-x="626" d="M626 235 C626 235 606 205 601 197 C590 180 562 136 545 109 C541 104 537 98 534 93 C528 103 524 110 519 116 C519 116 519 116 519 116 C519 116 519 117 518 117 C515 121 512 125 508 129 C508 129 508 130 507 130 C507 130 507 130 506 131 C498 140 488 148 476 153 C473 155 469 157 465 158 C469 163 471 168 475 172 C490 191 503 211 514 233 C522 248 529 263 533 280 C537 303 523 321 500 325 C463 331 424 281 403 256 C349 189 239 101 141 88 C111 84 74 88 52 111 C26 139 32 182 54 208 C62 218 76 229 90 230 C102 231 116 228 128 220 C125 236 101 240 88 238 C51 232 24 196 21 160 C18 106 62 76 111 74 C188 70 262 106 324 149 C355 171 383 196 410 223 C435 249 458 280 488 299 C494 303 500 303 500 294 C500 285 497 276 493 268 C477 232 450 201 435 165 C433 158 432 151 440 148 C470 135 517 102 504 62 C501 54 496 47 491 40 C451 -10 411 -58 367 -104 C353 -118 339 -132 328 -148 C317 -162 309 -179 308 -197 C307 -213 313 -226 327 -235 C353 -250 393 -237 417 -224 C457 -202 489 -165 509 -124 C536 -69 549 -7 542 54 C541 62 541 67 545 74 C549 82 554 89 559 97 C570 117 582 136 593 156 C609 182 622 206 625 211 C634 228 634 229 626 235 L626 235 Z M509 -2 C507 -24 505 -46 499 -68 C490 -103 475 -136 450 -164 C432 -185 411 -205 384 -217 C375 -222 366 -225 356 -225 C344 -226 338 -221 335 -209 C333 -199 336 -189 340 -179 C346 -167 354 -155 363 -145 C377 -130 391 -116 405 -101 C425 -80 444 -58 462 -35 C477 -14 492 7 508 28 C508 28 508 29 509 29 C509 19 509 8 509 -2 L509 -2 Z " />
<glyph glyph-name="braceleft" unicode="&#x7b;" horiz-adv-x="190" d="M198 736 C172 770 141 738 126 708 C106 657 99 599 91 544 C87 518 84 492 80 465 C77 442 68 419 56 400 C50 390 46 381 46 368 C46 364 48 360 52 359 C55 357 58 356 62 356 C74 350 91 334 85 290 C85 290 85 290 85 289 C83 280 82 272 82 263 C77 234 73 204 72 174 C71 163 71 139 71 129 C71 118 72 101 76 85 C77 72 79 58 83 45 C92 15 119 -17 151 17 C151 19 152 19 151 20 C151 20 151 21 150 21 C139 25 127 10 120 21 C110 38 108 58 104 79 C104 88 103 97 103 106 C103 106 103 106 103 106 C103 113 103 121 102 127 C104 175 106 221 112 266 L112 266 C124 348 92 364 78 367 C77 367 75 368 71 368 C74 372 75 375 78 379 C90 402 103 425 110 452 C125 526 128 601 144 673 C150 694 155 714 167 730 C177 743 186 728 197 732 C198 732 198 732 198 733 C199 733 198 734 198 736 L198 736 Z " />
<glyph glyph-name="bar" unicode="&#x7c;" horiz-adv-x="155" d="M107 732 C107 739 108 746 103 749 C95 755 88 749 86 742 C82 729 75 595 72 565 C71 539 65 358 65 330 C65 297 65 264 65 232 C65 230 65 228 65 226 C65 190 65 154 65 117 C66 82 65 45 68 9 C69 3 73 0 78 1 C81 2 83 3 84 7 C85 9 85 12 85 14 C85 54 85 93 85 132 C86 171 86 211 87 251 C88 281 95 475 96 504 C99 542 101 579 103 616 C105 644 107 721 107 732 L107 732 Z " />
<glyph glyph-name="braceright" unicode="&#x7d;" horiz-adv-x="169" d="M21 736 C21 735 20 734 20 734 C21 733 21 733 21 733 C31 729 42 744 50 732 C59 715 62 695 65 674 C74 602 69 527 76 454 C79 426 88 403 99 380 C99 376 100 373 102 369 C100 369 98 368 95 368 C83 365 53 349 55 268 L55 268 C56 222 54 176 50 129 C50 122 49 115 48 107 C48 107 48 107 48 107 C47 99 46 89 45 80 C41 59 36 38 25 22 C18 11 8 26 -2 22 C-2 22 -3 21 -3 21 C-3 20 -3 20 -2 19 C23 -16 50 16 61 46 C66 59 69 73 73 86 C76 102 80 118 81 131 C82 140 83 163 84 175 C85 205 84 235 84 264 C84 272 83 281 83 290 C83 291 83 291 83 291 C81 335 99 351 111 357 C114 357 118 358 120 360 C125 361 126 365 126 369 C129 382 126 391 121 401 C110 420 106 442 104 467 C103 493 103 519 102 545 C99 600 99 658 83 709 C75 739 48 771 21 736 L21 736 Z " />
<glyph glyph-name="asciitilde" unicode="&#x7e;" horiz-adv-x="205" d="M167 235 C165 240 149 245 146 238 C139 218 131 192 127 179 C127 179 126 178 126 176 L126 176 C122 168 119 170 117 171 C115 172 113 175 112 178 C111 179 110 181 109 183 C105 190 102 198 99 204 C94 215 90 229 81 238 C73 247 62 247 53 238 C44 228 28 194 27 171 C27 167 30 166 33 166 C35 166 37 166 38 168 C39 169 39 170 40 171 C42 181 46 191 50 200 C51 205 54 210 56 214 C58 217 59 222 63 223 C68 224 72 213 73 209 C77 198 82 187 87 177 C90 170 94 163 100 158 C104 155 109 153 113 152 C113 152 113 152 113 152 C114 152 114 152 114 152 C117 152 119 152 121 152 C135 152 145 160 150 175 C156 193 161 209 167 227 C167 230 168 232 167 235 L167 235 Z " />
<glyph glyph-name="quoteleft" unicode="&#x2018;" horiz-adv-x="80" d="M62 676 C62 674 62 669 66 668 C71 667 74 668 76 672 C79 676 78 682 79 686 C79 692 83 728 80 732 C79 733 76 734 74 734 L68 734 C65 732 65 727 65 725 C63 709 63 697 62 676 L62 676 Z " />
<glyph glyph-name="quoteright" unicode="&#x2019;" horiz-adv-x="80" d="M62 676 C62 674 62 669 66 668 C71 667 74 668 76 672 C79 676 78 682 79 686 C79 692 83 728 80 732 C79 733 76 734 74 734 L68 734 C65 732 65 727 65 725 C63 709 63 697 62 676 L62 676 Z " />
<glyph glyph-name="quotedblleft" unicode="&#x201c;" horiz-adv-x="86" d="M93 673 L93 673 C93 671 94 666 98 665 C102 664 106 665 108 669 C111 673 110 679 110 683 C111 689 114 725 112 729 C111 730 108 731 106 731 L100 731 C97 729 97 724 97 722 C95 706 94 694 93 673 L93 673 Z M69 677 C69 673 70 669 73 667 C76 666 80 668 81 671 C82 672 83 674 83 675 L86 721 L86 728 C84 732 81 733 78 734 C74 734 71 734 71 730 C69 722 69 713 69 704 C68 695 68 686 69 677 L69 677 Z " />
<glyph glyph-name="quotedblright" unicode="&#x201d;" horiz-adv-x="84" d="M93 673 L93 673 C93 671 94 666 98 665 C102 664 106 665 108 669 C111 673 110 679 110 683 C111 689 114 725 112 729 C111 730 108 731 106 731 L100 731 C97 729 97 724 97 722 C95 706 94 694 93 673 L93 673 Z M69 677 C69 673 70 669 73 667 C76 666 80 668 81 671 C82 672 83 674 83 675 L86 721 L86 728 C84 732 81 733 78 734 C74 734 71 734 71 730 C69 722 69 713 69 704 C68 695 68 686 69 677 L69 677 Z " />
</font>
</svg>
