<?xml version="1.0" encoding="UTF-8"?>
<svg xmlns="http://www.w3.org/2000/svg" xmlns:xlink="http://www.w3.org/1999/xlink" version="1.2" >
<font id="Athen Alt Two">
<font-face  font-family="Athen Alt Two" units-per-em="1000" ascent="750" descent="-250" font-style="normal" font-weight="400" font-stretch="normal" cap-height="700" x-height="500" underline-position="-75" underline-thickness="50" />
<missing-glyph  horiz-adv-x="157" d="" />
<glyph glyph-name="NULL" d="" />
<glyph glyph-name="nonmarkingreturn" unicode="&#xd;" horiz-adv-x="157" d="" />
<glyph glyph-name="space" unicode="&#x20;" horiz-adv-x="157" d="" />
<glyph glyph-name="e" unicode="e" horiz-adv-x="465" d="M456 234 Q461 218 459.5 201.5 Q458 185 450.5 171 Q443 157 431 146 Q419 135 403 130 Q390 126 376 128 Q362 130 356 144 Q363 139 371.5 137 Q380 135 389 136 Q408 137 422 150 Q434 160 440.5 174.5 Q447 189 448 204 Q450 228 437 248 Q432 257 422 263 Q412 269 402 272 Q379 280 353.5 278 Q328 276 305 270 Q291 266 277.5 261 Q264 256 250 251 Q215 236 184.5 215 Q154 194 127 169 Q113 157 100.5 144.5 Q88 132 72 124 Q58 116 41.5 115 Q25 114 12 125 Q6 130 2 137 Q-2 144 -4 152 Q-11 182 -5 215 Q-2 236 5 252 Q12 269 25 285 Q39 302 55 309 Q64 312 73.5 311.5 Q83 311 91 305 Q103 294 103 276 Q101 259 87 248 Q80 243 71.5 240.5 Q63 238 54 236 Q51 235 47.5 235 Q44 235 41 234 L40 234 Q40 234 38 232 Q36 228 35 225 Q31 214 29.5 203.5 Q28 193 27 182 Q27 167 30 152 Q31 149 31.5 145.5 Q32 142 34 139 Q38 132 46.5 134 Q55 136 63 141 Q73 146 84 156 Q114 181 145 204.5 Q176 228 211 247 Q235 261 261 271 Q287 281 313 286 Q338 291 363.5 291 Q389 291 412 281 Q420 277 423 275 Q446 262 456 234 Z M45 250 Q45 247 44 247 Q48 249 51.5 249.5 Q55 250 59 252 Q67 256 71 259 Q82 268 84 276 Q87 281 84 286 Q80 290 76 289 Q72 289 66 283 Q64 281 62 279 Q60 277 58 275 Q51 265 46 252 Q46 253 46.5 253.5 Q47 254 46 252 Q46 251 45 250 Z " />
<glyph glyph-name="f" unicode="f" horiz-adv-x="435" d="M350 156 Q368 150 383 140 Q398 130 407 116.5 Q416 103 418.5 86 Q421 69 414 50 Q405 24 381 6.5 Q357 -11 329 -8 Q319 -6 306.5 0.5 Q294 7 295 20 Q309 5 330 0 Q340 -2 351 2 Q362 6 370 12 Q391 26 401 52.5 Q411 79 397 105 Q386 126 363.5 137 Q341 148 318 151 Q246 160 173.5 139 Q101 118 38 86 Q38 80 40 74 Q64 37 75 -4 Q86 -45 87 -89 Q87 -100 86 -118 Q85 -136 81.5 -156 Q78 -176 71.5 -195.5 Q65 -215 55 -228.5 Q45 -242 31 -247 Q17 -252 -3 -244 Q-17 -239 -22 -225.5 Q-27 -212 -29 -198 Q-33 -177 -33.5 -155.5 Q-34 -134 -33 -113 Q-32 -93 -30 -72.5 Q-28 -52 -25 -32 Q-22 -15 -19.5 2 Q-17 19 -14 36 Q-11 49 -8.5 61 Q-6 73 -3 86 Q-3 87 -1 96.5 Q1 106 4 119 Q7 132 10 145 Q13 158 15 167 Q21 192 27 216 Q33 240 38 264 Q43 285 48.5 306.5 Q54 328 59 349 L83 439 Q88 461 95 483 Q99 497 103 511 Q107 525 112 539 Q117 553 122 568 Q127 583 132 597 Q139 618 146 639 Q153 660 160 680 Q164 691 167.5 702 Q171 713 175 724 Q180 736 185 736 Q193 738 198 733 Q202 729 201 720 Q198 709 195.5 698 Q193 687 189 676 Q181 650 173.5 624.5 Q166 599 158 573 Q152 553 146.5 534.5 Q141 516 135 496 Q129 476 123 456 Q117 436 112 416 Q105 391 99 366.5 Q93 342 87 318 Q81 295 75.5 272 Q70 249 65 226 Q60 204 55.5 182.5 Q51 161 46 139 Q44 133 44 130.5 Q44 128 42 121 Q41 118 41 116.5 Q41 115 40 112 Q39 110 39 109 L39 104 Q75 121 116 136.5 Q157 152 196 160 Q234 168 273.5 168 Q313 168 350 156 Z M57 -14 Q54 1 50 15.5 Q46 30 38 44 Q36 48 34 51 Q32 54 30 58 L29 58 L29 56 Q27 42 24 28.5 Q21 15 19 1 L7 -83 Q5 -100 4 -116.5 Q3 -133 2 -150 Q0 -169 2 -188.5 Q4 -208 11 -225 Q13 -230 17.5 -226.5 Q22 -223 24 -221 L33 -209 Q36 -204 39 -198.5 Q42 -193 44 -187 Q55 -159 60 -124 Q64 -97 63.5 -69.5 Q63 -42 57 -14 Z " />
<glyph glyph-name="g" unicode="g" horiz-adv-x="553" d="M439 253 Q458 252 475 246 Q492 240 504.5 229.5 Q517 219 523.5 203 Q530 187 529 167 Q527 140 508.5 117.5 Q490 95 462 90 Q452 88 438 91.5 Q424 95 422 107 Q443 96 461 97 Q471 98 480.5 104.5 Q490 111 497 119 Q513 139 515.5 167.5 Q518 196 498 217 Q482 234 457 238.5 Q432 243 410 240 Q373 235 331 214 Q289 193 248.5 164 Q208 135 172 102 Q136 69 111 40 Q103 17 96.5 -7 Q90 -31 82 -54 Q74 -75 66.5 -96.5 Q59 -118 49 -138 Q41 -155 31.5 -171.5 Q22 -188 9 -203 Q1 -214 -9 -223 Q-19 -232 -32 -238 Q-49 -246 -71 -243 Q-81 -241 -86.5 -234.5 Q-92 -228 -94.5 -219.5 Q-97 -211 -97 -201.5 Q-97 -192 -96 -184 Q-93 -165 -85 -148.5 Q-77 -132 -66 -117 Q-40 -83 -6 -50 Q14 -30 33.5 -10.5 Q53 9 72 29 Q76 33 76 40 Q79 51 81.5 62.5 Q84 74 86 85 L101 157 Q103 168 105 175.5 Q107 183 109 194 Q111 204 111 205 Q109 203 108 199.5 Q107 196 105 194 Q98 184 91.5 174 Q85 164 78 154 Q71 143 61 135.5 Q51 128 38 126 Q26 124 14 127 Q2 130 -5 141 Q-15 159 -13 183 Q-12 203 -5 226 Q1 240 8.5 254 Q16 268 27 279 Q34 286 42 291 Q50 296 60 298 Q71 300 80 295 Q89 290 96 282 Q101 276 104.5 269 Q108 262 110 249 Q114 255 115 259 Q117 263 119 267 Q121 271 123 276 Q125 280 126.5 283.5 Q128 287 130 291 Q134 297 143 297 Q152 297 157 293 Q166 288 164 277 Q164 267 161 255 Q158 241 155.5 226.5 Q153 212 150 197 Q146 180 142.5 162 Q139 144 135 127 Q133 116 130 106.5 Q127 97 125 86 L126 86 L132 92 Q167 124 203.5 151.5 Q240 179 275 200 Q292 210 312.5 220.5 Q333 231 354.5 238.5 Q376 246 397.5 250 Q419 254 439 253 Z M87 208 Q91 214 94.5 220.5 Q98 227 102 233 Q100 234 97 234 Q91 234 91 240 Q91 243 91 246.5 Q91 250 90 253 Q89 263 85.5 270.5 Q82 278 74 284 Q69 287 68 287 Q67 287 63 284 Q60 282 56.5 279 Q53 276 51 273 Q37 254 28 233.5 Q19 213 17 189 Q16 178 17 168 Q18 158 22 148 Q24 141 25.5 140.5 Q27 140 34 144 Q46 150 54 161 Q64 172 71.5 184 Q79 196 87 208 Z M57 -29 Q59 -24 61.5 -16.5 Q64 -9 64 -8 Q61 -11 57 -16 Q53 -21 50 -24 Q35 -40 19.5 -55 Q4 -70 -11 -87 Q-25 -101 -37 -116.5 Q-49 -132 -59 -149 Q-67 -163 -70.5 -177.5 Q-74 -192 -72 -208 Q-72 -213 -71 -217 Q-70 -221 -68 -226 Q-65 -233 -59 -230 Q-53 -229 -48 -225 Q-38 -220 -30.5 -212 Q-23 -204 -16 -195 Q2 -171 14 -144 Q22 -126 29.5 -108 Q37 -90 43 -71 Q47 -60 50.5 -50 Q54 -40 57 -29 Z " />
<glyph glyph-name="h" unicode="h" horiz-adv-x="572" d="M462 245 Q481 244 498 238 Q515 232 527.5 221.5 Q540 211 546.5 195 Q553 179 552 159 Q550 132 531.5 109 Q513 86 486 81 Q475 79 461 82.5 Q447 86 445 98 Q464 88 484 88 Q494 89 504 95.5 Q514 102 520 110 Q537 130 539.5 158.5 Q542 187 522 208 Q505 225 480.5 229.5 Q456 234 433 231 Q396 226 359.5 211 Q323 196 288.5 175 Q254 154 222.5 128.5 Q191 103 165 77 Q156 67 145 61.5 Q134 56 123 59 Q109 62 104 75 Q99 88 97 100 Q95 114 97 126.5 Q99 139 101 153 Q102 157 105.5 172.5 Q109 188 111 202 Q106 195 102.5 188.5 Q99 182 94 174 Q85 157 80.5 148 Q76 139 67 123 Q62 114 56.5 104 Q51 94 40 90 Q26 83 15 91 Q4 97 1.5 110.5 Q-1 124 -2 135 Q-5 157 -4.5 178.5 Q-4 200 -2 222 Q3 264 11 304.5 Q19 345 29 386 Q38 420 46.5 453 Q55 486 66 518 Q77 551 89 583 Q101 615 117 647 Q124 659 131 671 Q138 683 147 694 Q152 699 157.5 704.5 Q163 710 171 712 Q179 714 186.5 709.5 Q194 705 196 697 Q199 682 198 670 Q195 626 181 579 Q170 538 157 498 Q144 458 129 419 Q118 390 105 362 Q92 334 76 306 Q68 292 57 276 Q46 260 34 247 Q33 246 33 245 L33 241 Q29 214 26.5 189.5 Q24 165 25 138 Q25 131 25.5 124.5 Q26 118 27 110 Q28 107 30 101 Q32 104 34.5 106 Q37 108 39 110 Q44 118 49.5 126.5 Q55 135 60 144 Q72 166 79 178 Q86 190 97 207 Q102 215 107.5 222.5 Q113 230 115 232 Q122 240 132 236.5 Q142 233 141 222 Q141 217 140.5 211.5 Q140 206 139 200 Q137 186 135 173.5 Q133 161 131 147 Q129 133 127 120 Q125 107 126 93 Q127 88 127.5 83.5 Q128 79 130 75 Q132 71 138 75.5 Q144 80 148 84 L155 91 Q159 94 163.5 99 Q168 104 174 109 Q175 109 175 109.5 Q175 110 176 110 Q182 116 189 122 Q196 128 203 134 L204 134 Q230 156 257.5 174.5 Q285 193 313 208 Q348 225 386 236 Q424 247 462 245 Z M37 267 Q36 267 36 266 Q37 267 38.5 268.5 Q40 270 41 272 Q46 278 49 283.5 Q52 289 56 295 Q67 315 76.5 334.5 Q86 354 95 374 Q123 438 147 508 Q158 540 166.5 573 Q175 606 180 641 Q182 652 182.5 663.5 Q183 675 182 687 Q182 694 178 699 Q176 697 174.5 695.5 Q173 694 171 692 L159 674 Q150 659 143 643.5 Q136 628 129 611 Q115 578 104 544 Q93 510 83 475 Q70 430 59.5 384 Q49 338 41 291 Q39 285 38.5 279 Q38 273 37 267 Z " />
<glyph glyph-name="i" unicode="i" horiz-adv-x="465" d="M48 399 Q43 399 41 402.5 Q39 406 40 411 Q41 418 42 424 Q43 430 44.5 435.5 Q46 441 47.5 447.5 Q49 454 51 464 Q52 469 58 468 Q66 466 64.5 459 Q63 452 61 443 Q59 432 58 426.5 Q57 421 54 407 Q53 405 51.5 401.5 Q50 398 48 399 Z M353 300 Q391 298 418 276.5 Q445 255 443 214 Q441 187 422.5 164 Q404 141 376 136 Q366 134 352 137.5 Q338 141 336 153 Q355 143 374 143 Q385 144 394.5 150.5 Q404 157 410 165 Q427 185 429.5 213.5 Q432 242 412 263 Q395 280 370.5 284.5 Q346 289 323 286 Q302 283 281 277 Q269 273 257.5 269 Q246 265 234 260 Q220 253 206.5 246 Q193 239 179 231 Q150 214 125 194 Q100 174 75 152 Q64 143 51.5 134.5 Q39 126 24 131 Q8 136 3 153 Q1 158 -1 168 Q-6 200 -1 232.5 Q4 265 15 295 Q17 299 19 302.5 Q21 306 26 308 Q31 310 35 306 Q39 302 41 297 Q43 292 42 287 Q41 282 39 277 Q35 259 33 240.5 Q31 222 29 203 Q28 195 27.5 187.5 Q27 180 28 172 Q29 165 29.5 157 Q30 149 34 143 Q35 141 38.5 142.5 Q42 144 46 147 Q50 150 53 152.5 Q56 155 57 156 Q65 165 75 173.5 Q85 182 95 190 Q120 211 147 229 Q174 247 203 262 Q238 280 276 291 Q314 302 353 300 Z " />
<glyph glyph-name="j" unicode="j" horiz-adv-x="427" d="M36 399 Q31 399 29.5 402.5 Q28 406 28 411 Q29 418 30 424 Q31 430 32.5 435.5 Q34 441 35.5 447.5 Q37 454 39 464 Q40 469 46 468 Q54 466 52.5 459 Q51 452 49 443 Q47 432 46 426.5 Q45 421 42 407 Q41 405 39.5 401.5 Q38 398 36 399 Z M311 290 Q333 288 353.5 280 Q374 272 386 253 Q403 227 398.5 196.5 Q394 166 373 146 Q362 136 349.5 130.5 Q337 125 323 127 Q315 127 305.5 131.5 Q296 136 294 144 Q314 134 333 137 Q356 140 368 157 Q385 179 386 207.5 Q387 236 366 256 Q355 267 339.5 272 Q324 277 308 278 Q291 279 273.5 276.5 Q256 274 239 269 Q200 258 165.5 237.5 Q131 217 99 192 Q87 183 73 170 Q59 157 46 145 Q31 131 17 117 L14 81 Q13 73 11.5 61 Q10 49 8 33 Q6 13 4 -1.5 Q2 -16 -1 -36 Q-4 -59 -8 -81.5 Q-12 -104 -20 -127 Q-28 -151 -40 -172.5 Q-52 -194 -70 -212 Q-87 -229 -108.5 -236.5 Q-130 -244 -153 -242 Q-177 -242 -193 -226 Q-207 -209 -205 -187 Q-202 -165 -191 -141 Q-181 -121 -169.5 -101.5 Q-158 -82 -144 -63 L-51 63 Q-47 68 -42 75.5 Q-37 83 -32 90.5 Q-27 98 -23 103.5 Q-19 109 -19 109 Q-16 131 -13.5 152.5 Q-11 174 -7 195 Q-3 224 2 252.5 Q7 281 12 309 Q13 313 13.5 316 Q14 319 16 321 Q21 326 27 322 Q33 318 35 313 Q37 310 37 306.5 Q37 303 37 300 Q37 294 35 275.5 Q33 257 30 233 Q27 209 23.5 183.5 Q20 158 17 137 Q25 145 38.5 157.5 Q52 170 63 179 Q87 199 110.5 216.5 Q134 234 164 251 Q198 270 234 281.5 Q270 293 311 290 Z M-30 46 Q-29 51 -28 57.5 Q-27 64 -25 81 Q-33 70 -43 55 Q-53 40 -59 32 Q-69 18 -83.5 -2.5 Q-98 -23 -121 -56 Q-133 -73 -144.5 -91 Q-156 -109 -166 -128 Q-172 -139 -177.5 -151 Q-183 -163 -186 -176 Q-189 -195 -184 -208 Q-180 -219 -167 -226 Q-157 -230 -144 -226 Q-115 -219 -95 -194 Q-81 -178 -72.5 -160.5 Q-64 -143 -59 -123 Q-51 -97 -46.5 -70.5 Q-42 -44 -38 -18 Q-35 3 -33.5 14 Q-32 25 -30 46 Z " />
<glyph glyph-name="k" unicode="k" horiz-adv-x="545" d="M439 301 Q445 300 450.5 299.5 Q456 299 462 297 Q479 293 493.5 284 Q508 275 517 261 Q528 244 528.5 222.5 Q529 201 520 182 Q510 162 491 149 Q472 136 450 136 Q441 137 432.5 141.5 Q424 146 422 154 Q433 145 448 144 Q463 143 476 150 Q489 157 497.5 168 Q506 179 511 193 Q519 216 513 237 Q508 254 493 266.5 Q478 279 461 284 Q443 289 424.5 288.5 Q406 288 388 283 Q368 279 349.5 272.5 Q331 266 314 258 Q267 236 228.5 203.5 Q190 171 158 132 Q151 123 144 114.5 Q137 106 129 98 Q121 90 110 83.5 Q99 77 87 85 Q79 91 75.5 101.5 Q72 112 70 124 Q69 128 67 136 Q65 144 63 151.5 Q61 159 59.5 165.5 Q58 172 58 174 Q55 186 52 191 L49 197 Q44 186 40.5 175.5 Q37 165 32 154 Q29 144 22.5 135.5 Q16 127 5 126 Q-4 125 -7.5 129 Q-11 133 -11.5 139.5 Q-12 146 -11 153.5 Q-10 161 -9 167 Q-8 178 -7.5 188 Q-7 198 -5 209 Q-2 230 1 251 Q4 272 7 292 Q14 336 22.5 378.5 Q31 421 42 464 Q64 549 94 632 Q104 662 120 693 Q126 704 134 717 Q142 730 156 733 Q165 735 172 730 Q179 725 181 717 Q183 712 183 706 Q183 700 183 695 Q181 664 176 634.5 Q171 605 164 575 Q156 540 146 505.5 Q136 471 124 437 Q110 399 95 361.5 Q80 324 60 289 Q55 279 48 270 Q41 261 35 252 Q35 250 34 248 Q33 240 32.5 234.5 Q32 229 30 221 Q30 216 28.5 203.5 Q27 191 25 183 Q27 185 29.5 190 Q32 195 35 200 Q44 216 50.5 227 Q57 238 66 252 Q72 261 78.5 269 Q85 277 93 283 Q99 288 107 288.5 Q115 289 119 281 Q121 275 120 267.5 Q119 260 117 254 Q107 230 83 212 Q78 209 74.5 206.5 Q71 204 66 201 Q70 197 72.5 192.5 Q75 188 77 186 Q82 177 83.5 167.5 Q85 158 87 148 Q89 137 91.5 126.5 Q94 116 96 105 Q98 94 104 94.5 Q110 95 116.5 101 Q123 107 128.5 115 Q134 123 137 126 Q191 192 253 238.5 Q315 285 395 298 Q406 300 417 301 Q428 302 439 301 Z M40 284 Q43 289 46 293 Q49 297 51 302 Q62 325 72 348 Q82 371 92 395 Q103 422 112.5 449 Q122 476 130 504 Q143 558 154 612 Q158 633 160.5 654 Q163 675 164 697 Q164 702 163.5 706 Q163 710 163 715 L159 711 Q157 707 155.5 705.5 Q154 704 152 701 Q136 671 126 642 Q109 598 96.5 554 Q84 510 73 465 Q63 421 55.5 377.5 Q48 334 40 289 L40 284 Z M105 279 Q101 277 94 270 Q87 263 80.5 253 Q74 243 68 233.5 Q62 224 61 218 Q68 223 75.5 231 Q83 239 89.5 248 Q96 257 100.5 265.5 Q105 274 105 279 Z " />
<glyph glyph-name="l" unicode="l" horiz-adv-x="455" d="M344 301 Q352 300 358.5 299 Q365 298 372 296 Q389 291 403 281.5 Q417 272 425 257 Q435 240 434 219 Q433 198 424 180 Q416 166 403.5 155 Q391 144 375 139 Q361 134 348 137 Q333 140 327 154 Q338 148 349.5 145.5 Q361 143 372 146 Q384 149 393.5 157.5 Q403 166 409 177 Q420 197 420 221.5 Q420 246 404 263 Q389 280 366.5 284 Q344 288 321 286 Q315 286 304.5 284.5 Q294 283 293 282 Q255 274 220 258.5 Q185 243 152 222 Q137 211 123.5 201 Q110 191 96 179 Q89 173 81.5 165 Q74 157 66 150 Q58 143 49 138.5 Q40 134 31 135 Q16 136 8.5 146 Q1 156 -1.5 170 Q-4 184 -3.5 199 Q-3 214 -2 225 Q3 283 15.5 338.5 Q28 394 44 450 Q53 479 61.5 508.5 Q70 538 81 567 Q92 599 105 631 Q118 663 134 695 Q137 701 141 707.5 Q145 714 149 719 Q155 730 166 736 Q174 741 182 739 Q190 737 195 729 Q197 727 197.5 723.5 Q198 720 199 717 Q200 707 199 698 Q198 689 196 679 Q188 636 175.5 594.5 Q163 553 147 511 Q136 481 124 451.5 Q112 422 98 393 Q87 370 74 347.5 Q61 325 44 304 Q39 297 37 286 Q34 268 31.5 249.5 Q29 231 28 212 Q27 198 27 189 Q27 180 29 166 Q29 162 30.5 156.5 Q32 151 34 148 Q35 144 43 150 Q51 156 54 159 Q83 185 112.5 208.5 Q142 232 174 251 Q206 271 237 282.5 Q268 294 305 299 Q327 302 344 301 Z M44 326 Q44 325 43.5 324 Q43 323 43 321 Q45 323 46.5 326.5 Q48 330 50 332 Q57 345 64 357.5 Q71 370 77 383 Q95 421 111.5 459 Q128 497 142 536 Q154 568 164 600 Q174 632 179 666 Q184 689 184 709 Q183 712 183 716 Q183 720 181 724 Q177 721 175 717 Q168 709 163.5 700 Q159 691 154 682 Q123 614 99 542 Q83 492 70.5 442 Q58 392 47 341 Q45 336 45 333.5 Q45 331 44 326 Z " />
<glyph glyph-name="m" unicode="m" horiz-adv-x="630" d="M600 217 Q610 200 609.5 180 Q609 160 601 142 Q591 121 575 109 Q556 95 535 95 Q524 95 516 99 Q508 103 503 113 Q513 108 522.5 105 Q532 102 543 104 Q554 106 563.5 112.5 Q573 119 580 128 Q593 148 596 168 Q599 191 587 210 Q578 227 561 236 Q544 245 525 247 Q503 249 480.5 244 Q458 239 438 231 Q418 223 399 212.5 Q380 202 362 190 Q345 178 328.5 163.5 Q312 149 295 135 Q279 120 263.5 104.5 Q248 89 233 72 Q223 60 213 54 Q207 50 200 48.5 Q193 47 187 50 Q180 52 176 58 Q172 64 170 70 Q168 77 168 84 Q168 91 168 98 Q173 149 185 199 Q197 249 211 299 Q210 297 207.5 294 Q205 291 203 289 Q199 281 197 278 Q189 266 184 255 Q176 239 168.5 223 Q161 207 153 190 Q148 180 143.5 170 Q139 160 134 150 Q129 142 123.5 134 Q118 126 109 121 Q98 115 88 120 Q78 125 73 137 Q71 143 71 149 Q71 155 71 162 Q72 190 77 216.5 Q82 243 88 270 Q76 246 64 221.5 Q52 197 40 172 Q37 165 33 158.5 Q29 152 22 148 Q16 145 9.5 145 Q3 145 -2 150 Q-7 156 -8 164 Q-9 172 -9 180 Q-5 226 9 271 Q11 275 12.5 278.5 Q14 282 18 282 Q23 282 27 275 Q27 268 26 264 Q23 247 20.5 229 Q18 211 15 193 Q13 185 12.5 177.5 Q12 170 15 162 Q35 197 53.5 232.5 Q72 268 91 303 Q94 308 98 313 Q102 318 108 317 Q118 317 120 306 Q122 302 121.5 298 Q121 294 120 289 Q113 250 103 210.5 Q93 171 98 132 Q114 146 124.5 165 Q135 184 145 204 Q159 233 174 260.5 Q189 288 205 316 Q209 321 213.5 326.5 Q218 332 225 332 Q230 332 234.5 327.5 Q239 323 241 318 Q244 308 240 295 Q228 236 213 178.5 Q198 121 197 61 Q208 69 216.5 78.5 Q225 88 234 98 Q263 129 294 157 Q325 185 361 208 Q397 231 437 246.5 Q477 262 520 260 Q545 258 566 248 Q587 238 599 220 Q599 219 599.5 218.5 Q600 218 600 217 Z " />
<glyph glyph-name="n" unicode="n" horiz-adv-x="558" d="M425 241 Q445 240 464.5 232.5 Q484 225 498 208 Q507 198 512 181 Q519 155 508.5 128.5 Q498 102 475 88 Q464 80 450.5 77 Q437 74 424 79 Q419 81 414 85 Q409 89 408 94 Q418 89 429 86 Q440 83 451 85 Q464 88 476 100 Q488 111 494.5 127 Q501 143 501 160 Q500 179 491.5 194 Q483 209 466 217 Q456 222 445.5 225 Q435 228 424 228 Q407 230 390.5 227 Q374 224 358 219 Q331 212 304.5 200.5 Q278 189 254 174 Q226 157 200.5 138 Q175 119 151 97 Q141 88 129 79.5 Q117 71 102 79 Q89 86 89.5 101.5 Q90 117 91 129 Q92 138 93 147 Q94 156 96 165 Q99 182 102.5 195 Q106 208 111 225 Q113 233 116 243 Q119 253 122 261 Q124 266 126.5 275 Q129 284 134 296 Q111 272 95 242.5 Q79 213 65 184 Q60 175 54.5 166 Q49 157 41 151 Q33 145 22 144 Q11 143 3 150 Q-2 155 -4 163 Q-6 171 -6 179 Q-7 210 0 240 Q7 270 18 299 Q21 308 26 311 Q32 317 39 312 Q41 310 43 304 Q44 296 42 287.5 Q40 279 38 271 Q25 217 26 162 Q40 173 49 187.5 Q58 202 66 217 Q78 240 92 261 Q106 282 122 302 Q127 308 133.5 313 Q140 318 147 316 Q156 313 158 302 Q159 297 158.5 293 Q158 289 157 284 Q152 260 145 235.5 Q138 211 132 186.5 Q126 162 122 138 Q118 114 120 90 Q137 104 154 118 Q171 132 188 146 Q214 166 240 183 Q266 200 295 213 Q326 227 358.5 235 Q391 243 425 241 Z " />
<glyph glyph-name="o" unicode="o" horiz-adv-x="495" d="M384 294 Q403 293 420 287.5 Q437 282 449.5 271 Q462 260 468.5 244.5 Q475 229 474 208 Q472 181 453.5 158.5 Q435 136 408 131 Q397 129 383 132.5 Q369 136 367 148 Q388 137 406 138 Q416 139 426 145.5 Q436 152 442 160 Q458 180 460.5 208.5 Q463 237 443 258 Q427 275 402 279.5 Q377 284 355 280 Q281 270 218 231 Q155 192 95 140 Q93 136 90.5 132 Q88 128 85 124 Q77 112 68 101 Q59 90 46 83 Q35 77 21.5 75.5 Q8 74 -4 79 Q-18 87 -23 101.5 Q-28 116 -27 131 L-27 136 Q-24 167 -14 192 Q-12 198 -8.5 204 Q-5 210 -2 216 L-2 220 Q-2 252 8 279 Q13 293 21 304.5 Q29 316 41 325 Q60 339 83 333 Q89 331 93 327.5 Q97 324 101 319 Q109 311 112.5 301 Q116 291 118 280 Q120 263 120 247.5 Q120 232 118 215 Q116 204 112 190 Q108 176 103 164 Q133 190 166.5 214.5 Q200 239 235 257 Q269 275 307.5 285.5 Q346 296 384 294 Z M58 116 Q60 119 65 125 Q70 131 73 134 Q51 128 35.5 140 Q20 152 10 170 Q9 168 9 167 Q9 166 8 165 Q6 153 4.5 141 Q3 129 3 117 Q3 106 8 94 Q11 90 16 90 L25 93 Q42 100 58 116 Z M82 156 Q83 159 85 163 Q87 166 88 170 Q89 174 91 179 Q95 191 97 200.5 Q99 210 100 218 Q101 226 101.5 235.5 Q102 245 102 257 Q102 268 101 277.5 Q100 287 97 296 Q92 312 82 320 Q74 327 65 322 L56 316 Q46 307 40.5 296 Q35 285 31 272 Q22 249 24 221 Q25 195 36 173 Q42 161 53.5 153 Q65 145 82 156 Z " />
<glyph glyph-name="p" unicode="p" horiz-adv-x="513" d="M406 279 Q412 277 420 274 Q428 271 433 269 Q453 258 466 241.5 Q479 225 481 202 Q484 177 470 154 Q456 131 433 120 Q415 110 397 113 Q376 116 368 135 Q381 124 398 122.5 Q415 121 429 128 Q461 144 467 179 Q470 193 468 207.5 Q466 222 458 233 Q444 252 419 260 Q393 271 370 272.5 Q347 274 320 269 Q271 260 222.5 237.5 Q174 215 130 194 Q123 190 118.5 181 Q114 172 110 165 Q103 153 93.5 141.5 Q84 130 72 122.5 Q60 115 45.5 112.5 Q31 110 15 117 L15 113 Q13 90 11 66.5 Q9 43 7 19 L1 -59 Q-1 -79 -2 -99.5 Q-3 -120 -4 -140 Q-6 -155 -7 -174.5 Q-8 -194 -10 -212 Q-11 -216 -11 -220 Q-11 -224 -12 -230 Q-15 -247 -24.5 -244.5 Q-34 -242 -34 -226 L-34 -220 L-34 -215 L-34 -212 Q-33 -190 -32.5 -167 Q-32 -144 -31 -130 Q-30 -108 -29 -86.5 Q-28 -65 -26 -43 Q-25 -27 -24.5 -11 Q-24 5 -23 21 Q-21 44 -19 65.5 Q-17 87 -15 110 Q-13 130 -11 148.5 Q-9 167 -7 186 Q-4 211 -1.5 236 Q1 261 5 286 Q6 292 6.5 298 Q7 304 9 309 Q10 318 21 313 Q29 309 29 298 Q29 287 29 280 Q29 270 28 260.5 Q27 251 26 241 L35 262 Q42 284 58 301 Q67 310 80 315 Q93 320 106 315 Q123 310 130.5 292.5 Q138 275 139 259 Q140 245 137.5 233.5 Q135 222 130 208 Q145 215 160 222.5 Q175 230 187 236 Q199 242 207.5 245.5 Q216 249 218 250 Q228 254 243 260 Q258 266 275.5 271.5 Q293 277 311 281.5 Q329 286 346 286 Q363 286 376.5 285 Q390 284 406 279 Z M66 148 Q72 155 77 162 Q82 169 87 177 Q78 173 61 165 Q44 157 30 150 Q25 147 23 139 Q21 131 26 126 Q33 121 42 127 Q51 133 56 138 Q59 140 61.5 143 Q64 146 66 148 Z M18 161 Q35 169 50.5 175.5 Q66 182 90 192 Q92 200 95 206 Q97 211 98.5 216 Q100 221 101 223 Q106 241 109.5 262 Q113 283 102 300 Q100 304 96 306 Q92 308 87 306 Q82 304 77 299.5 Q72 295 68 290 Q64 285 62 282 Q56 273 51.5 263 Q47 253 43 243 Q35 223 29 202.5 Q23 182 18 161 Z " />
<glyph glyph-name="q" unicode="q" horiz-adv-x="455" d="M345 217 Q364 216 381 210 Q398 204 410.5 193.5 Q423 183 429.5 167 Q436 151 435 131 Q433 104 414.5 81.5 Q396 59 368 54 Q358 52 344 55.5 Q330 59 328 71 Q347 59 367 61 Q377 62 386.5 68.5 Q396 75 403 83 Q411 93 415.5 105.5 Q420 118 421 131 Q422 144 418 156.5 Q414 169 404 180 Q387 197 362.5 201.5 Q338 206 316 203 Q281 198 246 185 Q211 172 179 153.5 Q147 135 118 113 Q89 91 67 70 Q62 65 65.5 53 Q69 41 73 32 Q76 24 78.5 16.5 Q81 9 84 1 Q91 -22 94 -51 Q97 -75 97 -100 Q96 -117 93.5 -132.5 Q91 -148 87 -165 Q84 -176 80 -187.5 Q76 -199 71 -210 Q66 -218 61.5 -225 Q57 -232 50 -237 Q42 -243 32 -244.5 Q22 -246 12 -245 Q-7 -245 -13 -228 Q-20 -211 -20 -192 Q-21 -184 -21 -175 Q-21 -166 -21 -158 Q-19 -144 -18 -131 Q-17 -118 -15 -104 Q-12 -85 -8.5 -67 Q-5 -49 -1 -30 Q8 13 21 54.5 Q34 96 47 138 Q48 139 48 143 L44 139 Q36 133 29 132 Q23 130 16.5 130.5 Q10 131 3 131 Q-6 132 -11 142 Q-17 155 -15 171 Q-15 186 -12 200 Q-9 214 -4 228 Q1 242 8 256 Q15 270 24 283 Q31 293 39 300 Q47 306 58 304.5 Q69 303 75 290 Q80 277 77 265 Q76 259 69 259 Q68 259 67 259.5 Q66 260 64 260 Q65 263 65 270 Q67 281 62 292 Q57 300 51 293 Q43 285 36 271 Q28 252 21.5 232.5 Q15 213 12 193 Q7 173 12 152 Q12 150 14 146 Q18 148 24 152 Q31 158 36.5 165 Q42 172 47 180 Q61 203 72.5 226.5 Q84 250 94 275 Q96 280 98.5 284.5 Q101 289 103 294 Q105 298 109.5 298 Q114 298 118.5 296 Q123 294 126.5 290 Q130 286 129 282 Q127 274 125 267 Q123 260 120 252 Q115 235 108.5 218.5 Q102 202 97 185 Q93 173 90 165.5 Q87 158 85 151.5 Q83 145 80.5 137.5 Q78 130 74 119 Q71 109 68.5 102.5 Q66 96 63 88 Q63 88 74 97 Q103 123 131.5 142 Q160 161 195 180 Q230 198 268 208.5 Q306 219 345 217 Z M66 -9 Q63 2 60.5 10.5 Q58 19 54 30 Q53 32 51.5 37 Q50 42 50 44 Q49 40 46.5 31.5 Q44 23 41.5 12 Q39 1 36.5 -10 Q34 -21 32 -29 Q25 -61 20.5 -91.5 Q16 -122 14 -154 Q13 -167 12.5 -179.5 Q12 -192 14 -205 Q16 -217 20 -227 Q32 -222 40 -210 Q48 -199 53.5 -186.5 Q59 -174 63 -161 Q68 -143 71.5 -125 Q75 -107 76 -88 Q78 -45 66 -9 Z " />
<glyph glyph-name="r" unicode="r" horiz-adv-x="490" d="M382 190 Q401 189 418 183.5 Q435 178 447.5 167 Q460 156 466.5 140.5 Q473 125 472 104 Q470 77 452 54 Q434 31 406 26 Q395 24 381 28 Q367 32 365 44 Q386 33 404 34 Q415 35 424.5 41.5 Q434 48 440 56 Q448 66 453 78.5 Q458 91 458.5 104 Q459 117 455.5 129.5 Q452 142 442 153 Q425 171 400.5 175.5 Q376 180 353 176 Q319 171 287 158.5 Q255 146 226 129 Q200 113 175 95.5 Q150 78 125 59 Q111 46 96 36 Q89 31 82 26.5 Q75 22 67 20 L58 20 L57 20 Q46 20 39 25 Q32 30 28.5 36.5 Q25 43 24 50 Q23 57 23 61 L23 64 Q23 78 25 90.5 Q27 103 29 117 Q31 127 32.5 136 Q34 145 35 155 Q36 166 32 175.5 Q28 185 22 194 Q19 199 15.5 204 Q12 209 8 214 Q6 217 3 221.5 Q0 226 -2 230 L-8 240 Q-18 265 -9 291 Q-1 310 13 320 Q15 321 18.5 323 Q22 325 27 325 L31 325 L32 325 Q37 324 41.5 320.5 Q46 317 48 309 Q50 299 46.5 288.5 Q43 278 38 269 Q33 258 25 247 Q25 246 26 245 Q29 238 33.5 232 Q38 226 43 220 Q56 206 66 191 Q80 172 77 146 Q75 135 73.5 124.5 Q72 114 70 103 Q70 102 69 101 L69 100 Q68 96 67.5 91 Q67 86 66 81 Q65 75 64 68 Q64 66 63.5 64 Q63 62 63 60 L63 56 L63 53 Q63 51 64.5 45.5 Q66 40 71 42 L72 43 L73 43 Q81 47 89.5 53.5 Q98 60 101 62 Q117 74 132 86.5 Q147 99 163 110 Q180 122 197.5 133 Q215 144 233 153 Q268 171 306 181.5 Q344 192 382 190 Z M19 265 Q25 275 29.5 284.5 Q34 294 35 302 Q35 304 33 308 Q32 312 30.5 311.5 Q29 311 28 309 Q20 301 18 287 Q16 273 19 264 L19 265 Z " />
<glyph glyph-name="s" unicode="s" horiz-adv-x="500" d="M477 223 Q479 196 463 171 Q447 146 420 138 Q410 135 396 137 Q382 139 378 151 Q399 142 418 145 Q428 147 437 155 Q446 163 451 171 Q465 193 464 221 Q463 249 441 268 Q423 284 397.5 285 Q372 286 350 281 Q315 272 283 255 Q251 238 221.5 216 Q192 194 165.5 168.5 Q139 143 116 116 Q116 116 117 114 Q128 96 136 74 Q145 50 148 23 Q150 4 148.5 -15 Q147 -34 142 -53 Q136 -83 123 -110 Q98 -163 56 -198 Q45 -206 34.5 -213.5 Q24 -221 12 -226 Q-6 -235 -26 -235 Q-34 -235 -41.5 -234.5 Q-49 -234 -57 -230 Q-72 -223 -79 -208 Q-86 -194 -87 -180 Q-88 -166 -86 -152 Q-83 -127 -74 -104.5 Q-65 -82 -51 -61 Q-40 -43 -22.5 -21 Q-5 1 9 17 Q26 37 38.5 52 Q51 67 68 87 Q71 90 74.5 94.5 Q78 99 81 102 L79 104 Q77 106 77 108 Q72 116 69 120 Q66 124 61 132 Q49 148 36.5 163.5 Q24 179 12 195 Q-6 219 -18 241 Q-28 260 -27 278 Q-26 292 -21.5 305.5 Q-17 319 -6 328 Q2 335 13.5 334 Q25 333 32 325 Q45 312 43 292 Q40 261 18 241 Q18 241 17 240 Q21 235 24 231 Q27 227 30 222 Q41 210 51.5 198 Q62 186 73 173 Q82 162 90.5 151 Q99 140 108 129 L109 129 Q135 159 168 190 Q201 221 234 244 Q266 266 302.5 280.5 Q339 295 378 298 Q416 301 445.5 282.5 Q475 264 477 223 Z M12 252 Q13 254 13.5 254.5 Q14 255 15 257 Q31 283 24 309 Q22 316 16 323 Q13 324 12 322 Q11 320 9.5 319 Q8 318 7 316 Q-8 285 11 251 Q11 252 12 252 Z M110 -40 Q113 -1 106 33 Q104 42 101.5 50.5 Q99 59 96 68 Q94 73 92.5 78 Q91 83 89 88 Q87 86 85.5 84 Q84 82 82 80 Q67 62 50.5 42.5 Q34 23 19 6 Q3 -13 -8.5 -28 Q-20 -43 -33 -64 Q-47 -87 -56 -110.5 Q-65 -134 -67 -161 Q-69 -182 -61 -202 Q-56 -214 -46 -220 Q-36 -226 -21 -221 Q-3 -216 14 -203 Q57 -170 83 -122 Q106 -83 110 -40 Z " />
<glyph glyph-name="t" unicode="t" horiz-adv-x="145" d="M535 549 Q561 531 573.5 502.5 Q586 474 572 443 Q565 427 551.5 415 Q538 403 521.5 397.5 Q505 392 487 393.5 Q469 395 454 406 Q447 411 442 419 Q437 427 441 435 Q446 425 453.5 417 Q461 409 471 405 Q482 400 492.5 401.5 Q503 403 514 407 Q535 415 550 433 Q565 451 565 474 Q565 491 557.5 505.5 Q550 520 537 531 Q524 542 508.5 550 Q493 558 477 564 Q456 572 433 577.5 Q410 583 387 586 Q359 589 331 589 Q303 589 275 587 Q231 582 189 573 Q147 564 105 553 Q101 552 101 548 L77 455 Q73 436 69 418 Q65 400 61 381 Q54 348 49 315 Q44 282 39 249 Q37 229 35 209 Q33 189 35 169 Q35 160 36.5 150.5 Q38 141 43 131 Q45 127 49 129 Q55 131 59.5 134.5 Q64 138 69 142 Q79 152 92 167.5 Q105 183 117 198 Q131 216 145 235 Q153 230 147 220 Q136 203 124.5 185.5 Q113 168 102 150 Q97 142 91.5 135.5 Q86 129 80 123 Q69 112 48 111 Q27 110 16 121 Q4 133 1 150.5 Q-2 168 -2 184 Q-4 207 -2 229 Q0 251 3 274 L15 343 Q17 357 20 371 Q23 385 26 399 Q31 420 35.5 441.5 Q40 463 45 485 L57 536 Q57 538 58 539 Q52 537 46 536 Q40 535 35 533 Q8 525 -18.5 519.5 Q-45 514 -73 509 Q-100 504 -127 506 Q-137 507 -146.5 508 Q-156 509 -165 512 Q-177 517 -186 525.5 Q-195 534 -199 547 Q-204 566 -200 586 Q-196 606 -185 622 Q-183 626 -179.5 628 Q-176 630 -172 626 Q-170 624 -170 624 Q-170 624 -170 622 Q-171 618 -172.5 614.5 Q-174 611 -176 608 Q-178 603 -179 599.5 Q-180 596 -181 591 Q-184 579 -183.5 566.5 Q-183 554 -177 542 Q-172 534 -164 529 Q-156 524 -147 522 Q-133 518 -118 519 Q-103 520 -89 522 Q-69 525 -49 529.5 Q-29 534 -9 539 L60 557 Q63 558 64 561 Q66 570 68.5 578.5 Q71 587 74 596 Q81 621 91 650 Q96 668 102 685.5 Q108 703 113 721 Q115 726 116.5 730.5 Q118 735 120 740 Q122 747 129.5 745.5 Q137 744 140 739 Q143 733 143 726 L143 721 Q143 714 140 701 Q137 689 134 676.5 Q131 664 128 652 Q123 634 118.5 616 Q114 598 109 581 Q108 578 107.5 575.5 Q107 573 106 569 Q106 570 112.5 571.5 Q119 573 126.5 574.5 Q134 576 140.5 577.5 Q147 579 148 579 Q180 587 211.5 592.5 Q243 598 275 601 Q304 603 332 603 Q360 603 389 600 Q428 595 465.5 583.5 Q503 572 535 549 Z " />
<glyph glyph-name="u" unicode="u" horiz-adv-x="527" d="M500 214 Q503 181 482 155 Q471 141 454.5 132.5 Q438 124 421 127 Q415 128 410 131 Q405 134 403 140 Q414 135 425.5 134 Q437 133 448 138 Q463 144 472 158 Q488 183 487 207 Q487 219 482 232 Q477 245 467 254 Q457 263 444.5 268 Q432 273 418 274 Q404 275 391 273 Q371 271 351.5 263.5 Q332 256 314 247 Q293 236 272.5 223 Q252 210 235 194 Q211 173 191 152.5 Q171 132 150 109 Q145 104 138.5 96.5 Q132 89 126 85 Q117 79 105.5 78.5 Q94 78 86 86 Q79 94 76.5 104 Q74 114 74 124 Q73 151 79 182 Q81 191 83 202.5 Q85 214 87 221 Q85 218 83.5 214 Q82 210 80 208 Q75 198 70 188.5 Q65 179 60 170 Q56 162 52 155 Q48 148 40 143 Q29 136 13 138 Q4 139 -0.5 144.5 Q-5 150 -7 157.5 Q-9 165 -8.5 173.5 Q-8 182 -8 189 Q-7 198 -5 211 Q-3 224 -0.5 237 Q2 250 4.5 260.5 Q7 271 8 275 Q10 280 11 286 Q12 292 17 295 Q19 297 24 297 Q30 295 34.5 291.5 Q39 288 37 280 L28 232 Q25 216 22.5 200 Q20 184 21 168 Q21 165 21.5 162 Q22 159 22 155 Q30 160 35 167 Q50 185 63 209 Q71 224 79.5 239 Q88 254 96 270 Q98 275 101 280 Q104 285 106 290 Q108 293 109.5 298 Q111 303 115 305 Q124 310 130.5 302 Q137 294 135 286 Q132 275 129.5 263.5 Q127 252 124 241 Q110 191 106 142 Q103 121 106 103 Q106 98 107 96 Q124 104 140 124 Q155 141 168 153.5 Q181 166 199 183 Q211 194 225 205.5 Q239 217 252 226 Q276 243 302 257 Q328 271 356 280 Q384 288 415.5 288 Q447 288 471 269 Q484 259 491 244.5 Q498 230 500 214 Z " />
<glyph glyph-name="v" unicode="v" horiz-adv-x="603" d="M559 216 Q569 197 566.5 176 Q564 155 552.5 137.5 Q541 120 522.5 109 Q504 98 482 99 Q471 100 458.5 106.5 Q446 113 447 125 Q462 110 482 107 Q492 105 503 109.5 Q514 114 522 120 Q545 139 553 168 Q561 197 541 222 Q529 236 509.5 245 Q490 254 471 256 Q424 263 384.5 257.5 Q345 252 302 236 Q290 231 271 223 Q252 215 241 209 Q218 198 194.5 192.5 Q171 187 148 204 Q146 206 141 211.5 Q136 217 134 219 Q133 215 131.5 212 Q130 209 128 206 Q120 187 110 168.5 Q100 150 89 133 Q83 124 73 114.5 Q63 105 51 99.5 Q39 94 27 94.5 Q15 95 5 106 Q1 110 -0.5 115 Q-2 120 -4 125 Q-12 156 -8 187.5 Q-4 219 1 249 Q3 259 4.5 268 Q6 277 8 287 Q8 289 9 295.5 Q10 302 7 303 Q5 303 3.5 304 Q2 305 4 307 Q9 312 15 309 Q21 306 24 302 Q30 295 31.5 286.5 Q33 278 33 269 Q34 234 27.5 198 Q21 162 28 127 Q30 119 31 114 Q36 116 39.5 118.5 Q43 121 47 123 Q56 131 63 139 Q70 147 77 156 Q91 176 101.5 197.5 Q112 219 123 242 Q123 244 123.5 245 Q124 246 123 248 Q114 290 122 334 Q125 354 131.5 374.5 Q138 395 149 413 Q152 418 157.5 423 Q163 428 170 426 Q185 422 187 405.5 Q189 389 187 378 Q182 345 171 313 Q160 281 148 251 Q145 246 147 241 Q153 230 160.5 218 Q168 206 181 204 Q190 202 200 205.5 Q210 209 218 212 Q227 217 235 221 Q243 225 250 227 Q300 250 350 263.5 Q400 277 454 272 Q475 271 496 264 Q513 259 527 251 Q537 244 545.5 235.5 Q554 227 559 216 Z M141 287 Q146 304 151 319.5 Q156 335 161 351 Q164 362 166 373 Q168 384 168 395 Q169 399 168.5 403 Q168 407 168 411 Q168 411 166 412 Q151 385 146 356 Q141 327 139 297 L138 281 L141 287 Z " />
<glyph glyph-name="w" unicode="w" horiz-adv-x="732" d="M608 291 Q637 287 661.5 270.5 Q686 254 691 222 Q694 206 690 189.5 Q686 173 676 159.5 Q666 146 652 137 Q638 128 621 126 Q610 125 596.5 129.5 Q583 134 582 146 Q600 134 619 134 Q630 134 640 140 Q650 146 657 153 Q677 174 679 203 Q681 232 661 254 Q650 266 635 272 Q620 278 603.5 279.5 Q587 281 570.5 278.5 Q554 276 540 273 Q514 268 492 259 Q470 250 447 238 Q424 226 399 210 Q374 194 351 181 Q343 176 335.5 171.5 Q328 167 320 162 Q297 149 273 149 Q267 150 261.5 151 Q256 152 250 154 Q250 154 246.5 155.5 Q243 157 239.5 158.5 Q236 160 233.5 162 Q231 164 231 164 Q217 138 200 114 Q183 90 157 75 Q139 65 122 65 Q113 66 104.5 69.5 Q96 73 91 81 Q86 86 84.5 93 Q83 100 82 107 Q76 156 86 200 Q78 192 72.5 182 Q67 172 61 162 Q55 152 47.5 143.5 Q40 135 29 130 Q19 125 7 127.5 Q-5 130 -11 140 Q-15 145 -15.5 152 Q-16 159 -15 166 Q-12 218 10 262 Q12 267 16.5 272.5 Q21 278 28 276 Q33 275 35 271.5 Q37 268 38 263 Q38 258 37 254.5 Q36 251 34 246 Q17 198 19 145 Q48 168 66 201 Q84 234 101 267 Q105 273 108 276 Q113 280 120.5 277 Q128 274 131 268 Q135 262 135 254.5 Q135 247 134 240 Q129 202 122 165 Q115 128 122 90 Q124 85 125 85 Q128 83 133 85 Q159 99 178.5 121.5 Q198 144 215 168 Q219 174 219 178 Q219 183 216 188 Q207 209 207 233 Q204 278 214 322.5 Q224 367 246 406 Q251 415 258.5 423 Q266 431 276 429 Q287 428 294 415 Q298 406 298 393 Q301 349 289 307.5 Q277 266 260 227 Q255 215 252.5 201.5 Q250 188 258 178 Q267 167 284 169 Q291 170 297.5 172.5 Q304 175 311 178 Q320 183 329 187.5 Q338 192 346 197 Q397 226 442.5 251.5 Q488 277 543 288 Q551 290 558 290.5 Q565 291 573 292 Q581 292 590 292 Q599 292 608 291 Z M242 220 Q244 222 244 223 Q248 235 255 249 Q264 273 271 297.5 Q278 322 282 348 Q284 361 285 374 Q286 387 284 401 Q282 411 276 419 Q276 418 274 416 L265 401 Q260 390 256.5 379 Q253 368 250 357 Q246 340 243.5 323 Q241 306 240 289 Q239 277 238.5 264.5 Q238 252 240 239 Q240 234 240.5 229.5 Q241 225 242 220 Z " />
<glyph glyph-name="x" unicode="x" horiz-adv-x="502" d="M387 320 Q407 318 426.5 312.5 Q446 307 460 290 Q480 267 478.5 236.5 Q477 206 458 183 Q446 169 428.5 160.5 Q411 152 393 157 Q387 158 381.5 162 Q376 166 374 172 Q385 167 396.5 164.5 Q408 162 419 165 Q427 167 433 172 Q439 177 444 182 Q458 199 463.5 220.5 Q469 242 461 262 Q453 283 434.5 293.5 Q416 304 394 306 Q349 309 307 291.5 Q265 274 229 251 Q190 226 156 197 Q122 168 88 138 Q77 129 63.5 120 Q50 111 36 109 Q23 108 13.5 115 Q4 122 0 134 Q-7 152 -5 170 Q-8 165 -14 153.5 Q-20 142 -27 128.5 Q-34 115 -41 103 Q-48 91 -51 85 Q-54 80 -58.5 71.5 Q-63 63 -67 55 Q-71 47 -74 41 Q-77 35 -77 35 Q-77 33 -80 30 Q-83 27 -88 30 Q-93 32 -91 39 Q-91 41 -84.5 55 Q-78 69 -68.5 88.5 Q-59 108 -47.5 131.5 Q-36 155 -26.5 174.5 Q-17 194 -10.5 208 Q-4 222 -4 224 Q-1 237 -0.5 250.5 Q0 264 0 278 Q0 284 0 290 Q0 296 1 302 Q1 303 0.5 310.5 Q0 318 -1 317 Q-3 315 -6 313 Q-9 311 -11 309 Q-14 306 -16.5 303 Q-19 300 -22 297 Q-24 295 -26.5 295 Q-29 295 -30 296 Q-32 298 -31 300 Q-31 305 -28 308 Q-21 320 -8 332 Q5 344 21 337 Q30 332 33 324 Q36 316 37 306 Q38 297 38.5 285.5 Q39 274 38 268 Q43 276 48.5 283 Q54 290 56 292 Q67 309 74 317.5 Q81 326 93 340 Q98 345 102 349.5 Q106 354 111 359 Q119 365 125 357 Q127 355 124.5 351 Q122 347 122 346 Q117 339 112 332.5 Q107 326 102 319 Q93 306 86.5 296.5 Q80 287 71 275 Q63 264 55 252 Q47 240 39 229 Q33 220 32 210 Q31 200 31 183 Q32 166 33 157 Q34 148 36 130 L38 131 Q52 136 64.5 145 Q77 154 88 164 Q107 179 124.5 194.5 Q142 210 161 224 Q198 253 237.5 277.5 Q277 302 324 313 Q339 316 355 318.5 Q371 321 387 320 Z " />
<glyph glyph-name="y" unicode="y" horiz-adv-x="543" d="M526 157 Q528 129 512 104.5 Q496 80 469 72 Q459 69 445 71 Q431 73 427 85 Q447 76 466 79 Q477 81 485.5 89 Q494 97 500 105 Q514 127 513.5 155 Q513 183 491 202 Q473 218 447.5 219 Q422 220 400 215 Q364 206 331 189 Q298 172 267.5 149 Q237 126 210 99.5 Q183 73 159 46 Q156 26 153.5 7 Q151 -12 147 -31 Q142 -55 135.5 -77.5 Q129 -100 120 -123 Q113 -139 103.5 -156.5 Q94 -174 82 -189.5 Q70 -205 55 -217.5 Q40 -230 22 -236 Q5 -242 -14.5 -243 Q-34 -244 -49 -234 Q-68 -223 -70.5 -202 Q-73 -181 -68 -162 Q-64 -148 -57 -135.5 Q-50 -123 -41 -112 Q-7 -73 32 -39 Q71 -5 106 33 Q110 38 113.5 42.5 Q117 47 121 52 Q125 83 127.5 106.5 Q130 130 132 150 Q134 170 135.5 191 Q137 212 140 239 Q140 241 141 249.5 Q142 258 142 267 Q141 263 137 254.5 Q133 246 129 236.5 Q125 227 121.5 219.5 Q118 212 117 211 Q109 194 100 176.5 Q91 159 75 148 Q61 138 44 136 Q27 134 13 148 Q7 154 4 162.5 Q1 171 -1 179 Q-3 184 -3 190 Q-3 196 -3 201 Q-4 218 -2.5 236 Q-1 254 1 271 Q2 275 3 282 Q4 289 6 295 Q8 301 12 305 Q16 309 22 308 Q29 306 31 300 Q33 297 33 293.5 Q33 290 33 287 Q32 271 30.5 255 Q29 239 28 223 Q26 207 27.5 191 Q29 175 34 160 Q38 154 40 153 Q42 152 46 154 Q68 162 81 183 Q94 204 104 224 Q115 244 124 264.5 Q133 285 142 306 Q148 318 158.5 314 Q169 310 173 299 Q175 294 175 288.5 Q175 283 175 278 Q173 240 171.5 203.5 Q170 167 167 129 Q166 123 165 114 Q164 105 163.5 97 Q163 89 162 83 Q161 77 161 76 Q188 104 220 131 Q252 158 283 179 Q315 201 352 215.5 Q389 230 428 232 Q465 235 494.5 216.5 Q524 198 526 157 Z M119 -1 Q121 4 121.5 9.5 Q122 15 123 20 Q119 15 115 11 Q112 7 108 3 Q104 -1 102 -3 Q86 -20 69 -36 Q52 -52 35 -68 Q21 -81 7.5 -94 Q-6 -107 -19 -121 Q-27 -131 -34 -141.5 Q-41 -152 -46 -164 Q-54 -189 -46 -209 Q-42 -219 -33.5 -225 Q-25 -231 -15 -229 Q-5 -228 6 -223 Q19 -217 29 -208 Q39 -199 48 -188 Q61 -172 70.5 -154.5 Q80 -137 88 -118 Q103 -79 112 -37 Q114 -28 115.5 -19 Q117 -10 119 -1 Z " />
<glyph glyph-name="z" unicode="z" horiz-adv-x="502" d="M483 222 Q488 196 476 169 Q464 142 438 130 Q429 126 414.5 126 Q400 126 395 137 Q417 131 435 137 Q445 140 452.5 149.5 Q460 159 464 167 Q475 190 470 218.5 Q465 247 441 262 Q421 275 395.5 272.5 Q370 270 349 262 Q317 248 288 227.5 Q259 207 233.5 182 Q208 157 185.5 128.5 Q163 100 144 71 Q145 67 145.5 63.5 Q146 60 146 55 Q150 9 141.5 -36 Q133 -81 113 -123 Q94 -163 60 -195 Q49 -206 36 -215 Q23 -224 8 -230 Q-19 -242 -48 -239 Q-54 -238 -59 -237 Q-64 -236 -69 -233 Q-90 -221 -88 -197 Q-87 -183 -81.5 -170.5 Q-76 -158 -68 -147 Q-60 -135 -50 -124.5 Q-40 -114 -30 -103 Q4 -68 34.5 -32.5 Q65 3 94 41 Q104 53 108 63 Q114 83 101 103 Q93 117 79.5 129 Q66 141 50 146 Q48 147 47 147.5 Q46 148 44 149 Q38 151 37.5 156 Q37 161 39 166 Q44 179 50 188.5 Q56 198 62 208 Q74 227 85.5 246 Q97 265 102 286 Q103 289 104 295 Q105 301 101 303 Q98 305 94.5 303 Q91 301 89 299 Q68 285 51 265 Q34 245 22 223 Q18 216 13 210.5 Q8 205 0 206 Q-8 206 -8.5 212.5 Q-9 219 -7 225 Q0 249 16.5 270 Q33 291 53 306 Q66 317 82 323.5 Q98 330 115 323 Q122 320 128 314 Q134 308 136 300 Q138 292 136 282 Q134 272 131 264 Q128 254 123.5 244.5 Q119 235 114 225 Q106 211 97 198.5 Q88 186 79 173 Q76 170 73.5 166.5 Q71 163 69 159 Q72 157 75 156.5 Q78 156 80 154 Q101 141 112 130 Q118 124 123 117 Q130 108 137 92 Q181 155 239 209 Q268 235 302 255 Q336 275 374 283 Q411 291 443 277 Q475 263 483 222 Z M112 -1 Q113 7 112.5 14.5 Q112 22 112 30 Q112 29 111 29 Q100 13 88.5 -2.5 Q77 -18 65 -34 Q52 -51 37.5 -67.5 Q23 -84 8 -100 Q-3 -111 -13 -122 Q-23 -133 -33 -144 Q-40 -152 -46 -160.5 Q-52 -169 -56 -178 Q-64 -194 -61 -208 Q-58 -226 -40 -224 Q-32 -224 -25.5 -221.5 Q-19 -219 -12 -216 Q8 -207 24 -193.5 Q40 -180 54 -163 Q90 -120 103 -67 Q110 -34 112 -1 Z " />
<glyph glyph-name="A" unicode="A" horiz-adv-x="437" d="M416 339 Q418 335 417 333 Q417 330 412 328 Q409 328 406 329 Q403 329 403 332 Q401 333 400 334.5 Q399 336 397 337 L397 327 Q395 301 392.5 275.5 Q390 250 386 224 Q382 206 379.5 187.5 Q377 169 373 151 Q368 126 363 102 Q358 78 351 55 Q339 7 321 -38 Q314 -52 306.5 -66 Q299 -80 289 -93 Q285 -97 282 -100.5 Q279 -104 275 -107 Q267 -113 253 -117 Q250 -118 242.5 -118 Q235 -118 228 -116 Q224 -114 216 -106 Q215 -105 215 -104.5 Q215 -104 214 -103 Q209 -99 208 -94 Q206 -90 202 -80 Q197 -65 194.5 -49.5 Q192 -34 191 -18 Q188 10 188.5 37.5 Q189 65 191 93 Q193 116 195 140 Q197 164 200 188 Q202 211 204.5 234.5 Q207 258 211 281 Q211 286 211 289.5 Q211 293 213 298 Q208 296 204 295.5 Q200 295 196 293 Q184 289 172 285.5 Q160 282 149 279 Q146 278 145 275 Q140 257 135.5 239 Q131 221 126 203 Q118 174 110 146 Q102 118 94 89 Q81 42 67 0 Q64 -11 58 -30 Q52 -49 45.5 -69.5 Q39 -90 33.5 -106.5 Q28 -123 26 -129 Q26 -131 24 -136 Q22 -141 20 -147 Q18 -153 15.5 -158.5 Q13 -164 12 -167 Q10 -172 8 -176.5 Q6 -181 1 -183 Q-2 -184 -4 -184.5 Q-6 -185 -10 -184 Q-12 -184 -16.5 -182 Q-21 -180 -22 -173 Q-24 -165 -21 -158 Q-20 -154 -19.5 -151 Q-19 -148 -17 -145 Q-16 -143 -11 -143 Q-8 -146 -8 -148 Q-7 -152 -7 -160 Q-6 -159 -6 -158 Q-6 -157 -5 -156 Q-2 -148 3.5 -128 Q9 -108 15.5 -84 Q22 -60 28.5 -36 Q35 -12 39 4 Q47 31 53 56 Q59 81 66 108 L84 189 L96 240 Q98 245 98.5 249 Q99 253 101 258 Q101 259 101.5 260 Q102 261 102 263 Q100 262 99.5 262 Q99 262 97 261 Q77 253 57.5 245.5 Q38 238 19 230 Q6 225 -7 221 Q-20 217 -32 212 Q-46 207 -59 209 Q-60 210 -61 210 Q-62 210 -62 212 Q-61 213 -61.5 214.5 Q-62 216 -60 217 Q-52 219 -26.5 229.5 Q-1 240 27.5 252 Q56 264 79 274.5 Q102 285 105 286 Q107 286 109 289 Q112 300 115 312 Q118 324 121 335 Q124 346 127 357 Q130 368 133 379 L148 427 Q153 441 158 455.5 Q163 470 170 484 Q179 507 196 524 Q199 526 201.5 528 Q204 530 208 530 Q235 532 241 505 Q243 494 244 483.5 Q245 473 245 462 Q244 454 242 431.5 Q240 409 237.5 384.5 Q235 360 233 341 Q231 322 231 321 L252 327 Q272 332 292 336 Q312 340 332 345 Q339 347 343 347 Q347 347 353 349 L358 349 Q359 349 360 350 Q361 358 361.5 368 Q362 378 362 387 L362 433 Q362 434 362 442 Q362 450 363 452 Q362 476 361 499.5 Q360 523 357 546 Q356 557 354.5 567 Q353 577 351 588 Q348 604 344 619.5 Q340 635 333 650 Q328 664 321 676 Q314 688 304 699 Q275 731 234 734 Q212 734 189 724 Q164 714 144 699 Q124 684 107 665 Q84 639 64 607 Q45 573 33 536 Q27 515 28 497 Q28 495 28.5 493 Q29 491 29 489 Q31 484 33 483 Q34 482 35 481.5 Q36 481 37 479 Q28 476 20 484 Q17 488 16 492.5 Q15 497 13 502 Q11 513 13 523 Q15 533 17 543 Q21 560 26 575.5 Q31 591 39 606 Q68 661 114 701 Q130 715 147 725 Q164 735 184 741 Q217 750 248 746 Q274 743 294 731.5 Q314 720 331 701 Q345 686 354 669.5 Q363 653 370 634 Q378 616 382 597.5 Q386 579 390 560 Q395 534 397 509.5 Q399 485 400 459 Q400 459 400 446 Q400 433 400 416 Q400 399 399.5 382 Q399 365 398 355 L398 350 Q408 349 416 339 Z M154 300 Q169 305 183.5 308.5 Q198 312 212 317 Q214 317 214 319 Q216 344 218.5 368 Q221 392 223 417 Q225 434 225.5 450.5 Q226 467 224 484 Q224 496 220 505 L219 505 Q217 502 216 498.5 Q215 495 213 492 Q203 472 196 451.5 Q189 431 183 410 Q175 383 167.5 356 Q160 329 152 302 Q152 301 151 300 L154 300 Z M359 314 Q359 319 359.5 324.5 Q360 330 360 335 Q358 335 357 334.5 Q356 334 355 334 Q342 331 328.5 328.5 Q315 326 301 322 Q283 317 265.5 312.5 Q248 308 230 303 Q228 303 227 300 Q227 295 226.5 289.5 Q226 284 225 278 Q222 256 219.5 234 Q217 212 215 190 Q213 170 211.5 150.5 Q210 131 209 111 Q207 91 207.5 72 Q208 53 207 34 Q207 -6 215 -49 Q218 -69 227 -88 Q231 -96 233 -99 Q239 -103 244 -102 Q255 -97 262 -88 Q270 -77 276.5 -66.5 Q283 -56 288 -43 Q293 -31 298 -18.5 Q303 -6 307 7 Q314 28 319.5 49.5 Q325 71 329 93 Q333 110 336 127 Q339 144 342 161 Q344 181 347 200 Q350 219 352 239 Q354 258 355.5 276.5 Q357 295 359 314 Z " />
<glyph glyph-name="B" unicode="B" horiz-adv-x="390" d="M44 587 Q35 581 32 586 Q30 590 30 595.5 Q30 601 31 605 Q34 617 39.5 627 Q45 637 51 646 Q75 677 101 698 Q126 718 158 732 Q169 737 180 740 Q191 743 202 745 Q216 747 230 748.5 Q244 750 258 748 Q275 746 292 742.5 Q309 739 326 730 Q341 720 352.5 706.5 Q364 693 372 673 Q378 661 379 648.5 Q380 636 378 623 Q376 607 372.5 592.5 Q369 578 364 564 Q356 544 346 525.5 Q336 507 325 489 Q301 450 271 414 Q263 404 254.5 394.5 Q246 385 238 375 Q227 361 214.5 349 Q202 337 191 324 Q184 318 178 311 Q179 312 183 312 Q221 317 257 308 Q294 299 317 266 Q323 258 328 249.5 Q333 241 336 230 Q342 207 342 186 Q342 165 336.5 144.5 Q331 124 323 104 Q318 89 312 74.5 Q306 60 298 46 Q276 7 251 -24 Q226 -55 194 -85 Q174 -102 153 -115.5 Q132 -129 109 -136 Q92 -142 74.5 -143.5 Q57 -145 41 -140.5 Q25 -136 12 -123.5 Q-1 -111 -8 -89 Q-16 -60 -17 -28.5 Q-18 3 -16 34 Q-14 79 -6.5 122 Q1 165 12 208 Q16 228 20 248 Q24 268 29 288 Q33 306 37 324.5 Q41 343 45 361 Q53 390 59 418.5 Q65 447 73 475 Q78 495 83.5 514 Q89 533 96 552 Q100 562 107 572 Q113 580 121 578 Q128 578 132 568 Q127 567 124 562.5 Q121 558 120 553 Q114 540 111 526.5 Q108 513 104 499 Q101 485 97.5 472 Q94 459 92 445 Q86 419 80 391.5 Q74 364 69 338 Q64 312 58.5 287.5 Q53 263 48 237 Q45 221 42.5 206 Q40 191 37 176 Q35 161 33.5 146 Q32 131 30 116 Q28 101 26 85.5 Q24 70 22 54 Q20 38 19.5 22.5 Q19 7 21 -9 Q20 -29 22.5 -49.5 Q25 -70 32 -89 Q35 -100 43 -108 Q55 -119 69.5 -117 Q84 -115 97 -110 Q106 -107 115 -102 Q124 -97 132 -92 Q159 -74 182.5 -50.5 Q206 -27 226 2 Q249 33 266 71 Q269 79 273 86.5 Q277 94 280 102 Q285 114 289.5 126 Q294 138 296 151 Q299 162 300 173.5 Q301 185 301 196 Q300 212 295 231 Q291 240 286.5 248 Q282 256 275 263 Q264 275 250 281 Q236 287 221 289 Q213 291 205.5 290 Q198 289 190 289 Q181 287 172 285.5 Q163 284 154 282 Q149 280 144.5 279 Q140 278 135 276 Q130 274 126.5 272.5 Q123 271 118 269 Q110 266 104 267 Q99 269 96.5 274 Q94 279 96 284 Q98 289 103 293.5 Q108 298 113 302 Q121 310 130.5 319 Q140 328 148 336 Q170 356 190 378 Q210 397 228.5 417 Q247 437 264 460 Q286 488 306 520 Q326 552 337 584 Q342 594 345 605 Q348 616 348 627 Q350 655 340 677 Q330 701 308 715 Q279 733 247 733 Q208 733 172 717 Q153 709 135 697.5 Q117 686 100 670 Q86 658 74.5 645 Q63 632 52 616 Q50 612 48 609 Q46 606 45 602 Q39 593 44 587 Z " />
<glyph glyph-name="C" unicode="C" horiz-adv-x="275" d="M179 -30 Q188 -25 192 -35 Q196 -46 188 -57.5 Q180 -69 174 -76 Q151 -105 115.5 -116 Q80 -127 49 -109 Q27 -95 15.5 -71.5 Q4 -48 -2 -22 Q-10 9 -12.5 41 Q-15 73 -15 105 Q-16 138 -14 172 Q-12 206 -7 238 Q-5 253 -2 268.5 Q1 284 3 298 Q8 321 12.5 342 Q17 363 23 386 Q27 400 30.5 413 Q34 426 38 439 Q51 483 69 523 Q87 566 109 605.5 Q131 645 160 679 Q170 692 184 707 Q198 722 213.5 733 Q229 744 246 748 Q263 752 280 744 Q299 735 308 714.5 Q317 694 318 672 Q320 639 313.5 607 Q307 575 299 544 Q290 502 278.5 461 Q267 420 255 379 Q250 356 243.5 333 Q237 310 231 287 Q224 259 217 231.5 Q210 204 203 176 Q200 164 197.5 152.5 Q195 141 192 130 Q189 121 186.5 108.5 Q184 96 176 90 Q171 88 166 89 Q161 90 159 98 Q158 106 161 116 Q171 156 180 197 Q189 238 199 280 Q202 293 205 305.5 Q208 318 211 330 Q221 375 231 419.5 Q241 464 251 509 Q256 532 261 555 Q266 578 271 601 Q275 624 279 645.5 Q283 667 280 690 Q278 701 274 710 Q269 722 260.5 723.5 Q252 725 243 722 Q234 719 225.5 712.5 Q217 706 211 701 Q191 683 175 659.5 Q159 636 144 611 Q136 597 128.5 582.5 Q121 568 113 553 Q104 533 96 514 Q88 495 80 475 Q72 452 65.5 429.5 Q59 407 53 384 Q48 367 44.5 350.5 Q41 334 37 317 Q23 251 16.5 183 Q10 115 16 46 Q18 17 24 -16 Q30 -49 46 -73 Q52 -82 59.5 -88.5 Q67 -95 76 -97 Q86 -99 96.5 -96 Q107 -93 116 -86.5 Q125 -80 133.5 -72 Q142 -64 150 -56 Q154 -52 162.5 -42.5 Q171 -33 179 -30 Z " />
<glyph glyph-name="D" unicode="D" horiz-adv-x="396" d="M130 674 Q134 676 136 676 Q141 676 144.5 672.5 Q148 669 150 664 Q152 657 151.5 651.5 Q151 646 150 639 Q144 582 134.5 527 Q125 472 115 416 Q101 338 86.5 261 Q72 184 59 106 Q58 102 58 100 Q58 98 57 96 L57 94 Q59 92 67.5 92.5 Q76 93 78 93 Q98 91 116 86 Q134 81 153 75 Q161 71 171.5 67 Q182 63 192 60 Q197 57 208 53 Q213 51 218 49 Q226 61 232.5 74 Q239 87 245 101 Q258 129 265 151 Q270 163 274 175 Q278 187 282 199 Q289 215 293 234 Q296 249 299.5 262.5 Q303 276 306 291 Q308 297 309 304 Q310 311 313 319 Q315 333 317 347 Q319 361 321 376 Q323 390 323.5 405 Q324 420 325 435 Q325 453 326 469.5 Q327 486 326 503 Q324 517 322.5 531 Q321 545 319 559 Q317 568 315.5 576.5 Q314 585 311 595 Q309 603 306.5 611.5 Q304 620 302 628 Q297 639 291.5 649.5 Q286 660 278 670 Q273 678 267 684.5 Q261 691 255 697 Q226 726 191 729 Q161 731 134 712 Q107 693 88 667 Q83 660 79 653.5 Q75 647 73 638 Q67 628 73 619 Q70 615 60 617 Q55 619 53.5 625 Q52 631 53 638 Q54 645 56 652 Q58 659 60 664 Q67 681 78 694 Q89 707 102 716 Q128 737 154 743 Q181 748 203 743 Q251 735 288.5 697.5 Q326 660 347 609 Q370 552 372 488.5 Q374 425 366 366 Q365 340 361 314.5 Q357 289 352 264 Q346 243 340.5 223.5 Q335 204 328 184 Q313 140 294 101 Q288 87 280 73 Q272 59 264 46 Q243 6 213 -28 Q183 -64 148.5 -94.5 Q114 -125 69 -136 Q56 -140 40.5 -141 Q25 -142 10 -139 Q-5 -136 -18.5 -127 Q-32 -118 -42 -103 Q-61 -71 -56.5 -32 Q-52 7 -35 35 Q-27 50 -15.5 62 Q-4 74 9 80 Q15 82 20 84.5 Q25 87 30 89 Q33 90 33 93 Q37 121 40.5 148.5 Q44 176 46 204 Q48 217 51 230.5 Q54 244 56 258 Q66 336 78 413.5 Q90 491 105 568 Q107 591 111.5 612.5 Q116 634 121 655 Q122 668 130 674 Z M205 25 L202 28 Q182 36 162 43 Q142 50 122 55 Q113 59 103 61.5 Q93 64 84 67 Q81 67 76.5 68 Q72 69 67 69.5 Q62 70 58 69 Q54 68 53 65 Q51 59 43 61 Q23 63 8.5 45.5 Q-6 28 -14 9 Q-19 -4 -22.5 -21.5 Q-26 -39 -25 -56.5 Q-24 -74 -18 -89 Q-12 -104 2 -112 Q11 -117 20.5 -117.5 Q30 -118 40 -116 Q71 -109 98 -90 Q125 -71 148 -48 Q159 -36 169 -24 Q179 -12 190 2 Q193 7 197 13 Q201 19 205 25 Z " />
<glyph glyph-name="E" unicode="E" horiz-adv-x="329" d="M162 219 Q157 221 153 222 Q149 223 145 225 Q133 229 121 232 Q109 235 98 239 Q70 247 51 262 Q36 275 28 289 Q20 304 16.5 319.5 Q13 335 12 351 Q11 376 14.5 400.5 Q18 425 25 448 Q28 461 31.5 472.5 Q35 484 40 496 Q47 513 55 530 Q63 547 71 564 Q89 596 110 626 Q131 656 157 682 Q170 696 184 708.5 Q198 721 215 731 Q226 737 237 742 Q248 747 260 748 Q271 749 281.5 747.5 Q292 746 301 739 Q320 725 325 700 Q327 687 326.5 674.5 Q326 662 324 650 Q316 596 302 549 Q297 532 291.5 514 Q286 496 281 479 L263 422 Q257 405 251 387.5 Q245 370 239 353 Q236 344 232.5 335 Q229 326 226 317 Q223 309 220 302 Q217 295 212 288 Q208 280 203 283 Q196 285 198 292 Q200 300 201.5 307.5 Q203 315 205 323 Q210 340 215 358 Q220 376 225 393 Q230 410 235.5 427 Q241 444 247 461 Q255 487 263.5 512.5 Q272 538 280 564 Q288 586 292.5 608.5 Q297 631 300 654 Q302 666 302 678 Q302 690 300 702 Q298 710 295.5 717 Q293 724 287 729 Q277 737 266 733 Q255 729 245.5 723 Q236 717 227 709 Q214 700 203.5 689 Q193 678 182 667 Q171 654 161 640.5 Q151 627 141 613 Q132 599 123.5 584 Q115 569 107 554 Q96 537 88 518.5 Q80 500 73 481 Q65 461 59 439.5 Q53 418 49 396 Q43 361 47 329 Q49 316 53.5 304.5 Q58 293 66 283 Q73 275 81.5 269.5 Q90 264 100 259 Q114 252 130 248.5 Q146 245 161 240 Q166 238 174 235.5 Q182 233 188 229 Q194 225 196.5 219 Q199 213 194 206 Q191 201 188 197 Q185 193 180 188 Q168 175 155 162.5 Q142 150 130 136 Q121 125 112.5 115 Q104 105 95 94 Q86 83 78.5 71 Q71 59 63 46 Q49 22 39 -4 Q29 -30 24 -58 Q20 -85 23 -115 Q25 -127 29 -139.5 Q33 -152 43 -160 L44 -161 L50 -164 Q61 -168 74 -163 Q90 -157 105 -144 Q118 -133 129.5 -120 Q141 -107 152 -92 Q169 -70 185 -48 Q201 -26 217 -3 Q231 16 243.5 34.5 Q256 53 269 73 L278 85 Q281 88 284 88 Q289 88 291 84 Q293 77 290 72 Q284 59 277 50 Q263 27 248 4.5 Q233 -18 218 -41 Q203 -64 187.5 -88 Q172 -112 154 -133 Q137 -153 115 -169.5 Q93 -186 66 -188 L65 -188 L64 -188 Q59 -188 55 -188 Q51 -188 46 -187 Q25 -184 12 -169 Q-1 -154 -8 -134 Q-18 -105 -15 -74 Q-12 -43 -4 -14 Q4 16 17 42 Q33 76 56 108 Q80 140 105 165 Q119 179 133.5 191.5 Q148 204 162 219 Z " />
<glyph glyph-name="F" unicode="F" horiz-adv-x="269" d="M88 390 Q77 386 61.5 381 Q46 376 26 368 Q4 360 -4 357 Q-12 354 -20 350 Q-40 342 -41 346 Q-45 353 -41 358.5 Q-37 364 -32 366 Q-16 373 -5.5 377 Q5 381 14.5 385 Q24 389 34.5 393 Q45 397 61 403 Q63 404 68 405 Q73 406 78 408 Q84 410 91 412 Q92 428 93.5 445 Q95 462 97 479 Q99 495 101 510.5 Q103 526 106 543 Q108 563 110.5 582 Q113 601 116 621 Q119 637 121.5 651.5 Q124 666 128 681 Q128 686 129 690.5 Q130 695 131 700 Q126 700 123 699 Q106 697 88.5 694.5 Q71 692 53 689 Q38 686 23.5 683 Q9 680 -5 677 Q-14 675 -21 674 Q-28 673 -35 671 Q-38 670 -46 668.5 Q-54 667 -56 674 Q-58 680 -51 682.5 Q-44 685 -39 687 Q-31 690 -24.5 692.5 Q-18 695 -11 697 Q2 701 15.5 704.5 Q29 708 43 711 Q59 714 75.5 717 Q92 720 109 722 Q128 725 147.5 727 Q167 729 187 731 Q201 732 214 732.5 Q227 733 240 735 Q258 737 276.5 737.5 Q295 738 315 740 Q334 741 352.5 742 Q371 743 389 744 Q409 745 429 746 Q449 747 469 747 Q491 748 510 747 Q515 747 519.5 747 Q524 747 529 746 Q534 746 538.5 745.5 Q543 745 547 743 Q552 740 556 735 Q559 732 558 731 Q558 727 551 727 Q546 726 536 730 Q534 731 529 731 Q517 731 505 730.5 Q493 730 481 730 Q474 729 468 729 Q462 729 456 728 Q444 727 431.5 726.5 Q419 726 407 725 Q389 724 371 723 Q353 722 334 720 Q317 718 301 717 Q285 716 268 715 Q257 713 246.5 712.5 Q236 712 225 711 Q214 709 202 708 Q190 707 178 706 Q175 705 171.5 705 Q168 705 164 704 Q160 703 155 702 Q156 698 155.5 693 Q155 688 155 682 Q155 680 154 668.5 Q153 657 151.5 642 Q150 627 149 611.5 Q148 596 147 587 Q145 564 142.5 540.5 Q140 517 138 493 Q136 476 135 459 Q134 442 132 425 L132 421 Q136 422 139 423 Q142 424 147 425 Q164 428 181.5 431.5 Q199 435 216 438 Q229 441 244 441 Q247 441 251 441 Q255 441 260 439 Q267 437 272 430 Q275 427 275 427 Q276 422 271.5 422 Q267 422 265 423 Q260 424 256 425.5 Q252 427 247 426 Q233 424 220.5 421.5 Q208 419 195 416 Q164 409 132 399 Q130 398 130 398 L129 398 Q127 378 125 358 Q123 338 121 318 Q119 301 117.5 285 Q116 269 114 252 Q113 234 112 216.5 Q111 199 109 182 Q105 138 103 94 Q101 74 99.5 54 Q98 34 96 14 Q94 -3 92.5 -19 Q91 -35 90 -52 Q88 -70 87 -88 Q86 -106 83 -123 Q83 -131 82.5 -138.5 Q82 -146 81 -154 Q79 -165 73 -170 Q68 -174 61 -172 Q56 -170 58 -165 Q58 -163 57.5 -160.5 Q57 -158 58 -155 Q58 -148 58.5 -141.5 Q59 -135 58 -128 Q58 -122 60 -114 Q61 -97 61 -79.5 Q61 -62 63 -44 Q64 -37 64.5 -30 Q65 -23 64 -15 Q66 2 67 19 Q68 36 69 53 Q70 71 70.5 89.5 Q71 108 73 127 Q74 143 75 158.5 Q76 174 77 191 Q78 208 79 224 Q80 240 81 257 Q82 272 83 287 Q84 302 85 317 Q86 331 86 344 Q86 357 88 371 Q89 375 88.5 380 Q88 385 88 390 Z " />
<glyph glyph-name="G" unicode="G" horiz-adv-x="334" d="M264 354 Q269 357 275 353.5 Q281 350 285 345 Q288 331 288 318 Q290 216 265.5 119 Q241 22 192 -60 Q209 -62 220.5 -63.5 Q232 -65 234 -66 Q242 -68 243 -71.5 Q244 -75 243 -80 Q232 -78 222 -76 Q212 -74 200 -72 Q196 -72 192.5 -71.5 Q189 -71 184 -70 Q183 -73 181 -75 Q179 -77 178 -78.5 Q177 -80 176 -82 Q149 -125 109 -152 Q69 -179 22 -187 Q7 -189 -8.5 -188 Q-24 -187 -38 -180 Q-52 -173 -63 -158.5 Q-74 -144 -76 -127 Q-79 -108 -72 -93 Q-65 -78 -54 -68 Q-43 -58 -29.5 -54.5 Q-16 -51 -2 -49 Q7 -48 16 -48.5 Q25 -49 35 -49 Q63 -51 90.5 -52 Q118 -53 146 -54 Q148 -54 151 -54.5 Q154 -55 156 -54 L158 -50 L161 -44 Q190 17 210.5 83 Q231 149 242 218 L242 219 Q242 221 243 223 Q244 230 245 236.5 Q246 243 247 249 L247 248 Q247 250 247.5 251 Q248 252 248 253 Q248 254 249 255 L231 219 Q228 213 224.5 207 Q221 201 218 194 Q204 168 188.5 143 Q173 118 155 96 Q137 75 114 54.5 Q91 34 64 30 Q58 30 52.5 30 Q47 30 42 32 Q21 39 9.5 57 Q-2 75 -7 97.5 Q-12 120 -12.5 144 Q-13 168 -11 187 Q-7 250 5 310.5 Q17 371 36 429 Q50 480 72.5 537 Q95 594 119 638 Q128 655 140.5 675.5 Q153 696 168.5 712.5 Q184 729 202 739.5 Q220 750 241 748 Q261 745 273 725 Q285 705 286 682 Q288 647 276.5 613 Q265 579 253 550 Q240 515 225 483.5 Q210 452 193 421 Q191 416 188 411 Q185 406 180 403 Q175 401 169.5 403.5 Q164 406 163 412 Q163 419 164 422 Q175 460 189.5 497.5 Q204 535 215 573 Q223 599 232 625 Q241 651 242 680 Q243 688 242.5 697 Q242 706 238 714 Q229 728 214.5 720 Q200 712 185.5 695.5 Q171 679 159 661 Q147 643 143 637 Q136 626 130 614.5 Q124 603 118 592 Q113 580 108 568.5 Q103 557 98 544 Q78 487 61 430 Q44 373 32 313 Q27 286 22.5 257.5 Q18 229 16 199.5 Q14 170 16 140.5 Q18 111 27 83 Q30 74 35 65.5 Q40 57 48 53 Q61 47 74 54.5 Q87 62 99 74.5 Q111 87 121 101.5 Q131 116 137 125 Q172 176 201 231 Q230 286 256 343 Q258 346 259.5 349 Q261 352 264 353 L264 354 Z M143 -76 Q144 -74 145 -71.5 Q146 -69 147 -67 Q139 -66 131.5 -66 Q124 -66 116 -66 Q104 -65 93 -65 Q82 -65 71 -65 Q54 -64 36.5 -63.5 Q19 -63 1 -65 Q-19 -66 -37 -79 Q-48 -88 -53 -102 Q-58 -116 -54 -133 Q-52 -140 -48 -146.5 Q-44 -153 -39 -158 Q-28 -166 -17.5 -169 Q-7 -172 4 -171 Q48 -171 86 -139 Q103 -127 116.5 -111 Q130 -95 143 -76 Z " />
<glyph glyph-name="H" unicode="H" horiz-adv-x="385" d="M402 699 Q404 686 403.5 673 Q403 660 403 648 Q401 623 397.5 598.5 Q394 574 390 549 Q385 526 380 504 Q375 482 369 461 Q359 419 345.5 379 Q332 339 314 301 Q313 301 309 289 Q305 277 304 269 Q302 248 299.5 227 Q297 206 294 185 Q291 152 288.5 123 Q286 94 284 64.5 Q282 35 280.5 4.5 Q279 -26 277 -62 Q275 -81 274.5 -108 Q274 -135 274 -154 Q275 -162 275 -170 Q275 -178 275 -186 Q277 -193 279.5 -205 Q282 -217 279 -222 Q277 -225 271 -225 Q265 -225 262 -221 Q257 -215 254.5 -202 Q252 -189 250 -175 Q248 -161 247.5 -148 Q247 -135 247 -130 Q247 -92 248 -63.5 Q249 -35 250 0 Q251 39 252.5 69.5 Q254 100 255 139 Q257 154 257 169 Q257 184 258 201 L259 216 L258 215 Q257 213 256.5 213 Q256 213 255 212 Q247 204 233.5 194 Q220 184 207 176 Q192 166 175 156 L170 143 Q164 123 156 104 Q148 85 140 66 Q122 28 97 -1 Q78 -22 56 -29 Q32 -37 9 -31 Q-22 -21 -34 17 Q-46 56 -29 91 Q-18 108 -3 117.5 Q12 127 27 135 Q44 141 59.5 145.5 Q75 150 91 154 Q102 157 109.5 159 Q117 161 128 164 L140 167 Q143 183 147 197 Q150 209 153 222 Q156 235 158 243 Q164 267 168 291.5 Q172 316 177 341 Q186 396 192 454 Q194 480 195.5 507.5 Q197 535 199 563 Q199 583 198 604 Q197 625 195 645 Q192 675 180 700 Q176 710 170 717.5 Q164 725 154 729 Q149 733 141 730 Q123 721 107 705 Q77 673 53 626 Q45 610 39 593.5 Q33 577 28 558 Q27 554 27 550 Q27 546 25 542 Q24 536 18 536 Q12 536 11 545.5 Q10 555 12 567 Q14 579 17 590 Q20 601 21 605 Q45 673 88 720 Q104 738 123 745 Q134 751 150 749 Q153 748 156.5 747.5 Q160 747 162 746 Q178 742 193 725 Q211 699 218 670 Q229 631 231 587 Q234 516 228 446 Q219 338 195 231 Q193 221 191.5 216.5 Q190 212 187 201 Q185 196 184 191.5 Q183 187 182 185 Q183 185 192 191.5 Q201 198 213 207.5 Q225 217 237.5 228 Q250 239 258 249 Q261 252 261 258 Q263 273 264 289 Q265 305 266 320 Q268 338 270.5 356 Q273 374 275 391 Q279 413 282 434 Q285 455 288 477 Q294 512 301.5 546.5 Q309 581 320 615 Q325 632 330.5 647.5 Q336 663 343 679 Q350 696 362 713 Q364 715 365 716 Q366 717 368 719 Q374 729 388 726 Q397 723 400 711 Q401 708 401 705 Q401 702 402 699 Z M132 143 L130 142 L128 142 Q123 140 117.5 139.5 Q112 139 107 137 Q93 134 79 131 Q65 128 50 123 Q29 117 10 106 Q4 101 -2 95 Q-8 89 -12 80 Q-27 41 -7 1 Q6 -22 29 -19 Q40 -17 48.5 -12 Q57 -7 65 1 Q75 10 82.5 21.5 Q90 33 96 46 Q107 67 115 89.5 Q123 112 131 136 L131 137 L131 138 L132 143 Z M388 665 Q389 674 389.5 683 Q390 692 388 701 Q388 703 387.5 705 Q387 707 387 710 Q385 708 384.5 707 Q384 706 383 704 Q380 696 377 689 Q374 682 372 674 Q364 647 358 619.5 Q352 592 347 565 Q336 510 328 455.5 Q320 401 313 346 Q312 341 311.5 335.5 Q311 330 311 328 Q311 329 313.5 334.5 Q316 340 317 342 Q325 357 329 371.5 Q333 386 338 403 Q379 529 388 665 Z " />
<glyph glyph-name="I" unicode="I" horiz-adv-x="247" d="M216 571 Q218 540 217 509.5 Q216 479 215 447 Q212 399 206.5 352 Q201 305 194 258 Q185 205 173.5 154 Q162 103 148 52 Q141 29 135 9.5 Q129 -10 119 -32 Q119 -32 117 -40 Q130 -50 139.5 -57.5 Q149 -65 154 -74 Q156 -78 157 -81 Q158 -84 153 -86 Q148 -88 145 -83.5 Q142 -79 139 -75 Q138 -75 134 -71.5 Q130 -68 125 -64 Q119 -60 111 -53 L111 -56 Q111 -57 110 -57 L110 -58 Q109 -59 109 -60 Q94 -92 75 -122.5 Q56 -153 31 -172 Q11 -187 -14 -189.5 Q-39 -192 -58 -172 Q-62 -168 -63 -166 Q-78 -146 -82 -116.5 Q-86 -87 -79 -61 Q-77 -47 -72 -38 Q-58 -5 -30 8 Q-29 8 -28.5 8.5 Q-28 9 -27 9 Q-2 17 23 8 Q48 -1 70 -12 Q70 -13 73 -14.5 Q76 -16 80 -18 Q84 -21 89 -24 L97 -3 Q101 9 105 21 Q108 31 111.5 42.5 Q115 54 117 64 Q125 93 132 122.5 Q139 152 146 182 Q153 220 158.5 256.5 Q164 293 169 330 Q173 366 177 401.5 Q181 437 183 474 Q185 511 186 548.5 Q187 586 185 625 Q183 640 182 655.5 Q181 671 178 686 Q175 698 171 707.5 Q167 717 160 725 Q146 743 125 728 Q100 708 85 673 Q83 671 83 668 Q83 665 82 662 Q81 660 81.5 657.5 Q82 655 80 653 Q78 651 74.5 650.5 Q71 650 69 652 L69 658 Q69 670 75 682 Q88 717 115 738 Q129 750 146 748.5 Q163 747 174 733 Q186 721 192 709 Q199 695 203 680.5 Q207 666 209 651 Q212 632 214 612 Q216 592 216 571 Z M73 -65 Q75 -59 78 -52.5 Q81 -46 83 -39 Q75 -35 68 -31 Q62 -28 57 -25.5 Q52 -23 51 -22 Q33 -14 17 -8 Q6 -5 -5.5 -5.5 Q-17 -6 -28 -12 Q-50 -27 -60 -61 Q-65 -78 -64 -97 Q-63 -116 -58 -134 Q-55 -145 -51.5 -153 Q-48 -161 -40 -166 Q-29 -175 -20 -174 Q-14 -172 -8.5 -170.5 Q-3 -169 2 -165 Q15 -158 24.5 -146.5 Q34 -135 42 -121 Q52 -108 59 -93.5 Q66 -79 73 -65 Z " />
<glyph glyph-name="J" unicode="J" horiz-adv-x="370" d="M76 499 Q70 499 66 504 Q62 509 60.5 516.5 Q59 524 58.5 532 Q58 540 58 546 Q62 582 77.5 615 Q93 648 111 674 Q128 700 151 720 Q174 740 200 747 Q207 749 213.5 749 Q220 749 227 749 Q251 747 270 731.5 Q289 716 303 693 Q317 670 325.5 642 Q334 614 338 586 Q347 520 344 453 Q341 386 329.5 319.5 Q318 253 300 189 Q282 125 260 67 Q243 22 222 -20.5 Q201 -63 175 -99 Q160 -122 140 -140 Q108 -170 72 -179 Q58 -183 46 -180 Q42 -179 35 -179 Q7 -176 -9 -144 Q-17 -130 -21 -114 Q-25 -98 -28 -81 Q-33 -55 -34 -28 Q-35 -1 -33 26 Q-31 58 -25.5 88 Q-20 118 -12 147 Q7 208 41 261.5 Q75 315 122 341 Q167 364 211 344.5 Q255 325 280 272 Q280 273 284 287.5 Q288 302 291 315 Q296 337 299.5 356 Q303 375 305 393.5 Q307 412 308.5 431 Q310 450 311 473 Q314 517 312 561 Q310 605 298 647 Q293 661 288 674.5 Q283 688 275 700 Q255 729 232 732 Q209 735 185.5 723 Q162 711 141.5 688.5 Q121 666 108 645 Q96 625 87.5 600 Q79 575 74 551 Q72 538 72 524 Q72 510 76 499 Z M269 256 Q268 256 268 257 Q264 261 262 266 Q260 271 258 276 Q240 306 213 323 Q186 340 157 334 Q136 329 117 314.5 Q98 300 81.5 280 Q65 260 52 236 Q39 212 30 189 Q22 167 15.5 144.5 Q9 122 4 98 Q-13 18 -7 -59 Q-4 -89 5 -114 Q7 -122 9.5 -129 Q12 -136 17 -142 Q33 -162 53 -158 Q62 -157 73 -151 Q99 -137 121 -108 Q138 -89 152 -67 Q166 -45 178 -21 Q193 8 206 38 Q219 68 230 100 Q237 120 243.5 140.5 Q250 161 257 182 Q260 193 263 203 Q266 213 268 224 Q270 230 271 235.5 Q272 241 274 246 Q276 250 275.5 250.5 Q275 251 273 253 Q272 254 269 256 Z " />
<glyph glyph-name="K" unicode="K" horiz-adv-x="314" d="M95 263 Q89 253 79.5 238 Q70 223 64 214 Q61 204 61 193 Q61 183 63.5 171.5 Q66 160 75 149 Q103 112 121 89 Q139 66 151 50.5 Q163 35 172 25 Q181 15 190 5 Q213 -21 258.5 -70.5 Q304 -120 377 -195 Q398 -216 394 -223 Q390 -230 383.5 -229 Q377 -228 369 -222.5 Q361 -217 352.5 -208.5 Q344 -200 336 -192 Q261 -116 191 -35.5 Q121 45 53 128 Q48 89 44 48.5 Q40 8 35 -31 Q32 -68 26 -108 Q24 -125 22 -144 Q20 -163 12 -176 Q7 -184 0 -186.5 Q-7 -189 -14 -184 Q1 -5 22 169 Q10 160 -5 164.5 Q-20 169 -30 183 Q-39 197 -42.5 214.5 Q-46 232 -44 249 Q-43 260 -39 264 Q-35 268 -29 266.5 Q-23 265 -16 260.5 Q-9 256 -4 250 Q1 246 9.5 236 Q18 226 26 217 Q41 341 60 461.5 Q79 582 102 702 Q104 709 107 715.5 Q110 722 116 721 Q123 720 124.5 710 Q126 700 125 692 Q111 582 97 473 Q83 364 69 253 Q82 273 94.5 292.5 Q107 312 121 332 Q135 352 148 372.5 Q161 393 175 413 Q194 442 209.5 466.5 Q225 491 245 520 Q261 542 273.5 561 Q286 580 307 612 Q321 632 330.5 646 Q340 660 351 677 Q361 690 369.5 704 Q378 718 386 728 Q390 733 393.5 737.5 Q397 742 401 747 Q403 750 407.5 744.5 Q412 739 407 731 Q399 720 394 712.5 Q389 705 381 691 Q370 676 360.5 660.5 Q351 645 341 629 Q333 617 325 604.5 Q317 592 308 580 Q300 569 293.5 558 Q287 547 279 536 Q265 515 250.5 494.5 Q236 474 222 453 Q212 438 202 423 Q192 408 182 393 Q172 378 162 363 Q152 348 143 333 Q133 319 119.5 298 Q106 277 95 263 Z M-7 177 Q-3 177 1.5 179.5 Q6 182 11 185 Q2 197 -6 207.5 Q-14 218 -22 230 Q-22 230 -24 232 Q-25 233 -25 234 L-25 227 L-25 218 Q-24 201 -16 184 Q-13 177 -7 177 Z " />
<glyph glyph-name="L" unicode="L" horiz-adv-x="221" d="M-4 -4 Q-5 2 -5 7 Q-5 12 -6 16 Q-8 67 -2.5 115.5 Q3 164 9 212 Q22 294 43 373.5 Q64 453 90 531 Q95 549 101 566 Q107 583 113 602 Q119 614 123.5 626.5 Q128 639 133 652 Q138 668 145 685.5 Q152 703 161 718 Q163 723 166 729 Q169 735 173 740 Q175 746 178 747 Q179 748 179.5 748 Q180 748 181 749 Q183 749 183 748.5 Q183 748 185 748 Q193 746 193 740 Q193 734 192 729 Q187 717 183 705 Q179 693 175 679 Q167 656 159 634 Q151 612 142 590 Q104 472 75 353 Q46 234 32 108 Q28 76 27 44 Q26 12 29 -19 Q30 -39 36 -64.5 Q42 -90 62 -102 Q67 -107 75 -107.5 Q83 -108 91 -107 Q118 -105 143.5 -94.5 Q169 -84 194 -72 Q216 -63 237.5 -52 Q259 -41 281 -30 Q285 -27 289.5 -25 Q294 -23 298 -19 Q301 -16 305 -18 Q311 -20 308 -25 Q308 -30 304 -30 Q291 -39 279 -46 Q268 -52 250.5 -61 Q233 -70 214 -79.5 Q195 -89 177.5 -97.5 Q160 -106 148 -110 Q124 -120 104.5 -124.5 Q85 -129 62 -124 Q45 -120 33 -106.5 Q21 -93 13.5 -76 Q6 -59 2 -40 Q-2 -21 -4 -4 Z " />
<glyph glyph-name="M" unicode="M" horiz-adv-x="509" d="M539 699 Q548 692 544 681 Q542 669 538 658 Q534 647 531 636 Q527 624 523.5 612.5 Q520 601 517 589 Q516 588 516 585 Q508 561 501.5 537 Q495 513 488 489 Q483 467 478 445.5 Q473 424 468 403 Q463 377 457.5 351 Q452 325 447 299 L426 173 Q421 146 418.5 118.5 Q416 91 413 63 Q411 38 408.5 13 Q406 -12 404 -37 Q402 -60 400.5 -82.5 Q399 -105 397 -128 Q396 -148 395 -167.5 Q394 -187 395 -207 Q395 -213 395 -219 Q395 -225 397 -233 Q398 -235 399 -239 Q400 -243 398 -245 Q396 -247 391 -247 Q386 -247 383 -245 Q375 -240 373 -231.5 Q371 -223 371 -216 Q369 -191 369 -168 Q369 -145 370 -122 Q370 -110 370.5 -98 Q371 -86 372 -74 Q373 -55 373.5 -36.5 Q374 -18 376 0 Q378 25 379.5 49.5 Q381 74 383 99 Q385 116 386.5 134 Q388 152 390 169 Q392 189 394.5 209.5 Q397 230 400 251 Q402 266 404.5 280.5 Q407 295 410 310 Q413 327 416.5 344.5 Q420 362 423 379 L438 442 Q441 455 444.5 468 Q448 481 452 494 Q454 500 456.5 509.5 Q459 519 461 528 Q464 539 467 549 Q466 545 464 542 Q460 534 460 534 Q453 518 446 502.5 Q439 487 432 470 Q426 455 419.5 440 Q413 425 407 411 Q399 391 390.5 372.5 Q382 354 374 334 Q368 319 362 304.5 Q356 290 350 275 Q340 249 330.5 224 Q321 199 312 174 Q306 159 300 143.5 Q294 128 289 113 Q284 102 279 90.5 Q274 79 268 68 Q264 62 258.5 56.5 Q253 51 245 49 Q238 47 229 48.5 Q220 50 215 58 Q208 69 206 82 Q204 95 202 107 Q200 121 199 134 Q198 147 197 161 Q195 209 197 258 Q198 275 199 291.5 Q200 308 202 325 Q203 339 204 353 Q205 367 207 381 Q209 400 212 418 Q215 436 218 455 Q220 472 223.5 488 Q227 504 230 521 L236 549 Q236 548 239 566 Q237 562 236.5 559 Q236 556 234 553 Q226 533 218.5 513.5 Q211 494 203 474 Q195 456 188.5 437.5 Q182 419 175 400 L148 319 Q144 306 140.5 293.5 Q137 281 134 268 Q126 237 117.5 206.5 Q109 176 101 144 Q97 130 94 115 Q91 100 88 85 Q85 69 82 53 Q79 37 76 21 Q74 13 72.5 5.5 Q71 -2 69 -10 Q67 -18 65 -24.5 Q63 -31 61 -38 Q59 -42 58 -43 Q53 -48 43 -49.5 Q33 -51 26 -45 Q21 -40 20 -33.5 Q19 -27 17 -21 Q12 4 11 29 Q10 54 9 78 Q9 101 9.5 124 Q10 147 11 170 Q12 182 12.5 194 Q13 206 14 219 Q16 233 16.5 247 Q17 261 19 275 Q21 289 22 303 Q23 317 25 331 Q27 345 28 359 Q29 373 31 387 Q33 401 35 415 Q37 429 39 443 Q41 458 42.5 472.5 Q44 487 46 502 Q48 516 49.5 531 Q51 546 53 560 Q59 600 59 641 Q59 653 58 665 Q57 677 53 690 Q51 695 49 701 Q47 707 42 712 Q32 726 19.5 725.5 Q7 725 -4 720 Q-19 713 -31.5 702 Q-44 691 -54 678 Q-64 664 -71 649 Q-78 634 -79 616 Q-79 611 -78.5 607 Q-78 603 -77 598 Q-76 597 -76 596 Q-77 591 -79.5 593 Q-82 595 -84 597 Q-95 608 -92 626 Q-91 637 -87 646.5 Q-83 656 -79 664 Q-73 678 -63.5 689.5 Q-54 701 -43 711 Q-41 712 -40.5 712.5 Q-40 713 -38 714 Q-25 724 -9 730.5 Q7 737 25 735 Q30 735 38 733 Q45 731 51 726 Q57 721 62 716 Q75 701 80 682 Q85 667 86 652.5 Q87 638 87 624 Q87 584 84 547 Q81 522 78.5 497 Q76 472 73 447 L67 390 Q64 363 61 336.5 Q58 310 56 283 Q53 245 50.5 208.5 Q48 172 45 134 Q44 114 43.5 93.5 Q43 73 42 52 Q42 42 42.5 36.5 Q43 31 43 20 Q43 19 43.5 16 Q44 13 44 8 L47 17 Q52 40 57.5 64 Q63 88 69 111 Q74 131 79 150.5 Q84 170 89 190 Q97 225 107 255 Q115 282 123.5 308 Q132 334 140 360 L167 438 Q175 458 182.5 479 Q190 500 198 520 Q212 558 227.5 595 Q243 632 260 667 Q262 672 264 675.5 Q266 679 269 683 Q274 686 279 684.5 Q284 683 289 680 Q299 674 297 662 Q295 645 291.5 629 Q288 613 285 596 Q280 575 276 554.5 Q272 534 267 513 Q265 500 262 487.5 Q259 475 257 461 Q253 439 250 417 Q247 395 243 373 Q241 359 239.5 344.5 Q238 330 236 316 Q234 296 232.5 275 Q231 254 229 234 Q228 214 227.5 193.5 Q227 173 227 153 Q227 142 227 132 Q227 122 229 111 Q229 106 229.5 100 Q230 94 231 89 Q232 84 233 80.5 Q234 77 236 69 Q236 67 239.5 71 Q243 75 247 81 Q251 87 255 94 Q259 101 261 106 Q269 126 278 146.5 Q287 167 295 187 Q303 206 309.5 224.5 Q316 243 324 262 Q331 279 338 296 Q345 313 352 330 Q360 350 368 369.5 Q376 389 385 409 Q395 432 405 454.5 Q415 477 425 500 Q434 520 443 538.5 Q452 557 461 577 Q472 599 482.5 619.5 Q493 640 504 662 Q507 669 509.5 673.5 Q512 678 515 686 Q517 689 519 694.5 Q521 700 524 702 Q531 705 539 699 Z " />
<glyph glyph-name="N" unicode="N" horiz-adv-x="348" d="M365 702 Q367 689 365.5 676.5 Q364 664 362 652 Q359 629 353 603 Q351 589 348 576 Q345 563 343 550 Q340 538 337 526 Q334 514 332 503 Q328 485 325 467.5 Q322 450 317 433 Q315 424 313.5 414 Q312 404 310 393 Q307 379 304 364.5 Q301 350 298 335 Q296 326 294.5 316 Q293 306 292 297 Q290 283 287.5 269.5 Q285 256 282 242 Q280 231 279 222 Q278 213 276 203 Q274 189 272 175.5 Q270 162 267 148 Q262 118 258 88 Q254 58 251 27 Q248 -7 245.5 -41.5 Q243 -76 242 -111 Q242 -120 241.5 -128 Q241 -136 242 -145 Q242 -151 244 -159 Q245 -161 246 -164 Q247 -167 244 -168 Q237 -170 229.5 -168.5 Q222 -167 220 -157 Q218 -149 218 -141 Q218 -133 217 -125 Q216 -107 216.5 -90.5 Q217 -74 218 -57 Q220 -31 221 -6 Q222 19 223 45 Q225 60 225.5 74.5 Q226 89 227 104 Q229 124 230.5 143 Q232 162 234 181 Q235 190 236 199 Q237 208 239 218 Q241 230 243 242.5 Q245 255 247 268 Q249 280 251 292 Q253 304 255 316 Q257 325 258.5 334 Q260 343 262 353 Q264 362 266 372 Q268 382 270 392 Q272 405 274.5 417 Q277 429 280 442 Q282 453 284.5 464 Q287 475 290 486 Q292 497 294 506 Q296 515 298 526 Q302 543 306 560 Q310 577 313 594 Q316 608 319.5 621.5 Q323 635 326 650 Q327 655 328 663.5 Q329 672 330 680 Q331 688 331.5 694.5 Q332 701 332 703 Q329 700 327 698 Q325 696 323 694 Q311 682 300.5 668 Q290 654 282 640 Q273 626 265 611 Q257 596 249 581 Q232 547 217 514 Q210 497 203 479.5 Q196 462 190 445 Q180 422 172.5 399.5 Q165 377 158 354 Q146 315 137 278 Q132 259 127.5 240.5 Q123 222 118 203 Q113 183 108.5 162 Q104 141 99 121 Q97 113 95.5 106 Q94 99 92 91 Q90 77 86 64 Q83 54 76 50 Q72 47 66 47 Q60 47 55 48 Q47 49 45.5 55 Q44 61 42 66 Q37 91 37 112 Q37 126 37 139 Q37 152 38 164 Q39 184 40 202.5 Q41 221 41 241 Q42 250 43 259.5 Q44 269 45 278 Q47 292 48.5 306 Q50 320 52 334 Q54 348 55.5 362 Q57 376 59 391 Q61 405 63 418.5 Q65 432 67 446 Q69 457 71 469 Q73 481 75 492 Q77 505 78.5 518.5 Q80 532 82 546 Q85 563 87.5 580 Q90 597 92 614 Q95 634 97.5 653.5 Q100 673 100 694 Q100 702 99 709.5 Q98 717 95 726 Q94 731 89 736 Q86 739 83 737 Q72 733 61 722 Q35 698 21 661 Q19 656 18 652.5 Q17 649 16 644 Q15 640 17 631 Q19 626 18 625 Q16 623 13.5 624 Q11 625 9 626 Q1 632 3 643.5 Q5 655 7 661 Q21 704 51 734 Q62 743 73 747 Q102 755 118 724 Q122 716 123 708.5 Q124 701 124 693 Q125 675 124.5 657 Q124 639 122 621 Q120 603 118 586 Q116 569 114 552 Q111 532 108.5 512 Q106 492 104 472 L92 385 Q90 366 88 347 Q86 328 84 308 Q82 295 81 282.5 Q80 270 78 256 Q76 239 75.5 221.5 Q75 204 73 187 Q71 168 71 158 Q71 148 70 131 Q69 127 69 121 Q69 115 69 110 L69 106 L69 98 Q70 99 70 100 Q70 103 71 104 Q73 112 73 113 Q76 128 78 138 Q80 148 85 164 Q87 173 88.5 182.5 Q90 192 92 200 Q95 211 97.5 221 Q100 231 103 242 Q107 255 109.5 268 Q112 281 116 294 Q122 314 127.5 333.5 Q133 353 139 373 Q144 389 149.5 405.5 Q155 422 161 438 Q173 472 188 507 Q198 530 208.5 552.5 Q219 575 232 598 Q241 615 251 632.5 Q261 650 272 667 Q280 679 288.5 691.5 Q297 704 308 715 Q314 721 322 726 Q328 731 338 727 Q348 723 355 717 Q359 713 361 710 Q363 707 365 702 Z " />
<glyph glyph-name="O" unicode="O" horiz-adv-x="496" d="M131 582 Q131 580 128 580 Q122 580 117.5 583.5 Q113 587 112 595 Q110 607 115 619 Q120 631 125 641 Q130 652 136.5 662 Q143 672 150 681 Q169 705 195 724 Q237 751 285 745 Q311 742 333 732 Q347 725 359 715 Q371 705 382 694 Q391 683 399 672 Q407 661 414 648 Q421 635 426 622 Q431 609 436 595 Q451 546 454 494 Q456 473 457 452.5 Q458 432 458 412 Q457 389 456 365 Q455 341 452 318 Q450 300 447.5 282 Q445 264 442 247 Q439 224 434 202 Q429 180 423 158 Q417 133 409 109 Q401 85 391 62 Q373 15 347 -29 Q339 -43 329.5 -56 Q320 -69 309 -83 Q296 -100 281 -115 Q266 -130 248 -142 Q231 -155 212 -162 Q193 -169 172 -173 Q167 -174 157 -174 Q147 -174 134 -172 Q121 -170 107 -165 Q93 -160 81 -151 Q73 -146 66.5 -139.5 Q60 -133 55 -127 Q39 -108 28 -86 Q19 -69 12 -51 Q6 -37 2 -21 Q-1 -11 -3 -2.5 Q-5 6 -7 16 Q-9 29 -11 42 Q-13 55 -15 69 Q-19 103 -18 136 Q-18 168 -15 198.5 Q-12 229 -5 258 Q-1 276 3.5 293.5 Q8 311 13 328 Q20 348 27.5 367.5 Q35 387 43 405 Q58 436 75.5 463.5 Q93 491 115 515 Q130 532 145.5 547 Q161 562 179 573 Q184 577 192.5 581 Q201 585 207 580 Q215 574 208 571 Q206 571 205 572.5 Q204 574 203 573 Q194 570 183 562 Q172 554 161 544.5 Q150 535 140 524.5 Q130 514 123 507 Q110 490 99 471 Q88 452 78 433 Q56 395 41 350 Q28 315 19 271 Q11 234 8 199 Q6 180 5.5 161.5 Q5 143 6 123 Q6 103 7 85 Q8 67 11 48 Q13 33 16 18 Q19 3 24 -12 Q31 -38 41.5 -62.5 Q52 -87 68 -109 Q80 -126 94.5 -137.5 Q109 -149 128 -154 Q141 -159 158 -156 Q178 -154 195 -145.5 Q212 -137 227 -126 Q269 -92 299 -44 Q307 -31 314.5 -18 Q322 -5 329 8 Q340 29 350 55 Q355 66 358.5 77 Q362 88 367 99 Q370 111 373.5 122 Q377 133 379 145 Q386 166 391 191 Q393 202 395 212 Q397 222 399 231 Q400 237 401 243.5 Q402 250 403 255 Q405 266 406 276 Q407 286 409 296 Q410 309 411 320.5 Q412 332 413 344 Q415 364 416 385 Q417 406 417 427 Q417 450 416 473.5 Q415 497 412 520 Q410 531 408.5 542 Q407 553 405 564 Q402 583 396 603 Q392 615 387.5 628 Q383 641 377 652 Q367 671 354 689 Q343 702 328 712 Q320 717 312.5 721 Q305 725 297 728 Q286 732 275.5 732.5 Q265 733 255 731 Q226 725 201 705 Q183 692 169 674.5 Q155 657 144 637 Q139 626 134.5 615 Q130 604 128 593 Q127 591 129 587.5 Q131 584 131 582 Z " />
<glyph glyph-name="P" unicode="P" horiz-adv-x="377" d="M376 519 Q377 502 377.5 485 Q378 468 375 451 Q375 429 371 408.5 Q367 388 360 368 Q355 348 348.5 330 Q342 312 334 295 Q324 275 313.5 256 Q303 237 292 219 Q279 199 265 181 Q251 163 236 146 Q224 132 210 119.5 Q196 107 182 96 Q162 82 142.5 73 Q123 64 100 61 Q98 60 95 60 Q92 60 88 59 L76 59 L76 43 Q73 30 71.5 18.5 Q70 7 67 -6 Q67 -23 65 -38.5 Q63 -54 61 -71 Q59 -91 57.5 -110.5 Q56 -130 53 -150 Q53 -160 48 -162 Q43 -166 36 -164 Q31 -163 30 -160 Q29 -157 28 -152 Q30 -126 32.5 -100.5 Q35 -75 37 -49 Q39 -30 41 -11.5 Q43 7 44 26 Q45 30 45.5 36 Q46 42 47 48 Q48 55 49 62 L43 63 Q26 67 12 78 Q5 83 -1.5 90.5 Q-8 98 -15 106 Q-19 112 -23 118.5 Q-27 125 -29 133 Q-33 141 -36.5 149.5 Q-40 158 -42 167 Q-46 188 -45 207.5 Q-44 227 -42 247 Q-37 270 -26.5 290 Q-16 310 1 323 Q4 326 9 328 Q14 330 18 325 Q20 324 21 321 Q22 318 20 318 Q17 318 17 321 Q14 326 10 324 Q6 322 4 319 Q1 314 -1.5 309 Q-4 304 -7 298 Q-16 286 -17 275 Q-18 272 -22 266 Q-25 253 -27 240 Q-29 227 -29 213 Q-29 191 -24.5 169.5 Q-20 148 -7 127 Q1 108 14 95.5 Q27 83 44 76 Q44 75 45 75 L47 75 L49 75 Q49 80 50.5 84 Q52 88 52 93 Q52 97 53.5 116 Q55 135 58 161.5 Q61 188 64 217.5 Q67 247 70 273.5 Q73 300 75 318.5 Q77 337 78 341 Q79 344 81.5 361.5 Q84 379 87.5 404 Q91 429 95 457 Q99 485 102.5 509.5 Q106 534 108.5 550.5 Q111 567 112 569 Q115 574 123 572 Q129 569 132 565 Q137 560 136 554.5 Q135 549 135 544 Q134 540 132 520 Q130 500 126.5 471.5 Q123 443 119 410 Q115 377 111.5 348 Q108 319 105.5 297.5 Q103 276 103 271 Q99 252 97 234 Q95 216 91 198 Q90 185 89.5 172.5 Q89 160 87 148 Q85 134 83.5 121 Q82 108 81 94 Q81 89 79.5 84 Q78 79 78 73 Q80 73 82 73.5 Q84 74 87 74 Q98 77 109.5 81.5 Q121 86 131 93 Q151 105 169.5 120.5 Q188 136 202 155 Q219 173 233.5 192.5 Q248 212 262 234 Q272 250 280 265 Q288 280 296 297 Q298 305 301.5 313 Q305 321 307 329 Q313 340 316 351 Q319 362 322 374 Q326 385 328.5 396.5 Q331 408 335 420 Q337 431 338 441.5 Q339 452 341 463 Q343 476 342 488.5 Q341 501 341 513 Q339 530 337 545.5 Q335 561 330 578 Q328 586 325 595 Q322 604 318 613 Q314 622 310 630.5 Q306 639 299 647 Q292 658 284 668 Q276 678 268 686 Q254 697 241.5 706 Q229 715 213 721 Q201 726 187.5 729.5 Q174 733 160 734 Q142 735 122 732 Q86 728 57 709 Q27 693 13 666 Q11 661 10 656 Q9 651 8 645 Q9 636 15 634 Q17 634 20 630 Q16 628 11 630.5 Q6 633 4 638 Q0 644 0 647 Q0 656 3 664 Q6 672 9 679 Q18 701 41 713 Q74 737 110 744 Q140 750 171 747 Q188 745 204 741.5 Q220 738 237 730 Q284 710 318 666 Q337 646 347.5 623.5 Q358 601 366 576 Q371 561 372.5 547 Q374 533 376 519 Z " />
<glyph glyph-name="Q" unicode="Q" horiz-adv-x="358" d="M342 527 Q343 510 342 492.5 Q341 475 340 457 Q338 434 334.5 412.5 Q331 391 326 369 Q321 346 315 322.5 Q309 299 301 275 Q295 258 289 241.5 Q283 225 276 208 Q269 190 261 173 Q253 156 245 139 Q241 132 238 125.5 Q235 119 231 112 L222 96 Q221 80 220 65 Q219 52 218 38.5 Q217 25 216 16 Q214 -2 212 -19 Q210 -36 207 -53 Q206 -67 204.5 -79 Q203 -91 201 -103 Q200 -111 198 -126 Q196 -141 195 -144 Q193 -151 186 -151 Q183 -152 179 -150.5 Q175 -149 174 -144 L174 -123 Q176 -108 176 -98 Q176 -88 177 -76 Q178 -65 178.5 -46.5 Q179 -28 179.5 -10.5 Q180 7 180.5 21 Q181 35 181 37 Q177 33 175 32 Q158 11 139 0 Q116 -15 86.5 -19.5 Q57 -24 33 -7 Q20 2 10.5 16.5 Q1 31 -5 48 Q-11 65 -14.5 83 Q-18 101 -20 118 Q-24 158 -23 199 Q-22 256 -11 313 Q-8 334 -3 354 Q2 374 7 394 Q18 426 27 446 Q36 466 41 477 Q43 480 44 483.5 Q45 487 47 489 Q51 495 54 495 Q56 495 60 493 Q62 491 61 488.5 Q60 486 59 484 Q57 481 52.5 467.5 Q48 454 43 441 Q38 424 32 403 Q26 382 21 362 Q16 342 12.5 322.5 Q9 303 6 283 Q3 260 1.5 237 Q0 214 1 191 Q1 160 4 132 Q7 105 13.5 77 Q20 49 34 26 Q39 17 47 9.5 Q55 2 65 0 Q83 -5 100.5 5 Q118 15 132 26 Q156 49 176 76 Q176 77 177 78 Q177 79 179 81 Q180 83 182 85 Q182 96 181 106 Q180 114 179.5 123 Q179 132 179 137 Q178 151 176.5 164 Q175 177 173 191 Q171 202 168.5 214 Q166 226 163 237 Q159 250 156 262.5 Q153 275 149 289 Q147 297 144.5 304 Q142 311 140 319 Q138 324 136.5 330 Q135 336 133 343 Q130 354 126.5 363.5 Q123 373 120 383 Q118 394 115.5 404 Q113 414 110 424 Q107 438 105 452.5 Q103 467 102 481 Q100 496 100 510.5 Q100 525 101 540 Q103 555 104.5 569.5 Q106 584 109 598 Q112 610 115 622 Q118 634 123 645 Q134 677 152 702 Q168 724 186 738 Q206 749 230 748 Q248 746 262 737 Q276 728 287 714 Q301 698 312 677 Q317 668 320.5 658 Q324 648 327 638 Q336 608 339 578 Q342 552 342 527 Z M316 450 Q319 470 320 491 Q321 512 320 532 Q320 578 308 622 Q304 633 301 643.5 Q298 654 293 665 Q286 679 276 694 Q268 705 259 714.5 Q250 724 238 729 Q226 735 216 729 Q209 724 203.5 720 Q198 716 193 710 Q183 699 176 687 Q169 675 163 661 Q149 628 142 596 Q137 570 135.5 543.5 Q134 517 136 490 Q137 468 140.5 447 Q144 426 150 404 Q160 365 174 326 L195 260 Q212 205 218 153 Q218 149 219 146 Q221 151 225 159 Q233 176 241 193 Q249 210 256 227 Q264 247 271 266 Q278 285 284 305 Q294 336 302 368 Q307 388 310.5 408.5 Q314 429 316 450 Z " />
<glyph glyph-name="R" unicode="R" horiz-adv-x="354" d="M46 290 Q85 291 123 308.5 Q161 326 193 354 Q226 381 253.5 416 Q281 451 305 490 Q319 510 330 532 Q341 554 347 577 Q353 601 353.5 626 Q354 651 346 672 Q335 698 312 712 Q289 726 263 730 Q227 735 190.5 724 Q154 713 121 693 Q57 657 4.5 600.5 Q-48 544 -83 475 Q-94 456 -101.5 435 Q-109 414 -105 394 Q-116 394 -117.5 407.5 Q-119 421 -114 433 Q-103 474 -82 509.5 Q-61 545 -35 577 Q-8 612 24 642.5 Q56 673 91.5 695 Q127 717 165 730 Q203 743 242 744 Q266 745 289.5 740 Q313 735 333 722 Q353 708 366.5 686.5 Q380 665 384 637 Q389 602 376.5 567.5 Q364 533 346 501 Q322 456 291 415.5 Q260 375 222 344 Q184 313 141 294 Q98 275 54 273 Q110 201 164.5 130 Q219 59 276 -13 Q308 -55 342 -95.5 Q376 -136 413 -171 Q397 -181 382 -171 Q367 -161 355 -148 Q270 -54 191.5 44.5 Q113 143 38 248 Q24 165 9 82 Q-6 -1 -20 -86 Q-22 -90 -22.5 -94 Q-23 -98 -26 -101 Q-30 -106 -36 -104 Q-42 -102 -44 -96 Q-47 -89 -47 -82 Q-47 -75 -46 -69 Q-39 -27 -32.5 14.5 Q-26 56 -19 97 Q-17 108 -16 120 Q-15 132 -13 143 Q-10 166 -6.5 189 Q-3 212 2 235 Q11 282 20.5 328 Q30 374 40 420 Q47 453 55.5 485.5 Q64 518 78 550 Q81 556 85 561.5 Q89 567 94 565 Q99 563 99 556.5 Q99 550 98 545 Q85 481 72.5 417.5 Q60 354 46 290 Z " />
<glyph glyph-name="S" unicode="S" horiz-adv-x="401" d="M281 6 Q291 5 301 3 Q311 1 319 -10 Q320 -11 320 -14 Q320 -18 315.5 -15.5 Q311 -13 309 -12 Q297 -7 280 -9 Q279 -14 278 -18 Q277 -22 276.5 -26 Q276 -30 275 -32 Q272 -49 267 -64 Q262 -79 255 -94 Q246 -112 235 -128.5 Q224 -145 210 -157 Q196 -169 179 -175.5 Q162 -182 142 -180 Q133 -179 123.5 -175 Q114 -171 107 -161 Q100 -150 99 -136 Q98 -122 101 -111 Q105 -95 116.5 -80 Q128 -65 138 -56 Q150 -46 167 -36 Q184 -26 201 -18 Q220 -8 241 0 Q243 16 241.5 31.5 Q240 47 235 64 Q232 79 226 93.5 Q220 108 212 121 Q207 129 201.5 136 Q196 143 189 150 Q181 161 170 171 Q159 181 148 189 Q135 200 121 210 Q107 220 93 230 Q79 241 65 251.5 Q51 262 37 276 Q30 284 23 292 Q16 300 11 310 Q-1 327 -5 344 Q-10 358 -11 372.5 Q-12 387 -11 401 Q-11 418 -8 434.5 Q-5 451 -1 466 Q4 483 10.5 498 Q17 513 25 527 Q36 551 51.5 573 Q67 595 84 615 Q99 632 114.5 649 Q130 666 147 680 Q167 696 186.5 709 Q206 722 229 732 Q241 737 255 741.5 Q269 746 283 748 Q300 750 318 749 Q336 748 355 741 Q394 725 413 686 Q419 673 421.5 660 Q424 647 426 633 Q428 616 426 600 Q424 584 422 567 Q413 526 398 488 Q387 460 375 435 Q363 410 350 386 Q342 370 333 354.5 Q324 339 313 324 Q305 310 295.5 296.5 Q286 283 274 271 Q272 267 268.5 263.5 Q265 260 262 257 Q260 256 256.5 254.5 Q253 253 250 252.5 Q247 252 246 253 Q245 254 248 258 Q252 268 258 276.5 Q264 285 269 294 Q280 315 291.5 336 Q303 357 314 379 Q323 394 330.5 409.5 Q338 425 346 442 Q354 459 362 477.5 Q370 496 378 513 Q389 539 397 573 Q400 587 402.5 600.5 Q405 614 404 629 Q407 652 397 678 Q391 697 376 709 Q365 720 352.5 726 Q340 732 326 734 Q311 736 296.5 733.5 Q282 731 268 726 Q244 718 224 706 Q204 694 184 678 Q164 661 145 642 Q126 623 109 601 Q82 568 61 529 Q50 509 41 487.5 Q32 466 27 442 Q22 428 20.5 412.5 Q19 397 19 381 Q21 342 40 311 Q52 294 67 281 Q84 266 102 253.5 Q120 241 138 227 Q155 215 172.5 202 Q190 189 206 174 Q220 162 231.5 148.5 Q243 135 253 119 Q262 105 267.5 90.5 Q273 76 277 61 Q279 50 280 40.5 Q281 31 282 20 Q282 17 281.5 13.5 Q281 10 281 6 Z M238 -21 Q236 -22 233.5 -23.5 Q231 -25 229 -26 Q200 -41 173 -60 Q163 -68 153 -75.5 Q143 -83 137 -95 Q132 -103 128.5 -111 Q125 -119 125 -130 Q125 -136 125.5 -142 Q126 -148 128 -154 Q130 -156 130.5 -157 Q131 -158 133 -159 Q137 -162 140.5 -162 Q144 -162 148 -161 Q169 -157 181 -141 Q194 -130 202 -116.5 Q210 -103 217 -86 Q228 -60 235 -30 Q236 -28 236.5 -25.5 Q237 -23 238 -21 Z " />
<glyph glyph-name="T" unicode="T" horiz-adv-x="307" d="M352 726 Q358 721 366 712.5 Q374 704 379.5 691 Q385 678 386 661 Q387 644 379 622 Q374 613 363 597 Q352 581 329 564 Q315 554 295 545 Q274 534 250.5 527.5 Q227 521 203 516 Q192 514 182.5 513 Q173 512 163 510 L136 508 Q134 483 132 457 Q130 435 128.5 409 Q127 383 125 360 Q121 296 116 235 Q114 209 111 181.5 Q108 154 105 127.5 Q102 101 98.5 76.5 Q95 52 91 33 Q90 30 89.5 27.5 Q89 25 88 21 Q88 21 86 19 Q76 -29 59 -74.5 Q42 -120 20 -152 L33 -152 Q35 -152 36 -153 Q50 -154 64.5 -155 Q79 -156 93 -160 Q108 -163 118 -171 L124 -177 Q126 -179 123.5 -178.5 Q121 -178 119 -177 Q117 -177 114.5 -176 Q112 -175 110 -174 Q106 -172 103 -171 Q100 -170 96 -168 Q90 -166 83.5 -165 Q77 -164 72 -163 Q45 -160 25 -160 L24 -160 L19 -160 L12 -160 L8 -166 Q-2 -177 -15 -187 Q-19 -190 -28 -194.5 Q-37 -199 -47.5 -201.5 Q-58 -204 -68.5 -202.5 Q-79 -201 -86 -191 Q-87 -190 -87 -188.5 Q-87 -187 -88 -187 Q-90 -173 -85 -166 Q-80 -163 -77.5 -161 Q-75 -159 -69 -157 Q-59 -154 -48 -153 Q-37 -152 -26 -152 L-15 -152 Q-12 -152 -12 -149 Q-11 -149 -10 -148 Q-2 -140 4 -129.5 Q10 -119 15 -108 Q27 -73 36.5 -37 Q46 -1 54 35 Q58 52 60 69.5 Q62 87 64 104 Q64 106 66.5 126.5 Q69 147 72.5 180 Q76 213 79.5 255.5 Q83 298 86 344 Q88 379 90 414 Q92 449 97 484 Q96 489 97 494.5 Q98 500 99 506 Q92 505 85 505 Q78 505 73 504 Q61 504 41.5 504 Q22 504 14 503 Q-8 503 -30.5 503.5 Q-53 504 -76 503 Q-89 503 -101.5 502 Q-114 501 -127 499 Q-154 497 -175 483 Q-185 476 -192.5 467 Q-200 458 -204 445 Q-205 440 -204.5 436 Q-204 432 -203 427 Q-203 424 -202 421.5 Q-201 419 -200 416 Q-199 413 -203 414 Q-205 415 -207 416 Q-209 417 -210 419 Q-213 423 -213.5 428.5 Q-214 434 -216 439 Q-215 469 -194 488 Q-177 505 -146 510 Q-135 513 -123.5 514.5 Q-112 516 -101 517 Q-81 518 -62.5 518.5 Q-44 519 -24 519 Q-7 520 10.5 520 Q28 520 45 521 L59 521 Q61 522 73.5 522.5 Q86 523 103 525 Q107 546 111 567 Q115 588 123 608 Q138 648 162 681 Q186 714 222 731 Q252 747 287.5 746.5 Q323 746 352 726 Z M-19 -161 Q-25 -161 -30 -162 Q-35 -163 -40 -163.5 Q-45 -164 -49 -165 Q-57 -166 -63 -172 Q-72 -178 -69 -187 Q-68 -190 -62 -190 Q-54 -191 -44 -183.5 Q-34 -176 -29 -171 L-19 -161 Z M363 629 Q376 651 368 674 Q363 696 345.5 710 Q328 724 309 727 Q289 730 268 723 Q247 716 230 702 Q221 694 212.5 685.5 Q204 677 195 668 Q190 658 183 647.5 Q176 637 172 624 Q161 607 155 587.5 Q149 568 143 548 Q143 543 142 538 Q141 533 140 528 L144 528 Q152 529 160.5 530 Q169 531 179 532 Q201 536 223.5 542 Q246 548 268 556 Q302 567 332 590 Q342 598 350 607.5 Q358 617 363 629 Z " />
<glyph glyph-name="U" unicode="U" horiz-adv-x="421" d="M432 697 Q433 698 436 698 Q442 698 447.5 694.5 Q453 691 451 683 Q448 671 445 658.5 Q442 646 439 633 Q434 616 430 598 Q426 580 421 563 Q417 546 413 530 Q409 514 407 498 Q399 464 393 433 Q390 416 386.5 400.5 Q383 385 380 368 Q376 348 373 329 Q370 310 367 290 Q365 274 362.5 259.5 Q360 245 358 231 Q355 214 353 197 Q351 180 348 163 Q346 153 345 143 Q344 133 342 123 Q340 106 338.5 89.5 Q337 73 335 56 Q333 40 333 25 Q333 10 332 -6 Q329 -44 329 -82 Q328 -99 328 -116.5 Q328 -134 328 -151 Q327 -160 330 -173 Q330 -179 330.5 -186 Q331 -193 326 -195 Q318 -199 315 -193.5 Q312 -188 311 -182 Q308 -162 307 -141.5 Q306 -121 305 -100 Q305 -84 305 -68.5 Q305 -53 304 -37 Q304 -20 304.5 -3.5 Q305 13 306 30 Q306 50 307 71 Q308 92 309 113 Q309 127 310 139.5 Q311 152 313 166 Q314 177 315 188 Q316 199 318 210 Q319 222 320.5 233.5 Q322 245 324 257 Q326 266 326.5 276 Q327 286 328 295 Q330 303 331.5 311.5 Q333 320 335 328 Q337 337 338.5 345.5 Q340 354 341 363 Q343 371 344.5 379 Q346 387 348 395 Q350 407 352 414 Q354 421 356 434 Q357 438 358.5 445.5 Q360 453 362 462 Q359 454 357 449.5 Q355 445 353 440 Q349 428 346 420.5 Q343 413 338 400 Q333 386 327.5 372 Q322 358 315 344 Q307 320 298.5 296.5 Q290 273 281 247 Q273 229 266.5 210.5 Q260 192 252 174 Q244 152 236.5 131 Q229 110 221 89 Q209 52 191 21 Q186 13 181.5 5.5 Q177 -2 170 -9 Q157 -20 140 -20 Q132 -20 124.5 -18 Q117 -16 112 -8 Q106 1 101 11 Q90 44 88 80 Q86 94 86 106.5 Q86 119 86 133 Q84 176 89 218 Q90 229 90.5 241 Q91 253 93 264 Q98 294 100.5 321 Q103 348 108 378 Q110 391 112 404 Q114 417 116 430 Q118 440 119.5 449.5 Q121 459 123 470 Q125 478 125.5 486 Q126 494 128 502 Q130 512 132 521.5 Q134 531 136 541 Q137 553 138 565 Q139 577 141 588 Q143 601 144 613 Q145 625 147 637 Q147 648 147 660.5 Q147 673 145 684 Q143 693 140.5 701 Q138 709 132 717 Q119 736 98 734 Q88 732 78 727.5 Q68 723 60 718 Q46 708 32 695.5 Q18 683 7 668 Q-12 641 -23 615 Q-27 604 -29.5 593 Q-32 582 -31 570 Q-31 565 -26 560 Q-24 558 -23 556 Q-22 554 -24 553 Q-29 552 -32.5 555.5 Q-36 559 -38.5 564 Q-41 569 -42 574.5 Q-43 580 -43 584 Q-43 597 -39.5 609 Q-36 621 -32 633 Q-25 649 -17 663.5 Q-9 678 2 690 Q16 707 33.5 720 Q51 733 71 741 Q94 753 125 744 Q142 738 155 720 Q163 711 166.5 700 Q170 689 172 678 Q178 649 175 621 Q174 607 173 592.5 Q172 578 170 564 Q168 549 166 534 Q164 519 162 504 Q160 493 158 481.5 Q156 470 154 458 Q152 444 150 429.5 Q148 415 145 400 Q143 386 141 371.5 Q139 357 137 342 Q135 329 133 316 Q131 303 129 290 Q124 253 123 224 Q120 193 117.5 162.5 Q115 132 116 100 Q117 82 117.5 65.5 Q118 49 123 32 Q126 18 132 4 Q135 -2 135.5 -2.5 Q136 -3 141 0 Q146 4 150.5 9.5 Q155 15 159 20 Q167 34 174 48 Q181 62 188 76 Q196 97 204 117.5 Q212 138 221 158 Q226 171 231 184 Q236 197 241 211 Q246 223 250.5 235.5 Q255 248 260 260 Q265 272 268.5 283 Q272 294 277 305 Q282 316 286 327 Q290 338 295 349 Q300 362 305 374.5 Q310 387 315 400 Q321 416 327.5 431.5 Q334 447 340 463 Q347 480 353 496.5 Q359 513 367 529 Q371 541 375.5 553 Q380 565 384 577 Q395 603 403.5 629 Q412 655 420 683 Q424 694 432 697 Z " />
<glyph glyph-name="V" unicode="V" horiz-adv-x="327" d="M324 748 Q327 750 329 747 Q331 744 332.5 739.5 Q334 735 335 730 Q336 725 336 722 Q337 717 336.5 707 Q336 697 334.5 684.5 Q333 672 331 658.5 Q329 645 328 635 Q325 612 321.5 587.5 Q318 563 314 540 Q311 517 307 495 Q303 473 299 450 Q297 433 294.5 416 Q292 399 289 383 Q285 360 281 337 Q277 314 273 291 Q268 270 265 250 Q262 230 259 208 Q255 191 252.5 174 Q250 157 246 142 L228 58 Q224 41 220.5 22.5 Q217 4 213 -13 Q208 -31 203.5 -50 Q199 -69 194 -87 Q190 -103 186 -118 Q182 -133 177 -149 Q170 -169 161 -187.5 Q152 -206 135 -211 Q125 -214 112.5 -213.5 Q100 -213 92 -199 Q85 -187 81.5 -174 Q78 -161 75 -147 Q73 -137 71.5 -128 Q70 -119 68 -110 Q62 -79 61 -51 Q61 -37 60 -24 Q59 -11 58 1 Q57 24 57 44.5 Q57 65 57 86 Q56 103 56.5 119 Q57 135 58 149 Q58 163 58.5 175 Q59 187 60 198 Q61 205 61 211 Q61 217 61 225 Q61 236 61.5 246 Q62 256 62 266 Q63 277 63.5 287.5 Q64 298 64 309 Q64 318 65 326.5 Q66 335 66 343 Q67 360 67.5 376.5 Q68 393 68 408 Q70 440 68 469 Q68 496 62 526 Q60 534 57.5 541.5 Q55 549 52 555 Q38 577 24 574.5 Q10 572 -1 559 Q-14 545 -21 523 Q-24 517 -26 509.5 Q-28 502 -25 494 L-25 489 Q-25 488 -26 487 Q-33 485 -37 491 Q-42 497 -41 506.5 Q-40 516 -38 521 Q-31 544 -18 562 Q-4 582 13 588 Q23 592 34 588 Q51 584 62.5 568.5 Q74 553 82 530 Q86 515 88.5 501 Q91 487 92 473 Q94 448 94.5 425.5 Q95 403 94 381 Q92 349 92 317.5 Q92 286 91 254 Q90 231 89 207.5 Q88 184 87 159 L87 33 Q87 -8 90 -48 Q92 -70 93.5 -91 Q95 -112 100 -135 Q102 -146 105 -156 Q108 -166 112 -176 Q114 -184 116 -184 Q118 -184 122 -180 Q124 -178 126.5 -174.5 Q129 -171 131 -167 Q136 -156 141 -144.5 Q146 -133 150 -121 Q156 -101 161.5 -81.5 Q167 -62 172 -42 Q175 -32 177.5 -22 Q180 -12 183 -2 Q185 9 188 21 Q191 33 193 44 Q196 57 199.5 70.5 Q203 84 205 98 Q208 108 210 118.5 Q212 129 214 139 Q220 161 225 186 Q229 203 232 220 Q235 237 239 254 Q241 266 243 277 Q245 288 247 299 Q251 313 253 326 Q255 339 257 353 Q262 374 265 393.5 Q268 413 273 433 Q276 451 279.5 469 Q283 487 285 504 Q291 530 294 557 Q298 579 301.5 600 Q305 621 310 641 Q316 692 322 746 Q323 746 323 747 Q323 748 324 748 Z " />
<glyph glyph-name="W" unicode="W" horiz-adv-x="810" d="M784 520 Q785 515 785 511 Q785 507 785 503 Q786 469 785 435 Q784 399 779 361 Q773 314 761 271 Q756 254 751 238 Q746 222 741 205 Q733 180 724 157 Q718 142 711.5 127.5 Q705 113 698 99 Q677 53 650 8 Q637 -12 624 -32 Q611 -52 597 -71 Q587 -82 577 -92 Q567 -102 556 -113 Q536 -132 512 -145 Q482 -159 453 -159 Q443 -159 434 -158 Q425 -157 416 -154 Q396 -147 383 -130 Q374 -120 367 -109 Q360 -98 354 -85 Q350 -76 347 -66.5 Q344 -57 340 -47 Q333 -19 328 12 Q325 32 323.5 51.5 Q322 71 321 90 Q320 113 320.5 136.5 Q321 160 323 183 Q323 185 323.5 187.5 Q324 190 323 192 Q321 189 320 186.5 Q319 184 318 181 Q307 159 297.5 138 Q288 117 277 95 Q264 68 250.5 40.5 Q237 13 223 -15 Q213 -35 203 -54.5 Q193 -74 182 -93 Q171 -114 158.5 -133 Q146 -152 132 -169 Q126 -176 119.5 -182.5 Q113 -189 105 -193 Q91 -200 79 -200 Q67 -200 58 -196 Q49 -192 43 -181 Q36 -170 32.5 -158 Q29 -146 27 -133 Q22 -108 21 -83.5 Q20 -59 20 -34 Q22 13 26 55 Q28 74 30.5 93 Q33 112 35 130 Q38 149 41 167.5 Q44 186 47 204 Q49 219 52 233 Q55 247 57 262 Q60 278 63.5 294 Q67 310 70 327 Q75 347 79 367.5 Q83 388 87 408 Q91 429 94.5 450 Q98 471 102 491 Q104 504 104.5 516.5 Q105 529 104 543 Q104 561 97 578 Q86 596 67 596 Q58 596 50 593.5 Q42 591 34 586 Q20 578 7 566.5 Q-6 555 -17 541 Q-25 530 -33 519 Q-41 508 -46 494 Q-56 476 -60 457 L-60 440 Q-60 435 -62 434 Q-65 431 -69 435 Q-69 438 -70 439 Q-70 442 -70.5 445.5 Q-71 449 -71 453 Q-69 468 -64.5 481.5 Q-60 495 -54 507 Q-31 553 9 584 Q32 601 55 605 Q66 607 76 606 Q86 605 96 598 Q107 591 113 580 Q119 569 123 555 Q125 545 126 535 Q127 525 127 515 Q127 494 125 474 Q123 454 119 434 Q115 412 111.5 390 Q108 368 104 346 Q99 322 95 298.5 Q91 275 86 251 Q82 231 78.5 209.5 Q75 188 71 166 Q62 107 56 48 Q54 32 53.5 16 Q53 0 51 -16 Q49 -41 49.5 -65.5 Q50 -90 53 -115 Q55 -143 65 -168 Q66 -170 67 -172.5 Q68 -175 69 -177 Q71 -183 76 -181 Q81 -179 86.5 -175.5 Q92 -172 97 -168 Q108 -157 118.5 -144 Q129 -131 137 -117 Q149 -97 160.5 -79 Q172 -61 183 -41 Q192 -24 200.5 -8 Q209 8 218 25 Q228 43 237 61 Q246 79 255 97 L297 187 Q304 203 310.5 219 Q317 235 324 251 Q331 267 337 286 L346 319 Q349 329 353.5 340 Q358 351 371 347 Q378 345 379.5 338 Q381 331 380 323 Q379 315 377 306.5 Q375 298 374 292 Q369 269 365 245.5 Q361 222 358 197 Q355 168 353.5 139.5 Q352 111 354 82 Q354 60 355.5 38.5 Q357 17 362 -5 Q370 -54 390 -93 Q400 -114 412 -125 Q432 -141 454 -136 Q471 -132 484.5 -124.5 Q498 -117 512 -107 Q524 -96 535 -84.5 Q546 -73 557 -60 Q571 -45 582.5 -29 Q594 -13 606 4 Q620 24 632 43.5 Q644 63 655 85 Q664 102 672.5 119.5 Q681 137 689 155 Q696 168 701.5 181.5 Q707 195 712 209 Q718 227 724 244.5 Q730 262 735 281 Q740 301 744.5 320 Q749 339 753 360 Q756 383 758.5 405 Q761 427 762 450 Q762 473 761 495 Q760 517 758 540 Q756 560 751.5 580 Q747 600 742 620 Q740 631 736 641.5 Q732 652 727 663 Q721 676 714 687.5 Q707 699 698 708 Q687 720 671.5 727 Q656 734 640.5 734.5 Q625 735 610.5 729 Q596 723 588 709 Q586 706 584 702.5 Q582 699 580 697 Q580 695 578 695 Q576 695 575.5 697.5 Q575 700 575 702 Q577 720 591.5 731.5 Q606 743 620 746 Q667 757 706 720 Q728 700 742 671 Q754 650 762 627.5 Q770 605 775 582 Q778 568 780.5 553.5 Q783 539 783 524 Q783 523 783.5 522.5 Q784 522 784 521 L784 520 Z " />
<glyph glyph-name="X" unicode="X" horiz-adv-x="274" d="M344 706 Q344 702 342 702 Q341 701 340 701.5 Q339 702 337 701 Q335 701 333.5 698 Q332 695 329 693 Q325 687 322 681 Q319 675 315 669 Q313 665 311.5 662 Q310 659 308 657 Q306 653 304.5 650 Q303 647 300 644 Q293 631 286.5 618 Q280 605 273 592 L249 544 Q238 524 228 503.5 Q218 483 208 463 Q198 443 188 422 Q178 401 169 380 Q164 368 158.5 356.5 Q153 345 148 333 Q147 332 147.5 321.5 Q148 311 148 310 Q150 292 151.5 284 Q153 276 155 259 Q157 229 162 203 Q167 178 170 153.5 Q173 129 178 104 Q180 88 183 72 Q186 56 189 39 Q196 10 202.5 -18.5 Q209 -47 218 -76 Q223 -88 227 -99.5 Q231 -111 236 -122 Q241 -132 248.5 -143.5 Q256 -155 265 -151 Q279 -146 289 -133.5 Q299 -121 307 -106 Q315 -93 321.5 -79.5 Q328 -66 335 -52 L336 -52 Q336 -53 340.5 -58 Q345 -63 341 -73 Q339 -78 332.5 -97 Q326 -116 315 -135.5 Q304 -155 288 -168.5 Q272 -182 251 -176 Q251 -175 250 -175 L249 -175 L248 -174 L247 -174 Q245 -173 242 -171.5 Q239 -170 236 -168 Q234 -167 231 -164 Q227 -161 224.5 -157 Q222 -153 218 -149 Q207 -132 200 -112.5 Q193 -93 186 -73 Q181 -57 177 -42 Q173 -27 168 -11 Q166 -3 164.5 3.5 Q163 10 160 18 Q156 32 153.5 46.5 Q151 61 148 75 Q146 88 143.5 101 Q141 114 139 128 Q137 138 135.5 147.5 Q134 157 132 167 Q130 184 127.5 201 Q125 218 123 235 Q121 243 120.5 252 Q120 261 118 269 Q117 266 115.5 262.5 Q114 259 112 256 Q107 242 100.5 228 Q94 214 88 200 Q80 184 74 168.5 Q68 153 62 137 Q51 114 41.5 92 Q32 70 22 47 Q15 29 7 10.5 Q-1 -8 -9 -27 Q-18 -49 -26.5 -70 Q-35 -91 -45 -111 Q-50 -126 -56.5 -141.5 Q-63 -157 -68 -172 Q-70 -177 -71.5 -182 Q-73 -187 -75 -192 Q-80 -200 -86 -197 Q-86 -197 -88 -193 Q-90 -183 -87 -176 Q-86 -168 -83.5 -161.5 Q-81 -155 -79 -148 Q-73 -129 -65.5 -111.5 Q-58 -94 -51 -76 Q-40 -49 -29 -22 Q-18 5 -7 32 Q4 58 15 84 Q26 110 37 136 Q45 157 54 177.5 Q63 198 71 218 Q77 234 83.5 249.5 Q90 265 97 280 Q97 281 99.5 286.5 Q102 292 105 300 Q109 308 112 319 L108 359 Q108 370 107 379.5 Q106 389 104 399 Q102 422 100.5 444 Q99 466 97 488 Q95 510 93.5 532 Q92 554 89 577 Q87 592 85.5 607 Q84 622 80 637 Q77 657 72.5 676.5 Q68 696 57 713 Q48 729 33 733 Q23 737 10.5 733 Q-2 729 -11 724 Q-42 705 -59.5 678 Q-77 651 -85 628 Q-87 620 -87.5 607 Q-88 594 -86 587 Q-84 583 -86.5 584 Q-89 585 -90 587 Q-96 601 -92.5 620.5 Q-89 640 -87 648 Q-71 685 -45 712 Q-20 739 11 746 Q28 751 46 744 Q64 737 78 717 Q86 706 91.5 693.5 Q97 681 101 667 Q108 646 112 624.5 Q116 603 119 581 Q125 541 129 502.5 Q133 464 137 426 Q139 416 139 410 Q139 404 140 394 L140 384 Q142 386 143 388.5 Q144 391 145 392 Q153 409 160 424 Q167 439 175 457 Q186 478 196.5 499.5 Q207 521 219 541 Q233 567 247.5 592 Q262 617 278 640 Q294 665 309 686 Q312 691 316 695 Q320 699 322 703 Q325 707 328.5 710.5 Q332 714 337 713 Q342 713 344 706 Z " />
<glyph glyph-name="Y" unicode="Y" horiz-adv-x="393" d="M377 640 Q380 626 378 609 Q368 513 357 417.5 Q346 322 327.5 230 Q309 138 281.5 51.5 Q254 -35 211 -112 Q229 -113 241.5 -113.5 Q254 -114 266 -115 Q278 -116 291 -116.5 Q304 -117 323 -118 Q325 -123 322.5 -125.5 Q320 -128 314 -128.5 Q308 -129 301 -128.5 Q294 -128 287 -128 Q278 -128 271 -127.5 Q264 -127 257.5 -126.5 Q251 -126 243.5 -125.5 Q236 -125 224 -125 Q219 -125 215.5 -124.5 Q212 -124 209 -124 L203 -124 L198 -129 Q196 -131 194 -133.5 Q192 -136 190 -138 Q173 -155 153 -170 Q133 -185 109 -190 Q95 -192 80.5 -191.5 Q66 -191 54 -185 Q43 -180 32.5 -170 Q22 -160 18 -147 Q13 -130 17 -114.5 Q21 -99 33 -92 Q46 -86 60 -87.5 Q74 -89 89 -92 Q107 -95 121 -98 Q135 -101 153 -104 Q156 -105 160.5 -105 Q165 -105 170 -106 Q175 -107 180 -108 L188 -98 Q194 -89 203.5 -71.5 Q213 -54 225 -24.5 Q237 5 250.5 47 Q264 89 278 148 Q300 244 312 342.5 Q324 441 334 541 L340 588 Q314 502 288 418 Q265 346 240 268 Q215 190 193 130 Q190 122 186 112.5 Q182 103 177 92 Q177 90 176 89 Q174 85 172.5 81.5 Q171 78 168 74 Q161 62 155 55.5 Q149 49 148 48 Q130 33 116 36 L115 36 Q111 38 110 39 Q102 43 96.5 51 Q91 59 87.5 68 Q84 77 82 84.5 Q80 92 80 94 Q78 111 76.5 126.5 Q75 142 75 159 Q73 220 78.5 279 Q84 338 92.5 396 Q101 454 111.5 511.5 Q122 569 131 627 Q133 644 135 660 Q137 676 134 693 Q132 701 128.5 711 Q125 721 117 726 Q105 734 92.5 729 Q80 724 71 719 Q60 713 51 704.5 Q42 696 33 688 Q27 681 22 674 Q17 667 14 659 Q13 656 11.5 652.5 Q10 649 10 645 Q12 635 16 629 Q14 627 10 628 Q6 629 3 631 Q-1 636 -3 646 Q-3 651 -1 661 Q2 671 10.5 682.5 Q19 694 29.5 705 Q40 716 51.5 724.5 Q63 733 73 737 Q97 746 122 736 Q128 734 134.5 729.5 Q141 725 146 719 Q156 706 158.5 690.5 Q161 675 162 660 Q162 655 161.5 651 Q161 647 161 642 Q156 567 144.5 495.5 Q133 424 122 351 Q114 285 111 218.5 Q108 152 118 83 Q121 72 125 69.5 Q129 67 133.5 69 Q138 71 142.5 77 Q147 83 149 88 Q170 133 185 172 Q200 211 214 254 Q243 351 272.5 445.5 Q302 540 331 636 Q334 647 340 656.5 Q346 666 357 664 Q372 659 377 640 Z M163 -130 Q165 -128 167 -125.5 Q169 -123 171 -120 Q168 -120 166 -119.5 Q164 -119 162 -119 Q148 -117 134.5 -114 Q121 -111 107 -109 Q95 -107 86.5 -106 Q78 -105 67 -103 Q48 -98 37 -115 Q29 -126 33.5 -139.5 Q38 -153 46 -161 Q60 -175 78 -175 Q89 -176 98.5 -173.5 Q108 -171 118 -166 Q131 -159 141.5 -150 Q152 -141 163 -130 Z " />
<glyph glyph-name="Z" unicode="Z" horiz-adv-x="376" d="M204 282 Q197 281 193 280.5 Q189 280 182 278 Q167 275 160.5 274 Q154 273 148 271 Q145 270 133.5 267.5 Q122 265 119 264 Q108 262 110 268 Q112 274 117 276 Q133 280 146 282.5 Q159 285 170 287 Q180 289 186.5 290 Q193 291 203 293 Q205 294 205 294 Q210 310 214.5 327.5 Q219 345 225 361 Q229 376 232.5 390.5 Q236 405 240 420 Q255 476 271 529 Q287 582 311 629 Q325 654 339 677.5 Q353 701 368 723 Q360 723 350 723 Q340 723 332 724 Q317 725 299.5 724.5 Q282 724 267 723 Q237 721 208.5 716 Q180 711 151 703 Q122 694 91 678.5 Q60 663 34 637.5 Q8 612 -9 576.5 Q-26 541 -26 493 Q-26 485 -28 482.5 Q-30 480 -32.5 482 Q-35 484 -37 489.5 Q-39 495 -39 501 Q-42 559 -20 601 Q2 643 34 668 Q64 693 98.5 707.5 Q133 722 168 731 Q214 742 261 743.5 Q308 745 357 740 Q360 740 363.5 739.5 Q367 739 369 739 Q378 737 385 731.5 Q392 726 389 716 Q384 709 381 702.5 Q378 696 373 689 Q364 669 355 650 Q346 631 337 612 Q317 560 301 506 Q285 452 269 396 Q263 373 256.5 349.5 Q250 326 244 301 Q243 300 243 299 L247 299 Q261 300 274.5 300.5 Q288 301 302 302 Q308 302 318 301 Q328 300 334 295 Q339 290 338 281.5 Q337 273 331 279 Q331 282 330 284 Q327 289 322.5 290.5 Q318 292 314 291 Q295 291 276 290 Q257 289 240 287 L240 286 Q240 285 239.5 285 Q239 285 239 284 Q233 266 228 248 Q223 230 218 213 Q204 165 190 127 Q182 106 174.5 86 Q167 66 159 47 Q144 15 126 -13 Q117 -28 108 -41.5 Q99 -55 88 -67 Q86 -67 84 -69 Q86 -71 87.5 -72 Q89 -73 91 -74 Q171 -125 251 -150 Q273 -156 296 -161.5 Q319 -167 341 -165 Q366 -163 380 -151 Q384 -149 388.5 -142.5 Q393 -136 398 -140 Q403 -145 400 -152 Q397 -159 395 -161 Q383 -177 364 -182.5 Q345 -188 324 -187.5 Q303 -187 281.5 -182.5 Q260 -178 244 -173 Q193 -158 153.5 -136 Q114 -114 67 -85 L67 -86 Q66 -87 65 -87 Q49 -101 27 -109 Q21 -111 13.5 -113 Q6 -115 -4 -115 Q-16 -115 -30 -108 Q-43 -100 -49.5 -82.5 Q-56 -65 -51 -48 Q-47 -28 -34.5 -22.5 Q-22 -17 -6.5 -19.5 Q9 -22 25 -30.5 Q41 -39 53 -48 Q56 -50 58.5 -51.5 Q61 -53 63 -55 Q64 -55 65 -54 Q66 -53 66 -52.5 Q66 -52 67 -51 Q77 -39 84 -28 Q91 -17 100 -3 Q109 13 117 30 Q125 47 133 65 Q138 81 144.5 98 Q151 115 157 132 Q162 146 166 159 Q170 172 175 186 Q180 202 184.5 218 Q189 234 194 250 Q196 257 198.5 264 Q201 271 204 282 Z M47 -72 Q45 -69 42 -67 Q39 -65 37 -63 Q27 -56 21 -51.5 Q15 -47 3 -42 Q-1 -40 -6 -38 Q-11 -36 -15 -38 Q-23 -39 -27 -44.5 Q-31 -50 -34 -59 Q-35 -68 -31.5 -77 Q-28 -86 -22 -91 Q-15 -95 -6.5 -96 Q2 -97 7 -95 Q15 -93 22.5 -89 Q30 -85 37 -80 Q39 -78 41.5 -76 Q44 -74 47 -72 Z " />
<glyph glyph-name="zero" unicode="0" horiz-adv-x="183" d="M-4 212 Q4 294 24 371 Q27 388 32.5 404.5 Q38 421 45 436 Q48 440 49 444 Q54 455 61.5 453.5 Q69 452 71 442 Q72 437 70 430 Q66 419 62.5 407 Q59 395 55 383 Q49 358 43.5 333 Q38 308 34 283 Q30 260 28.5 238 Q27 216 26 193 Q24 164 29 134 Q31 128 32.5 126.5 Q34 125 39 127 Q46 129 51 135 Q56 141 61 148 Q75 169 85 193 Q95 217 103 243 Q111 266 116.5 289.5 Q122 313 125 338 Q128 355 130 371.5 Q132 388 132 405 Q131 420 129 436.5 Q127 453 121 465 Q117 475 110 465 Q110 462 107 461 Q102 450 94 455 Q92 455 91.5 458.5 Q91 462 91 464 Q93 487 107.5 493 Q122 499 133 495 Q143 493 150 483.5 Q157 474 160.5 461 Q164 448 165.5 433 Q167 418 167 403 Q165 360 157.5 318 Q150 276 136 236 Q128 208 118 183.5 Q108 159 94 139 Q69 101 38 101 Q32 101 27 102.5 Q22 104 16 106 Q8 108 4.5 116.5 Q1 125 -1 136 Q-5 151 -5.5 167.5 Q-6 184 -5 201 Q-5 203 -4.5 206.5 Q-4 210 -4 212 Z " />
<glyph glyph-name="one" unicode="1" horiz-adv-x="90" d="M13 119 Q22 119 30 118 Q38 117 47 117 Q49 117 50.5 116.5 Q52 116 55 116 Q57 116 59 115.5 Q61 115 63 113 Q66 104 63 99 Q61 96 54 96 Q30 94 6.5 94 Q-17 94 -41 94 Q-47 94 -45 100 Q-43 113 -36 116 Q-32 116 -28.5 116.5 Q-25 117 -22 117 L-20 117 Q-18 117 -16 118 Q-13 118 -10 119 Q-6 148 -2.5 178 Q1 208 5 237 Q7 254 10.5 272.5 Q14 291 17 308 Q22 334 27 360.5 Q32 387 37 413 Q39 421 40.5 429.5 Q42 438 44 446 Q44 451 45 455 Q46 459 47 463 Q47 465 48 471 Q49 477 47 475 Q39 470 36 477 Q34 482 40 488 Q42 491 45 494 Q48 497 51 498 Q59 501 64 494 Q68 489 69 482.5 Q70 476 70 469 Q71 463 70.5 456.5 Q70 450 70 444 Q67 418 63 392 Q59 366 54 340 Q54 338 53 335.5 Q52 333 52 331 Q48 308 44 284.5 Q40 261 35 237 Q32 223 30 213 Q28 203 26.5 193.5 Q25 184 23 173.5 Q21 163 18 147 Q17 139 15 129.5 Q13 120 13 119 Z " />
<glyph glyph-name="two" unicode="2" horiz-adv-x="145" d="M128 91 Q125 85 117 86.5 Q109 88 104 88 Q86 93 67.5 96.5 Q49 100 30 105 Q24 106 18.5 106 Q13 106 7 108 Q2 109 -3 108.5 Q-8 108 -14 108 Q-18 106 -24.5 105 Q-31 104 -33 109 Q-34 111 -34 117 Q-32 127 -27 131 Q-24 136 -20.5 136.5 Q-17 137 -14 139 Q-4 141 1 149 Q13 164 23 182 Q33 200 42 220 Q57 254 70 289.5 Q83 325 92 363 Q94 373 97 383 Q100 393 102 404 Q104 415 105 425 Q106 435 104 446 Q103 451 102 455 Q101 459 98 463 Q89 472 79 461.5 Q69 451 62 441 Q54 430 49 418 Q44 406 39 392 Q38 388 37 384.5 Q36 381 34 375 Q31 373 27 371.5 Q23 370 21 375 Q19 377 18.5 381 Q18 385 18 389 Q20 412 27 430 Q35 451 46 467 Q57 483 72 491 Q86 499 102.5 494 Q119 489 128 471 Q136 454 136.5 436 Q137 418 135 398 Q129 360 118 322 Q107 284 92 248 Q80 217 64 186 Q56 172 47.5 159.5 Q39 147 31 136 Q33 135 35 135 Q37 134 41 134 Q44 132 47 131.5 Q50 131 52 129 Q58 128 63.5 126.5 Q69 125 75 123 Q83 121 90.5 118.5 Q98 116 106 112 Q110 111 113 110 Q116 109 120 108 Q127 108 130 102 L130 97 Q130 92 128 91 Z " />
<glyph glyph-name="three" unicode="3" horiz-adv-x="169" d="M89 353 Q105 344 116 325 Q127 306 133 284 Q141 255 136.5 223.5 Q132 192 119 163 Q109 141 92 122 Q85 112 75 105.5 Q65 99 55 94 Q41 87 24 86.5 Q7 86 -5 97 Q-12 104 -15 115.5 Q-18 127 -18 140 Q-18 153 -15.5 165.5 Q-13 178 -10 189 Q-5 205 2 218.5 Q9 232 17 243 Q22 250 27.5 254 Q33 258 38 255 Q40 255 40 249.5 Q40 244 35 239 Q27 231 22 220 Q17 209 13 198 Q8 179 5.5 161 Q3 143 7 126 Q9 115 12 113 Q15 111 23 112 Q55 123 74 157 Q91 185 100 216 Q106 239 105 262.5 Q104 286 96 304 Q89 320 74 332 Q71 334 67.5 334.5 Q64 335 60 336 Q54 339 55 347 Q57 361 62.5 372.5 Q68 384 73 398 Q78 411 84.5 424.5 Q91 438 96 453 Q97 457 98 467 Q99 477 92 473 Q76 459 66 437 Q51 408 48 376 Q46 368 42 368 Q38 370 34.5 369 Q31 368 28 370 Q24 371 23 374.5 Q22 378 23 383 Q23 390 24 398 Q25 406 28 414 Q33 439 45 458 Q57 477 73 490 Q87 501 102 496.5 Q117 492 122 472 Q124 464 124 457 Q124 450 122 443 Q120 429 115.5 415.5 Q111 402 106 389 Q102 381 98.5 373 Q95 365 91 357 Q91 355 89 353 Z " />
<glyph glyph-name="four" unicode="4" horiz-adv-x="133" d="M106 498 Q111 500 117 496 Q123 492 125 484 Q129 476 127 462 Q125 443 122 424.5 Q119 406 114 388 Q111 368 108 348 Q105 328 102 309 Q98 288 95 266 Q92 244 88 222 Q85 205 83 190 Q81 175 79 159 Q78 151 77 143 Q76 135 75 128 Q73 120 72 113.5 Q71 107 69 101 Q67 96 65 95 Q64 93 58 93 Q55 93 52 94 Q49 95 46 95 Q44 96 41.5 96.5 Q39 97 38 99 Q36 105 38 107 Q38 127 42 143 Q47 180 51.5 217 Q56 254 61 292 Q64 307 66.5 323 Q69 339 72 356 Q68 348 65 339 Q58 325 50 312 Q42 299 31 293 Q22 290 12 290.5 Q2 291 -6 298 Q-12 304 -15.5 313.5 Q-19 323 -21 334 Q-25 354 -23.5 373 Q-22 392 -18 412 Q-12 447 3 483 Q4 485 5 487.5 Q6 490 8 494 Q8 496 11 498 L15 498 Q20 498 23 497 Q26 495 27.5 489.5 Q29 484 27 478 Q25 466 22 454 Q19 442 16 429 Q10 405 7 379 Q5 367 5 355.5 Q5 344 7 333 Q8 323 10 313.5 Q12 304 22 308 Q30 311 36.5 318 Q43 325 48 333 Q58 350 64.5 370 Q71 390 79 410 Q85 427 89.5 444.5 Q94 462 98 479 Q98 484 100 490.5 Q102 497 105 498 L106 498 Z " />
<glyph glyph-name="five" unicode="5" horiz-adv-x="155" d="M40 366 Q49 372 55.5 376 Q62 380 73 382 Q78 382 84 380.5 Q90 379 95 377 Q104 371 110 363 Q133 334 133 284 Q133 215 105 155 Q98 142 90.5 131.5 Q83 121 72 113 Q64 106 55.5 102 Q47 98 39 96 Q31 94 20.5 93 Q10 92 2 96 Q-8 99 -13 107 Q-18 115 -20 125.5 Q-22 136 -21.5 147.5 Q-21 159 -18 170 Q-12 197 1 218 Q3 225 5 225 Q7 227 11.5 227.5 Q16 228 18 226 Q19 224 17.5 220.5 Q16 217 15 215 Q6 193 3 171 Q0 147 3 126 Q5 123 5 121 Q5 119 6 118 Q8 116 10 117 Q12 118 13 118 Q34 124 46 146 Q63 170 73.5 196 Q84 222 89 253 Q91 271 91.5 289.5 Q92 308 87 325 Q86 339 76 352 Q75 354 74 354.5 Q73 355 72 357 Q68 357 63 352 Q61 351 59.5 350 Q58 349 56 347 Q53 344 49 340.5 Q45 337 43 332 Q39 328 36.5 324 Q34 320 29 318 Q26 316 19 316 Q15 314 5 314 Q1 314 -1 316 Q-2 318 -2 322 Q-1 340 3 365.5 Q7 391 11 415 Q15 439 18.5 456.5 Q22 474 23 476 Q31 491 42 494 Q57 497 71 497.5 Q85 498 99 497 Q108 497 114 491 Q116 489 115.5 480.5 Q115 472 103 472 Q95 470 86.5 471 Q78 472 72 472 Q65 472 62 470 Q60 468 57.5 462 Q55 456 53.5 449 Q52 442 50.5 435.5 Q49 429 49 426 Q44 397 40 366 Z " />
<glyph glyph-name="six" unicode="6" horiz-adv-x="150" d="M42 233 Q48 247 54 259.5 Q60 272 67 285 Q70 291 76 299 Q82 307 88.5 313 Q95 319 101.5 320 Q108 321 114 314 Q123 303 122 277.5 Q121 252 115 224.5 Q109 197 101 172.5 Q93 148 88 139 Q77 116 59.5 101.5 Q42 87 22 98 Q5 108 0.5 134 Q-4 160 -4 184 Q-4 240 10 301 Q25 373 52 442 Q57 455 62 467.5 Q67 480 75 491 Q80 498 88 495.5 Q96 493 98 485 Q100 483 99 481 Q98 479 98 477 Q96 469 94 461 Q92 453 90 445 Q76 405 64.5 364.5 Q53 324 45 282 Q41 263 38 245 Q35 227 32 208 Q32 204 33 206.5 Q34 209 35.5 214 Q37 219 39 224.5 Q41 230 42 233 Z M97 295 L97 296 Q96 296 96 295 Q95 295 95 294 Q90 286 86 277.5 Q82 269 77 260 Q63 232 51 203 Q39 174 31 142 Q32 134 33.5 126 Q35 118 45 118 Q50 119 53.5 122.5 Q57 126 59 130 Q76 160 85.5 195 Q95 230 97 266 Q97 268 98 280 Q99 292 97 295 Z " />
<glyph glyph-name="seven" unicode="7" horiz-adv-x="97" d="M71 463 Q69 463 67.5 462 Q66 461 64 461 Q56 459 49 455.5 Q42 452 34 450 Q27 450 18 447 Q15 447 10 447 Q5 447 3 452 Q1 456 3 461 Q5 468 12 470 Q22 477 30 478 Q39 483 48 486.5 Q57 490 65 494 Q76 499 86 495 Q96 491 103 481 Q115 466 107 444 Q104 427 99 410.5 Q94 394 89 377 Q84 362 79 346.5 Q74 331 69 317 Q77 314 77 314 Q79 312 77.5 308 Q76 304 75 303 Q73 303 70.5 302 Q68 301 63 300 Q59 288 56 275 Q53 262 51 256 Q46 237 42 221.5 Q38 206 34 191.5 Q30 177 25.5 161.5 Q21 146 16 127 Q14 119 14 113 Q12 107 10 101.5 Q8 96 4 95 Q-6 91 -10 98 Q-13 100 -13 105 Q-13 110 -12 115 Q-10 121 -9.5 126.5 Q-9 132 -8 138 Q-3 168 4 199 Q11 230 17 261 Q18 267 19.5 272.5 Q21 278 22 284 Q23 288 23 290.5 Q23 293 24 296 Q19 296 16 296 Q13 296 8 295 Q3 295 -1 294 Q-5 293 -10 293 Q-13 293 -13 296 Q-13 305 -7 307 Q1 309 10 310.5 Q19 312 27 314 Q29 319 30 323 Q32 333 33 335 Q42 368 49 392.5 Q56 417 67 449 Q68 452 68.5 455.5 Q69 459 71 463 Z " />
<glyph glyph-name="eight" unicode="8" horiz-adv-x="155" d="M128 445 Q122 397 111.5 354.5 Q101 312 92 268 Q90 260 94 256 Q98 252 100 247 Q106 239 111 226 Q117 209 114.5 192 Q112 175 104 160 Q75 105 30 96 Q12 91 -5 96 Q-14 98 -21 105 Q-28 112 -29 126 Q-31 137 -29 149.5 Q-27 162 -24 176 Q-20 193 -13.5 210 Q-7 227 0 243 Q3 248 7 254 Q11 260 14 266 Q15 268 22 277.5 Q29 287 27 291 Q17 306 18 324 Q19 342 24 361 Q27 373 35.5 395.5 Q44 418 55.5 440.5 Q67 463 80 480.5 Q93 498 105 500 Q115 501 120 495.5 Q125 490 127 481 Q129 472 129 462 Q129 452 128 445 Z M49 265 Q47 263 47 262 Q47 261 46 260 Q37 240 29 220 Q21 200 15 177 Q7 153 7 130 Q7 121 9.5 118 Q12 115 19 116 Q59 127 78 173 Q85 186 84.5 197.5 Q84 209 80 221 Q78 222 78 223 Q78 224 76 222 Q72 221 64 221 Q59 218 61 226 Q61 229 61 233 Q61 237 62 241 Q64 248 61 252 Q58 256 55 258.5 Q52 261 49 265 Z M103 473 Q85 456 73.5 432 Q62 408 53 383 Q46 363 45 344 Q42 318 48.5 307 Q55 296 72 283 L72 285 Q79 323 86 359 Q93 395 100 431 Q104 452 103 473 Z " />
<glyph glyph-name="nine" unicode="9" horiz-adv-x="150" d="M99 325 Q97 320 95.5 314 Q94 308 92 302 Q88 289 83.5 277 Q79 265 72 255 Q55 229 32 232 Q29 232 20 236 Q11 240 5 252 Q-3 266 -6 283.5 Q-9 301 -9 319 Q-9 339 -6.5 358.5 Q-4 378 0 398 Q4 416 9.5 434 Q15 452 23 467 Q27 474 31 479 Q38 490 48 495 Q58 500 68 498 Q78 496 86 487.5 Q94 479 97 464 Q97 462 97.5 462 Q98 462 98 461 Q99 452 97.5 450.5 Q96 449 91 447 Q85 447 81 450 Q77 453 75 462 L75 464 Q70 473 67 473 Q64 473 59 465 Q53 457 49 447.5 Q45 438 43 427 Q26 373 26 319 Q24 306 25.5 293.5 Q27 281 29 270 Q31 262 33.5 260.5 Q36 259 42 264 Q55 277 65 302 Q74 325 80 349 Q86 373 92 399 Q94 413 97 426.5 Q100 440 103 453 Q104 455 104.5 458 Q105 461 106 462 Q110 466 116 463.5 Q122 461 125 459 Q131 456 133.5 447 Q136 438 137 427 Q137 403 136 379.5 Q135 356 132 333 Q128 295 122 258 Q116 221 105 184 Q97 152 81.5 126 Q66 100 44 95 Q32 91 19.5 93.5 Q7 96 -2 107 Q-5 109 -8 113.5 Q-11 118 -10 124 Q-10 130 -6.5 134 Q-3 138 1 138 Q6 135 6 127 Q6 120 11.5 118 Q17 116 21 116 Q26 116 30 119 Q34 122 39 125 Q48 133 55 145.5 Q62 158 67 172 Q78 196 83.5 222 Q89 248 93 276 Q96 288 97 300.5 Q98 313 99 324 L99 325 Z " />
<glyph glyph-name="asciitilde" unicode="&#x7e;" horiz-adv-x="205" d="M167 235 Q168 233 167.5 231 Q167 229 167 227 Q162 213 158.5 201 Q155 189 150 175 Q142 152 121 152 L114 152 L113 152 Q105 154 100 158 Q92 164 87 177 Q78 194 73 209 Q72 212 69.5 218 Q67 224 63 223 Q60 222 59 219 Q58 216 56 214 Q54 211 52.5 207.5 Q51 204 50 200 Q47 193 44.5 186 Q42 179 40 171 Q39 170 39 169.5 Q39 169 38 168 Q37 166 33 166 Q27 166 27 171 Q27 180 30 190 Q33 200 37 209.5 Q41 219 45.5 226.5 Q50 234 53 238 Q68 253 81 238 Q88 231 91.5 221.5 Q95 212 99 204 Q101 199 103.5 193.5 Q106 188 109 183 Q111 179 112 178 Q114 173 117 171 Q119 170 121 170 Q123 170 126 176 L126 178 L127 179 Q130 189 135.5 206 Q141 223 146 238 Q148 243 156.5 241 Q165 239 167 235 Z " />
<glyph glyph-name="grave" unicode="&#x60;" horiz-adv-x="100" d="M102 693 Q101 688 96.5 687.5 Q92 687 89 690 Q86 692 84.5 696 Q83 700 81 704 Q79 712 76 718.5 Q73 725 71 733 Q70 736 68.5 741.5 Q67 747 70 749 Q76 753 81 744 Q86 735 88 731 Q91 723 94 715.5 Q97 708 100 700 Q102 696 102 693 Z " />
<glyph glyph-name="exclam" unicode="&#x21;" horiz-adv-x="143" d="M92 739 Q94 731 94 726 Q96 708 95 690 Q94 672 95 655 Q94 637 94 619 Q94 601 93 582 Q93 566 92.5 550 Q92 534 92 518 Q91 495 90.5 471.5 Q90 448 90 425 Q89 394 88.5 364.5 Q88 335 87 305 Q86 288 84.5 272 Q83 256 83 239 Q82 227 82 214.5 Q82 202 81 190 Q80 175 80 159 Q80 143 78 128 Q78 123 76.5 122.5 Q75 122 72 122 L69 122 Q64 123 64 128 L64 154 Q62 177 62.5 200.5 Q63 224 61 248 Q61 275 60.5 302 Q60 329 62 355 Q61 373 62 391 Q63 409 64 426 Q64 450 65.5 474 Q67 498 68 521 Q68 539 68.5 556.5 Q69 574 70 591 Q71 629 72 665.5 Q73 702 75 739 Q77 747 79 748 Q82 752 86.5 748 Q91 744 92 739 Z M78 54 Q78 54 79 53 L79 45 Q81 39 80 33 Q79 27 81 21 Q81 18 81 11.5 Q81 5 79 2 Q77 0 72.5 2.5 Q68 5 67 10 Q67 21 65.5 34 Q64 47 64 58 Q65 66 71 63.5 Q77 61 78 54 Z " />
<glyph glyph-name="question" unicode="&#x3f;" horiz-adv-x="277" d="M282 662 Q284 644 282.5 626 Q281 608 278 591 Q274 572 269 554 Q264 536 259 518 Q254 502 249 487 Q244 472 239 457 Q230 431 221.5 405.5 Q213 380 205 354 Q198 333 192 312 Q186 291 179 270 Q176 259 172.5 249 Q169 239 165 228 Q161 214 157.5 199.5 Q154 185 149 171 Q146 157 142.5 145 Q139 133 135 119 Q133 114 131.5 112.5 Q130 111 124 112 Q119 112 118 112.5 Q117 113 118 118 Q120 130 122 139 Q125 156 129 173 Q133 190 137 207 Q140 224 143 241 Q146 258 151 275 Q156 295 161.5 315 Q167 335 172 355 Q178 375 184 394.5 Q190 414 197 434 Q201 447 205 459.5 Q209 472 214 484 Q219 498 222.5 511 Q226 524 231 538 Q234 549 236.5 559.5 Q239 570 241 581 Q245 595 246 608.5 Q247 622 248 636 Q250 662 244 683 Q236 715 207 726 Q196 729 187 728 Q178 727 169 723 Q149 714 134 699 Q119 684 107 664 Q99 650 92.5 633.5 Q86 617 83 600 Q82 595 82 590 Q82 585 81 580 Q81 578 77 577 Q73 576 71 576 Q65 576 63 586 Q62 599 63 611 Q65 628 68.5 643 Q72 658 79 671 Q85 684 93 694.5 Q101 705 109 714 Q120 724 130.5 731 Q141 738 154 742 Q175 750 202 747 Q210 746 217 745 Q224 744 231 740 Q244 733 254.5 723.5 Q265 714 272 700 Q277 691 279 682 Q281 673 282 662 Z M113 57 Q115 59 118 57.5 Q121 56 123 54 Q125 49 124.5 45.5 Q124 42 124 37 Q124 32 123 25.5 Q122 19 121 13 Q120 9 118.5 5.5 Q117 2 113 1 Q105 -1 105.5 8 Q106 17 106 23 Q107 28 107 32.5 Q107 37 107 42 Q108 45 109 50 Q110 55 113 57 Z " />
<glyph glyph-name="dollar" unicode="&#x24;" horiz-adv-x="240" d="M98 -9 Q95 -9 94.5 -9 Q94 -9 91 -8 Q89 -8 87.5 -5 Q86 -2 86 0 Q85 14 85 20 Q85 26 86 31 Q86 39 86.5 45.5 Q87 52 87 60 Q88 67 88 73.5 Q88 80 88 87 Q89 94 89.5 101.5 Q90 109 90 115 L86 115 Q84 115 83 115.5 Q82 116 80 116 Q76 117 72 117.5 Q68 118 64 120 Q50 126 43 141 Q35 157 36 173 Q37 189 44 203 Q49 215 60 228 Q71 241 86 243 Q88 243 92.5 243 Q97 243 99 242 L99 244 Q99 245 99.5 246 Q100 247 100 248 Q101 253 101 258.5 Q101 264 102 269 L97 272 Q87 277 76.5 282 Q66 287 56 293 Q42 302 32 313.5 Q22 325 19 340 Q14 359 17 379 Q20 402 32 418 Q44 434 62 447 Q83 465 112 471 Q120 473 123 473 Q126 473 128 476 Q131 493 134.5 510 Q138 527 144 544 Q146 553 151 556 Q155 558 160 557.5 Q165 557 167 552 Q167 553 165 551.5 Q163 550 163 549 Q161 548 161.5 547 Q162 546 161 544 Q158 533 155.5 521.5 Q153 510 151 499 Q150 493 149.5 486.5 Q149 480 148 474 Q153 473 157 472 Q167 470 167 470 Q190 462 201 445 Q203 440 205 434 Q209 425 209 413 Q210 393 204.5 374 Q199 355 190 337 Q188 334 187 330.5 Q186 327 182 325 Q180 324 174 323.5 Q168 323 167 325 Q165 328 166.5 332 Q168 336 169 339 Q172 347 175.5 355.5 Q179 364 181 372 Q183 380 184.5 388 Q186 396 188 404 Q189 414 188 425 Q187 436 180 445 Q174 452 163 456 Q161 457 160 457 Q159 457 157 458 Q156 458 151 459 Q146 460 147 459 Q145 445 143.5 432 Q142 419 140 405 Q138 391 136 376 Q134 361 132 347 Q130 330 128.5 312.5 Q127 295 124 278 Q125 277 127 276 Q129 275 132 275 Q143 269 154 263.5 Q165 258 176 251 Q188 243 195.5 231 Q203 219 202 205 Q202 191 196 178.5 Q190 166 181 155 Q171 143 157.5 134 Q144 125 129 120 Q126 120 120 118 Q116 118 110 116 Q109 113 109 110 Q109 108 108.5 105.5 Q108 103 108 102 Q107 85 106.5 75 Q106 65 104 49 L104 28 Q103 24 103 12 Q103 0 102 -4 Q102 -6 100 -8 Q99 -9 98 -9 Z M123 454 L123 455 Q122 455 120.5 454 Q119 453 117 452 Q96 443 79 426 Q69 417 61.5 407 Q54 397 49 384 Q44 372 43.5 359.5 Q43 347 49 333 Q52 325 56.5 318 Q61 311 69 305 L90 293 Q98 290 103 286 Q107 329 111 370.5 Q115 412 123 454 Z M112 140 Q114 142 116 143 Q118 144 120 146 Q128 151 133 155 Q138 159 143 164 Q152 174 158 182.5 Q164 191 167 204 Q169 211 166.5 219 Q164 227 160 232 Q158 235 154.5 238 Q151 241 148 244 Q135 254 123 259 Q121 230 118 199.5 Q115 169 112 140 Z M62 161 Q64 150 69.5 142 Q75 134 85 133 Q87 132 88 132.5 Q89 133 90 133 Q91 133 92 134 Q92 145 93 157 Q94 169 95 180 Q96 193 97 205 Q98 217 99 229 Q99 235 94 232 Q89 229 87 227 Q65 208 62 179 Q63 177 62.5 171.5 Q62 166 62 161 Z " />
<glyph glyph-name="at" unicode="&#x40;" horiz-adv-x="300" d="M158 186 Q155 176 151 170 Q146 159 138.5 151 Q131 143 118 141 Q110 140 101 141 Q92 142 86 148 Q81 153 78.5 159.5 Q76 166 74 172 Q71 187 71 201 Q71 215 73 229 Q75 242 78.5 254 Q82 266 87 277 Q93 289 103 298 Q113 307 127 305 Q139 304 148 297.5 Q157 291 162 280 Q163 279 163 278 Q163 277 164 275 Q162 280 166 287.5 Q170 295 175 297 Q178 299 183 297 Q195 294 195 284 Q196 278 194.5 272.5 Q193 267 192 260 Q190 245 188.5 230 Q187 215 187 199 Q187 191 187.5 183 Q188 175 192 167 Q193 162 197 164 Q205 166 210 171 Q215 176 220 181 Q227 190 231.5 200 Q236 210 239 221 Q246 246 246 275 Q246 305 236 332 Q228 355 212 371 Q193 389 165 395 Q143 399 120 389 Q92 375 76 352 Q59 331 50 306.5 Q41 282 36 256 Q33 238 31.5 219.5 Q30 201 32 183 Q33 169 34.5 154.5 Q36 140 40 126 Q49 88 75 60 Q96 37 126 42 Q163 48 185 79 Q193 90 199 102 Q205 114 211 126 Q213 129 214.5 132.5 Q216 136 220 137 Q228 139 229.5 132.5 Q231 126 229 121 Q223 101 213.5 81.5 Q204 62 188 48 Q172 34 149.5 30 Q127 26 107 28 Q75 31 53 51.5 Q31 72 17 99 Q9 116 5 133.5 Q1 151 -1 169 Q-4 206 0 237 Q2 256 6 273.5 Q10 291 17 308 Q29 337 48 361 Q72 389 105 401 Q136 410 167 406 Q179 404 191 400 Q203 396 214 388 Q238 371 254 344 Q269 317 271 284 Q273 256 267 234 Q264 222 260 209.5 Q256 197 249.5 185.5 Q243 174 234 165 Q225 156 212 152 Q204 149 192 149 Q180 149 172 154 Q164 159 162 168.5 Q160 178 158 186 Z M161 255 L159 255 Q152 256 150 262 Q148 270 146 275 Q143 283 135 290 Q130 293 127 290 Q120 283 116 275 Q112 267 109 258 Q104 246 102.5 234 Q101 222 100 209 Q100 198 101 188 Q102 178 106 167 Q107 162 110 155 Q112 157 113.5 158 Q115 159 117 160 Q122 165 126 170 Q130 175 134 181 Q141 194 146 207.5 Q151 221 156 235 Q160 246 161 255 Z " />
<glyph glyph-name="numbersign" unicode="&#x23;" horiz-adv-x="215" d="M214 244 Q216 244 220.5 242 Q225 240 222 237 Q221 236 218 236 Q204 233 189.5 232 Q175 231 160 229 L145 227 Q144 224 144 221 L144 214 Q144 212 143.5 210 Q143 208 143 203 Q142 200 142 193 Q145 194 152 194 Q162 196 168 196 Q179 196 184 194 Q186 193 186 191 Q184 189 181 188.5 Q178 188 176 187 Q172 186 164 186 Q160 185 156.5 185 Q153 185 149 184 L140 183 L140 173 Q138 162 137.5 152.5 Q137 143 136 132 L136 118 Q136 112 133 110 Q132 109 128 109 Q125 109 123 110 Q119 111 119 117 Q119 132 119.5 146 Q120 160 121 175 L121 180 Q111 178 107 177 L91 176 Q90 166 90 157 Q89 149 89 142 Q89 135 89 130 Q89 127 89 122 Q89 117 84 117 L78 117 Q72 117 72 122 Q70 135 71 147 Q72 159 71 172 Q67 171 63 170.5 Q59 170 55 169 L28 166 L17 166 Q15 166 15 168 Q13 173 18 175 Q23 176 27.5 177 Q32 178 37 179 Q44 180 50 181 Q56 182 63 183 L67 183 Q69 183 71 184 L72 193 Q72 198 72.5 202 Q73 206 73 210 L73 218 Q61 217 50 216 Q41 215 33 214 Q25 213 22 214 Q15 214 17 220 Q19 223 22 225 Q28 227 34 227.5 Q40 228 46 230 Q50 231 53.5 231 Q57 231 61 232 L73 233 L74 243 Q74 251 74 259.5 Q74 268 75 277 Q76 283 78 294 Q80 305 91 305 Q101 304 101.5 293.5 Q102 283 101 275 Q101 266 99.5 251 Q98 236 98 235 Q100 235 104.5 235.5 Q109 236 114 237 Q119 238 125 238 L127 257 Q129 267 130 276 Q131 285 133 296 Q133 303 138 308 Q140 311 145 310.5 Q150 310 152 306 Q154 302 153.5 296.5 Q153 291 152 286 Q151 272 150 261 Q149 250 148 240 Q161 242 174 242.5 Q187 243 200 245 Q209 245 214 244 Z M123 213 Q124 216 124 225 Q119 224 114.5 223.5 Q110 223 105 222 L95 221 Q94 213 94 206 Q93 200 93 194.5 Q93 189 93 186 Q100 188 106 188.5 Q112 189 118 190 L122 191 L122 200 Q122 204 122.5 207.5 Q123 211 123 213 Z " />
<glyph glyph-name="percent" unicode="&#x25;" horiz-adv-x="220" d="M234 509 Q236 504 234 498 Q233 494 229 486 Q206 441 180 397 Q140 330 106 261 Q72 192 46 118 Q41 103 35.5 87.5 Q30 72 27 56 Q72 91 93 145 Q96 152 99 159 Q102 166 107 172 Q113 180 124.5 183 Q136 186 144 175 Q142 177 144 179.5 Q146 182 148 183 Q154 183 157 180 Q167 172 171 159.5 Q175 147 173 135 Q166 109 141 99 Q116 91 93 103 Q82 89 70 76 Q58 63 44 50 Q39 45 32 40 Q25 35 17 36 Q10 36 6 40 Q3 44 3 48.5 Q3 53 4 58 Q9 96 20 131.5 Q31 167 44 202 Q73 281 113 348.5 Q153 416 196 487 Q199 492 202 497.5 Q205 503 207 506 Q203 505 193 503.5 Q183 502 171 500.5 Q159 499 147 497.5 Q135 496 127 496 Q129 496 132.5 485.5 Q136 475 137 472 Q142 456 134 441 Q124 419 101 414 Q75 409 63.5 426 Q52 443 57 466 Q59 473 65.5 487.5 Q72 502 81.5 514.5 Q91 527 101.5 532.5 Q112 538 123 528 Q125 525 123 523 Q121 521 120 519.5 Q119 518 117 516 Q111 511 108.5 508.5 Q106 506 103 502 Q90 481 86 456 Q86 454 85 449 Q84 444 84 439 Q84 434 86 431 Q88 428 93 430 Q115 439 118 461 Q119 472 112 486 Q111 490 108 494 Q106 499 108 503 Q110 507 115 507 Q137 509 157.5 511.5 Q178 514 200 518 Q208 520 219 518.5 Q230 517 234 509 Z M145 173 Q136 160 129.5 146 Q123 132 125 115 L126 115 Q126 115 127 116 Q143 124 150 137 Q161 156 145 173 Z " />
<glyph glyph-name="equal" unicode="&#x3d;" horiz-adv-x="217" d="M182 223 Q181 222 181 221 Q180 219 180 219 Q177 217 171.5 217 Q166 217 154 216 Q121 213 102 212.5 Q83 212 62 213 Q57 213 49 212.5 Q41 212 36 215 Q31 219 35 225 Q39 230 47 230 Q65 231 82.5 231 Q100 231 118 232 Q126 232 135 232 Q144 232 153 233 Q160 233 167.5 233 Q175 233 180 228 Q183 225 182 223 Z M182 183 Q181 182 181 181 Q180 179 180 179 Q177 177 171.5 177 Q166 177 154 176 Q121 173 102 172.5 Q83 172 62 173 Q57 173 49 172.5 Q41 172 36 175 Q31 178 35 185 Q39 190 47 190 Q65 191 82.5 191 Q100 191 118 192 Q126 192 135 192 Q144 192 153 193 Q160 193 167.5 193 Q175 193 180 188 Q183 185 182 183 Z " />
<glyph glyph-name="plus" unicode="&#x2b;" horiz-adv-x="217" d="M191 215 Q194 212 193 210 Q193 207 189 205 Q185 203 179.5 203 Q174 203 161 201 Q148 200 138 199.5 Q128 199 120 199 Q119 188 118.5 178 Q118 168 117 157 Q116 151 116 142 Q116 133 112 128 Q108 124 101 127 Q94 131 96 140 Q96 155 96.5 169.5 Q97 184 98 198 L56 198 Q50 198 41 197.5 Q32 197 27 201 Q21 205 27 211 Q31 218 41 218 Q55 218 69.5 218.5 Q84 219 99 219 L99 220 Q100 230 100 239.5 Q100 249 101 260 Q102 268 102 276 Q102 284 108 291 Q111 294 113 293 Q116 293 118 290 Q120 286 120 280.5 Q120 275 120 262 L120 220 Q130 220 140 220 Q150 220 160 221 Q168 221 176 221 Q184 221 191 215 Z " />
<glyph glyph-name="hyphen" unicode="&#x2d;" horiz-adv-x="197" d="M157 210 Q157 207 156 206 Q152 203 135 202 Q108 200 92.5 199.5 Q77 199 60 199 Q56 199 50 198.5 Q44 198 39 202 Q36 205 38 211 Q42 217 48 217 Q62 217 76.5 217.5 Q91 218 105 218 Q113 219 119.5 219 Q126 219 134 219 Q139 219 145 219.5 Q151 220 156 215 Q158 213 157 210 Z " />
<glyph glyph-name="asciicircum" unicode="&#x5e;" horiz-adv-x="154" d="M143 628 Q143 634 144 648 Q145 662 146 677 Q147 692 147.5 705 Q148 718 148 722 Q142 713 138 704.5 Q134 696 129 687 Q122 675 115.5 662 Q109 649 101 635 Q95 623 89.5 618.5 Q84 614 81 614 Q76 614 76.5 621 Q77 628 81 637 Q84 644 90 657.5 Q96 671 103 686 Q110 701 116 714.5 Q122 728 124 733 Q132 750 145.5 750 Q159 750 164 739 Q167 732 167 719.5 Q167 707 166.5 693 Q166 679 164.5 665 Q163 651 162 641 Q160 633 152 627.5 Q144 622 143 628 Z " />
<glyph glyph-name="underscore" unicode="&#x5f;" horiz-adv-x="274" d="M237 133 Q237 129 234 128 Q229 126 221 126 Q213 126 195 125 Q170 123 151 122.5 Q132 122 116.5 121.5 Q101 121 86.5 121.5 Q72 122 56 122 Q48 122 36.5 121.5 Q25 121 17 124 Q10 128 16 134 Q18 137 23.5 138 Q29 139 34 139 Q60 140 87 140 Q114 140 140 141 Q154 141 166.5 141 Q179 141 193 142 Q203 142 214.5 142 Q226 142 234 137 Q239 135 237 133 Z " />
<glyph glyph-name="ampersand" unicode="&#x26;" horiz-adv-x="214" d="M97 362 Q94 364 93 362.5 Q92 361 91.5 357.5 Q91 354 91 350 Q91 346 91 345 Q94 332 99 319.5 Q104 307 109 295 Q114 284 117.5 273 Q121 262 123 248 Q123 240 116 240 Q109 238 99 236 Q92 232 85 226 Q78 220 73 212 Q62 195 58 174 Q54 153 59 132 Q61 118 66 105 Q71 92 79 80 Q98 49 128 40 Q143 36 149 51 Q160 82 151 117 Q146 138 131 152 Q126 158 127 163 Q128 168 129 168 Q135 169 142 166 Q149 163 152 158 Q160 146 165.5 134.5 Q171 123 175 109 Q177 100 178.5 88.5 Q180 77 178.5 66 Q177 55 173 45 Q169 35 161 29 Q159 -4 159 -36.5 Q159 -69 159 -101 Q159 -136 159 -170 Q159 -204 157 -239 L157 -247 Q156 -249 153.5 -251 Q151 -253 149 -253 Q139 -255 137 -244 Q134 -213 133.5 -181.5 Q133 -150 133 -118 L133 9 L133 18 Q122 17 111.5 18.5 Q101 20 92 25 Q82 29 71.5 34.5 Q61 40 54 48 Q42 65 29 85 Q19 111 18 139.5 Q17 168 29 194 Q38 213 53 230 Q68 247 85 255 Q85 256 84.5 256.5 Q84 257 84 259 Q78 271 73 286 Q67 298 64.5 310 Q62 322 61 333 Q60 341 60.5 347.5 Q61 354 62 362 Q70 380 88 383.5 Q106 387 120 377 Q125 374 128.5 370.5 Q132 367 136 365 Q137 390 137.5 417 Q138 444 139 466.5 Q140 489 140.5 506 Q141 523 141 529 Q142 538 143.5 556 Q145 574 146.5 595.5 Q148 617 150 640.5 Q152 664 153.5 684 Q155 704 156.5 718 Q158 732 159 736 Q161 744 167.5 747 Q174 750 179 746 Q185 741 185.5 736 Q186 731 186 725 Q186 720 185.5 703 Q185 686 184 665 Q183 644 182.5 623.5 Q182 603 181 591 Q178 558 176 525 Q174 492 172 460 Q172 452 171 433 Q170 414 168.5 388.5 Q167 363 166 334 Q165 305 164 277 L164 275 Q164 273 162 273 Q161 271 159 270 Q157 269 150 269 L139 269 Q134 269 134 275 Q134 304 121 330 Q117 339 111 347.5 Q105 356 97 362 Z " />
<glyph glyph-name="asterisk" unicode="&#x2a;" horiz-adv-x="224" d="M122 230 Q132 240 143 250 Q154 260 160 261 Q162 261 166.5 259 Q171 257 170 253 Q170 250 165 245.5 Q160 241 156 238 Q149 232 145 228 Q141 224 134 217 Q133 216 132 215.5 Q131 215 129 213 Q127 211 126 209 Q132 209 136 210 Q146 212 149 212 Q161 214 172.5 215 Q184 216 195 208 Q198 206 194 204 Q177 202 161 200 Q145 198 128 196 Q127 196 126 195 Q134 188 140.5 180.5 Q147 173 154 165 Q156 163 157 161.5 Q158 160 160 158 Q162 156 160 153 Q158 150 155 150 Q152 150 148 154 L124 178 Q123 178 117 184 Q116 173 115.5 162.5 Q115 152 114 141 Q114 133 113 129 Q113 126 110 126 Q102 124 98 128 Q97 129 97 133 Q96 138 95.5 144 Q95 150 95 155 L95 178 Q88 170 84.5 165.5 Q81 161 73 150 Q70 145 67.5 142 Q65 139 62 137 Q58 135 54.5 137.5 Q51 140 52 144 Q52 147 52.5 149 Q53 151 54 153 Q57 159 60 163 Q63 167 67 172 Q69 175 72 179 Q75 183 78 188 Q76 187 73.5 187 Q71 187 69 186 Q62 184 55 183.5 Q48 183 41 181 Q24 178 24 184 Q22 191 30 193 Q38 195 43.5 196.5 Q49 198 57 200 Q66 202 74.5 203.5 Q83 205 90 207 Q86 210 82.5 213.5 Q79 217 76 220 Q69 226 64.5 230 Q60 234 52 241 Q50 243 48 246.5 Q46 250 49 254 Q54 259 61.5 253.5 Q69 248 75 243 Q80 239 84.5 235 Q89 231 94 226 Q95 232 95 237 Q95 242 96 244 Q97 253 97 256.5 Q97 260 99 268 Q101 279 110 278.5 Q119 278 122 268 Q124 264 124 260 Q124 256 124 252 Q122 242 122 230 Z " />
<glyph glyph-name="semicolon" unicode="&#x3b;" horiz-adv-x="90" d="M40 184 Q43 185 47 183 Q51 181 53 179 Q58 175 56 166 Q55 161 54 157 Q53 153 52 148 L46 118 Q44 114 42.5 107 Q41 100 34 102 Q30 103 30 107.5 Q30 112 30 115 Q30 127 31 139 Q32 151 34 164 Q35 166 35.5 174.5 Q36 183 40 184 Z M55 234 Q55 229 45 231 Q41 232 35 234 L36 256 Q37 259 40 262 Q42 264 45.5 264.5 Q49 265 56 262 Q58 261 57 256 Q56 251 55 234 Z " />
<glyph glyph-name="colon" unicode="&#x3a;" horiz-adv-x="110" d="M59 234 Q58 229 48 231 Q44 232 38 234 L39 256 Q40 259 43 262 Q45 264 48.5 264.5 Q52 265 59 262 Q61 261 60.5 256 Q60 251 59 234 Z M60 154 Q59 149 49 151 Q45 152 39 154 L40 176 Q41 180 44 182 Q49 186 60 182 Q62 181 61.5 175.5 Q61 170 60 154 Z " />
<glyph glyph-name="bar" unicode="&#x7c;" horiz-adv-x="155" d="M107 732 Q107 728 106.5 713 Q106 698 105.5 680 Q105 662 104.5 644 Q104 626 103 616 Q101 588 99.5 560.5 Q98 533 96 504 Q96 497 95 477.5 Q94 458 93.5 432.5 Q93 407 91.5 378 Q90 349 89.5 323.5 Q89 298 88 278 Q87 258 87 251 Q86 221 86 191 Q86 161 85 132 L85 14 Q85 9 84 7 Q83 3 78 1 Q70 -1 68 9 Q66 36 66 63.5 Q66 91 65 117 L65 226 L65 232 L65 330 Q65 337 65.5 355.5 Q66 374 66.5 398 Q67 422 68 448.5 Q69 475 70 499 Q71 523 71.5 540.5 Q72 558 72 565 Q73 576 75 603.5 Q77 631 79 660 Q81 689 82.5 713 Q84 737 86 742 Q88 747 92.5 750.5 Q97 754 103 749 Q107 747 107 742 Q107 737 107 732 Z " />
<glyph glyph-name="quotesingle" unicode="&#x27;" horiz-adv-x="70" d="M62 676 Q63 692 63 702.5 Q63 713 65 725 Q65 727 65.5 729.5 Q66 732 68 734 L74 734 Q78 734 80 732 Q81 730 81 723.5 Q81 717 80.5 709.5 Q80 702 79.5 695 Q79 688 79 686 Q78 683 78 679 Q78 675 76 672 Q73 667 66 668 Q63 669 62.5 671.5 Q62 674 62 676 Z " />
<glyph glyph-name="quotedbl" unicode="&#x22;" horiz-adv-x="83" d="M93 673 Q94 689 94.5 699.5 Q95 710 97 722 Q97 724 97.5 726.5 Q98 729 100 731 L106 731 Q110 731 112 729 Q113 727 113 720.5 Q113 714 112.5 706.5 Q112 699 111 692 Q110 685 110 683 Q110 680 110 676 Q110 672 108 669 Q105 663 98 665 Q95 666 94 668.5 Q93 671 93 673 Z M69 677 Q67 690 69 704 Q69 711 69 717.5 Q69 724 71 730 Q71 734 78 734 Q84 732 86 728 L86 721 Q85 710 84.5 698 Q84 686 83 675 Q83 673 81 671 Q79 665 73 667 Q69 670 69 677 Z " />
<glyph glyph-name="comma" unicode="&#x2c;" horiz-adv-x="100" d="M31 144 Q34 144 38 142.5 Q42 141 44 139 Q49 134 47 125 Q46 120 45.5 116.5 Q45 113 44 108 Q42 100 40.5 93 Q39 86 37 78 Q36 73 34.5 66.5 Q33 60 26 61 Q22 62 21.5 66.5 Q21 71 21 74 Q21 86 22.5 98.5 Q24 111 26 123 Q26 126 27 134 Q28 142 31 144 Z " />
<glyph glyph-name="period" unicode="&#x2e;" horiz-adv-x="76" d="M41 113 Q40 108 30 110 Q26 111 20 113 L22 135 Q22 138 25 141 Q30 146 41 142 Q43 140 42.5 135 Q42 130 41 113 Z " />
<glyph glyph-name="slash" unicode="&#x2f;" horiz-adv-x="185" d="M-2 0 Q-5 0 -8 2.5 Q-11 5 -10 10 Q-4 37 4 64 Q12 91 21 119 Q29 146 37.5 173 Q46 200 55 228 Q55 230 56 231 Q57 232 57 234 Q65 259 72 283 Q79 307 88 332 Q90 339 96.5 357.5 Q103 376 111.5 399.5 Q120 423 129 450 Q138 477 146.5 500.5 Q155 524 161.5 541.5 Q168 559 171 565 Q175 576 185 603 Q195 630 206 659 Q217 688 226.5 711.5 Q236 735 239 739 Q242 746 247.5 748 Q253 750 257 745 Q261 740 259.5 735 Q258 730 256 725 Q255 721 250 707 Q245 693 239 675 Q233 657 226.5 639 Q220 621 217 611 Q206 583 196 555 Q186 527 175 500 Q172 492 165 472.5 Q158 453 149 427.5 Q140 402 129.5 373.5 Q119 345 110 319.5 Q101 294 94 274.5 Q87 255 84 247 Q74 217 64 188 Q54 159 45 129 Q35 100 26 70 Q17 40 6 11 Q6 9 5.5 7 Q5 5 5 4 Q2 0 -2 0 Z " />
<glyph glyph-name="backslash" unicode="&#x5c;" horiz-adv-x="300" d="M227 4 Q223 4 220 8 Q217 11 218 14 Q212 44 205 74 Q198 104 193 132 Q186 161 179 190.5 Q172 220 166 251 Q164 258 159 277.5 Q154 297 147.5 322.5 Q141 348 134 376 Q127 404 120.5 429.5 Q114 455 109 474.5 Q104 494 102 502 Q96 529 88.5 556.5 Q81 584 74 612 Q71 622 66.5 639.5 Q62 657 57.5 675 Q53 693 49.5 707 Q46 721 45 725 Q45 730 44.5 735 Q44 740 47 745 Q52 751 57 750 Q62 749 64 743 Q67 739 73.5 715.5 Q80 692 88 663.5 Q96 635 103.5 608.5 Q111 582 114 571 Q116 565 120.5 547 Q125 529 131 506 Q137 483 143.5 456.5 Q150 430 155.5 406 Q161 382 165.5 364 Q170 346 172 339 Q177 314 181.5 289.5 Q186 265 191 241 Q193 237 192 234 Q198 206 203.5 179 Q209 152 215 126 Q220 98 226 71 Q232 44 235 15 Q235 6 227 4 Z " />
<glyph glyph-name="less" unicode="&#x3c;" horiz-adv-x="203" d="M157 282 Q164 283 169 281.5 Q174 280 174 274 Q174 272 168 267 Q162 262 160 261 Q146 250 136 243.5 Q126 237 112 226 Q102 219 88.5 207.5 Q75 196 71 184 Q69 178 73.5 172.5 Q78 167 84.5 163.5 Q91 160 98 157 Q105 154 109 152 Q116 148 128.5 143 Q141 138 152 133 Q163 128 170 123 Q177 118 174 114 Q162 109 148 115.5 Q134 122 123 127 Q109 132 95 138 Q81 144 67 150 Q59 154 50 159 Q41 164 38 175 Q35 185 38.5 194.5 Q42 204 48.5 212.5 Q55 221 64 228.5 Q73 236 80 241 Q103 261 132 274 Q134 275 141.5 277.5 Q149 280 157 282 Z " />
<glyph glyph-name="greater" unicode="&#x3e;" horiz-adv-x="193" d="M33 283 Q38 286 48 282.5 Q58 279 63 276 Q77 270 91 263.5 Q105 257 119 250 Q129 245 139 238 Q149 231 154 221 Q159 213 158 205 Q155 194 148 187.5 Q141 181 131 173 Q114 160 105 152.5 Q96 145 83 134 Q76 128 68 121 Q60 114 54 111 Q48 109 38.5 112 Q29 115 28 123 Q27 131 34 137.5 Q41 144 46 149 Q63 168 80.5 186 Q98 204 115 223 Q119 227 113 229 Q105 233 95 238.5 Q85 244 75.5 249 Q66 254 58.5 257.5 Q51 261 48 263 Q38 266 33 274 Q29 280 33 283 Z " />
<glyph glyph-name="parenleft" unicode="&#x28;" horiz-adv-x="180" d="M144 12 Q136 3 127.5 9 Q119 15 110 29.5 Q101 44 92.5 64 Q84 84 77.5 103.5 Q71 123 66 139 Q61 155 60 160 Q48 212 45 265.5 Q42 319 45.5 372.5 Q49 426 58.5 478.5 Q68 531 83 579 Q91 604 101 628.5 Q111 653 124 675 Q131 686 136.5 696.5 Q142 707 150 718 Q156 725 165 736.5 Q174 748 183 748 Q186 748 188.5 747 Q191 746 192 741 Q194 733 186 725.5 Q178 718 174 714 Q166 703 159 690 Q152 677 146 664 Q132 637 123.5 608 Q115 579 107 550 Q76 434 78.5 310.5 Q81 187 119 70 Q120 67 124 58 Q128 49 133 39 Q138 29 141.5 21 Q145 13 144 12 Z " />
<glyph glyph-name="parenright" unicode="&#x29;" horiz-adv-x="155" d="M104 583 Q113 517 111 451 Q109 385 99 320 Q91 257 78.5 195.5 Q66 134 45 76 Q41 66 38 55.5 Q35 45 30 34 Q28 28 25 19.5 Q22 11 17 6 Q11 1 5.5 3.5 Q0 6 3 17 Q6 25 8 32.5 Q10 40 12 48 Q46 168 63.5 297 Q81 426 76 556 Q74 602 67.5 647.5 Q61 693 45 735 Q44 737 44 739 Q44 741 44 743 L44 746 Q44 747 45 748 Q47 748 48 748 Q49 748 51 746 Q65 724 75 699.5 Q85 675 93 646 Q96 630 99 615 Q102 600 104 583 Z " />
<glyph glyph-name="braceleft" unicode="&#x7b;" horiz-adv-x="190" d="M198 736 Q198 733 198 733 Q198 732 197 732 Q193 730 189 731.5 Q185 733 181.5 734.5 Q178 736 174.5 735.5 Q171 735 167 730 Q158 718 153.5 703.5 Q149 689 144 673 Q132 619 126.5 563.5 Q121 508 110 452 Q105 432 96 414 Q87 396 78 379 Q76 376 74.5 373.5 Q73 371 71 368 Q74 368 75.5 367.5 Q77 367 78 367 Q83 366 91 361.5 Q99 357 105 346 Q111 335 113.5 316 Q116 297 112 266 Q107 232 105.5 197.5 Q104 163 102 127 Q103 122 103 116.5 Q103 111 103 106 Q103 99 103.5 92.5 Q104 86 104 79 Q107 63 109.5 48.5 Q112 34 120 21 Q123 17 126.5 17 Q130 17 133.5 18.5 Q137 20 141.5 21 Q146 22 150 21 Q151 21 151 20 Q151 20 151 17 Q139 4 128 2.5 Q117 1 108 7 Q99 13 92.5 23.5 Q86 34 83 45 Q80 55 78.5 65 Q77 75 76 85 Q73 97 72 109 Q71 121 71 129 Q71 137 71 151.5 Q71 166 72 174 Q73 197 75.5 219 Q78 241 82 263 Q82 275 85 289 L85 290 Q90 323 80.5 337 Q71 351 62 356 Q56 356 52 359 Q46 360 46 368 Q46 378 48.5 385 Q51 392 56 400 Q65 414 71.5 431 Q78 448 80 465 Q83 485 85.5 504.5 Q88 524 91 544 Q97 586 104 628 Q111 670 126 708 Q132 719 140 729.5 Q148 740 158 746 Q168 752 178 750.5 Q188 749 198 736 Z " />
<glyph glyph-name="braceright" unicode="&#x7d;" horiz-adv-x="169" d="M21 736 Q31 749 41 750.5 Q51 752 59 746.5 Q67 741 73.5 730.5 Q80 720 83 709 Q95 671 97.5 629 Q100 587 102 545 Q103 525 103 506 Q103 487 104 467 Q106 448 109.5 431.5 Q113 415 121 401 Q125 393 126.5 386 Q128 379 126 369 Q126 361 120 360 Q117 357 111 357 Q102 352 91.5 338 Q81 324 83 291 L83 290 Q83 283 83.5 276.5 Q84 270 84 264 Q84 242 84.5 220 Q85 198 84 175 Q83 166 82.5 152 Q82 138 81 131 Q80 121 77.5 109.5 Q75 98 73 86 Q70 76 67.5 66 Q65 56 61 46 Q57 35 50 24.5 Q43 14 34.5 8.5 Q26 3 16.5 4.5 Q7 6 -2 19 Q-3 20 -3 21 L-2 22 Q2 23 5.5 22 Q9 21 12.5 19.5 Q16 18 19 18 Q22 18 25 22 Q33 34 37.5 49 Q42 64 45 80 Q46 87 46.5 94 Q47 101 48 107 Q49 113 49.5 118.5 Q50 124 50 129 Q53 164 54.5 198.5 Q56 233 55 268 Q54 298 58.5 317 Q63 336 69.5 347 Q76 358 83 362.5 Q90 367 95 368 Q97 368 98.5 368.5 Q100 369 102 369 Q99 375 99 380 Q91 397 84.5 415 Q78 433 76 454 Q71 509 71.5 564.5 Q72 620 65 674 Q63 690 60 704.5 Q57 719 50 732 Q47 736 43.5 736.5 Q40 737 36 735.5 Q32 734 28.5 732.5 Q25 731 21 733 L20 734 Q21 735 21 736 Z " />
<glyph glyph-name="bracketleft" unicode="&#x5b;" horiz-adv-x="163" d="M133 730 Q125 730 119.5 728.5 Q114 727 112 716 Q96 591 92 466 Q88 341 87 214 L87 90 Q87 88 87 79.5 Q87 71 87 61.5 Q87 52 87.5 43 Q88 34 88 30 Q89 22 94 20.5 Q99 19 105 19 Q111 19 116 18.5 Q121 18 121 12 Q121 3 118.5 2.5 Q116 2 111 1 Q93 -2 75 4 Q69 5 66.5 12 Q64 19 62.5 27.5 Q61 36 60.5 45.5 Q60 55 60 62 Q59 78 59 94 Q59 110 58 126 Q58 158 57.5 190.5 Q57 223 57 255 Q58 320 59.5 384 Q61 448 65 514 Q67 553 70.5 592 Q74 631 79 671 Q81 682 82 693.5 Q83 705 85 717 Q88 740 100 745.5 Q112 751 124 750 Q130 750 140 747.5 Q150 745 149 734 Q148 730 141.5 730 Q135 730 133 730 Z " />
<glyph glyph-name="bracketright" unicode="&#x5d;" horiz-adv-x="153" d="M21 -2 Q17 -2 13.5 -2 Q10 -2 5 -1 Q0 -1 0 10 Q0 15 3 14.5 Q6 14 8 13 Q12 13 16 13 Q20 13 23 14 Q37 15 51 24 Q61 28 60 45 L60 121 Q59 143 60 165 Q61 187 61 209 Q62 244 62 278.5 Q62 313 64 348 Q64 373 65 397.5 Q66 422 68 446 Q68 468 69 489.5 Q70 511 72 533 Q72 547 73 560.5 Q74 574 75 587 Q77 619 80 650.5 Q83 682 82 714 Q83 716 83 719.5 Q83 723 82.5 726.5 Q82 730 80 732 Q78 734 75 733 Q70 731 64.5 730 Q59 729 54 727 Q47 726 42 724 Q37 722 32 722 Q26 722 25 724 Q24 728 28 730 Q39 735 48 738 Q55 740 61 742.5 Q67 745 73 747 Q85 750 95 742.5 Q105 735 108 719 Q109 712 109.5 706.5 Q110 701 110 695 L110 674 Q108 644 106.5 613 Q105 582 103 551 Q103 525 101.5 500 Q100 475 99 449 L96 317 Q94 285 93.5 254 Q93 223 94 191 Q93 174 93 156.5 Q93 139 93 121 Q93 102 93 83.5 Q93 65 92 46 Q93 41 93 36.5 Q93 32 93 27 Q90 13 81 10 Q75 7 69 5 Q63 3 56 1 Q38 -2 21 -2 Z " />
<glyph glyph-name="d" unicode="d" horiz-adv-x="593" d="M475 273 Q493 272 510 266 Q527 260 540 249 Q553 238 559.5 222.5 Q566 207 565 187 Q563 160 544.5 137 Q526 114 498 109 Q488 107 474 111 Q460 115 458 127 Q477 115 497 117 Q507 118 516.5 124.5 Q526 131 532 139 Q540 149 545 161.5 Q550 174 551 187 Q552 200 548 212.5 Q544 225 534 236 Q517 253 492.5 257.5 Q468 262 446 259 Q422 256 396 241.5 Q370 227 342.5 206.5 Q315 186 287 161 Q259 136 232 112 L220 102 Q213 96 204 88 Q195 80 184.5 72 Q174 64 162.5 57 Q151 50 141 47 Q108 38 89 63 Q84 69 80.5 76 Q77 83 75 91 Q72 103 71 115.5 Q70 128 68 140 L68 141 Q68 140 64.5 136.5 Q61 133 60 132 Q56 129 53 126 Q50 123 46 120 Q36 115 24 112.5 Q12 110 1 114 Q-7 118 -11 125 Q-15 132 -17 140 Q-19 151 -18 161 Q-17 171 -16 181 Q-14 191 -12 200.5 Q-10 210 -7 219 Q-2 232 3.5 244 Q9 256 18 266 Q23 272 30 277.5 Q37 283 45 285 Q64 290 78 277 L78 280 Q88 334 102 388 Q107 408 112.5 427.5 Q118 447 123 467 Q128 485 133.5 503 Q139 521 146 538 Q153 558 160.5 577.5 Q168 597 176 616 Q189 647 206 680 Q213 697 224 714 Q228 720 232.5 727 Q237 734 243 737 Q250 741 258 737.5 Q266 734 268 727 Q272 718 270 706 Q265 667 253 624 Q249 607 245.5 593 Q242 579 238.5 565 Q235 551 230.5 536 Q226 521 220 503 Q209 468 199.5 442 Q190 416 180 387 Q169 354 156.5 322 Q144 290 130 258 Q123 241 115.5 225.5 Q108 210 100 194 Q99 191 99 188 Q99 185 98 183 Q97 167 97 151.5 Q97 136 99 121 Q101 107 102.5 91.5 Q104 76 115 65 Q118 61 126 59.5 Q134 58 144 63 Q160 72 176 85 Q192 98 207 110 Q230 130 253 149.5 Q276 169 299 188 Q316 201 337 217 Q358 233 381 245.5 Q404 258 428 266 Q452 274 475 273 Z M135 388 Q133 377 127 348.5 Q121 320 113 274 Q124 303 134 328 Q144 353 153.5 378 Q163 403 172 428.5 Q181 454 192 483 Q207 529 216 561 Q225 593 232 618.5 Q239 644 244.5 666.5 Q250 689 256 716 Q255 716 251 708 Q247 700 243 694 Q229 668 218.5 642 Q208 616 197 589 Q186 558 177.5 533.5 Q169 509 162.5 486.5 Q156 464 149.5 441 Q143 418 135 388 Z M68 197 Q70 210 71 222 Q72 234 73 247 Q73 251 70 256 Q68 258 67.5 259.5 Q67 261 65 263 Q64 264 63 265.5 Q62 267 60 269 Q58 274 53 270 Q41 260 33 243 Q10 196 11 150 Q11 140 16 130 L22 133 Q26 137 30 140 Q34 143 37 148 Q46 158 53 169.5 Q60 181 67 192 Q68 194 68 197 Z " />
<glyph glyph-name="b" unicode="b" horiz-adv-x="485" d="M383 253 Q420 245 443 218.5 Q466 192 456 153 Q449 126 427 107 Q405 88 376 88 Q366 88 353 94 Q340 100 340 113 Q357 97 376 96 Q386 94 396.5 99 Q407 104 415 111 Q435 128 442.5 155 Q450 182 435 206 Q422 226 398.5 235 Q375 244 352 245 Q317 247 282 240.5 Q247 234 213 222 Q179 210 146.5 194 Q114 178 84 160 Q85 159 85 158 Q85 157 86 156 Q91 148 92.5 140 Q94 132 96 124 Q99 100 95 79 Q92 65 85 49.5 Q78 34 61 26 Q53 22 44 20.5 Q35 19 27 18 Q12 17 5.5 29 Q-1 41 -4 52 Q-7 63 -8 74 Q-9 85 -10 96 L-10 131 Q-9 146 -8.5 161.5 Q-8 177 -6 192 Q-4 206 -2.5 220 Q-1 234 1 248 Q7 289 16 328 Q26 374 40 421 Q47 447 55 473 Q63 499 73 525 Q88 570 110 614 Q120 634 131.5 652.5 Q143 671 157 689 Q161 694 166 698.5 Q171 703 176 708 Q187 719 201 720.5 Q215 722 223 711 Q228 701 228 690 Q229 662 220 629 Q211 592 198 556 Q185 520 168 484 Q136 415 99 346 Q85 323 71 299 Q57 275 42 252 Q40 250 40 246.5 Q40 243 40 241 Q38 226 37 211 Q36 196 35 181 L35 180 Q40 182 44 182.5 Q48 183 52 183 Q57 183 62 180.5 Q67 178 70 176 Q83 179 103 188.5 Q123 198 145.5 208.5 Q168 219 190 229 Q212 239 229 244 Q267 255 306 258.5 Q345 262 383 253 Z M46 290 Q48 292 48 293 Q56 307 63.5 322 Q71 337 79 352 L124 439 Q130 452 135.5 464 Q141 476 146 488 Q155 508 162.5 527 Q170 546 178 566 Q186 586 192 606.5 Q198 627 203 647 Q205 658 207 669 Q209 680 207 690 Q207 701 203 706 Q200 708 198 706 Q192 700 186.5 693.5 Q181 687 176 680 Q158 654 144 627.5 Q130 601 119 573 Q111 551 104 529.5 Q97 508 90 486 Q82 460 75 433.5 Q68 407 63 381 L48 303 Q47 299 47 291 L46 290 Z M69 78 Q72 89 72.5 99 Q73 109 72 119 Q70 141 60 157 Q58 160 56 162 Q54 164 49 163 Q43 163 41 164 Q40 164 34 166 L34 163 Q33 143 33.5 123 Q34 103 36 83 Q37 74 38.5 64.5 Q40 55 43 47 Q44 45 44.5 43 Q45 41 47 39 Q49 42 53 46 Q64 60 69 78 Z " />
<glyph glyph-name="c" unicode="c" horiz-adv-x="487" d="M367 288 Q387 286 406 277 Q425 268 438 251 Q460 222 452.5 188 Q445 154 416 134 Q409 129 401.5 126 Q394 123 386 122 Q369 120 355 131 Q349 137 350 142 Q361 137 372 134.5 Q383 132 394 134 Q405 137 414 145 Q423 153 429 164 Q446 190 441.5 218.5 Q437 247 410 264 Q393 273 374.5 275 Q356 277 338 275 Q315 273 293.5 267.5 Q272 262 252 254 Q197 230 149 190 Q138 181 127 171.5 Q116 162 105 153 Q95 145 84.5 137.5 Q74 130 62 127 Q44 122 27.5 128.5 Q11 135 3 152 Q-5 166 -6 181.5 Q-7 197 -5 212 Q-3 235 5.5 257 Q14 279 30 296 Q45 312 63 318 Q73 320 83 318 Q93 316 100 308 Q106 300 106 289 Q106 278 98 272 Q92 266 88 271 Q87 273 87 276 Q87 279 87.5 282 Q88 285 88 288 Q86 297 80 297 Q76 297 74 294.5 Q72 292 70 290 Q53 267 43.5 239.5 Q34 212 32 183 Q32 174 32.5 165 Q33 156 38 148 Q41 142 47 140 Q53 138 59 140 Q69 143 76.5 149 Q84 155 91 161 Q137 199 185 233 Q233 267 292 282 Q309 286 328.5 288 Q348 290 367 288 Z " />
<glyph glyph-name="a" unicode="a" horiz-adv-x="530" d="M510 212 Q511 190 500 167 Q486 137 456 126 Q445 123 432 125 Q418 129 413 137 Q423 134 433.5 132.5 Q444 131 455 134 Q469 138 479 152 Q493 171 496.5 195.5 Q500 220 487 240 Q471 266 444 270.5 Q417 275 391 269 Q368 264 345.5 254.5 Q323 245 303 233 Q265 210 235 181 Q205 152 174 120 Q168 114 161 106.5 Q154 99 145.5 93 Q137 87 128 83.5 Q119 80 109 82 Q92 85 86 101 Q80 113 79.5 126.5 Q79 140 79 153 L79 156 L76 153 Q67 144 58 140 Q43 136 26 139 Q15 141 9.5 148.5 Q4 156 -1 165 Q-8 185 -5 208 Q-4 231 6 257 Q14 279 31 295 Q39 303 50.5 304.5 Q62 306 73 301 Q81 297 90 286.5 Q99 276 93 265 Q91 261 87 261 Q83 261 79 261 Q79 261 78 262 Q76 263 75.5 267.5 Q75 272 74 274 Q73 278 71 282.5 Q69 287 66 289 Q62 291 60 289.5 Q58 288 56 285 Q48 276 43 266 Q38 256 34 245 Q29 230 26.5 214.5 Q24 199 25 183 Q26 176 27 169.5 Q28 163 31 157 Q36 148 46 152 Q56 157 63 164 Q69 172 74 179.5 Q79 187 83 196 Q84 198 85.5 203 Q87 208 89 215 Q95 237 102.5 258.5 Q110 280 115 294 Q116 297 118 300.5 Q120 304 123 306 Q130 308 137 306 Q144 304 147 299 Q149 294 149 289 Q149 284 147 279 Q145 273 144 267.5 Q143 262 141 256 Q136 239 131.5 221.5 Q127 204 123 187 Q120 170 118 152 Q116 134 117 117 Q118 114 118 108.5 Q118 103 120 101 Q122 99 125.5 99 Q129 99 131 101 Q143 113 155 125 Q167 137 179 148 Q192 160 204.5 172 Q217 184 230 195 Q260 220 292.5 241.5 Q325 263 363 276 Q368 277 371.5 278 Q375 279 380 280 Q398 284 417.5 284.5 Q437 285 455 279.5 Q473 274 487 262.5 Q501 251 507 230 L510 212 L510 212 Z " />
<glyph glyph-name="quotedblleft" unicode="&#x201c;" horiz-adv-x="86" d="M93 673 Q94 689 94.5 699.5 Q95 710 97 722 Q97 724 97.5 726.5 Q98 729 100 731 L106 731 Q110 731 112 729 Q113 727 113 720.5 Q113 714 112.5 706.5 Q112 699 111 692 Q110 685 110 683 Q110 680 110 676 Q110 672 108 669 Q105 663 98 665 Q95 666 94 668.5 Q93 671 93 673 Z M69 677 Q67 690 69 704 Q69 711 69 717.5 Q69 724 71 730 Q71 734 78 734 Q84 732 86 728 L86 721 L83 675 Q83 673 81 671 Q79 665 73 667 Q69 670 69 677 Z " />
<glyph glyph-name="quotedblright" unicode="&#x201d;" horiz-adv-x="84" d="M93 673 Q94 689 94.5 699.5 Q95 710 97 722 Q97 724 97.5 726.5 Q98 729 100 731 L106 731 Q110 731 112 729 Q113 727 113 720.5 Q113 714 112.5 706.5 Q112 699 111 692 Q110 685 110 683 Q110 680 110 676 Q110 672 108 669 Q105 663 98 665 Q95 666 94 668.5 Q93 671 93 673 Z M69 677 Q67 690 69 704 Q69 711 69 717.5 Q69 724 71 730 Q71 734 78 734 Q84 732 86 728 L86 721 L83 675 Q83 673 81 671 Q79 665 73 667 Q69 670 69 677 Z " />
<glyph glyph-name="quoteright" unicode="&#x2019;" horiz-adv-x="80" d="M62 676 Q63 692 63 702.5 Q63 713 65 725 Q65 727 65.5 729.5 Q66 732 68 734 L74 734 Q78 734 80 732 Q81 730 81 723.5 Q81 717 80.5 709.5 Q80 702 79.5 695 Q79 688 79 686 Q78 683 78 679 Q78 675 76 672 Q73 667 66 668 Q63 669 62.5 671.5 Q62 674 62 676 Z " />
<glyph glyph-name="quoteleft" unicode="&#x2018;" horiz-adv-x="80" d="M62 676 Q63 692 63 702.5 Q63 713 65 725 Q65 727 65.5 729.5 Q66 732 68 734 L74 734 Q78 734 80 732 Q81 730 81 723.5 Q81 717 80.5 709.5 Q80 702 79.5 695 Q79 688 79 686 Q78 683 78 679 Q78 675 76 672 Q73 667 66 668 Q63 669 62.5 671.5 Q62 674 62 676 Z " />
</font>
</svg>
