<?xml version="1.0" encoding="UTF-8"?>
<svg xmlns="http://www.w3.org/2000/svg" xmlns:xlink="http://www.w3.org/1999/xlink" version="1.2" >
<font id="Berrta">
<font-face  font-family="Berrta" units-per-em="1000" ascent="750" descent="-250" font-style="normal" font-weight="400" font-stretch="normal" cap-height="700" x-height="500" underline-position="-75" underline-thickness="50" />
<missing-glyph  horiz-adv-x="118" d="" />
<glyph glyph-name="NULL" d="" />
<glyph glyph-name="CR" unicode="&#xd;" horiz-adv-x="118" d="" />
<glyph glyph-name="space" unicode="&#x20;" horiz-adv-x="118" d="" />
<glyph glyph-name="exclam" unicode="&#x21;" horiz-adv-x="94" d="M7 190 C4 189 2 185 1 182 C-1 177 -4 166 4 165 C5 165 5 165 6 165 C13 165 16 176 17 182 C18 186 12 191 7 190 L7 190 Z M165 652 C162 653 158 651 156 646 C155 643 155 640 154 638 C139 596 127 554 112 513 C81 422 50 332 19 242 C17 236 15 230 12 224 C13 222 11 217 17 215 C23 213 27 219 27 219 L27 219 C37 251 48 283 59 314 C92 409 125 503 155 598 C160 613 166 627 170 642 C171 647 169 651 165 652 L165 652 Z " />
<glyph glyph-name="quotedbl" unicode="&#x22;" horiz-adv-x="104" d="M133 653 C130 655 126 654 124 651 C124 651 123 651 123 651 C123 650 122 649 122 648 C115 634 112 619 107 604 C106 600 109 596 114 596 C117 596 119 598 121 602 C125 614 129 627 134 639 C135 643 137 647 135 651 C135 652 134 653 133 653 L133 653 Z M112 646 C112 648 112 649 111 651 C110 653 109 654 106 654 C103 655 100 653 99 649 C95 636 92 623 88 610 C87 606 89 603 92 602 C95 600 98 601 100 604 C101 605 102 607 102 609 C105 618 108 628 110 638 C111 639 111 641 112 643 C112 644 112 645 112 646 L112 646 Z " />
<glyph glyph-name="numbersign" unicode="&#x23;" horiz-adv-x="167" d="M116 260 C114 260 111 260 109 260 C103 259 98 258 91 257 C94 263 96 268 99 273 C99 273 100 274 100 274 C106 275 111 276 117 276 C119 276 122 277 124 277 L124 277 C124 277 124 277 124 277 C125 277 126 277 127 277 C131 277 138 278 140 282 C140 283 140 284 140 285 C140 289 136 291 132 291 C126 291 120 290 114 290 C111 289 109 289 105 289 C109 296 112 302 115 308 C116 311 116 315 113 317 C110 319 106 318 104 315 C103 314 102 313 101 311 C98 304 95 297 92 290 C91 288 89 286 86 286 C84 286 83 285 81 285 C78 285 74 284 71 284 C71 285 71 286 72 287 C75 296 79 304 82 313 C83 316 82 319 80 321 C77 322 74 322 72 320 C70 319 69 317 68 315 C64 304 60 294 56 283 C55 282 54 281 53 281 C49 280 45 280 42 279 C34 278 27 277 19 275 C15 275 12 271 12 268 C12 264 15 262 19 262 C21 262 23 262 26 262 C33 264 41 265 49 266 C46 261 44 256 42 250 C42 250 41 249 40 249 C33 248 26 247 19 246 C16 245 14 244 12 242 C9 237 13 232 19 232 C21 232 22 232 24 232 C28 233 32 234 35 234 C33 227 30 221 27 214 C25 208 23 203 21 197 C20 193 21 190 25 189 C28 188 32 190 34 193 C34 194 35 196 35 197 C40 209 45 221 49 233 C51 236 52 238 56 238 C60 238 64 239 69 240 C68 239 68 238 67 237 C62 223 56 209 51 194 C49 190 51 186 55 185 C59 184 62 187 64 192 C69 209 77 225 84 241 C84 242 85 242 86 242 C88 243 91 243 94 244 C101 245 109 246 116 247 C120 248 123 251 123 254 C123 258 120 261 116 260 L116 260 Z M78 261 C76 255 76 255 69 254 C65 253 62 253 57 252 C60 258 62 263 64 268 C64 268 65 269 66 269 C71 270 77 271 83 272 C81 268 80 264 78 261 L78 261 Z " />
<glyph glyph-name="dollar" unicode="&#x24;" horiz-adv-x="187" d="M31 176 C31 175 31 174 30 173 C23 149 15 124 7 99 C5 91 2 82 1 74 C0 70 2 67 5 65 C8 64 12 65 14 69 C14 69 14 70 14 71 C24 107 36 141 47 176 C47 177 49 178 50 179 C54 180 59 181 63 181 C82 187 102 193 119 204 C126 208 132 212 137 219 C144 229 141 241 131 251 C127 254 121 258 116 260 C107 264 99 267 90 271 C87 272 83 274 80 275 C80 276 80 277 80 277 C92 313 104 349 116 384 C119 391 121 396 127 400 C139 409 150 418 163 424 C166 425 169 426 173 427 C173 426 173 425 173 424 C171 419 169 414 168 409 C148 365 127 323 100 284 C97 280 97 276 101 273 C105 271 109 271 111 275 C111 275 111 275 111 276 C124 293 135 312 145 331 C159 355 171 380 182 406 C185 412 186 418 187 424 C188 433 181 441 171 441 C167 440 163 439 159 438 C149 434 140 428 131 422 C130 421 130 421 128 420 C131 427 132 433 135 439 C138 450 142 461 145 472 C147 476 145 480 141 482 C137 483 134 481 132 477 C132 477 132 476 132 476 C124 453 116 431 109 408 C108 404 105 401 102 399 C85 383 68 366 55 346 C48 336 43 325 40 312 C38 299 41 287 52 277 C55 274 59 271 63 269 C59 260 57 252 54 243 C48 227 43 210 37 193 C37 192 36 191 35 191 C29 191 22 190 16 191 C6 192 3 197 7 206 C11 213 17 220 22 225 C24 225 26 226 27 226 C31 226 34 228 35 232 C35 235 32 238 28 240 C24 241 20 241 17 239 C5 231 -3 220 -8 206 C-9 202 -9 197 -7 192 C-3 184 4 179 12 178 C19 177 25 176 31 176 L31 176 Z M53 194 C61 217 68 240 75 262 C79 261 82 260 84 259 C94 255 103 252 111 247 C115 246 119 243 123 240 C128 236 128 233 125 229 C122 225 118 221 115 219 C103 210 89 205 75 200 C68 198 61 196 54 194 C53 194 53 194 53 194 L53 194 Z M97 372 C87 342 77 312 67 282 C57 288 52 298 54 309 C56 320 61 329 67 337 C75 350 85 361 96 372 C96 372 96 372 97 372 L97 372 Z " />
<glyph glyph-name="percent" unicode="&#x25;" horiz-adv-x="140" d="M146 421 C143 420 141 419 138 418 C131 415 125 412 119 409 C96 397 73 386 50 379 C46 378 43 376 40 375 C40 372 38 368 38 368 C41 368 53 365 39 355 C39 355 39 355 38 354 C38 354 37 354 37 354 C37 353 36 353 36 353 C36 353 36 353 36 353 C34 352 33 351 32 351 C32 351 32 351 32 351 C31 350 30 350 29 350 C26 350 26 354 26 354 C26 354 26 354 26 354 C28 359 29 362 31 364 C31 364 31 364 31 364 C31 365 31 365 32 365 C33 367 36 368 36 368 L36 368 C38 370 39 373 40 374 C40 374 40 374 40 374 C41 379 39 381 36 383 C33 384 30 384 27 381 C19 373 13 364 13 352 C13 343 20 336 29 336 C38 336 46 341 53 349 C55 352 57 356 56 360 C56 362 56 364 55 366 C81 374 106 387 129 399 C126 394 122 389 118 384 C90 348 65 311 41 273 C14 231 -13 188 -35 145 C-40 137 -43 130 -47 122 C-50 116 -47 110 -41 109 C-38 109 -35 110 -32 111 C-29 112 -26 114 -23 117 C-8 129 6 142 21 154 C21 155 22 155 23 156 C24 154 24 153 24 152 C25 145 29 141 36 142 C39 142 43 143 48 145 C57 151 66 159 71 169 C76 177 77 185 76 193 C76 197 73 200 69 200 C63 199 58 191 60 186 C61 184 62 182 60 181 C60 179 60 176 59 175 C54 168 49 162 41 157 C40 157 39 156 38 155 C38 157 37 158 39 159 C39 166 43 172 48 177 C51 181 51 185 48 187 C46 190 42 190 38 187 C25 176 11 165 -1 153 C-10 146 -19 138 -27 130 C-27 130 -27 131 -28 131 C-27 133 -26 135 -25 138 C-2 176 21 215 45 253 C68 292 93 329 121 365 C130 377 140 389 149 401 C151 404 153 407 155 410 C157 416 152 422 146 421 L146 421 Z " />
<glyph glyph-name="ampersand" unicode="&#x26;" horiz-adv-x="135" d="M208 634 C204 635 201 633 199 628 C197 624 196 620 195 616 C177 572 159 527 143 482 C120 425 102 367 83 306 C82 307 81 307 81 307 C68 317 59 312 46 304 C36 298 -11 243 30 241 C32 241 35 241 37 241 C35 234 32 228 28 221 C25 213 23 205 24 197 C25 188 31 182 39 183 C44 183 49 186 53 189 C56 192 59 194 63 198 C62 196 62 196 62 195 C51 157 38 119 29 80 C20 56 14 30 8 5 C8 2 7 -1 7 -4 C7 -9 11 -12 16 -11 C20 -11 22 -7 22 -2 C22 -1 22 1 22 2 C28 25 33 47 40 70 C53 119 68 168 84 217 C85 220 87 224 88 227 C89 231 88 233 84 235 C82 237 80 238 77 236 C75 236 75 234 74 233 C71 230 68 226 65 223 C57 215 50 207 43 200 C43 199 43 199 43 199 C38 197 38 201 38 202 C38 209 41 215 43 220 C48 231 54 240 60 249 C61 249 61 250 61 250 C64 254 64 257 61 260 C59 262 55 263 52 262 C46 260 41 257 35 255 C34 255 34 255 33 255 C29 255 29 259 29 260 C29 261 30 262 30 263 C34 270 39 278 45 284 C49 289 55 294 63 297 C64 298 66 298 67 298 C72 298 75 294 76 289 C77 286 77 283 80 281 C82 279 85 279 88 280 C90 282 92 285 92 288 C109 340 126 392 143 445 C162 495 180 545 200 595 C205 604 209 614 212 623 C214 628 212 632 208 634 L208 634 Z " />
<glyph glyph-name="quotesingle" unicode="&#x27;" horiz-adv-x="115" d="M129 646 C129 651 127 654 124 654 C121 655 118 653 116 650 C116 649 115 648 115 647 C111 636 108 626 104 614 C104 614 104 613 103 613 C103 609 104 606 108 604 C112 603 115 605 117 609 C120 618 123 627 126 636 C128 640 129 644 129 646 L129 646 Z " />
<glyph glyph-name="parenleft" unicode="&#x28;" horiz-adv-x="129" d="M29 270 C30 261 29 252 31 244 C34 227 37 209 41 192 C42 186 45 179 48 173 C49 169 53 166 57 165 C61 164 65 166 66 169 C67 172 66 176 62 178 C61 179 60 180 59 182 C58 183 57 185 57 187 C54 198 51 209 49 220 C45 237 43 254 43 272 C43 282 44 292 45 302 C47 317 49 332 53 347 C67 412 91 473 125 530 C143 559 163 588 186 613 C196 624 206 634 218 642 C221 644 221 648 220 651 C218 654 215 655 211 654 C210 654 208 653 206 651 C201 647 195 642 190 637 C170 618 153 596 137 573 C91 509 60 438 42 362 C34 332 30 301 29 270 L29 270 Z " />
<glyph glyph-name="parenright" unicode="&#x29;" horiz-adv-x="114" d="M86 337 C118 402 138 471 144 544 C145 566 144 575 143 590 C139 609 135 628 127 646 C126 648 124 650 123 652 C121 656 116 656 113 654 C109 652 108 648 109 644 C111 641 114 638 115 635 C127 611 128 585 128 558 C129 547 127 534 126 522 C124 508 123 494 119 480 C116 459 111 438 104 418 C91 375 70 334 45 295 C23 257 -1 219 -27 181 C-28 179 -28 177 -29 174 C-31 170 -30 166 -28 164 C-24 163 -20 164 -16 168 C-16 169 -15 171 -14 172 C1 195 16 219 29 242 C49 273 69 304 86 337 L86 337 Z " />
<glyph glyph-name="asterisk" unicode="&#x2a;" horiz-adv-x="156" d="M91 289 C90 289 90 289 90 289 C90 290 91 291 91 291 C93 296 95 301 97 306 C99 310 98 314 94 316 C91 317 86 316 84 313 C83 311 82 310 82 308 C78 300 75 293 71 285 C70 281 68 278 67 275 C67 275 66 275 66 275 C61 283 55 290 49 297 C47 300 45 301 42 301 C39 301 37 299 36 296 C35 293 35 290 37 288 C39 285 41 282 43 280 C45 276 48 273 51 269 C50 269 50 269 50 269 C46 269 42 269 38 269 C34 269 30 268 26 269 C21 269 17 267 17 262 C16 258 20 254 25 254 C29 254 34 254 38 254 C39 254 41 254 42 254 C41 253 41 252 40 252 C35 247 29 243 24 239 C14 231 6 222 -1 211 C-2 209 -3 207 -3 204 C-2 201 0 199 3 198 C7 198 9 199 11 202 C18 213 27 221 36 229 C42 234 47 238 52 242 C53 241 52 240 52 240 C49 230 45 221 42 212 C41 207 43 203 47 202 C50 200 54 202 56 207 C57 207 57 209 57 210 C62 220 66 232 70 242 C70 243 71 244 71 245 C72 244 72 244 72 244 C79 236 86 228 89 218 C90 214 95 213 98 214 C102 215 104 218 103 222 C103 224 103 226 102 228 C98 234 94 240 90 247 C88 249 86 251 84 254 C89 254 93 254 96 254 C102 253 108 254 114 251 C117 250 121 251 122 254 C124 257 124 261 121 264 C119 265 117 267 115 267 C109 268 103 268 98 268 C95 269 93 269 90 269 C97 274 104 279 111 284 C114 286 116 288 119 289 C122 292 122 296 120 299 C118 302 114 303 111 302 C110 301 109 301 108 300 C102 296 96 293 91 289 L91 289 Z " />
<glyph glyph-name="plus" unicode="&#x2b;" horiz-adv-x="130" d="M61 269 C63 270 63 270 63 271 C65 281 69 291 71 300 C73 302 73 304 73 305 C72 309 69 311 66 312 C62 312 59 309 58 305 C54 293 50 281 47 270 C45 268 45 267 43 267 C33 266 24 265 15 264 C10 264 6 260 6 256 C6 252 10 249 15 249 C20 249 24 250 29 251 C33 251 36 251 40 251 C40 251 40 250 40 250 C36 236 32 222 29 208 C27 204 29 200 32 199 C36 197 40 199 42 203 C43 205 45 208 45 210 C49 224 52 237 56 251 C56 253 57 253 59 253 C63 253 69 254 73 254 C79 254 85 256 91 254 C93 253 97 254 99 257 C100 259 101 262 99 265 C97 268 95 270 92 270 C87 270 81 270 75 269 C71 269 66 269 61 269 L61 269 Z " />
<glyph glyph-name="comma" unicode="&#x2c;" horiz-adv-x="74" d="M25 225 C25 230 22 233 19 233 C16 234 12 232 11 229 C10 227 10 224 9 222 C6 216 3 210 0 203 C-1 199 0 196 3 194 C6 192 10 193 13 197 C13 197 14 198 14 199 C17 207 21 215 24 223 C24 224 24 225 25 225 L25 225 Z " />
<glyph glyph-name="hyphen" unicode="&#x2d;" horiz-adv-x="117" d="M70 266 C69 266 69 266 68 266 L55 266 L55 266 L38 266 L22 265 C21 265 19 265 19 265 C15 263 13 260 13 256 C14 253 17 250 21 250 C22 250 23 250 24 250 L39 250 L49 250 L71 250 C71 250 77 250 77 257 C77 257 77 257 77 257 C78 261 75 265 70 266 L70 266 Z " />
<glyph glyph-name="period" unicode="&#x2e;" horiz-adv-x="63" d="M18 223 C18 227 15 230 11 230 C7 230 4 227 4 223 C4 219 7 216 10 216 C14 216 18 220 18 223 L18 223 Z " />
<glyph glyph-name="slash" unicode="&#x2f;" horiz-adv-x="152" d="M-21 173 C-22 168 -23 164 -19 164 C-16 163 -12 166 -10 169 C-8 175 -6 180 -3 185 C30 247 61 311 93 372 C121 425 151 477 180 530 C201 569 226 608 241 648 C241 651 241 654 237 654 C234 655 228 651 228 648 C227 643 225 638 222 633 C207 606 192 579 179 552 L95 401 C57 330 22 260 -13 190 C-18 184 -20 178 -21 173 L-21 173 Z " />
<glyph glyph-name="zero" unicode="0" horiz-adv-x="96" d="M-24 240 C-25 236 -26 229 -26 222 C-26 213 -24 204 -19 197 C-14 189 -6 186 5 188 C11 189 16 191 21 195 C34 203 45 214 53 227 C67 247 75 268 78 290 C79 299 79 307 77 316 C77 316 77 316 77 316 C76 321 74 326 70 330 C67 334 63 337 56 335 C52 334 48 330 48 325 C48 321 51 318 55 320 C56 320 57 321 58 320 C59 320 59 320 59 319 C61 315 63 311 63 307 C67 282 56 251 39 228 C31 218 21 208 10 203 C7 202 4 201 1 201 C-2 201 -5 203 -7 206 C-12 214 -12 226 -11 236 C-9 248 -6 260 -1 272 C6 287 15 302 26 315 C28 317 30 318 32 320 C35 322 37 324 37 327 C37 330 34 333 31 333 C29 332 26 331 24 330 C21 328 19 326 17 324 C-4 299 -17 272 -24 240 L-24 240 Z " />
<glyph glyph-name="one" unicode="1" horiz-adv-x="50" d="M-7 203 C-7 204 -6 207 -6 208 C0 225 6 242 12 259 C19 278 27 297 34 316 C35 320 36 323 37 327 C39 336 29 339 22 333 C20 331 19 329 17 328 C15 325 11 322 9 319 C9 319 9 319 9 319 C9 317 9 315 11 313 C12 312 14 312 16 312 C17 312 18 311 17 310 C17 308 16 307 15 305 C14 302 13 299 12 297 C7 282 1 268 -4 254 C-10 237 -15 220 -21 203 C-22 201 -23 200 -24 200 C-27 199 -29 200 -32 199 C-35 197 -37 195 -38 192 C-38 189 -36 187 -34 187 C-31 186 -28 186 -24 186 C-21 186 -17 186 -14 186 C-11 186 -7 187 -4 187 C2 187 9 187 12 194 C13 199 11 200 6 201 C2 201 -2 201 -6 201 C-7 201 -8 202 -7 203 L-7 203 Z " />
<glyph glyph-name="two" unicode="2" horiz-adv-x="84" d="M13 208 C14 210 14 211 15 211 C24 222 32 235 40 248 C52 268 70 300 63 325 C60 332 56 337 48 336 C44 336 39 334 35 332 C21 325 9 314 -1 301 C-3 298 -5 294 -7 291 C-9 286 -9 281 -7 276 C-5 273 -2 272 1 273 C4 274 6 278 6 281 C5 286 8 290 10 293 C15 299 21 305 27 310 C30 313 46 326 49 320 C61 299 11 229 1 216 C-1 213 -4 213 -7 213 C-13 214 -20 214 -25 209 C-32 204 -32 196 -26 191 C-24 190 -22 190 -20 189 C-14 189 -9 191 -4 194 C-1 197 2 196 6 195 C18 192 29 189 41 186 C45 186 48 188 49 191 C50 195 50 198 47 200 C45 201 43 202 42 202 C32 204 23 206 13 208 L13 208 Z " />
<glyph glyph-name="three" unicode="3" horiz-adv-x="78" d="M33 268 C35 270 36 272 38 274 C45 282 52 291 57 301 C62 311 68 336 48 336 C40 337 33 333 26 329 C11 320 0 307 -8 291 C-10 288 -10 284 -10 281 C-11 277 -8 274 -4 273 C-1 273 2 275 3 279 C4 281 4 284 5 285 C8 292 13 298 18 304 C22 308 26 311 31 315 C36 318 41 320 46 320 C47 320 47 320 48 320 C48 319 48 318 48 317 C47 313 45 309 43 305 C38 295 31 288 24 280 C22 278 20 275 19 273 C16 268 16 263 20 259 C21 257 23 256 24 255 C31 250 34 242 32 232 C29 216 9 191 -8 205 C-11 207 -12 209 -14 210 C-17 213 -20 214 -23 212 C-26 210 -27 206 -26 203 C-25 201 -24 199 -23 198 C-13 188 -2 183 11 188 C28 194 40 206 45 226 C49 242 46 256 34 267 C34 267 33 268 33 268 L33 268 Z " />
<glyph glyph-name="four" unicode="4" horiz-adv-x="74" d="M68 321 C67 322 64 323 62 322 C59 322 57 319 56 317 C54 315 53 313 52 311 C41 293 34 284 34 284 L34 284 C32 282 30 279 28 277 C24 273 15 265 9 266 C7 267 5 268 4 270 C0 283 12 299 17 310 C20 314 22 317 25 320 C27 322 30 324 32 327 C33 330 33 334 30 335 C25 338 19 332 16 328 C6 315 -2 302 -7 288 C-9 280 -11 273 -9 266 C-6 255 4 251 16 255 C25 258 33 265 40 272 C36 260 32 249 28 237 C25 229 23 221 20 212 C18 206 15 199 14 193 C12 189 14 186 17 186 C20 185 24 187 25 191 C27 193 27 195 28 197 C39 232 51 267 63 302 C65 305 66 309 68 313 C69 316 70 318 68 321 L68 321 Z " />
<glyph glyph-name="five" unicode="5" horiz-adv-x="72" d="M6 275 C9 286 13 297 17 308 C19 312 19 317 23 319 C25 321 28 321 30 321 C33 321 36 321 40 321 C46 321 52 321 58 321 C61 320 63 321 66 323 C68 325 70 328 69 331 C69 334 67 336 63 336 C50 336 41 336 30 336 C20 336 13 331 8 321 C7 319 6 316 5 314 C1 304 -2 295 -5 285 C-8 279 -9 273 -11 267 C-14 258 -8 251 1 257 C56 292 31 231 8 207 C5 204 1 201 -2 202 C-5 202 -7 206 -6 209 C-5 211 -4 212 -3 214 C-3 216 -3 218 -4 219 C-6 222 -10 222 -13 220 C-35 200 -6 173 17 198 C33 215 43 235 47 256 C48 263 48 270 45 275 C39 286 28 283 18 280 C14 279 10 277 6 275 L6 275 Z " />
<glyph glyph-name="six" unicode="6" horiz-adv-x="78" d="M38 268 C33 270 27 268 22 265 C15 261 9 256 3 249 L-5 236 C-2 254 10 275 17 286 C26 299 37 310 49 317 C51 318 54 320 57 319 C60 318 62 320 63 324 C64 328 63 332 60 334 C58 335 55 336 53 336 C50 335 46 334 43 332 C15 313 -7 284 -19 241 C-21 232 -22 223 -21 213 C-20 199 -14 190 -5 187 C5 185 12 188 20 194 C31 204 39 216 45 232 C48 244 51 263 38 268 L38 268 Z M29 230 C27 224 22 218 18 213 C14 209 7 204 2 203 C-10 214 8 234 16 243 C19 246 22 247 25 249 C27 250 29 251 31 252 C32 252 35 253 36 250 C36 250 36 249 36 248 C35 241 32 235 29 230 L29 230 Z " />
<glyph glyph-name="seven" unicode="7" horiz-adv-x="66" d="M45 335 C40 337 34 336 29 334 C19 330 10 326 0 322 C-1 322 -2 321 -3 321 C-6 318 -7 314 -6 311 C-4 307 -1 307 2 308 C51 333 43 320 18 273 C17 271 16 268 14 266 C5 264 -6 264 -6 255 C-6 248 1 249 6 249 C-2 231 -11 214 -18 197 C-20 193 -20 189 -17 187 C-11 183 -8 192 -5 195 C3 212 11 229 19 246 C20 249 21 252 24 253 C33 255 43 255 43 264 C43 271 34 271 30 269 C35 279 40 288 44 296 C48 303 51 310 52 318 C54 326 51 332 45 335 L45 335 Z " />
<glyph glyph-name="eight" unicode="8" horiz-adv-x="76" d="M67 329 C67 332 66 334 64 335 C64 335 64 335 64 335 C63 336 63 336 62 336 C56 337 47 329 42 324 C37 318 31 312 26 306 C20 299 15 292 10 285 C4 275 2 265 5 256 L6 254 C-9 242 -20 229 -23 207 C-25 193 -15 184 -1 187 C18 192 32 203 43 220 C49 229 46 239 37 244 C48 268 57 293 66 318 C67 322 67 326 67 329 L67 329 Z M28 220 C22 212 14 206 5 202 C-6 198 -11 202 -8 212 C-5 224 3 235 12 244 C17 240 22 236 27 232 C33 228 33 226 28 220 L28 220 Z M48 308 C48 306 47 303 46 301 C44 295 41 289 39 283 C37 277 34 271 32 265 C31 263 27 254 26 251 C26 251 15 259 18 269 C18 269 18 269 18 269 C18 271 18 272 19 274 C21 279 24 284 27 288 C31 294 36 299 41 304 C44 308 49 313 49 311 C49 310 49 309 48 308 L48 308 L48 308 Z " />
<glyph glyph-name="nine" unicode="9" horiz-adv-x="87" d="M76 297 C76 298 76 299 76 300 C76 306 73 308 70 309 C63 309 58 303 55 299 C55 299 54 298 54 297 C54 297 54 297 54 297 L54 297 C49 290 45 283 40 276 C36 270 32 265 27 260 C20 252 14 253 14 263 C14 268 15 272 17 277 C22 291 29 304 39 315 C41 317 43 319 46 321 C47 322 49 322 49 320 C49 318 49 317 49 315 C50 311 52 309 56 309 C59 310 63 314 63 317 C63 321 63 324 62 328 C59 336 50 338 41 333 C35 329 31 324 27 319 C15 305 7 291 3 275 C-1 262 -3 238 15 238 C28 240 41 256 48 266 C50 269 61 284 61 285 C56 263 44 238 31 219 C27 214 24 210 20 206 C17 203 14 201 11 200 C9 200 7 200 5 200 C2 201 2 203 3 205 C4 208 2 211 -1 211 C-4 212 -7 209 -10 206 C-12 194 4 178 25 194 C32 200 37 207 42 214 C59 239 72 265 76 296 C76 297 76 297 76 297 L76 297 Z " />
<glyph glyph-name="colon" unicode="&#x3a;" horiz-adv-x="67" d="M33 294 C29 294 26 291 26 287 C26 284 29 280 33 281 C37 281 40 284 40 287 C40 291 37 294 33 294 L33 294 Z M17 245 C14 245 11 243 11 239 C11 235 14 232 17 232 C21 232 24 235 24 239 C24 243 21 245 17 245 L17 245 Z " />
<glyph glyph-name="semicolon" unicode="&#x3b;" horiz-adv-x="64" d="M17 233 C14 234 11 233 9 231 C9 230 8 229 8 228 C5 221 2 214 -1 207 C-2 203 -2 199 2 197 C5 196 9 197 12 201 C12 201 12 201 12 202 C15 209 18 216 21 223 C21 224 21 225 21 225 C22 229 20 231 17 233 L17 233 Z M28 288 C25 288 22 285 22 281 C22 278 24 275 28 275 C32 275 35 278 35 281 C35 285 32 288 28 288 L28 288 Z " />
<glyph glyph-name="less" unicode="&#x3c;" horiz-adv-x="134" d="M103 297 C101 300 97 301 92 299 C71 290 51 280 31 268 C28 265 24 262 21 259 C16 253 16 246 21 241 C23 238 25 236 28 234 C42 223 59 216 75 208 C76 207 77 207 78 207 C82 206 86 208 87 212 C88 218 82 220 78 222 C72 225 67 228 62 231 C56 234 50 238 45 241 C41 243 37 245 34 248 C31 250 34 251 34 252 C36 253 39 255 41 256 C60 267 79 277 99 287 C104 289 106 293 103 297 L103 297 Z " />
<glyph glyph-name="equal" unicode="&#x3d;" horiz-adv-x="130" d="M87 280 C77 280 60 280 59 280 C55 280 51 280 47 280 C41 280 36 280 30 279 C25 279 22 276 22 272 C22 268 25 264 30 264 C31 264 32 264 34 264 C51 264 69 265 86 265 C88 265 90 264 92 264 C96 263 100 265 101 269 C103 273 101 277 96 278 C93 280 90 280 87 280 L87 280 Z M88 254 C86 255 83 256 79 256 C76 256 73 256 70 256 C69 256 67 255 65 255 C64 255 64 255 63 255 L63 255 L27 255 C27 255 19 256 19 246 L19 246 C19 246 19 246 19 245 C19 239 26 238 32 238 C40 239 49 239 58 239 C67 239 76 239 85 239 C88 239 92 241 93 244 C95 248 92 252 88 254 L88 254 Z " />
<glyph glyph-name="greater" unicode="&#x3e;" horiz-adv-x="130" d="M97 264 C97 269 93 271 89 272 C77 278 64 284 51 290 C45 292 41 295 35 297 C32 298 28 297 27 294 C24 292 23 288 26 286 C27 284 29 284 30 283 C42 278 52 272 64 267 C67 266 70 264 73 263 C73 263 78 261 72 257 C63 252 53 247 44 242 C33 236 23 230 12 224 C9 222 7 220 5 216 C2 211 6 205 12 207 C15 209 17 211 19 213 C22 216 26 217 29 219 C37 224 45 228 53 232 C65 239 76 245 89 252 C93 255 96 258 97 264 L97 264 Z " />
<glyph glyph-name="question" unicode="&#x3f;" horiz-adv-x="165" d="M218 653 C207 656 196 655 185 652 C151 643 118 626 93 602 C86 595 79 587 77 577 C76 573 77 568 79 565 C81 561 85 558 89 560 C93 561 96 566 93 569 C93 570 92 571 92 572 C90 575 92 578 94 581 C102 593 114 603 127 611 C139 620 153 627 167 633 C179 637 193 641 206 641 C207 640 209 640 211 640 C215 639 220 637 223 634 C232 622 223 603 218 592 C215 585 211 578 207 571 C190 538 168 506 148 474 C127 440 107 405 88 370 C69 336 51 303 34 268 C31 260 27 252 25 244 C24 238 28 231 34 230 C37 230 40 231 42 234 C43 236 43 239 41 242 C39 243 39 244 40 245 C43 252 45 259 49 266 C75 320 104 373 135 425 C156 462 179 498 202 534 C213 553 225 571 232 592 C237 602 240 613 240 624 C240 639 232 649 218 653 L218 653 Z M25 204 C21 203 19 199 17 196 C15 191 13 180 20 179 C21 179 21 179 22 179 C29 179 32 190 33 196 C34 200 30 205 25 204 L25 204 Z " />
<glyph glyph-name="at" unicode="&#x40;" horiz-adv-x="202" d="M110 285 C106 290 101 292 95 291 C88 291 83 287 79 283 C70 274 64 263 59 252 C55 243 53 233 54 224 C56 210 67 205 78 214 C82 217 86 221 89 224 C94 230 99 236 104 242 C104 239 104 236 105 233 C107 217 120 215 131 222 C134 224 137 226 139 229 C153 244 163 261 170 280 C175 294 177 309 175 323 C171 356 142 374 110 365 C90 359 73 347 58 331 C25 294 6 252 3 204 C2 193 3 183 7 173 C15 146 40 131 71 137 C88 141 103 149 116 160 C131 172 144 187 157 202 C158 203 159 205 160 207 C161 210 160 214 157 215 C154 217 150 216 148 212 C147 211 146 209 145 208 C135 198 126 188 117 178 C104 166 89 156 72 152 C48 145 29 155 20 177 C17 186 16 196 17 205 C17 216 19 226 21 236 C29 262 40 288 58 310 C70 326 84 339 102 347 C109 350 115 352 122 353 C140 354 154 345 159 329 C163 317 163 305 160 293 C155 275 146 258 134 243 C131 239 128 236 125 234 C121 231 119 232 119 236 C119 236 119 237 119 237 C119 243 119 250 120 257 C122 264 120 268 114 270 C114 275 113 280 110 285 L110 285 Z M74 228 C67 223 68 233 68 234 C71 247 76 259 85 270 C88 273 91 275 94 277 C96 279 98 278 98 275 C99 273 99 271 99 268 C99 265 100 263 102 261 C93 250 84 238 74 228 L74 228 Z " />
<glyph glyph-name="A" unicode="A" horiz-adv-x="410" d="M398 433 C394 433 391 431 390 428 C386 423 383 417 380 412 C347 353 311 295 273 239 C244 196 214 155 180 116 C164 99 148 83 130 70 C114 59 98 51 80 50 C66 49 53 52 44 61 C34 70 28 82 25 95 C18 120 18 147 19 174 C19 192 20 210 23 227 C25 242 28 257 31 272 C34 289 38 305 42 321 C51 357 63 392 78 427 C96 475 120 522 150 565 C170 595 192 622 219 646 C236 661 255 674 277 682 C290 686 302 688 315 686 C332 682 342 672 349 656 C356 637 356 617 353 597 C352 581 349 566 346 551 C343 536 340 521 336 507 C325 467 309 429 291 391 C284 374 274 357 261 342 C259 340 257 338 256 336 C253 333 254 329 256 326 C258 323 262 323 265 325 C267 326 268 327 270 329 C279 339 282 344 289 355 C315 399 333 446 348 494 C353 511 356 528 360 545 C364 556 365 568 367 580 C368 590 369 600 369 611 C370 623 370 636 368 648 C363 664 357 679 344 689 C327 702 307 705 286 700 C266 695 249 687 233 676 C207 658 185 636 165 611 C136 576 113 538 93 498 C55 421 27 341 13 258 C11 243 8 228 7 213 C5 197 4 182 3 166 C3 152 3 137 5 123 C6 106 9 90 16 75 C21 62 30 50 43 42 C61 32 81 32 101 38 C121 45 138 56 154 70 C175 89 195 110 213 132 C253 182 290 235 324 289 L344 321 C344 321 333 296 329 287 C309 235 293 183 280 130 C274 106 269 83 264 59 C261 43 260 27 257 11 C255 -5 253 -21 252 -37 C251 -52 250 -66 249 -80 C247 -92 247 -104 247 -117 C246 -132 246 -147 245 -162 C246 -171 246 -180 247 -190 C247 -191 248 -193 248 -194 C247 -198 249 -202 251 -205 C251 -205 251 -205 251 -205 C251 -207 252 -207 252 -207 C252 -207 252 -207 252 -207 C257 -210 262 -206 263 -203 C263 -203 264 -201 264 -201 C263 -199 263 -194 262 -187 C262 -187 262 -187 262 -187 C262 -179 260 -169 260 -168 C260 -168 260 -168 260 -168 C261 -155 261 -142 261 -128 C261 -115 262 -101 264 -87 C265 -65 267 -44 269 -23 C270 -7 273 9 275 25 C276 38 278 52 281 66 C285 83 288 100 293 117 C300 145 306 173 316 200 C340 269 365 334 394 401 C397 408 400 415 403 423 C406 427 403 432 398 433 L398 433 Z " />
<glyph glyph-name="B" unicode="B" horiz-adv-x="384" d="M158 405 C158 405 159 406 159 406 C189 432 219 457 247 484 C280 513 311 545 338 580 C351 597 363 615 372 634 C376 644 380 654 380 665 C379 681 371 691 357 696 C341 701 325 700 308 697 C281 691 256 681 232 668 C167 633 113 586 69 527 C49 500 31 472 22 440 C20 433 19 427 21 420 C22 415 25 411 30 410 C34 408 38 410 40 413 C43 417 43 421 40 424 C37 426 36 429 37 432 C38 436 38 439 40 443 C45 461 55 478 65 494 C103 553 153 602 213 639 C249 662 286 680 327 683 C336 683 345 682 352 679 C359 676 363 670 363 663 C363 659 362 654 361 650 C358 640 353 630 347 621 C329 591 306 565 282 539 C253 508 220 478 187 450 C170 435 152 420 135 405 C132 403 129 400 127 397 C123 392 126 385 132 384 C135 384 137 384 139 385 C156 388 173 391 189 392 C208 393 226 392 243 387 C279 376 300 351 308 314 C314 288 313 260 309 232 C307 219 304 205 301 192 C297 176 292 159 286 143 C273 103 257 63 237 24 C215 -20 189 -62 156 -101 C132 -130 105 -157 75 -180 C52 -196 29 -208 3 -211 C-15 -212 -30 -208 -42 -197 C-54 -186 -60 -171 -64 -156 C-72 -126 -71 -94 -67 -62 C-65 -38 -60 -15 -54 8 C-50 24 -45 41 -40 58 C-30 91 -18 124 -3 156 C24 218 51 280 79 343 C102 395 126 447 153 498 C160 512 167 525 179 535 C179 536 180 536 180 536 C182 540 182 543 180 546 C178 549 174 549 171 548 C169 546 167 545 165 543 C157 536 152 528 147 519 C133 491 118 464 105 436 C68 358 33 280 -2 201 C-29 138 -54 74 -70 9 C-74 -6 -77 -21 -80 -37 C-82 -52 -84 -67 -86 -82 C-87 -99 -87 -116 -86 -132 C-83 -155 -78 -178 -65 -196 C-49 -221 -25 -231 6 -227 C25 -224 44 -217 61 -207 C91 -190 116 -167 140 -142 C180 -101 212 -55 239 -7 C270 51 295 110 312 171 C316 189 321 206 324 224 C326 239 327 254 328 269 C330 287 328 304 324 320 C316 356 296 383 262 398 C249 404 235 407 220 408 C207 409 195 409 182 407 C174 407 166 406 158 405 L158 405 Z " />
<glyph glyph-name="C" unicode="C" horiz-adv-x="362" d="M389 655 C387 669 383 681 373 690 C365 698 355 702 342 700 C331 698 321 693 311 687 C289 673 270 655 253 636 C226 607 202 575 179 543 C126 468 79 390 42 307 C24 267 8 227 -6 186 C-12 168 -17 149 -23 131 C-27 116 -30 102 -34 88 C-37 74 -41 59 -44 45 C-46 32 -48 19 -51 3 C-52 -10 -54 -25 -55 -41 C-56 -56 -57 -71 -56 -86 C-56 -111 -53 -134 -46 -157 C-40 -177 -32 -196 -16 -210 C2 -227 24 -233 51 -227 C71 -223 89 -212 106 -198 C128 -181 145 -160 161 -137 C206 -73 239 -5 259 68 C262 82 264 95 267 109 C268 114 265 117 261 117 C257 118 253 115 252 110 C251 108 250 106 250 103 C248 94 247 85 245 77 C242 63 238 50 233 37 C218 -7 199 -49 175 -90 C158 -118 139 -146 115 -170 C101 -184 86 -197 68 -206 C53 -213 37 -216 22 -213 C6 -209 -6 -199 -15 -187 C-26 -171 -32 -154 -36 -135 C-40 -113 -42 -90 -41 -68 C-40 -51 -39 -34 -38 -17 C-34 11 -30 38 -23 66 C-20 81 -17 96 -13 111 C-7 131 -1 151 5 171 C17 209 32 247 48 285 C79 355 116 422 159 487 C187 530 217 573 251 612 C263 626 275 640 288 652 C326 686 348 689 360 680 C361 679 362 678 363 677 C366 673 368 670 369 665 C370 665 370 664 370 663 C376 643 373 616 373 614 L373 614 C373 614 373 613 372 613 C371 603 369 593 367 583 C365 574 362 564 360 555 C356 543 353 531 349 518 C345 504 341 489 337 475 C332 458 327 442 322 425 C321 421 320 417 318 413 C318 413 318 412 317 411 C317 411 317 410 317 410 C316 407 315 400 319 399 C325 396 330 401 332 405 C332 406 332 407 333 407 C335 414 337 420 339 427 C343 441 347 455 351 469 C355 482 358 495 362 508 C366 521 370 534 373 548 C377 560 381 573 383 586 C386 597 387 608 389 620 C391 632 390 644 389 655 L389 655 Z " />
<glyph glyph-name="D" unicode="D" horiz-adv-x="505" d="M527 625 C520 651 503 668 476 675 C456 681 435 680 414 675 C385 670 358 658 332 644 C282 616 238 580 198 539 C196 537 195 536 193 534 L188 529 L192 539 C200 557 207 574 215 592 L274 735 C276 739 274 744 270 745 C266 746 261 743 259 738 C258 737 258 737 258 736 L201 598 C188 567 175 536 162 506 C159 498 156 492 150 486 C128 458 107 429 88 399 C59 352 35 304 13 254 C-1 220 -14 187 -25 152 C-32 131 -38 110 -44 88 C-49 71 -53 54 -57 38 C-61 18 -65 -2 -65 -21 C-65 -29 -65 -36 -63 -43 C-59 -53 -48 -54 -41 -44 C-37 -40 -34 -36 -32 -31 C-24 -12 -15 6 -8 25 C11 73 29 121 47 169 C65 215 82 261 100 307 C123 366 147 426 171 485 C171 488 173 490 174 491 C184 503 195 514 205 525 C238 559 273 589 312 615 C339 632 368 647 399 656 C420 662 440 665 461 662 C489 658 506 642 513 615 C517 595 517 574 514 553 C513 540 510 526 507 513 C504 500 500 486 497 473 C491 454 485 436 478 417 C464 376 448 336 430 296 C406 240 380 184 351 130 C323 79 293 30 257 -15 C225 -55 190 -92 149 -123 C131 -136 112 -148 91 -156 C75 -162 60 -164 45 -162 C27 -159 13 -149 4 -135 C-7 -117 -10 -100 -6 -77 L-6 -77 C-5 -72 -5 -68 -4 -63 C-3 -56 -1 -48 1 -41 C1 -41 1 -41 1 -41 C1 -40 2 -39 2 -38 C5 -28 10 -17 16 -5 C17 -4 17 -3 18 -2 C18 -1 18 -1 19 0 C19 0 19 0 19 0 C20 1 20 2 20 2 C20 3 21 3 21 3 C22 4 23 6 24 7 C24 8 24 8 25 8 C36 24 51 36 64 43 C71 47 78 50 86 52 C87 53 87 53 88 53 C88 53 88 53 88 53 C90 54 92 54 94 53 C96 52 97 51 98 49 L98 49 C100 47 101 44 104 43 C104 43 104 43 104 43 C104 43 104 43 105 43 L105 43 C105 43 106 43 106 43 L106 43 C116 44 115 53 115 53 L115 53 C116 56 114 60 111 64 C110 65 108 67 104 68 C94 70 66 72 25 34 C25 33 25 33 25 33 C25 33 25 33 25 33 C14 21 6 8 0 -5 C0 -5 0 -5 0 -5 C-10 -24 -17 -46 -20 -67 L-20 -67 C-22 -75 -23 -82 -23 -89 C-23 -90 -23 -91 -23 -92 C-24 -114 -20 -133 -8 -149 C5 -166 23 -176 46 -178 C61 -180 76 -177 91 -172 C118 -163 141 -148 164 -130 C198 -104 228 -72 256 -39 C295 7 328 57 356 109 C392 173 423 239 451 305 C468 345 484 384 497 424 C502 439 507 455 512 471 C515 481 518 492 521 503 C524 516 526 529 528 541 C530 552 531 564 532 575 C533 592 532 609 527 625 L527 625 Z M124 411 C107 367 90 323 73 279 C56 236 40 194 24 151 C8 110 -7 69 -23 27 C-27 19 -31 10 -34 1 L-42 -17 C-43 -20 -44 -23 -46 -25 C-47 -28 -48 -30 -49 -30 C-50 -30 -49 -24 -49 -18 C-49 -17 -49 -16 -49 -15 C-46 1 -45 18 -42 34 C-39 47 -36 61 -32 74 C-29 87 -25 101 -21 114 C-15 133 -9 152 -2 172 C10 207 25 243 40 277 C66 334 97 389 134 441 C135 442 136 443 137 444 C137 444 137 444 137 444 C133 433 128 422 124 411 L124 411 Z " />
<glyph glyph-name="E" unicode="E" horiz-adv-x="402" d="M339 121 C338 122 337 123 336 124 C330 126 327 124 326 122 C326 122 326 122 326 122 C326 122 326 122 326 122 C326 122 326 122 326 122 L308 96 C301 86 293 75 285 65 L285 65 C285 65 170 -82 86 -157 C76 -166 66 -175 54 -183 C51 -185 48 -188 44 -190 C43 -191 41 -192 40 -192 C40 -192 40 -192 40 -192 L40 -192 C18 -205 -4 -211 -27 -209 C-51 -207 -66 -196 -71 -173 C-74 -160 -73 -145 -71 -131 C-69 -113 -64 -95 -58 -77 C-47 -45 -32 -13 -13 18 C16 68 52 114 93 157 C117 182 141 205 169 226 C182 236 196 245 209 255 C212 257 214 259 217 262 C221 268 219 276 212 277 C210 277 207 277 204 277 C197 276 191 275 184 274 C169 273 155 271 140 270 C124 268 107 268 92 272 C69 277 56 290 54 313 C53 327 54 340 57 353 C61 371 67 388 74 405 C93 448 116 490 142 530 C164 563 188 594 216 622 C234 640 253 656 275 669 C289 677 304 683 319 684 C336 684 352 678 358 657 C362 641 359 625 355 608 C351 590 344 572 335 554 C325 533 313 513 297 495 C295 494 294 492 292 490 C289 486 289 482 292 480 C294 477 299 477 302 479 C304 480 306 482 307 484 C318 495 327 507 335 520 C353 550 366 580 373 613 C376 627 378 641 376 655 C373 674 365 689 347 697 C334 702 319 702 304 698 C282 692 263 681 245 668 C220 650 199 629 180 606 C146 566 117 522 92 477 C70 437 50 397 41 355 C37 340 36 326 37 312 C38 288 48 270 70 260 C87 253 104 251 123 252 C129 252 136 252 142 253 C150 254 158 254 166 255 C172 256 179 257 185 258 C184 257 183 256 182 255 C168 244 154 235 141 224 C91 182 47 133 9 80 C-35 20 -69 -43 -85 -113 C-90 -133 -92 -152 -89 -172 C-86 -193 -77 -210 -58 -220 C-43 -227 -27 -228 -9 -226 C16 -223 39 -213 61 -198 C69 -192 77 -186 84 -179 L84 -179 C126 -150 254 4 254 4 L254 4 C264 15 274 27 284 38 C294 51 304 65 314 78 L327 97 L327 97 L336 111 L338 115 C338 115 340 118 339 121 L339 121 Z " />
<glyph glyph-name="F" unicode="F" horiz-adv-x="375" d="M160 389 C159 388 159 387 159 386 C139 334 119 281 99 228 C82 183 65 138 49 92 C35 55 21 17 8 -20 C0 -43 -8 -66 -16 -90 C-24 -112 -33 -135 -37 -157 C-38 -161 -38 -165 -37 -169 C-36 -172 -34 -174 -31 -176 C-26 -178 -19 -177 -17 -171 C-16 -168 -17 -164 -20 -164 C-23 -163 -23 -160 -23 -158 C-19 -144 -15 -130 -11 -116 C1 -80 14 -45 27 -9 C49 51 71 112 93 172 C120 245 148 318 176 391 C176 393 177 394 179 394 C220 404 260 414 300 422 C315 425 330 427 344 427 C351 427 357 426 359 419 C359 415 363 414 367 415 C370 416 372 419 373 422 C373 424 372 425 372 427 C371 430 369 434 367 436 C363 440 358 441 352 441 C346 442 340 442 334 441 C312 439 289 434 267 429 C245 425 222 419 200 414 C194 412 189 411 183 410 C183 411 184 412 184 413 C210 477 236 542 262 607 C263 609 264 610 267 611 C289 614 311 618 333 621 C354 624 375 627 396 629 C416 631 435 633 455 634 C475 636 495 637 515 638 C533 639 551 640 569 640 C613 642 657 642 700 638 C697 632 702 625 708 624 C714 623 722 629 723 636 C725 647 712 652 701 653 C679 656 657 656 635 656 C539 655 442 651 345 637 C324 634 304 631 283 627 C279 627 274 626 270 626 C270 627 271 628 271 629 C283 657 295 686 307 715 C310 722 313 730 315 737 C317 741 315 744 311 745 C308 747 304 745 301 741 C298 736 294 730 291 724 C290 722 291 719 292 717 C292 716 292 715 292 713 C279 684 267 654 254 625 C254 623 252 622 250 622 C223 617 196 612 168 605 C131 597 94 588 58 578 C56 578 54 577 52 576 C48 574 46 569 48 566 C49 563 53 562 56 563 C61 564 66 566 70 567 C120 580 170 593 220 602 C229 603 238 605 247 607 C246 606 246 605 245 604 C220 539 193 473 167 408 C167 406 166 405 163 405 C136 397 109 390 82 382 C69 379 55 375 42 370 C37 369 31 365 32 360 C32 357 35 354 38 354 C40 354 42 355 44 356 C56 361 68 364 80 367 C92 371 104 374 116 378 C131 382 145 385 160 389 L160 389 Z " />
<glyph glyph-name="G" unicode="G" horiz-adv-x="496" d="M195 -98 C199 -94 201 -91 205 -87 C247 -48 281 -5 313 42 C372 131 421 228 456 329 C483 404 499 481 520 558 C522 562 520 565 517 566 C514 567 509 566 507 563 C507 562 506 561 506 560 C490 508 471 458 447 410 C414 333 370 260 319 191 C298 162 273 134 246 111 C232 95 213 83 193 75 C174 68 155 65 136 70 C113 76 97 89 82 108 C68 125 58 145 52 168 C41 206 37 246 39 285 C38 306 40 325 41 344 C43 362 46 379 49 395 C56 436 69 475 83 513 C100 557 120 599 149 636 C168 663 189 686 216 705 C230 716 248 727 267 731 C289 736 308 734 324 722 C341 711 348 696 353 679 C356 668 359 656 359 643 C359 635 358 626 358 617 C357 612 355 606 353 600 C353 594 354 590 358 589 C361 588 365 590 367 595 C370 606 372 615 371 625 C373 638 372 652 371 666 C367 682 363 698 354 712 C334 739 307 751 273 746 C259 744 245 738 231 731 C204 715 178 693 157 670 C130 638 110 605 93 568 C60 503 39 434 30 363 C26 342 25 322 24 303 C22 288 24 273 24 259 C24 244 26 221 29 208 C33 181 39 155 52 130 C62 109 78 89 95 75 C113 62 131 55 152 54 C168 54 186 58 201 64 C222 74 244 88 260 106 C286 129 309 155 330 183 C387 260 433 342 473 429 C472 430 472 431 473 432 C474 428 473 424 471 421 C448 343 422 270 386 199 C357 137 321 77 282 22 C251 -19 218 -58 178 -91 C176 -93 175 -93 173 -93 C163 -90 152 -87 142 -83 C116 -77 92 -70 67 -68 C42 -67 19 -70 0 -82 C-10 -88 -17 -95 -22 -105 C-33 -121 -33 -139 -20 -155 C-15 -161 -9 -165 0 -169 C17 -177 37 -177 58 -174 C77 -171 94 -164 111 -156 C136 -142 157 -127 177 -111 C179 -110 180 -109 183 -110 C201 -115 218 -121 235 -127 C244 -129 250 -132 257 -134 C260 -135 264 -133 265 -130 C267 -127 266 -124 263 -122 C262 -121 261 -121 260 -121 C250 -117 240 -114 229 -111 C218 -107 206 -103 195 -98 L195 -98 Z M165 -104 C161 -107 157 -111 152 -114 C131 -129 109 -143 84 -154 C68 -159 51 -163 34 -163 C23 -163 13 -161 5 -156 C1 -153 -4 -149 -8 -145 C-18 -137 -19 -125 -13 -114 C-8 -106 0 -99 7 -95 C15 -88 27 -85 40 -82 C60 -80 78 -82 96 -87 C119 -93 143 -98 165 -104 L165 -104 Z " />
<glyph glyph-name="H" unicode="H" horiz-adv-x="430" d="M602 702 C602 715 600 723 596 731 C590 739 581 743 572 741 C564 740 557 736 551 731 C536 720 524 707 513 693 C491 666 473 637 456 607 C414 530 381 451 352 370 C348 359 351 364 347 362 C308 338 269 318 228 300 C228 300 227 300 227 300 C227 301 228 301 228 302 C248 351 266 401 278 452 C283 467 287 483 290 498 C295 518 298 538 299 558 C300 572 301 585 300 598 C301 616 296 634 288 649 C274 675 251 686 218 682 C198 680 180 672 162 662 C136 647 112 627 91 604 C72 585 57 565 44 542 C40 532 35 523 35 512 C34 507 36 504 41 504 C45 505 49 508 50 513 C50 515 49 517 50 519 C53 526 56 533 58 539 C81 578 112 611 150 637 C172 653 195 665 221 667 C240 669 255 664 267 651 C276 640 281 626 284 612 C287 586 285 559 282 532 C279 518 276 504 274 490 C272 483 270 476 269 469 C265 456 262 444 258 432 C253 416 249 400 244 385 C234 355 223 324 209 294 C208 292 206 290 204 289 C170 275 137 260 102 246 C77 235 51 222 29 208 C7 194 -14 177 -31 155 C-47 136 -56 114 -58 91 C-58 74 -55 58 -45 46 C-33 33 -20 27 -1 27 C14 27 29 31 40 37 C65 49 87 66 106 86 C128 110 146 136 161 163 C184 200 201 239 218 277 C219 280 220 281 222 282 C261 299 299 317 336 339 C339 341 341 342 344 344 C342 335 338 327 337 319 C327 286 316 252 309 218 C304 202 302 186 298 170 C295 154 292 138 288 121 C285 100 280 79 277 58 C273 29 267 -1 263 -30 C260 -51 252 -110 251 -124 C251 -134 251 -144 251 -154 C250 -159 251 -163 253 -167 C255 -174 265 -175 271 -171 C274 -169 277 -165 275 -161 C275 -158 272 -157 268 -157 C267 -157 267 -157 266 -157 C266 -155 265 -152 266 -149 C264 -131 267 -113 269 -95 C270 -83 271 -70 274 -58 C276 -43 277 -27 281 -12 C290 42 300 95 309 149 C309 149 309 150 309 150 C313 168 317 185 320 202 C322 210 324 217 326 225 C338 267 348 312 363 354 C364 356 364 357 366 358 C383 370 399 382 416 395 C469 440 513 491 548 549 C579 597 602 645 602 702 L602 702 Z M182 234 C166 202 150 170 130 139 C115 116 97 94 74 76 C58 61 39 50 21 44 C4 40 -11 40 -23 49 C-37 58 -42 72 -43 89 C-43 110 -34 130 -19 148 C-5 167 14 182 34 195 C59 210 85 223 112 234 C140 247 169 259 198 271 C198 271 199 271 200 272 C194 259 187 246 182 234 L182 234 Z M510 517 C474 468 432 424 384 387 C380 385 376 382 372 379 C372 379 371 379 371 379 C375 389 379 400 382 411 C397 447 411 484 429 521 C450 567 474 612 503 655 C515 673 528 691 544 707 C550 713 557 719 564 723 C568 725 572 726 576 726 C579 726 581 725 583 723 C596 710 583 655 577 639 C562 595 538 555 510 517 L510 517 Z " />
<glyph glyph-name="I" unicode="I" horiz-adv-x="358" d="M371 544 C375 561 376 578 376 595 C377 616 375 637 368 657 C354 698 323 719 277 723 C254 725 230 720 206 709 C167 692 132 668 102 636 C91 624 80 612 72 598 C64 586 53 566 58 551 C59 546 64 545 68 547 C73 549 75 552 75 557 C74 577 87 595 99 610 C124 641 155 665 189 684 C220 701 250 710 282 705 C304 702 323 693 337 676 C350 661 356 641 358 620 C361 592 359 564 353 536 C350 518 346 500 342 483 C337 465 332 448 327 431 C321 414 316 397 310 381 C301 355 291 330 282 304 C261 251 238 199 212 147 C201 126 190 106 179 86 C179 85 177 83 176 83 C176 83 176 83 176 83 C176 83 175 82 175 82 C165 79 154 77 144 74 C105 61 66 45 28 29 C-12 11 -50 -10 -85 -38 C-105 -54 -122 -72 -137 -92 C-146 -107 -153 -121 -154 -137 C-156 -153 -151 -167 -140 -176 C-124 -191 -102 -193 -77 -189 C-56 -185 -36 -176 -16 -164 C20 -141 51 -113 80 -82 C116 -44 146 -2 172 42 C177 49 181 57 185 63 C184 62 192 61 193 61 C195 61 197 63 198 64 C202 67 202 71 200 75 C198 79 194 80 197 85 C230 146 259 208 285 271 C295 294 303 317 312 340 C319 357 325 375 331 392 C336 407 341 421 345 436 C350 453 355 470 359 487 C364 506 368 525 371 544 L371 544 Z M16 -122 C-4 -138 -25 -153 -49 -163 C-65 -171 -82 -175 -99 -174 C-117 -173 -134 -164 -137 -144 C-139 -132 -135 -119 -127 -107 C-118 -90 -105 -77 -91 -64 C-61 -36 -28 -14 8 2 C54 24 102 43 150 59 C154 61 159 62 164 63 L164 63 C164 63 164 63 164 63 C165 64 165 64 166 64 C167 64 167 64 167 64 C151 36 134 10 115 -16 C87 -55 54 -90 16 -122 L16 -122 Z " />
<glyph glyph-name="J" unicode="J" horiz-adv-x="480" d="M469 600 C463 638 447 669 419 693 C399 710 375 720 347 722 C327 724 307 722 287 717 C227 701 174 670 128 625 C108 606 92 584 84 559 C81 547 81 535 86 524 C89 520 93 519 97 522 C102 524 104 529 102 534 C97 544 99 555 104 566 C110 581 120 595 132 607 C158 635 188 657 221 675 C254 692 287 704 321 706 C341 708 360 705 377 698 C410 684 431 660 443 628 C453 604 456 578 456 551 C457 527 456 501 453 476 C451 461 449 446 446 431 C442 412 438 392 433 373 C430 363 427 352 423 341 C416 322 409 303 402 283 C400 278 397 274 395 269 C395 269 390 269 380 270 C379 270 377 270 376 270 C376 270 376 270 376 270 C373 271 370 271 367 271 C362 272 356 272 350 272 C349 272 348 272 347 272 C299 274 227 272 171 253 L171 253 C163 251 155 248 148 245 C134 240 121 234 108 228 C108 228 108 228 107 228 C77 213 47 195 19 175 C18 175 18 175 18 175 C13 171 9 168 4 164 C-38 132 -76 95 -107 53 C-137 11 -160 -32 -169 -79 C-172 -96 -173 -112 -170 -127 C-166 -153 -154 -174 -132 -187 C-114 -198 -92 -201 -69 -200 C-52 -199 -36 -195 -19 -190 C23 -178 62 -157 99 -131 C135 -106 168 -77 198 -46 C281 39 347 133 397 236 C399 240 401 244 403 248 C409 246 410 245 409 239 C408 235 410 233 413 231 C418 230 424 234 426 240 C428 248 426 254 421 259 C418 261 414 263 411 265 C411 265 411 265 411 265 C423 293 434 321 442 350 C447 366 452 382 456 399 C459 414 462 430 465 445 C467 455 469 465 469 475 C471 490 472 505 473 520 C474 547 473 574 469 600 L469 600 Z M376 227 C333 142 278 62 211 -11 C179 -46 145 -78 107 -107 C71 -134 33 -157 -9 -171 C-26 -177 -43 -181 -61 -183 C-87 -186 -111 -182 -129 -167 C-146 -154 -153 -135 -154 -113 C-156 -96 -153 -78 -148 -61 C-139 -29 -124 2 -104 31 C-74 75 -37 113 6 147 C54 185 107 215 163 234 C185 242 207 248 230 250 C256 254 283 255 310 256 C323 256 336 256 350 255 C362 255 376 255 388 252 C384 244 380 235 376 227 L376 227 Z " />
<glyph glyph-name="K" unicode="K" horiz-adv-x="292" d="M435 -168 C434 -166 434 -165 433 -163 C428 -158 399 -131 394 -126 C370 -105 370 -105 346 -84 C255 -4 159 72 76 160 C70 166 65 173 59 179 C59 180 59 180 59 180 C64 186 69 192 74 198 C142 276 213 352 284 428 C334 481 383 534 433 587 C474 631 516 674 557 718 C558 719 559 720 559 721 C561 724 560 727 559 729 C557 731 554 731 551 730 C549 729 548 728 546 726 C536 716 526 705 516 695 C465 640 413 585 362 530 C316 482 271 433 226 385 C178 334 131 282 84 230 C80 225 76 220 71 215 C71 215 72 216 72 217 C106 282 133 349 150 419 C154 433 157 447 160 461 C163 476 165 491 166 506 C168 522 169 537 169 552 C169 576 167 599 160 621 C153 646 142 668 123 685 C107 699 88 707 65 709 C44 711 23 707 3 697 C-34 681 -64 655 -85 619 C-92 608 -103 582 -90 571 C-87 569 -83 570 -80 572 C-77 575 -76 579 -78 582 C-85 591 -78 605 -73 614 C-55 644 -31 666 0 681 C23 693 47 698 70 693 C96 689 115 675 129 654 C140 637 147 617 151 595 C155 573 155 550 154 526 C153 512 152 499 150 485 C147 468 143 451 140 434 C136 419 132 405 128 390 C122 370 115 350 108 331 C96 299 82 268 67 237 C67 237 67 237 67 237 C51 206 37 174 14 148 C-12 116 -38 84 -63 52 C-73 38 -84 25 -94 11 C-103 0 -111 -10 -119 -21 C-123 -27 -146 -50 -137 -57 C-129 -63 -120 -50 -115 -45 C-79 -9 -47 32 -17 74 C0 97 16 121 31 145 C36 153 42 160 48 168 C49 167 50 166 50 165 C81 129 116 98 151 67 C189 34 226 1 263 -32 C269 -37 274 -42 280 -47 C299 -63 317 -80 335 -96 C353 -112 372 -128 390 -144 C401 -154 412 -164 422 -174 C422 -175 422 -175 423 -176 C425 -177 428 -177 431 -175 C433 -174 435 -171 435 -168 L435 -168 Z " />
<glyph glyph-name="L" unicode="L" horiz-adv-x="256" d="M-31 -20 C-10 0 10 20 28 44 C65 91 95 143 120 197 C136 231 150 266 162 301 C165 309 167 317 170 325 C201 422 225 533 203 635 C195 671 180 707 149 726 C123 743 90 743 60 735 C31 726 5 708 -19 689 C-50 664 -79 635 -91 597 C-92 593 -93 588 -92 584 C-91 580 -86 576 -82 578 C-77 580 -76 586 -76 591 C-74 605 -66 618 -57 630 C-32 663 1 691 38 709 C65 722 95 730 123 720 C155 709 174 676 184 643 C205 571 194 492 179 420 C176 405 172 389 168 373 C164 357 159 341 154 325 C143 291 130 257 116 224 C92 169 63 116 26 66 C6 38 -17 11 -44 -12 C-46 -14 -47 -14 -49 -13 C-72 -4 -97 3 -123 6 C-137 8 -151 8 -165 5 C-177 2 -188 -2 -198 -12 C-205 -19 -209 -27 -210 -36 C-211 -47 -207 -56 -200 -63 C-189 -74 -174 -78 -158 -79 C-140 -80 -122 -76 -104 -68 C-84 -60 -66 -49 -48 -35 C-46 -33 -44 -33 -42 -34 C-33 -38 -24 -41 -15 -45 C22 -62 59 -80 97 -96 C133 -113 170 -128 208 -138 C237 -146 265 -152 294 -159 C312 -163 330 -166 348 -169 C359 -171 370 -172 382 -173 C392 -174 402 -175 413 -173 C422 -171 437 -163 435 -152 C434 -150 432 -148 429 -147 C425 -147 423 -150 421 -152 C418 -155 414 -157 409 -158 C404 -159 398 -158 393 -158 C387 -158 382 -157 376 -157 C365 -156 354 -155 343 -153 C305 -148 267 -139 230 -128 C194 -117 158 -104 123 -90 C107 -83 92 -76 77 -69 C41 -53 5 -36 -31 -20 L-31 -20 Z M-61 -26 C-69 -32 -76 -36 -83 -41 C-99 -51 -117 -58 -135 -62 C-151 -65 -166 -64 -179 -57 C-184 -55 -188 -51 -191 -47 C-197 -36 -194 -25 -182 -18 C-175 -13 -166 -11 -158 -10 C-134 -6 -112 -11 -91 -17 C-82 -19 -74 -22 -65 -25 C-64 -25 -63 -26 -61 -26 L-61 -26 Z " />
<glyph glyph-name="M" unicode="M" horiz-adv-x="650" d="M224 572 C224 596 226 621 213 642 C203 657 189 663 169 659 C158 657 148 652 139 646 C114 630 95 609 78 585 C71 577 66 568 63 559 C62 554 61 550 63 546 C65 543 69 542 72 544 C78 547 78 556 80 562 C82 570 88 577 94 584 C104 598 118 611 131 623 C149 638 184 660 200 632 C207 621 210 608 210 595 C210 588 211 581 210 574 C210 567 210 560 208 554 C204 545 196 538 190 531 C183 522 176 514 170 505 C90 400 25 287 -22 166 C-40 123 -54 80 -63 35 C-67 18 -68 2 -67 -14 C-67 -23 -65 -31 -61 -38 C-54 -47 -45 -49 -34 -44 C-29 -42 -23 -38 -19 -34 C-4 -23 5 -8 15 7 C35 37 51 69 66 101 C94 159 119 218 143 278 C165 334 185 390 201 448 C206 468 211 487 215 508 C218 520 219 530 223 545 C223 546 223 549 223 550 C226 553 230 556 232 560 C235 563 239 567 242 571 C248 578 256 586 262 593 C276 607 290 621 304 634 C328 656 353 676 381 694 C394 703 407 711 422 715 C427 716 432 717 437 717 C446 717 451 711 453 703 C455 695 455 686 454 678 C452 657 447 637 441 616 C433 593 426 569 418 545 C409 519 400 492 391 465 C382 438 373 410 363 382 C354 356 347 330 338 303 C329 277 321 250 312 224 C305 202 298 179 290 157 C285 140 279 123 273 106 C271 98 268 90 266 82 C264 78 266 75 269 74 C273 73 277 74 279 78 C279 79 281 81 281 82 C284 91 287 101 291 110 C297 128 305 145 313 163 C354 255 404 344 461 430 C495 480 531 529 572 574 C578 580 584 586 590 592 C598 601 609 610 619 617 C624 622 630 626 637 629 C640 631 643 632 647 633 C650 634 653 635 656 633 C657 633 657 632 658 632 C661 629 662 625 663 621 C664 617 664 612 664 608 C663 599 661 590 659 581 C656 568 653 554 649 541 C642 521 637 501 630 481 C621 455 612 428 603 402 C595 376 586 351 578 325 C573 307 567 289 561 272 C558 259 553 246 550 233 C547 222 544 211 542 200 C540 191 537 183 535 174 C533 164 530 153 528 143 C525 135 524 127 522 119 C520 110 517 101 516 93 C514 83 511 74 510 65 C507 54 504 42 502 31 C499 20 497 9 495 -1 C492 -15 489 -29 486 -43 C484 -55 481 -68 479 -80 C476 -96 473 -111 470 -127 C469 -139 467 -150 467 -162 C466 -167 466 -172 467 -177 C467 -180 470 -182 474 -182 C477 -183 479 -181 481 -179 C482 -177 483 -175 482 -173 C482 -172 482 -170 482 -169 C481 -165 481 -159 482 -154 C484 -138 486 -122 489 -106 C490 -92 494 -78 496 -64 C498 -57 499 -50 500 -44 C502 -34 505 -24 506 -15 C508 -7 510 1 512 9 C513 20 517 30 519 40 C520 48 522 55 524 62 C526 73 529 84 531 95 C533 106 536 116 538 127 C542 139 544 151 547 163 C550 175 553 188 557 201 C560 215 564 230 568 244 C574 263 579 283 585 301 C595 330 604 358 613 386 C625 421 637 456 648 491 C657 517 665 544 671 571 C675 586 678 600 678 615 C678 622 677 630 674 636 C670 646 660 650 648 648 C638 646 629 641 619 635 C599 621 581 604 565 586 C535 553 506 518 481 482 C424 403 375 321 331 235 C331 234 330 233 330 232 C330 232 330 232 330 232 C329 232 329 232 329 232 C330 234 330 237 331 239 C332 241 332 243 333 246 C337 255 340 265 343 275 C351 300 359 325 367 349 C376 374 384 399 393 425 C402 453 412 481 421 510 C429 531 436 553 442 574 C448 592 454 610 458 627 C462 639 464 651 467 663 C468 671 469 679 469 687 C470 696 469 705 465 713 C461 726 451 732 438 732 C428 732 417 729 408 724 C387 716 369 704 350 690 C346 687 342 684 338 680 C318 664 298 647 279 629 C270 620 261 611 252 601 C247 597 243 592 239 587 C237 585 234 582 232 580 C230 578 229 577 228 576 C227 575 224 573 224 572 L224 572 Z M205 527 C203 521 202 514 201 508 C200 500 198 494 196 485 C194 475 191 465 188 455 C183 440 180 425 175 410 C168 388 160 365 152 343 C128 275 101 209 71 143 C53 106 36 68 14 32 C4 15 -5 -2 -20 -17 C-23 -21 -27 -24 -32 -28 C-33 -29 -35 -30 -36 -31 C-42 -33 -47 -32 -48 -28 C-51 -23 -52 -17 -53 -11 C-53 4 -52 20 -48 36 C-46 47 -44 58 -41 69 C-36 84 -33 99 -27 113 C14 237 78 353 155 463 C170 484 187 504 202 524 C203 525 204 526 205 527 L205 527 Z " />
<glyph glyph-name="N" unicode="N" horiz-adv-x="408" d="M465 673 C466 682 465 691 461 699 C454 713 443 717 428 715 C420 714 412 711 404 707 C384 697 366 683 349 668 C315 639 284 607 255 573 C206 516 162 456 120 394 C117 388 113 382 108 375 C108 375 107 375 107 376 C110 391 113 405 116 420 C119 435 122 450 125 465 C127 480 130 495 132 510 C134 528 135 545 136 562 C137 574 137 587 138 599 C138 614 137 629 135 643 C132 665 126 685 114 702 C102 718 85 727 63 727 C50 726 37 722 25 716 C-1 704 -23 687 -43 666 C-53 655 -63 644 -69 630 C-72 625 -73 621 -73 615 C-74 610 -71 606 -67 604 C-64 603 -60 604 -58 607 C-55 610 -55 613 -58 616 C-59 617 -59 619 -58 621 C-55 626 -53 630 -50 635 C-29 665 -1 688 32 704 C41 709 52 712 62 712 C74 713 84 709 93 702 C99 697 104 689 108 681 C116 666 119 649 121 632 C124 606 123 580 121 554 C120 536 117 517 115 499 C115 495 114 490 114 486 C112 475 110 464 108 454 C107 446 105 439 104 432 C102 422 100 412 98 402 C96 393 94 384 92 376 C90 365 87 355 84 344 C83 339 82 334 80 329 C61 299 44 268 28 237 C1 184 -25 129 -41 72 C-47 54 -51 36 -51 18 C-51 12 -51 7 -48 2 C-45 -2 -39 -4 -34 -2 C-31 -1 -27 1 -25 3 C-21 8 -16 13 -12 18 C-4 31 2 44 8 58 C26 98 41 140 54 183 C63 209 70 236 78 263 C83 280 88 298 92 316 C94 321 95 326 97 331 C130 385 166 438 205 488 C243 538 283 586 328 630 C347 649 367 667 389 682 C400 689 411 696 424 699 C428 701 433 701 437 701 C444 700 447 695 448 689 C451 680 451 671 450 661 C449 650 446 637 444 626 C438 602 431 579 422 557 C406 513 390 470 373 427 C346 358 317 289 293 220 C282 187 271 154 261 122 C254 101 249 79 243 58 C238 39 233 21 228 2 C224 -15 220 -33 215 -50 C212 -64 209 -78 206 -92 C203 -104 201 -116 198 -129 C196 -140 195 -152 194 -164 C194 -168 194 -172 196 -175 C197 -179 201 -181 205 -181 C208 -180 212 -177 213 -173 C215 -169 213 -165 210 -163 C209 -162 209 -161 209 -160 C210 -148 211 -137 213 -125 C216 -110 220 -96 223 -81 C227 -64 231 -47 235 -29 C241 -6 247 17 253 41 C261 69 268 96 276 124 C291 173 308 222 327 271 C349 328 372 384 394 441 C415 496 437 550 453 606 C457 619 460 632 462 645 C464 654 465 663 465 673 L465 673 Z M68 280 C68 280 68 279 68 279 C67 277 67 275 66 273 C65 270 64 266 63 263 C59 249 55 236 51 223 L51 223 C51 223 51 223 51 222 C47 208 43 194 38 180 C27 144 15 110 1 75 C1 75 1 75 1 75 C-17 32 -30 16 -35 13 C-35 13 -35 12 -36 12 L-36 12 C-38 11 -37 21 -35 34 C-35 34 -35 34 -35 34 C-34 39 -34 44 -33 49 C-32 52 -31 55 -30 58 C-30 58 -30 58 -30 58 C-28 66 -26 74 -23 82 C-23 82 -23 82 -23 82 C-11 120 5 157 22 193 C22 193 22 193 22 193 C24 196 25 200 27 203 C27 203 27 203 27 203 C32 212 37 222 41 232 C48 245 55 258 62 271 C63 271 63 272 63 272 C63 272 63 272 63 272 C63 272 63 272 63 272 L68 282 C68 282 68 280 68 280 L68 280 Z " />
<glyph glyph-name="O" unicode="O" horiz-adv-x="530" d="M-11 90 C-10 108 -7 126 -3 145 C-2 156 0 168 2 179 C8 199 12 220 19 240 C28 269 39 297 52 324 C74 370 100 414 138 450 C152 463 168 474 185 482 C197 488 210 492 224 490 C229 490 234 488 238 484 C244 477 244 443 258 450 C261 451 263 455 262 458 C261 464 260 469 259 474 C254 496 240 505 223 506 C212 506 201 504 190 500 C168 492 150 479 132 463 C106 440 86 413 68 385 C37 334 16 280 0 224 C-7 200 -13 177 -17 153 C-19 140 -22 128 -23 115 C-26 101 -26 87 -28 73 C-28 59 -30 46 -29 33 C-29 16 -28 -1 -25 -18 C-21 -49 -13 -79 1 -106 C15 -131 33 -152 59 -165 C81 -177 105 -180 131 -177 C150 -174 168 -167 185 -157 C217 -139 244 -115 269 -89 C297 -59 322 -26 343 8 C385 78 420 151 448 227 C468 281 482 336 493 392 C495 409 498 425 500 441 C502 459 504 476 504 494 C505 507 504 521 504 534 C503 559 500 583 493 607 C485 636 474 663 457 686 C374 794 219 669 160 591 C144 571 128 550 117 527 C114 520 112 513 112 505 C112 501 114 498 118 498 C129 498 128 509 130 516 C133 525 138 533 143 540 C150 553 159 565 167 577 C207 632 264 684 330 705 C352 712 376 714 398 708 C471 688 491 585 491 519 C492 441 475 364 453 290 C438 241 420 193 399 146 C377 97 351 48 322 2 C283 -57 232 -119 168 -149 C96 -183 31 -144 5 -76 C-9 -39 -15 3 -14 44 C-13 59 -13 75 -11 90 L-11 90 Z " />
<glyph glyph-name="P" unicode="P" horiz-adv-x="440" d="M451 544 C454 557 453 569 453 582 C452 606 447 629 437 651 C426 676 410 696 387 710 C369 720 349 726 327 727 C314 728 301 727 288 725 C266 722 244 715 223 705 C176 683 133 653 96 615 C70 588 48 559 32 526 C26 512 19 497 19 481 C18 476 18 470 20 465 C22 463 24 461 26 459 C28 458 32 459 34 461 C36 464 37 467 35 469 C33 471 32 474 33 476 C29 492 43 519 51 534 C52 535 52 536 53 537 C53 537 53 537 53 538 C53 538 54 539 54 540 C56 543 57 544 57 544 L57 544 C62 553 68 561 74 570 C98 602 127 629 159 653 C184 671 211 687 239 698 C270 710 300 717 332 713 C347 711 361 707 373 701 C399 687 416 666 427 639 C440 607 441 572 438 536 C437 528 435 519 434 511 C433 502 431 494 429 486 C425 472 421 457 416 443 C401 395 380 349 352 304 C326 263 296 225 259 191 C239 173 217 156 193 143 C171 132 149 125 126 126 C113 127 101 131 92 139 C82 149 75 161 72 175 C67 195 65 216 67 238 C69 251 70 265 73 278 C75 292 79 306 82 320 C88 338 93 356 99 374 C110 405 121 436 132 466 C134 473 137 480 139 487 C140 491 138 494 134 495 C131 496 128 494 125 491 C124 488 122 486 121 483 C108 459 99 435 91 411 C81 384 72 356 63 329 C55 304 47 279 40 255 C34 239 30 223 25 206 C21 193 18 180 14 167 C11 156 8 144 5 133 C2 121 -2 109 -5 96 C-8 85 -11 74 -14 63 C-16 53 -19 44 -22 34 C-24 25 -26 16 -29 7 C-31 -2 -33 -11 -35 -20 C-37 -29 -40 -38 -42 -47 C-44 -56 -47 -64 -48 -72 C-50 -80 -53 -89 -54 -97 C-56 -106 -59 -115 -61 -125 C-62 -133 -65 -142 -66 -150 C-68 -159 -70 -167 -70 -175 C-71 -181 -68 -185 -64 -186 C-61 -187 -57 -186 -55 -183 C-53 -180 -53 -177 -56 -174 C-56 -174 -57 -173 -57 -173 C-56 -169 -55 -165 -54 -161 C-53 -152 -51 -142 -49 -132 C-47 -123 -44 -114 -42 -104 C-40 -94 -37 -84 -35 -74 C-32 -63 -29 -52 -27 -41 C-24 -29 -21 -17 -17 -5 C-15 8 -11 21 -8 33 C-4 46 -1 59 2 71 C5 85 10 98 12 111 C17 125 20 138 24 151 C27 165 31 178 34 192 C39 207 44 223 48 238 C51 247 54 255 56 263 C56 263 56 263 56 263 L56 264 L56 262 C56 262 56 262 56 261 C54 246 53 231 52 215 C53 199 54 182 59 167 C63 153 69 140 80 130 C98 113 121 109 147 114 C169 117 189 126 208 137 C242 157 271 182 297 211 C333 249 361 291 385 336 C414 390 435 446 447 503 C449 517 450 530 451 544 L451 544 Z " />
<glyph glyph-name="Q" unicode="Q" horiz-adv-x="472" d="M303 20 C304 15 305 10 305 5 C308 -14 310 -32 313 -51 C318 -92 324 -132 328 -173 C328 -176 328 -180 330 -183 C331 -186 334 -187 338 -186 C341 -185 344 -182 344 -178 C345 -172 344 -166 344 -160 C341 -137 339 -114 336 -92 C333 -71 330 -50 327 -29 C325 -16 323 -2 321 12 C319 18 319 25 317 32 C317 35 316 38 316 41 C317 44 318 46 319 49 C322 53 324 57 326 61 C330 69 334 77 338 85 C350 108 361 132 371 157 C391 205 407 253 420 302 C425 325 430 348 435 371 C438 386 440 402 442 418 C444 434 446 451 446 467 C447 482 447 497 447 511 C447 532 444 552 441 573 C434 606 424 637 405 666 C390 689 371 708 346 720 C324 730 301 734 276 728 C248 721 226 705 209 681 C190 656 181 627 177 597 C175 579 175 560 175 542 C177 521 179 500 182 479 C189 441 199 404 209 368 C225 316 241 264 257 212 C273 158 287 103 298 47 C298 46 298 43 297 42 C285 21 272 1 259 -19 C241 -45 221 -70 196 -91 C183 -104 168 -115 151 -122 C128 -131 106 -132 86 -121 C70 -112 59 -99 50 -84 C34 -58 26 -29 21 2 C17 25 14 50 15 74 C15 90 14 106 16 121 C17 145 20 168 23 191 C25 205 27 220 30 234 C34 253 38 273 43 292 C53 332 65 371 81 410 C87 426 93 442 101 457 C109 474 118 491 128 507 C128 508 129 508 129 508 C129 508 129 508 129 508 C136 506 143 507 143 515 C143 521 142 530 135 532 C128 534 123 527 119 522 C109 507 100 492 92 476 C58 406 35 333 18 258 C14 239 11 220 8 201 C5 185 3 169 2 153 C0 138 -1 124 -1 109 C-2 96 -3 82 -2 68 C-1 51 0 33 2 16 C5 -14 12 -43 24 -70 C33 -92 46 -112 65 -127 C83 -142 104 -148 129 -145 C145 -142 160 -136 175 -127 C199 -113 219 -93 238 -72 C246 -63 253 -54 261 -44 C268 -34 276 -23 283 -12 C286 -7 290 -2 293 4 C295 6 296 9 298 11 C299 13 300 14 301 16 C301 17 303 19 303 20 L303 20 Z M311 67 C310 73 308 79 307 85 C292 156 272 225 250 294 C235 340 221 386 209 434 C202 464 196 495 193 526 C192 540 192 554 192 567 C192 580 193 592 195 604 C200 634 210 661 232 685 C248 701 266 711 287 714 C306 716 323 712 339 704 C362 693 379 676 392 655 C409 628 419 599 424 567 C428 548 430 529 431 509 C431 495 431 480 430 465 C429 450 428 435 426 420 C424 406 422 393 420 379 C416 359 412 339 407 319 C399 285 389 253 378 220 C360 169 339 119 313 71 C313 70 312 69 312 68 C312 68 311 68 311 67 L311 67 Z " />
<glyph glyph-name="R" unicode="R" horiz-adv-x="412" d="M468 636 C469 639 469 641 469 644 C470 646 471 649 471 651 C473 680 463 701 439 713 C419 724 395 726 370 724 C353 723 335 719 318 714 C276 702 235 683 195 661 C158 641 122 618 90 589 C71 572 53 554 40 533 C35 524 30 515 29 505 C29 502 30 499 30 496 C32 493 36 493 40 495 C43 497 46 500 46 504 C45 507 46 510 48 513 C51 521 55 528 60 535 C76 559 98 579 122 597 C176 638 235 669 297 691 C324 701 352 708 378 709 C394 709 408 707 422 702 C448 692 459 669 452 639 C449 622 441 606 433 590 C416 560 394 532 371 505 C334 462 292 423 250 385 C215 353 180 321 145 289 C131 277 118 263 105 248 C90 228 83 208 86 186 C88 169 95 153 101 138 C117 108 137 80 156 53 C200 -4 244 -59 290 -112 C305 -130 320 -146 336 -162 C349 -176 364 -194 384 -199 C390 -200 401 -200 403 -192 C405 -182 393 -184 387 -182 C379 -179 371 -171 365 -165 C356 -158 349 -150 342 -142 C327 -127 312 -110 298 -93 C260 -50 224 -5 189 41 C168 69 146 97 129 128 C119 143 111 159 105 176 C102 186 101 197 102 208 C104 220 110 230 118 240 C129 254 141 266 154 278 C193 313 231 348 270 383 C303 413 335 443 365 476 C392 506 418 537 440 572 C452 593 463 614 468 636 L468 636 Z M140 498 C141 502 141 506 141 509 C142 513 141 516 138 517 C132 520 126 516 123 508 C122 502 121 496 120 489 C120 487 119 485 119 482 C117 475 115 467 112 460 C110 451 107 443 104 435 C102 424 98 414 95 403 C92 395 90 388 87 380 C84 369 80 358 77 347 C75 339 72 331 69 323 C67 315 64 306 61 298 C59 290 56 281 54 273 C52 264 48 255 45 246 C42 237 40 228 37 219 C34 208 31 198 28 188 C26 181 24 175 22 168 C19 158 16 147 12 137 C11 130 8 123 7 117 C4 107 0 96 -3 86 C-6 76 -8 66 -11 57 C-14 46 -18 35 -21 24 C-22 18 -25 11 -26 5 C-30 -6 -33 -16 -36 -27 C-39 -34 -40 -40 -43 -47 C-45 -57 -48 -68 -52 -78 C-55 -88 -58 -97 -60 -106 C-63 -116 -66 -126 -69 -136 C-71 -143 -74 -150 -76 -157 C-78 -162 -76 -166 -71 -167 C-66 -168 -61 -164 -60 -158 C-58 -153 -57 -147 -54 -142 C-51 -132 -49 -122 -46 -113 C-43 -106 -42 -99 -40 -93 C-36 -82 -34 -72 -31 -62 C-28 -55 -27 -49 -24 -42 C-21 -31 -19 -21 -15 -10 C-13 -4 -12 3 -9 10 C-6 20 -2 31 1 42 C2 48 5 55 6 62 C9 72 13 83 16 93 C18 100 20 107 21 113 C25 124 28 134 31 145 C34 154 36 164 39 173 C43 184 46 194 49 204 C51 211 53 217 54 223 C57 233 61 243 64 252 C66 261 69 269 72 277 C74 286 77 294 80 303 C82 311 84 319 87 328 C91 338 93 349 97 359 C100 369 104 380 107 390 C111 403 115 415 119 428 C122 439 126 450 129 461 C133 474 137 486 140 498 L140 498 Z " />
<glyph glyph-name="S" unicode="S" horiz-adv-x="402" d="M136 -44 C112 -44 88 -37 71 -20 C55 -3 47 20 48 42 C48 56 51 69 56 83 C61 96 66 109 73 122 C80 135 89 147 97 159 C101 165 104 172 110 177 C113 179 116 180 119 183 C124 187 136 205 129 211 C126 213 123 214 120 212 C118 211 116 209 115 208 C89 178 67 146 50 111 C37 84 30 56 32 28 C34 2 44 -19 63 -35 C83 -53 108 -61 136 -61 C147 -61 158 -60 168 -58 C215 -49 259 -30 297 1 C314 15 329 31 339 50 C347 66 352 82 351 99 C350 117 342 132 331 145 C319 160 302 172 285 182 C261 196 235 207 209 218 C180 230 151 241 123 256 C104 266 86 277 71 292 C47 316 39 347 47 382 C51 403 60 422 71 440 C90 475 116 505 144 534 C194 586 250 629 311 666 C334 679 357 692 382 701 C394 705 406 708 418 708 C428 708 434 704 435 693 C435 687 435 680 433 674 C430 663 426 651 421 639 C394 577 365 516 336 454 C322 424 307 393 293 362 C288 353 285 343 285 334 C285 328 291 323 296 326 C302 328 303 338 304 343 C308 360 316 375 323 391 C331 407 339 424 347 441 C363 475 380 510 396 544 C411 577 426 610 440 643 C446 658 452 675 452 690 C452 702 447 714 438 720 C423 729 402 724 387 719 C362 712 339 700 317 687 C262 656 212 620 166 577 C132 547 102 514 76 477 C55 447 37 416 30 380 C28 368 26 355 28 343 C31 315 44 293 64 275 C81 259 102 247 123 237 C152 223 182 211 211 198 C236 188 260 178 282 164 C297 154 311 144 322 130 C335 111 339 89 329 66 C322 49 310 35 297 22 C274 1 249 -14 221 -26 C196 -36 170 -43 143 -44 C140 -44 138 -44 136 -44 L136 -44 Z " />
<glyph glyph-name="T" unicode="T" horiz-adv-x="185" d="M190 648 C186 632 178 617 172 601 C159 564 145 527 132 489 C122 460 112 430 102 400 C96 380 89 359 83 339 C77 321 71 302 65 284 C59 262 52 241 45 220 C39 200 33 181 27 162 C22 144 16 126 10 107 C5 90 0 73 -5 56 C-10 41 -14 26 -19 12 C-23 -4 -28 -19 -32 -34 C-36 -47 -40 -61 -44 -74 C-47 -85 -50 -96 -53 -107 C-56 -118 -59 -129 -62 -140 C-64 -150 -72 -170 -66 -180 C-62 -188 -45 -188 -46 -177 C-46 -174 -48 -172 -50 -171 C-51 -171 -52 -170 -52 -170 C-52 -169 -52 -168 -52 -168 C-49 -145 -42 -123 -35 -101 C-30 -80 -24 -59 -18 -39 C-12 -17 -5 5 2 27 C10 54 18 82 27 109 C36 139 46 170 55 200 C63 226 71 252 80 279 C88 304 96 330 104 356 C112 381 120 407 129 433 C141 467 152 501 165 535 C178 573 193 611 207 649 C208 651 208 652 210 652 C232 655 253 659 275 662 C295 665 316 667 335 671 C367 676 398 681 430 686 C471 693 511 700 552 706 C592 713 633 719 673 723 C678 724 684 724 688 723 C693 722 695 718 700 722 C704 724 705 729 702 732 C698 740 690 740 682 739 C674 739 666 738 657 737 C637 734 618 731 598 728 C578 725 557 723 537 720 C430 703 322 685 215 668 C215 669 215 670 215 670 C219 680 249 740 234 745 C222 748 215 728 211 720 C210 718 209 716 210 714 C210 712 211 711 212 710 C213 709 214 709 214 708 C214 708 214 707 213 707 C208 694 203 681 198 668 C197 666 196 665 194 665 C176 661 158 658 139 655 C108 650 76 644 44 637 C6 630 -32 622 -70 613 C-87 609 -105 605 -122 601 C-131 599 -139 596 -148 594 C-156 593 -164 589 -172 590 C-174 591 -175 591 -177 591 C-182 590 -189 583 -185 577 C-182 574 -175 574 -171 574 C-171 574 -170 575 -170 575 C-150 578 -131 583 -111 587 C-91 592 -71 597 -51 601 C-11 610 29 619 69 626 C89 630 110 634 130 638 C140 640 150 641 160 643 C165 644 170 645 175 646 C177 646 190 647 190 648 L190 648 Z " />
<glyph glyph-name="U" unicode="U" horiz-adv-x="525" d="M443 336 C443 335 443 335 443 335 C435 309 427 284 421 258 C408 213 395 168 383 122 C373 85 364 49 354 12 C348 -12 342 -36 337 -60 C332 -79 328 -98 325 -117 C323 -128 322 -140 321 -151 C321 -159 324 -165 329 -171 C331 -173 334 -174 337 -173 C344 -172 348 -164 342 -158 C339 -155 338 -152 338 -147 C340 -136 341 -124 343 -113 C347 -92 352 -72 356 -51 C366 -14 374 23 384 60 C397 110 410 160 424 209 C444 280 464 350 487 419 C494 437 499 454 507 472 C515 494 526 516 535 538 C552 574 567 611 580 649 C581 656 584 664 584 672 C586 677 583 680 579 682 C575 683 571 681 568 677 C566 676 565 674 564 672 C562 667 559 662 557 657 C540 610 522 564 504 517 C497 500 493 483 485 467 C460 412 433 356 407 301 C366 219 326 136 283 55 C257 7 230 -41 198 -86 C180 -112 161 -137 136 -158 C125 -168 113 -176 100 -181 C83 -187 68 -185 55 -174 C50 -169 45 -164 41 -158 C29 -139 22 -118 18 -96 C9 -55 7 -12 8 31 C9 59 12 87 14 115 C15 130 18 145 19 161 C22 176 24 192 27 207 C31 226 35 246 39 265 C48 301 57 337 65 373 C80 427 96 480 114 533 C132 590 152 647 178 702 C179 704 180 705 182 707 C185 709 186 712 186 715 C186 717 186 719 186 721 C186 726 184 730 179 730 C175 731 171 728 169 723 C168 721 166 719 166 716 C148 678 132 639 118 599 C96 539 77 478 59 416 C50 381 41 345 31 310 C27 289 22 268 18 248 C15 233 12 218 9 203 C7 189 5 176 3 162 C0 145 -2 128 -3 110 C-6 97 -7 83 -8 70 C-9 54 -9 38 -10 22 C-10 11 -10 -1 -9 -13 C-8 -29 -7 -45 -5 -61 C-3 -85 2 -108 9 -131 C16 -150 24 -168 38 -182 C57 -203 82 -207 111 -195 C126 -188 140 -177 154 -165 C179 -142 200 -114 219 -86 C249 -43 274 2 298 47 C344 133 386 221 429 309 C434 317 437 327 443 336 L443 336 Z " />
<glyph glyph-name="V" unicode="V" horiz-adv-x="416" d="M550 725 C548 729 543 731 539 730 C527 726 538 713 538 706 C538 698 534 687 531 679 C518 644 502 611 486 577 C441 487 393 398 344 309 C314 255 284 202 250 150 C216 97 178 45 134 -3 C116 -22 97 -41 75 -57 C57 -70 30 -86 11 -66 C4 -59 0 -49 -2 -39 C-9 -13 -10 12 -10 39 C-9 56 -7 72 -5 88 C-4 103 -2 117 1 131 C3 147 6 163 9 179 C13 200 18 222 23 243 C31 274 39 304 47 335 C62 389 79 443 98 497 C120 562 147 625 175 687 C176 687 176 688 176 688 C176 688 176 688 176 689 C178 693 180 698 179 702 C179 707 175 708 171 707 C166 706 163 702 161 697 C150 674 140 650 129 627 C104 567 81 507 62 445 C51 411 40 377 31 342 C23 317 17 292 11 267 C6 246 1 225 -4 205 C-7 187 -11 170 -14 152 C-17 134 -20 116 -22 98 C-24 83 -25 68 -27 50 C-27 39 -27 25 -27 10 C-27 -5 -25 -19 -22 -34 C-19 -47 -15 -61 -6 -72 C3 -85 15 -92 31 -92 C41 -92 50 -89 58 -86 C76 -78 92 -67 106 -55 C131 -33 153 -8 175 17 C221 72 260 131 296 192 C361 301 421 412 479 524 C502 570 525 617 545 665 C550 677 554 689 556 701 C557 710 555 718 550 725 L550 725 Z " />
<glyph glyph-name="W" unicode="W" horiz-adv-x="785" d="M773 639 C772 651 771 662 767 673 C765 679 761 683 757 687 C751 691 742 691 735 687 C728 682 724 676 725 667 C726 662 729 659 734 659 C739 660 741 663 741 668 C742 670 743 673 746 673 C749 673 751 668 752 665 C759 642 758 618 757 594 C756 574 754 554 752 533 C750 514 748 494 745 475 C742 458 740 441 737 424 C733 404 729 383 725 363 C721 341 715 319 709 298 C691 244 669 192 643 141 C614 85 581 32 542 -17 C512 -53 480 -86 441 -112 C421 -126 400 -137 376 -144 C361 -147 345 -149 330 -145 C312 -140 298 -129 287 -113 C275 -95 268 -75 263 -54 C256 -21 256 11 258 44 C259 62 262 81 264 99 C266 111 268 123 270 135 C273 151 277 166 280 181 C284 201 289 220 293 240 C294 246 295 251 295 257 C296 265 297 274 288 276 C278 278 270 266 266 259 C251 237 236 214 220 192 C189 146 156 101 119 59 C99 36 73 4 42 -5 C39 -6 35 -7 32 -6 C26 -4 23 1 21 6 C8 39 10 78 12 112 C14 134 16 155 19 176 C21 196 24 215 27 234 C30 252 34 270 38 289 C43 314 49 339 55 364 C65 406 78 449 91 491 C112 555 136 617 165 677 C171 690 178 702 184 716 C186 720 185 727 180 729 C173 732 168 723 166 718 C156 692 142 667 130 642 C107 590 88 537 71 483 C61 447 50 411 41 375 C34 350 28 325 23 300 C19 280 15 260 11 239 C8 222 6 206 3 189 C1 170 -2 150 -3 131 C-5 112 -5 94 -5 76 C-6 59 -5 42 -2 26 C0 14 3 2 10 -8 C16 -18 25 -23 36 -23 C44 -23 51 -20 58 -17 C72 -10 84 0 96 10 C117 30 136 52 155 75 C162 85 170 95 178 105 C186 115 193 125 201 135 C208 145 215 155 222 166 C230 176 237 187 244 197 C257 217 269 237 281 257 C281 256 281 254 280 253 C280 251 279 250 279 248 C272 224 266 198 261 173 C256 151 252 130 249 109 C246 90 244 71 242 52 C240 27 240 1 242 -25 C244 -47 248 -70 257 -91 C264 -111 275 -128 291 -142 C304 -153 318 -160 335 -163 C352 -165 370 -163 386 -158 C416 -149 441 -133 465 -115 C501 -88 532 -56 559 -21 C596 25 627 74 654 126 C694 204 728 284 744 371 C748 391 752 412 755 432 C758 450 761 468 763 486 C766 504 768 521 770 539 C773 573 776 606 773 639 L773 639 Z " />
<glyph glyph-name="X" unicode="X" horiz-adv-x="302" d="M103 275 C103 275 103 275 103 275 C103 274 103 273 103 273 C104 266 104 260 104 253 C104 242 105 232 105 221 C105 210 106 200 106 189 C106 177 107 165 107 154 C108 142 108 130 108 118 C109 107 109 95 110 84 C111 70 111 56 112 42 C112 28 113 14 113 0 C114 -14 115 -29 115 -44 C116 -60 117 -77 118 -93 C119 -112 121 -131 122 -150 C122 -154 123 -159 125 -163 C126 -167 128 -169 133 -169 C136 -170 140 -168 141 -164 C142 -161 141 -159 138 -156 C137 -155 136 -154 136 -153 C135 -144 134 -134 134 -124 C132 -103 131 -83 130 -62 C129 -45 128 -28 128 -11 C127 7 126 24 125 42 C125 58 124 73 123 88 C123 105 122 123 121 140 C121 155 120 172 120 188 C119 205 119 223 118 241 C117 258 117 274 117 291 C117 294 117 297 119 299 C129 312 137 326 146 339 C193 405 238 469 289 533 C314 564 340 594 366 625 C391 654 419 681 443 711 C446 715 450 721 447 726 C446 728 442 729 440 728 C437 727 435 724 434 722 C432 719 430 716 428 714 C414 698 401 685 388 670 C334 609 283 550 236 486 C195 431 156 378 118 322 C118 321 117 321 117 320 C116 321 116 322 116 322 C116 328 116 333 116 339 C115 349 115 360 115 370 C115 380 115 389 115 398 C115 409 115 421 114 432 C114 441 114 451 114 461 C114 471 114 480 114 490 C114 500 114 510 114 520 C114 531 113 543 113 554 C113 565 113 576 113 586 C113 600 112 614 112 628 C111 645 110 663 107 681 C105 691 103 701 98 710 C90 725 78 729 63 723 C54 720 46 714 39 708 C33 703 29 698 25 692 C23 688 22 684 23 680 C24 677 27 674 31 675 C35 675 36 679 37 683 C38 689 45 695 50 700 C55 704 62 708 69 711 C76 714 82 712 85 704 C88 699 90 693 91 687 C95 673 96 658 97 643 C98 630 98 616 99 603 C99 593 99 583 99 574 C100 563 100 552 100 541 C100 531 100 521 100 511 C100 499 100 488 100 476 C100 467 100 457 100 447 C101 436 101 424 101 413 C101 402 101 391 101 380 C101 367 102 355 102 343 C102 329 102 316 103 303 C103 301 102 299 101 297 C48 220 -5 142 -57 63 C-81 24 -106 -14 -128 -54 C-128 -54 -129 -55 -129 -55 C-137 -69 -150 -90 -140 -105 C-137 -110 -130 -116 -125 -113 C-114 -107 -130 -99 -130 -93 C-130 -83 -122 -72 -118 -64 C-101 -32 -82 -2 -62 29 C-10 110 44 189 98 269 C100 271 101 273 103 275 L103 275 Z " />
<glyph glyph-name="Y" unicode="Y" horiz-adv-x="385" d="M408 655 C403 657 399 655 396 652 C394 649 391 646 389 642 C381 629 372 616 364 602 C324 532 284 462 241 393 C215 354 190 313 162 275 C149 257 134 239 117 224 C110 218 104 212 95 208 C85 204 78 206 72 214 C69 220 66 225 63 231 C56 252 54 274 55 297 C54 327 57 358 61 388 C64 408 67 427 70 446 C76 479 83 512 91 545 C99 587 110 628 116 669 C117 681 118 692 117 704 C113 724 99 735 78 731 C67 729 56 724 46 718 C11 696 -17 669 -40 635 C-52 618 -60 600 -64 580 C-68 567 -66 555 -56 545 C-52 540 -47 539 -44 543 C-37 548 -44 553 -47 558 C-57 576 -43 601 -34 617 C-19 642 1 663 23 682 C36 693 51 703 66 711 C72 714 79 716 85 716 C93 717 97 714 100 707 C101 703 101 698 101 693 C102 676 99 659 96 642 C88 604 79 566 71 528 C65 499 59 470 54 441 C50 420 47 399 45 378 C42 362 41 346 40 330 C39 313 40 297 39 280 C40 266 42 252 45 238 C48 226 53 213 61 203 C70 192 83 188 96 193 C103 195 108 198 114 202 C128 211 139 223 148 235 C171 261 191 288 209 317 C258 389 303 464 347 540 C349 545 352 550 355 556 C358 561 361 566 364 571 C374 587 383 602 391 618 C394 621 395 624 397 626 C397 624 397 621 395 618 C391 595 386 571 381 548 C380 540 377 532 375 524 C370 501 364 478 358 455 C353 441 349 427 345 413 C324 346 300 281 271 218 C247 168 219 119 186 75 C184 72 182 69 180 66 C168 80 146 79 129 79 C106 78 82 74 60 70 C39 66 18 61 -1 53 C-8 50 -14 47 -20 44 C-36 35 -49 25 -59 11 C-68 -3 -74 -19 -68 -36 C-64 -54 -51 -65 -33 -71 C-13 -78 8 -77 28 -73 C51 -67 71 -57 91 -43 C127 -18 159 15 187 50 C216 86 240 125 262 166 C292 223 316 282 338 343 C360 406 379 471 394 536 C400 565 407 594 413 624 C414 630 414 638 414 644 C415 649 413 653 408 655 L408 655 Z M167 50 C142 20 114 -8 82 -30 C64 -43 45 -53 24 -58 C17 -59 10 -60 6 -61 C-11 -61 -24 -59 -36 -53 C-46 -47 -54 -36 -55 -23 C-56 -9 -47 3 -37 13 C-32 18 -26 22 -21 26 C16 48 59 55 100 61 C119 64 138 65 157 61 C160 61 163 60 166 58 C168 57 169 55 169 54 C169 53 169 52 168 51 C168 50 167 50 167 50 L167 50 Z " />
<glyph glyph-name="Z" unicode="Z" horiz-adv-x="420" d="M148 350 C148 350 148 350 147 350 C147 350 147 351 148 351 C152 357 157 362 162 368 C167 373 173 378 177 383 C183 389 188 394 193 399 C231 436 268 473 305 512 C330 539 355 566 377 594 C389 612 402 630 411 650 C415 660 420 671 419 682 C419 699 410 710 396 716 C380 722 363 722 345 721 C330 719 314 716 299 712 C247 698 197 675 151 645 C118 623 88 597 62 566 C59 563 57 560 54 556 C47 546 39 536 34 525 C28 514 22 501 21 489 C21 485 21 481 25 479 C28 478 32 478 34 481 C36 483 36 484 36 486 C37 491 37 496 38 501 C40 505 42 510 43 514 C48 523 53 531 59 539 C78 568 103 592 131 613 C178 649 230 676 284 693 C311 702 338 707 365 707 C374 706 383 705 391 701 C403 695 406 685 404 672 C402 662 397 652 392 643 C381 621 366 602 350 584 C313 538 272 496 230 454 C204 429 179 404 154 379 C149 374 144 368 139 363 C137 360 135 357 133 354 C128 344 132 335 144 336 C155 336 166 338 177 338 C193 340 209 343 225 344 C249 345 276 345 298 338 C313 333 327 325 335 312 C355 284 349 240 338 205 C331 184 322 163 312 143 C288 93 256 47 221 3 C188 -38 151 -75 110 -108 C80 -131 51 -150 17 -165 C-17 -180 -50 -188 -85 -186 C-97 -185 -110 -181 -120 -175 C-145 -162 -155 -136 -149 -106 C-145 -89 -136 -73 -124 -59 C-90 -18 -40 -5 8 7 C37 14 66 20 95 16 C99 16 101 15 104 13 C107 11 107 6 107 2 C109 -2 114 -3 118 1 C123 4 122 11 121 16 C119 20 117 24 112 27 C104 32 95 32 85 32 C66 32 46 29 27 26 C7 22 -11 17 -30 12 C-45 8 -58 3 -71 -3 C-103 -17 -132 -40 -149 -70 C-162 -91 -168 -113 -164 -136 C-161 -164 -144 -183 -119 -193 C-95 -203 -69 -203 -41 -198 C-14 -193 12 -183 38 -170 C77 -151 113 -125 147 -95 C212 -36 266 32 309 107 C331 145 349 185 358 227 C361 245 364 263 363 280 C359 313 344 336 313 349 C295 356 277 359 257 359 C243 359 229 359 216 358 C200 356 185 354 170 352 C163 351 155 351 148 350 C148 350 148 350 148 350 L148 350 Z " />
<glyph glyph-name="bracketleft" unicode="&#x5b;" horiz-adv-x="129" d="M196 655 C189 655 182 655 174 654 C167 653 162 651 158 646 C155 642 153 638 151 634 C136 604 122 573 111 542 C88 481 68 419 49 357 C35 312 20 266 9 220 C6 210 5 201 5 190 C6 182 10 175 17 171 C33 165 50 162 68 162 C71 163 74 164 77 166 C80 168 81 171 80 174 C78 177 75 178 71 177 C68 176 65 175 62 175 C50 176 38 178 27 183 C22 185 20 187 19 192 C19 194 19 197 20 200 C22 211 23 222 26 234 C34 260 42 287 50 313 C66 366 83 418 101 471 C117 521 136 572 160 621 C162 627 165 631 168 636 C170 642 176 641 181 642 C187 642 194 643 199 642 C204 642 214 640 215 647 C217 655 206 655 200 655 C199 655 197 655 196 655 L196 655 Z " />
<glyph glyph-name="backslash" unicode="&#x5c;" horiz-adv-x="207" d="M67 650 C67 650 67 650 67 650 C66 647 67 645 68 642 C71 632 72 621 74 611 C85 562 93 513 101 464 C111 415 119 364 128 314 C134 284 139 254 145 224 C153 193 152 196 156 183 C158 169 161 159 169 165 C174 169 170 177 169 183 C166 190 164 197 162 204 C133 348 113 494 82 637 C81 642 77 660 69 655 C68 655 67 652 67 650 L67 650 Z " />
<glyph glyph-name="bracketright" unicode="&#x5d;" horiz-adv-x="107" d="M160 630 C158 606 147 583 139 561 C132 535 123 512 115 489 C95 426 73 363 53 300 C41 266 30 232 21 198 C19 193 16 188 8 186 C-1 182 -9 180 -17 176 C-21 175 -23 172 -22 169 C-21 165 -19 163 -15 163 C-13 163 -11 163 -9 164 C-1 168 6 171 14 174 C24 179 30 185 34 195 C56 265 79 335 101 405 C119 458 137 510 156 563 C159 575 165 587 168 600 C172 612 179 629 173 641 C169 649 159 651 149 652 C143 653 136 654 129 655 C125 655 120 655 119 650 C116 638 148 638 156 637 C158 637 160 637 161 635 C162 634 162 632 160 631 C160 631 160 630 160 630 L160 630 Z " />
<glyph glyph-name="asciicircum" unicode="&#x5e;" horiz-adv-x="115" d="M133 634 L130 611 C129 606 130 601 134 597 C136 595 139 594 142 596 C145 598 146 601 145 604 C143 608 144 612 145 616 C146 626 148 636 150 646 C151 651 150 655 146 657 C142 659 138 658 135 655 L128 649 C119 639 111 629 103 619 L99 614 C97 611 98 608 100 605 C102 603 106 603 109 605 C110 605 110 606 111 607 C115 611 118 616 121 620 L133 634 L133 634 Z " />
<glyph glyph-name="underscore" unicode="&#x5f;" horiz-adv-x="118" d="M66 226 C66 226 65 226 65 226 L-2 226 C-3 226 -4 225 -5 225 C-9 224 -11 221 -10 217 C-10 213 -7 211 -2 211 C-1 211 -1 210 0 210 L67 210 C67 210 73 210 74 217 C74 217 74 217 74 217 C74 222 71 226 66 226 L66 226 Z " />
<glyph glyph-name="grave" unicode="&#x60;" horiz-adv-x="125" d="M139 598 C138 599 138 601 138 602 C135 610 132 618 130 625 C127 634 124 642 121 650 C120 654 116 656 112 654 C109 652 107 648 108 645 C113 628 119 612 124 597 C125 595 125 594 126 592 C128 590 131 590 134 591 C137 592 138 595 139 598 L139 598 Z " />
<glyph glyph-name="a" unicode="a" horiz-adv-x="109" d="M66 228 C90 252 114 294 114 294 C118 299 109 300 109 300 L109 300 C88 275 69 246 44 225 C41 222 38 220 34 218 C34 218 33 217 31 217 C30 220 30 225 30 226 C31 233 33 239 35 246 C37 253 40 260 42 267 C46 277 50 287 54 296 C55 300 52 304 49 305 C49 305 49 305 48 305 L48 305 C48 305 48 305 48 305 C48 305 48 305 48 305 C42 306 40 301 40 301 L38 296 L37 293 C37 294 37 294 37 295 C37 301 33 306 27 308 C25 309 24 309 22 309 C8 310 -1 300 -5 296 C-13 288 -19 277 -19 276 C-23 268 -26 260 -28 251 C-29 245 -33 220 -20 214 C-18 213 -16 212 -14 212 L-14 212 C-14 212 0 210 18 230 C17 226 16 218 18 211 C19 210 19 209 20 208 C29 194 48 210 56 218 C59 221 63 224 66 228 L66 228 Z M20 255 C20 255 9 230 -7 226 C-7 226 -7 226 -7 226 C-9 226 -11 226 -12 227 C-14 227 -15 230 -16 231 C-21 246 -11 270 -1 281 C2 286 6 290 12 293 C14 294 16 294 19 294 C21 293 22 292 23 290 C23 285 24 284 28 283 C29 283 30 283 30 282 L20 255 L20 255 Z " />
<glyph glyph-name="b" unicode="b" horiz-adv-x="114" d="M114 300 C91 273 51 256 51 256 C52 261 53 265 54 265 C54 268 55 270 55 273 C57 280 57 287 55 293 C53 302 45 306 36 302 C33 301 30 299 27 297 C19 291 13 284 7 276 C7 275 5 273 4 272 C5 274 5 275 5 275 C16 306 26 336 36 366 C49 402 60 437 73 473 C89 519 107 566 120 613 C122 619 124 625 125 631 C126 635 123 638 119 638 C116 638 113 636 111 632 C104 608 97 585 89 561 C78 528 66 496 55 463 C34 402 13 341 -7 280 C-13 264 -18 248 -23 231 C-24 228 -24 226 -22 224 C-22 223 -21 222 -20 222 L-20 222 C-22 220 -23 219 -24 218 C-26 216 -28 215 -29 213 C-34 207 -37 201 -38 194 C-39 186 -38 179 -32 175 C-26 170 -19 171 -12 173 C-2 177 7 184 14 192 C22 200 28 209 34 218 C34 218 34 219 34 219 C38 225 41 231 43 237 C43 237 81 252 114 284 C122 293 114 300 114 300 L114 300 Z M10 207 C9 206 8 204 7 203 C6 202 5 201 4 200 C3 199 2 198 1 197 C0 195 -2 194 -3 194 C-4 193 -5 192 -7 191 C-8 190 -9 189 -11 188 C-11 188 -12 188 -12 188 C-14 187 -16 187 -18 187 C-19 187 -20 187 -22 188 C-22 188 -22 189 -23 189 C-24 190 -25 193 -24 194 C-24 196 -23 198 -22 200 C-20 205 -16 209 -11 212 C-7 215 -3 217 1 219 C9 223 17 227 25 230 C21 222 16 214 10 207 L10 207 Z M41 272 C40 265 37 259 35 253 C35 252 34 251 33 250 C31 249 30 249 29 248 C18 242 7 237 -4 232 C-5 231 -6 230 -7 230 C-8 229 -8 229 -8 229 L-7 231 C-7 232 -6 233 -6 234 C-2 240 2 246 6 252 C13 262 20 272 29 281 C31 283 33 285 36 286 C41 290 42 285 42 282 C42 279 42 275 41 272 L41 272 Z " />
<glyph glyph-name="c" unicode="c" horiz-adv-x="78" d="M78 300 C78 300 78 300 78 300 C55 271 44 258 34 245 C25 235 16 224 5 216 C3 215 2 213 0 212 C0 212 -1 212 -1 212 C-1 212 -1 212 -1 211 C-13 205 -17 212 -18 215 C-18 215 -18 216 -18 216 C-18 216 -18 216 -18 216 L-18 216 C-18 218 -19 219 -19 221 C-20 232 -18 243 -14 254 C-10 265 -5 275 2 283 C3 284 4 285 5 286 C7 288 13 294 15 290 C15 288 15 285 15 283 C15 279 17 277 21 276 C24 276 27 279 29 282 C30 287 29 291 28 295 C25 306 15 309 4 303 C-2 299 -7 293 -11 287 C-25 267 -34 245 -34 221 C-34 215 -33 209 -30 204 C-28 199 -24 196 -19 195 C-19 195 -19 195 -19 195 C-18 194 -17 194 -15 194 C-12 194 -8 194 -5 196 L-5 196 C-5 196 -5 196 -5 196 C16 204 39 235 39 235 C39 235 76 283 80 290 C85 297 78 300 78 300 L78 300 Z " />
<glyph glyph-name="d" unicode="d" horiz-adv-x="160" d="M163 298 C163 298 163 298 163 298 C163 298 163 298 163 298 C162 300 160 300 160 300 L156 295 L156 295 C142 278 128 261 114 244 C107 236 99 227 92 219 C84 212 77 203 68 198 C47 187 53 236 55 244 C57 260 61 276 65 292 C68 300 71 307 75 314 C80 324 85 335 90 345 C115 395 136 447 157 499 C172 537 185 575 198 613 C198 613 198 614 199 615 C202 625 207 645 200 647 C194 649 190 646 188 644 C183 640 179 634 176 629 C170 620 166 611 161 602 C136 555 116 507 99 458 C82 410 67 363 55 314 C52 304 50 294 45 286 C37 273 30 261 22 249 C13 234 6 228 5 227 C4 226 3 226 3 225 C-4 220 -8 222 -10 229 C-11 236 -11 242 -10 248 C-9 261 -3 281 9 289 C12 292 15 290 16 286 C17 285 16 283 17 282 C17 279 19 276 23 276 C26 276 29 278 30 281 C30 284 30 286 30 288 C28 300 14 310 0 300 C-2 298 -5 295 -7 292 C-20 275 -25 257 -25 236 C-25 230 -23 224 -20 219 C-15 209 -6 206 4 210 C10 213 15 217 19 221 C26 229 32 238 38 247 L42 254 C42 250 41 245 41 241 C38 224 34 189 57 183 C69 180 79 188 87 195 C92 200 97 205 102 211 C123 233 153 276 153 276 C158 283 162 289 164 291 C165 294 165 296 163 298 L163 298 L163 298 Z M85 371 C86 376 88 381 89 385 C92 395 96 405 99 415 C100 417 101 420 102 423 C108 442 115 461 122 480 C129 498 136 517 144 535 C145 539 147 542 148 545 C159 568 170 590 182 612 C183 613 183 614 184 615 C183 613 182 611 182 610 C175 591 169 572 163 554 C161 549 159 544 157 538 C150 519 142 501 135 482 C128 463 120 444 111 425 C103 407 95 388 87 369 C85 366 83 362 81 358 C83 362 84 366 85 371 L85 371 Z " />
<glyph glyph-name="e" unicode="e" horiz-adv-x="88" d="M89 299 C88 300 88 300 88 300 C69 277 60 267 52 256 C42 245 33 234 21 226 C15 222 10 218 3 217 C-6 215 -10 219 -11 229 C-11 242 -7 253 -3 265 C0 263 0 261 3 259 C8 256 13 258 17 260 C31 268 55 310 24 314 C19 315 14 313 10 310 C3 305 -1 299 -6 292 C-15 277 -21 261 -24 242 C-25 234 -24 226 -22 218 C-14 198 1 201 17 208 C48 226 68 258 89 286 C95 293 92 297 89 299 L89 299 Z M11 289 C14 294 18 299 23 300 C24 300 24 300 24 299 C25 299 25 298 25 297 C25 295 25 293 24 291 C22 284 17 277 11 274 C8 273 8 275 8 276 C8 281 9 285 11 289 L11 289 Z " />
<glyph glyph-name="f" unicode="f" horiz-adv-x="113" d="M128 631 C127 633 126 635 122 635 C116 635 114 630 114 630 L114 630 C100 590 84 551 70 511 C42 430 16 349 -11 267 C-27 221 -42 174 -54 126 C-61 98 -68 69 -74 41 C-78 21 -82 1 -85 -19 C-87 -31 -89 -44 -91 -57 C-92 -70 -94 -82 -94 -95 C-95 -109 -96 -123 -96 -136 C-96 -150 -96 -163 -93 -176 C-92 -184 -90 -192 -86 -198 C-82 -203 -78 -207 -72 -207 C-65 -208 -60 -204 -56 -199 C-49 -193 -45 -185 -42 -178 C-21 -136 -11 -92 -9 -47 C-8 -33 -9 -20 -10 -7 C-11 12 -15 31 -20 49 C-24 61 -28 74 -32 86 C-35 93 -35 100 -31 107 C-28 112 -25 117 -22 122 C-9 138 3 155 17 171 C20 175 24 180 28 185 C28 185 28 185 28 185 C51 212 95 266 95 266 C106 280 115 291 116 293 C118 296 116 298 115 299 C114 300 113 300 113 300 L104 290 L104 290 C84 269 65 248 46 226 C20 197 -5 167 -29 136 C-33 130 -38 123 -42 117 C-42 117 -42 118 -42 118 C-33 148 -25 179 -16 209 C4 269 23 329 43 389 C62 445 81 500 101 555 C109 578 118 601 127 624 C127 624 127 625 127 625 C128 628 128 631 128 631 L128 631 Z M-38 59 C-31 38 -26 15 -24 -8 C-22 -24 -22 -40 -24 -57 C-27 -95 -35 -133 -52 -168 C-56 -175 -60 -182 -64 -189 C-69 -195 -73 -195 -76 -187 C-79 -179 -80 -171 -81 -163 C-83 -142 -82 -121 -81 -100 C-80 -85 -78 -70 -76 -55 C-74 -36 -71 -17 -68 3 C-63 27 -58 51 -53 75 C-51 81 -50 87 -48 93 C-47 81 -42 70 -38 59 L-38 59 Z " />
<glyph glyph-name="g" unicode="g" horiz-adv-x="123" d="M127 298 L127 298 C127 298 127 298 127 298 C127 298 127 298 127 298 C127 298 127 298 127 298 C127 298 126 298 126 299 C126 299 126 299 126 299 C126 299 126 299 126 299 C125 299 125 299 125 299 C125 299 125 299 125 299 C124 300 123 300 123 300 L119 294 C119 294 119 294 119 294 C119 293 118 293 118 292 L115 287 L115 287 C108 275 101 264 95 253 C73 216 52 180 28 144 C27 143 26 141 25 140 C26 144 26 147 27 151 C30 172 34 194 38 215 C42 243 48 271 54 299 C54 303 52 307 49 308 C47 309 44 309 42 307 C40 305 39 302 39 302 L39 301 L39 301 L39 301 L37 295 C37 295 37 295 37 295 C37 303 31 309 23 309 C-8 306 -21 275 -27 251 C-28 245 -32 221 -19 214 C-18 213 -17 213 -17 213 C0 208 18 229 29 245 C28 242 28 239 27 237 L26 229 C23 213 21 198 18 182 C15 162 11 143 8 123 C7 116 5 109 0 102 C-29 62 -57 22 -85 -19 C-100 -40 -114 -62 -125 -85 C-135 -104 -141 -125 -139 -146 C-138 -157 -135 -166 -129 -175 C-119 -189 -103 -193 -87 -183 C-81 -180 -76 -175 -71 -171 C-58 -157 -48 -140 -40 -122 C-27 -92 -18 -61 -10 -29 C1 13 10 55 17 98 C18 104 20 108 24 113 C28 119 32 126 37 132 C46 147 55 161 64 176 C81 203 109 256 109 256 C118 274 127 292 128 293 C129 295 128 296 127 298 L127 298 Z M23 257 C23 257 23 256 23 256 C23 256 23 256 23 256 C22 255 22 255 21 254 C21 254 21 254 21 254 L21 254 C21 254 21 253 21 253 C12 239 -1 225 -10 227 C-10 227 -10 227 -10 227 C-10 227 -10 227 -10 227 C-11 227 -11 227 -11 227 C-11 227 -11 227 -11 227 C-11 227 -11 227 -11 227 C-16 230 -16 239 -15 241 C-15 241 -15 242 -15 242 C-15 242 -15 242 -15 242 C-14 256 -9 270 -1 281 C3 286 7 290 13 293 C15 294 17 294 20 294 C22 293 23 292 23 290 C24 285 25 284 29 283 C29 283 32 282 34 284 L34 284 C34 284 35 285 36 287 C36 287 31 269 23 257 L23 257 Z M-4 57 C-10 31 -16 4 -22 -22 C-30 -53 -38 -84 -51 -114 C-58 -129 -66 -144 -77 -157 C-82 -163 -87 -168 -94 -172 C-103 -177 -112 -175 -118 -167 C-123 -160 -125 -152 -125 -143 C-126 -124 -121 -107 -112 -90 C-101 -67 -87 -45 -72 -24 C-49 9 -26 43 -2 76 C-2 76 -1 77 -1 78 C-2 71 -3 64 -4 57 L-4 57 Z " />
<glyph glyph-name="h" unicode="h" horiz-adv-x="127" d="M127 300 C107 274 86 248 66 221 C61 214 56 206 50 200 C47 196 44 193 41 190 C41 190 40 190 40 190 C40 190 40 190 40 190 C40 190 40 190 40 191 C40 193 40 196 40 196 C46 221 61 259 61 259 L61 259 C65 268 68 278 72 287 C73 290 74 294 73 298 C73 304 68 308 62 306 C59 305 55 303 52 301 C37 290 24 277 11 263 C12 264 -4 248 -5 246 L6 278 L6 278 C16 308 26 337 36 366 C49 402 60 437 73 473 C88 520 106 566 120 613 C122 619 123 625 125 631 C125 635 123 638 119 638 C116 639 113 636 111 632 C104 608 97 585 89 561 C78 529 66 496 55 463 C34 402 13 341 -7 281 C-12 268 -16 255 -20 243 C-20 243 -26 226 -21 221 C-19 219 -13 218 -11 219 C1 231 7 238 14 246 C16 248 17 249 19 251 C19 251 25 258 32 265 C32 265 47 280 54 284 C54 284 38 240 34 229 C33 227 33 225 32 223 C31 220 21 186 31 177 C31 177 32 177 32 177 C35 174 39 174 43 176 C51 179 57 186 62 193 C65 196 67 199 70 203 C99 242 122 276 131 294 C134 299 127 300 127 300 L127 300 Z " />
<glyph glyph-name="i" unicode="i" horiz-adv-x="80" d="M27 339 C36 339 38 353 29 353 C20 353 18 339 27 339 L27 339 Z M80 300 L80 300 C71 291 62 283 53 275 C41 263 27 250 13 240 C10 238 6 236 3 234 C0 233 -2 234 -3 237 C-5 243 -2 252 -1 258 C3 274 9 290 17 305 C19 308 16 312 13 313 C9 314 6 312 4 308 C-5 291 -12 273 -15 254 C-17 245 -18 236 -14 228 C-11 221 -3 218 6 222 C14 225 23 231 30 237 C51 258 75 282 84 293 C88 298 80 300 80 300 L80 300 Z " />
<glyph glyph-name="j" unicode="j" horiz-adv-x="84" d="M15 336 C18 336 21 338 21 342 C21 345 18 348 15 348 C11 348 9 345 9 342 C9 338 11 336 15 336 L15 336 Z M88 298 L88 298 C88 298 88 298 88 298 C88 298 88 298 88 298 C88 298 88 298 88 298 C88 298 87 298 87 299 C87 299 87 299 87 299 C87 299 87 299 87 299 C87 299 87 299 86 299 C86 299 86 299 86 299 C85 300 84 300 84 300 L80 294 C80 294 80 294 80 294 L79 292 L76 287 L76 287 C69 276 62 264 56 253 C34 216 13 180 -11 144 C-12 143 -13 141 -14 140 C-13 144 -13 147 -12 151 C-8 172 -5 194 -1 215 C2 234 6 253 10 273 C11 281 13 290 15 299 C16 303 13 307 10 308 C7 309 3 308 1 304 C1 304 0 304 0 303 L-9 249 L-13 229 C-16 213 -18 197 -21 182 C-24 162 -28 143 -31 123 C-32 116 -34 109 -39 102 C-68 62 -96 21 -124 -19 C-139 -40 -153 -62 -164 -85 C-173 -105 -180 -125 -178 -146 C-177 -157 -174 -166 -168 -175 C-158 -189 -142 -193 -126 -183 C-120 -180 -115 -175 -110 -171 C-97 -157 -87 -140 -79 -122 C-65 -92 -57 -61 -49 -29 C-38 13 -29 55 -21 98 C-21 104 -19 109 -15 113 C-11 119 -6 126 -2 132 C7 147 17 161 26 176 C42 203 70 256 70 256 C80 274 88 292 89 293 C90 295 89 297 88 298 L88 298 Z M-43 57 C-49 31 -55 4 -61 -22 C-68 -53 -77 -84 -90 -114 C-97 -129 -105 -144 -116 -157 C-121 -163 -126 -168 -133 -172 C-142 -177 -151 -175 -157 -167 C-162 -160 -164 -152 -164 -143 C-165 -124 -159 -107 -151 -90 C-140 -67 -126 -46 -111 -24 C-88 9 -64 43 -41 76 C-41 76 -40 77 -39 78 C-41 71 -42 64 -43 57 L-43 57 Z " />
<glyph glyph-name="k" unicode="k" horiz-adv-x="128" d="M128 300 C112 284 91 258 75 241 C39 202 40 230 32 258 L32 258 C40 262 48 268 54 275 C62 283 70 296 61 305 C46 315 28 292 20 283 C14 277 9 270 4 263 C18 314 32 364 46 413 C68 489 91 565 119 639 C120 643 118 647 114 648 C105 648 106 643 102 633 C75 565 55 494 35 424 C17 359 -2 295 -19 230 C-21 224 -26 212 -18 209 C-15 208 -11 209 -9 212 C-7 217 15 261 19 249 C21 247 28 219 30 216 C44 197 69 214 79 226 C96 246 99 252 129 286 C135 293 134 296 128 300 L128 300 Z M29 273 L29 273 C35 280 41 287 49 292 C49 292 49 292 49 292 C45 283 37 277 29 273 L29 273 Z " />
<glyph glyph-name="l" unicode="l" horiz-adv-x="108" d="M148 648 C143 649 138 646 136 644 C131 640 127 634 124 629 C119 620 114 611 109 602 C84 555 64 507 47 457 C30 410 15 363 3 314 C3 312 2 310 1 307 C-2 292 -7 272 -10 254 L-10 254 C-10 250 -11 246 -11 242 C-13 228 -14 214 -12 205 C-10 195 -5 186 5 183 C17 180 27 188 35 195 C40 200 45 205 50 211 C71 233 101 276 101 276 C106 283 110 289 112 291 C113 293 111 298 111 298 C111 298 111 298 111 298 C110 300 108 300 108 300 C90 278 77 261 62 244 C55 236 48 227 40 219 C33 212 25 203 16 198 C-5 186 2 236 3 244 C5 260 9 276 13 293 C16 300 19 307 23 314 C28 324 33 335 39 345 C63 396 84 447 105 499 C120 537 133 575 146 613 C146 613 147 614 147 615 C150 626 155 645 148 648 L148 648 Z M130 610 C124 591 117 573 111 554 C109 549 107 544 105 538 C98 519 90 501 83 482 C76 463 68 444 60 425 C51 407 44 388 35 369 C33 366 31 362 30 358 C31 362 32 366 33 371 C34 376 36 381 37 386 C40 395 44 405 47 415 C48 417 49 420 50 423 C56 442 63 461 70 480 C77 498 84 517 92 536 C94 539 95 542 96 545 C107 568 118 590 130 612 C131 613 131 614 132 615 C131 613 130 611 130 610 L130 610 Z " />
<glyph glyph-name="m" unicode="m" horiz-adv-x="166" d="M166 300 L87 203 C85 201 84 199 82 197 C81 197 81 197 81 196 C81 197 81 197 81 197 C81 198 82 199 82 200 C88 218 94 235 101 251 C106 263 111 274 116 286 C120 294 124 302 127 310 C128 313 128 318 123 320 C119 322 115 320 113 319 C108 316 105 313 101 309 C94 301 87 293 80 286 C63 266 47 245 31 225 C30 223 28 221 27 219 L28 222 L55 299 C55 299 57 305 51 308 C50 309 49 309 47 309 C45 309 43 308 41 306 C34 301 29 294 23 288 C14 277 4 266 -5 256 L-5 256 C1 270 8 283 14 297 C15 298 15 299 15 301 C15 303 15 304 13 305 C12 306 11 306 10 306 C7 306 2 305 1 302 L-11 278 C-15 269 -19 261 -23 251 C-23 251 -24 249 -24 249 C-24 249 -31 232 -28 224 C-28 222 -24 215 -13 224 C-10 226 -2 236 1 239 C11 253 21 266 32 279 C33 279 31 275 30 272 C26 260 22 248 17 236 C15 228 11 221 10 213 C10 210 9 207 10 204 C11 198 15 195 21 197 C21 197 22 197 23 198 C25 198 29 200 34 205 C36 207 37 209 39 212 C40 213 41 213 41 214 C42 215 43 215 43 216 C48 222 51 228 56 233 C71 253 86 272 102 291 C103 292 104 294 106 295 C106 295 106 294 106 294 C97 275 88 256 80 237 C75 227 71 217 68 206 C66 200 65 194 66 187 C66 184 69 177 82 181 C89 184 94 189 99 194 C105 202 111 210 117 217 C132 237 147 257 162 277 C165 280 167 283 169 287 C170 288 171 290 172 292 C173 295 172 296 170 298 L166 300 Z " />
<glyph glyph-name="n" unicode="n" horiz-adv-x="126" d="M126 300 C106 274 85 248 66 221 C60 214 55 206 49 200 C47 196 44 193 40 190 C40 190 40 190 39 190 C39 190 39 190 39 190 C39 190 39 190 39 191 C39 193 40 196 40 196 C45 221 60 259 60 259 L60 259 C64 268 68 278 71 287 C72 291 73 294 73 298 C73 304 67 308 61 306 C58 305 54 303 52 301 C32 288 18 271 4 256 C1 252 -3 248 -6 245 C-5 250 -3 257 -2 259 C1 270 6 280 11 291 C12 294 13 297 14 300 C14 303 13 306 10 307 C10 307 9 308 9 308 C9 308 9 308 9 308 C8 308 8 308 8 308 C8 308 8 308 8 308 C7 308 7 308 6 308 C6 308 6 308 6 308 C6 308 5 308 5 308 C4 308 4 308 3 308 L3 308 C3 307 3 307 3 307 C3 307 3 307 3 307 L-6 288 C-12 275 -16 263 -20 250 C-22 242 -24 234 -24 226 C-24 220 -18 216 -12 219 C-10 220 -8 222 -7 223 C2 233 10 243 18 251 C19 252 24 258 32 265 C32 265 47 280 53 284 C53 284 37 240 33 229 C33 227 32 225 32 223 C30 220 20 186 30 177 C31 177 31 177 31 177 C34 175 38 175 42 176 C50 179 56 186 61 193 C64 196 67 199 69 203 C87 226 120 277 120 277 C125 285 129 292 131 294 C134 299 126 300 126 300 L126 300 Z " />
<glyph glyph-name="o" unicode="o" horiz-adv-x="104" d="M104 300 C78 288 59 287 51 288 C50 288 48 288 48 288 L46 289 C45 292 44 295 42 297 C37 302 31 305 24 304 C18 303 13 297 15 290 C18 283 28 280 34 278 C34 277 34 277 34 276 C34 266 32 257 29 248 C21 230 8 211 -9 202 C-13 200 -18 197 -22 199 C-26 202 -26 209 -25 213 C-23 224 -19 235 -14 245 C-4 267 8 290 23 310 C28 317 16 323 11 316 C2 304 -6 291 -13 277 C-20 264 -27 251 -33 237 C-37 224 -43 207 -35 194 C-27 181 -11 184 0 191 C12 199 21 209 29 221 C37 232 43 245 46 258 C47 263 48 269 48 275 L51 274 C79 272 103 290 106 293 C110 296 104 300 104 300 L104 300 Z " />
<glyph glyph-name="p" unicode="p" horiz-adv-x="112" d="M112 300 C87 278 72 266 56 258 C52 256 52 256 52 256 C55 265 57 273 57 281 C57 297 43 303 31 298 C25 295 19 291 13 287 C14 293 21 304 13 306 C5 308 2 308 -1 300 C-11 273 -22 236 -31 210 C-48 164 -61 121 -77 75 C-105 -6 -130 -88 -155 -169 C-156 -172 -155 -176 -152 -177 C-147 -180 -142 -173 -141 -170 C-130 -137 -121 -104 -110 -71 C-94 -21 -78 30 -61 80 C-46 123 -30 166 -15 209 C-14 212 -11 218 -11 218 C-11 210 -7 205 1 205 C18 205 31 222 40 234 C41 235 46 242 47 242 C81 256 87 268 112 289 C122 297 117 295 113 299 L112 300 Z M14 226 C3 219 3 218 2 218 C5 222 9 226 14 226 L14 226 Z M41 268 C39 262 36 256 33 249 C22 238 0 243 -9 227 C-4 248 8 265 24 278 C28 281 47 294 41 268 L41 268 Z " />
<glyph glyph-name="q" unicode="q" horiz-adv-x="154" d="M156 299 C155 300 154 300 154 300 C124 269 103 248 83 226 C56 197 29 167 3 136 C-3 130 -7 123 -12 116 C-12 117 -12 118 -11 118 C-1 148 9 179 20 209 C31 239 43 269 55 299 C55 299 55 299 55 299 C56 302 56 307 50 308 C45 309 42 304 42 303 C42 303 42 303 42 303 C42 303 42 303 42 303 L42 303 C39 296 36 289 34 282 C34 282 32 277 29 273 C28 269 -21 194 -19 241 C-19 241 -19 244 -19 244 C-17 259 -10 269 -2 281 C2 286 7 290 12 293 C15 294 17 294 20 294 C22 293 23 292 23 290 C23 285 24 284 28 283 C28 283 30 282 32 284 L32 284 C32 284 33 284 33 285 C34 285 39 291 36 300 C35 303 33 307 29 308 C27 309 25 309 23 309 C10 310 -3 298 -5 296 C-20 279 -26 269 -30 251 C-32 245 -37 220 -23 214 C-22 213 -21 213 -21 213 C-11 209 3 219 14 231 C1 196 -12 161 -22 126 C-32 98 -39 69 -48 41 C-53 21 -58 1 -63 -19 C-66 -31 -68 -44 -70 -57 C-73 -70 -75 -82 -77 -95 C-79 -109 -79 -123 -80 -136 C-82 -149 -82 -163 -81 -176 C-80 -184 -79 -191 -74 -198 C-72 -203 -68 -207 -62 -207 C-55 -208 -50 -204 -44 -199 C-38 -193 -33 -186 -29 -178 C-7 -136 5 -92 10 -47 C12 -33 13 -20 13 -7 C12 12 10 31 5 49 C2 61 -1 74 -4 86 C-6 93 -5 100 -2 107 C1 112 5 117 9 122 C22 138 36 154 50 171 C54 175 59 180 63 185 C63 185 63 185 63 185 C87 212 135 266 135 266 C147 280 156 291 158 293 C160 296 158 298 156 299 L156 299 Z M-1 -8 C0 -24 -2 -40 -4 -56 C-10 -95 -20 -133 -39 -168 C-43 -175 -47 -182 -53 -189 C-58 -196 -61 -195 -64 -187 C-67 -179 -67 -171 -68 -163 C-69 -142 -66 -121 -64 -100 C-62 -85 -59 -70 -56 -55 C-52 -36 -49 -16 -44 3 C-37 27 -31 51 -24 75 C-23 81 -20 87 -19 93 C-18 81 -15 70 -12 60 C-5 38 -2 15 -1 -8 L-1 -8 Z " />
<glyph glyph-name="r" unicode="r" horiz-adv-x="121" d="M121 300 L95 257 L95 257 C82 234 68 212 53 190 C41 171 30 151 15 134 C12 129 6 122 0 121 C-1 121 -1 121 -2 121 C-2 121 -2 121 -2 121 C-7 120 -7 125 -7 127 C-7 128 -7 129 -7 130 C-6 136 -3 142 -1 148 C2 157 5 165 9 173 C18 195 30 220 29 245 C28 263 18 280 7 293 C20 313 34 335 31 360 C30 370 22 378 11 377 C-1 376 -11 368 -18 359 C-25 349 -30 336 -28 323 C-26 311 -19 302 -11 293 C-3 284 5 275 10 264 C16 251 16 238 13 224 C7 200 -5 177 -14 153 C-19 141 -26 122 -15 111 C-8 105 2 106 10 110 C19 116 26 125 32 133 C40 144 48 156 56 168 C56 168 56 168 56 168 C59 173 62 177 64 181 C86 216 117 274 117 274 C122 284 125 290 126 293 C130 299 121 300 121 300 L121 300 Z M-3 304 C-10 311 -16 320 -15 331 C-14 341 -8 352 0 359 C3 361 8 364 13 364 C24 360 16 332 13 326 C9 317 6 309 0 301 L-3 304 Z " />
<glyph glyph-name="s" unicode="s" horiz-adv-x="144" d="M144 300 L144 300 C112 261 80 222 45 185 C43 192 39 199 36 206 C29 219 20 230 13 243 C7 256 3 270 7 284 C8 290 12 296 17 300 C21 303 27 306 31 303 C36 298 31 289 29 285 C26 277 37 270 41 278 C47 290 52 307 37 315 C26 322 11 314 3 305 C-18 280 -6 248 8 224 C16 212 24 199 30 186 C32 182 34 177 35 173 C27 165 20 156 12 148 C-10 125 -32 102 -52 78 C-70 56 -87 32 -97 5 C-101 -6 -103 -19 -101 -31 C-98 -43 -88 -55 -76 -58 C-62 -62 -48 -55 -37 -47 C-25 -38 -14 -28 -5 -16 C14 8 27 36 39 65 C52 96 59 128 52 161 C52 164 51 167 50 170 C63 183 75 197 87 210 C109 236 142 282 142 282 L142 282 C145 287 148 291 149 293 C152 297 144 300 144 300 L144 300 Z M15 45 C3 18 -13 -8 -35 -28 C-44 -36 -57 -48 -70 -46 C-83 -43 -88 -31 -88 -20 C-88 -8 -83 3 -78 14 C-72 26 -64 38 -56 50 C-38 75 -16 99 5 121 C17 134 28 146 39 158 C41 152 41 146 42 140 C43 106 29 75 15 45 L15 45 Z " />
<glyph glyph-name="t" unicode="t" horiz-adv-x="108" d="M218 501 C180 499 142 498 103 496 C104 497 104 498 105 499 C120 537 133 575 146 613 C146 613 146 614 147 615 C150 625 155 645 148 647 C142 649 138 646 136 644 C132 640 127 633 124 629 C119 620 114 611 109 602 C90 567 74 530 60 493 C28 492 -4 490 -37 488 C-60 487 -84 486 -108 485 C-117 484 -117 471 -108 471 C-54 474 1 477 55 479 C52 472 50 465 47 457 C31 410 15 363 3 314 C2 312 2 310 1 307 C-2 292 -7 272 -10 254 L-9 254 C-10 250 -11 246 -11 242 C-13 228 -14 214 -12 205 C-10 195 -5 186 5 183 C17 180 27 188 35 195 C40 200 45 205 51 211 C71 233 101 276 101 276 C106 283 111 289 112 291 C114 294 113 296 112 298 L112 298 C112 298 112 298 112 298 C111 298 111 298 111 298 C110 300 108 300 108 300 L104 295 L104 295 C91 278 77 261 62 244 C55 236 47 227 40 219 C33 212 25 203 16 198 C-5 187 1 236 3 244 C5 260 9 277 13 292 C16 300 19 307 23 314 C28 324 34 335 39 345 C60 390 79 436 98 482 C114 482 130 483 146 484 C170 485 194 486 218 488 C227 488 227 502 218 501 L218 501 Z M92 535 C93 539 95 542 96 545 C107 568 118 590 130 612 C131 613 131 614 132 615 C131 613 130 612 130 610 C124 591 117 573 111 554 C109 549 107 544 105 538 C100 524 94 509 88 495 C84 495 80 494 75 494 C81 508 86 522 92 535 L92 535 Z M60 426 C51 407 44 388 35 370 C33 366 31 362 30 358 C31 362 32 366 33 371 C34 376 36 381 38 385 C41 395 44 405 47 415 C48 417 49 420 50 423 C56 442 63 461 70 479 C70 480 70 480 70 480 C74 480 79 481 83 481 C76 462 68 444 60 426 L60 426 Z " />
<glyph glyph-name="u" unicode="u" horiz-adv-x="133" d="M133 300 L121 278 L106 249 C96 231 85 213 72 197 C67 190 61 182 54 177 C53 176 50 174 48 175 C47 176 46 180 46 182 C45 200 49 220 55 237 C61 260 71 281 80 302 C80 302 80 303 81 303 C82 308 78 312 74 312 C72 312 71 312 70 311 C69 310 69 310 68 309 C65 304 62 300 59 295 C59 295 59 295 59 295 C55 288 35 266 35 266 C33 263 31 261 31 261 L31 261 C29 260 28 258 26 256 C22 251 17 246 12 241 C11 240 11 239 10 239 L10 239 C10 239 -1 227 -3 233 C-3 233 -3 234 -3 234 C-4 240 -3 245 -2 250 C0 261 3 272 8 284 C10 289 13 295 14 300 C15 303 14 307 12 308 C9 310 5 309 2 306 C1 305 0 303 0 302 C-4 291 -8 280 -12 268 C-15 258 -18 247 -17 237 C-17 234 -17 231 -16 229 C-16 227 -11 212 5 219 C6 220 13 223 18 229 C22 233 27 237 31 241 L47 260 L43 246 C43 245 43 244 42 244 C36 224 31 201 33 180 C34 173 36 165 44 162 C54 159 62 165 69 172 C77 180 84 189 90 198 C108 224 128 271 137 290 C138 292 139 294 139 295 L139 295 C139 300 133 300 133 300 L133 300 Z " />
<glyph glyph-name="v" unicode="v" horiz-adv-x="144" d="M145 292 C149 293 144 300 144 300 L134 296 L134 296 C128 294 123 292 118 291 C107 287 95 284 83 284 C79 284 76 285 73 288 C69 291 63 291 60 286 C57 281 53 276 51 271 C43 260 37 247 29 235 C25 229 -3 179 -9 181 C-13 182 -12 199 -12 199 C-11 210 -11 220 -8 230 C-5 245 -1 259 4 273 L4 273 L8 286 L11 298 C11 298 12 304 7 305 C0 307 0 302 0 302 L-4 290 L-4 290 C-7 283 -9 277 -11 271 C-17 250 -24 229 -26 206 C-27 194 -27 153 -3 169 C7 175 18 191 24 202 C31 214 39 226 46 238 C53 250 61 261 67 273 C100 263 143 291 145 292 L145 292 Z " />
<glyph glyph-name="w" unicode="w" horiz-adv-x="212" d="M212 300 L179 298 C174 297 168 297 163 297 C152 296 140 295 129 295 C129 295 129 295 129 295 C128 295 128 295 128 295 C124 294 121 294 118 293 C118 293 118 293 118 293 C118 293 118 293 118 293 C116 293 112 288 111 286 L111 286 L105 273 L105 273 C99 261 94 249 88 237 C85 230 81 224 77 217 C68 203 58 190 45 179 C44 178 43 177 42 176 C38 174 36 173 34 173 L34 173 C33 173 33 173 32 173 C32 173 32 173 32 173 C28 175 29 184 30 189 C30 192 31 198 33 204 C34 208 35 213 36 217 C36 217 36 217 36 217 C36 218 36 219 37 220 C42 236 48 253 54 269 C55 274 57 278 58 282 C60 287 58 291 55 293 C52 295 48 294 45 291 C42 289 41 287 39 285 C31 276 24 266 16 257 C10 250 3 243 -3 236 C-4 235 -5 234 -5 234 C-8 231 -8 234 -8 237 C-7 246 -4 255 0 263 C5 276 11 288 17 301 C19 305 18 310 14 311 C10 313 6 311 3 307 L-1 299 C-9 282 -17 265 -21 247 C-23 239 -24 231 -22 223 C-21 217 -15 213 -8 215 C-5 216 0 218 2 221 C10 228 17 236 24 244 C27 247 29 250 31 253 C30 250 29 247 28 244 C23 226 17 208 15 189 C14 182 15 175 17 168 C19 163 22 160 27 158 C36 155 44 159 51 164 C61 172 69 181 76 190 C86 203 94 217 102 231 L125 280 C126 281 127 283 130 283 C130 283 130 283 130 283 C147 285 206 292 212 292 C219 293 212 300 212 300 L212 300 Z " />
<glyph glyph-name="x" unicode="x" horiz-adv-x="163" d="M99 208 C100 209 101 210 102 211 C108 217 114 224 120 230 C120 231 121 231 121 231 C140 255 160 283 160 283 L167 293 C170 297 163 300 163 300 C134 269 108 234 76 204 C69 197 60 190 51 185 C43 180 32 175 22 177 C12 179 6 185 3 194 C25 229 49 263 73 296 C79 303 67 310 62 303 C40 274 19 244 -1 213 C-1 217 -1 221 0 224 C1 250 7 276 14 301 C16 309 3 313 0 304 C-6 280 -11 255 -14 230 C-15 219 -15 206 -12 196 C-31 165 -49 133 -66 101 C-70 93 -59 87 -54 94 C-39 124 -22 152 -5 180 C-2 176 1 172 6 169 C26 155 52 168 69 180 C80 188 90 198 99 208 L99 208 Z " />
<glyph glyph-name="y" unicode="y" horiz-adv-x="149" d="M153 297 L153 297 C153 298 153 298 153 298 C153 298 153 298 153 298 C153 298 153 298 153 298 C153 298 152 298 152 298 C152 299 152 299 152 299 C152 299 152 299 152 299 C152 299 151 299 151 299 C151 299 151 299 151 299 C150 300 149 300 149 300 L145 294 C134 275 127 264 121 253 C99 216 78 180 54 144 C53 143 52 141 51 140 C52 143 52 147 53 151 C56 172 60 193 64 215 C67 234 71 253 75 273 C76 278 77 284 78 290 C79 298 78 301 77 302 C77 302 77 302 77 302 C70 308 65 306 63 304 C57 300 51 292 51 292 C49 290 47 288 45 285 C41 280 36 275 32 270 C27 265 22 260 18 255 C17 255 16 254 15 253 L15 253 C15 253 5 241 2 247 C2 248 2 248 2 249 C1 254 2 260 3 265 C4 270 6 275 7 279 C9 286 11 292 13 298 C15 304 18 309 20 315 C21 318 20 321 17 322 C14 324 10 323 8 320 C7 319 6 317 5 316 C-2 296 -12 273 -12 251 C-11 248 -11 246 -10 243 C-10 241 -6 227 11 234 C12 234 18 237 24 243 C28 247 33 252 37 257 C40 259 42 262 44 264 C49 270 56 278 62 285 L56 249 C55 245 54 241 53 237 L52 229 C49 213 47 197 44 182 C41 162 37 143 34 123 C33 116 30 109 26 102 C-3 62 -31 21 -59 -19 C-74 -41 -88 -62 -99 -85 C-109 -105 -115 -125 -113 -146 C-112 -157 -109 -166 -103 -175 C-93 -190 -77 -193 -61 -184 C-56 -180 -50 -176 -45 -171 C-32 -157 -22 -140 -14 -122 C-1 -93 8 -61 16 -29 C27 13 36 55 43 98 C44 103 46 108 50 113 C54 119 58 126 63 132 C72 147 82 161 91 176 C107 203 135 256 135 256 C144 274 153 292 154 293 C155 295 154 296 153 297 L153 297 Z M22 57 C16 31 10 4 4 -22 C-4 -53 -12 -84 -26 -114 C-32 -129 -40 -144 -51 -157 C-56 -163 -61 -168 -68 -172 C-78 -177 -86 -176 -92 -167 C-97 -160 -99 -152 -99 -143 C-100 -124 -95 -107 -86 -90 C-75 -67 -61 -46 -46 -25 C-23 9 1 42 24 76 C24 76 25 77 26 78 C24 71 23 64 22 57 L22 57 Z " />
<glyph glyph-name="z" unicode="z" horiz-adv-x="158" d="M162 298 L162 298 C162 298 162 298 162 298 C162 298 162 298 162 298 C162 298 161 298 161 298 C161 298 161 298 161 299 C161 299 161 299 160 299 C160 299 160 299 160 299 C160 299 160 299 160 299 C160 299 160 299 160 299 C159 300 158 300 158 300 L154 294 C154 294 154 294 154 294 C153 293 153 293 153 292 C143 276 136 264 129 253 C111 223 94 192 75 163 C68 152 36 106 23 87 C23 87 23 88 23 88 C21 100 19 110 15 118 C15 118 15 118 15 118 C12 130 1 142 -2 144 C1 148 3 153 5 157 C11 166 16 174 21 183 C21 183 21 183 21 183 C23 187 24 190 26 193 C32 204 38 215 45 226 C60 253 76 280 88 309 C90 314 84 319 79 318 C62 313 45 309 28 305 C15 302 -6 295 -15 309 C-20 316 -32 309 -27 302 C-16 285 4 286 22 289 C38 293 54 297 70 301 C59 277 45 254 32 232 C30 229 29 227 28 225 L28 225 L-1 174 L-1 174 C-3 170 -5 167 -7 164 C-10 158 -13 153 -16 148 C-18 145 -18 143 -17 142 C-3 128 1 118 1 118 L1 118 C2 117 3 115 3 113 C9 99 10 84 10 68 C-10 39 -30 10 -51 -19 C-66 -40 -79 -62 -91 -85 C-100 -105 -106 -125 -105 -146 C-104 -146 -104 -147 -104 -147 C-104 -149 -104 -152 -103 -155 C-101 -161 -97 -169 -86 -170 C-83 -170 -79 -170 -75 -169 C-74 -168 -72 -167 -69 -165 C-69 -165 -68 -165 -68 -165 C-67 -164 -66 -163 -65 -163 C-41 -146 -23 -122 -10 -97 C11 -56 21 -11 23 34 C24 43 24 52 24 61 C24 62 24 63 24 64 C24 64 24 64 24 64 C27 68 30 72 33 76 C33 76 33 77 34 77 C40 87 48 98 56 110 C57 111 57 112 58 113 C59 114 60 116 61 117 C63 120 65 123 67 125 C68 128 70 130 71 132 C81 147 90 161 99 176 C116 203 144 256 144 256 C153 274 162 292 163 293 C164 295 163 296 162 298 L162 298 Z M-14 -73 C-26 -102 -46 -134 -73 -152 C-73 -153 -74 -153 -75 -153 C-75 -153 -75 -153 -75 -154 C-79 -156 -88 -160 -90 -149 C-90 -147 -91 -145 -91 -143 C-92 -124 -86 -107 -78 -90 C-67 -67 -52 -46 -38 -24 C-22 -1 -6 21 10 44 C9 4 2 -36 -14 -73 L-14 -73 Z " />
<glyph glyph-name="braceleft" unicode="&#x7b;" horiz-adv-x="133" d="M194 653 C189 653 185 650 180 647 C168 638 159 626 152 613 C142 596 135 579 128 560 C116 526 104 492 92 458 C79 421 64 386 43 353 C39 348 37 343 34 338 C30 330 32 323 39 316 C42 315 44 313 47 311 C48 309 49 308 48 305 C47 301 45 297 43 294 C37 280 30 267 23 253 C14 233 5 213 3 191 C3 184 3 178 6 172 C10 166 15 163 22 163 C29 163 35 166 40 170 C48 175 55 180 62 186 C68 191 74 197 80 202 C80 202 80 202 80 202 C86 208 79 217 72 213 C71 211 70 211 68 210 C68 209 67 208 66 208 C54 198 43 189 31 180 C31 180 30 180 30 180 C30 179 29 179 29 179 C17 175 18 192 18 193 C18 194 18 195 18 196 C20 208 24 220 29 231 C37 250 47 268 55 286 C58 291 60 296 61 301 C64 309 62 316 55 322 C53 323 51 325 49 327 C46 329 46 331 47 333 C49 337 51 341 53 344 C68 367 81 390 90 415 C104 452 117 490 131 527 C139 550 147 573 158 594 C164 608 172 620 182 630 C184 632 185 633 187 634 C190 636 194 636 196 633 C198 632 200 631 202 631 C206 631 208 634 208 640 C209 649 203 655 194 653 L194 653 Z " />
<glyph glyph-name="bar" unicode="&#x7c;" horiz-adv-x="85" d="M-2 173 C-2 168 -2 164 2 164 C5 163 9 166 10 169 C11 175 12 180 14 185 C34 247 52 311 71 372 C88 425 107 477 125 530 C136 563 148 595 156 628 C160 634 160 640 161 648 C161 651 160 654 156 654 C153 655 148 651 148 648 C148 643 147 638 145 633 C136 606 127 579 119 552 C101 500 84 451 67 401 C44 330 23 260 2 190 C-1 184 -2 178 -2 173 L-2 173 Z " />
<glyph glyph-name="braceright" unicode="&#x7d;" horiz-adv-x="117" d="M172 618 C171 626 168 634 164 639 C157 650 148 655 136 654 C132 654 128 650 129 646 C129 642 133 639 137 640 C138 640 139 640 140 640 C146 639 151 636 153 631 C157 624 158 616 158 609 C159 592 157 574 152 557 C144 530 133 505 120 482 C108 460 95 440 83 418 C75 406 68 393 64 379 C60 367 63 355 74 347 C74 347 74 346 75 346 C74 346 74 345 74 345 C73 345 73 344 72 344 C64 339 58 333 54 324 C49 312 44 299 41 287 C37 270 33 253 29 236 C24 214 12 195 -7 181 C-8 180 -10 179 -12 180 C-15 181 -18 179 -19 176 C-21 172 -20 169 -18 167 C-16 164 -13 163 -10 164 C-6 165 -2 167 1 169 C18 182 30 200 38 220 C45 239 49 258 53 277 C56 291 61 304 66 317 C70 324 74 330 82 334 C83 335 85 336 87 337 C94 342 94 349 87 355 C84 356 82 358 80 360 C77 363 75 367 76 371 C79 379 81 387 85 394 C95 411 106 429 116 446 C133 476 149 506 161 538 C167 554 171 570 172 586 C173 597 173 607 172 618 L172 618 Z " />
<glyph glyph-name="asciitilde" unicode="&#x7e;" horiz-adv-x="137" d="M37 260 C34 254 34 238 35 231 C37 222 44 218 54 223 C71 234 85 249 103 265 C107 268 107 273 105 276 C103 278 99 278 95 275 C90 272 86 268 82 264 C71 255 61 244 49 235 C49 244 51 252 51 264 C51 270 48 277 40 276 C29 273 15 260 9 248 C6 243 8 239 11 238 C15 236 19 238 21 242 C25 249 30 255 37 260 L37 260 Z " />
<glyph glyph-name="quoteleft" unicode="&#x2018;" horiz-adv-x="119" d="M129 646 C129 651 127 654 124 654 C121 655 118 653 116 650 C116 649 115 648 115 647 L104 614 C104 614 104 613 103 613 C103 609 104 606 108 604 C112 603 115 605 117 609 L126 636 C128 640 129 644 129 646 L129 646 Z " />
<glyph glyph-name="quoteright" unicode="&#x2019;" horiz-adv-x="119" d="M129 646 C129 651 127 654 124 654 C121 655 118 653 116 650 C116 649 115 648 115 647 L104 614 C104 614 104 613 103 613 C103 609 104 606 108 604 C112 603 115 605 117 609 L126 636 C128 640 129 644 129 646 L129 646 Z " />
<glyph glyph-name="quotedblleft" unicode="&#x201c;" horiz-adv-x="105" d="M133 653 C130 655 126 654 124 651 C124 651 123 651 123 651 C123 650 122 649 122 648 C115 634 112 619 107 604 C106 600 109 596 114 596 C117 596 119 598 121 602 C125 614 129 627 134 639 C135 643 137 647 135 651 C135 652 134 653 133 653 L133 653 L133 653 Z M112 646 C112 648 112 649 111 651 C110 653 109 654 106 654 C103 655 100 653 99 649 L88 610 C87 606 89 603 92 602 C95 600 98 601 100 604 C101 605 102 607 102 609 C105 618 108 628 110 638 C111 639 111 641 112 643 L112 646 L112 646 Z " />
<glyph glyph-name="quotedblright" unicode="&#x201d;" horiz-adv-x="103" d="M133 653 C130 655 126 654 124 651 C124 651 123 651 123 651 C123 650 122 649 122 648 C115 634 112 619 107 604 C106 600 109 596 114 596 C117 596 119 598 121 602 C125 614 129 627 134 639 C135 643 137 647 135 651 C135 652 134 653 133 653 L133 653 L133 653 Z M112 646 C112 648 112 649 111 651 C110 653 109 654 106 654 C103 655 100 653 99 649 L88 610 C87 606 89 603 92 602 C95 600 98 601 100 604 C101 605 102 607 102 609 C105 618 108 628 110 638 C111 639 111 641 112 643 L112 646 L112 646 Z " />
</font>
</svg>
