<?xml version="1.0" encoding="UTF-8"?>
<svg xmlns="http://www.w3.org/2000/svg" xmlns:xlink="http://www.w3.org/1999/xlink" version="1.2" >
<font id="Zattoya Signature">
<font-face  font-family="Zattoya Signature" units-per-em="1000" ascent="750" descent="-250" font-style="normal" font-weight="400" font-stretch="normal" cap-height="721" x-height="391" underline-position="-75" underline-thickness="50" />
<missing-glyph  horiz-adv-x="168" d="" />
<glyph glyph-name="NULL" d="" />
<glyph glyph-name="nonmarkingreturn" unicode="&#xd;" horiz-adv-x="168" d="" />
<glyph glyph-name="space" unicode="&#x20;" horiz-adv-x="168" d="" />
<glyph glyph-name="E" unicode="E" horiz-adv-x="406" d="M681 711 Q684 706 681 702 Q678 697 673 699 Q667 702 659 700 L656 700 Q646 700 635.5 699.5 Q625 699 614 698 Q608 697 602 696.5 Q596 696 590 696 Q586 695 582 695 Q578 695 574 694 Q570 694 566.5 693.5 Q563 693 558 693 Q553 693 548.5 692.5 Q544 692 539 692 Q534 691 530.5 690.5 Q527 690 522 690 Q518 689 514.5 689 Q511 689 508 688 Q503 688 499 687.5 Q495 687 490 687 Q484 686 478.5 686 Q473 686 467 685 Q462 684 458 684 Q454 684 449 683 Q445 682 437 682 Q434 681 431 681 Q428 681 424 680 Q420 680 416 679.5 Q412 679 407 679 Q399 677 392 676.5 Q385 676 377 675 Q374 675 371.5 674.5 Q369 674 366 674 L358 673 Q352 672 346.5 671.5 Q341 671 335 670 Q330 669 325 668.5 Q320 668 315 667 L305 666 Q297 664 290.5 663.5 Q284 663 276 662 L261 659 Q259 659 258 658.5 Q257 658 255 658 Q253 658 252.5 657.5 Q252 657 250 657 Q246 656 242.5 656 Q239 656 235 655 Q230 653 224.5 652.5 Q219 652 214 650 L209 649 Q201 647 194 646 Q187 645 180 643 Q174 641 168.5 640 Q163 639 158 638 Q143 633 133 631 Q114 626 103 621 Q96 620 89 616 L83 613 Q81 613 80 612 L77 612 Q73 612 72 615 Q69 620 72 623 Q75 626 81 630 Q91 635 101.5 638.5 Q112 642 124 647 Q126 647 130 649 Q134 650 138 651 Q142 652 146 653 Q152 655 158.5 656.5 Q165 658 172 660 Q180 662 187.5 664 Q195 666 203 668 L221 671 Q223 672 224.5 672 Q226 672 228 673 L232 673 Q236 674 246 676 Q250 677 254 677.5 Q258 678 262 679 Q264 679 266 679.5 Q268 680 270 680 Q272 681 273.5 681 Q275 681 277 682 Q282 682 285.5 682.5 Q289 683 294 684 L312 687 Q315 687 318 687.5 Q321 688 323 688 Q327 689 330 689 Q333 689 337 690 Q343 691 348.5 691.5 Q354 692 360 693 Q365 694 369 694.5 Q373 695 378 695 Q380 695 381.5 695.5 Q383 696 385 696 L418 699 L421 700 L423 700 L425 700 L432 701 Q437 701 441.5 701.5 Q446 702 451 702 Q456 703 461 703 Q466 703 471 704 Q475 704 478.5 704.5 Q482 705 485 705 Q488 705 491 705.5 Q494 706 496 706 Q500 706 504 706.5 Q508 707 512 707 Q514 707 517 707.5 Q520 708 523 708 Q530 708 533 709 Q541 709 545 710 Q548 710 551.5 710 Q555 710 558 711 Q563 711 567 711.5 Q571 712 576 712 L582 713 L594 713 Q601 714 607.5 714.5 Q614 715 621 715 Q630 716 640 716 Q650 716 661 717 Q664 717 667 716.5 Q670 716 673 716 Q679 714 681 711 Z M350 268 Q358 265 356 257 Q355 251 346 251 L343 251 Q338 252 332 252.5 Q326 253 320 253 Q306 254 293.5 254 Q281 254 270 254 Q252 254 234 253.5 Q216 253 198 252 Q185 252 173 251.5 Q161 251 148 250 Q143 249 136.5 249 Q130 249 124 248 Q117 247 109 246 Q101 245 93.5 244.5 Q86 244 78 243 Q75 237 72 232 Q70 227 68 222.5 Q66 218 64 215 Q62 212 61 209.5 Q60 207 58 204 Q58 202 57 200.5 Q56 199 55 197 Q53 195 52.5 192 Q52 189 50 187 Q46 179 45 176 Q43 173 41 167 Q39 164 37.5 160.5 Q36 157 34 154 Q30 143 23 131 Q21 126 19.5 122 Q18 118 16 113 Q15 111 14.5 109.5 Q14 108 13 106 Q9 98 8 94 Q5 88 2 81.5 Q-1 75 -4 68 Q-7 60 -10.5 51.5 Q-14 43 -16 36 Q-17 34 -19 28 Q-24 11 -29.5 -5 Q-35 -21 -39 -38 Q-41 -46 -42 -53 Q-43 -60 -44 -68 Q-44 -71 -44 -74.5 Q-44 -78 -43 -81 Q-43 -82 -41 -86 Q-39 -88 -36 -89 Q-33 -90 -30 -91 Q-24 -91 -18 -90 Q-12 -89 -6 -88 Q2 -86 9 -84 Q16 -82 23 -80 L41 -74 Q45 -72 47 -72 L54 -70 Q63 -66 72 -63 Q81 -60 91 -57 Q104 -52 120 -47 Q129 -43 140 -40 Q144 -38 148 -37 Q152 -36 157 -34 Q163 -32 169.5 -29.5 Q176 -27 182 -25 Q188 -23 193.5 -21 Q199 -19 205 -17 Q214 -13 225 -10 Q233 -7 241 -4 Q249 -1 257 1 L263 4 Q268 6 273.5 7.5 Q279 9 284 11 Q286 11 287.5 11.5 Q289 12 291 12 Q298 10 299 5 Q299 0 295 -3 Q289 -5 286 -7 Q281 -9 276 -10.5 Q271 -12 266 -14 Q260 -16 253.5 -18.5 Q247 -21 241 -23 Q236 -25 231 -26.5 Q226 -28 221 -30 Q216 -32 212 -33.5 Q208 -35 203 -37 Q196 -39 190 -41.5 Q184 -44 178 -46 Q171 -49 164.5 -51.5 Q158 -54 152 -56 Q147 -58 143.5 -59 Q140 -60 135 -62 Q128 -66 122 -67 Q110 -72 96 -77 L86 -80 Q84 -82 81 -82.5 Q78 -83 76 -84 L52 -93 Q42 -96 32 -99 Q22 -102 11 -106 Q-2 -110 -14 -111 Q-18 -112 -25 -112 Q-34 -112 -43 -109 Q-56 -105 -62 -90 Q-65 -83 -65.5 -76.5 Q-66 -70 -65 -65 Q-65 -41 -55 -10 Q-53 -1 -50 9 Q-47 19 -43 30 Q-41 36 -38 42.5 Q-35 49 -33 56 L-31 61 Q-28 69 -24.5 77.5 Q-21 86 -18 94 Q-14 102 -11 109.5 Q-8 117 -4 125 Q-2 128 -1.5 130.5 Q-1 133 1 136 L2 138 L11 159 Q13 164 16 169 Q19 174 21 179 L24 184 Q26 189 28.5 193.5 Q31 198 33 203 Q36 209 40.5 218 Q45 227 50 238 Q37 236 24.5 233.5 Q12 231 -14 220 Q-15 220 -17 219 Q-19 218 -20 218 Q-28 216 -31 221 Q-35 227 -30 232 Q-25 237 -18 240 Q0 249 27 255 Q35 257 44.5 258.5 Q54 260 61 262 L63 266 Q65 270 66 271 Q71 281 74 287 Q77 293 82 302 L86 311 Q95 328 103 345 L106 350 Q113 363 119.5 376 Q126 389 134 402 Q140 413 146.5 424 Q153 435 159 446 L258 618 Q259 621 261 624 Q264 629 267 628 Q271 626 274 624 Q277 622 273 615 Q272 613 268 605 Q264 597 258.5 586.5 Q253 576 247 564 Q241 552 236 541 Q226 522 217 505 Q209 491 200.5 475.5 Q192 460 187 451 L186 449 Q183 444 180.5 440 Q178 436 176 432 Q173 426 169.5 420 Q166 414 163 408 L159 401 Q154 392 149 382.5 Q144 373 139 364 L121 328 Q119 324 116.5 320 Q114 316 112 312 Q110 307 107 302 Q105 297 102 291.5 Q99 286 96 280 Q94 278 93.5 275 Q93 272 91 270 Q90 269 90 268 Q90 267 89 266 Q91 267 95 267 Q105 269 110 269 Q122 270 136 271 Q150 272 165 273 Q174 275 182 273 L189 273 Q198 273 203 274 L240 274 Q254 273 269.5 273 Q285 273 301 272 Q310 272 319 271.5 Q328 271 337 270 L342 270 Q344 270 346 269 Q348 268 350 268 Z " />
<glyph glyph-name="F" unicode="F" horiz-adv-x="350" d="M787 697 Q788 693 785 688 Q782 683 775 683 Q767 683 764 691 Q764 692 763 692 Q761 693 757 693 Q752 694 746 694.5 Q740 695 735 695 Q723 696 711 696.5 Q699 697 686 697 L656 697 L651 697 Q636 697 620 697 Q604 697 587 696 L564 696 Q544 695 528.5 694.5 Q513 694 499 693 Q488 692 477.5 691.5 Q467 691 456 691 Q452 690 448.5 690 Q445 690 440 689 Q433 689 429 688 L416 688 Q411 687 407.5 687 Q404 687 400 687 Q393 686 387 685.5 Q381 685 374 685 Q369 684 363 684 Q357 684 352 683 Q348 683 345 682.5 Q342 682 338 682 Q334 682 330.5 681.5 Q327 681 324 681 Q317 681 314 680 Q308 680 305 679 L297 679 Q295 679 292.5 678.5 Q290 678 288 678 Q285 678 282 677.5 Q279 677 276 677 Q273 676 267 676 Q264 675 256 675 Q253 675 250 674.5 Q247 674 245 674 Q241 673 237.5 673 Q234 673 231 672 Q228 672 225.5 671.5 Q223 671 221 671 Q216 671 213 670 Q209 670 205.5 669.5 Q202 669 198 669 Q190 667 181.5 666.5 Q173 666 165 664 L157 663 Q152 663 149 662 Q144 662 139 661.5 Q134 661 129 660 Q115 658 99.5 655 Q84 652 68 647 Q63 645 58.5 644 Q54 643 49 641 L49 640 Q48 640 47 639.5 Q46 639 44 639 Q41 639 38 642 Q35 648 42 653 Q54 661 67 664 Q79 668 89 670.5 Q99 673 108 675 Q114 677 119.5 677.5 Q125 678 131 679 Q133 680 135 680 Q137 680 139 681 Q144 681 149.5 682 Q155 683 160 684 Q167 685 173 685.5 Q179 686 186 687 L193 688 Q198 689 204 689.5 Q210 690 216 691 Q221 692 225.5 692.5 Q230 693 235 693 L240 694 Q246 694 252 694.5 Q258 695 264 696 Q269 697 274.5 697.5 Q280 698 285 698 Q288 699 291 699 Q294 699 296 700 Q301 700 306.5 700.5 Q312 701 317 701 Q328 703 338 703.5 Q348 704 359 705 Q370 706 380.5 706.5 Q391 707 402 708 L413 709 L449 712 L465 712 Q468 713 475 713 L483 713 Q486 713 489.5 713.5 Q493 714 496 714 L528 714 Q533 714 538.5 714.5 Q544 715 549 715 L562 715 Q567 715 572.5 715 Q578 715 583 716 L617 716 L627 716 L653 716 Q658 716 663 715.5 Q668 715 673 715 L686 715 L694 715 Q705 715 710 714 Q718 714 726.5 713.5 Q735 713 743 713 Q749 712 754.5 711.5 Q760 711 765 710 Q770 709 773.5 708 Q777 707 781 705 Q785 702 787 697 Z M140 314 Q136 303 129 291 Q127 287 123 277.5 Q119 268 118 267 Q123 268 128 269 Q132 270 136 271 Q140 272 142 272 Q150 274 157.5 275.5 Q165 277 173 279 Q179 281 194 283 Q209 285 212 286 Q221 288 230.5 289 Q240 290 250 292 Q253 292 258 292.5 Q263 293 269 293 Q275 293 280 292.5 Q285 292 287 289 Q292 283 288 275 Q283 266 272 264 Q266 262 263 267 Q261 269 264 276 Q264 276 258.5 275 Q253 274 246 273 Q239 272 231.5 271 Q224 270 220 269 Q205 265 196 263 Q187 261 176 258 Q161 254 148.5 251 Q136 248 126 246 Q115 243 106 241 L82 193 Q80 188 78 184 Q76 180 74 175 Q69 167 66 159 Q62 152 59 145.5 Q56 139 53 132 Q51 127 48.5 123 Q46 119 44 115 L40 106 Q36 98 32 89.5 Q28 81 23 72 Q15 56 8.5 42.5 Q2 29 -4 16 Q-9 4 -13 -4 Q-17 -12 -23 -25 L-68 -124 Q-75 -128 -78 -125 Q-81 -122 -82 -120 Q-84 -113 -80 -107 L-14 32 Q-9 42 -4 52 Q1 62 6 74 L12 86 L18 98 Q20 103 22.5 108 Q25 113 27 118 Q29 123 32 128.5 Q35 134 37 140 Q39 145 41.5 150 Q44 155 47 160 Q49 165 51.5 169.5 Q54 174 56 179 Q61 189 65 198.5 Q69 208 74 217 L76 222 Q78 224 80 229.5 Q82 235 83 236 Q82 236 77 235 Q72 234 70 233 L61 231 L19 219 Q13 217 7 215.5 Q1 214 -5 212 Q-9 210 -12.5 209 Q-16 208 -21 207 Q-29 204 -37.5 201.5 Q-46 199 -55 196 Q-60 194 -62 196 Q-64 198 -65 200 Q-67 206 -60 209 Q-50 214 -41 217 L-20 226 Q-9 230 3.5 234 Q16 238 29 242 Q39 245 49 248 Q59 251 69 254 Q72 255 80 257 Q88 259 94 261 Q97 267 100 273 Q102 278 104.5 283.5 Q107 289 109 294 Q111 298 114 303.5 Q117 309 119 313 Q121 318 124 324.5 Q127 331 130 337 Q134 344 137 352 L155 391 L160 402 Q165 410 168.5 419 Q172 428 177 436 Q182 445 186 454.5 Q190 464 195 473 L199 482 Q204 491 208.5 500 Q213 509 218 518 Q220 524 223 529.5 Q226 535 228 540 Q231 546 234.5 552 Q238 558 241 564 Q248 578 254 591.5 Q260 605 270 623 Q271 624 271 626 Q271 628 271 629 Q271 633 272.5 635 Q274 637 276 639 Q277 639 279 640 Q281 641 286 641 Q295 638 291 628.5 Q287 619 283 612 Q277 599 271.5 586.5 Q266 574 260 561 Q256 553 252 545 Q248 537 244 529 Q242 525 240.5 521.5 Q239 518 237 514 Q235 510 233 506.5 Q231 503 229 499 Q224 490 219.5 480 Q215 470 210 460 Q205 449 199.5 438 Q194 427 189 416 Q186 410 183 403.5 Q180 397 177 390 Q175 386 173 382.5 Q171 379 169 375 Q166 369 163 362.5 Q160 356 157 350 Q155 345 153 341 Q151 337 149 332 L140 314 Z " />
<glyph glyph-name="G" unicode="G" horiz-adv-x="436" d="M486 642 Q489 618 482 597 Q475 577 460 557 Q457 554 453 548 Q451 546 449 544.5 Q447 543 444 541 Q441 538 436 540 Q431 543 434 549 Q435 551 435.5 551.5 Q436 552 437 554 Q438 556 438.5 556.5 Q439 557 440 559 Q442 562 443 564.5 Q444 567 446 570 Q449 575 452 580.5 Q455 586 457 592 Q466 612 465 631 Q465 649 455 664 Q443 680 425 686 Q414 690 402 690 Q390 690 379 688 Q368 686 358.5 683.5 Q349 681 339 677 Q318 667 302 658 Q286 649 268 634 Q260 627 252 620 Q244 613 236 606 Q228 598 221 590.5 Q214 583 207 575 Q199 567 193 559.5 Q187 552 180 544 L147 502 Q139 492 132.5 482 Q126 472 118 462 Q111 451 104.5 441.5 Q98 432 91 421 Q84 410 77.5 400.5 Q71 391 65 380 Q59 369 53 358.5 Q47 348 41 337 Q36 326 30.5 315 Q25 304 20 293 Q9 270 1 248 Q-4 237 -8 225 Q-12 213 -16 201 Q-20 188 -23.5 176 Q-27 164 -30 151 Q-36 125 -39 100 Q-41 86 -41.5 73.5 Q-42 61 -41 48 Q-40 42 -39.5 35.5 Q-39 29 -38 23 Q-36 18 -34.5 12.5 Q-33 7 -31 2 Q-29 -3 -26 -7 Q-23 -11 -19 -15 Q-11 -22 -1 -23 Q17 -27 40 -19 Q51 -14 60.5 -8.5 Q70 -3 80 4 Q89 10 98 17 Q107 24 115 31 Q125 39 134.5 48 Q144 57 153 65 Q163 74 172.5 83 Q182 92 191 102 Q199 110 207 118.5 Q215 127 223 135 Q228 140 232 144.5 Q236 149 241 154 Q246 159 250 164 Q254 169 259 174 Q264 179 268 183.5 Q272 188 277 193 Q281 197 284.5 200.5 Q288 204 291 209 Q296 214 300 220 Q304 226 309 232 Q313 238 316 243 L328 264 Q334 274 339.5 284 Q345 294 350 304 Q354 311 357.5 317.5 Q361 324 365 332 Q367 337 370 341 Q373 345 376 350 L340 347 Q321 345 302.5 342 Q284 339 266 336 Q264 335 261 335 Q258 335 256 334 Q254 334 252 333.5 Q250 333 248 333 Q238 333 236 339 Q232 346 241 350 Q243 351 245 351 Q247 351 249 352 L258 355 Q267 357 276 358.5 Q285 360 294 362 Q302 364 310.5 365 Q319 366 327 367 Q343 369 358.5 370.5 Q374 372 389 374 Q394 374 398.5 374.5 Q403 375 408 376 Q412 376 416 376.5 Q420 377 424 377 Q429 377 435.5 376 Q442 375 442 368 Q442 364 440 362 Q438 358 434 357 Q428 354 420 354 Q415 354 411 353.5 Q407 353 402 353 L399 353 Q399 353 397 352 Q395 352 395 349 Q393 346 391 340 Q389 336 386.5 332 Q384 328 382 323 Q377 314 373 305.5 Q369 297 364 289 Q355 272 346 255.5 Q337 239 329 222 Q320 205 311.5 189 Q303 173 295 156 Q286 139 277.5 121 Q269 103 261 86 Q243 51 227 15 Q219 -2 210.5 -20 Q202 -38 194 -55 Q185 -72 176.5 -90 Q168 -108 160 -126 Q155 -136 150.5 -146 Q146 -156 141 -166 L141 -167 Q137 -173 128 -170 Q123 -168 123 -165 Q123 -162 124 -160 Q129 -148 134.5 -136.5 Q140 -125 145 -114 Q153 -97 160.5 -80.5 Q168 -64 176 -47 Q180 -39 183.5 -30 Q187 -21 192 -12 Q196 -3 200 6 Q204 15 208 23 Q216 41 224.5 59 Q233 77 241 94 Q246 103 249.5 111.5 Q253 120 258 129 Q261 135 264 141 Q267 147 269 152 Q263 146 256.5 139 Q250 132 244 126 Q237 118 231 111.5 Q225 105 218 98 Q206 85 193 73 Q179 60 166 47 Q153 34 139 22 Q132 17 125.5 11 Q119 5 111 0 Q104 -5 96.5 -10.5 Q89 -16 81 -21 Q65 -32 50 -39 Q31 -46 18 -46 Q-11 -49 -32 -33 Q-44 -23 -50.5 -8.5 Q-57 6 -60 21 Q-62 30 -62 38.5 Q-62 47 -63 56 Q-63 65 -62.5 74 Q-62 83 -62 93 Q-60 111 -57 129 Q-54 147 -49 165 Q-44 183 -38.5 201 Q-33 219 -27 236 Q-24 245 -20.5 253.5 Q-17 262 -14 271 Q-10 279 -6.5 287 Q-3 295 2 304 Q17 335 35 367 Q43 382 52.5 397.5 Q62 413 72 428 Q81 443 91 457.5 Q101 472 112 487 Q122 500 131.5 513 Q141 526 152 539 Q163 552 173 564.5 Q183 577 194 589 Q205 601 216.5 612 Q228 623 240 634 Q264 655 291 673 Q305 682 320 690 Q335 698 352 703 Q368 708 384 710.5 Q400 713 417 710 Q449 705 469 682 Q483 667 486 642 Z " />
<glyph glyph-name="H" unicode="H" horiz-adv-x="344" d="M475 711 Q473 713 475.5 711 Q478 709 475 711 Z M478 707 Q480 703 478.5 699.5 Q477 696 475 692 Q473 688 471 684.5 Q469 681 467 676 Q462 668 459 660.5 Q456 653 451 645 Q443 628 434.5 613 Q426 598 417 582 Q409 568 402 553 Q395 538 387 524 Q372 492 355 460 Q353 456 351.5 452.5 Q350 449 348 445 Q346 441 344 438 Q342 435 342 430 Q342 428 342.5 427 Q343 426 343 424 Q344 420 343 416 Q341 413 338 411 Q336 411 332 413 Q330 408 327.5 403 Q325 398 323 393 Q317 381 311 369 Q305 357 300 345 Q292 331 284 311 L269 278 Q266 269 262 260.5 Q258 252 254 244 Q251 236 247.5 227 Q244 218 241 210 Q233 193 226 175.5 Q219 158 212 141 Q205 124 198 107 Q191 90 184 73 Q180 65 177 56 Q174 47 170 39 Q167 30 163.5 21.5 Q160 13 156 5 Q153 -4 149.5 -12.5 Q146 -21 142 -29 Q139 -38 135.5 -46.5 Q132 -55 129 -63 Q122 -79 116 -94.5 Q110 -110 104 -125 Q101 -135 98 -142 Q96 -149 94 -154 Q92 -159 92 -160 L92 -161 Q92 -165 90 -168 Q86 -176 79 -171 Q74 -168 76 -158 Q79 -147 84 -133 Q85 -130 86.5 -124.5 Q88 -119 90 -113 L99 -92 Q105 -75 111 -59.5 Q117 -44 123 -27 Q131 -9 137.5 8.5 Q144 26 151 43 Q158 60 164.5 77.5 Q171 95 179 112 Q184 124 188.5 136.5 Q193 149 198 161 Q204 175 210 189 Q216 203 221 217 Q225 225 228.5 234 Q232 243 236 251 Q240 259 243 267.5 Q246 276 250 284 Q257 301 264.5 317.5 Q272 334 280 351 Q285 359 288 367.5 Q291 376 296 384 Q298 388 299.5 392 Q301 396 303 400 Q305 402 305.5 404 Q306 406 307 408 Q311 414 312 417 Q304 418 295.5 418 Q287 418 279 419 Q264 420 249.5 420.5 Q235 421 220 421 Q203 422 187 422.5 Q171 423 154 423 L106 423 Q100 423 94 422.5 Q88 422 82 421 L75 421 L72 421 L71 421 Q71 421 70 420 Q70 419 69.5 418.5 Q69 418 69 416 Q68 414 67 412.5 Q66 411 65 409 Q62 402 59.5 395.5 Q57 389 54 383 Q52 378 49.5 372 Q47 366 45 361 Q41 352 37 343 Q33 334 30 325 Q25 316 22 307 Q19 298 15 290 Q10 281 7 272 Q4 263 0 254 Q-5 245 -8 236 Q-11 227 -15 218 Q-23 201 -29.5 183 Q-36 165 -44 147 Q-52 130 -59 113 Q-66 96 -74 79 Q-77 71 -80 62.5 Q-83 54 -87 46 Q-94 30 -100.5 15 Q-107 0 -113 -16 Q-115 -21 -116.5 -25 Q-118 -29 -120 -34 Q-122 -40 -124 -43 Q-126 -48 -128 -50 Q-130 -53 -133.5 -53 Q-137 -53 -139 -49 Q-141 -47 -141 -43 Q-141 -40 -139 -36 Q-131 -18 -124.5 0 Q-118 18 -111 35 Q-103 54 -95.5 72 Q-88 90 -80 109 L-50 181 Q-47 190 -43.5 199 Q-40 208 -36 218 Q-32 227 -29 236 Q-26 245 -22 254 Q-11 279 0 307 Q8 325 15.5 343 Q23 361 31 379 Q36 389 41 404 Q44 408 48 418 L43 418 L10 412 Q-19 407 -44 400 Q-57 397 -73 392 Q-77 390 -80.5 389.5 Q-84 389 -87 387 Q-89 386 -91 386 Q-93 386 -95 385 Q-99 385 -100 386 Q-102 388 -102.5 391.5 Q-103 395 -101 397 Q-93 403 -89 405 Q-76 412 -62 417 Q-55 419 -49 420.5 Q-43 422 -37 424 Q-30 426 -23.5 427.5 Q-17 429 -10 431 Q8 435 26 437 Q34 439 41 440 Q48 441 56 442 Q57 443 59 443 Q59 443 60 445 Q62 450 63.5 453.5 Q65 457 67 462 Q73 475 78.5 487 Q84 499 91 512 Q93 519 96.5 526 Q100 533 104 540 Q107 548 110.5 555 Q114 562 118 570 L133 600 Q135 606 138 611.5 Q141 617 144 622 L174 679 Q179 686 182 693 Q185 700 190 707 Q191 709 192 710.5 Q193 712 194 714 Q196 716 198.5 717.5 Q201 719 206 717 Q210 715 210 709 Q210 706 209 703 Q207 700 205 694 Q200 686 196.5 679 Q193 672 189 664 Q180 649 173 635 L158 605 Q154 597 150 590 Q146 583 143 575 Q136 562 130 549.5 Q124 537 117 523 Q114 515 110.5 508.5 Q107 502 104 494 Q96 474 88 460 Q84 454 81 444 L83 444 Q92 445 100.5 445 Q109 445 117 445 L165 445 Q181 445 196.5 444.5 Q212 444 228 443 Q236 443 244 442.5 Q252 442 260 442 Q268 442 275.5 441.5 Q283 441 291 441 Q296 440 302.5 440 Q309 440 315 439 L319 439 Q320 439 320.5 438.5 Q321 438 323 439 Q331 458 340 475.5 Q349 493 359 511 Q363 519 367 527.5 Q371 536 376 544 Q379 552 384 561 Q386 565 388.5 568.5 Q391 572 393 577 Q398 585 401 593 Q407 603 410 609 Q420 626 429 642 Q438 658 446 674 Q450 681 454 687.5 Q458 694 461 701 Q463 705 465 707 Q469 715 475 711 Q478 709 478 707 Z " />
<glyph glyph-name="I" unicode="I" horiz-adv-x="122" d="M65 -113 Q75 -115 73 -123 Q73 -132 63 -132 L57 -132 Q57 -132 55 -131 Q47 -131 44 -130 Q38 -130 32 -129.5 Q26 -129 20 -128 Q14 -128 8 -127.5 Q2 -127 -4 -127 Q-12 -126 -20 -125.5 Q-28 -125 -36 -124 Q-42 -123 -48 -122.5 Q-54 -122 -59 -122 Q-65 -121 -71.5 -120.5 Q-78 -120 -84 -120 L-87 -119 Q-99 -118 -111.5 -117.5 Q-124 -117 -136 -116 Q-151 -114 -168 -113.5 Q-185 -113 -202 -112 Q-217 -112 -229.5 -111.5 Q-242 -111 -253 -112 Q-264 -112 -274.5 -112.5 Q-285 -113 -296 -114 Q-301 -114 -306 -114.5 Q-311 -115 -316 -115 Q-322 -115 -328.5 -115.5 Q-335 -116 -343 -116 Q-347 -116 -349 -115 Q-355 -114 -355 -107 Q-355 -100 -349 -100 L-337 -97 Q-332 -97 -330 -96 Q-323 -95 -316.5 -94.5 Q-310 -94 -304 -93 Q-298 -92 -292.5 -92 Q-287 -92 -282 -91 L-272 -91 L-271 -91 L-265 -91 Q-260 -90 -250 -90 L-220 -90 L-216 -90 L-191 -90 Q-178 -91 -165.5 -91.5 Q-153 -92 -139 -93 Q-119 -95 -99 -96 Q-81 -98 -62.5 -99.5 Q-44 -101 -27 -103 L-22 -104 Q-6 -106 10.5 -107.5 Q27 -109 46 -111 Q51 -111 55.5 -111.5 Q60 -112 65 -113 Z M418 702 Q418 695 414 692 Q411 690 408 691 Q405 692 402 693 Q390 696 373 694 Q336 693 299.5 692 Q263 691 226 689 Q223 689 221 688 Q220 687 219.5 686 Q219 685 218 684 Q205 659 192.5 635 Q180 611 167 587 Q167 586 166 586 Q157 568 139 532.5 Q121 497 100 455 Q79 413 58.5 371.5 Q38 330 23 300 Q20 297 21 297 L21 296 Q21 295 20.5 294.5 Q20 294 20 293 Q3 260 -19 212.5 Q-41 165 -63 117 Q-85 69 -103 28.5 Q-121 -12 -129 -31 L-134 -41 Q-135 -43 -135 -44 L-141 -54 Q-147 -63 -152 -62 Q-157 -60 -157 -50 Q-157 -46 -156 -40 L-60 170 L-42 208 Q-41 211 -40 213 Q-39 215 -38 217 Q-36 221 -35 224 Q-34 227 -32 231 Q-27 242 -21.5 254.5 Q-16 267 -9 281 Q31 361 65 431 Q80 461 94.5 491 Q109 521 122.5 547 Q136 573 147 594 Q158 615 164 627 Q166 630 167 632.5 Q168 635 170 638 Q177 651 183.5 663 Q190 675 197 687 Q158 685 119 680.5 Q80 676 41 670 Q36 669 30.5 670 Q25 671 24 676 Q24 681 28 683 Q32 685 37 687 Q98 702 160 706.5 Q222 711 285 713 Q313 713 340.5 713 Q368 713 396 712 Q401 712 405.5 711.5 Q410 711 414 708 Q416 706 418 702 Z " />
<glyph glyph-name="J" unicode="J" horiz-adv-x="388" d="M660 700 Q665 698 661 699.5 Q657 701 660 700 Q669 697 670 690 Q672 680 665 677 Q661 676 658 679 Q656 681 656 682 Q654 684 653 684 Q648 684 642.5 684.5 Q637 685 632 685 Q621 686 611.5 686.5 Q602 687 592 688 Q582 688 572 688.5 Q562 689 552 689 Q543 690 534 690 Q525 690 515 690 Q504 690 493.5 690 Q483 690 472 691 L460 691 L439 691 Q435 691 431 691 Q427 691 422 692 L397 692 L354 692 L316 692 L273 692 Q262 691 251.5 691 Q241 691 230 690 Q220 690 211 689.5 Q202 689 192 688 Q181 687 170 686.5 Q159 686 148 684 Q132 684 114 681 Q107 681 103 680 Q97 680 94 681 Q90 683 90 687.5 Q90 692 93 694 Q95 696 97.5 696 Q100 696 102 697 Q104 697 107 697.5 Q110 698 112 698 L127 701 Q133 702 139.5 703 Q146 704 152 705 L179 708 Q187 709 195.5 709 Q204 709 212 710 Q218 711 224 711 Q230 711 235 711 Q244 712 252.5 712 Q261 712 270 713 Q281 713 291 713.5 Q301 714 312 714 Q321 714 330.5 714.5 Q340 715 349 715 Q357 715 364.5 715 Q372 715 380 716 L401 716 L409 716 L420 716 Q425 716 429 715.5 Q433 715 438 715 L460 715 Q465 714 471 714 Q477 714 482 714 Q487 714 492 714 Q497 714 502 713 L515 713 L519 713 Q522 713 524.5 712.5 Q527 712 530 712 Q536 711 542 711 Q548 711 553 710 Q561 709 569.5 709 Q578 709 586 708 L622 705 Q627 704 631.5 703.5 Q636 703 641 703 Q646 702 650.5 702 Q655 702 660 700 Z M461 681 Q464 680 466 675 L466 671 Q466 669 465.5 668 Q465 667 465 665 Q464 663 463.5 660 Q463 657 462 655 Q461 652 460.5 649.5 Q460 647 459 644 Q457 634 454 624.5 Q451 615 448 604 Q445 596 442 587 Q439 578 437 569 Q433 559 430 549.5 Q427 540 423 530 Q419 519 415.5 509 Q412 499 407 488 L392 446 Q387 436 383.5 426.5 Q380 417 375 406 Q370 396 366.5 386.5 Q363 377 358 367 L340 328 Q333 312 322 291 Q317 282 313 273 Q309 264 304 254 Q299 246 294 237 Q289 228 284 219 Q279 210 274.5 201.5 Q270 193 265 184 L244 151 Q239 143 234 135 Q229 127 224 119 Q218 110 212 101.5 Q206 93 201 85 Q194 76 188 67.5 Q182 59 176 50 Q169 41 163 32.5 Q157 24 150 16 Q143 7 136.5 -1.5 Q130 -10 123 -18 Q116 -26 109 -34 Q102 -42 95 -50 L77 -68 Q76 -70 75 -70.5 Q74 -71 72 -73 Q70 -75 68 -77.5 Q66 -80 64 -82 Q60 -84 57 -87 Q54 -90 51 -93 Q46 -96 42.5 -99.5 Q39 -103 34 -106 Q29 -110 24.5 -113 Q20 -116 15 -120 Q10 -124 5 -127 Q0 -130 -5 -133 Q-17 -141 -28 -146 Q-34 -148 -39.5 -150.5 Q-45 -153 -52 -155 Q-57 -157 -63 -158 Q-69 -159 -75 -161 Q-81 -162 -87.5 -162 Q-94 -162 -99 -162 Q-105 -161 -111 -160 Q-117 -159 -123 -157 Q-137 -152 -146 -144 Q-158 -136 -168 -121 Q-176 -106 -179 -93 Q-183 -80 -183 -61 Q-183 -53 -182 -44.5 Q-181 -36 -180 -28 Q-178 -20 -176 -11.5 Q-174 -3 -172 6 Q-170 14 -166.5 21 Q-163 28 -160 35 Q-157 42 -154 48.5 Q-151 55 -147 62 Q-146 64 -145 66.5 Q-144 69 -143 71 Q-143 72 -141 74 Q-139 79 -136 82.5 Q-133 86 -131 91 Q-119 110 -106 125 Q-99 134 -92.5 142 Q-86 150 -78 158 Q-70 166 -62.5 173.5 Q-55 181 -47 189 Q-30 205 -12 218 Q7 233 26 244 Q36 251 45.5 256.5 Q55 262 66 268 Q76 273 86 278.5 Q96 284 107 289 Q118 294 128.5 298 Q139 302 150 306 Q161 310 172 313.5 Q183 317 194 320 Q205 323 216 325.5 Q227 328 238 330 Q261 335 284 336 Q290 337 296 337 Q302 337 308 337 Q311 337 314 337.5 Q317 338 320 338 Q322 338 323 340 L326 346 Q331 356 335 366 Q339 376 344 386 Q349 397 354 409 Q359 421 364 432 Q369 443 373 453 Q377 463 381 473 Q386 486 390 498 Q394 510 399 523 Q404 534 407.5 545.5 Q411 557 415 568 Q418 574 420 580.5 Q422 587 424 594 Q429 606 432.5 618 Q436 630 440 642 Q445 656 448 667 Q450 672 452.5 677.5 Q455 683 461 681 Z M313 318 Q314 320 314 321 Q314 322 315 323 Q310 323 305.5 323 Q301 323 296 322 Q291 321 286 321 Q281 321 276 320 Q266 318 256.5 317.5 Q247 317 237 315 L204 306 L168 294 Q160 292 151 288.5 Q142 285 134 282 Q114 274 100 266 Q92 262 83.5 258 Q75 254 66 249 Q58 244 50 239 Q42 234 34 229 Q26 224 18.5 218.5 Q11 213 3 207 Q-4 201 -11 195.5 Q-18 190 -25 184 Q-37 173 -48 161 Q-55 155 -60.5 149 Q-66 143 -72 137 Q-78 130 -83.5 123.5 Q-89 117 -94 110 Q-105 95 -114 81 L-132 51 Q-136 43 -139.5 34.5 Q-143 26 -146 18 Q-153 -1 -157 -16 Q-162 -33 -163 -50 Q-164 -64 -161 -81 Q-159 -89 -157 -96 Q-155 -103 -150 -110 Q-142 -124 -130 -133 Q-116 -142 -102 -143 Q-89 -144 -72 -141 Q-56 -138 -41 -132 Q-28 -126 -15 -119 Q-5 -113 8 -103 Q14 -98 20 -93.5 Q26 -89 31 -84 Q37 -79 43 -73.5 Q49 -68 54 -63 Q60 -57 66 -51 Q72 -45 78 -38 Q83 -32 89 -25.5 Q95 -19 100 -13 Q106 -5 112 1.5 Q118 8 123 15 Q129 23 134.5 30 Q140 37 145 44 Q156 58 167 75 Q172 83 177.5 90.5 Q183 98 188 106 Q199 120 209 138 Q214 146 219.5 153.5 Q225 161 230 169 Q235 177 239.5 185 Q244 193 249 201 Q254 209 258.5 216.5 Q263 224 268 232 Q277 247 287 266 L302 296 Q305 302 307.5 307.5 Q310 313 313 318 Z " />
<glyph glyph-name="K" unicode="K" horiz-adv-x="436" d="M599 674 Q602 669 599 664 Q595 659 591 656 Q583 648 575 641.5 Q567 635 558 627 Q550 620 542 613.5 Q534 607 526 601 Q518 595 510 589 Q502 583 494 576 L487 571 Q482 566 476 562 Q470 558 465 554 Q460 549 454.5 545.5 Q449 542 444 538 Q442 536 440.5 535.5 Q439 535 437 533 Q429 527 426 525 Q420 520 414.5 516.5 Q409 513 403 508 L400 506 Q395 502 389 498.5 Q383 495 378 491 Q371 486 364 481.5 Q357 477 351 473 Q342 467 333 461.5 Q324 456 316 451 Q311 448 307 445 Q303 442 298 440 Q294 436 290 435 Q288 433 286.5 432.5 Q285 432 283 430 L268 421 Q258 415 247 409 Q236 403 222 395 Q214 390 205 385 Q196 380 188 375 Q180 371 171.5 367 Q163 363 155 358 L146 354 Q139 350 132.5 346.5 Q126 343 120 340 Q115 338 110 335.5 Q105 333 100 331 Q98 329 94.5 327.5 Q91 326 87 324 L56 308 Q57 305 61 301 Q63 298 67 293.5 Q71 289 76 284 Q81 279 86.5 273.5 Q92 268 97 262 Q105 254 111.5 245.5 Q118 237 125 229 Q129 225 135 217 Q137 215 138.5 213 Q140 211 142 209 L145 206 Q151 198 157.5 190.5 Q164 183 170 175 Q178 165 185 155.5 Q192 146 200 137 Q202 134 205 131 Q208 128 210 125 L213 121 Q218 116 222 110 Q226 104 231 98 Q237 90 243.5 81.5 Q250 73 257 64 Q259 60 262 56 Q265 52 267 48 Q269 46 270.5 43 Q272 40 274 38 Q277 33 280.5 28.5 Q284 24 287 19 Q291 14 295 7 Q297 5 298.5 2 Q300 -1 302 -3 L303 -4 Q305 -7 307.5 -10.5 Q310 -14 312 -18 Q314 -22 317 -25.5 Q320 -29 322 -33 Q326 -39 329 -44 Q333 -49 336.5 -55 Q340 -61 344 -66 Q351 -77 357 -86.5 Q363 -96 369 -106 L387 -136 Q389 -139 390.5 -143 Q392 -147 391 -152 Q389 -157 385 -160 Q383 -162 380 -162 L378 -162 Q374 -161 373 -158 Q371 -155 373 -152 Q375 -149 373 -147 Q371 -143 370 -142 Q368 -138 366 -134.5 Q364 -131 362 -128 Q353 -114 346 -103 Q339 -92 332 -81 Q327 -73 322 -66.5 Q317 -60 312 -53 L309 -48 Q304 -40 299 -33 Q294 -26 289 -18 Q284 -12 280.5 -6 Q277 0 272 6 Q269 9 267 13 L258 25 Q256 29 253 32.5 Q250 36 247 40 L241 49 Q235 57 232 60 Q230 63 228 66 Q226 69 224 72 Q221 76 218 79.5 Q215 83 213 86 Q205 96 200 103 Q191 114 182 126 Q173 138 164 149 Q155 160 146 170.5 Q137 181 129 192 L128 192 Q120 201 111 213 Q102 225 91 237 Q84 245 76.5 253.5 Q69 262 60 273 Q57 276 54.5 279 Q52 282 49 285 Q47 286 46.5 287 Q46 288 44 290 L42 286 Q40 283 39.5 280 Q39 277 37 275 Q35 272 34.5 269.5 Q34 267 32 265 Q30 260 28 256 Q26 252 24 247 Q22 242 20 238 Q18 234 16 229 Q14 227 13.5 224 Q13 221 11 219 Q9 216 8.5 213 Q8 210 6 207 L0 195 L-9 174 L-17 157 Q-19 152 -21.5 146.5 Q-24 141 -26 135 Q-29 130 -31.5 124.5 Q-34 119 -36 114 Q-39 106 -42 100.5 Q-45 95 -47 89 Q-52 77 -58 64 L-61 55 Q-64 49 -66.5 43 Q-69 37 -71 31 Q-74 25 -76.5 18.5 Q-79 12 -81 6 L-84 -1 Q-87 -7 -88 -11 Q-90 -16 -92.5 -22 Q-95 -28 -97 -34 Q-100 -41 -102 -47 Q-104 -53 -106 -60 Q-107 -62 -109 -68 L-109 -71 Q-111 -80 -118 -80 Q-120 -80 -121 -79 Q-122 -78 -124 -77 Q-126 -73 -125 -70 Q-124 -66 -123.5 -62 Q-123 -58 -121 -53 Q-116 -40 -111.5 -27.5 Q-107 -15 -102 -1 Q-100 6 -97 12.5 Q-94 19 -92 25 Q-91 27 -90 29.5 Q-89 32 -88 35 Q-83 48 -77.5 61.5 Q-72 75 -66 89 Q-65 91 -64 93.5 Q-63 96 -62 99 Q-61 101 -59 107 Q-58 109 -57.5 110.5 Q-57 112 -56 114 Q-54 120 -53 122 L-52 123 Q-48 134 -44 143.5 Q-40 153 -36 163 Q-32 171 -28.5 179.5 Q-25 188 -21 196 Q-19 201 -17.5 204.5 Q-16 208 -14 213 L-12 218 Q-10 221 -8 227 Q-6 232 -3.5 236.5 Q-1 241 1 246 Q6 256 11 267.5 Q16 279 22 290 Q29 305 36 319 Q43 333 50 347 Q53 352 55.5 357.5 Q58 363 61 368 Q63 370 64 373 Q65 376 67 378 Q69 381 70.5 384.5 Q72 388 74 392 Q78 399 81.5 406 Q85 413 90 421 Q96 433 103 445.5 Q110 458 116 469 L122 480 Q127 489 132.5 498.5 Q138 508 143 517 Q148 525 152 532.5 Q156 540 160 547 Q165 556 170 564.5 Q175 573 180 582 Q182 586 184 589 Q186 592 188 596 Q190 600 192 603 Q194 606 196 610 Q198 613 199 615.5 Q200 618 202 621 Q204 624 206 627.5 Q208 631 210 634 Q212 639 214 642.5 Q216 646 218 650 Q220 654 222 657 Q224 660 226 664 Q229 670 232.5 676 Q236 682 239 688 Q243 696 246 699 L246 701 Q247 702 247 702.5 Q247 703 248 704 Q251 709 256 707 Q262 705 260 700 Q260 695 257 691 Q251 674 244 663 Q241 655 236.5 647.5 Q232 640 227 630 Q225 626 223.5 622.5 Q222 619 220 616 Q219 614 218 612.5 Q217 611 216 609 L213 603 Q211 601 210 598 Q209 595 207 593 Q205 589 203.5 586 Q202 583 200 580 Q198 575 195.5 571.5 Q193 568 191 563 Q188 558 185 553 Q182 548 179 543 Q173 531 165 517 Q163 513 161.5 510 Q160 507 158 504 Q156 501 154.5 497.5 Q153 494 151 491 L139 470 Q137 467 135.5 463.5 Q134 460 132 456 Q129 451 126.5 447 Q124 443 122 438 L110 417 L104 405 Q102 402 101 399.5 Q100 397 98 394 Q96 392 95.5 390 Q95 388 93 386 Q91 382 89 378.5 Q87 375 85 371 Q82 365 79 359 Q76 353 74 348 Q72 346 71.5 344 Q71 342 69 340 Q68 338 68 337 Q68 336 67 334 L66 334 Q68 335 70.5 336 Q73 337 75 338 Q82 342 89 345 Q96 348 103 352 Q112 357 121.5 361.5 Q131 366 139 371 Q145 374 151 377 Q157 380 162 383 Q168 387 171 388 Q173 390 176 391 Q179 392 181 394 Q187 398 193.5 401 Q200 404 206 408 Q217 414 229 422 Q233 424 239 428 Q241 430 243.5 430.5 Q246 431 248 433 L269 445 Q277 450 283.5 454.5 Q290 459 298 464 Q308 470 317.5 476.5 Q327 483 337 489 L355 501 Q361 505 363 507 L369 510 Q372 512 374.5 514 Q377 516 380 518 Q391 526 400.5 532.5 Q410 539 420 546 Q436 557 446 566 Q451 570 456 573.5 Q461 577 466 581 L471 585 Q476 588 480 591.5 Q484 595 488 598 Q494 603 500 607.5 Q506 612 512 617 L518 621 Q527 629 536 635.5 Q545 642 554 650 Q560 655 566 658.5 Q572 662 577 667 Q583 670 587 674 Q588 674 588 674.5 Q588 675 589 675 Q594 677 599 674 Z " />
<glyph glyph-name="L" unicode="L" horiz-adv-x="210" d="M401 -35 Q413 -37 415 -49 Q417 -54 413 -59 Q410 -62 408 -62 L405 -62 Q401 -61 401 -55 Q401 -53 399 -53 Q394 -53 391 -52 Q387 -51 383 -51 Q379 -51 374 -51 Q366 -50 357.5 -50 Q349 -50 340 -50 L337 -50 L319 -50 L311 -51 L284 -51 Q278 -52 271.5 -52 Q265 -52 258 -53 Q253 -53 249 -53 Q245 -53 240 -54 L232 -54 Q224 -54 219 -55 Q211 -55 207 -56 L197 -56 Q193 -57 189 -57 Q185 -57 181 -57 Q176 -58 172 -58 Q168 -58 163 -58 Q156 -59 150 -59.5 Q144 -60 138 -60 L134 -61 Q127 -61 120.5 -61.5 Q114 -62 107 -63 L102 -63 Q94 -64 86.5 -64.5 Q79 -65 71 -67 Q52 -69 32.5 -72.5 Q13 -76 -7 -79 Q-15 -81 -23.5 -82.5 Q-32 -84 -42 -86 Q-50 -88 -58.5 -89.5 Q-67 -91 -77 -94 Q-87 -96 -96 -98.5 Q-105 -101 -115 -104 Q-116 -104 -117 -105 Q-118 -106 -119 -106 Q-121 -107 -122 -107 Q-123 -107 -124 -108 L-127 -108 L-129 -108 Q-131 -109 -134 -109.5 Q-137 -110 -139 -111 Q-147 -113 -154 -116 Q-161 -119 -169 -121 Q-180 -126 -190.5 -130 Q-201 -134 -211 -139 Q-225 -144 -236.5 -150.5 Q-248 -157 -259 -165 Q-263 -167 -266 -164 Q-270 -160 -268 -155 Q-267 -152 -262 -149 Q-255 -142 -247 -137 Q-238 -131 -226 -125 L-224 -124 Q-215 -119 -205.5 -115 Q-196 -111 -186 -107 Q-177 -103 -167.5 -100 Q-158 -97 -149 -93 Q-145 -91 -141 -90 Q-137 -89 -132 -87 Q-131 -87 -130 -86 Q-128 -81 -126 -76 Q-124 -71 -122 -66 Q-119 -59 -116.5 -52.5 Q-114 -46 -111 -38 Q-106 -27 -101 -15 Q-96 -3 -90 11 Q-86 20 -82 29 Q-78 38 -74 46 Q-71 52 -68.5 58 Q-66 64 -64 70 Q-62 75 -60 78.5 Q-58 82 -56 87 Q-54 92 -52 96.5 Q-50 101 -47 106 Q-43 119 -35 133 Q-34 137 -32.5 140.5 Q-31 144 -29 147 L-23 162 Q-19 169 -16 176.5 Q-13 184 -9 192 Q-4 204 1.5 215.5 Q7 227 12 239 Q15 245 18.5 251 Q22 257 25 263 L28 269 Q32 277 35.5 285 Q39 293 44 302 Q49 310 52.5 318 Q56 326 61 334 Q67 344 72.5 354 Q78 364 84 375 Q89 383 92.5 390 Q96 397 100 404 Q108 418 116.5 432.5 Q125 447 133 461 Q136 466 139.5 472 Q143 478 146 484 Q149 488 153 496 Q155 499 157 502 Q159 505 161 508 Q167 520 175 534 Q179 540 182.5 546.5 Q186 553 190 558 Q193 563 196 567.5 Q199 572 201 577 Q204 581 208 589 Q210 592 211.5 595 Q213 598 215 601 Q220 609 224 615.5 Q228 622 232 629 L235 633 Q237 635 237.5 637 Q238 639 240 641 Q243 647 246.5 652.5 Q250 658 253 664 Q264 679 273 693 Q275 695 276.5 698 Q278 701 280 703 Q280 705 282 705 Q286 709 291 706 Q294 701 293 696 Q292 694 291.5 693.5 Q291 693 290 691 Q286 685 282.5 679 Q279 673 276 666 Q271 658 266.5 650.5 Q262 643 257 635 Q255 630 252.5 626.5 Q250 623 248 619 Q242 610 237 600 Q234 595 231.5 591 Q229 587 226 582 Q224 578 222 574.5 Q220 571 218 568 Q216 564 212 558 Q208 552 207 549 Q205 545 202.5 541.5 Q200 538 198 535 Q194 527 188 518 Q187 516 186 514 Q185 512 184 510 Q182 508 181.5 506 Q181 504 179 502 Q177 498 175 494.5 Q173 491 171 487 Q168 482 165 478 Q162 474 160 469 Q156 463 153 457 Q150 451 146 445 Q144 440 141 436 Q138 432 136 427 Q134 425 132.5 421.5 Q131 418 129 416 Q127 412 124.5 408 Q122 404 120 400 Q115 392 110 382.5 Q105 373 99 362 L94 354 Q83 332 71 311 Q66 303 62.5 295 Q59 287 54 279 Q52 275 50.5 271.5 Q49 268 47 264 Q45 262 44.5 259.5 Q44 257 42 255 Q40 250 37 244.5 Q34 239 32 234 Q28 226 24 218.5 Q20 211 16 203 Q15 201 14 198 Q13 195 12 193 Q8 188 7 182 Q2 174 -2 164.5 Q-6 155 -11 146 Q-20 129 -25 114 L-29 107 Q-32 100 -34.5 94 Q-37 88 -40 82 Q-42 77 -43.5 73.5 Q-45 70 -47 66 Q-49 61 -51 57 Q-53 53 -55 49 Q-58 42 -61 36 Q-64 30 -67 23 Q-72 12 -77.5 0 Q-83 -12 -88 -24 Q-91 -32 -94.5 -39 Q-98 -46 -101 -54 L-107 -69 Q-109 -71 -109.5 -73.5 Q-110 -76 -112 -78 L-113 -82 Q-112 -81 -109 -81 Q-105 -79 -97 -77 Q-90 -75 -83.5 -73.5 Q-77 -72 -71 -70 L-68 -70 Q-64 -69 -60 -68 Q-56 -67 -51 -66 Q-43 -64 -34.5 -62.5 Q-26 -61 -16 -59 Q-11 -57 -5 -56.5 Q1 -56 8 -54 Q15 -53 21.5 -52 Q28 -51 36 -50 Q42 -49 47.5 -48.5 Q53 -48 59 -47 L89 -44 Q97 -43 104.5 -43 Q112 -43 120 -42 Q126 -41 132.5 -40.5 Q139 -40 145 -40 Q150 -39 153.5 -39 Q157 -39 162 -39 Q166 -38 174 -38 Q179 -37 184 -37 Q189 -37 194 -36 Q199 -36 203.5 -36 Q208 -36 213 -35 L223 -35 Q229 -35 232 -34 L242 -34 Q248 -34 251 -33 Q258 -33 265 -32.5 Q272 -32 279 -32 Q292 -32 305.5 -31.5 Q319 -31 333 -31 Q342 -31 351.5 -31 Q361 -31 371 -32 Q386 -32 401 -35 Z " />
<glyph glyph-name="M" unicode="M" horiz-adv-x="550" d="M669 682 Q671 680 671 680 Q671 680 670 681 Q669 682 668.5 682.5 Q668 683 669 682 Q674 677 675 669 Q676 661 674 653 Q672 644 668.5 635.5 Q665 627 660 618 Q653 602 643 583 Q633 564 624 549 Q619 540 614 531 Q609 522 604 513 Q599 505 593.5 496.5 Q588 488 583 479 Q578 470 573.5 461 Q569 452 564 443 Q552 425 544 408 Q539 400 534 391 Q529 382 524 373 Q519 365 514.5 356 Q510 347 505 338 Q500 329 495.5 320 Q491 311 486 303 Q481 294 476 285 Q471 276 466 267 Q461 258 457 249 Q453 240 448 232 L430 196 Q425 187 420.5 178.5 Q416 170 411 161 Q406 153 402.5 144 Q399 135 395 126 Q390 117 386 108.5 Q382 100 379 91 Q374 83 370.5 74 Q367 65 363 57 Q361 52 359 48 Q357 44 355 41 Q351 31 347 22 Q343 13 339 4 Q335 -4 332 -11.5 Q329 -19 326 -27 Q318 -43 314 -58 Q309 -67 305.5 -76.5 Q302 -86 297 -94 Q295 -100 293 -104 Q292 -106 291 -108.5 Q290 -111 290 -113 Q289 -115 289 -116.5 Q289 -118 287 -120 Q285 -122 281 -122 Q273 -122 273 -112 Q273 -109 275 -105 L278 -96 Q285 -82 289 -69 Q293 -60 297 -50.5 Q301 -41 305 -31 Q309 -22 312.5 -13 Q316 -4 319 6 Q323 15 326.5 24.5 Q330 34 334 42 L349 78 Q353 88 357 97 Q361 106 365 114 Q369 123 373 131.5 Q377 140 382 149 Q389 165 399 184 Q409 205 418 221 Q423 229 427 237.5 Q431 246 436 255 Q441 264 445 273 Q449 282 454 291 Q459 300 464 308.5 Q469 317 474 326 Q479 335 483.5 344 Q488 353 493 362 Q505 380 513 397 Q521 413 530 428 Q535 436 539 443.5 Q543 451 548 459 Q553 468 558.5 477 Q564 486 569 494 Q574 502 579 511 Q584 520 589 528 Q594 536 598.5 544.5 Q603 553 608 561 Q613 569 617 577 Q621 585 626 593 Q628 598 630.5 602 Q633 606 636 611 Q638 616 640 621 Q642 626 644 631 Q649 642 652 651 Q653 653 653 655.5 Q653 658 654 660 Q654 664 653 666 Q651 670 646 668 Q641 666 639 664 Q635 662 631.5 659.5 Q628 657 624 654 L612 645 Q605 640 598.5 635.5 Q592 631 586 627 Q581 622 576 618.5 Q571 615 566 610 Q559 605 553 599 Q547 593 540 588 Q532 581 525 574.5 Q518 568 511 563 Q504 557 498 551.5 Q492 546 486 540 Q480 535 474.5 530 Q469 525 463 520 Q455 512 449 505.5 Q443 499 435 493 Q430 488 425 483 Q420 478 415 473 Q407 466 400 459 Q393 452 385 445 Q379 437 372.5 431 Q366 425 359 417 Q352 410 345 403 Q338 396 331 388 Q324 380 318 373.5 Q312 367 305 359 Q299 352 293 346 Q287 340 281 333 Q276 327 269.5 320.5 Q263 314 257 308 Q253 305 250 302 Q247 299 243 297 Q239 295 236 293 Q233 291 228 291 Q221 291 216 296 Q212 302 212 305 Q211 312 212.5 318 Q214 324 216 330 Q218 333 218.5 336.5 Q219 340 221 344 Q222 346 222 348.5 Q222 351 224 353 Q226 363 228 367 Q229 371 230 374.5 Q231 378 233 383 Q235 388 236 392.5 Q237 397 239 402 Q241 407 242.5 412 Q244 417 246 422 Q248 428 249 433 Q250 438 251 443 Q253 448 254.5 453.5 Q256 459 258 464 L264 485 Q266 490 267 494.5 Q268 499 270 503 Q272 508 273 511.5 Q274 515 275 520 Q276 523 277 526.5 Q278 530 279 534 Q281 540 282 544 Q282 545 282.5 546 Q283 547 283 549 Q275 541 268 534 Q261 527 254 519 Q247 511 240 503 Q233 495 226 486 Q219 477 212.5 468.5 Q206 460 200 451 Q192 442 186.5 433.5 Q181 425 174 416 Q167 406 160.5 397 Q154 388 147 379 Q143 374 139.5 369.5 Q136 365 133 360 Q129 355 125.5 350 Q122 345 120 340 L99 310 Q94 305 90.5 299 Q87 293 83 287 Q78 280 74 274 Q70 268 65 261 Q59 252 54 244 Q49 236 43 228 Q37 220 31 211.5 Q25 203 20 195 Q15 189 11 182.5 Q7 176 2 171 Q-1 166 -4.5 162 Q-8 158 -11 154 Q-16 147 -22 144 Q-28 142 -34 144 Q-40 147 -42 154 Q-45 162 -43 173 Q-43 178 -42 183.5 Q-41 189 -39 194 Q-36 203 -33.5 212 Q-31 221 -27 231 Q-25 237 -24 239 Q-17 259 -9.5 278 Q-2 297 8 318 Q15 336 24 353 Q29 362 32.5 370.5 Q36 379 41 388 Q46 399 51 408.5 Q56 418 61 428 Q66 437 71 447 Q76 457 81 467 Q86 477 92 486.5 Q98 496 103 506 Q105 511 108 516.5 Q111 522 114 527 Q116 530 117 532.5 Q118 535 120 538 Q121 540 122 541 Q123 542 124 544 Q129 549 131 549 Q135 551 138 548 Q141 545 141 541 Q141 538 140 536.5 Q139 535 137 533 Q135 531 134.5 528.5 Q134 526 132 523 Q127 513 122.5 503.5 Q118 494 113 484 Q108 474 102.5 464.5 Q97 455 92 444 Q87 435 82 425.5 Q77 416 72 405 Q67 395 62 385 Q57 375 53 366 Q48 355 43 345.5 Q38 336 33 326 Q28 315 24 305.5 Q20 296 15 285 L0 249 Q-8 231 -14 210 Q-17 200 -19.5 190.5 Q-22 181 -24 172 Q-20 175 -14 183 Q-12 186 -10 189 Q-8 192 -5 195 Q5 208 14 221 Q23 234 33 247 Q42 261 50.5 274 Q59 287 69 301 Q77 314 86 326 Q95 338 104 351 Q112 362 119.5 373 Q127 384 136 395 Q152 419 168 438 Q174 446 178.5 454 Q183 462 191 470 Q196 476 200.5 482 Q205 488 210 494 Q215 500 221 506.5 Q227 513 232 520 Q236 525 239.5 529.5 Q243 534 248 539 Q253 546 259.5 552.5 Q266 559 274 565 Q279 568 287 570.5 Q295 573 300 566 Q302 562 302 557.5 Q302 553 302 549 Q302 544 301 539.5 Q300 535 299 530 Q297 522 294.5 514 Q292 506 289 499 Q286 489 283 479 Q280 469 277 459 L265 423 Q263 418 261.5 412.5 Q260 407 258 402 Q256 397 255 393.5 Q254 390 253 386 Q251 378 248.5 370.5 Q246 363 244 355 Q242 347 239.5 339.5 Q237 332 235 324 Q233 320 231 310 Q231 311 231.5 311 Q232 311 232 312 Q235 314 238 317 Q241 320 244 323 L261 340 Q267 347 273.5 354 Q280 361 287 368 Q295 375 302 383 Q309 391 316 399 Q327 411 338 423 Q349 435 361 446 Q374 459 386 471.5 Q398 484 411 497 Q435 518 458 541 Q468 549 477 557.5 Q486 566 496 574 Q510 587 524 599 Q538 611 553 624 Q567 635 581 646.5 Q595 658 610 669 Q614 672 617.5 674.5 Q621 677 625 679 Q629 681 632.5 683 Q636 685 640 687 Q647 690 655 689.5 Q663 689 669 682 Z " />
<glyph glyph-name="N" unicode="N" horiz-adv-x="470" d="M595 655 Q597 645 593 636.5 Q589 628 584 620 Q579 612 574.5 603.5 Q570 595 565 587 Q559 577 553 568 Q547 559 541 550 Q535 540 528.5 531 Q522 522 516 513 Q504 496 491 476 Q485 467 479 457.5 Q473 448 467 439 Q462 430 456.5 421 Q451 412 446 402 Q441 393 435 383.5 Q429 374 424 364 L403 325 Q398 315 393 305.5 Q388 296 383 286 L365 250 Q360 240 355.5 230.5 Q351 221 346 210 Q341 200 336.5 190.5 Q332 181 327 170 Q322 159 318 149.5 Q314 140 309 129 Q304 119 300 109 Q296 99 291 88 Q281 67 274 48 L256 6 Q252 -4 248 -14 Q244 -24 240 -35 Q235 -46 231.5 -56 Q228 -66 224 -76 Q224 -78 223.5 -79 Q223 -80 223 -82 Q221 -84 223 -85 Q223 -87 225 -89 Q226 -90 226 -93 Q224 -98 221 -98 Q219 -99 216.5 -98 Q214 -97 212 -96 Q210 -94 208.5 -92 Q207 -90 207 -88 Q205 -86 205.5 -83.5 Q206 -81 206 -78 Q208 -67 212 -58 Q215 -47 218.5 -37.5 Q222 -28 227 -17 Q231 -7 234.5 3 Q238 13 242 23 Q247 34 250.5 43.5 Q254 53 259 64 Q262 74 267 86 Q272 97 275.5 107 Q279 117 284 128 Q288 136 291.5 145 Q295 154 299 163 Q302 170 305 177 Q308 184 312 192 Q315 199 318 205 Q321 211 324 218 Q331 234 341 253 Q346 263 350.5 272.5 Q355 282 360 292 Q365 302 370 311.5 Q375 321 380 331 Q385 342 390.5 351.5 Q396 361 401 371 Q407 381 412.5 390.5 Q418 400 423 410 Q428 418 433 426.5 Q438 435 443 444 Q449 453 455 462 Q461 471 466 480 L490 516 Q495 524 501 532 Q507 540 512 548 Q519 557 525 566 Q531 575 537 584 Q543 593 549 602 Q555 611 560 620 Q563 625 565.5 629.5 Q568 634 570 639 Q574 646 576 655 Q569 655 562.5 652.5 Q556 650 550 648 Q543 644 537 640.5 Q531 637 524 633 Q510 625 496.5 616.5 Q483 608 469 599 Q455 591 442.5 582 Q430 573 418 564 Q412 559 406 554.5 Q400 550 394 545 Q389 541 384 537 Q379 533 374 529 Q367 524 361 518.5 Q355 513 349 508 Q343 502 337 496.5 Q331 491 324 485 Q318 480 312 474 Q306 468 300 463 Q294 458 288.5 452.5 Q283 447 277 441 Q253 418 230 394 Q218 383 206 371 Q194 359 182 347 Q171 335 159.5 323 Q148 311 136 300 Q128 292 120.5 284 Q113 276 105 268 Q100 263 95 258.5 Q90 254 85 249 Q80 244 74.5 239.5 Q69 235 63 230 Q55 224 46 219 Q37 214 27 212 Q16 210 10 214 Q2 217 -4 228 Q-7 235 -6.5 242.5 Q-6 250 -5 257 Q-3 265 -1 272.5 Q1 280 3 288 Q6 296 9 303 Q12 310 14 318 Q17 324 19.5 330.5 Q22 337 25 343 Q34 364 46 385 Q52 397 59 409 Q66 421 73 434 Q81 448 89 461 Q97 474 105 487 Q109 495 113 501.5 Q117 508 122 515 Q127 522 131.5 528.5 Q136 535 141 542 Q146 548 150.5 554.5 Q155 561 160 567 L169 579 Q170 579 172 581 L175 584 Q180 584 181 583 Q188 580 186 572 Q184 568 182 565 Q181 563 177 559 Q172 552 167.5 545.5 Q163 539 158 532 Q154 526 150 520 Q146 514 142 507 Q137 500 133 493.5 Q129 487 125 480 Q120 473 116 466 Q112 459 107 452 Q102 445 98.5 438 Q95 431 91 424 Q86 416 82.5 409 Q79 402 74 394 Q70 386 66.5 379.5 Q63 373 59 365 Q51 351 44 336.5 Q37 322 31 307 Q26 294 21.5 282 Q17 270 14 256 Q14 253 13.5 249.5 Q13 246 13 243 Q13 236 15 233 Q17 229 25 231 Q30 233 33 235 Q36 237 40 239 Q45 242 48.5 245 Q52 248 57 251 Q65 258 72 264.5 Q79 271 86 278 Q96 287 105.5 296.5 Q115 306 125 316 Q137 328 148.5 340 Q160 352 171 364 L216 409 Q227 420 238 431 Q249 442 260 453 Q266 458 271.5 463.5 Q277 469 283 474 Q289 479 295 485 Q301 491 307 496 Q329 517 355 538 Q361 543 367.5 548.5 Q374 554 381 559 Q386 564 391.5 567.5 Q397 571 402 576 Q415 585 427 594 Q439 603 452 611 Q463 619 474.5 626 Q486 633 497 640 Q504 645 511 648.5 Q518 652 526 657 Q529 659 532 660.5 Q535 662 539 664 Q543 666 546 667 Q549 668 553 670 Q560 672 567.5 674 Q575 676 582 673 Q593 669 595 655 Z " />
<glyph glyph-name="O" unicode="O" horiz-adv-x="620" d="M563 311 Q562 309 563 311 Q564 313 565 315 Q566 317 566 317 Q566 317 563 311 Q558 303 555 295.5 Q552 288 547 281 Q543 273 539.5 266 Q536 259 531 252 Q528 247 525.5 242.5 Q523 238 520 233 Q515 226 511 219.5 Q507 213 503 206 Q492 192 482 176.5 Q472 161 461 147 Q450 133 439 120.5 Q428 108 416 94 Q406 83 397 72.5 Q388 62 377 51 Q367 42 357.5 32.5 Q348 23 339 14 Q331 7 324.5 1.5 Q318 -4 310 -10 Q302 -16 295.5 -22 Q289 -28 281 -34 Q267 -46 251.5 -56.5 Q236 -67 220 -78 Q206 -89 190.5 -98 Q175 -107 159 -116 Q152 -119 144.5 -122.5 Q137 -126 129 -129 Q121 -133 112.5 -136 Q104 -139 95 -142 Q78 -147 59 -148 Q42 -149 23 -146 Q6 -142 -8.5 -134 Q-23 -126 -34 -114 Q-46 -100 -50 -86 Q-54 -77 -56 -66 Q-57 -61 -57.5 -57 Q-58 -53 -59 -48 L-59 -29 Q-59 -24 -58.5 -19.5 Q-58 -15 -58 -10 Q-57 -5 -56.5 -0.5 Q-56 4 -55 8 Q-53 16 -51.5 24 Q-50 32 -48 40 Q-46 49 -43 57.5 Q-40 66 -37 74 Q-34 82 -30.5 90.5 Q-27 99 -24 107 L-15 125 Q-10 134 -5 144 Q0 154 5 164 Q10 172 14 179 Q18 186 23 193 Q27 199 30.5 205.5 Q34 212 38 218 Q48 234 61 250 L79 274 Q81 276 82 278 Q83 280 85 282 Q88 286 91 289.5 Q94 293 96 297 Q103 305 109 311 Q115 317 122 325 Q133 337 143.5 348.5 Q154 360 165 371 Q178 383 190.5 395 Q203 407 217 419 Q223 425 229.5 431 Q236 437 243 443 Q250 449 257 455 Q264 461 271 467 Q276 472 280 474 Q284 476 286 476 Q293 476 295 468 Q297 460 290 458 Q289 457 287 457 Q286 457 285 456 Q283 454 282 453.5 Q281 453 279 451 Q277 448 271 442 Q263 436 256.5 429.5 Q250 423 243 417 Q229 405 217 392.5 Q205 380 192 368 Q179 355 166.5 342.5 Q154 330 143 316 Q131 303 119 289.5 Q107 276 96 262 Q86 249 76 234.5 Q66 220 56 206 Q45 191 36.5 175.5 Q28 160 19 143 Q11 129 3 114 Q-5 99 -11 83 Q-20 63 -26 44 Q-31 27 -34 10.5 Q-37 -6 -38 -23 Q-39 -39 -37.5 -54.5 Q-36 -70 -28 -85 Q-23 -99 -11 -108 Q-5 -113 1.5 -116.5 Q8 -120 16 -123 Q34 -129 50 -128 Q67 -128 85 -123 Q90 -121 94 -120 Q98 -119 103 -118 Q118 -113 128 -108 Q136 -104 144.5 -100 Q153 -96 161 -91 Q168 -87 175 -83 Q182 -79 189 -75 Q205 -65 219.5 -55 Q234 -45 248 -34 Q263 -23 277 -11 Q291 1 305 12 Q315 20 324.5 29 Q334 38 342 47 Q352 56 361.5 65 Q371 74 380 85 Q392 98 403 110.5 Q414 123 425 136 Q431 144 437 151 Q443 158 448 166 Q454 174 459.5 181.5 Q465 189 470 197 Q481 212 491 228 Q501 244 511 260 Q516 268 521 277 Q526 286 530 295 Q535 304 539.5 312.5 Q544 321 549 331 Q557 348 563.5 363.5 Q570 379 575 396 Q580 412 583.5 427 Q587 442 590 459 Q592 470 593 482 Q594 494 595 506 Q595 511 595.5 517 Q596 523 595 529 Q595 536 594.5 542.5 Q594 549 593 556 Q590 580 582 607 Q572 632 555 649 Q534 669 506 679 Q470 688 438 687 Q405 685 372 678 Q344 671 318 659 Q304 653 291 646.5 Q278 640 267 632 Q241 617 219 599 Q208 589 197.5 579 Q187 569 176 558 Q158 540 140 514 Q131 502 123 490 Q115 478 108 465 Q106 461 104.5 458 Q103 455 101 452 Q99 447 95 439 Q94 434 86 430 Q80 428 78 434 Q76 437 78 445 L84 457 Q90 470 95 482 Q102 493 109.5 505 Q117 517 125 529 Q133 540 141.5 550.5 Q150 561 159 571 Q177 593 199 611 Q210 619 220.5 627.5 Q231 636 242 644 Q254 652 266 659 Q278 666 290 672 Q313 683 341 691 Q355 696 369 699 Q383 702 397 704 Q411 706 426 707.5 Q441 709 456 708 Q486 708 516 696 Q546 685 569 662 Q578 654 585 644 Q592 634 597 623 Q603 611 607 598 Q611 585 613 571 Q616 554 616 539 Q617 529 617 520 Q617 511 617 501 Q616 493 615.5 484.5 Q615 476 613 467 Q611 459 610 451.5 Q609 444 607 436 Q605 429 603.5 421.5 Q602 414 600 406 Q598 397 595 389 Q592 381 589 373 Q579 339 563 311 Z " />
<glyph glyph-name="P" unicode="P" horiz-adv-x="482" d="M570 669 Q576 645 573 619 Q568 593 558 568 Q547 541 534 518 Q527 507 520.5 496 Q514 485 506 474 Q508 476 509.5 478.5 Q511 481 512 483 Q513 485 514 486 Q513 485 512 483 Q510 480 506 474 Q485 443 485 443 Q486 444 493 454 Q500 464 506 474 Q499 463 492.5 453.5 Q486 444 478 435 Q470 424 462.5 415 Q455 406 447 396 Q439 387 432 378.5 Q425 370 417 362 Q409 354 401.5 347 Q394 340 386 333 Q378 327 370.5 320.5 Q363 314 355 309 Q347 304 339 299 Q331 294 323 289 Q306 278 284 270 Q261 261 239 255 Q233 253 227 252.5 Q221 252 215 250 Q207 248 202 247 Q199 247 196 246.5 Q193 246 190 246 Q182 246 179 248 Q173 252 172 256 Q170 263 175 266 Q178 269 184 267 Q185 267 187 265 Q187 264 188 264 L188 263 Q188 263 191 263 Q194 263 197 263.5 Q200 264 203 264 Q209 265 214.5 266 Q220 267 226 269 Q237 271 247.5 274.5 Q258 278 269 283 Q280 287 289 292 Q298 297 308 302 Q316 307 324 312 Q332 317 340 323 Q358 335 373 350 Q383 358 391.5 366.5 Q400 375 409 384 Q417 393 424.5 401.5 Q432 410 439 419 Q447 427 453 436 Q459 445 466 454 L493 490 Q500 501 506.5 511 Q513 521 519 532 Q525 543 530 553.5 Q535 564 540 575 Q544 587 547.5 598.5 Q551 610 553 622 Q554 630 554.5 638 Q555 646 554 654 Q552 663 549 671 Q546 679 539 685 Q531 692 521.5 694.5 Q512 697 501 696 Q490 695 479.5 692 Q469 689 458 685 Q447 680 436.5 674.5 Q426 669 415 663 Q407 658 399 652.5 Q391 647 383 641 Q366 629 353 619 L323 595 Q308 583 294 569 Q286 562 279 555.5 Q272 549 265 541 Q257 533 250.5 526 Q244 519 236 511 Q229 503 222 495 Q215 487 208 479 Q200 471 193.5 462.5 Q187 454 179 445 Q172 436 165 427 Q158 418 151 409 Q143 399 136.5 389.5 Q130 380 123 370 Q115 360 108.5 350 Q102 340 94 329 Q87 318 80 307.5 Q73 297 66 286 Q59 275 52.5 264 Q46 253 38 242 Q31 231 24.5 219.5 Q18 208 11 196 Q4 185 -2.5 173 Q-9 161 -16 149 Q-21 140 -26.5 130.5 Q-32 121 -37 111 Q-43 99 -49.5 87 Q-56 75 -62 63 Q-68 52 -73.5 40.5 Q-79 29 -84 18 Q-90 7 -95 -4 Q-100 -15 -105 -26 Q-110 -37 -115 -48 Q-120 -59 -125 -70 Q-131 -81 -135 -93 Q-139 -100 -140 -106 Q-141 -108 -141 -109 Q-141 -110 -142 -112 L-145 -118 Q-149 -124 -154 -123 Q-160 -121 -160 -116 Q-160 -115 -159.5 -113.5 Q-159 -112 -159 -111 Q-158 -109 -158 -107.5 Q-158 -106 -157 -104 Q-156 -102 -155 -99 Q-154 -96 -153 -93 Q-149 -80 -145 -67.5 Q-141 -55 -136 -42 Q-131 -29 -127 -16.5 Q-123 -4 -119 9 Q-115 19 -111.5 29 Q-108 39 -104 50 Q-99 60 -95.5 70 Q-92 80 -88 91 Q-83 102 -79.5 112 Q-76 122 -71 133 L-53 175 Q-48 186 -43.5 196.5 Q-39 207 -34 218 Q-23 240 -14 261 Q-9 272 -3.5 283 Q2 294 8 305 Q13 317 19 328 Q25 339 30 350 Q36 362 42 373.5 Q48 385 54 396 Q61 408 67 420 Q73 432 79 444 L106 492 L133 540 L160 588 Q167 600 173 611.5 Q179 623 185 634 Q191 645 196.5 657 Q202 669 208 680 Q210 682 211 685 Q212 688 214 690 Q216 696 221 699 Q227 699 228 695 Q231 692 227 686 Q226 682 222 674 L216 662 Q214 655 211 649 Q208 643 205 637 Q199 625 192.5 613 Q186 601 179 589 Q170 572 160 554 Q153 542 147 530 Q141 518 134 506 L107 458 Q102 449 97.5 440.5 Q93 432 88 423 Q83 412 77.5 402.5 Q72 393 67 382 Q62 373 57.5 364 Q53 355 48 346 L24 301 Q20 293 16.5 285.5 Q13 278 9 270 Q3 258 -2.5 246.5 Q-8 235 -13 224 Q-22 207 -29 189 Q-34 178 -39 166 Q-44 154 -49 142 Q-53 133 -56.5 124 Q-60 115 -64 105 Q-69 92 -74 79.5 Q-79 67 -84 54 Q-80 62 -76.5 68.5 Q-73 75 -69 83 Q-61 97 -54 111 Q-47 125 -39 139 Q-26 166 -9 193 Q-2 206 5 218 Q12 230 20 242 Q28 256 37 269.5 Q46 283 54 297 Q62 310 70.5 322 Q79 334 87 347 Q96 360 105 372.5 Q114 385 124 398 Q132 409 140 420 Q148 431 157 442 Q166 454 176 465.5 Q186 477 196 489 Q206 500 215.5 511.5 Q225 523 236 534 Q247 546 259 557 Q270 569 282 580 Q288 585 293.5 590 Q299 595 305 600 Q311 606 317.5 611.5 Q324 617 330 622 Q336 627 342 631.5 Q348 636 354 641 Q361 646 367 650 Q373 654 380 659 Q405 677 434 692 Q447 698 459 703 Q466 706 472.5 707.5 Q479 709 487 711 Q518 717 542 706 Q554 699 559 692 Q567 681 570 669 Z " />
<glyph glyph-name="Q" unicode="Q" horiz-adv-x="620" d="M731 -134 Q734 -139 732 -135.5 Q730 -132 731 -134 Q733 -139 731.5 -145 Q730 -151 724 -151 Q721 -151 718.5 -149.5 Q716 -148 714 -146 Q710 -144 710 -144 Q706 -142 703 -141 Q700 -140 696 -138 L654 -123 Q639 -118 624.5 -114 Q610 -110 595 -105 Q578 -100 561 -95.5 Q544 -91 527 -86 Q510 -81 492 -77 Q474 -73 457 -69 Q441 -65 426 -61.5 Q411 -58 396 -55 Q384 -52 372.5 -49.5 Q361 -47 350 -45 Q342 -43 334 -41.5 Q326 -40 318 -39 Q313 -38 309 -37 Q305 -36 300 -35 L295 -35 L294 -34 Q294 -34 292 -36 Q291 -36 289 -38 Q287 -40 286 -40.5 Q285 -41 283 -43 Q279 -46 276 -48.5 Q273 -51 270 -54 Q263 -59 256.5 -64.5 Q250 -70 242 -75 Q228 -85 213 -94 Q198 -103 182 -110 Q168 -116 153 -120 Q138 -124 123 -125 Q93 -127 67 -113 Q54 -105 44 -94 Q34 -83 27 -70 Q19 -56 15 -42 Q13 -34 11.5 -25 Q10 -16 8 -7 L8 -5 L8 -2 L7 -2 L6 -2 L-1 -2 Q-7 -2 -12.5 -2 Q-18 -2 -24 -3 L-35 -3 L-46 -3 Q-54 -1 -57 2 Q-59 4 -59 9 Q-58 13 -53 16 Q-50 17 -43 17 Q-38 18 -33.5 18 Q-29 18 -24 18 L7 18 Q7 21 7 24.5 Q7 28 8 31 L8 44 Q9 51 9.5 57 Q10 63 11 70 Q13 83 15 96 Q17 109 21 122 Q24 134 28 146 Q32 158 37 170 Q46 195 58 218 Q64 230 70.5 241.5 Q77 253 84 265 Q98 289 112 308 Q120 319 127.5 329 Q135 339 143 349 Q151 359 158.5 368.5 Q166 378 174 388 Q177 393 184 397 Q187 399 190.5 400.5 Q194 402 197 400 Q201 397 200 393 Q199 389 197 386 Q195 381 191.5 377 Q188 373 185 369 Q177 358 168 346.5 Q159 335 151 324 Q143 313 134.5 301.5 Q126 290 118 278 Q111 267 104.5 256 Q98 245 91 234 Q78 213 67 187 Q62 176 57 164 Q52 152 48 139 Q41 116 36 89 Q34 83 33 77 Q32 71 31 65 Q30 59 29.5 53 Q29 47 29 41 Q29 37 28.5 34 Q28 31 28 27 L28 21 L28 18 L30 18 Q36 17 42.5 17 Q49 17 55 16 Q69 15 82.5 14.5 Q96 14 110 13 Q124 11 137.5 10 Q151 9 165 7 L213 1 Q227 -1 241 -3.5 Q255 -6 269 -8 Q274 -9 277.5 -9.5 Q281 -10 286 -11 L288 -11 L288 -10 Q290 -9 294 -5 Q300 0 306 6 Q312 12 319 17 Q328 27 337.5 36.5 Q347 46 357 56 Q365 65 374 74.5 Q383 84 391 93 Q399 103 407 112.5 Q415 122 423 133 Q431 143 438.5 153 Q446 163 454 173 Q462 184 469 194 Q476 204 483 215 Q490 226 497 236.5 Q504 247 510 258 Q517 269 523 280 Q529 291 535 302 Q542 314 547.5 325.5 Q553 337 559 348 Q565 360 570.5 372 Q576 384 581 396 Q586 409 590 421.5 Q594 434 598 447 Q603 459 606 472 Q609 485 611 498 Q613 511 614 524 Q615 537 615 550 Q615 563 613.5 575.5 Q612 588 607 600 Q599 622 584 637 Q569 654 550 664 Q533 674 510 679 Q486 685 463 684 Q449 684 436 682 Q423 680 410 677 Q396 673 383.5 669 Q371 665 358 660 Q337 651 315 640 Q292 629 275 618 Q265 612 255.5 606 Q246 600 237 593 Q217 579 201 566 Q183 551 167 535 Q159 527 151 519 Q143 511 135 502 Q119 485 106 467 Q99 458 92.5 449 Q86 440 79 430 Q76 425 73 420.5 Q70 416 67 411 Q65 409 64 406 Q63 403 61 401 Q60 400 60 399 Q60 398 59 396 Q58 394 57.5 393.5 Q57 393 56 391 Q51 387 46.5 390 Q42 393 42 398 Q42 404 46 410 Q48 413 49 415.5 Q50 418 52 421 Q58 431 64.5 440.5 Q71 450 77 460 Q85 470 91.5 479 Q98 488 106 497 Q114 506 121.5 515 Q129 524 137 532 Q145 540 153.5 548.5 Q162 557 171 565 L207 595 Q224 609 245 622 Q255 629 264.5 635.5 Q274 642 285 647 Q296 654 307 659.5 Q318 665 329 670 Q341 676 353 680.5 Q365 685 378 690 Q391 694 403 697 Q415 700 429 702 Q457 705 480 704 Q493 703 505 701.5 Q517 700 530 696 Q541 692 552.5 687.5 Q564 683 574 676 Q592 665 607 645 Q614 636 619.5 626.5 Q625 617 629 606 Q637 584 637 564 Q639 552 638.5 540.5 Q638 529 637 517 Q635 505 633.5 493.5 Q632 482 629 471 Q625 448 615 424 Q610 411 605.5 398.5 Q601 386 596 374 Q591 361 585 349 Q579 337 573 325 Q566 313 560 301 Q554 289 547 277 Q539 265 533 253.5 Q527 242 519 230 Q511 219 504 208 Q497 197 489 186 Q481 174 473 163 Q465 152 457 141 Q448 130 439.5 119 Q431 108 422 97 Q413 86 404.5 76.5 Q396 67 387 57 Q377 46 368 36.5 Q359 27 349 16 Q344 11 338.5 6.5 Q333 2 328 -3 Q325 -6 321.5 -9 Q318 -12 315 -16 Q317 -16 317.5 -16.5 Q318 -17 320 -17 Q331 -19 340.5 -21.5 Q350 -24 361 -26 Q371 -28 380.5 -30 Q390 -32 400 -34 Q411 -36 421.5 -38.5 Q432 -41 443 -44 Q455 -47 467 -50 Q479 -53 490 -56 Q501 -58 511.5 -61 Q522 -64 533 -67 Q543 -69 552.5 -72 Q562 -75 573 -78 Q582 -80 591.5 -83 Q601 -86 611 -89 L650 -101 Q660 -104 670 -107.5 Q680 -111 690 -114 Q696 -116 701.5 -118 Q707 -120 712 -122 Q717 -124 723 -126.5 Q729 -129 731 -134 Z M266 -29 L259 -29 Q255 -28 245 -26 Q240 -26 235 -25.5 Q230 -25 225 -24 Q219 -23 212.5 -22.5 Q206 -22 200 -20 Q192 -19 185.5 -18.5 Q179 -18 171 -17 Q163 -16 156 -15 Q149 -14 141 -13 Q133 -12 125.5 -11.5 Q118 -11 110 -10 L80 -7 L53 -4 Q47 -4 41 -3.5 Q35 -3 29 -3 Q29 -6 30 -8 L30 -13 Q33 -31 39 -49 Q44 -62 56 -77 Q66 -90 83 -99 Q97 -106 117 -106 Q127 -106 136 -104 Q145 -102 154 -99 Q163 -95 172 -91 Q181 -87 190 -82 Q198 -77 206.5 -72 Q215 -67 223 -62 Q227 -60 230.5 -57 Q234 -54 238 -51 Q243 -47 247.5 -44 Q252 -41 257 -37 Q261 -33 263 -32 Q265 -30 266 -30 L266 -29 Z " />
<glyph glyph-name="R" unicode="R" horiz-adv-x="508" d="M578 541 Q564 524 551 511 Q543 504 536 497.5 Q529 491 521 485 L521 484 Q513 478 506.5 473.5 Q500 469 494 464 L455 437 Q443 430 428 421 Q413 412 397 404 Q368 388 342 377 Q323 367 296 357 Q286 353 276 349.5 Q266 346 255 342 L253 341 Q244 338 236 335 Q228 332 220 330 Q212 328 203.5 325 Q195 322 186 320 L181 319 Q170 315 155 312 Q146 310 136 307.5 Q126 305 117 303 Q112 302 108 301.5 Q104 301 100 300 Q98 300 95.5 299.5 Q93 299 91 299 Q87 298 84 297.5 Q81 297 77 296 Q74 296 73 295 L76 292 Q80 289 86 283 Q92 277 95 275 Q101 269 107 263.5 Q113 258 118 253 Q124 247 129.5 241 Q135 235 141 230 Q146 224 152 219 L164 207 Q169 202 173 197.5 Q177 193 182 188 Q187 184 190.5 180 Q194 176 199 172 Q205 165 212 159 Q213 157 217 153 Q219 152 219.5 151 Q220 150 222 149 Q224 147 226.5 144 Q229 141 231 139 L246 124 Q255 116 263.5 107.5 Q272 99 280 91 Q283 88 286.5 85 Q290 82 293 79 Q296 76 299 73 Q302 70 306 67 Q309 64 312 60.5 Q315 57 319 54 Q324 49 329 44.5 Q334 40 339 35 Q344 30 348.5 26 Q353 22 358 18 L362 14 L371 5 L401 -22 Q405 -26 408.5 -29 Q412 -32 416 -36 Q420 -39 423 -42 Q426 -45 430 -48 Q434 -51 436 -55 Q441 -61 436 -66 Q432 -68 430 -68 Q427 -68 426 -67 Q424 -65 421.5 -64.5 Q419 -64 417 -62 Q408 -54 399 -46.5 Q390 -39 382 -31 Q372 -23 363 -15 Q354 -7 346 1 Q344 3 341 6 Q338 9 335 11 Q333 13 330.5 15.5 Q328 18 326 20 Q322 23 314 31 Q310 34 307 37 Q304 40 300 43 Q295 48 289.5 53 Q284 58 279 63 Q277 65 275 66.5 Q273 68 271 70 Q270 71 269.5 72 Q269 73 267 74 L255 86 Q248 92 241 99 Q234 106 225 114 L202 137 L187 152 Q183 158 177 162 Q174 166 170.5 169.5 Q167 173 163 177 L142 198 L135 205 Q133 207 131.5 209 Q130 211 128 213 Q120 221 112 228.5 Q104 236 97 243 Q93 249 87 253 Q79 262 70 270 Q69 271 69 271.5 Q69 272 68 273 Q64 277 60 280.5 Q56 284 53 289 Q47 295 50 303 Q51 309 60 312 L62 312 Q63 312 63.5 312.5 Q64 313 65 313 Q67 314 69.5 314 Q72 314 74 315 Q78 315 86 317 Q92 318 98 318.5 Q104 319 110 321 L113 321 Q117 323 121 323 Q125 323 129 325 Q135 327 141 328 Q147 329 154 331 Q162 333 165 334 Q174 336 183 338.5 Q192 341 200 343 Q228 351 252 361 Q266 366 279 371 Q292 376 304 381 Q318 387 333 394 Q348 401 364 409 Q379 417 394 425 Q409 433 425 443 Q445 455 466 470 Q475 476 482 481 Q489 486 495 491 Q505 499 514 507 Q523 515 531 521 Q553 540 567 563 Q572 570 576.5 579.5 Q581 589 583 601 Q585 622 569 638 Q564 643 557.5 647 Q551 651 543 655 Q517 665 485 662 Q474 661 464 660 Q454 659 446 658 Q440 656 434 654.5 Q428 653 422 651 Q402 645 386 639 Q382 637 379 636 Q376 635 372 633 L371 633 Q357 625 344 618.5 Q331 612 320 605 Q308 597 297.5 590 Q287 583 277 575 Q266 567 255.5 557.5 Q245 548 235 540 Q224 531 213.5 520.5 Q203 510 192 498 Q182 487 172.5 476 Q163 465 154 454 Q148 447 142 440 Q136 433 131 426 Q125 418 117 407 Q109 396 101 384 L86 363 Q85 361 81 355 L75 346 Q71 341 67.5 335 Q64 329 60 323 Q55 315 50 306.5 Q45 298 40 290 Q38 286 35.5 283 Q33 280 31 276 Q29 272 29 272 Q24 266 22 261 Q17 252 11.5 242.5 Q6 233 1 224 L-5 213 Q-6 211 -7 210 Q-8 209 -9 207 Q-14 199 -17 191 Q-27 175 -32 163 L-47 130 Q-51 125 -52 119 L-55 113 Q-57 108 -59.5 103 Q-62 98 -64 93 Q-67 85 -70 78 Q-73 71 -76 64 Q-78 59 -80.5 53 Q-83 47 -85 42 Q-88 36 -91 30 Q-94 24 -96 18 Q-97 16 -99 14 Q-104 9 -110 12 Q-116 16 -115 22 Q-114 27 -110 37 Q-108 42 -106 47.5 Q-104 53 -102 59 Q-99 64 -96.5 69.5 Q-94 75 -92 80 Q-90 84 -88.5 87.5 Q-87 91 -85 95 Q-83 101 -80.5 106.5 Q-78 112 -76 117 Q-74 120 -72 126 Q-68 134 -66 139 Q-64 145 -61 151.5 Q-58 158 -55 165 L-53 168 Q-49 177 -45.5 186 Q-42 195 -38 203 Q-33 214 -28.5 224.5 Q-24 235 -19 245 Q-14 253 -10.5 262 Q-7 271 -2 279 L5 294 Q13 309 20 324.5 Q27 340 35 355 Q39 363 43 370 Q47 377 51 385 Q53 390 55.5 394.5 Q58 399 60 404 Q62 409 64.5 413 Q67 417 69 422 Q73 429 76.5 435.5 Q80 442 83 449 Q85 454 87.5 458 Q90 462 92 466 Q94 470 96 473.5 Q98 477 100 481 L106 493 Q108 495 108.5 498 Q109 501 111 503 Q113 506 114.5 509.5 Q116 513 118 517 Q120 519 121 522.5 Q122 526 124 529 Q126 533 128.5 537 Q131 541 133 546 Q136 553 139.5 559.5 Q143 566 147 573 Q150 579 153 585 Q156 591 160 598 L166 610 Q168 614 170.5 618 Q173 622 175 627 Q180 637 185 646 Q190 655 195 665 Q206 684 219 702 Q224 708 230 705 Q237 702 233 694 Q231 691 230.5 688.5 Q230 686 228 684 Q227 683 227 682.5 Q227 682 226 681 Q225 679 224 676.5 Q223 674 221 671 Q219 668 217.5 664.5 Q216 661 214 658 L212 655 Q208 647 204 639.5 Q200 632 196 624 Q193 619 191 614 Q187 608 186 604 Q184 601 182 597.5 Q180 594 178 590 Q176 585 173 580 Q170 575 168 570 Q160 556 154 542 Q152 537 149.5 533 Q147 529 144 524 Q141 516 138 512 L132 500 Q130 495 128 491 Q126 487 124 482 Q120 477 117 469 Q115 466 114 463.5 Q113 461 111 458 Q110 455 106 449 Q104 443 101 437.5 Q98 432 96 427 Q92 420 88.5 413.5 Q85 407 82 400 L73 382 Q71 378 69 374.5 Q67 371 65 367 Q64 365 63.5 363.5 Q63 362 62 360 Q62 361 64 363 Q66 367 69 371 Q72 375 75 380 L76 381 Q78 383 80 387 Q83 392 85.5 395.5 Q88 399 91 403 L109 427 L114 433 Q116 437 117 438 Q120 442 122.5 445.5 Q125 449 128 452 L129 453 Q138 465 148 477 Q158 489 168 500 Q176 510 184 518 Q192 526 200 534 Q209 543 218.5 551.5 Q228 560 239 570 Q247 577 255.5 583.5 Q264 590 272 596 Q288 607 301 615 Q304 618 308 620 Q313 623 317 626 Q321 629 326 631 Q334 635 340 638.5 Q346 642 351 644 Q369 654 383 659 Q408 669 433 675 L436 675 Q450 679 467 681 Q480 683 491.5 683.5 Q503 684 515 682 Q524 680 532 678.5 Q540 677 548 675 Q577 664 589 646 Q611 619 602 587 Q596 564 578 541 Z " />
<glyph glyph-name="S" unicode="S" horiz-adv-x="524" d="M501 703 Q515 703 530 701 Q545 699 562 693 Q573 689 582 682 Q591 675 598 667 Q606 658 609 645 Q611 639 611.5 632.5 Q612 626 610 621 Q609 610 600 596 Q597 590 593.5 584.5 Q590 579 586 574 Q578 563 568 553.5 Q558 544 547 534 Q542 529 536.5 525 Q531 521 526 518 Q520 514 514.5 511 Q509 508 504 504 Q497 500 490.5 497 Q484 494 478 491 Q471 487 464.5 484 Q458 481 451 478 Q449 477 444 477 Q442 477 440.5 476.5 Q439 476 437 476 Q430 474 428 480 Q427 486 433 488 L439 491 Q447 494 453.5 496.5 Q460 499 467 503 Q473 507 479 510 Q485 513 492 517 Q498 520 504 523.5 Q510 527 515 532 Q525 539 534 548 Q537 550 540 552.5 Q543 555 546 557 Q548 559 550 561 Q552 563 554 565 Q558 571 563 574 Q565 577 567.5 579.5 Q570 582 572 585 Q579 595 586 607 Q591 620 591 631 Q591 644 586 653 Q583 658 578.5 662 Q574 666 569 669 Q546 680 517 682 Q504 684 490 683.5 Q476 683 462 682 Q455 681 447 680.5 Q439 680 431 678 Q425 677 418 676.5 Q411 676 403 674 Q389 672 375 668.5 Q361 665 346 660 Q332 655 318 650.5 Q304 646 290 641 Q277 636 264.5 630 Q252 624 239 618 Q227 614 216 605 Q209 601 202.5 598 Q196 595 189 590 Q183 585 177.5 580.5 Q172 576 167 572 Q163 568 159.5 564.5 Q156 561 152 558 Q141 549 135 535 Q127 524 122 511 Q121 504 120 498 Q119 492 119 484 Q119 473 124 458 Q130 444 139 432.5 Q148 421 159 410 Q168 399 178 392 Q188 382 201 374 Q214 365 225.5 356.5 Q237 348 251 340 Q263 331 274.5 323 Q286 315 298 307 Q303 302 309 297.5 Q315 293 321 288 Q326 283 331.5 277.5 Q337 272 342 267 Q345 264 348 261 Q351 258 355 253 Q358 250 364 242 Q374 229 382 215 Q390 201 396 183 Q400 172 401 156 Q402 140 400 127 Q398 113 395 96.5 Q392 80 385 65 Q374 42 357.5 20 Q341 -2 323 -18 Q317 -23 311.5 -27 Q306 -31 300 -36 Q294 -41 287.5 -44.5 Q281 -48 276 -53 Q270 -57 264 -60 Q258 -63 252 -67 Q245 -70 238.5 -73.5 Q232 -77 225 -81 Q205 -91 175 -102 Q145 -113 121 -117 Q109 -119 94.5 -121 Q80 -123 67 -123 Q60 -123 54.5 -123 Q49 -123 43 -121 Q35 -120 27 -117.5 Q19 -115 13 -113 Q5 -110 -8.5 -101.5 Q-22 -93 -28 -83 Q-34 -73 -38.5 -60.5 Q-43 -48 -45 -36 Q-47 -23 -45 -9 Q-43 -1 -41.5 5.5 Q-40 12 -38 20 Q-34 33 -28 45.5 Q-22 58 -14 69 Q-6 80 2 89 Q10 98 18 107 Q36 123 57 137 Q67 143 77 147.5 Q87 152 98 157 Q106 160 115 162 Q124 164 133 166 Q138 166 141.5 166 Q145 166 150 164 Q160 160 161 153 Q161 146 156 145 Q152 145 151 146 Q149 147 149 147.5 Q149 148 147 150 Q145 153 142 153 Q139 153 137 152 Q129 150 124 148 Q101 142 79 129 Q68 121 58 114 Q48 107 39 99 Q28 90 20 80.5 Q12 71 4 60 Q-4 51 -12 36 Q-15 30 -17 24.5 Q-19 19 -21 12 Q-26 0 -26 -12 Q-26 -19 -26.5 -26 Q-27 -33 -26 -40 Q-25 -45 -23.5 -51 Q-22 -57 -18 -62 Q-13 -73 -3 -82 Q16 -97 44 -100 Q52 -102 59 -102 Q66 -102 74 -102 Q109 -98 143 -89.5 Q177 -81 213 -63 Q224 -58 236.5 -51.5 Q249 -45 261 -38 Q287 -22 308 -2 Q314 3 319 8 Q324 13 329 18 Q339 28 346 39 Q354 51 361 65 Q365 72 367.5 78.5 Q370 85 372 92 Q377 106 378 117 Q379 125 379.5 132 Q380 139 379 145 Q379 159 375 173.5 Q371 188 364 202 Q358 213 350.5 223.5 Q343 234 335 245 Q325 256 314 265 Q303 274 292 284 Q270 303 243 319 Q235 323 229 327.5 Q223 332 218 337 Q211 341 205 345 Q199 349 192 354 Q186 359 180.5 363 Q175 367 170 372 Q164 377 158 382 Q152 387 147 392 Q141 397 136.5 402.5 Q132 408 127 414 Q117 425 112 436 Q103 448 102 461 Q100 469 99 475 Q98 481 98 489 Q99 503 103.5 516.5 Q108 530 116 543 Q123 554 132 564.5 Q141 575 152 584 Q162 594 172.5 601.5 Q183 609 196 617 Q203 621 209.5 624 Q216 627 221 631 Q231 637 248 644 Q261 650 274 655 Q287 660 301 665 Q315 670 328.5 674 Q342 678 355 682 Q370 685 383.5 688 Q397 691 411 694 Q425 696 439.5 698 Q454 700 468 702 Q472 702 475.5 702.5 Q479 703 482 703 L501 703 L501 703 Z " />
<glyph glyph-name="T" unicode="T" horiz-adv-x="124" d="M194 589 Q190 581 190.5 582 Q191 583 192.5 586 Q194 589 195 591 Q196 593 194 589 L176 556 Q171 547 166.5 537.5 Q162 528 157 519 Q152 509 148 500 Q144 491 139 481 Q134 472 129.5 462.5 Q125 453 120 444 Q115 434 111 424.5 Q107 415 102 406 Q97 396 93 386.5 Q89 377 84 368 Q75 349 65 330 Q60 320 56 311 Q52 302 47 292 Q42 282 37.5 273 Q33 264 28 254 Q24 246 20 237 Q16 228 12 220 Q7 210 3 201 Q-1 192 -6 182 Q-11 172 -15 163 Q-19 154 -24 144 Q-28 134 -32 125 Q-36 116 -41 106 Q-44 98 -47.5 89.5 Q-51 81 -55 73 Q-58 67 -60.5 61 Q-63 55 -66 48 Q-71 39 -74.5 29.5 Q-78 20 -83 10 Q-91 -10 -99 -28 L-114 -67 Q-116 -72 -117.5 -76.5 Q-119 -81 -121 -86 Q-122 -88 -122.5 -91 Q-123 -94 -124 -96 Q-124 -98 -124.5 -99.5 Q-125 -101 -123 -103 Q-123 -104 -121 -106 Q-120 -108 -120 -110 Q-121 -114 -125 -116 Q-135 -121 -140 -111 Q-142 -108 -141.5 -104 Q-141 -100 -140 -96 Q-139 -91 -138 -87.5 Q-137 -84 -136 -79 Q-134 -74 -132 -69 Q-130 -64 -128 -59 Q-126 -54 -124.5 -49.5 Q-123 -45 -121 -40 Q-117 -31 -113.5 -21.5 Q-110 -12 -106 -3 Q-103 6 -99.5 15.5 Q-96 25 -91 34 Q-87 44 -83 53.5 Q-79 63 -75 73 Q-70 83 -66 92.5 Q-62 102 -58 111 Q-54 121 -50 130.5 Q-46 140 -42 149 Q-38 158 -34 166.5 Q-30 175 -26 184 Q-22 192 -19 201 Q-16 210 -11 218 Q-6 228 -2 237 Q2 246 7 256 Q12 265 16 274.5 Q20 284 25 293 Q30 303 34 312.5 Q38 322 43 331 Q48 341 52.5 350 Q57 359 62 369 Q67 379 71 388 Q75 397 80 406 Q85 416 89 425.5 Q93 435 98 444 Q103 454 107 463 Q111 472 116 482 Q121 491 125.5 500.5 Q130 510 135 519 Q145 540 154 556 Q162 572 171 587 Q181 606 190 621 L208 651 Q200 651 193.5 650.5 Q187 650 179 649 L143 646 Q131 645 119.5 644.5 Q108 644 96 642 Q87 640 77.5 639.5 Q68 639 59 637 Q38 636 15 631 Q4 629 -6 627.5 Q-16 626 -27 624 Q-39 622 -50 619.5 Q-61 617 -72 615 Q-80 613 -84 613 Q-87 612 -89.5 611.5 Q-92 611 -95 611 Q-102 611 -104 613 Q-108 615 -106 619 Q-105 623 -100 625 Q-98 626 -95 626.5 Q-92 627 -90 628 Q-84 630 -78 631.5 Q-72 633 -67 634 Q-56 637 -44.5 639.5 Q-33 642 -22 644 Q-14 646 -7.5 647 Q-1 648 6 649 Q17 651 29 653 Q41 655 52 657 Q63 659 72.5 659.5 Q82 660 93 662 Q104 664 115 665 Q126 666 137 667 Q146 668 154.5 668.5 Q163 669 172 670 Q183 671 194 672 Q205 673 216 673 Q226 674 235.5 674.5 Q245 675 255 675 Q265 676 274.5 676 Q284 676 294 677 Q306 677 317.5 677.5 Q329 678 340 678 L386 678 Q397 678 409 678 Q421 678 432 679 L478 679 L525 679 L572 679 Q584 680 595.5 680 Q607 680 619 680 Q630 680 640.5 680 Q651 680 662 679 Q667 679 672 676 Q676 674 676 671 Q677 666 674 662 Q671 658 666 660 Q665 660 661 662 L656 662 Q653 663 650.5 662.5 Q648 662 645 662 L622 662 L591 662 Q582 662 572.5 662 Q563 662 554 661 L511 661 Q503 661 495.5 660.5 Q488 660 480 660 Q469 660 457.5 660 Q446 660 434 659 Q423 659 411.5 659 Q400 659 389 658 Q377 658 365.5 658 Q354 658 343 657 Q334 657 325.5 656.5 Q317 656 309 656 Q301 656 294 655.5 Q287 655 279 655 Q271 654 264 654 Q257 654 249 654 Q244 653 239.5 653 Q235 653 230 653 Q229 652 229 651.5 Q229 651 228 650 Q227 648 226 646.5 Q225 645 224 643 Q222 638 219 634 Q216 630 214 625 Q209 616 204 607 Q199 598 194 589 Z " />
<glyph glyph-name="U" unicode="U" horiz-adv-x="410" d="M550 680 Q552 678 550 680 Q548 682 550 680 Q556 676 551 669 Q549 665 546.5 662 Q544 659 542 655 Q537 648 532.5 641 Q528 634 523 627 Q518 619 514.5 612 Q511 605 506 598 Q498 582 489 566.5 Q480 551 472 535 Q464 520 456 505 Q448 490 440 474 Q432 458 424 443 Q416 428 408 411 Q400 396 393.5 381 Q387 366 380 351 Q366 321 354 293 Q347 276 340 260 Q333 244 326 227 Q321 215 316.5 202.5 Q312 190 307 177 Q302 161 296 145.5 Q290 130 285 114 Q279 97 273.5 80.5 Q268 64 263 47 Q261 39 258.5 30.5 Q256 22 254 13 Q253 11 252.5 9 Q252 7 251 5 Q251 3 250.5 0.5 Q250 -2 250 -4 Q248 -7 250 -10 Q250 -9 252 -13 Q252 -13 253 -15 Q254 -19 251.5 -22 Q249 -25 246 -26 Q239 -29 236 -24 Q233 -21 233 -17 Q233 -13 233 -10 Q233 -1 236 7 Q239 24 244 40 Q249 56 254 72 Q259 89 264.5 106.5 Q270 124 276 141 Q281 158 287 174.5 Q293 191 299 208 Q305 225 311 241.5 Q317 258 324 275 Q331 292 337.5 307.5 Q344 323 351 339 Q355 347 358.5 355 Q362 363 366 371 Q369 378 372 384.5 Q375 391 378 397 Q392 426 407 455 Q410 463 413.5 469.5 Q417 476 421 484 Q425 491 428.5 497.5 Q432 504 436 512 Q429 503 423 494.5 Q417 486 410 477 Q403 468 396 458.5 Q389 449 382 439 Q374 430 367.5 420.5 Q361 411 354 401 Q347 393 340.5 384 Q334 375 327 367 Q321 358 314.5 349.5 Q308 341 301 333 Q294 324 287 314.5 Q280 305 272 296 Q265 287 257.5 277.5 Q250 268 242 259 Q229 241 213 224 Q207 216 200.5 209.5 Q194 203 188 196 Q180 187 172 178.5 Q164 170 156 161 Q152 158 149 154.5 Q146 151 142 148 Q140 145 137 142 Q134 139 132 137 Q127 132 123 128.5 Q119 125 114 120 Q109 115 103.5 110.5 Q98 106 92 102 Q86 97 79.5 92.5 Q73 88 67 84 Q56 77 41 72 Q35 69 29 69 Q19 66 9 68 Q6 68 0 70 Q-6 72 -8 73 Q-14 75 -16 77 Q-24 81 -28 89 Q-30 93 -32 96.5 Q-34 100 -36 104 Q-38 111 -40 123 Q-41 128 -41 133 Q-41 138 -41 143 Q-41 148 -41 154 Q-41 160 -40 165 Q-39 171 -38 177 Q-37 183 -36 189 Q-34 194 -33 200 Q-32 206 -30 212 L-24 236 Q-22 241 -20 247 Q-18 253 -16 258 Q-14 263 -12.5 268.5 Q-11 274 -9 279 Q-7 284 -5 288.5 Q-3 293 -1 298 Q1 303 2.5 306.5 Q4 310 6 314 Q8 319 12 327 Q13 329 14 331.5 Q15 334 16 336 Q16 338 18 340 Q22 348 25 355 Q28 362 32 370 Q37 380 42 390 Q47 400 52 411 L73 453 Q79 464 84.5 474 Q90 484 95 495 Q107 516 117 536 Q122 547 128 556.5 Q134 566 139 577 Q145 588 150.5 598 Q156 608 162 619 Q164 621 165 624 Q166 627 168 629 Q169 633 173 637 Q173 639 173.5 639.5 Q174 640 174 642 Q172 643 175 646 Q177 649 183 651 Q188 653 190 648 Q193 645 191 639 Q189 634 186.5 629 Q184 624 181 619 Q176 608 170.5 598 Q165 588 159 577 Q154 566 148 556 Q142 546 137 535 Q132 524 126 513.5 Q120 503 115 492 Q110 481 104.5 471 Q99 461 93 450 Q88 441 83.5 431.5 Q79 422 74 412 Q71 407 68.5 402.5 Q66 398 64 393 Q61 386 57.5 379.5 Q54 373 51 366 Q47 358 43.5 350 Q40 342 37 334 L22 301 Q18 293 14.5 284.5 Q11 276 8 268 Q5 260 2 252.5 Q-1 245 -3 237 Q-5 230 -7 223.5 Q-9 217 -11 209 Q-13 201 -14.5 194 Q-16 187 -18 179 Q-19 171 -19.5 163.5 Q-20 156 -21 148 Q-21 141 -21 134.5 Q-21 128 -19 121 Q-17 108 -12 100 Q-7 91 2 88 Q11 85 24 87 Q34 90 47 95 Q58 101 70 109 Q82 117 92 125 Q97 129 101 133 Q105 137 110 141 Q114 145 117 148 Q120 151 123 155 Q126 157 130 161 Q133 165 139 171 Q143 174 146.5 177.5 Q150 181 154 185 L184 218 Q192 227 199.5 236 Q207 245 215 254 Q223 263 230 272.5 Q237 282 245 291 L266 318 L290 348 Q298 357 304.5 365.5 Q311 374 318 383 Q325 393 332 402 Q339 411 346 421 Q354 430 360.5 439.5 Q367 449 375 459 Q382 468 389 477.5 Q396 487 403 497 Q410 506 416 514.5 Q422 523 428 531 Q432 536 435 540 Q438 544 441 548 Q448 558 455 567.5 Q462 577 469 586 Q477 596 483.5 605.5 Q490 615 498 624 Q504 633 510.5 642.5 Q517 652 523 661 Q526 665 528.5 669 Q531 673 535 677 Q537 680 541.5 682 Q546 684 550 680 Z " />
<glyph glyph-name="V" unicode="V" horiz-adv-x="394" d="M662 712 Q664 709 662 711.5 Q660 714 662 712 Q663 707 662 703 Q661 702 660 701.5 Q659 701 658 700 Q655 697 653 696 Q648 691 644.5 687 Q641 683 637 678 Q628 667 619 657 Q610 647 601 637 Q592 626 582.5 615.5 Q573 605 564 594 Q554 583 545 571.5 Q536 560 527 549 Q517 538 508 526.5 Q499 515 489 504 Q480 493 470.5 482 Q461 471 452 460 Q444 450 436 440.5 Q428 431 420 421 Q411 410 402 398 Q393 386 384 375 Q375 364 366 353 Q357 342 348 331 Q339 319 330 307.5 Q321 296 312 285 Q303 273 294 261.5 Q285 250 277 239 Q269 228 261 217.5 Q253 207 245 196 Q237 186 230 176.5 Q223 167 215 156 Q207 145 198.5 133 Q190 121 181 109 Q174 99 167.5 89.5 Q161 80 154 69 Q146 58 138.5 46.5 Q131 35 123 24 L90 -24 Q82 -36 74 -48 Q66 -60 58 -72 Q50 -84 41.5 -96 Q33 -108 25 -119 Q17 -130 9 -140 Q1 -150 -9 -158 Q-18 -167 -30 -170 Q-42 -173 -51 -165 Q-56 -160 -57.5 -154 Q-59 -148 -60 -142 Q-61 -135 -61 -128.5 Q-61 -122 -61 -115 Q-61 -111 -61 -107 Q-61 -103 -60 -99 Q-60 -94 -59.5 -90.5 Q-59 -87 -59 -82 Q-57 -71 -56 -61 Q-55 -51 -53 -41 Q-51 -28 -48.5 -15 Q-46 -2 -44 11 L-32 65 Q-30 76 -27 85.5 Q-24 95 -22 106 Q-19 117 -16.5 128 Q-14 139 -11 150 Q-8 163 -5 175.5 Q-2 188 2 200 Q5 211 8 222 Q11 233 14 244 L29 292 Q33 306 36.5 319.5 Q40 333 45 347 Q49 358 52.5 370 Q56 382 60 394 Q65 407 69 420 Q73 433 78 446 Q83 460 87 473.5 Q91 487 96 501 Q101 515 105.5 528 Q110 541 115 555 Q116 559 117 562 Q118 565 120 569 Q121 575 125 582 Q127 588 132 591 Q138 593 140 587 Q141 582 139 576 Q137 572 136.5 569 Q136 566 134 562 Q132 555 130 548.5 Q128 542 126 535 Q121 521 117 507 Q113 493 108 479 Q103 465 99 451.5 Q95 438 90 424 Q87 415 84 406 Q81 397 79 388 Q75 378 72 368 Q69 358 66 347 Q61 333 57.5 320.5 Q54 308 49 294 Q46 283 43 272.5 Q40 262 37 251 Q33 237 29.5 223.5 Q26 210 22 196 Q18 183 15 170.5 Q12 158 9 146 Q6 134 3 122.5 Q0 111 -3 100 Q-6 87 -9 74.5 Q-12 62 -14 49 Q-17 36 -19.5 23.5 Q-22 11 -25 -2 Q-27 -8 -27.5 -14.5 Q-28 -21 -30 -27 Q-31 -32 -31.5 -35.5 Q-32 -39 -33 -44 Q-35 -50 -35.5 -56 Q-36 -62 -38 -69 Q-39 -77 -39.5 -83.5 Q-40 -90 -41 -98 Q-42 -105 -42.5 -111.5 Q-43 -118 -43 -125 Q-43 -130 -43 -135.5 Q-43 -141 -41 -146 Q-39 -148 -37.5 -150.5 Q-36 -153 -33 -153 Q-27 -151 -23 -147 Q-19 -145 -16 -141.5 Q-13 -138 -10 -134 Q-5 -129 -1.5 -124.5 Q2 -120 6 -115 Q10 -109 14 -103 Q18 -97 23 -91 Q28 -85 31.5 -79 Q35 -73 40 -66 Q44 -60 47.5 -54 Q51 -48 56 -42 Q59 -37 62.5 -31 Q66 -25 69 -20 Q72 -15 74.5 -11.5 Q77 -8 80 -3 Q84 3 86 7 Q87 8 88 10 Q92 16 95.5 22 Q99 28 104 33 Q111 44 118 54.5 Q125 65 133 76 L166 124 Q174 135 183 147 Q192 159 200 171 Q208 182 217 193.5 Q226 205 234 217 Q243 228 252 240 Q261 252 269 263 Q278 275 287 286.5 Q296 298 305 309 L341 354 Q350 365 358.5 376.5 Q367 388 376 399 Q385 410 394 420.5 Q403 431 412 442 Q420 452 429 462 Q438 472 447 483 Q455 494 464 503.5 Q473 513 482 524 Q490 534 499 544 Q508 554 517 565 Q526 575 534.5 585 Q543 595 552 605 L588 647 Q597 658 606 668 Q615 678 625 689 Q630 694 634 698.5 Q638 703 643 708 Q644 709 648 711 Q649 713 653 715 Q659 717 662 712 Z " />
<glyph glyph-name="W" unicode="W" horiz-adv-x="552" d="M701 712 Q702 709 701 705 Q700 703 699 701.5 Q698 700 697 698 Q693 691 690 684 Q685 675 681 666.5 Q677 658 672 649 Q667 640 663 631 Q659 622 654 614 Q649 606 645.5 598 Q642 590 637 582 Q635 577 632.5 572 Q630 567 627 562 Q622 553 618 544 Q614 535 610 527 L592 491 Q585 478 578 466 Q574 458 570 449.5 Q566 441 561 433 Q556 425 551.5 416 Q547 407 542 398 L530 377 Q523 363 514 348 Q511 343 508.5 337.5 Q506 332 503 327 Q498 319 493 310.5 Q488 302 483 293 Q473 275 463 259 Q458 251 453 242.5 Q448 234 443 226 Q438 218 433 209 Q428 200 423 192 Q418 185 414 178 Q410 171 405 164 Q395 150 385 133 Q380 125 375 118 Q370 111 365 103 Q360 95 354 87.5 Q348 80 343 72 Q334 58 324 47 Q319 40 313.5 33.5 Q308 27 303 21 L282 -3 L258 -24 Q251 -29 244 -33 Q237 -37 229 -38 Q220 -40 215 -37 Q208 -36 201 -29 Q195 -24 192.5 -16 Q190 -8 188 0 Q186 8 186 15 Q186 22 186 30 Q187 39 187.5 47.5 Q188 56 190 65 Q192 74 193.5 83.5 Q195 93 197 103 Q199 111 201 119 Q203 127 205 135 Q207 143 209.5 150.5 Q212 158 214 166 Q217 175 220 184 Q223 193 226 203 Q228 208 229.5 214 Q231 220 233 225 Q236 235 239.5 244 Q243 253 246 263 Q249 272 252.5 281 Q256 290 259 300 Q262 309 265.5 318 Q269 327 272 337 Q275 346 278.5 355 Q282 364 285 373 Q288 383 291.5 392 Q295 401 298 411 Q300 419 303 426.5 Q306 434 308 442 Q300 431 293.5 419.5 Q287 408 279 397 Q271 385 263 373 Q255 361 247 349 Q240 339 233.5 329.5 Q227 320 219 310 Q214 302 208 293.5 Q202 285 197 277 Q189 266 180.5 254 Q172 242 163 231 Q160 226 156.5 221 Q153 216 149 211 Q141 200 132.5 188.5 Q124 177 115 165 Q107 154 98.5 143.5 Q90 133 81 122 Q65 101 46 81 Q28 60 9 41 Q3 36 -3.5 30.5 Q-10 25 -17 21 Q-25 16 -33.5 14 Q-42 12 -50 17 Q-56 21 -59 27 Q-62 33 -63 39 Q-65 47 -64.5 55.5 Q-64 64 -63 72 Q-61 89 -57 104 Q-55 112 -53.5 120 Q-52 128 -50 136 Q-45 159 -38 179 Q-36 186 -34 192 Q-32 198 -30 205 Q-27 213 -24.5 220.5 Q-22 228 -19 236 Q-17 242 -14.5 248 Q-12 254 -10 259 Q-7 267 -4 274.5 Q-1 282 2 290 Q5 298 8 305.5 Q11 313 15 321 Q20 332 25.5 343.5 Q31 355 36 367 Q41 378 45.5 388 Q50 398 55 409 Q58 414 61 420 Q64 426 67 432 Q70 439 73 445.5 Q76 452 80 458 Q86 471 92.5 483.5 Q99 496 106 509 Q109 517 113 522 Q115 525 116 527.5 Q117 530 120 532 Q124 536 129 533 Q132 532 132 525 L129 519 Q129 516 127 514 Q124 507 121 500.5 Q118 494 114 488 Q108 474 102 461.5 Q96 449 89 436 Q83 423 77 410.5 Q71 398 65 384 Q59 373 54 361 Q49 349 44 338 Q38 325 32.5 312.5 Q27 300 22 287 Q17 274 11.5 261 Q6 248 1 235 L-17 184 Q-20 175 -22.5 166 Q-25 157 -28 147 Q-30 141 -31.5 135 Q-33 129 -35 123 Q-37 115 -38.5 107.5 Q-40 100 -42 92 Q-44 84 -45 76.5 Q-46 69 -47 61 Q-49 49 -47 38 Q-46 35 -44 32 Q-42 29 -38 29 Q-36 29 -32 31 Q-28 32 -24 36 Q-14 43 -5 52 Q1 57 6 62.5 Q11 68 16 73 Q21 78 25.5 84 Q30 90 35 95 Q39 100 42.5 103.5 Q46 107 50 112 Q52 114 53.5 116.5 Q55 119 57 121 Q64 130 71 138.5 Q78 147 86 156 Q94 167 103 179 Q112 191 120 202 Q128 212 135 222 Q142 232 150 242 L174 275 Q182 286 189.5 297.5 Q197 309 205 320 Q213 331 219.5 340.5 Q226 350 234 361 Q241 372 248 383 Q255 394 263 405 Q271 417 278.5 428.5 Q286 440 294 452 Q298 458 301.5 464 Q305 470 310 475 Q312 479 318 485 Q323 490 328 490 Q333 492 336 487 Q339 483 337 477 Q335 470 333.5 463.5 Q332 457 330 450 Q325 436 321 423.5 Q317 411 312 397 L303 370 L294 343 Q291 335 288.5 327 Q286 319 283 311 Q278 297 273.5 284 Q269 271 264 257 Q259 245 255.5 232.5 Q252 220 248 208 Q243 194 239 181 Q235 168 231 154 Q229 147 227 141 Q225 135 223 128 Q221 121 219.5 114.5 Q218 108 216 100 Q214 93 213 86 Q212 79 211 72 Q209 65 208.5 58.5 Q208 52 207 44 Q206 37 205.5 30.5 Q205 24 206 17 Q206 3 210 -9 Q212 -14 215 -17.5 Q218 -21 223 -21 Q229 -21 234 -18 Q237 -16 239.5 -15 Q242 -14 245 -12 Q250 -7 255 -3 Q260 1 265 6 Q270 11 274 15.5 Q278 20 283 25 Q292 35 300 45.5 Q308 56 316 67 Q324 78 331.5 89 Q339 100 347 112 Q355 124 363 136 Q371 148 379 160 Q384 169 390 178 Q396 187 402 196 Q410 208 417 220.5 Q424 233 432 246 Q444 264 452 281 Q469 307 481 331 Q489 343 495.5 355.5 Q502 368 510 381 Q513 387 516.5 393 Q520 399 524 406 Q527 412 530.5 418.5 Q534 425 537 431 Q552 457 565 481 Q572 494 578.5 506 Q585 518 592 530 Q599 543 605.5 555.5 Q612 568 618 581 L645 632 Q656 655 670 679 Q672 682 673.5 685.5 Q675 689 677 692 Q679 697 683 705 Q687 711 691 712 Q697 716 701 712 Z " />
<glyph glyph-name="X" unicode="X" horiz-adv-x="402" d="M553 650 Q555 644 548 639 Q545 637 541.5 634.5 Q538 632 535 630 L493 597 L439 555 Q426 544 413 533.5 Q400 523 387 512 Q375 501 363 491 Q351 481 338 470 Q325 458 312 446.5 Q299 435 286 423 L259 399 Q252 393 245.5 386.5 Q239 380 232 374 Q227 369 222.5 365 Q218 361 213 356 L198 341 L198 340 Q197 340 197 339 L197 338 Q197 331 198 328 L198 310 L198 279 Q199 262 199.5 244.5 Q200 227 201 209 Q202 192 202.5 176.5 Q203 161 204 144 Q204 126 204.5 107.5 Q205 89 206 71 Q208 54 208.5 37 Q209 20 211 3 L214 -30 Q215 -35 215 -39 Q215 -43 216 -48 Q217 -53 217 -57 Q217 -61 219 -66 Q219 -70 220 -71 Q221 -72 222 -71.5 Q223 -71 225 -72 Q226 -73 228 -77 Q228 -79 226 -83 Q220 -89 212 -87 Q207 -85 203 -75 Q201 -71 200.5 -67 Q200 -63 199 -58 Q198 -54 198 -50.5 Q198 -47 197 -42 Q196 -34 195.5 -26.5 Q195 -19 194 -11 Q192 6 191 22.5 Q190 39 189 56 Q187 70 186.5 84 Q186 98 185 112 Q184 128 183 143.5 Q182 159 181 175 Q179 193 178.5 211.5 Q178 230 177 248 Q176 257 176 266.5 Q176 276 175 285 L175 303 L175 321 Q164 311 154 302 Q144 293 133 283 Q122 272 110 261 Q98 250 86 239 Q73 228 60.5 216.5 Q48 205 36 194 Q28 186 21 179 Q14 172 6 165 Q0 160 -5.5 154.5 Q-11 149 -16 144 Q-21 139 -27 134 Q-33 129 -38 124 Q-46 116 -54 109 Q-62 102 -70 94 Q-82 82 -94.5 70 Q-107 58 -119 47 Q-131 35 -143.5 23 Q-156 11 -169 -2 Q-181 -13 -193 -25 Q-205 -37 -217 -49 Q-223 -55 -229 -61 Q-235 -67 -241 -74 L-253 -86 Q-255 -89 -259 -93 Q-261 -95 -261 -96 Q-261 -97 -262 -97 Q-262 -98 -261 -98 Q-261 -99 -260 -100 Q-257 -106 -265 -110 Q-272 -111 -277 -105 Q-280 -100 -277 -93 Q-274 -87 -268 -81 Q-263 -74 -257 -68 Q-251 -62 -245 -55 Q-240 -50 -235.5 -45 Q-231 -40 -226 -35 Q-214 -24 -202 -12 Q-190 0 -178 12 Q-167 22 -157.5 32 Q-148 42 -137 52 L-86 100 Q-73 113 -61 125 Q-49 137 -35 149 Q-24 160 -12 171.5 Q0 183 11 194 Q22 203 31.5 212.5 Q41 222 51 232 Q58 238 64 244 Q70 250 77 256 Q83 262 89.5 268 Q96 274 102 280 Q108 286 114.5 292 Q121 298 127 304 Q134 310 140 316 Q146 322 153 328 Q155 330 158 333 Q161 336 164 338 L170 344 L173 347 Q173 348 173.5 348 Q174 348 174 349 L174 377 L174 412 Q175 418 175 424 Q175 430 175 436 Q175 443 175.5 449.5 Q176 456 176 464 Q176 472 176 479.5 Q176 487 177 495 L177 515 Q177 523 177 531 Q177 539 178 547 L178 582 Q179 590 179 598 Q179 606 179 614 Q179 619 179 624 Q179 629 180 634 Q180 644 180 652.5 Q180 661 181 671 L181 690 Q182 694 182 697 Q182 700 183 703 Q183 706 185 710 Q188 713 190 713 Q197 713 197 713 Q199 712 202 707 Q203 704 203 696 Q204 691 203.5 686.5 Q203 682 203 677 Q203 665 202.5 653 Q202 641 202 629 Q202 621 202 612 Q202 603 201 594 Q201 578 200.5 562.5 Q200 547 200 531 Q199 517 199 502.5 Q199 488 198 474 Q198 462 198 450.5 Q198 439 197 428 L197 401 L197 385 L197 377 L197 369 Q199 371 200.5 372.5 Q202 374 204 376 L240 409 Q249 417 258 425 Q267 433 276 441 Q284 449 292.5 455.5 Q301 462 309 470 Q317 477 325.5 484 Q334 491 342 499 Q351 507 360 514.5 Q369 522 379 530 Q384 534 388.5 537.5 Q393 541 398 545 Q403 549 407.5 552.5 Q412 556 417 560 Q426 568 435 575 Q444 582 453 589 Q461 596 469 602 Q477 608 485 614 Q493 620 501.5 626 Q510 632 519 638 Q521 640 523 641 Q525 642 527 644 Q529 646 532 647 Q535 648 537 650 Q543 654 547 654 Q552 654 553 650 Z " />
<glyph glyph-name="Y" unicode="Y" horiz-adv-x="402" d="M526 688 Q529 686 528 686.5 Q527 687 525 688 Q523 689 522 689.5 Q521 690 526 688 Q527 687 528 686.5 Q529 686 530 684 Q533 680 531 672 Q531 669 530 665.5 Q529 662 528 658 Q522 639 515 623 Q511 614 507.5 605.5 Q504 597 500 588 Q495 579 491.5 570 Q488 561 483 552 Q478 542 474.5 533 Q471 524 466 515 Q463 510 460.5 505 Q458 500 456 495 Q451 486 447.5 477 Q444 468 439 460 Q434 451 430 442 Q426 433 422 423 L404 387 Q400 379 396.5 371 Q393 363 389 355 Q395 356 401 356 Q407 356 413 357 Q419 357 425 357 Q431 357 437 355 Q442 352 444 350 Q447 346 446 342 Q446 336 440 334 Q435 332 433 337 Q432 338 432 339 L432 342 L431 342 L429 342 L426 342 Q423 343 420 342.5 Q417 342 414 342 Q409 342 405 341.5 Q401 341 396 340 Q394 340 391 339.5 Q388 339 386 339 L380 339 Q379 339 379 338 Q379 337 378.5 336 Q378 335 378 334 Q376 329 374.5 326.5 Q373 324 371 319 L353 283 Q348 272 342 260.5 Q336 249 330 238 Q324 227 318 215 Q312 203 305 192 Q300 182 294 172 Q288 162 282 151 L261 115 Q254 104 247.5 93 Q241 82 234 71 Q230 65 226.5 59 Q223 53 218 46 Q211 36 204.5 26.5 Q198 17 191 8 Q184 -2 177.5 -11.5 Q171 -21 163 -30 Q155 -39 147.5 -48 Q140 -57 132 -66 Q114 -84 96 -99 Q86 -106 76.5 -112 Q67 -118 56 -123 Q32 -132 10 -131 Q0 -129 -9.5 -125.5 Q-19 -122 -26 -115 Q-34 -108 -38.5 -99.5 Q-43 -91 -45 -82 Q-50 -63 -47 -38 Q-42 -13 -35 9 Q-27 31 -14 55 Q-9 66 -3.5 75.5 Q2 85 9 94 Q17 105 23.5 115 Q30 125 38 136 Q42 141 45.5 146 Q49 151 53 156 Q58 161 61.5 165.5 Q65 170 70 175 Q78 184 86.5 193 Q95 202 104 210 Q112 218 119.5 224.5 Q127 231 135 239 Q143 247 152 253.5 Q161 260 171 267 Q179 273 187 278.5 Q195 284 203 289 Q224 302 245 313 Q256 318 267 323 Q278 328 289 333 Q300 337 311.5 340.5 Q323 344 334 346 Q341 349 349 349 Q351 350 353.5 350 Q356 350 358 351 L362 351 Q363 351 365 352 Q367 356 369 360 Q371 364 372.5 367.5 Q374 371 376 374 Q378 379 380.5 382.5 Q383 386 385 391 Q391 402 396.5 413.5 Q402 425 407 436 Q413 447 418.5 459 Q424 471 430 482 Q432 488 435 493.5 Q438 499 441 505 Q444 511 446.5 516.5 Q449 522 452 528 Q457 540 463 551.5 Q469 563 474 575 Q479 586 484.5 598 Q490 610 495 622 Q497 627 499.5 633 Q502 639 504 644 Q506 649 508 654 Q510 659 512 664 L498 650 Q493 645 487.5 639 Q482 633 477 628 Q469 620 462 612.5 Q455 605 447 597 Q435 587 425 575 L403 553 Q394 543 384.5 533.5 Q375 524 366 515 Q348 495 328 477 Q317 466 306.5 455.5 Q296 445 285 434 Q274 424 263.5 414.5 Q253 405 242 395 Q221 375 197 356 Q192 352 187.5 348 Q183 344 178 340 Q171 335 165 331 Q159 327 152 322 Q150 320 148 319.5 Q146 319 144 317 Q142 315 140 314 Q138 313 135 311 Q128 306 120 302 Q112 298 104 296 Q95 293 85.5 292 Q76 291 66 293 Q50 298 42 312 Q38 319 36.5 326.5 Q35 334 34 342 Q34 358 37 375 Q39 390 43 403 Q45 407 46 411 Q47 415 49 419 Q52 431 58 443 Q62 451 65.5 459.5 Q69 468 73 477 L85 501 Q88 509 91.5 515.5 Q95 522 99 529 Q105 541 111 552.5 Q117 564 124 575 Q132 591 140 603 Q142 606 143.5 609.5 Q145 613 148 615 Q149 618 153 618 Q158 615 159 614 Q161 612 159 609 Q157 605 156 602 Q154 599 153 596.5 Q152 594 151 591 Q147 585 144 579 Q141 573 138 567 Q133 559 129 550 Q125 541 120 533 Q113 521 107 509 Q101 497 95 485 Q93 480 90.5 474.5 Q88 469 85 464 Q82 457 79 451 Q76 445 73 438 Q71 431 68.5 424.5 Q66 418 64 412 Q62 407 60.5 401 Q59 395 57 390 Q55 384 54 378 Q53 372 52 366 Q50 353 52 341 Q52 338 52.5 335.5 Q53 333 54 330 Q56 327 56.5 324 Q57 321 59 319 Q66 308 77 308 Q82 308 90 310 Q98 312 102 314 Q114 320 128 328 Q134 331 139.5 334.5 Q145 338 150 342 Q157 347 162.5 351 Q168 355 174 360 Q186 370 197.5 379 Q209 388 220 399 Q231 410 242.5 419.5 Q254 429 265 440 Q276 450 285.5 459.5 Q295 469 305 479 L348 522 Q359 533 370 544.5 Q381 556 392 567 Q403 578 414 589.5 Q425 601 436 612 Q446 622 455.5 632 Q465 642 475 652 Q480 657 484.5 661 Q489 665 494 670 Q498 674 501.5 677.5 Q505 681 510 684 Q513 686 517 688 Q521 690 526 688 Z M358 333 Q358 334 357 332.5 Q356 331 358 333 Q358 335 359 336 Q354 335 349 334 Q344 333 339 331 Q324 328 309 323 Q294 318 280 312 Q250 298 223 282 Q209 274 196 265 Q183 256 170 246 Q163 241 157 235.5 Q151 230 145 225 L127 210 Q121 205 115.5 199 Q110 193 105 188 Q100 183 95 177 Q90 171 85 166 Q79 160 73.5 154 Q68 148 63 142 Q58 136 54.5 130.5 Q51 125 46 119 Q36 106 27.5 92.5 Q19 79 11 65 Q3 52 -4 38 Q-11 24 -17 10 Q-28 -18 -31 -48 Q-32 -55 -31.5 -61.5 Q-31 -68 -30 -75 Q-27 -90 -19 -99 Q-9 -109 3 -112 Q9 -114 15.5 -114 Q22 -114 29 -113 Q43 -111 56.5 -104 Q70 -97 81 -88 Q87 -83 93 -78 Q99 -73 105 -68 L126 -47 Q145 -26 163 -1 Q172 11 180.5 23 Q189 35 198 48 Q203 55 207 61.5 Q211 68 216 76 Q220 82 224 88.5 Q228 95 232 102 Q241 116 249.5 130 Q258 144 266 158 Q270 166 274 172.5 Q278 179 282 186 Q286 194 289.5 201 Q293 208 298 216 Q306 230 313.5 244.5 Q321 259 329 274 Q332 282 335.5 288.5 Q339 295 343 303 L358 333 Z " />
<glyph glyph-name="Z" unicode="Z" horiz-adv-x="270" d="M466 36 Q468 36 476 33.5 Q484 31 480 23 Q474 13 462 16 Q398 28 330.5 24.5 Q263 21 198 6.5 Q133 -8 72 -29.5 Q11 -51 -40.5 -74 Q-92 -97 -132 -118.5 Q-172 -140 -195 -154 Q-197 -154 -197 -155 Q-201 -157 -207 -158.5 Q-213 -160 -215 -155 Q-216 -154 -216 -153 Q-216 -146 -215 -143 Q-214 -139 -210 -131 Q-208 -125 -205 -120 Q-202 -115 -199 -110 Q-196 -105 -193 -100 Q-190 -95 -187 -90 Q-180 -79 -173.5 -68.5 Q-167 -58 -160 -47 Q-146 -25 -132 -5 Q-126 3 -120 11.5 Q-114 20 -109 28 Q-101 39 -93.5 49.5 Q-86 60 -78 71 Q-70 82 -63 91.5 Q-56 101 -48 111 Q-40 121 -32.5 130.5 Q-25 140 -17 150 Q-9 161 -1 171 Q7 181 15 192 Q23 202 30.5 211 Q38 220 46 230 Q54 241 62.5 251 Q71 261 79 271 L112 313 Q118 320 123.5 326.5 Q129 333 135 341 Q141 349 147.5 357 Q154 365 160 373 Q169 383 177 393 Q185 403 193 414 Q201 424 209.5 434 Q218 444 226 454 Q234 465 242.5 475 Q251 485 259 495 Q265 503 271 510.5 Q277 518 283 526 Q290 535 296.5 543.5 Q303 552 310 560 Q318 571 325.5 581 Q333 591 341 601 Q345 606 348.5 611.5 Q352 617 355 622 Q358 627 361 632 Q364 637 367 642 Q367 643 368 644 Q373 652 369.5 655.5 Q366 659 363 661 Q361 662 358.5 662 Q356 662 354 663 L337 663 Q332 662 321 662 Q304 660 286 656 L268 653 L250 650 L217 641 Q209 639 201.5 637 Q194 635 186 633 Q178 630 170 627.5 Q162 625 154 623 Q145 620 135.5 617 Q126 614 117 611 Q108 608 99.5 605.5 Q91 603 82 600 Q78 598 74.5 597.5 Q71 597 67 595 Q63 594 59.5 593 Q56 592 52 594 Q50 598 50 603 Q51 604 52 605 Q53 606 55 608 Q56 609 73 615.5 Q90 622 116 631 Q142 640 174.5 650 Q207 660 240 668.5 Q273 677 303 681.5 Q333 686 354 684 L357 684 Q361 683 365 682.5 Q369 682 372 681 Q384 676 386 668.5 Q388 661 388 657 Q388 650 385.5 644 Q383 638 381 632 Q378 626 375 621 Q372 616 369 611 Q366 605 362 599.5 Q358 594 354 589 Q351 583 347 577.5 Q343 572 339 567 Q331 557 323.5 547 Q316 537 308 527 L275 485 Q267 474 259 464.5 Q251 455 243 444 Q234 434 226 424 Q218 414 209 403 Q201 392 193 382.5 Q185 373 177 362 Q169 351 160.5 341.5 Q152 332 144 321 Q136 310 127.5 300 Q119 290 111 280 Q103 269 94.5 259.5 Q86 250 78 239 Q70 229 62 219 Q54 209 46 199 Q38 188 29.5 178 Q21 168 13 158 Q5 147 -3 137 Q-11 127 -19 116 L-49 77 Q-57 66 -64.5 56 Q-72 46 -80 35 Q-87 26 -93.5 17 Q-100 8 -106 -1 Q-114 -12 -121.5 -23 Q-129 -34 -137 -45 L-167 -90 L-182 -114 Q-185 -119 -188 -124.5 Q-191 -130 -193 -135 Q-137 -103 -78 -75 Q-27 -51 32.5 -27 Q92 -3 148 11 Q157 13 166.5 15.5 Q176 18 185 20 Q195 22 204 24.5 Q213 27 223 29 Q232 31 240.5 32 Q249 33 258 34 Q266 36 273.5 36.5 Q281 37 289 38 Q297 39 304 39.5 Q311 40 319 40 Q328 41 337 41 Q346 41 355 41 Q364 41 373.5 41 Q383 41 392 40 Q401 40 410 40 Q419 40 428 39 Q436 39 444.5 38.5 Q453 38 461 37 Q463 36 466 36 Z " />
<glyph glyph-name="a" unicode="a" horiz-adv-x="181" d="M181 300 Q188 297 186.5 291.5 Q185 286 183 284 Q174 274 160 259 Q146 244 131 228.5 Q116 213 103.5 200 Q91 187 86 182 Q81 178 71 168.5 Q61 159 53 156 Q46 154 39 155 Q32 156 27 162 Q23 168 22.5 175.5 Q22 183 23 190.5 Q24 198 26 204.5 Q28 211 29 215 Q31 223 33.5 229.5 Q36 236 38 244 Q35 239 32 235.5 Q29 232 26 228 Q21 221 11.5 213 Q2 205 -8 200 Q-18 195 -26.5 196.5 Q-35 198 -38 210 Q-43 226 -36.5 243.5 Q-30 261 -25 269 Q-19 279 -11.5 288 Q-4 297 5 304 Q19 312 34 311 Q49 310 54 289 Q56 292 57.5 293.5 Q59 295 63 300 Q67 305 70.5 310.5 Q74 316 78 322 Q82 326 86 326 Q90 326 92.5 323.5 Q95 321 93 317 Q92 315 89.5 309.5 Q87 304 83 297.5 Q79 291 75.5 284.5 Q72 278 70 274 Q68 270 66.5 266 Q65 262 63 258 Q61 254 59 249 L52 232 Q50 227 46.5 217 Q43 207 40.5 197.5 Q38 188 37.5 179.5 Q37 171 41 169 Q43 168 49 170 Q55 172 65.5 182 Q76 192 87 203 L114 230 Q127 243 139.5 255.5 Q152 268 161 278 Q172 289 181 300 Z M32 259 Q34 261 36.5 265 Q39 269 40 272 Q39 273 39 274 L39 278 Q38 281 38 286 Q38 290 37 292 Q35 295 33 295 Q22 298 10.5 287.5 Q-1 277 -7 268 Q-13 257 -19.5 244 Q-26 231 -24 218 Q-23 207 -14.5 211.5 Q-6 216 3.5 226 Q13 236 21.5 246.5 Q30 257 32 259 Z " />
<glyph glyph-name="b" unicode="b" horiz-adv-x="197" d="M201 651 Q199 647 181.5 612.5 Q164 578 136 524 Q108 470 73.5 403.5 Q39 337 4 269 Q-1 261 -4 252.5 Q-7 244 -9 241 Q-4 246 -0.5 250.5 Q3 255 11 265 Q23 279 36 294.5 Q49 310 64 321 Q72 326 81 331 Q90 336 100 337 Q113 337 117 328 Q120 323 119.5 316 Q119 309 117 304 Q112 290 102.5 278.5 Q93 267 82 256 Q48 223 -4 195 Q11 193 24.5 197 Q38 201 51 207 Q65 214 82 224 Q99 234 119 246 Q142 260 158.5 272.5 Q175 285 197 300 Q202 296 203.5 293 Q205 290 194 282 Q174 266 153.5 251.5 Q133 237 111 223 Q95 213 79 204.5 Q63 196 45 189 Q40 187 31.5 184.5 Q23 182 13 181 Q3 180 -7 182 Q-17 184 -26 191 Q-29 187 -33 181 Q-46 161 -56.5 139 Q-67 117 -78 94 Q-81 89 -87 89 Q-93 91 -93 96 Q-93 100 -92 102 Q-84 122 -74.5 141.5 Q-65 161 -56 182 Q-43 211 -31 235.5 Q-19 260 -5 290 Q4 310 15.5 332.5 Q27 355 37 375 Q39 380 49.5 399.5 Q60 419 73.5 444.5 Q87 470 101 497 Q115 524 126 544 Q148 586 162.5 613.5 Q177 641 190 667 Q197 680 200.5 683.5 Q204 687 210 684 Q215 681 211.5 672 Q208 663 201 651 Z M-5 222 Q-8 217 -10.5 214.5 Q-13 212 -15 208 Q2 217 19 227.5 Q36 238 51 250 Q59 257 66.5 264.5 Q74 272 80 280 Q87 288 93.5 298 Q100 308 101 320 Q90 320 80.5 312.5 Q71 305 63 299 Q55 291 47 282 Q39 273 31 265 Q22 254 12.5 243.5 Q3 233 -5 222 Z " />
<glyph glyph-name="c" unicode="c" horiz-adv-x="134" d="M134 300 Q141 295 139.5 290.5 Q138 286 127 275 Q99 247 72.5 221 Q46 195 21 177 Q14 172 5.5 168 Q-3 164 -10 163 Q-20 160 -30 165 Q-42 171 -44.5 183 Q-47 195 -45 208.5 Q-43 222 -37.5 234.5 Q-32 247 -28 256 Q-13 289 13 315 Q19 321 27 327.5 Q35 334 44 334 Q54 334 58.5 328 Q63 322 62.5 314 Q62 306 58.5 298 Q55 290 51 285 Q49 283 45.5 280 Q42 277 38 282 Q35 284 38 287 Q43 292 46.5 299 Q50 306 49 313 Q49 318 46 318 Q44 319 43 318.5 Q42 318 40 318 Q28 312 18.5 299.5 Q9 287 2 276 Q-15 251 -24 223 Q-26 215 -28 208.5 Q-30 202 -29 194 Q-29 187 -26 183 Q-23 179 -18.5 179 Q-14 179 -9 180.5 Q-4 182 0.5 184.5 Q5 187 8 189 Q20 197 31 206 Q42 215 53 225 Q59 230 72 242.5 Q85 255 99 268 Q115 283 134 300 Z " />
<glyph glyph-name="d" unicode="d" horiz-adv-x="158" d="M292 661 Q295 659 294 654 Q293 649 291 645 Q283 630 277 619 Q271 608 265 598 Q259 588 253 577.5 Q247 567 240 553 Q220 516 201.5 482 Q183 448 165 412 Q147 376 127.5 334.5 Q108 293 85 241 Q81 233 73.5 214.5 Q66 196 59 179 Q49 156 41 137.5 Q33 119 27 105 Q26 103 24 99.5 Q22 96 18 98 Q13 99 11.5 102 Q10 105 12 108 Q16 122 20 134 Q24 146 32 166 Q41 190 48 207 Q55 224 62 239.5 Q69 255 76 271 Q83 287 92 309 Q72 282 52.5 254.5 Q33 227 10 203 Q3 197 -6 191 Q-15 185 -24 190 Q-32 194 -34 204 Q-36 214 -34 227 Q-32 240 -26.5 254 Q-21 268 -13.5 281 Q-6 294 2 303 Q10 311 19 317 Q28 323 39 321 Q47 319 52 313.5 Q57 308 60 300 Q63 304 65.5 307 Q68 310 70 313 L91 343 Q98 353 104.5 362.5 Q111 372 117 383 Q122 390 126.5 397 Q131 404 136 412 Q173 472 205.5 533 Q238 594 274 654 Q278 660 281 662 Q287 666 292 661 Z M48 282 Q48 292 43.5 299.5 Q39 307 28 302 Q19 297 12 288 Q5 279 0 271 Q-8 257 -14 241 Q-20 225 -20 217 Q-20 212 -18 206 Q-16 200 -11 205 Q-7 210 -3.5 213.5 Q0 217 4 222 Q12 232 16.5 238 Q21 244 28 254 L48 282 Z " />
<glyph glyph-name="e" unicode="e" horiz-adv-x="143" d="M143 300 Q157 293 134 273 Q122 263 115 256.5 Q108 250 102 244.5 Q96 239 89 232.5 Q82 226 71 217 Q39 191 22.5 179 Q6 167 -11 165 Q-22 164 -33 170 Q-44 176 -47 190 Q-49 200 -47.5 210.5 Q-46 221 -43 230 Q-33 257 -16 281 Q1 305 24 323 Q31 329 42.5 335.5 Q54 342 65 339 Q71 337 71.5 329.5 Q72 322 70 317 Q67 308 60 295 Q53 282 44 271 Q35 260 24.5 251.5 Q14 243 4 243 Q-2 243 -7 246 Q-12 249 -14 254 Q-20 242 -25 230 Q-30 218 -32 204 Q-32 195 -28.5 187.5 Q-25 180 -11 183 Q0 185 10 192 Q20 199 29 206 Q51 223 66 235 Q81 247 93.5 257 Q106 267 117.5 277 Q129 287 143 300 Z M0 276 Q-11 262 -0.5 258 Q10 254 26 272 Q35 283 44 297 Q53 311 55 326 Q50 323 44.5 319.5 Q39 316 34 312 Q16 297 0 276 Z " />
<glyph glyph-name="f" unicode="f" horiz-adv-x="127" d="M127 300 Q137 291 129 285 Q127 283 106.5 271 Q86 259 61.5 244.5 Q37 230 16 217 Q-5 204 -9 201 Q-17 195 -18 192 Q-19 189 -17 179 Q-12 159 -9 139.5 Q-6 120 -6 101 Q-4 78 -7.5 54.5 Q-11 31 -18 10 Q-22 -1 -25 -11 Q-28 -21 -33 -32 Q-41 -49 -49 -68 Q-57 -87 -67.5 -105 Q-78 -123 -90.5 -138.5 Q-103 -154 -118 -164 Q-123 -167 -128.5 -169 Q-134 -171 -140 -169 Q-149 -168 -155 -158 Q-162 -145 -159 -126 Q-156 -107 -154 -94 Q-149 -65 -141.5 -39.5 Q-134 -14 -126 11 Q-113 51 -99 85 Q-85 123 -69 156.5 Q-53 190 -39 223 Q15 330 69.5 435 Q124 540 181 643 Q185 650 189 657.5 Q193 665 197 670.5 Q201 676 205 679 Q209 682 213 680 Q219 677 213 664.5 Q207 652 200 640 Q169 584 140.5 531.5 Q112 479 85 427 Q58 375 30.5 322.5 Q3 270 -26 213 L127 300 Z M-36 191 Q-44 172 -52 154 Q-59 138 -67 119.5 Q-75 101 -82 84 Q-93 58 -100.5 36.5 Q-108 15 -114 -4.5 Q-120 -24 -125 -43 Q-130 -62 -134 -83 Q-134 -86 -136 -96 Q-138 -106 -139.5 -117 Q-141 -128 -141 -136.5 Q-141 -145 -136 -145 Q-131 -145 -124.5 -139.5 Q-118 -134 -113 -129 Q-94 -105 -81 -79 Q-68 -53 -55 -27 Q-50 -13 -45 -0.5 Q-40 12 -36 26 Q-33 37 -30.5 48.5 Q-28 60 -26 71 Q-23 115 -30 155 L-36 191 Z " />
<glyph glyph-name="g" unicode="g" horiz-adv-x="161" d="M161 300 Q166 295 166.5 292 Q167 289 160 282 Q152 275 141.5 266 Q131 257 120 248 Q109 239 99.5 230.5 Q90 222 84 216 Q67 201 52 186 Q37 171 24 158 Q22 154 18.5 144.5 Q15 135 11 124.5 Q7 114 3.5 104 Q0 94 -3 88 Q-7 79 -10.5 70 Q-14 61 -18 51 Q-22 43 -25 35.5 Q-28 28 -31 20 L-49 -22 Q-58 -45 -68 -66 Q-76 -84 -86 -102 Q-95 -122 -109 -139 Q-117 -150 -127.5 -160 Q-138 -170 -152 -173 Q-163 -176 -171 -171 Q-185 -159 -179 -128 Q-176 -115 -171 -101 Q-166 -87 -161 -75 Q-156 -63 -151.5 -54.5 Q-147 -46 -145 -42 Q-137 -28 -129.5 -14 Q-122 0 -113 14 Q-104 28 -94.5 42 Q-85 56 -76 70 L-52 103 Q-42 117 -32 130 Q-22 143 -12 156 Q-8 161 -4.5 164.5 Q-1 168 6 176 Q8 180 11 189.5 Q14 199 18 209.5 Q22 220 25.5 230 Q29 240 32 247 Q27 242 22.5 237.5 Q18 233 13 228 Q9 224 3 219 Q-3 214 -10 211 Q-17 208 -24 208 Q-31 208 -36 215 Q-45 228 -38.5 247 Q-32 266 -24 278 Q-3 307 31 312 Q40 313 50 308 Q52 308 54 306 Q56 309 57.5 312 Q59 315 61 318 Q66 325 70 332 Q74 339 79 347 Q84 356 92 352 Q100 349 97 340 Q94 334 91 328.5 Q88 323 86 318 L65 273 Q60 261 56.5 253.5 Q53 246 48 234 Q46 229 42.5 220.5 Q39 212 33 195 Q40 201 48.5 208.5 Q57 216 65.5 223.5 Q74 231 81.5 237 Q89 243 93 246 Q101 253 112.5 262.5 Q124 272 135 280 Q147 290 161 300 Z M-12 115 Q-11 117 -9.5 122.5 Q-8 128 -5 137 Q-6 136 -9.5 131 Q-13 126 -14 125 Q-19 117 -24 111.5 Q-29 106 -34 98 Q-42 87 -47.5 79.5 Q-53 72 -61 61 Q-71 47 -80.5 32.5 Q-90 18 -99 4 Q-113 -17 -123 -38 Q-128 -46 -132 -54.5 Q-136 -63 -140 -72 Q-154 -98 -161 -125 Q-164 -137 -164 -149 Q-164 -162 -154 -157 Q-149 -155 -145 -152 Q-141 -149 -137 -145 Q-116 -124 -102 -94 Q-98 -85 -94 -76 Q-90 -67 -85 -58 Q-79 -44 -73 -29.5 Q-67 -15 -60 0 Q-55 11 -51.5 21.5 Q-48 32 -43 43 Q-38 52 -34.5 61.5 Q-31 71 -27 81 Q-22 92 -19.5 98 Q-17 104 -12 115 Z M-2 238 Q4 243 13 252.5 Q22 262 23 263 Q24 264 27.5 268.5 Q31 273 35 278.5 Q39 284 42 288.5 Q45 293 45 293 Q41 297 35.5 296.5 Q30 296 25 294 Q8 286 -5 272 Q-18 258 -22 240 L-22 230 Q-22 226 -17 227 Q-13 229 -9.5 232 Q-6 235 -2 238 Z " />
<glyph glyph-name="h" unicode="h" horiz-adv-x="174" d="M21 306 Q16 295 12 285.5 Q8 276 3 266 Q6 269 9 273 Q11 276 13.5 279.5 Q16 283 18 285 Q26 296 34.5 305.5 Q43 315 53 324 Q61 332 66 334 Q80 342 89 331 Q94 326 94 318 Q94 310 92 303 Q89 287 83.5 271.5 Q78 256 73 241 Q69 229 66 220 Q64 212 63 205.5 Q62 199 64 197 Q66 195 72 200 Q78 205 84 211 Q90 217 95.5 222.5 Q101 228 101 228 Q109 237 122 249.5 Q135 262 146 273 Q159 286 174 300 Q182 295 179.5 291 Q177 287 174 283 Q165 273 154.5 261 Q144 249 132.5 237 Q121 225 110.5 214.5 Q100 204 93 197 Q88 192 85 190 Q82 188 79 185.5 Q76 183 71 181 Q61 177 55 182 Q46 185 46 196 Q45 202 47.5 212 Q50 222 53.5 234 Q57 246 61.5 259 Q66 272 69 283 L75 301 Q77 308 77.5 314 Q78 320 76 321 Q73 323 67 317.5 Q61 312 55 306 Q48 298 40 289 Q38 287 35 283 Q32 279 29 276 Q21 265 15 257.5 Q9 250 1 239 Q-6 230 -12 220.5 Q-18 211 -24 201 Q-26 199 -26 198 Q-31 194 -36 196 Q-41 200 -40 205 Q-39 210 -35 220 L-20 259 L-2 298 Q3 309 8 319 Q13 329 18 340 Q23 352 29 363.5 Q35 375 41 387 Q45 396 49 405 Q53 414 57 422 Q62 431 66 440 Q70 449 75 457 Q79 465 82.5 473 Q86 481 90 489 L102 513 Q106 520 109 526.5 Q112 533 116 540 Q122 552 128 564 Q134 576 140 589 Q145 598 150 607.5 Q155 617 160 626 L178 659 Q180 663 183 666.5 Q186 670 189 674 Q189 676 191 676 Q194 679 198 677 Q202 674 200 669 Q196 661 193 657 Q189 649 185 641 Q181 633 177 625 Q168 609 161 593 Q157 586 154 579 Q151 572 147 565 Q142 554 137 544.5 Q132 535 127 524 Q116 501 104 478 Q98 465 91.5 452.5 Q85 440 79 426 Q74 415 68 403.5 Q62 392 57 381 L21 306 Z " />
<glyph glyph-name="i" unicode="i" horiz-adv-x="121" d="M121 300 Q127 291 122 286.5 Q117 282 104 271 Q93 263 81.5 254.5 Q70 246 59 238 Q51 232 44 227 Q37 222 29 217 Q21 212 14.5 207.5 Q8 203 0 201 Q-5 200 -9.5 199.5 Q-14 199 -17 201 Q-25 204 -27 212 Q-32 223 -27 237.5 Q-22 252 -17 263 Q-10 278 -6.5 287.5 Q-3 297 5 311 Q9 319 13 323 Q15 325 15 326 Q20 328 23.5 326.5 Q27 325 27 322 Q27 319 21 305.5 Q15 292 11 284 Q4 270 -0.5 259.5 Q-5 249 -10 235 Q-14 221 -9 217 Q-5 215 4 220.5 Q13 226 19 231 Q31 239 42 246 Q53 253 67 262 Q75 267 84 273.5 Q93 280 101 286 Q111 293 121 300 Z M41 372 Q36 374 38 379 Q39 382 42.5 389 Q46 396 50 404 Q54 412 58 419.5 Q62 427 64 431 Q67 435 73 433 Q76 432 74 426 Q74 425 70 417 Q66 409 61.5 400 Q57 391 53 383.5 Q49 376 49 375 Q44 370 41 372 Z " />
<glyph glyph-name="j" unicode="j" horiz-adv-x="105" d="M32 358 Q28 360 29 365 Q30 368 33.5 374.5 Q37 381 41 389.5 Q45 398 49 405.5 Q53 413 55 417 Q58 421 64 419 Q67 418 65 412 Q65 411 61 403 Q57 395 52.5 385.5 Q48 376 44 368.5 Q40 361 40 360 Q37 355 32 358 Z M105 300 Q111 290 104 286 Q95 279 88.5 274.5 Q82 270 76 266 Q70 262 63.5 258 Q57 254 48 248 Q35 238 24 231 Q13 224 -4 213 Q-14 207 -19.5 202.5 Q-25 198 -29 193.5 Q-33 189 -36.5 183 Q-40 177 -45 167 Q-53 151 -59 140 Q-65 129 -73 114 Q-99 60 -126.5 7 Q-154 -46 -187 -98 Q-200 -117 -215.5 -138.5 Q-231 -160 -252 -171 Q-259 -175 -266.5 -177 Q-274 -179 -281 -177 Q-296 -173 -298 -159.5 Q-300 -146 -298 -133 Q-294 -105 -281.5 -78 Q-269 -51 -253 -25 Q-233 8 -208 39 Q-183 70 -157 99 Q-123 136 -87 172 Q-83 176 -76 183 Q-69 190 -62 196 Q-54 203 -45 211 Q-42 215 -38 224 Q-34 233 -29.5 242.5 Q-25 252 -21.5 259 Q-18 266 -17 268 L1 304 Q3 307 6.5 309.5 Q10 312 13 311 Q17 310 17 305 Q16 303 16 302 Q16 301 15 299 Q12 291 9 284 Q6 277 2 270 L0 264 Q-2 260 -2 260 Q-3 259 -3 258 Q-5 255 -7.5 250 Q-10 245 -12.5 239.5 Q-15 234 -17 229 Q-19 224 -20 222 Q-16 225 4 237.5 Q24 250 47 264 Q73 280 105 300 Z M-91 115 Q-84 127 -78.5 138 Q-73 149 -62 171 Q-66 168 -72 162 Q-78 156 -80 153 Q-93 139 -104.5 127.5 Q-116 116 -129 102 Q-143 88 -155 73.5 Q-167 59 -180 45 Q-189 34 -198 22.5 Q-207 11 -216 -1 Q-227 -17 -237 -33 Q-247 -49 -256 -66 Q-264 -83 -271 -99 Q-278 -115 -281 -132 Q-282 -137 -282.5 -142.5 Q-283 -148 -281 -153 Q-278 -162 -268 -159 Q-256 -155 -248.5 -147.5 Q-241 -140 -233 -131 Q-221 -114 -210 -97.5 Q-199 -81 -188 -63 Q-173 -38 -162 -16.5 Q-151 5 -137 30 Q-129 45 -123 55.5 Q-117 66 -112 75 Q-107 84 -102 93 Q-97 102 -91 115 Z " />
<glyph glyph-name="k" unicode="k" horiz-adv-x="229" d="M229 300 Q239 294 235 287.5 Q231 281 222 271 Q211 257 198 242.5 Q185 228 175 219 Q164 208 152 197.5 Q140 187 129 177 Q120 169 113 164 Q106 159 96 152 Q90 149 84 146.5 Q78 144 71 142 Q58 139 44 148 Q37 153 32.5 158.5 Q28 164 23 171 Q17 182 12 193.5 Q7 205 5 217 Q4 221 4 230 Q6 239 15 241 Q20 243 24.5 243.5 Q29 244 34 245 Q59 248 79 261 Q85 265 90.5 269 Q96 273 101 278 Q108 286 113 293 Q118 299 120.5 304.5 Q123 310 120 314 Q117 317 109.5 315.5 Q102 314 93.5 310.5 Q85 307 78.5 303.5 Q72 300 72 300 Q68 298 66 296 Q42 280 18 255 Q6 241 -6.5 227 Q-19 213 -25 200 Q-29 193 -32 185.5 Q-35 178 -37 175 Q-38 173 -42 163.5 Q-46 154 -53 138 Q-60 121 -64 110 Q-68 99 -75 82 Q-76 80 -76 77 Q-76 74 -77 72 Q-77 67 -82 65 Q-88 65 -90 70 Q-90 77 -89 80 Q-86 93 -80 107 Q-75 121 -69 135.5 Q-63 150 -58 164 Q-50 182 -43 200 Q-37 215 -30.5 231 Q-24 247 -19 258 Q-11 275 -4.5 290.5 Q2 306 10 322 Q12 327 17 338 Q22 349 28 361.5 Q34 374 39.5 385 Q45 396 47 401 Q50 407 59 425.5 Q68 444 79.5 466 Q91 488 101.5 508 Q112 528 117 537 Q128 556 139 575 Q150 594 161 613 Q165 619 168.5 625.5 Q172 632 176 638 Q178 640 178.5 641 Q179 642 181 644 Q185 647 189 643 Q191 638 191 637 Q190 635 189 633 Q188 631 187 629 Q182 619 176.5 609.5 Q171 600 165 590 L135 536 Q126 518 116.5 500.5 Q107 483 98 466 Q92 455 86.5 443.5 Q81 432 75 420 Q69 408 63.5 396 Q58 384 52 372 Q45 358 38.5 344 Q32 330 25 316 Q20 304 14 291.5 Q8 279 3 267 Q1 264 0 260.5 Q-1 257 -3 254 Q4 259 7 264 Q18 276 29 286 Q40 296 54 306 Q64 312 73.5 317.5 Q83 323 94 327 Q104 330 116 330 Q127 330 133 322 Q139 314 135 302 Q133 294 129.5 288 Q126 282 121 276 Q98 247 60 236 Q51 233 42 231.5 Q33 230 24 228 L20 228 Q20 228 19 227 Q19 223 20 221 Q24 210 28 199.5 Q32 189 39 179 Q41 175 44 172 Q47 169 50 166 Q58 158 70 161 Q77 163 82.5 165.5 Q88 168 93 171 Q110 182 130.5 199.5 Q151 217 165 231 Q176 242 187.5 253.5 Q199 265 208 276 Q219 288 229 300 Z " />
<glyph glyph-name="l" unicode="l" horiz-adv-x="131" d="M180 672 Q185 680 191 677 Q197 674 192 666 Q188 659 181.5 647 Q175 635 171 628 Q125 550 88.5 473 Q52 396 19 309 Q17 305 11.5 287 Q6 269 1 249 Q-4 229 -5.5 212 Q-7 195 1 193 Q2 192 7 194 Q13 197 18 200.5 Q23 204 28 209 Q43 222 55.5 232.5 Q68 243 81 254 Q89 262 98 269.5 Q107 277 115 284 Q124 292 131 300 Q140 295 134.5 287 Q129 279 119 270 Q102 253 86 237.5 Q70 222 47 202 Q44 199 37.5 194 Q31 189 23.5 184.5 Q16 180 8 177.5 Q0 175 -6 178 Q-10 180 -10 180 Q-19 187 -21 199.5 Q-23 212 -21 226.5 Q-19 241 -15 255.5 Q-11 270 -8 279 Q-1 297 4.5 315 Q10 333 17 351 Q50 435 90 516 Q130 597 180 672 Z " />
<glyph glyph-name="m" unicode="m" horiz-adv-x="236" d="M236 300 Q241 295 239 291.5 Q237 288 228 280 Q222 274 207.5 261.5 Q193 249 178 236.5 Q163 224 150.5 214 Q138 204 137 203 Q124 196 115 202 Q109 206 109.5 217 Q110 228 112.5 239.5 Q115 251 118.5 260.5 Q122 270 123 272 Q125 279 129 290 Q133 301 135 305 Q130 300 124.5 293.5 Q119 287 114 282 Q106 272 98.5 261.5 Q91 251 83 240 Q75 230 69.5 222 Q64 214 55 202 Q53 200 51 198 Q49 196 47 195 Q43 192 38 194 Q32 195 32 203 Q31 209 34 217 Q37 225 39 231 Q41 238 43 242.5 Q45 247 47 254 Q49 260 50.5 263.5 Q52 267 53 269.5 Q54 272 55 274.5 Q56 277 58 283 Q60 288 62 295.5 Q64 303 68 315 Q65 313 61 310 Q57 307 52 303 Q40 290 32.5 282 Q25 274 19 266 Q14 260 10 255 Q6 250 1 243 Q-2 239 -8 233 Q-14 227 -17 225 Q-20 223 -24.5 223.5 Q-29 224 -31 228 Q-32 232 -31 236 Q-30 244 -27 250 Q-24 256 -21 263 Q-17 270 -13.5 277 Q-10 284 -6 291 Q-5 293 -2 297.5 Q1 302 3 304 Q7 310 13 307 Q15 306 15.5 304 Q16 302 14 297 Q12 293 9 286 Q6 279 4 275 Q2 273 1.5 270.5 Q1 268 -1 265 Q4 271 7.5 275.5 Q11 280 14 285 Q19 290 23 295 Q27 300 32 305 Q37 310 42.5 315.5 Q48 321 53 325 Q58 329 62.5 331.5 Q67 334 73 334 Q81 332 85 326 Q89 320 87.5 313 Q86 306 84 300 L69 260 Q67 255 65 249.5 Q63 244 60 234 Q65 241 69.5 247.5 Q74 254 78 259 Q87 270 94.5 280.5 Q102 291 112 302 Q120 312 130.5 321 Q141 330 146 331 Q154 331 155 324 Q156 317 155 312 Q150 289 141.5 269.5 Q133 250 128 230 Q126 226 125.5 221.5 Q125 217 126 217 Q128 215 132 218 Q136 221 138 223 Q149 232 161.5 241.5 Q174 251 184 259 Q195 268 203.5 275.5 Q212 283 220 288 Q228 294 236 300 Z " />
<glyph glyph-name="n" unicode="n" horiz-adv-x="178" d="M66 217 Q74 223 80 227 Q86 231 91 235 Q99 240 113.5 251 Q128 262 142 273 Q159 285 178 300 Q183 296 182 293.5 Q181 291 179 289 Q170 281 163.5 275.5 Q157 270 151 265.5 Q145 261 138.5 255.5 Q132 250 123 242 Q112 234 106.5 229 Q101 224 93 217 Q87 212 79 206 Q71 200 66 198 Q57 193 51 199 Q46 203 46.5 210.5 Q47 218 49 224 L64 263 Q66 268 67.5 272.5 Q69 277 71 282 Q73 288 74.5 293 Q76 298 77 300 Q73 298 71 297 Q69 296 67 294 Q56 286 47.5 278 Q39 270 29 261 Q21 253 12.5 245.5 Q4 238 -4 230 Q-6 228 -12 224 Q-17 222 -21 224.5 Q-25 227 -25 233 Q-25 238 -24 241 Q-22 245 -18 255.5 Q-14 266 -10 276.5 Q-6 287 -2.5 295 Q1 303 1 304 Q6 310 11 309 Q18 307 16 299 Q13 292 10.5 284.5 Q8 277 6 270 Q5 269 2 257 Q16 274 32.5 287 Q49 300 66 313 Q69 315 74 318 Q79 321 83 322 Q89 323 92.5 320 Q96 317 96.5 312.5 Q97 308 96.5 303 Q96 298 95 294 Q91 283 87 272 Q83 261 78 250 Q76 243 73.5 237.5 Q71 232 69 225 Q68 222 67.5 220.5 Q67 219 66 217 Z " />
<glyph glyph-name="o" unicode="o" horiz-adv-x="163" d="M165 297 Q166 293 165 290 Q164 288 162 287 L153 282 L147 279 Q140 276 119.5 266 Q99 256 79 246 Q64 239 50 236 Q50 235 49 234 Q47 230 40 221 Q33 212 21 204 L21 203 L20 203 Q3 191 -12 198 Q-23 202 -25.5 213 Q-28 224 -27 234 Q-24 255 -11 271 Q-10 272 -10 273 Q-10 274 -9 276 Q-6 295 7 311 Q14 319 22.5 325.5 Q31 332 42 331 Q56 331 63 318 Q69 306 69 293 Q70 283 67 273.5 Q64 264 62 259 Q60 257 60 255 L69 258 Q79 263 95 270 Q111 277 126 284 Q144 292 163 300 Q163 300 164 298 Q164 298 165 297 Z M25 225 Q29 231 31 233 Q14 233 6 240 Q-2 247 -4 250 Q-5 250 -5 251 Q-10 241 -10.5 234 Q-11 227 -11 222 Q-9 212 -1 211 L1 211 Q6 211 11 214 Q13 215 19 219 L25 225 Z M54 288 Q55 293 54 303 Q53 313 45 316 Q40 318 34 314 Q28 310 24 307 Q22 305 21 303.5 Q20 302 18 300 Q15 295 11.5 287.5 Q8 280 7 274 Q5 263 13 255 Q12 255 20 251 Q26 249 33 249 Q39 249 41 250 Q42 252 46 260 Q50 268 52 276 Q54 284 54 288 Z " />
<glyph glyph-name="p" unicode="p" horiz-adv-x="185" d="M185 300 Q191 298 188 291 Q186 287 181 284 Q169 276 159.5 269.5 Q150 263 141 257.5 Q132 252 122.5 246 Q113 240 101 232 Q91 226 72.5 216.5 Q54 207 43 203 Q19 194 -2 200 Q-9 202 -13 208 Q-17 214 -12 218 Q-10 221 -7 221 Q-4 221 0 222 Q15 222 28 228.5 Q41 235 52 246 Q56 250 62.5 258 Q69 266 74.5 275 Q80 284 83 292 Q86 300 82 305 Q77 311 66 306.5 Q55 302 44 294 Q31 284 15 271 Q9 265 5.5 261.5 Q2 258 -1 254 Q-6 246 -10.5 239 Q-15 232 -17 227 Q-24 214 -27 207.5 Q-30 201 -36 188 Q-46 168 -55 149 Q-64 130 -74 110 Q-82 93 -89 76 Q-96 59 -104 42 Q-124 -6 -143 -54.5 Q-162 -103 -185 -159 Q-186 -162 -187 -169 Q-188 -176 -197 -176 Q-204 -174 -203 -169 Q-202 -164 -201 -159 Q-199 -152 -192 -134 Q-185 -116 -177.5 -96 Q-170 -76 -163 -58.5 Q-156 -41 -153 -34 Q-148 -23 -144 -13 Q-140 -3 -136 7 Q-125 33 -114 58.5 Q-103 84 -92 109 Q-84 127 -76 144.5 Q-68 162 -60 179 Q-53 194 -45.5 209.5 Q-38 225 -30 240 Q-22 257 -14 272.5 Q-6 288 2 305 L11 326 Q13 330 15 332 Q19 336 23 332 Q25 331 25 329 Q25 327 25 325 Q24 319 20 309 Q17 304 13 292 Q14 293 16 294.5 Q18 296 19 297 Q30 306 42.5 314 Q55 322 69 325 Q80 327 89 321 Q98 315 100 304 Q102 293 97 283 Q92 273 87 264 Q82 255 76.5 249 Q71 243 63 235 Q56 227 47 222 Q84 240 117 259.5 Q150 279 185 300 Z " />
<glyph glyph-name="q" unicode="q" horiz-adv-x="122" d="M108 320 Q109 315 106.5 310.5 Q104 306 102 301 Q88 275 73 245 Q58 215 49 195 Q48 192 44 184 Q40 176 36 166.5 Q32 157 28 148.5 Q24 140 23 138 Q13 117 4 97 Q-5 77 -15.5 53.5 Q-26 30 -38.5 0.5 Q-51 -29 -69 -69 Q-83 -101 -93 -122.5 Q-103 -144 -111 -162 Q-113 -166 -117.5 -173.5 Q-122 -181 -127 -178 Q-129 -176 -131 -174.5 Q-133 -173 -128 -159 Q-109 -113 -86.5 -61.5 Q-64 -10 -41 41.5 Q-18 93 5 143.5 Q28 194 49 238 Q54 247 58.5 256.5 Q63 266 68 275 L74 286 L68 280 Q66 278 60 272.5 Q54 267 49 263 L40 254 L39 254 Q36 251 28 244.5 Q20 238 10 232 Q0 226 -9.5 223 Q-19 220 -25 224 Q-36 230 -34.5 242 Q-33 254 -30 260 Q-21 283 -3 298 Q3 303 10.5 307 Q18 311 26 311 Q34 311 43.5 307 Q53 303 56 293 L56 291 L67 302 L79 314 L91 326 Q97 331 103 328 Q108 325 108 320 Z M-15 258 Q-17 255 -19 248 Q-21 241 -17 238 Q-15 236 -11.5 237 Q-8 238 -6 239 Q1 242 7 246.5 Q13 251 19 256 Q24 260 30 265 Q36 270 41 276 Q43 278 43 280 Q45 289 37 293 Q34 296 29.5 296 Q25 296 21 295 Q16 293 11.5 290 Q7 287 2 283 Q-3 278 -7.5 271.5 Q-12 265 -15 258 Z " />
<glyph glyph-name="r" unicode="r" horiz-adv-x="158" d="M158 300 Q161 298 163 296 Q167 291 163 287 Q161 286 155 280 Q146 270 138 262 L115 239 Q101 225 86 212.5 Q71 200 55 189 Q46 183 32.5 176 Q19 169 7 174 Q-1 177 -2.5 183 Q-4 189 -2.5 196 Q-1 203 2 210 Q5 217 7 222 Q12 235 13.5 248 Q15 261 6 273 Q2 278 -1 282.5 Q-4 287 -8 292 Q-14 299 -17 308 Q-20 317 -20 326 Q-17 356 1 377 Q6 384 15 388 Q24 392 33 391 Q45 391 50 382 Q50 382 51 380 Q56 373 54.5 365 Q53 357 51 353 Q51 352 50.5 351.5 Q50 351 50 350 Q45 337 37 326 Q29 315 21 304 Q15 296 12 293 Q20 283 25 276 Q34 259 31 241 Q29 231 26.5 225 Q24 219 20 211 Q19 209 15.5 199 Q12 189 14 187 Q17 185 23 188 Q29 191 34 194 Q40 198 48 203 Q55 208 62.5 214 Q70 220 78 227 Q80 228 92 239 Q104 250 115 259 Q123 267 131 274.5 Q139 282 142 285 L158 300 Z M16 319 Q22 327 30.5 342 Q39 357 39 370 Q39 373 36 376 Q36 376 34 377 Q25 379 17.5 371.5 Q10 364 6 357 Q-1 346 -3 330.5 Q-5 315 3 303 L16 319 Z " />
<glyph glyph-name="s" unicode="s" horiz-adv-x="145" d="M147 285 Q145 283 140.5 279.5 Q136 276 132 273 Q131 272 128 270 Q125 268 111 258 Q95 247 72 231.5 Q49 216 32 208 Q29 208 29 206 Q24 198 17.5 191.5 Q11 185 3 180 Q0 178 -5.5 176.5 Q-11 175 -17 175 Q-23 175 -27 177 Q-31 179 -31 185 Q-31 191 -25 199 Q-17 207 -7 212 Q3 217 14 222 Q18 223 19 228 Q20 233 19 239 Q18 245 16 250 Q14 255 13 258 Q8 268 4.5 279 Q1 290 -1 300 Q-4 312 0.5 323.5 Q5 335 18 340 Q33 345 40 333 Q42 330 38 326 Q37 324 35 323 Q33 322 31 324 Q30 324 27.5 326 Q25 328 20 323 Q13 315 15 302 Q17 293 20 285 Q23 277 27 269 Q31 259 33 250 Q35 241 35 230 Q54 239 73.5 251 Q93 263 109 274 Q127 286 145 300 Q147 298 148 296 Q149 294 149 292 Q149 287 147 285 Z M-9 188 Q-7 188 2 195 Q6 198 11 202 Q6 200 2 198 Q-7 194 -9 190 Q-9 190 -10 188 L-9 188 Z " />
<glyph glyph-name="t" unicode="t" horiz-adv-x="66" d="M651 434 Q656 430 652 424 Q646 420 642 424 Q639 427 635 427 Q571 435 507 439.5 Q443 444 377 446 Q320 448 263.5 447.5 Q207 447 150 445 Q140 445 131 444.5 Q122 444 112 444 Q108 444 103 444 Q98 444 93 443 Q73 405 54 367.5 Q35 330 20 299 Q2 263 -14 230 L-149 -47 L-194 -143 Q-196 -148 -199 -151 Q-204 -158 -212 -155 L-213 -155 L-214 -155 Q-217 -154 -217 -151 Q-219 -146 -214.5 -136 Q-210 -126 -206 -118 Q-151 -6 -96.5 104.5 Q-42 215 13 327 Q24 350 34.5 371.5 Q45 393 56 416 Q59 422 62 428 Q65 434 68 439 Q69 440 69 440.5 Q69 441 70 442 Q70 442 64 442 Q58 442 49.5 441.5 Q41 441 32.5 441 Q24 441 18 441 Q7 441 -3 440.5 Q-13 440 -24 440 L-61 440 Q-72 440 -82.5 440 Q-93 440 -104 442 Q-111 444 -114 447 Q-119 452 -116 457 Q-115 459 -112.5 461 Q-110 463 -108 465 Q-100 469 -97 469 Q-91 471 -90 467 Q-89 463 -93 461 Q-95 459 -99 457 Q-101 457 -102 456 Q-103 455 -104 455 Q-100 453 -97 453 Q-89 453 -82 452.5 Q-75 452 -67 452 Q-57 452 -47.5 452 Q-38 452 -28 453 Q-17 453 -7.5 453 Q2 453 12 454 Q16 454 27 454.5 Q38 455 49 456 Q62 457 78 458 Q83 467 87.5 476 Q92 485 97 494 Q103 506 109 518 Q115 530 122 541 L146 586 Q152 597 160 609 Q162 613 164 614 Q165 617 169 615 Q172 614 174 612 Q177 608 173 601 Q172 599 166 587 Q160 575 150 555.5 Q140 536 127.5 511 Q115 486 101 458 L119 458 Q127 458 135.5 458 Q144 458 152 459 Q218 461 282.5 461.5 Q347 462 412 459 Q469 457 524.5 452.5 Q580 448 636 440 Q638 440 641 439 Q644 438 647 437 Q649 437 651 434 Z " />
<glyph glyph-name="u" unicode="u" horiz-adv-x="182" d="M67 261 Q50 247 33.5 233 Q17 219 0 211 Q-6 208 -13 207 Q-20 206 -25 211 Q-29 213 -30 217 Q-31 221 -32 226 Q-32 238 -25.5 252 Q-19 266 -14 277 Q-9 287 -4.5 293.5 Q0 300 6 310 Q10 316 13 318 Q15 320 17 319 Q21 319 21 313 Q21 311 19 307 Q14 299 10 291.5 Q6 284 1 276 Q-3 268 -6.5 261 Q-10 254 -13 246 Q-17 236 -18 231 Q-20 224 -16 221 Q-11 220 -4 224 Q4 228 10.5 233 Q17 238 24 243 Q36 254 48 263 Q53 267 57 271 Q61 275 66 279 Q68 281 71.5 283.5 Q75 286 77 288 Q81 292 84 293 Q93 297 93 287 Q93 285 92 282 Q91 279 90 277 Q88 270 85 263.5 Q82 257 80 250 Q78 246 74.5 234.5 Q71 223 72 218 Q72 212 76 212 Q81 210 86 212.5 Q91 215 95 217 Q109 225 121.5 237 Q134 249 146 260 Q147 261 153 267.5 Q159 274 165.5 281 Q172 288 177 294 Q182 300 182 300 Q188 296 188 292 Q188 287 185 284 Q174 270 162.5 257.5 Q151 245 139 233 Q128 223 116.5 213.5 Q105 204 91 199 Q83 197 74 197.5 Q65 198 60 206 Q56 211 56 217.5 Q56 224 58 231 Q59 235 60 239 Q61 243 62 247 Q63 249 64 253 Q65 257 67 261 Z " />
<glyph glyph-name="v" unicode="v" horiz-adv-x="196" d="M196 300 Q199 292 196 289 Q193 286 188 284 Q174 279 161 274.5 Q148 270 136 266 Q121 262 108 265.5 Q95 269 89 280 Q85 284 85 288 Q75 274 65 262 Q55 250 44 239 Q28 220 10 206 Q5 201 -2.5 196.5 Q-10 192 -18 193 Q-26 194 -29 199.5 Q-32 205 -32 212 Q-32 219 -30.5 226 Q-29 233 -27 238 Q-26 242 -20 257.5 Q-14 273 -5.5 290 Q3 307 11 319 Q19 331 25 328 Q30 324 27.5 319.5 Q25 315 16 298 Q9 284 5.5 276.5 Q2 269 -4 255 Q-5 252 -8 245 Q-11 238 -13.5 230 Q-16 222 -17 215.5 Q-18 209 -16 208 Q-14 206 -8 210.5 Q-2 215 5 222 Q13 229 22 240 Q37 253 47 266 L71 296 Q73 300 76 303 Q79 306 81 311 Q83 313 83.5 315.5 Q84 318 86 320 Q88 338 96 360 Q96 361 97 361 L97 362 Q100 371 104 376.5 Q108 382 111 385 Q115 389 118 390 Q123 391 127 390 Q137 388 137 374 Q137 362 130.5 352.5 Q124 343 113 329 Q102 314 101 304 Q100 295 105.5 288 Q111 281 122 281 Q126 281 138 283.5 Q150 286 163 290 Q178 294 196 300 Z M123 375 Q121 376 118.5 372 Q116 368 114 363 Q111 357 109 349 L117 361 Q120 366 122 370 Q124 374 123 375 Z " />
<glyph glyph-name="w" unicode="w" horiz-adv-x="228" d="M228 300 Q236 291 228 284 Q215 275 203 268 Q196 264 190.5 261.5 Q185 259 177 257 Q170 255 161 258 Q152 261 143 271 Q138 263 134 257.5 Q130 252 127 247 Q119 234 109.5 222 Q100 210 91 202 Q82 194 71 196 Q63 198 60 203.5 Q57 209 56.5 216.5 Q56 224 57 231.5 Q58 239 59 245 Q60 246 61.5 254 Q63 262 64 264 Q62 262 59.5 258.5 Q57 255 55 252 Q50 245 44.5 238 Q39 231 33 224 Q27 217 19 209 Q11 201 0 203 Q-5 203 -11 209 Q-16 217 -16 227.5 Q-16 238 -14 247 Q-12 256 -10 264.5 Q-8 273 -5 285 Q-5 286 -3.5 290 Q-2 294 -0.5 298.5 Q1 303 3 306.5 Q5 310 8 309 Q15 307 14.5 303 Q14 299 13 295 Q11 289 9 282 Q7 275 6 271 Q4 263 2.5 254 Q1 245 -1 238 Q-1 237 -2 228 Q-3 219 2 217 Q7 215 13 222.5 Q19 230 21 232 L42 259 Q49 269 56 278.5 Q63 288 70 299 Q74 305 79 306 Q83 307 86 303.5 Q89 300 88 295 Q87 287 83 276 Q81 267 78.5 258 Q76 249 74 240 Q74 239 73 235 Q72 231 71.5 225.5 Q71 220 71.5 216 Q72 212 74 211 Q76 210 80 213 Q84 216 87.5 220 Q91 224 94 228 Q97 232 97 232 Q105 240 110.5 249.5 Q116 259 122 269 Q124 273 126 276.5 Q128 280 130 284 Q138 295 147 290 Q151 288 153.5 284 Q156 280 159 277 Q166 270 178 273 Q186 275 191.5 277.5 Q197 280 204 285 Q209 288 218 294.5 Q227 301 228 300 Z " />
<glyph glyph-name="x" unicode="x" horiz-adv-x="217" d="M217 300 Q224 294 223 289.5 Q222 285 216 279 Q200 263 186.5 251.5 Q173 240 153 225 Q142 217 125.5 208.5 Q109 200 91 197 Q74 195 62 198.5 Q50 202 42 208 Q34 214 30 219.5 Q26 225 25 226 Q21 220 17 216 Q7 201 -3 186.5 Q-13 172 -24 157 L-30 148 Q-34 140 -39 144 Q-45 147 -42 154 Q-39 159 -35.5 164.5 Q-32 170 -28 175 Q-21 186 -13.5 197.5 Q-6 209 2 220 Q5 225 9 230.5 Q13 236 16 241 Q12 249 9 259 Q6 267 4 276.5 Q2 286 0 295 Q-2 301 -1.5 304 Q-1 307 -1 308 Q2 311 5 311 Q7 312 11 308 Q12 306 14.5 295.5 Q17 285 19 279 Q21 275 23.5 267.5 Q26 260 27 257 Q28 258 35 267 Q42 276 50.5 287 Q59 298 66.5 307.5 Q74 317 76 319 Q78 321 80 323 Q82 325 85 325 Q92 325 90 317 Q90 314 88 312 Q78 298 68.5 285.5 Q59 273 49 259 Q46 255 42.5 251 Q39 247 37 242 Q42 231 50 224 Q57 218 67.5 214 Q78 210 94 215 Q123 223 152 243 Q181 263 202 284 Q204 286 211 293 Q218 300 217 300 Z " />
<glyph glyph-name="y" unicode="y" horiz-adv-x="163" d="M127 311 Q133 305 130 299 Q125 286 117.5 274.5 Q110 263 103 252 Q67 187 36.5 119.5 Q6 52 -25 -16 Q-27 -21 -33 -34 Q-39 -47 -46.5 -64 Q-54 -81 -62 -100 Q-70 -119 -77 -134.5 Q-84 -150 -89 -161 Q-94 -172 -94 -173 Q-96 -180 -102 -178 Q-109 -178 -109 -171 Q-109 -166 -108 -163 Q-103 -150 -97 -137.5 Q-91 -125 -86 -111 Q-57 -44 -27.5 23 Q2 90 34 157 Q39 168 45 179 Q51 190 57 201 L78 240 Q81 246 84 252 Q87 258 91 263 Q92 265 93 266.5 Q94 268 95 270 L100 278 L98 276 Q97 275 96 275 Q95 275 95 274 Q93 272 90 270.5 Q87 269 85 267 Q75 259 64.5 251 Q54 243 42 236 Q35 232 27.5 229 Q20 226 12 225 Q1 225 -6 229 Q-14 237 -14 250.5 Q-14 264 -11 273 Q-8 282 -3.5 293.5 Q1 305 9 310 Q15 312 17 310 Q22 305 18 298.5 Q14 292 12 288 Q9 281 6.5 274 Q4 267 2 260 Q1 255 1.5 249.5 Q2 244 8 242 Q17 240 26.5 245.5 Q36 251 43 256 Q54 262 63.5 269.5 Q73 277 83 285 Q90 290 97 296 Q104 302 111 308 Q113 309 113.5 309.5 Q114 310 116 311 Q122 316 127 311 Z " />
<glyph glyph-name="z" unicode="z" horiz-adv-x="206" d="M206 300 Q214 292 211.5 289 Q209 286 192 273 Q176 262 160 251.5 Q144 241 127 230 Q110 219 93.5 208.5 Q77 198 59 190 Q46 183 34 179 Q26 177 18 176 Q10 175 4 181 Q-2 187 -1.5 196 Q-1 205 2 212 Q6 221 11.5 229.5 Q17 238 23 246 Q31 257 36 263.5 Q41 270 49 281 Q51 283 56 291 Q55 292 49 292 Q44 292 39.5 291.5 Q35 291 29 290 Q10 287 -9 283 Q-13 282 -17.5 281.5 Q-22 281 -24 285 Q-27 290 -21 294 Q-18 296 -9 298 Q2 300 7.5 301 Q13 302 23 304 Q31 306 35.5 306.5 Q40 307 46 308 Q54 309 61 307.5 Q68 306 71 301 Q75 295 73 289 Q72 286 71 284 Q70 283 66 276.5 Q62 270 56.5 262.5 Q51 255 45.5 247 Q40 239 37 235 Q34 230 30.5 224.5 Q27 219 23 213 Q20 209 18 205 Q16 202 15 198.5 Q14 195 16 194 Q17 192 22 193.5 Q27 195 32 197 Q38 200 45 204 Q60 211 87 226.5 Q114 242 140 259 Q171 278 206 300 Z " />
<glyph glyph-name="ll" unicode="&#xf6c0;" horiz-adv-x="229" d="M273 649 Q278 657 284.5 654 Q291 651 286 643 Q282 636 275 624 Q268 612 265 605 Q242 562 223 525.5 Q204 489 187 454 Q160 395 136 334 Q124 303 112.5 271.5 Q101 240 95 208 Q93 200 92.5 192.5 Q92 185 94 178 Q96 172 99 170 Q104 168 108 172 Q119 177 131 189 Q142 200 152.5 211.5 Q163 223 173 234 Q187 251 201 267.5 Q215 284 229 300 Q233 300 235.5 296.5 Q238 293 236 288 Q235 286 223.5 272.5 Q212 259 197 241.5 Q182 224 167.5 207 Q153 190 146 183 Q114 150 94 156 Q84 159 81 170 Q78 181 78.5 193.5 Q79 206 81.5 217.5 Q84 229 85 233 Q87 239 88.5 245 Q90 251 92 256 Q97 270 100 278.5 Q103 287 105 292.5 Q107 298 108.5 302 Q110 306 112 312 Q114 317 115.5 321.5 Q117 326 118 328 Q101 294 79.5 255 Q58 216 40 190 Q30 177 18.5 166 Q7 155 -9 160 Q-23 164 -24.5 180 Q-26 196 -24 212 Q-23 219 -22 225 Q-21 230 -20 236.5 Q-19 243 -17 249 Q-5 290 11 333 Q42 410 82 496 Q122 582 169 655 Q174 663 180 659.5 Q186 656 181 648 Q177 642 170.5 629.5 Q164 617 160 611 Q123 546 93 482 Q63 418 35 349 Q32 341 28 332 Q25 324 21.5 313.5 Q18 303 13 291 Q10 282 6.5 272.5 Q3 263 1 254 Q0 252 -2.5 240.5 Q-5 229 -7.5 215.5 Q-10 202 -10 190 Q-10 178 -5 174 Q-1 173 3 175 Q8 178 14.5 185 Q21 192 27.5 200.5 Q34 209 39 217 Q44 225 47 229 Q57 245 66 261 Q75 277 83 294 Q102 329 120 364.5 Q138 400 157 435 Q168 458 179 479.5 Q190 501 201 521 Q207 532 212.5 543 Q218 554 226 568 Q234 582 245 601 Q256 620 273 649 Z " />
<glyph glyph-name="D" unicode="D" horiz-adv-x="516" d="M449 525 Q454 514 458 502 Q462 490 466 478 Q472 453 475 426 Q477 412 477 399.5 Q477 387 477 373 Q476 347 471 320 Q466 292 459 268 Q455 255 451 242.5 Q447 230 442 217 Q437 204 431.5 192 Q426 180 420 168 Q414 156 407.5 144.5 Q401 133 395 122 Q388 111 381 100.5 Q374 90 367 79 Q359 68 351.5 58 Q344 48 336 38 Q328 27 319.5 17.5 Q311 8 303 -1 Q294 -11 285 -20 Q276 -29 267 -38 Q257 -47 247.5 -55.5 Q238 -64 228 -72 L186 -102 Q163 -117 142 -128 Q131 -134 119.5 -139.5 Q108 -145 96 -150 Q82 -155 68 -159.5 Q54 -164 39 -167 Q9 -173 -22 -170 Q-29 -170 -35.5 -169 Q-42 -168 -49 -166 Q-65 -163 -77 -156 Q-88 -149 -100 -137 Q-112 -127 -116 -115 Q-118 -111 -118 -108 Q-120 -105 -118 -102 Q-116 -97 -110 -99 Q-107 -101 -105.5 -104 Q-104 -107 -103 -110 L-100 -116 Q-98 -118 -97.5 -119 Q-97 -120 -95 -121 Q-91 -126 -87 -129 Q-83 -132 -78 -135 Q-69 -141 -60 -144 Q-42 -151 -19 -151 Q-8 -151 3 -149.5 Q14 -148 25 -146 Q36 -144 46 -141 Q56 -138 67 -135 Q76 -131 85.5 -127.5 Q95 -124 103 -120 Q114 -115 124 -109.5 Q134 -104 143 -98 Q164 -85 187 -69 Q207 -54 228 -37 Q239 -28 248.5 -19 Q258 -10 268 -1 Q278 9 287 18.5 Q296 28 306 38 Q315 49 323.5 59 Q332 69 340 80 Q348 91 355.5 102 Q363 113 371 124 Q387 148 398 170 Q405 181 410.5 192.5 Q416 204 421 216 Q431 240 439 264 Q443 278 446.5 292 Q450 306 452 320 Q458 348 458 378 Q458 392 457 407 Q456 422 454 436 Q452 451 448.5 465 Q445 479 440 493 Q429 520 416 543 Q410 554 402.5 564.5 Q395 575 387 585 Q379 595 370 604 Q361 613 351 622 Q334 638 310 652 Q289 666 264 675 Q256 678 248.5 680.5 Q241 683 233 685 Q225 687 218 688.5 Q211 690 203 691 Q195 693 187.5 693.5 Q180 694 172 695 Q164 696 156.5 696 Q149 696 141 696 Q133 697 125 696.5 Q117 696 109 695 Q101 694 94.5 693.5 Q88 693 80 692 Q72 690 65.5 689 Q59 688 51 687 Q44 685 38 684 Q32 683 25 681 Q12 677 -0.5 673.5 Q-13 670 -26 665 Q-38 660 -50.5 654.5 Q-63 649 -75 643 Q-97 632 -121 616 Q-132 608 -142 600 Q-152 592 -163 584 Q-173 576 -182 566.5 Q-191 557 -200 547 Q-209 537 -217 526.5 Q-225 516 -230 504 Q-242 481 -241 456 Q-238 431 -227 414 Q-216 394 -197 380 Q-180 366 -156 361 Q-148 359 -145 359 Q-138 359 -134 358 Q-128 358 -126 353 Q-124 350 -127 345 Q-132 342 -137.5 341.5 Q-143 341 -148 342 Q-153 342 -159 343 Q-165 344 -170 346 Q-181 350 -191.5 355.5 Q-202 361 -212 368 Q-232 385 -243 404 Q-250 414 -254 425 Q-258 436 -260 447 Q-264 472 -257 496 Q-251 520 -235 543 Q-227 554 -218.5 564 Q-210 574 -201 583 Q-191 593 -181 601.5 Q-171 610 -160 618 Q-149 626 -137 633 Q-125 640 -114 647 Q-102 654 -89.5 660 Q-77 666 -65 671 Q-53 676 -41 680.5 Q-29 685 -16 690 Q-5 693 6.5 696.5 Q18 700 29 702 Q52 708 75 711 Q86 713 98 714 Q110 715 122 715 Q133 716 145 715.5 Q157 715 168 714 Q190 713 215 708 Q237 703 260 696 Q281 689 303 678 Q314 673 324 666.5 Q334 660 344 653 Q354 645 363.5 637 Q373 629 382 620 Q393 610 402 599 Q411 588 420 576 Q438 550 449 525 Z M-62 20 Q-65 15 -69 8 Q-73 1 -80 4 Q-88 7 -86 16.5 Q-84 26 -82 31 Q-65 66 -48.5 100 Q-32 134 -15 169 Q39 281 93.5 391 Q148 501 202 612 Q205 619 210 622 Q216 628 222 623 Q225 620 224 615 Q223 610 221 606 L200 564 Q198 559 196 555 Q194 551 192 546 Q181 524 170.5 502.5 Q160 481 149 459 Q95 350 40.5 241.5 Q-14 133 -62 21 L-62 20 Z " />
<glyph glyph-name="zero" unicode="0" horiz-adv-x="226" d="M-37 179 Q-40 201 -36.5 226.5 Q-33 252 -28 272 Q-20 306 -7 337 Q6 368 23 397 Q28 408 34.5 417 Q41 426 48 435 Q56 446 64.5 456 Q73 466 83 475 Q89 480 94.5 485 Q100 490 106 495 Q114 502 123.5 507.5 Q133 513 144 516 Q160 522 178.5 517 Q197 512 210 498 Q221 487 224.5 475.5 Q228 464 229 450 Q232 423 225 396 Q218 369 210 345 Q201 319 191.5 298.5 Q182 278 169 255 Q161 238 149 220.5 Q137 203 125 189 Q114 175 102 163 Q97 156 90 150 Q83 144 75 139 Q67 134 60 130.5 Q53 127 44 125 Q35 122 25 120.5 Q15 119 4 122 Q-21 129 -29 154 Q-35 164 -37 179 Z M-21 178 Q-19 169 -16 161 Q-13 153 -6 147 Q1 140 14 140 Q37 138 56.5 152 Q76 166 90 181 Q103 194 115 209 Q121 217 128.5 228 Q136 239 141 248 Q149 262 154.5 274 Q160 286 168 301 Q174 313 179 325.5 Q184 338 189 350 Q194 363 197 374 Q200 385 203 399 Q207 418 209 443 Q211 468 200 484 Q188 499 169 502 Q147 505 128 490.5 Q109 476 96 462 Q86 453 77.5 443.5 Q69 434 61 424 Q55 415 49 406 Q43 397 37 387 Q21 360 10 335 Q6 327 3.5 318 Q1 309 -3 301 Q-6 290 -9 279 Q-12 268 -15 257 Q-20 236 -21 215 Q-23 199 -21 178 Z " />
<glyph glyph-name="one" unicode="1" horiz-adv-x="106" d="M107 477 Q99 469 92 460.5 Q85 452 77 443 Q69 435 62 427 Q55 419 46 412 Q45 411 38 407 Q35 406 31 410 Q28 414 31 417 Q33 421 35 423 Q41 431 47 438 Q53 445 60 453 Q66 461 72 468.5 Q78 476 86 484 Q91 492 98 499 Q105 506 112 514 Q118 520 123 520 Q129 522 133.5 517 Q138 512 138 506 Q137 499 135 493 Q133 487 131 482 Q119 453 106 426 Q101 414 95 402 Q89 390 84 378 Q79 367 74 356 Q69 345 64 334 Q58 320 51.5 305 Q45 290 40 276 Q36 268 33.5 260 Q31 252 26 244 Q24 239 22.5 235 Q21 231 19 226 Q10 209 5 194 Q0 183 -4 173 Q-8 163 -12 152 Q-15 146 -17 140 Q-19 134 -22 128 Q-24 123 -29 125 Q-35 126 -35 133 Q-34 139 -31 144 Q-27 156 -23 168 Q-19 180 -15 192 Q-8 207 -2 224 Q3 239 12 256 Q15 265 18 274 Q21 283 25 292 Q29 300 32.5 309 Q36 318 38 326 Q43 336 47.5 345.5 Q52 355 56 365 Q62 379 68.5 392 Q75 405 82 419 Q87 433 93 447.5 Q99 462 107 476 L107 477 Z " />
<glyph glyph-name="two" unicode="2" horiz-adv-x="198" d="M-44 174 Q-24 176 -4 174 Q11 172 26 169 Q41 166 55 161 Q66 157 76 153 Q86 149 96 145 Q108 141 122 134 L134 128 Q139 123 136 118 Q132 112 127 115 Q121 117 115.5 118.5 Q110 120 104 122 Q99 124 95 125.5 Q91 127 86 129 Q74 133 61.5 137.5 Q49 142 36 145 Q16 151 -3 154 Q-21 155 -40 154 Q-49 152 -58 150.5 Q-67 149 -76 146 Q-78 146 -78.5 145.5 Q-79 145 -81 145 Q-90 141 -93 148 Q-97 154 -90 161 Q-79 169 -69 177 Q-59 185 -48 193 Q-40 200 -32 206.5 Q-24 213 -16 220 Q-9 225 -2.5 230.5 Q4 236 11 242 Q31 257 48 273 Q59 284 70 294 Q81 304 92 315 Q98 321 104 327 Q110 333 115 340 Q128 353 140 368 Q149 379 156.5 390 Q164 401 172 412 Q180 423 186 435 Q192 447 197 459 Q199 466 201.5 472.5 Q204 479 204 486 Q204 492 202 498 Q199 508 187 510 Q178 512 169.5 510.5 Q161 509 153 505 Q141 500 131 492.5 Q121 485 111 476 Q100 466 90 455 Q80 444 71 433 L66 428 Q62 426 59 428 Q55 432 57 435 Q58 441 63 447 Q69 457 77 466 Q85 475 93 483 Q101 491 108.5 497 Q116 503 124 509 Q140 521 160 527 Q169 529 178 529.5 Q187 530 196 527 Q215 522 221 504 Q224 496 224 489 Q224 482 222 474 Q220 462 215 451 Q210 440 204 429 Q199 418 193 408 Q187 398 179 388 Q176 383 172.5 379 Q169 375 166 370 Q161 365 157.5 360 Q154 355 149 350 L131 329 Q118 316 106 303.5 Q94 291 80 279 Q69 268 57.5 258.5 Q46 249 35 239 Q25 231 15.5 223 Q6 215 -4 207 L-37 180 Q-40 178 -44 174 Z " />
<glyph glyph-name="three" unicode="3" horiz-adv-x="186" d="M97 366 Q100 364 103.5 361.5 Q107 359 110 357 Q125 347 131.5 329.5 Q138 312 137 295 Q136 263 123.5 233.5 Q111 204 91 181 Q70 158 38.5 141 Q7 124 -26 127 Q-45 129 -57 142 Q-69 155 -67 173 Q-67 190 -58.5 207.5 Q-50 225 -40 239 Q-36 246 -33 250.5 Q-30 255 -25 260 Q-23 262 -19 264 Q-15 266 -12 265 Q-6 263 -6 258 Q-4 254 -10 252 Q-13 249 -13 250 Q-25 232 -37.5 213.5 Q-50 195 -52 173 Q-53 158 -43.5 150.5 Q-34 143 -20 143 Q0 143 19 151 Q28 155 36.5 160 Q45 165 53 171 Q74 187 86 206 Q100 226 109.5 252.5 Q119 279 117 305 Q116 318 110.5 328.5 Q105 339 94 345 Q87 349 80.5 350.5 Q74 352 67 353 Q63 354 60 354 Q57 354 54 355 Q52 355 51 356 Q44 358 44 364 Q44 371 51 373 Q56 375 61.5 375.5 Q67 376 73 378 Q88 382 103 385.5 Q118 389 133 396 Q157 407 176.5 425.5 Q196 444 207 468 Q209 473 210 478.5 Q211 484 208 489 Q201 499 185.5 496.5 Q170 494 161 492 Q148 487 136 481 Q124 475 113 467 Q105 461 95.5 452 Q86 443 77 431 Q73 427 68 429 Q64 431 66 437 Q68 447 79.5 458 Q91 469 100 477 Q123 495 146 505 Q162 512 183.5 515 Q205 518 219 506 Q232 495 229.5 478 Q227 461 219 448 Q212 435 201.5 423.5 Q191 412 180 403 Q166 392 148 382 Q129 374 111 370 Q107 368 103.5 367.5 Q100 367 97 366 Z " />
<glyph glyph-name="four" unicode="4" horiz-adv-x="172" d="M132 359 Q137 356 137 350 Q137 343 134 342 Q134 341 133 340 Q130 332 127.5 325.5 Q125 319 122 311 Q117 302 113.5 292.5 Q110 283 106 274 Q102 266 97 253 Q92 240 92 239 Q97 239 102.5 239.5 Q108 240 114 240 Q119 240 124 239.5 Q129 239 134 235 Q136 233 137 231 Q138 229 140 227 Q140 223 136 221 Q133 218 129 221 Q125 225 122 225 Q119 225 115 224 Q109 224 105 223.5 Q101 223 96 223 Q90 221 88 221 Q86 220 84 220 Q80 211 75 199.5 Q70 188 67 179 Q64 172 61.5 166 Q59 160 56 154 Q53 146 50.5 138.5 Q48 131 45 123 Q42 116 40 111.5 Q38 107 35 100 Q33 93 27 93 Q25 94 22 95 Q19 96 19 100 Q19 103 20.5 109 Q22 115 24 117 Q26 126 28 130.5 Q30 135 33 144 L48 180 Q51 188 53.5 193 Q56 198 58 207 Q60 209 60 211.5 Q60 214 62 217 L47 214 Q40 212 33 211 Q26 210 18 209 Q-3 205 -23 203 Q-26 202 -29 202.5 Q-32 203 -35 203 Q-45 205 -49.5 211 Q-54 217 -54 225 Q-54 227 -45.5 246 Q-37 265 -24.5 292 Q-12 319 3 350.5 Q18 382 31 409 Q44 436 53.5 455 Q63 474 64 477 Q66 482 69.5 488.5 Q73 495 75 499 Q78 505 83 503 Q89 500 89 497 Q89 491 88 489 Q87 486 77 465.5 Q67 445 53 415.5 Q39 386 23.5 352.5 Q8 319 -5.5 290 Q-19 261 -28 242 Q-37 223 -36 222 Q-34 220 -23 221.5 Q-12 223 1 225 Q16 228 34 231 Q45 233 52 234 Q59 235 69 237 Q69 238 70 240 Q71 242 71.5 243 Q72 244 73 246 Q75 251 77 255 Q79 259 81 264 Q83 270 85 273 Q87 276 89 282 Q92 288 94 294.5 Q96 301 99 307 Q109 327 118 348 Q120 350 120.5 352.5 Q121 355 123 357 Q129 361 132 359 Z " />
<glyph glyph-name="five" unicode="5" horiz-adv-x="232" d="M309 504 Q309 497 305 496 Q303 495 301 495 Q299 495 296 494 Q261 491 230 488 Q204 486 177.5 483.5 Q151 481 140 480 Q139 480 138.5 479.5 Q138 479 136 479 L133 479 Q130 474 127 468.5 Q124 463 121 458 Q113 446 105 433.5 Q97 421 89 409 Q78 389 63 368 Q55 355 47.5 343 Q40 331 32 319 L11 286 L8 280 Q9 280 10 281 Q21 289 32.5 297 Q44 305 57 313 Q68 318 78.5 323.5 Q89 329 100 334 Q123 343 145 346 Q154 347 162.5 345.5 Q171 344 179 338 Q189 331 194 315 Q199 296 192 275 Q185 254 177 237 Q168 217 155 200 Q142 183 128 167 Q112 149 92.5 133.5 Q73 118 51.5 107.5 Q30 97 6 94.5 Q-18 92 -42 101 Q-60 107 -72 123 Q-77 128 -80 137 Q-83 146 -74 151 Q-71 153 -67 151.5 Q-63 150 -62 146 Q-62 138 -56 131 Q-48 125 -42 121 Q-28 113 -9 111 Q11 110 29 117 Q47 124 62 135 Q106 166 137 211 Q144 221 150 231 Q156 241 161 252 Q168 265 173 281 Q176 291 175.5 305 Q175 319 164 325 Q160 327 156 327 Q152 327 147 327 Q123 325 100 316 Q77 307 55.5 293.5 Q34 280 15 263.5 Q-4 247 -21 231 Q-23 229 -25 226.5 Q-27 224 -29 222 Q-31 218 -35 217.5 Q-39 217 -42 221 Q-43 222 -43 226 Q-43 228 -41 230 Q-36 237 -32.5 243.5 Q-29 250 -25 257 Q-18 267 -12 276.5 Q-6 286 0 296 Q4 303 7.5 309.5 Q11 316 15 322 Q23 334 29.5 346 Q36 358 44 370 Q51 381 58 393 Q65 405 73 416 Q78 424 84 433 Q90 442 96 451 Q101 457 107 466 Q113 475 115 478 Q98 477 75.5 476 Q53 475 42 474 Q37 473 29 471 Q23 471 20 475 Q16 481 21 485 Q23 487 24.5 487 Q26 487 28 488 Q38 489 47.5 489.5 Q57 490 68 491 Q82 493 95 493.5 Q108 494 122 495 Q124 496 126 498 Q131 503 137 498 Q137 497 140 497 Q152 498 164 499 Q176 500 189 501 Q198 502 207 503 Q216 504 226 505 Q237 506 248.5 506.5 Q260 507 271 509 Q277 509 283.5 509.5 Q290 510 296 510 L302 510 Q308 509 309 504 Z " />
<glyph glyph-name="six" unicode="6" horiz-adv-x="206" d="M-47 227 Q-44 242 -38.5 257 Q-33 272 -27 285 Q-7 327 23.5 362 Q54 397 90 426 Q100 434 109.5 441 Q119 448 129 455 Q150 469 169 479 Q174 481 178 483 Q182 485 187 485 Q191 485 196 481.5 Q201 478 197 473 Q196 471 194 470.5 Q192 470 190 469 Q170 464 153 451.5 Q136 439 120 428 Q92 408 66.5 383 Q41 358 21 330 Q2 305 -12.5 275.5 Q-27 246 -29 215 Q-31 201 -27.5 186.5 Q-24 172 -16 161 Q1 189 22 214 Q43 239 70 256 Q78 261 89 267 Q100 273 112 276 Q124 279 135 277.5 Q146 276 153 267 Q159 259 160 248.5 Q161 238 159 229 Q154 211 145 195 Q120 156 80 138 Q68 132 53.5 128.5 Q39 125 25 125 Q11 125 -3 129.5 Q-17 134 -27 144 Q-44 161 -47.5 182.5 Q-51 204 -47 227 Z M-4 151 Q23 139 50 147.5 Q77 156 97.5 174 Q118 192 130 213.5 Q142 235 141 249 Q140 257 133.5 259.5 Q127 262 122 260 Q100 254 66.5 227.5 Q33 201 -4 151 Z " />
<glyph glyph-name="seven" unicode="7" horiz-adv-x="176" d="M217 482 Q212 473 207 465 Q202 457 198 451 Q194 444 189 438 Q183 430 177 420.5 Q171 411 163 400 Q156 389 149 379 Q142 369 135 359 Q130 351 125 343 Q120 335 115 327 Q110 320 106.5 314 Q103 308 98 301 Q98 301 97 299 Q104 301 110 301.5 Q116 302 122 303 L130 303 Q138 301 136 294 Q134 289 127 289 Q125 289 118.5 288 Q112 287 104 285 Q95 283 85 281 L83 277 Q82 275 81 274 Q80 273 80 272 L70 258 L58 238 Q53 230 48 222 Q43 214 38 206 L5 152 Q0 142 -6 133 Q-12 124 -17 114 Q-19 112 -19 112 Q-21 105 -26 107 Q-29 107 -31 109.5 Q-33 112 -31 115 Q-30 119 -28.5 122 Q-27 125 -25 128 Q-20 137 -15 145.5 Q-10 154 -5 163 Q1 173 7.5 183 Q14 193 20 204 Q25 212 30.5 221 Q36 230 41 238 Q46 247 48 250.5 Q50 254 55 263 Q57 265 59.5 269.5 Q62 274 64 278 Q45 275 28 273 Q11 271 -2 269 Q-9 268 -11 269.5 Q-13 271 -14 274 Q-15 279 -11 281 L-7 283 L75 296 L81 307 Q88 318 92.5 326 Q97 334 105 345 Q111 356 118 366.5 Q125 377 132 388 Q140 399 148 410.5 Q156 422 164 434 Q170 442 176 451 Q182 460 189 469 Q191 472 193.5 475.5 Q196 479 198 483 Q196 482 184 480.5 Q172 479 164 477 Q158 476 144 473.5 Q130 471 114.5 468 Q99 465 84 462.5 Q69 460 62 459 Q52 457 43 455 Q34 453 24 451 Q22 451 19.5 450.5 Q17 450 15 451 Q11 451 10 454 Q7 456 8 459.5 Q9 463 13 464 Q22 466 31 468 Q40 470 49 472 Q54 473 74 477 Q94 481 119 485.5 Q144 490 167.5 494 Q191 498 203 500 Q211 501 217.5 496.5 Q224 492 217 482 Z " />
<glyph glyph-name="eight" unicode="8" horiz-adv-x="182" d="M189 493 Q194 483 194 467 Q194 444 183 422 Q174 403 158 390 Q157 390 156.5 389.5 Q156 389 155 389 Q149 385 144 389 L132 377 Q130 375 127.5 372 Q125 369 122 366 L112 356 L119 344 Q121 338 123 334.5 Q125 331 127 326 Q131 318 132.5 309 Q134 300 135 291 Q136 280 133.5 269.5 Q131 259 126 248 Q122 240 117 232 Q112 224 107 216 Q99 203 89 193 L56 160 Q51 156 47 152.5 Q43 149 38 146 Q33 142 27.5 138.5 Q22 135 17 132 Q-2 120 -28 110 Q-42 105 -55 104 Q-69 104 -77 111 Q-86 121 -84 135 Q-82 151 -75 164 Q-68 178 -60 190 Q-52 202 -43 214 L-7 256 Q0 264 7 272 Q14 280 22 288 Q28 294 34 300 Q40 306 46 313 Q61 327 75 342 L89 356 L83 368 Q77 378 72.5 388.5 Q68 399 66 411 Q64 419 64.5 429.5 Q65 440 67 448 Q69 458 75.5 470.5 Q82 483 93 493 Q100 500 109 505 Q118 510 127 513 Q136 516 147 517 Q158 518 167 514 Q181 508 189 493 Z M115 289 Q115 297 113 304 Q111 311 109 319 Q107 325 105 329.5 Q103 334 98 341 L59 299 Q54 293 48 286.5 Q42 280 36 274 Q29 266 22 258.5 Q15 251 8 243 Q-1 232 -10 222.5 Q-19 213 -27 202 Q-27 201 -27.5 201 Q-28 201 -28 200 L-30 198 Q-35 191 -39.5 184.5 Q-44 178 -49 171 Q-58 157 -64 143.5 Q-70 130 -65 125 Q-60 120 -50.5 121 Q-41 122 -31 127 Q-20 131 -7 140 Q12 150 32 166 Q53 182 69 201 Q75 209 81.5 216.5 Q88 224 94 232 Q105 248 111 264 Q115 275 115 289 Z M170 436 Q180 459 176 479 Q174 487 169 492.5 Q164 498 156 500 Q144 501 132 497 Q101 485 89 454 Q81 437 84 420 Q86 406 91.5 394.5 Q97 383 103 372 Q107 376 110.5 379 Q114 382 118 386 Q122 390 125.5 394 Q129 398 133 402 L147 416 Q153 421 158 416 L160 414 Q163 419 165.5 424.5 Q168 430 170 436 Z " />
<glyph glyph-name="nine" unicode="9" horiz-adv-x="208" d="M263 477 Q269 469 264 463 Q259 457 255 451 Q251 445 246 438 L213 390 Q208 383 203.5 376 Q199 369 194 361 Q187 351 181 341.5 Q175 332 168 322 Q165 316 161.5 310.5 Q158 305 154 300 Q149 290 143 281 Q138 273 134 265.5 Q130 258 125 250 Q121 243 117.5 236.5 Q114 230 109 222 Q104 213 99 204 Q94 195 89 185 Q80 170 72 154 Q68 147 64.5 141 Q61 135 57 128 Q52 117 47 109 Q47 108 46 107 Q41 101 35 104 Q29 106 31 114 Q33 118 34 119 Q38 127 42 135.5 Q46 144 51 152 Q54 158 57 164 Q60 170 64 176 Q70 188 76 199.5 Q82 211 88 222 L106 255 Q110 263 114 270 Q118 277 122 284 Q124 289 127 293 Q130 297 132 301 Q136 308 140 314.5 Q144 321 148 328 Q155 339 161.5 349 Q168 359 175 369 Q179 376 180.5 378.5 Q182 381 187 387 Q189 390 190.5 391.5 Q192 393 194 398 Q191 395 187 391.5 Q183 388 180 385 Q172 379 165 372.5 Q158 366 150 360 Q139 352 129 345 Q119 338 108 331 Q89 320 70 314 Q62 312 54 310 Q46 308 38 308 Q18 306 5 319 Q-4 326 -7 339 Q-9 347 -7.5 355.5 Q-6 364 -2 372 Q7 394 23 411 Q34 424 50 439 Q56 444 62 448 Q68 452 75 457 Q90 467 104 474 Q130 489 156 498 Q164 500 172.5 502 Q181 504 189 506 Q206 509 220 505 Q240 497 244 479 L244 474 Q246 475 247 476 Q248 477 250 478 Q257 482 263 477 Z M172 404 Q175 407 185.5 416 Q196 425 206.5 436 Q217 447 224 458.5 Q231 470 227 478 Q227 478 226 480 L223 483 Q215 492 199.5 490.5 Q184 489 168.5 484 Q153 479 140.5 473.5 Q128 468 127 467 Q122 465 116 461.5 Q110 458 104 455 Q96 450 89 445 Q82 440 74 435 Q53 419 38 401 Q35 397 32 393 Q29 389 26 385 Q21 377 18 369.5 Q15 362 13 353 Q10 331 30 328 Q36 327 44 329 Q56 331 67 335 Q78 339 89 344 Q103 352 116 360.5 Q129 369 142 379 Q150 385 157 391.5 Q164 398 172 404 Z " />
<glyph glyph-name="colon" unicode="&#x3a;" horiz-adv-x="78" d="M12 314 Q17 312 17 307 Q17 301 10 301 Q4 301 4 306 Q4 314 12 314 Z M-7 246 Q-1 246 -1 240 Q-1 234 -7 234 Q-12 234 -12 240 Q-12 246 -7 246 Z " />
<glyph glyph-name="semicolon" unicode="&#x3b;" horiz-adv-x="74" d="M-26 226 Q-23 224 -23 219 Q-23 215 -24 213 Q-27 208 -30 202.5 Q-33 197 -36 191 L-48 167 Q-50 161 -55 163 Q-62 165 -60 171 Q-59 175 -58 178 Q-57 181 -55 185 Q-52 190 -49.5 195.5 Q-47 201 -44 206 Q-41 213 -35 221 Q-35 223 -34.5 223 Q-34 223 -33 225 Q-29 227 -26 226 Z M18 318 Q25 318 25 312 Q25 305 18 305 Q11 305 11 311 Q11 318 18 318 Z " />
<glyph glyph-name="less" unicode="&#x3c;" horiz-adv-x="168" d="M-1 272 Q4 268 9.5 264 Q15 260 20 256 Q44 240 61 223 Q63 221 65 217 Q68 210 63 207 Q58 203 53 208 Q49 211 45.5 214 Q42 217 37 220 Q27 228 17.5 234 Q8 240 -2 248 Q-10 254 -16 262 Q-25 274 -14 284 Q-10 287 -6.5 289.5 Q-3 292 1 294 Q9 299 18 302.5 Q27 306 36 310 Q41 313 47 315 Q53 317 59 319 Q73 326 88 332 Q98 337 107.5 340.5 Q117 344 127 349 Q129 350 131 351 Q133 352 135 353 Q136 354 137 354 Q138 354 139 355 Q148 355 145 347 Q145 343 139 339 Q134 336 128.5 333 Q123 330 117 327 Q109 323 102 320 Q95 317 87 314 Q82 312 76 309.5 Q70 307 65 305 Q59 302 52.5 299.5 Q46 297 40 294 L13 282 Q9 280 6 278 Q3 276 -1 274 L-1 272 Z " />
<glyph glyph-name="greater" unicode="&#x3e;" horiz-adv-x="184" d="M111 282 Q110 283 109.5 283 Q109 283 108 284 Q86 295 65 307 Q57 312 49.5 316 Q42 320 34 325 Q30 328 27 331.5 Q24 335 20 338 Q18 342 18 344 Q17 348 21 351 Q24 353 28 350 Q30 348 31 347.5 Q32 347 34 345 Q42 339 50 335 Q58 331 66 326 Q75 321 84.5 316.5 Q94 312 103 307 Q110 303 117 299.5 Q124 296 131 292 Q138 288 138 282 Q138 275 132 271 Q127 269 123.5 267 Q120 265 115 263 Q107 260 99 256.5 Q91 253 83 249 Q75 245 67.5 241.5 Q60 238 52 234 Q44 230 35.5 226 Q27 222 19 218 Q7 212 -4.5 206 Q-16 200 -28 194 Q-38 190 -42 188 Q-46 186 -49 188 Q-54 188 -54 194 Q-56 198 -50 200 Q-41 205 -32 209.5 Q-23 214 -14 219 Q-3 224 7 230 Q17 236 28 241 Q38 246 47 251 Q56 256 66 261 Q87 271 111 282 Z " />
<glyph glyph-name="equal" unicode="&#x3d;" horiz-adv-x="182" d="M10 244 Q-1 244 -6.5 244.5 Q-12 245 -12 253 Q-10 259 -3 258 Q5 259 15 258.5 Q25 258 28 259 Q33 259 40 259 Q47 259 54 258.5 Q61 258 66 258 Q71 258 72 258 Q73 258 85 258 Q97 258 108 257 Q115 255 115 250 Q115 244 109 243 Q87 243 60 243.5 Q33 244 10 244 Z M30 296 Q18 297 13 297.5 Q8 298 8 305 Q8 311 16 311 L47 311 Q52 311 59 311 Q66 311 73 310.5 Q80 310 85 310 Q90 310 91 310 L127 310 Q134 309 135 303 Q135 296 128 295 Q106 295 79.5 296 Q53 297 30 296 Z " />
<glyph glyph-name="question" unicode="&#x3f;" horiz-adv-x="162" d="M200 561 Q213 549 208 534 Q203 519 193 505 Q180 486 170 471 Q160 456 150.5 442 Q141 428 131 413 Q121 398 108 378 Q86 346 67.5 314 Q49 282 31 247 Q27 239 22 240 Q17 241 17 245.5 Q17 250 18 254 Q27 281 46.5 314 Q66 347 90.5 384 Q115 421 140 458.5 Q165 496 185 532 Q192 545 180.5 548.5 Q169 552 156 550 Q147 548 138.5 545 Q130 542 122 540 Q118 539 114 541 Q110 543 113 548 Q115 550 116 550.5 Q117 551 119 553 Q129 559 138 562 Q147 565 162 567 Q172 569 183 567.5 Q194 566 200 561 Z M8 206 Q11 204 9 200 Q7 197 4.5 192 Q2 187 0 183 Q-4 178 -8 182 Q-13 184 -9 188 Q-8 190 -5 196.5 Q-2 203 0 205 Q2 209 8 206 Z " />
<glyph glyph-name="at" unicode="&#x40;" horiz-adv-x="226" d="M191 371 Q199 361 197 345 Q194 317 177 290 Q168 277 157 264 Q149 256 141.5 248.5 Q134 241 126 235 Q125 234 120.5 230.5 Q116 227 109.5 223 Q103 219 95.5 216.5 Q88 214 81 216 Q76 216 71 220.5 Q66 225 66 234 Q66 234 65 233 Q63 231 59 227.5 Q55 224 50 220.5 Q45 217 39.5 215.5 Q34 214 30 217 Q22 222 23 232 Q24 242 29 252 Q34 263 45 275 Q53 283 62 290.5 Q71 298 82 302 Q97 308 112 300 Q126 291 123 273 Q123 271 122 268.5 Q121 266 120 264 Q119 262 118 261.5 Q117 261 116 260 Q112 258 109.5 260 Q107 262 107 265 Q107 267 107.5 268 Q108 269 108 271 Q110 279 105 284.5 Q100 290 92 288 Q83 287 75 280 Q59 268 49 253 Q47 251 44.5 245.5 Q42 240 41 237 Q44 239 48 242 Q51 244 53 246 Q55 248 57 249 Q60 252 62 254.5 Q64 257 67 259 Q70 262 71 263.5 Q72 265 75 268 Q81 273 87 270 Q94 267 92 259 Q91 255 90 251 Q89 247 88 243 Q87 241 86.5 239 Q86 237 85 234 Q93 236 96 238 Q103 242 109.5 246 Q116 250 121 255 Q126 259 129.5 262.5 Q133 266 137 270 Q141 274 144.5 277.5 Q148 281 151 285 Q164 301 171 318 Q175 326 177.5 333.5 Q180 341 179 350 Q179 367 162 367 Q153 368 144.5 366 Q136 364 128 361 Q102 349 79 332 Q69 324 59.5 315.5 Q50 307 42 297 Q37 291 32 285 Q27 279 22 273 Q15 264 8.5 254.5 Q2 245 -3 235 Q-9 223 -14 211 Q-19 199 -22 185 Q-24 175 -26 164 Q-28 153 -24 143 Q-20 132 -7 128 Q1 125 9 126 Q17 127 25 129 Q46 135 63 149.5 Q80 164 95 179 Q97 181 98.5 183.5 Q100 186 103 188 Q107 189 111 186 Q113 182 113 180 Q113 174 109 168 Q92 147 70.5 130 Q49 113 23 108 Q1 103 -17 110 Q-27 114 -35 124 Q-43 134 -45 147 Q-47 156 -46 165 Q-45 174 -43 183 Q-41 194 -37.5 204 Q-34 214 -30 224 Q-27 231 -23.5 237 Q-20 243 -17 249 Q-12 257 -8 263.5 Q-4 270 1 276 Q5 282 9.5 288 Q14 294 19 300 Q32 315 47 328 Q54 335 61 340.5 Q68 346 76 352 Q86 359 100 367 Q108 372 116.5 375.5 Q125 379 135 381 Q147 385 162 385 Q171 384 178.5 381 Q186 378 191 371 Z " />
<glyph glyph-name="bracketleft" unicode="&#x5b;" horiz-adv-x="168" d="M277 680 Q278 677 277 674 Q277 671 274 671 Q266 670 254 669 Q242 668 235 667 Q228 667 220 659 Q209 645 202 631 Q195 619 188.5 607 Q182 595 175 582 L157 546 Q153 538 149 529 Q145 520 141 512 Q137 504 134 497 Q131 490 127 483 Q118 460 108 439 Q106 432 103 425.5 Q100 419 97 412 L79 370 Q74 356 68 343.5 Q62 331 57 318 Q52 305 47.5 293 Q43 281 38 268 L20 220 Q16 212 13.5 203.5 Q11 195 8 187 Q5 179 2 170.5 Q-1 162 -3 154 Q-7 143 -9.5 131.5 Q-12 120 -14 109 Q-17 97 -16 88 Q-16 79 -7 77 Q-5 76 -2 75 Q2 73 4 73 Q6 73 19 69.5 Q32 66 39 67 Q46 67 48 65 Q49 64 49 63 L49 61 Q50 57 46.5 55 Q43 53 39 53 Q31 51 22.5 53 Q14 55 6 57 Q-4 59 -9 61 Q-17 63 -21 65 Q-29 68 -32 78 Q-34 84 -33.5 91 Q-33 98 -31 104 Q-30 111 -29 117.5 Q-28 124 -26 131 Q-24 136 -23 140.5 Q-22 145 -20 150 Q-18 158 -15.5 166 Q-13 174 -10 182 Q-8 190 -5 198 Q-2 206 0 214 L12 247 Q19 263 25 278.5 Q31 294 37 310 Q44 330 54 353 Q59 365 64 377 Q69 389 74 401 Q79 412 83 422.5 Q87 433 92 444 Q97 455 100.5 464.5 Q104 474 109 484 Q114 495 119.5 506.5 Q125 518 130 530 Q136 541 141.5 552.5 Q147 564 153 575 Q162 595 173 615 Q175 618 176.5 621 Q178 624 180 628 Q185 636 189.5 643 Q194 650 199 658 Q204 666 210 672 Q216 678 225 681 Q233 683 240 683.5 Q247 684 256 685 Q262 685 269.5 685 Q277 685 277 680 Z " />
<glyph glyph-name="bracketright" unicode="&#x5d;" horiz-adv-x="196" d="M244 665 Q249 657 249 647 Q249 636 246.5 626.5 Q244 617 242 606 Q238 595 237 587 Q234 579 231.5 570.5 Q229 562 226 554 Q224 546 221 538.5 Q218 531 216 523 L204 490 Q198 474 192 458.5 Q186 443 179 427 Q172 407 162 384 Q157 372 152 360 Q147 348 142 336 Q137 325 133 314.5 Q129 304 124 293 Q119 282 115.5 272.5 Q112 263 107 253 Q102 241 96.5 229.5 Q91 218 86 207 Q80 196 74.5 184.5 Q69 173 63 162 Q54 142 43 122 Q36 110 31 101 Q26 92 17 78 Q14 74 10.5 69 Q7 64 3 62 Q-2 58 -5 57 Q-8 56 -19 55 Q-27 54 -33.5 53.5 Q-40 53 -47 53 Q-56 52 -58.5 53.5 Q-61 55 -61 58 Q-61 63 -58 66 Q-56 68 -53 68 Q-50 68 -47 68 L-17 71 Q-8 73 -4 78 Q7 92 14 106 Q21 118 27.5 130 Q34 142 41 155 Q50 171 59 191 Q64 199 67.5 208 Q71 217 75 225 Q79 233 82 240 Q85 247 89 254 Q98 277 108 298 Q111 305 114 311.5 Q117 318 119 325 L137 367 Q142 381 148 393.5 Q154 406 159 419 Q164 432 168.5 444 Q173 456 178 468 Q183 481 187.5 492.5 Q192 504 197 516 Q200 525 203 533.5 Q206 542 208 550 Q211 558 214 566.5 Q217 575 219 583 Q227 605 230 628 Q233 640 232 649 Q232 654 229 658 Q226 662 221 664 Q213 666 203 668 Q193 670 175 669 Q169 667 167 673 Q165 679 170 682 Q176 685 184 685 Q232 687 244 665 Z " />
<glyph glyph-name="backslash" unicode="&#x5c;" horiz-adv-x="342" d="M296 9 Q292 16 291 21.5 Q290 27 288 33 Q287 38 281 68 Q275 98 266 143.5 Q257 189 246 245 Q235 301 223.5 359 Q212 417 201 472 Q190 527 181.5 570 Q173 613 167.5 639 Q162 665 162 665 Q161 670 157 675 Q158 678 159 680.5 Q160 683 161 685 Q168 689 170 682 Q172 680 173.5 675 Q175 670 176 668 Q177 663 183 633.5 Q189 604 198.5 558.5 Q208 513 219.5 456.5 Q231 400 242.5 341.5 Q254 283 265.5 227 Q277 171 286 126.5 Q295 82 300.5 53.5 Q306 25 306 21 Q307 19 310 14 Q310 6 307 3 Q304 1 301 4 Q298 7 296 9 Z " />
<glyph glyph-name="slash" unicode="&#x2f;" horiz-adv-x="220" d="M-109 22 Q-104 36 -95 47 Q-92 52 -73 81.5 Q-54 111 -25.5 155.5 Q3 200 38.5 255.5 Q74 311 110.5 368 Q147 425 182 479.5 Q217 534 244 576 Q271 618 287 644 Q303 670 303 670 Q306 676 307 681 Q313 687 317 687 Q319 687 321 685.5 Q323 684 321 680 Q321 677 318 671.5 Q315 666 314 664 Q311 659 292 629.5 Q273 600 244.5 555 Q216 510 180.5 454.5 Q145 399 108 341 Q71 283 36 228 Q1 173 -27 129 Q-55 85 -73.5 57 Q-92 29 -94 26 Q-95 24 -95 22 Q-95 20 -96 18 Q-101 10 -106 10 Q-111 10 -110.5 14 Q-110 18 -109 22 Z " />
<glyph glyph-name="exclam" unicode="&#x21;" horiz-adv-x="134" d="M234 677 Q237 674 236 671 Q235 667 232 663 Q227 654 222.5 645 Q218 636 213 627 Q210 622 206.5 616 Q203 610 200 604 Q196 597 193 590.5 Q190 584 186 577 Q181 566 175.5 556.5 Q170 547 165 536 Q160 525 154 514 Q150 506 147 499 Q144 492 140 484 Q136 477 133 470 Q130 463 126 456 Q122 448 118 439 Q114 430 110 422 Q106 414 102.5 407.5 Q99 401 95 393 Q90 382 84 370.5 Q78 359 73 348 Q68 337 62.5 326 Q57 315 52 304 Q46 293 40.5 281 Q35 269 29 258 Q28 254 24 248 Q23 244 20 243 Q13 243 13 248 Q15 254 17 258 Q19 263 22 269 Q25 275 28 281 Q30 286 33 291.5 Q36 297 38 303 L53 333 Q63 357 76 382 Q80 390 83 397 Q86 404 90 412 Q95 421 98.5 430 Q102 439 107 448 Q111 456 114 463.5 Q117 471 121 479 L142 521 Q144 526 147 531.5 Q150 537 152 542 Q155 548 157.5 553.5 Q160 559 163 564 Q166 570 169 576.5 Q172 583 176 589 L188 610 Q192 618 196 626.5 Q200 635 205 643 Q210 651 214.5 658 Q219 665 224 673 Q226 675 228 676 Q231 679 234 677 Z M11 217 Q13 215 13 213.5 Q13 212 13 210 Q11 207 8 202 Q5 197 3 193 Q0 189 -5 192 Q-8 194 -6 198 Q-5 200 -2 207 Q1 214 3 216 Q6 219 11 217 Z " />
<glyph glyph-name="quotedbl" unicode="&#x22;" horiz-adv-x="118" d="M189 600 Q191 602 191.5 605.5 Q192 609 194 614 Q198 625 202 636 Q206 647 211 658 Q213 664 216.5 670 Q220 676 223 683 Q223 684 225 686 Q228 691 233 689 Q238 687 236 682 Q236 680 235 677 Q234 674 233 672 Q228 660 222.5 647.5 Q217 635 212 624 Q210 618 207.5 611 Q205 604 202 598 Q201 597 201 596 Q198 592 194 592 Q189 594 189 600 Z M143 604 Q144 612 148 621 Q153 630 156.5 639 Q160 648 165 657 Q167 661 169 664.5 Q171 668 173 673 Q173 674 176 677 Q180 680 183 678 Q188 675 186 671 Q184 663 182 659 Q177 650 172 640 Q167 630 162 621 Q160 617 159.5 613.5 Q159 610 157 605 Q155 601 155 601 Q152 597 148 597 Q143 599 143 604 Z " />
<glyph glyph-name="quotesingle" unicode="&#x27;" horiz-adv-x="92" d="M206 686 Q204 683 203.5 680.5 Q203 678 201 675 Q189 649 175 623 Q173 617 172 615 Q171 613 170 612 Q169 611 168 609 Q164 605 161 609 Q157 610 159 616 Q161 621 163.5 626.5 Q166 632 168 638 Q173 647 177 656.5 Q181 666 186 675 Q188 678 189.5 681 Q191 684 193 688 Q193 689 195 691 Q198 694 202 693 Q206 691 206 686 Z " />
<glyph glyph-name="numbersign" unicode="&#x23;" horiz-adv-x="232" d="M189 296 Q194 296 196 292.5 Q198 289 196 285 Q193 281 188 281 Q182 282 176 282 Q170 282 164 283 Q159 284 155.5 284 Q152 284 147 285 L123 287 L110 256 Q112 256 120 256.5 Q128 257 137 258 Q146 259 153.5 259.5 Q161 260 162 260 Q167 260 169 253 Q169 246 163 245 Q161 244 151 243.5 Q141 243 130 241 Q117 239 101 238 L96 228 Q94 223 92 218 Q90 213 88 209 Q84 200 80.5 191 Q77 182 73 174 Q71 170 69 166.5 Q67 163 65 159 Q62 152 56 156 Q50 157 52 165 Q54 170 56 175 Q58 180 60 185 Q62 192 63.5 195.5 Q65 199 68 206 Q70 211 72.5 217 Q75 223 77 228 Q77 229 79 233 Q81 237 81 238 L46 236 L40 224 Q35 213 30 203.5 Q25 194 20 184 L14 172 Q11 164 4 167 Q-3 169 1 177 Q3 182 5.5 187 Q8 192 10 197 Q13 205 16.5 212 Q20 219 24 227 Q25 229 26 231.5 Q27 234 28 236 Q23 236 10 236 Q-3 236 -7 237 Q-11 239 -13 241 Q-15 243 -13.5 246 Q-12 249 -9 250 Q-7 251 -2 251 Q6 252 12.5 252 Q19 252 27 253 L36 253 L43 269 Q45 273 46.5 276.5 Q48 280 50 284 Q51 286 51.5 288 Q52 290 54 292 Q47 292 41 292.5 Q35 293 28 293 Q20 294 12 295 Q4 296 -4 297 Q-6 297 -12 299 Q-17 302 -16 307 Q-16 312 -10 312 Q-2 312 6 311.5 Q14 311 22 311 Q31 310 41.5 310 Q52 310 61 309 Q61 310 62 312 Q63 314 64 315.5 Q65 317 67 320 Q73 332 77 340.5 Q81 349 87 362 Q90 367 93 373 Q96 379 99 384 Q101 388 103 389 Q105 393 110 391 Q115 388 114 385 Q114 382 112 378 Q106 364 100.5 351.5 Q95 339 90 328 L80 308 L111 305 Q118 319 124 330 Q129 340 133.5 348.5 Q138 357 140 361 Q143 368 149 366 Q154 363 153 356 Q152 353 149 345.5 Q146 338 142.5 330 Q139 322 136 314.5 Q133 307 131 303 Q133 303 134.5 302.5 Q136 302 138 302 L189 296 Z M97 275 Q99 280 103 288 Q101 288 96 288 Q91 288 86 289 L72 291 Q70 286 67.5 281 Q65 276 63 272 Q61 267 59 263.5 Q57 260 55 255 L76 255 Q82 255 89 256 Q91 261 93 266 Q95 271 97 275 Z " />
<glyph glyph-name="dollar" unicode="&#x24;" horiz-adv-x="212" d="M228 388 Q231 380 225 376 Q219 368 206 366 Q200 365 197 371 Q197 377 201 378 Q203 379 204.5 379.5 Q206 380 208 381 Q208 381 208 382 Q202 382 196 382.5 Q190 383 184 382 Q176 382 169.5 381.5 Q163 381 155 380 L130 375 Q121 373 111 370 L105 357 Q101 348 97.5 339 Q94 330 89 321 Q86 315 83.5 309 Q81 303 79 297 Q83 293 87 290 Q91 287 96 283 Q104 276 110 269 Q116 262 121 253 Q131 233 120 212 Q111 198 99 188 Q88 177 75.5 169.5 Q63 162 49 154 Q40 149 32.5 146 Q25 143 17 138 Q16 138 15 137.5 Q14 137 13 137 Q12 136 11 136 Q7 127 2.5 116.5 Q-2 106 -6 96 Q-15 78 -21 60 Q-23 58 -23.5 55 Q-24 52 -26 49 Q-25 48 -27 46 Q-30 41 -35 43 Q-38 45 -40 50 Q-39 52 -39.5 54.5 Q-40 57 -39 59 L-24 98 Q-20 106 -16.5 115.5 Q-13 125 -10 133 Q-14 131 -19.5 131 Q-25 131 -30 131 Q-56 133 -66 158 Q-70 166 -70.5 174.5 Q-71 183 -70 191 Q-68 195 -68 195 Q-67 199 -62 198 Q-58 197 -56 193 Q-56 188 -55 185 Q-55 172 -50 163 Q-45 154 -35 151 Q-27 148 -16 150 Q-8 152 -3 154 Q-2 154 0 156 Q12 190 25.5 222.5 Q39 255 53 287 L53 288 Q53 289 53.5 289 Q54 289 54 290 Q54 291 55 292 L51 295 Q45 300 38 312 Q29 331 36 347 Q40 357 47.5 363 Q55 369 63 374 Q71 378 80.5 382 Q90 386 99 388 L101 392 Q102 394 102 395 Q102 396 103 397 Q106 403 108 406 Q110 409 112 414 Q116 422 120 428.5 Q124 435 128 442 Q130 445 131.5 448 Q133 451 135 454 L139 458 Q142 459 145.5 456.5 Q149 454 149 450 Q147 446 146.5 442.5 Q146 439 144 436 Q140 429 136.5 422.5 Q133 416 130 408 Q128 405 125.5 399.5 Q123 394 123 393 Q133 395 140 395 Q147 396 155 396.5 Q163 397 171 398 L199 398 Q209 398 214 396 Q224 394 228 388 Z M100 251 Q95 259 86.5 266 Q78 273 70 279 Q58 250 45 220.5 Q32 191 20 162 Q31 166 45.5 174.5 Q60 183 70 191 Q77 197 87 205.5 Q97 214 102 222 Q111 237 100 251 Z M63 310 Q68 323 75.5 337.5 Q83 352 90 366 Q82 364 72 358.5 Q62 353 57 345 Q50 337 52 327 Q54 317 63 310 Z " />
<glyph glyph-name="percent" unicode="&#x25;" horiz-adv-x="216" d="M184 428 Q157 417 129.5 406 Q102 395 75 384 Q77 378 77 374 Q78 362 69.5 352 Q61 342 47 341 Q36 340 29 346 Q22 352 20 363 Q19 378 28 392 Q38 407 51 414 Q61 418 66 417 Q75 417 75 408 Q73 400 67 402 Q63 403 57 399 Q58 399 58 398 Q60 399 63 399 Q66 399 68 401 Q76 403 83 405.5 Q90 408 97 411 Q108 416 118.5 420 Q129 424 140 429 Q147 431 153 434 Q159 437 165 440 Q172 442 178 444.5 Q184 447 190 449 Q197 452 203 449 Q208 447 210 442.5 Q212 438 209 433 Q206 425 199 416 Q192 407 185.5 398 Q179 389 172 379 Q167 372 161.5 365.5 Q156 359 151 352 Q145 344 139 337 Q133 330 128 322 Q121 313 115 304.5 Q109 296 102 287 Q97 281 93 274.5 Q89 268 84 261 Q79 254 74 248 Q69 242 64 235 Q57 225 51 216 Q45 207 38 198 Q33 190 27 183 Q21 176 16 168 Q8 155 -1 143 Q-10 131 -18 119 Q-22 113 -25.5 107 Q-29 101 -33 96 Q-34 95 -34.5 94 Q-35 93 -36 92 Q-41 88 -45 91 Q-50 93 -48 99 Q-44 107 -42 110 Q-37 118 -31.5 126 Q-26 134 -21 142 Q-15 151 -8.5 160 Q-2 169 4 178 Q10 187 16 196.5 Q22 206 29 215 Q36 226 43 236 Q50 246 58 257 Q63 265 68 271.5 Q73 278 78 286 Q85 295 91.5 304.5 Q98 314 105 323 Q109 328 113 333.5 Q117 339 121 345 Q125 350 128.5 354.5 Q132 359 136 364 L163 400 Q168 407 173 413.5 Q178 420 183 427 Q184 427 184 428 Z M46 389 L40 380 Q38 375 37 371.5 Q36 368 38 363 Q39 358 44 358 Q52 358 57 366 Q65 377 53 381 Q50 382 49 384 Q48 386 46 389 Z M135 224 Q134 228 130 234 Q124 242 119 233 Q117 232 117 232 Q111 231 109 227 Q100 218 95 203 Q90 192 95 181 Q99 171 108.5 169 Q118 167 125 172 Q140 182 140 202 Q139 208 138 213.5 Q137 219 135 224 Z M114 182 Q108 183 108.5 189 Q109 195 112 203 Q116 212 122 222 Q124 210 125 201 Q125 193 123.5 187 Q122 181 114 182 Z " />
<glyph glyph-name="ampersand" unicode="&#x26;" horiz-adv-x="298" d="M100 287 Q93 326 97.5 349 Q102 372 110 385 Q115 396 121.5 404.5 Q128 413 138 420 Q156 431 177 425 Q193 419 199 407 Q205 395 207 384 Q208 373 206 361.5 Q204 350 202 339 Q200 330 197.5 322 Q195 314 191 303 Q199 305 214 308.5 Q229 312 241 315 Q251 317 255 317 Q258 318 261 317.5 Q264 317 265 313 Q266 310 265 307 Q262 304 259 304 Q255 305 248 303 Q234 299 221.5 296 Q209 293 195 289 Q184 286 173 282.5 Q162 279 151 276 Q149 275 145 275 Q140 273 138 279 Q138 283 142 286 Q147 288 153 290.5 Q159 293 165 295 Q166 295 167 295.5 Q168 296 169 296 Q170 296 170 297 Q180 324 186 349 Q191 372 189 382.5 Q187 393 182 398 Q174 407 163.5 407.5 Q153 408 144 401 Q132 390 125.5 376 Q119 362 116 346 Q113 328 116 311 Q118 299 119.5 287 Q121 275 123 263 L123 256 Q122 251 118 249.5 Q114 248 109 250 L100 256 Q77 266 51.5 257 Q26 248 11 231 Q3 222 -3.5 211.5 Q-10 201 -15 190 Q-19 182 -21.5 174 Q-24 166 -26 157 Q-28 148 -29 139 Q-30 130 -30 120 Q-30 107 -28.5 94 Q-27 81 -23 69 Q-20 59 -14 50 Q-8 41 1 36 Q17 27 35 29.5 Q53 32 67 41 Q78 48 86.5 58.5 Q95 69 102 80 Q114 102 120 128 Q123 142 124 156.5 Q125 171 126 185 Q124 185 115.5 183 Q107 181 97.5 179 Q88 177 80 175.5 Q72 174 71 174 Q65 172 63.5 174.5 Q62 177 61 179 Q61 184 69 187 Q89 192 101 194.5 Q113 197 131 200 Q142 202 150 203 Q158 204 167 206 L173 206 Q178 204 178 200 Q178 196 173 194 Q168 193 164.5 192.5 Q161 192 156 191 Q152 190 149.5 189.5 Q147 189 144 188 Q146 163 141.5 138.5 Q137 114 133 103 Q124 72 96 40 Q78 22 57 15 Q38 8 16 11 Q3 13 -11 21.5 Q-25 30 -33 44 Q-40 54 -45 70.5 Q-50 87 -51 107.5 Q-52 128 -47.5 151.5 Q-43 175 -32 201 Q-20 227 -5.5 242 Q9 257 23.5 264.5 Q38 272 50.5 274.5 Q63 277 71 278 Q85 278 102 274 Q101 277 101 280 Q101 283 100 287 Z " />
<glyph glyph-name="parenleft" unicode="&#x28;" horiz-adv-x="188" d="M324 681 Q328 676 320 671 L305 659 Q293 648 280.5 637.5 Q268 627 256 616 Q248 610 241 603.5 Q234 597 226 590 Q181 546 146 497.5 Q111 449 86 391 Q54 318 40 238.5 Q26 159 32 79 Q32 74 31.5 70 Q31 66 26 64 Q21 63 18 67.5 Q15 72 15 77 Q10 140 15 199 Q20 258 33 309 Q43 347 59 384.5 Q75 422 95 456 Q114 489 137.5 519.5 Q161 550 187 578 Q214 607 244 631 Q274 655 306 679 Q310 683 312 684 Q321 687 324 681 Z " />
<glyph glyph-name="parenright" unicode="&#x29;" horiz-adv-x="218" d="M198 681 Q203 683 206.5 678 Q210 673 210 668 Q216 605 212.5 546.5 Q209 488 197 436 Q189 397 174 359.5 Q159 322 140 287 Q121 254 98.5 223 Q76 192 50 163 Q24 134 -6 109 Q-36 84 -66 59 Q-68 57 -69.5 56.5 Q-71 56 -73 54 Q-80 50 -84 56 Q-88 62 -81 67 Q-77 70 -73.5 73 Q-70 76 -66 80 Q-54 91 -42 101.5 Q-30 112 -18 123 Q-10 130 -3 136.5 Q4 143 11 150 Q55 195 89 244.5 Q123 294 147 352 Q177 427 189 506.5 Q201 586 193 666 Q192 671 193 675 Q194 679 198 681 Z " />
<glyph glyph-name="asciicircum" unicode="&#x5e;" horiz-adv-x="160" d="M260 617 L259 609 Q257 601 249 601 Q242 601 242 610 Q242 620 242.5 630 Q243 640 244 650 L244 666 Q240 664 237 662 Q234 660 231 658 Q223 652 214 646 Q205 640 197 634 Q189 629 182.5 624 Q176 619 169 614 Q166 613 162 611 Q157 609 154 613 Q152 618 156 621 Q162 626 168 630.5 Q174 635 179 640 Q187 646 194 651.5 Q201 657 208 662 Q213 666 218 669.5 Q223 673 228 677 Q247 690 257 681 Q265 675 264 659 Q263 643 261 624 Q261 623 260.5 623 Q260 623 260 622 L260 617 Z " />
<glyph glyph-name="underscore" unicode="&#x5f;" horiz-adv-x="320" d="M30 191 Q9 191 -2 191 Q-13 191 -16 194 Q-19 199 -17 203.5 Q-15 208 -12 208 L40 208 L204 208 Q220 208 225 207 Q230 206 230 198 Q230 192 224 192 Q221 192 206.5 192 Q192 192 171.5 192 Q151 192 127.5 191.5 Q104 191 83.5 191 Q63 191 48 191 Q33 191 30 191 Z " />
<glyph glyph-name="grave" unicode="&#x60;" horiz-adv-x="132" d="M224 626 Q224 620 219 618 Q214 618 211 624 Q211 627 209 631 Q204 640 198.5 649.5 Q193 659 188 669 Q187 671 186.5 672.5 Q186 674 185 676 Q185 682 189 683 Q193 685 196 682 Q198 680 198.5 679 Q199 678 200 677 Q205 669 209 660 Q213 651 218 643 Q222 636 224 626 Z " />
<glyph glyph-name="bar" unicode="&#x7c;" horiz-adv-x="156" d="M-85 22 Q-83 30 -80.5 35.5 Q-78 41 -75 47 Q-73 52 -59 81.5 Q-45 111 -23.5 155.5 Q-2 200 25 255.5 Q52 311 79.5 368 Q107 425 133 479.5 Q159 534 179 576 Q199 618 211 644 Q223 670 223 670 Q225 673 225 675 Q225 677 226 681 Q230 687 235 687 Q237 687 239.5 685.5 Q242 684 240 680 Q240 677 238 671.5 Q236 666 235 664 Q233 659 219 629.5 Q205 600 183.5 555 Q162 510 135.5 454.5 Q109 399 81.5 341 Q54 283 27.5 228 Q1 173 -20 129 Q-41 85 -54.5 57 Q-68 29 -70 26 Q-71 23 -71 18 Q-75 10 -80 10 Q-85 10 -85 14 Q-85 18 -85 22 Z " />
<glyph glyph-name="braceleft" unicode="&#x7b;" horiz-adv-x="172" d="M90 426 Q91 423 95 419 Q103 407 111 393.5 Q119 380 121 365 Q123 352 118 339.5 Q113 327 106 316 Q90 290 72 266.5 Q54 243 37 218 Q23 195 9 168.5 Q-5 142 -6 114 Q-7 100 -5 89.5 Q-3 79 3 67 Q6 61 9 54 Q12 47 14 44 Q15 42 17.5 37.5 Q20 33 21 31 Q23 26 19.5 22 Q16 18 11 20 Q8 21 4 27 Q-4 40 -11.5 53.5 Q-19 67 -23 82 Q-27 98 -25.5 114 Q-24 130 -19 145 Q-6 192 23 230.5 Q52 269 79 308 Q85 317 90.5 326.5 Q96 336 100 347 Q103 359 101 369 Q96 380 90.5 390.5 Q85 401 78 412 Q76 415 72 423 Q70 433 78 439 Q95 452 112 464.5 Q129 477 144 491 Q156 502 166 515.5 Q176 529 183 545 Q190 562 193 579.5 Q196 597 201 614 Q206 631 214.5 647 Q223 663 238 672 Q248 678 262 681 Q264 681 267 681.5 Q270 682 272 682 Q278 680 278 676 Q278 673 274.5 671 Q271 669 268 668 Q238 659 226 632 Q215 609 212 583.5 Q209 558 199 534 Q185 502 158.5 480 Q132 458 105 438 Q102 435 98.5 432.5 Q95 430 92 428 L90 426 Z " />
<glyph glyph-name="braceright" unicode="&#x7d;" horiz-adv-x="198" d="M-94 37 Q-88 37 -80 38.5 Q-72 40 -67 43 Q-50 52 -34 69 Q-21 82 -13 98 Q-5 114 3 130 Q13 152 19.5 175 Q26 198 33 221 Q39 244 42.5 266.5 Q46 289 51 312 Q53 320 55.5 328.5 Q58 337 63 343 Q74 355 89 358 Q104 361 118 362 Q123 363 133 363 Q137 363 136 368 Q134 377 132.5 386 Q131 395 129 405 Q124 434 130.5 463 Q137 492 153 518 Q163 534 174 548 Q185 562 193 578 Q205 605 204.5 625.5 Q204 646 199 669 Q197 674 196.5 678 Q196 682 200 684 Q202 686 205.5 685.5 Q209 685 210 682 Q212 676 214 665.5 Q216 655 218 647 Q222 630 219.5 609.5 Q217 589 207 572 Q199 558 190.5 544.5 Q182 531 173 517 Q162 500 154.5 481.5 Q147 463 145 443 Q143 417 149 396 Q151 388 152 381.5 Q153 375 155 367 Q157 359 152 353 Q147 347 139 346 Q128 344 118.5 343.5 Q109 343 98 342 Q84 340 77 332 Q72 325 70 315 Q67 300 65 285 Q63 270 60 255 Q56 232 49 209 Q42 186 34 163 Q26 140 16.5 118 Q7 96 -7 76 Q-15 64 -26 53 Q-37 42 -50 34 Q-57 29 -64.5 26.5 Q-72 24 -80 22 Q-87 20 -96 21 Q-105 22 -108 30 Q-110 38 -104 41 Q-102 43 -98.5 41.5 Q-95 40 -94 37 Z " />
<glyph glyph-name="asciitilde" unicode="&#x7e;" horiz-adv-x="202" d="M70 226 Q65 226 60.5 227 Q56 228 52 231 Q48 234 46 237.5 Q44 241 42 246 Q40 252 39 256 Q38 260 33 269 Q31 274 27.5 272 Q24 270 22 268 Q17 263 11 257.5 Q5 252 0 246 Q-3 243 -9 236.5 Q-15 230 -20 235 Q-23 237 -22.5 239.5 Q-22 242 -20 244 Q-16 249 -13 252.5 Q-10 256 -6 261 Q-3 265 0 268 Q3 271 6 275 Q10 279 14 282.5 Q18 286 23 288 Q32 291 39.5 287 Q47 283 50 274 Q53 268 55 262 Q57 256 60 251 Q64 241 74 245 Q82 247 94 256 Q101 261 107.5 267 Q114 273 121 278 Q127 283 133 288 Q139 293 145 298 Q148 300 152 304 Q159 307 162 303 Q166 298 161 293 Q150 282 139 272.5 Q128 263 117 253 Q109 247 102 241 Q95 235 86 230 Q82 228 78.5 227 Q75 226 70 226 Z " />
<glyph glyph-name="asterisk" unicode="&#x2a;" horiz-adv-x="166" d="M43 265 Q39 257 36 251.5 Q33 246 29 239 Q28 237 26 232.5 Q24 228 23 226 Q21 223 16 213 Q14 209 9 211 Q7 212 6 214.5 Q5 217 6 219 Q8 224 10 228.5 Q12 233 14 236 Q18 244 20.5 249.5 Q23 255 28 263 Q28 263 30 267 Q25 265 21.5 263.5 Q18 262 14 260 Q9 258 6 257.5 Q3 257 -2 255 Q-7 253 -12 253 Q-15 254 -16 257 Q-17 260 -15 262 Q-13 264 -11.5 265 Q-10 266 -8 267 Q-6 269 -3.5 269.5 Q-1 270 2 272 Q7 274 14.5 277 Q22 280 22 281 Q19 281 15.5 281.5 Q12 282 9 282 Q6 283 3.5 283.5 Q1 284 -2 285 Q-6 287 -6 290 Q-6 294 -1 296 L10 296 Q13 295 20 295 Q24 295 27 294.5 Q30 294 33 294 Q32 297 31 301 Q30 305 29 308 Q27 312 24 321 Q22 325 27 327 Q31 330 34 327 Q35 325 36 323.5 Q37 322 37 320 L46 299 Q46 299 48 296 Q52 303 59.5 317 Q67 331 69 335 Q71 341 77 339 Q81 338 81 333 Q81 332 78.5 327 Q76 322 73.5 317 Q71 312 69 307 Q67 302 66 301 Q66 300 65 299 Q67 300 69 300 Q79 304 91 308 Q103 312 112 316 Q120 318 122.5 316 Q125 314 126 312 Q127 308 119 304 Q117 303 110 300.5 Q103 298 94.5 295.5 Q86 293 79 290.5 Q72 288 70 288 Q87 284 95.5 283 Q104 282 110 280 Q114 279 112 272 Q110 265 103 266 Q90 268 85 269 Q80 270 66 272 L55 274 Q57 265 58 258 Q59 251 61 243 Q62 241 61.5 238 Q61 235 58 234 Q51 231 49 238 Q48 240 47.5 244 Q47 248 46 253 Q45 258 43 265 Z " />
<glyph glyph-name="plus" unicode="&#x2b;" horiz-adv-x="168" d="M131 285 Q131 276 123 276 L92 276 Q87 276 81 276.5 Q75 277 70 277 L58 277 L50 260 Q46 252 44.5 248.5 Q43 245 39 236 Q39 235 36 229 Q33 223 33 222 Q31 219 27 219 Q21 219 21 223 Q20 225 21.5 229 Q23 233 23 235 Q26 243 28 248.5 Q30 254 32 259 Q35 265 36.5 268.5 Q38 272 40 278 L18 278 Q13 278 9 278 Q5 278 0 279 Q-5 279 -6 282 Q-11 289 -1 291 Q4 291 9 291.5 Q14 292 21 292 L46 291 L52 305 Q55 312 58 318 Q61 324 64 331 Q66 333 66.5 335.5 Q67 338 69 340 Q72 346 77 344 Q83 342 82 336 Q80 332 78.5 327 Q77 322 75 317 Q71 308 69.5 303.5 Q68 299 64 291 Q65 291 72 291 Q79 291 88 290.5 Q97 290 106 289.5 Q115 289 121 289 Q130 289 131 285 Z " />
<glyph glyph-name="comma" unicode="&#x2c;" horiz-adv-x="67" d="M-43 187 Q-43 192 -41.5 196 Q-40 200 -38 204 Q-33 213 -29 221.5 Q-25 230 -20 238 Q-19 240 -18 240.5 Q-17 241 -16 243 Q-13 246 -8 244 Q-3 242 -5 237 Q-5 233 -8 230 Q-13 220 -18.5 211 Q-24 202 -29 192 Q-30 190 -30 188.5 Q-30 187 -31 185 Q-33 178 -38 180 Q-43 180 -43 187 Z " />
<glyph glyph-name="hyphen" unicode="&#x2d;" horiz-adv-x="194" d="M130 293 Q138 293 138 285 Q138 277 130 277 Q127 277 118.5 277 Q110 277 100.5 277.5 Q91 278 81.5 278 Q72 278 66 278 Q52 278 36.5 277.5 Q21 277 14 277 Q6 277 5 281 Q4 285 4 287 Q4 289 5.5 291 Q7 293 13 294 L50 294 Q54 294 66.5 294 Q79 294 92.5 294 Q106 294 117 293.5 Q128 293 130 293 Z " />
<glyph glyph-name="period" unicode="&#x2e;" horiz-adv-x="52" d="M-37 204 Q-37 213 -31 213 Q-24 213 -24 205 Q-24 203 -25 202 Q-25 197 -30 197 Q-36 197 -37 201 L-37 204 Z " />
<glyph glyph-name="quotedblleft" unicode="&#x201c;" horiz-adv-x="133" d="M189 600 Q191 602 191.5 605.5 Q192 609 194 614 Q198 625 202 636 Q206 647 211 658 Q213 664 216.5 670 Q220 676 223 683 Q223 684 225 686 Q228 691 233 689 Q238 687 236 682 Q236 680 235 677 Q234 674 233 672 L212 624 Q210 618 207.5 611 Q205 604 202 598 Q201 597 201 596 Q198 592 194 592 Q189 594 189 600 Z M143 604 Q144 612 148 621 L165 657 L173 673 Q173 674 176 677 Q180 680 183 678 Q188 675 186 671 Q184 663 182 659 Q177 650 172 640 Q167 630 162 621 L157 605 L155 601 Q152 597 148 597 Q143 599 143 604 Z " />
<glyph glyph-name="quotedblright" unicode="&#x201d;" horiz-adv-x="130" d="M189 600 Q191 602 191.5 605.5 Q192 609 194 614 Q198 625 202 636 Q206 647 211 658 Q213 664 216.5 670 Q220 676 223 683 Q223 684 225 686 Q228 691 233 689 Q238 687 236 682 Q236 680 235 677 Q234 674 233 672 L212 624 Q210 618 207.5 611 Q205 604 202 598 Q201 597 201 596 Q198 592 194 592 Q189 594 189 600 Z M143 604 Q144 612 148 621 L165 657 L173 673 Q173 674 176 677 Q180 680 183 678 Q188 675 186 671 Q184 663 182 659 Q177 650 172 640 Q167 630 162 621 L157 605 L155 601 Q152 597 148 597 Q143 599 143 604 Z " />
<glyph glyph-name="quoteright" unicode="&#x2019;" horiz-adv-x="132" d="M206 686 L201 675 L175 623 L172 615 L168 609 Q164 605 161 609 Q157 610 159 616 L168 638 L186 675 L193 688 Q193 689 195 691 Q198 694 202 693 Q206 691 206 686 Z " />
<glyph glyph-name="quoteleft" unicode="&#x2018;" horiz-adv-x="134" d="M206 686 L201 675 L175 623 L172 615 L168 609 Q164 605 161 609 Q157 610 159 616 L168 638 L186 675 L193 688 Q193 689 195 691 Q198 694 202 693 Q206 691 206 686 Z " />
<glyph glyph-name="B" unicode="B" horiz-adv-x="542" d="M206 261 Q204 257 203 254 Q202 253 200 249 Q210 247 212 247 Q225 245 244 241 Q263 237 285 230 Q311 222 332 213.5 Q353 205 372 194 Q390 183 404.5 171.5 Q419 160 430 146 Q458 112 459 75 Q459 67 458 59 Q457 51 454 42 Q450 30 444.5 19 Q439 8 430 -4 Q410 -32 373 -60 Q339 -86 288 -109 Q270 -117 254 -123.5 Q238 -130 223 -135 Q219 -136 216 -137 Q213 -138 210 -139 Q199 -143 187.5 -146 Q176 -149 165 -152 Q126 -162 91 -167 Q84 -168 78 -168 Q72 -168 66 -169 Q62 -170 53 -170 Q49 -170 42.5 -170.5 Q36 -171 29 -171 Q22 -171 15 -170.5 Q8 -170 4 -169 Q-9 -167 -20.5 -165 Q-32 -163 -43 -158 Q-63 -151 -74 -139 Q-90 -123 -90 -105 Q-91 -86 -77 -67 Q-61 -44 -28 -25 Q-2 -8 27 1 Q32 3 41 5 Q50 7 55 9 L57 9 L61 19 Q65 28 69 37 Q73 46 78 55 Q83 66 88 77 Q93 88 98 97 Q106 112 114 129 Q122 146 131 163 Q135 170 138.5 177 Q142 184 146 192 Q148 196 150 199.5 Q152 203 154 207 Q156 209 157.5 213 Q159 217 161 220 L165 228 Q166 229 167 231 L170 237 L157 238 Q131 240 109.5 240.5 Q88 241 68 240 Q60 240 52 239.5 Q44 239 36 239 Q32 239 29 240 Q23 242 22 247 Q20 253 24 254 Q26 255 27 255.5 Q28 256 30 257 Q35 259 39.5 260 Q44 261 49 263 Q58 266 67 269.5 Q76 273 85 276 Q94 279 102.5 282.5 Q111 286 119 289 Q121 290 127 292 Q150 302 172.5 311 Q195 320 217 329 Q218 329 221 332 Q223 336 226 340 Q229 344 231 349 Q235 356 239 363 Q243 370 248 378 Q256 391 265 405 Q274 419 285 434 Q293 446 300 456 Q307 466 314 475 Q323 487 332.5 498.5 Q342 510 352 521 Q368 540 386 558 Q412 583 438 601 Q444 605 448 607 Q452 609 454 609 Q459 609 463 605 Q466 602 464 597 L460 593 Q457 591 454 588 Q451 585 448 583 Q442 578 436 572.5 Q430 567 425 562 Q416 554 407.5 546 Q399 538 392 530 Q379 516 366 501.5 Q353 487 341 471 Q323 447 308 425 Q300 414 292.5 403 Q285 392 278 381 L273 374 Q269 368 263.5 359 Q258 350 255 345 Q256 345 256 346 Q260 346 262 348 Q265 349 267.5 350 Q270 351 272 352 Q282 357 291.5 361 Q301 365 310 369 Q327 377 341 383.5 Q355 390 369 397 Q383 405 397.5 412 Q412 419 429 427 Q438 432 447 437 Q456 442 464 447 L467 449 Q485 459 505 472 Q524 484 539 495 Q554 506 567 517 Q579 528 588 537 Q597 546 604 556 Q617 572 621 587 Q627 604 623 618 Q618 639 598 653 Q582 664 563 671 Q523 686 476 692 Q461 694 448 695 Q435 696 424 697 Q403 699 385.5 699.5 Q368 700 351 699 Q337 698 324 697.5 Q311 697 298 696 L290 696 Q268 694 248.5 691 Q229 688 213 686 Q193 682 173 678 Q153 674 133 668 Q116 663 99.5 658 Q83 653 67 646 Q47 638 29 630 Q11 622 -5 612 Q-44 588 -70 562 Q-100 531 -114 493 Q-122 469 -120 445 Q-115 397 -71 367 Q-38 343 -1 339 Q20 336 35 342 Q36 342 37.5 342.5 Q39 343 41 342 Q44 342 46 339 Q47 336 46 333 Q46 331 42 329 Q28 323 9 324 Q-7 325 -22.5 329 Q-38 333 -54 340 Q-95 360 -118 394 Q-132 415 -137 444 Q-140 471 -131 499 Q-121 529 -100 555 Q-70 593 -29 618 Q-21 623 -10.5 629.5 Q0 636 11 641 Q23 647 34.5 652 Q46 657 56 662 L98 677 Q143 690 194 701 Q214 704 233 707 Q252 710 272 712 Q298 714 321 715.5 Q344 717 367 716 Q384 716 401 715.5 Q418 715 433 714 Q483 711 530 699 Q563 690 588 678 Q616 662 630 643 Q643 626 644 606 Q645 589 638 570 Q632 555 623.5 543.5 Q615 532 607 524 Q585 501 557 481 Q540 468 522 457 Q504 446 487 436 Q483 434 479.5 432 Q476 430 473 428 Q468 425 462 422 Q456 419 451 416 Q434 407 417.5 398.5 Q401 390 387 384 Q372 376 360.5 370.5 Q349 365 338 360 Q324 353 310.5 347 Q297 341 283 335 L274 331 Q265 327 256.5 323.5 Q248 320 240 316 Q237 316 235 312 Q230 302 224.5 293 Q219 284 214 274 Q212 271 210 268 Q208 265 206 261 Z M178 252 L181 259 Q184 264 186.5 268.5 Q189 273 192 278 L207 303 L179 292 L175 290 Q165 286 158 283 Q151 280 144 278 Q127 271 113 267 Q111 266 109 265.5 Q107 265 105 264 Q100 262 95.5 260.5 Q91 259 86 257 L98 257 Q115 257 133 255.5 Q151 254 171 252 L178 252 Z M44 -20 Q45 -18 47 -12 Q43 -13 35.5 -15.5 Q28 -18 19.5 -22 Q11 -26 2.5 -30 Q-6 -34 -12 -37 Q-41 -53 -57 -72 Q-62 -78 -66.5 -85.5 Q-71 -93 -73 -103 Q-76 -124 -54 -137 Q-43 -144 -32 -146.5 Q-21 -149 -13 -151 Q9 -154 38 -154 Q74 -152 115 -144 Q134 -140 151 -136 Q168 -132 184 -127 L186 -126 Q198 -122 210 -118.5 Q222 -115 234 -110 Q255 -102 274 -93.5 Q293 -85 311 -75 Q343 -58 370 -36 Q411 -3 428 33 Q444 61 439 93 Q434 116 420 135 Q412 146 400.5 156 Q389 166 375 176 Q348 192 312 206 Q300 210 281 215 Q262 220 243 224 Q224 228 209.5 231 Q195 234 192 234 L189 229 Q187 225 185 222 Q183 219 181 215 Q179 210 176 205.5 Q173 201 171 196 Q168 190 165 184 Q162 178 159 173 Q157 170 155.5 166.5 Q154 163 152 160 Q149 154 146.5 148.5 Q144 143 141 138 Q134 126 128 113.5 Q122 101 116 89 Q109 76 103 63.5 Q97 51 91 38 Q89 33 86.5 28.5 Q84 24 82 19 Q80 17 80 14 Q79 14 79 13 L80 13 Q88 15 107.5 17 Q127 19 141 21 Q161 23 184.5 25 Q208 27 234 27 Q242 27 250.5 26.5 Q259 26 270 25 Q283 24 295 17 Q304 13 307 1 Q309 -8 302 -10 Q297 -12 294 -8 Q290 -5 291 -1 L291 2 Q291 2 292 3 L291 3 L289 5 Q287 5 287 6 Q284 6 281.5 7 Q279 8 277 8 L275 8 Q267 9 260 10 Q253 11 245 11 Q230 11 218.5 11 Q207 11 196 10 Q182 8 166.5 7 Q151 6 134 4 Q114 1 95 -1.5 Q76 -4 71 -6 L64 -23 Q60 -32 56 -41 Q53 -49 50 -57 Q47 -65 45 -72 Q38 -94 44 -115 L44 -118 Q44 -122 40 -122 Q36 -123 32 -118 Q30 -114 29 -113 Q25 -102 25 -92 Q25 -82 27 -70 Q30 -56 34.5 -44 Q39 -32 44 -20 Z " />
<glyph glyph-name="C" unicode="C" horiz-adv-x="484" d="M529 607 Q528 600 528.5 602 Q529 604 529.5 607.5 Q530 611 530 612.5 Q530 614 529 607 Q526 590 518 568 Q514 557 508 547.5 Q502 538 494 528 Q492 523 488 519.5 Q484 516 481 511 Q477 506 473 502.5 Q469 499 465 495 Q462 492 458 488 Q454 484 449 482 Q447 480 445 478.5 Q443 477 441 475 Q439 473 436.5 472 Q434 471 432 469 Q431 469 430 468 Q429 467 427 467 Q425 468 424.5 468 Q424 468 422 469 Q419 472 419 474 Q419 478 420 479 Q422 480 422 480.5 Q422 481 423 482 L429 485 Q433 491 437 492 Q454 509 468 526 Q484 545 493 562 Q499 573 503.5 584 Q508 595 510 606 Q512 611 512 616.5 Q512 622 512 627 Q513 637 510 650 Q510 661 503 671 Q500 679 490 683 Q481 687 470 687 Q459 689 447 685 Q436 683 426.5 680 Q417 677 409 674 Q398 669 387.5 664 Q377 659 367 655 Q356 648 345.5 642.5 Q335 637 325 629 Q316 624 306 617 Q296 610 288 603 Q280 596 271.5 589 Q263 582 255 574 Q247 566 238 559 Q229 552 221 545 Q213 537 205 528.5 Q197 520 189 511 Q182 503 174.5 495 Q167 487 161 478 Q153 469 145.5 460.5 Q138 452 133 443 Q125 433 118 424.5 Q111 416 104 405 Q98 395 92 384.5 Q86 374 78 363 Q73 354 67 344.5 Q61 335 56 326 Q51 315 45.5 304 Q40 293 35 283 Q30 271 25 260 Q20 249 16 238 Q12 226 8 214.5 Q4 203 2 192 Q-7 168 -11 144 Q-14 133 -16 122 Q-18 111 -19 97 Q-22 85 -22.5 72.5 Q-23 60 -24 47 Q-25 35 -24 22.5 Q-23 10 -22 -4 Q-21 -8 -21 -15 Q-19 -19 -19 -22 Q-19 -26 -18 -28 Q-17 -35 -15.5 -40.5 Q-14 -46 -12 -51 Q-4 -68 11 -84 Q21 -93 27 -96 Q32 -98 36.5 -99 Q41 -100 46 -100 Q57 -102 68 -100.5 Q79 -99 89 -97 Q99 -93 109 -88 Q119 -83 130 -78 Q138 -72 146.5 -66 Q155 -60 165 -54 Q175 -46 182.5 -39.5 Q190 -33 198 -25 Q203 -20 207 -16 Q211 -12 216 -9 Q225 0 231 9 Q239 17 246 24.5 Q253 32 261 40 Q268 49 275 57.5 Q282 66 290 75 Q296 83 301.5 91 Q307 99 313 107 Q321 116 327 125.5 Q333 135 340 144 Q348 155 355 164 Q362 173 370 184 Q373 189 376 193 Q379 197 384 202 Q384 203 387 206 Q387 207 390 210 Q396 210 399 205 Q401 203 400.5 201 Q400 199 399 196 Q397 194 396.5 192 Q396 190 394 188 Q391 183 388.5 178 Q386 173 382 168 Q376 159 368.5 149 Q361 139 354 129 Q346 119 339.5 109.5 Q333 100 326 91 Q318 80 311 70 Q304 60 297 50 Q289 41 282 33 Q275 25 267 15 Q261 7 253.5 -0.5 Q246 -8 239 -16 Q223 -33 206 -49 Q197 -57 187.5 -64 Q178 -71 170 -78 Q161 -84 152 -90 Q143 -96 133 -100 Q125 -105 116.5 -109 Q108 -113 98 -115 Q87 -119 75 -121 Q63 -123 52 -121 Q29 -118 11 -106 Q-6 -95 -17 -76 Q-24 -66 -28 -56 Q-32 -46 -35 -35 Q-42 -12 -43 8 Q-45 22 -45 33 Q-45 44 -44 57 Q-43 82 -38 108 Q-36 119 -34 130.5 Q-32 142 -29 154 Q-26 165 -23 177 Q-20 189 -16 200 Q-14 211 -11 221.5 Q-8 232 -3 243 Q5 266 15 287 Q19 297 23.5 307.5 Q28 318 35 329 Q40 340 46 350 Q52 360 57 371 Q64 380 69.5 389 Q75 398 82 408 Q88 419 95 427.5 Q102 436 108 447 Q123 462 136 483 Q154 502 169 519 Q184 537 201 554 Q209 561 217.5 569 Q226 577 234 585 Q244 593 252 600 Q260 607 270 614 Q279 622 288.5 629 Q298 636 308 642 Q318 649 328 654.5 Q338 660 348 666 Q359 673 368.5 677.5 Q378 682 389 687 Q399 692 409 695 Q419 698 430 701 Q441 703 452 705 Q463 707 474 705 Q495 702 509 689 Q517 681 520 674 Q521 671 522.5 668 Q524 665 525 662 Q526 659 526.5 657 Q527 655 528 653 Q534 632 529 607 Z " />
<glyph glyph-name="A" unicode="A" horiz-adv-x="518" d="M586 529 Q584 524 581.5 520 Q579 516 576 511 Q574 506 571.5 501.5 Q569 497 567 492 Q565 487 562 482 Q559 477 557 472 Q555 467 552 463 Q549 459 547 454 Q545 450 543 446 Q541 442 539 437 Q537 433 535 429.5 Q533 426 531 422 Q529 418 527.5 414.5 Q526 411 524 408 Q521 403 518.5 397.5 Q516 392 513 387 Q511 382 508 377 Q505 372 503 367 Q501 362 499 358.5 Q497 355 495 350 Q493 345 490 340 Q487 335 485 330 Q482 325 479.5 320 Q477 315 474 310 Q472 305 470.5 301.5 Q469 298 467 294 Q465 291 464 287.5 Q463 284 461 281 Q459 278 457.5 274.5 Q456 271 454 268 Q452 265 450.5 261.5 Q449 258 447 253 Q444 248 441.5 243 Q439 238 437 233 Q435 228 432.5 223.5 Q430 219 428 214 Q426 211 422 203 Q421 200 417 192 Q416 190 415 188 Q414 186 413 184 Q411 180 410 177 L395 147 L392 140 Q389 133 386 126.5 Q383 120 379 114 Q378 111 376 107 Q373 99 369 94 Q367 87 364 81 Q361 75 358 69 Q355 63 352 56.5 Q349 50 346 44 Q344 39 341.5 34 Q339 29 337 24 Q335 19 332 14 Q329 9 327 4 Q322 -7 317.5 -17.5 Q313 -28 308 -37 L306 -41 Q301 -53 295.5 -64.5 Q290 -76 285 -87 Q280 -99 275.5 -109 Q271 -119 267 -129 Q264 -136 261 -143 Q258 -150 255 -158 L254 -159 Q254 -161 253.5 -162 Q253 -163 253 -165 Q253 -169 250 -170 Q250 -171 247 -171 L245 -171 Q237 -168 237 -160 Q238 -156 238.5 -153.5 Q239 -151 240 -148 Q245 -137 248 -127.5 Q251 -118 255 -109 Q259 -99 263 -89.5 Q267 -80 272 -71 L274 -66 Q276 -60 279 -54 Q282 -48 284 -43 Q286 -40 286.5 -37.5 Q287 -35 289 -33 Q292 -25 297 -16 Q302 -6 306 4 Q310 14 315 24 Q320 35 324.5 45 Q329 55 334 66 L340 78 Q341 82 345 90 Q347 95 349.5 99.5 Q352 104 354 109 Q356 114 358 117.5 Q360 121 362 126 L371 147 Q373 151 375 154.5 Q377 158 379 162 Q380 166 384 174 L390 186 L396 198 Q398 204 401 209.5 Q404 215 406 220 Q408 223 409 225.5 Q410 228 411 231 Q413 233 413.5 235.5 Q414 238 416 241 Q418 246 421 251.5 Q424 257 426 262 Q430 270 432 273 L438 285 Q440 289 441.5 292 Q443 295 445 299 Q447 303 448.5 306.5 Q450 310 452 314 Q460 331 469 348 L474 358 Q478 366 481.5 373.5 Q485 381 489 389 Q491 393 493.5 396.5 Q496 400 498 405 Q500 409 502 413 Q504 417 506 422 Q510 428 513 434.5 Q516 441 520 448 Q524 456 528 464.5 Q532 473 536 481 Q538 485 540.5 489 Q543 493 545 498 Q547 501 551 509 L544 498 Q539 491 534.5 484.5 Q530 478 525 471 Q523 469 521.5 466 Q520 463 518 461 Q516 459 514.5 457 Q513 455 512 453 Q506 445 502 439 L493 427 Q490 422 487 418 Q484 414 481 410 Q477 404 473 398.5 Q469 393 465 387 Q460 382 456.5 375.5 Q453 369 448 363 Q445 359 442 355 Q439 351 436 347 Q431 338 425 331 Q421 325 417.5 319.5 Q414 314 410 309 Q407 304 404 300.5 Q401 297 398 292 Q396 288 393 284.5 Q390 281 387 277 Q382 269 377 262 Q375 259 372.5 255.5 Q370 252 368 249 Q366 246 363.5 242.5 Q361 239 359 236 Q356 232 353 228.5 Q350 225 348 220 Q338 209 331 197 Q328 193 325.5 189.5 Q323 186 320 182 Q318 178 315 174.5 Q312 171 310 168 Q305 161 301 155 Q297 149 292 142 Q284 132 277 122 Q270 112 263 102 Q255 91 246.5 80 Q238 69 228 56 Q222 48 216 40 Q210 32 203 23 L200 19 L176 -11 Q170 -18 164.5 -24.5 Q159 -31 153 -37 L151 -39 Q140 -53 129 -64 Q121 -73 114 -79 Q111 -82 109 -83 Q107 -85 107 -86 Q104 -89 101 -91.5 Q98 -94 95 -97 Q86 -105 75.5 -112.5 Q65 -120 54 -126 Q34 -137 14 -142 Q-9 -145 -25 -140 Q-55 -131 -70 -103 Q-80 -86 -85 -63 Q-90 -34 -89 6 Q-88 23 -85.5 40 Q-83 57 -80 74 Q-77 87 -74 100.5 Q-71 114 -66 127 Q-61 144 -56 160 Q-51 176 -46 192 Q-42 203 -37.5 214 Q-33 225 -28 238 Q-23 252 -17.5 263.5 Q-12 275 -7 286 Q4 311 18 336 Q34 366 54 399 Q62 411 69 422 Q76 433 83 443 Q88 451 94.5 459.5 Q101 468 108 477 Q115 485 121.5 494 Q128 503 136 512 Q151 528 163 541.5 Q175 555 186 566 Q194 575 203.5 583.5 Q213 592 221 600 L223 602 Q230 608 236.5 613.5 Q243 619 250 625 L252 626 Q257 631 263 635.5 Q269 640 275 644 Q285 651 294.5 657.5 Q304 664 313 670 Q321 675 328.5 679 Q336 683 344 687 Q355 693 365 697 Q375 701 385 704 Q405 711 430 714 Q454 716 471 713 Q482 711 490 708.5 Q498 706 506 701 Q537 685 548 650 Q553 629 551 612 Q550 602 549 592.5 Q548 583 546 574 Q543 564 540.5 556.5 Q538 549 535 542 Q531 533 527.5 525 Q524 517 519 509 L519 508 Q517 504 515 501 Q513 498 511 495 Q510 494 509.5 493 Q509 492 507 490 L507 489 Q502 484 497 488 Q491 493 494 499 Q495 503 498 507 L501 513 Q502 515 503 517 Q504 519 505 521 Q508 527 511 533.5 Q514 540 517 546 Q522 558 525.5 570 Q529 582 531 596 Q533 605 534 615.5 Q535 626 533 637 Q532 652 522 668 Q515 680 499 687 Q490 692 481 694 Q472 696 465 697 Q453 698 442.5 697.5 Q432 697 422 695 L419 694 Q411 692 404 690.5 Q397 689 389 686 Q380 683 371.5 679.5 Q363 676 355 672 Q344 666 332.5 660 Q321 654 310 646 Q302 641 294 635 Q286 629 279 624 Q270 616 259 607 Q248 598 237 588 Q229 581 221.5 574 Q214 567 206 559 L203 555 Q194 547 187 539.5 Q180 532 174 526 Q167 518 161 511 Q155 504 148 496 L145 492 Q140 487 135.5 481 Q131 475 126 468 Q121 462 115.5 455 Q110 448 105 441 L101 435 Q83 409 65 381 Q59 371 53 360.5 Q47 350 41 340 Q39 337 37 331 Q31 321 27 313.5 Q23 306 19 298 Q12 284 7 272 Q2 260 -3 249 Q-16 222 -25 196 Q-29 186 -32 175.5 Q-35 165 -40 151 Q-45 136 -48.5 122.5 Q-52 109 -56 96 Q-58 87 -60 78 Q-62 69 -64 60 Q-66 49 -67 40 Q-68 31 -70 22 Q-72 10 -72.5 -3 Q-73 -16 -72 -30 Q-71 -45 -69.5 -57.5 Q-68 -70 -63 -82 Q-56 -103 -40 -116 Q-35 -119 -29.5 -121.5 Q-24 -124 -18 -125 Q-4 -127 8 -124 Q20 -121 29 -117 Q37 -112 46 -107.5 Q55 -103 64 -95 Q73 -88 80.5 -82 Q88 -76 94 -70 Q101 -64 107.5 -57 Q114 -50 122 -41 Q130 -32 139 -22.5 Q148 -13 157 -2 Q162 3 166 9 Q170 15 174 20 Q177 23 181 29 L184 32 L202 56 Q217 75 229 92 Q237 103 245.5 114 Q254 125 264 139 Q271 148 277.5 157.5 Q284 167 291 177 Q298 185 304 196 Q308 200 311 204 Q314 208 317 213 L329 231 Q334 237 338.5 243 Q343 249 348 256 L360 274 Q363 278 365.5 281.5 Q368 285 370 289 Q373 293 376 296.5 Q379 300 381 304 Q383 307 385 310 Q387 313 389 316 Q392 321 395.5 324.5 Q399 328 402 333 Q407 342 413 349 L417 356 Q423 364 429.5 373 Q436 382 442 390 Q446 396 450 402 Q454 408 459 414 Q463 419 466.5 424 Q470 429 474 434 Q476 438 478.5 441.5 Q481 445 483 448 Q486 451 488 454 Q490 457 492 461 Q496 466 499.5 471 Q503 476 507 481 Q511 487 515 492.5 Q519 498 523 504 L528 511 Q534 519 539.5 527 Q545 535 550 543 Q555 549 559 555.5 Q563 562 568 568 Q572 576 575 579 L580 587 Q584 593 587.5 599 Q591 605 596 612 Q600 618 602 622 Q603 624 604 625 Q605 626 606 628 L610 634 Q617 646 626 660 Q627 663 631 663 Q634 664 639 661 Q646 656 643 648 Q643 647 642 646 Q642 645 641.5 644 Q641 643 641 642 L640 641 Q635 630 630.5 620 Q626 610 621 600 Q616 589 611 579 Q606 569 601 559 L592 541 Q590 539 589 535.5 Q588 532 586 529 Z " />
</font>
</svg>
