<?xml version="1.0" encoding="UTF-8"?>
<svg xmlns="http://www.w3.org/2000/svg" xmlns:xlink="http://www.w3.org/1999/xlink" version="1.2" >
<font id="Osturria">
<font-face  font-family="Osturria" units-per-em="1000" ascent="750" descent="-250" font-style="normal" font-weight="400" font-stretch="normal" cap-height="700" x-height="500" underline-position="-75" underline-thickness="50" />
<missing-glyph  horiz-adv-x="183" d="" />
<glyph glyph-name="NULL" d="" />
<glyph glyph-name="nonmarkingreturn" unicode="&#xd;" horiz-adv-x="183" d="" />
<glyph glyph-name="space" unicode="&#x20;" horiz-adv-x="183" d="" />
<glyph glyph-name="D" unicode="D" horiz-adv-x="527" d="M476 381 Q479 318 473 258 Q459 118 397 2 Q383 -26 365.5 -51.5 Q348 -77 327 -100 Q298 -132 263.5 -156 Q229 -180 187 -197 Q158 -209 126 -212 Q118 -214 109.5 -214 Q101 -214 93 -214 Q59 -214 29 -201 Q3 -190 -14 -172 Q-30 -153 -33 -130 Q-36 -109 -28 -89 Q-19 -71 1 -62 Q9 -58 18 -56 Q27 -54 36 -52 Q44 -50 47 -57 Q51 -65 42 -65 Q34 -67 25.5 -69.5 Q17 -72 9 -76 Q-8 -84 -14 -97 Q-20 -110 -18 -128 Q-17 -136 -15 -143 Q-13 -150 -8 -158 Q-1 -170 15 -180 Q27 -188 39 -192 Q51 -196 64 -198 Q76 -200 87 -200.5 Q98 -201 109 -200 Q139 -197 168 -188 Q214 -172 253 -143 Q282 -123 305.5 -99 Q329 -75 349 -46 Q407 39 436 142 Q459 227 461 324 Q462 344 462 364.5 Q462 385 460 406 Q459 417 458 426.5 Q457 436 455 447 Q453 457 451.5 466.5 Q450 476 448 487 Q447 493 446 498.5 Q445 504 444 509 Q439 529 433 546 Q427 563 417 580 Q387 630 337 666 Q321 677 303.5 684 Q286 691 268 696 Q241 704 215 705 Q206 705 197 705.5 Q188 706 179 705 Q108 701 49 665 Q-7 630 -42 573 Q-58 548 -67 519 Q-72 505 -69 489 Q-68 484 -67 480.5 Q-66 477 -64 473 Q-62 468 -63 466 Q-65 463 -69.5 463 Q-74 463 -76 467 Q-80 473 -81 476 Q-85 485 -85.5 494 Q-86 503 -85 512 Q-83 524 -79 534.5 Q-75 545 -70 556 Q-27 641 57 687 Q77 698 99 705 Q121 712 144 716 Q152 718 160.5 718 Q169 718 177 719 Q182 719 188 719.5 Q194 720 199 719 Q227 719 255 713.5 Q283 708 311 695 Q355 675 391 636 Q407 619 419.5 601.5 Q432 584 440 564 Q447 547 452 531 Q457 515 460 503 Q462 494 463.5 485 Q465 476 467 466 Q469 458 470 449.5 Q471 441 472 433 Q474 419 475 406.5 Q476 394 476 381 Z M143 681 Q148 682 157 678 Q166 674 164 664 Q164 664 163 663 Q161 654 157 655.5 Q153 657 151 659 Q149 661 149 664 Q148 666 148 667 Q146 665 144 664.5 Q142 664 140 662 Q130 650 121 633 Q107 604 98 574 Q89 544 82 512 Q76 484 73.5 455.5 Q71 427 71 398 Q70 366 70 333 Q70 300 70 267 Q70 242 70 217.5 Q70 193 71 168 Q71 148 72 128.5 Q73 109 73 89 Q74 61 74.5 34 Q75 7 74 -20 Q74 -62 65 -101 Q60 -119 51 -135 Q48 -141 43 -144 Q38 -148 31 -146 Q26 -146 22 -144 Q14 -140 14 -130 L14 -129 Q14 -118 21.5 -119 Q29 -120 31 -128 L31 -129 L31 -133 Q32 -132 32.5 -132 Q33 -132 34 -131 L43 -116 Q48 -105 50.5 -92.5 Q53 -80 55 -67 Q58 -43 59 -19 Q60 5 59 31 Q58 54 58 77.5 Q58 101 57 125 Q56 145 55.5 165.5 Q55 186 55 206 Q54 229 54 250.5 Q54 272 54 294 Q55 323 55 351 Q55 379 55 407 Q56 507 90 600 Q101 633 117 659 Q123 669 134 677 Q136 679 143 681 Z " />
<glyph glyph-name="E" unicode="E" horiz-adv-x="564" d="M520 257 Q517 238 514.5 219.5 Q512 201 508 182 Q495 108 466 42.5 Q437 -23 394 -83 Q375 -110 353.5 -134.5 Q332 -159 306 -180 Q283 -200 257 -214.5 Q231 -229 202 -238 Q178 -246 150 -248 Q140 -249 131.5 -249 Q123 -249 114 -247 Q25 -232 -16 -153 Q-33 -119 -36 -84 Q-42 -27 -33 24.5 Q-24 76 3 123 Q46 198 132 227 Q134 228 137.5 229 Q141 230 145 231 L153 233 L155 233 Q156 233 156.5 233.5 Q157 234 158 234 Q159 234 159 234.5 Q159 235 160 235 L161 235 Q160 235 157.5 236 Q155 237 154 237 Q125 249 103.5 269.5 Q82 290 65 316 Q33 367 21 422 Q13 461 17.5 496.5 Q22 532 37 566 Q50 595 68 619 Q86 643 109 664 Q167 716 240 737 Q260 742 279.5 745 Q299 748 319 746 Q345 744 369 737 Q393 730 416 713 Q433 700 445 684 Q457 668 466 651 Q486 612 486 566 Q485 448 382 390 Q371 385 360.5 381.5 Q350 378 338 376 Q319 374 301.5 378.5 Q284 383 267 398 Q246 416 243 443 Q238 484 260 511 Q263 514 266 517 Q269 520 273 522 Q279 525 286 522 Q291 519 291 513 Q289 508 283 508 Q280 509 277 506 Q273 502 270 499 Q267 496 265 491 Q255 472 257 447 Q259 427 273 412 Q287 397 307 392 Q319 389 330.5 390 Q342 391 353 394 Q387 406 412 430 Q464 478 470 551 Q472 578 467 604 Q462 630 448 656 Q434 680 414 697 Q394 714 367 723 Q332 734 299 732 Q259 730 225 716.5 Q191 703 160 683 Q91 640 55 567 Q34 528 31 482 Q29 449 37 416 Q43 392 52 369.5 Q61 347 75 326 Q96 291 127 268 Q144 256 161.5 249.5 Q179 243 198 239 Q200 239 202 239.5 Q204 240 206 240 Q212 239 218 239 Q224 239 229 239 L232 239 Q238 237 238 231 Q240 225 233 223 Q229 222 220 222 Q217 222 214 222.5 Q211 223 207 224 Q200 225 194 224 Q188 223 181 222 Q142 218 110 202.5 Q78 187 51 162 Q36 147 24.5 129.5 Q13 112 4 92 Q-18 43 -23 -12 Q-26 -52 -22 -87 Q-19 -107 -12.5 -126 Q-6 -145 5 -162 Q40 -218 108 -232 Q131 -236 153 -233.5 Q175 -231 196 -224 Q226 -215 251.5 -200 Q277 -185 300 -166 Q325 -144 346 -119.5 Q367 -95 386 -68 Q413 -29 434.5 12.5 Q456 54 472 99 Q482 128 488 157.5 Q494 187 499 217 L505 256 Q505 261 508 264 Q509 268 516 266 Q521 262 520 257 Z " />
<glyph glyph-name="F" unicode="F" horiz-adv-x="416" d="M569 632 Q571 625 565 623 Q562 622 558.5 622 Q555 622 551 621 Q528 618 505 620.5 Q482 623 459 628 Q436 633 414 640 Q392 647 369 654 Q346 662 324.5 669 Q303 676 280 681 Q262 685 244 687.5 Q226 690 208 692 L203 692 Q201 692 200 693 Q200 693 199 692 Q198 684 198 677.5 Q198 671 197 663 Q197 643 196.5 622 Q196 601 196 581 Q195 561 195.5 541.5 Q196 522 196 502 L196 415 L196 318 L196 309 L196 308 L196 305 Q201 305 204.5 305.5 Q208 306 213 306 L246 309 Q259 310 272 311 Q285 312 298 314 Q302 314 305.5 314.5 Q309 315 312 315 L318 316 L336 318 L339 318 Q341 317 343 312 Q343 307 339 305 Q335 303 334 303 L333 303 Q330 302 323 302 L319 301 Q302 299 285 298 Q268 297 251 295 Q245 294 236 293 Q227 292 218 291.5 Q209 291 202.5 290.5 Q196 290 195 290 L195 215 Q194 186 193.5 158 Q193 130 192 102 Q190 67 187 31.5 Q184 -4 179 -39 Q176 -59 172 -78.5 Q168 -98 160 -116 Q155 -133 147 -147 Q139 -161 129 -174 Q109 -201 78 -208 Q64 -211 50 -209.5 Q36 -208 22 -200 Q8 -192 -5 -176 Q-13 -165 -18.5 -152.5 Q-24 -140 -28 -127 Q-35 -100 -34 -75 Q-33 -50 -26 -25 Q-22 -11 -17.5 2 Q-13 15 -8 29 Q-6 32 -3 34 Q2 39 6 33 Q10 30 8 24 Q-3 1 -10 -23.5 Q-17 -48 -18 -75 Q-19 -93 -16.5 -111 Q-14 -129 -6 -146 Q-4 -152 -0.5 -157.5 Q3 -163 7 -168 Q28 -200 66 -195 Q98 -189 116 -165 Q140 -133 153 -91 Q158 -71 161.5 -51.5 Q165 -32 167 -12 Q172 28 174.5 67.5 Q177 107 178 148 Q180 183 180 217 Q180 251 181 286 L181 289 Q179 288 176 288 L173 288 Q171 287 168 287 Q165 287 162 286 Q160 286 158 285.5 Q156 285 154 285 Q147 283 145 290 Q141 296 148 298 Q154 301 162 301 Q167 302 171.5 302.5 Q176 303 181 304 L181 305 L181 322 L181 436 L181 524 Q181 565 181.5 605.5 Q182 646 184 687 L184 694 Q184 695 183 695 L177 695 L171 696 Q158 696 145 696 Q132 696 119 695 Q109 694 99.5 693 Q90 692 80 690 Q60 685 42 677.5 Q24 670 9 656 Q-15 635 -18 599 Q-20 587 -14 579 Q-9 573 -15 569 Q-20 566 -25 572 Q-33 583 -33 594 Q-33 635 -8 661 Q3 673 16.5 681 Q30 689 45 695 Q74 706 107 708 Q118 709 130 709.5 Q142 710 154 710 Q178 710 204 707 Q219 705 234.5 702.5 Q250 700 266 698 Q289 693 311.5 687 Q334 681 357 673 Q380 665 402 658 Q424 651 447 646 Q480 637 513 634 Q524 633 534.5 634 Q545 635 556 637 L561 637 Q567 639 569 632 Z " />
<glyph glyph-name="G" unicode="G" horiz-adv-x="598" d="M576 682 Q595 660 582 638 Q578 631 569.5 624.5 Q561 618 550.5 612.5 Q540 607 530 602.5 Q520 598 514 596 Q494 590 474 585 Q454 580 434 577 Q425 576 404.5 573.5 Q384 571 362 568.5 Q340 566 320.5 564 Q301 562 293 561 Q278 559 263.5 558.5 Q249 558 234 557 Q211 555 188.5 554 Q166 553 143 553 Q139 554 137 551 Q114 519 100.5 483.5 Q87 448 82 407 Q80 388 80 370 Q80 352 84 332 Q95 274 133 228 Q167 190 216 182 Q237 180 256.5 182.5 Q276 185 295 191 Q324 200 348.5 215 Q373 230 396 248 Q423 270 443.5 296.5 Q464 323 481 354 Q504 399 518 453 Q518 456 519 458.5 Q520 461 521 464 Q521 465 523 469 Q526 472 532 471 Q537 469 538 464 Q539 460 539 452 Q538 438 537 423.5 Q536 409 535 395 Q534 374 533.5 353.5 Q533 333 531 312 Q529 251 523.5 191 Q518 131 507 71 L507 68 Q509 66 512 63.5 Q515 61 517 59 Q519 57 519.5 56 Q520 55 522 53 Q524 47 519 44 Q515 41 510 45 Q508 47 507 48 Q506 49 504 51 Q503 49 503 47.5 Q503 46 502 44 Q497 18 490 -8 Q483 -34 473 -59 Q450 -121 408 -167 Q385 -193 356 -209 Q331 -222 303 -223 Q290 -224 274 -218 Q257 -212 246 -195 Q228 -170 233 -138 Q235 -123 240 -109.5 Q245 -96 253 -82 Q277 -42 316 -8 Q338 11 362 27 Q386 43 412 55 Q428 63 444.5 67.5 Q461 72 479 74 L486 74 L493 74 L493 78 Q494 83 495 88 Q496 93 497 98 Q510 188 515 280 Q516 306 517 331 Q518 356 520 382 L520 397 Q520 401 521 407 Q519 405 519 402 Q505 366 487.5 333.5 Q470 301 445 273 Q416 242 383 218.5 Q350 195 310 180 Q299 176 287 173 Q275 170 263 168 Q242 165 221.5 167 Q201 169 180 177 Q163 184 149.5 194 Q136 204 124 217 Q89 258 75 310 Q64 348 65 385.5 Q66 423 76 458 Q89 505 115 546 Q115 547 116 548 Q117 549 118 551 Q119 553 120 554 L105 554 Q82 556 60 559 Q38 562 15 569 Q3 573 -8.5 578 Q-20 583 -32 588 Q-43 594 -49 603 Q-51 607 -53 613 Q-53 619 -49 620 Q-45 622 -42 619 Q-39 616 -39 614 Q-36 607 -29 603 Q-28 602 -27.5 602 Q-27 602 -26 601 Q12 582 50 575 Q67 572 85 570.5 Q103 569 121 568 Q129 568 135 575 Q216 678 348 710 Q348 710 355.5 711.5 Q363 713 372.5 714.5 Q382 716 393 718 Q404 720 412 720 Q460 723 508 714 Q520 712 541 704 Q562 696 576 682 Z M490 60 L485 60 Q483 60 481.5 59.5 Q480 59 478 59 Q447 55 417 41 Q377 21 339 -9 Q319 -26 302 -44 Q285 -62 271 -84 Q255 -109 249 -134 Q244 -154 249 -171 Q254 -188 266 -198.5 Q278 -209 298 -208 Q319 -208 336 -201 Q353 -194 366.5 -184 Q380 -174 392 -162 Q414 -139 429.5 -113 Q445 -87 457 -58 Q468 -32 475.5 -3.5 Q483 25 489 54 L490 60 Z M570 649 Q573 652 573 659 L573 661 Q570 664 571 664 Q570 667 565 672 Q559 678 556 680 L555 680 Q552 682 549.5 683.5 Q547 685 545 687 L544 687 L543 687 L543 688 L542 688 Q540 690 537 690.5 Q534 691 530 693 Q515 698 500.5 701 Q486 704 468 705 Q445 707 412.5 704.5 Q380 702 342 693 Q227 662 152 572 Q152 572 150 568 Q151 568 159 568 Q167 568 178.5 568.5 Q190 569 202 569.5 Q214 570 222 571 Q241 572 259.5 573 Q278 574 297 576 Q306 577 327 579 Q348 581 371.5 584 Q395 587 416.5 590 Q438 593 447 595 Q455 597 462.5 598.5 Q470 600 478 602 Q491 604 501.5 607.5 Q512 611 520 615 Q523 616 525.5 617 Q528 618 530 619 Q532 621 534.5 621.5 Q537 622 539 624 Q553 631 562 640 Q566 644 570 649 Z " />
<glyph glyph-name="H" unicode="H" horiz-adv-x="485" d="M501 -64 Q506 -66 505 -73 Q503 -81 501 -89 Q499 -97 497 -105 Q495 -114 492 -122.5 Q489 -131 486 -140 Q475 -167 450 -187 Q437 -196 422 -198 Q403 -198 390 -186 Q381 -178 374 -166 Q367 -153 362.5 -139 Q358 -125 354 -111 Q350 -96 348 -81 Q346 -66 344 -50 Q342 -33 341.5 -16.5 Q341 0 339 17 Q338 28 338 40 Q338 52 338 64 L338 172 Q338 185 338 198 Q338 211 339 224 Q340 240 340.5 256 Q341 272 342 288 Q343 302 343.5 317 Q344 332 346 346 Q347 364 348.5 382.5 Q350 401 352 419 L352 426 Q348 424 349 424 Q323 397 294.5 374 Q266 351 236 328 Q214 312 192 296 Q170 280 148 263 Q141 258 135 253 Q129 248 123 243 Q120 240 119 236 Q119 226 118.5 216 Q118 206 117 195 Q117 182 116.5 169.5 Q116 157 115 143 Q114 132 113.5 120 Q113 108 112 97 Q111 83 110 69.5 Q109 56 107 42 Q105 28 103.5 14 Q102 0 100 -14 Q96 -40 90 -66 Q84 -92 73 -117 Q68 -127 63 -136.5 Q58 -146 50 -154 Q38 -166 25 -170 Q8 -173 -3 -163 Q-12 -156 -18 -145 Q-25 -132 -29 -119 Q-33 -106 -35 -92 Q-38 -71 -37.5 -50 Q-37 -29 -34 -8 Q-27 50 -2 106 Q30 177 86 229 Q90 233 94 236.5 Q98 240 102 244 Q105 247 105 251 Q106 259 106 267.5 Q106 276 107 285 Q107 296 107.5 307.5 Q108 319 109 331 Q109 342 109.5 353 Q110 364 110 375 Q111 409 111.5 442.5 Q112 476 113 511 Q113 537 112.5 564 Q112 591 112 618 Q112 629 111.5 639 Q111 649 111 660 Q111 665 112 667 Q114 671 119 671 Q125 669 125 665 Q126 661 126 653 L126 631 Q127 594 127 558 Q127 522 127 486 Q127 468 127 450.5 Q127 433 126 416 Q125 398 125 380 Q125 362 124 344 Q123 330 122.5 316 Q122 302 122 288 Q121 282 121 272 Q121 262 121 261 Q121 261 131.5 268.5 Q142 276 156 287 Q170 298 186 309.5 Q202 321 213 330 Q233 344 252 358.5 Q271 373 290 389 Q306 403 321.5 417 Q337 431 351 447 Q355 450 355 455 Q357 481 360.5 506.5 Q364 532 369 558 Q376 588 384 617.5 Q392 647 403 675 Q410 690 420 707 Q422 711 424.5 714 Q427 717 430 720 Q448 735 463 717 Q469 710 471.5 702.5 Q474 695 476 687 Q479 671 478 656 Q477 641 475 626 Q470 603 461.5 581.5 Q453 560 441 540 Q410 490 374 450 Q368 444 368 437 Q367 426 366 415 Q365 404 364 393 Q363 379 362 365 Q361 351 360 337 Q358 322 357.5 307 Q357 292 356 277 Q355 254 354.5 232.5 Q354 211 353 188 Q351 155 351.5 121.5 Q352 88 352 55 Q353 36 354 18 Q355 0 356 -18 Q357 -35 359 -52 Q361 -69 364 -86 Q367 -103 371 -119 Q375 -135 382 -150 Q389 -164 395 -171 Q407 -184 423 -183 Q433 -182 441 -175 Q461 -161 472 -135 Q477 -123 480.5 -110.5 Q484 -98 487 -85 L490 -73 Q490 -72 492 -68 Q495 -62 501 -64 Z M374 494 Q373 489 372.5 484 Q372 479 372 474 Q372 472 371 471 L371 469 L373 471 L373 470 Q374 471 374 471.5 Q374 472 375 473 L375 474 Q380 480 385 486 Q390 492 395 499 Q409 517 421.5 536.5 Q434 556 444 577 Q460 612 463 652 Q466 673 460 692 Q457 702 452 708 Q446 714 440 709 Q436 706 433 700 Q429 694 425.5 687.5 Q422 681 418 674 Q408 651 401.5 627 Q395 603 389 579 Q384 558 380.5 537 Q377 516 374 494 Z M103 205 Q104 210 103.5 215 Q103 220 103 225 Q103 225 102 224 Q49 177 18 115 Q3 85 -6 53.5 Q-15 22 -20 -12 Q-22 -31 -23 -49.5 Q-24 -68 -21 -88 Q-18 -114 -6 -136 Q-4 -140 -1.5 -143.5 Q1 -147 4 -150 Q14 -161 28 -153 Q36 -147 39 -143 Q50 -132 57 -115 Q65 -99 69.5 -83 Q74 -67 78 -50 Q84 -22 88 5.5 Q92 33 94 61 Q96 84 97.5 107 Q99 130 101 153 Q102 167 102.5 179.5 Q103 192 103 205 Z " />
<glyph glyph-name="I" unicode="I" horiz-adv-x="292" d="M285 702 Q283 694 281 690 Q272 664 263 639.5 Q254 615 246 589 Q238 566 232.5 542 Q227 518 223 492 Q218 463 214.5 434 Q211 405 209 375 Q207 351 207 327.5 Q207 304 206 280 L203 148 L203 60 Q202 37 202 13.5 Q202 -10 202 -33 Q201 -56 201 -79.5 Q201 -103 199 -126 Q199 -154 190 -181 Q185 -192 177 -199 Q167 -210 152.5 -205 Q138 -200 130 -186 Q128 -182 126.5 -178 Q125 -174 123 -169 Q121 -166 123 -163 Q123 -158 130 -160 Q134 -160 137 -166 L143 -181 Q143 -182 145 -184 Q154 -198 165 -189 Q172 -182 177 -170 Q185 -140 185 -111 Q186 -76 186 -40.5 Q186 -5 187 31 Q188 78 188 124 Q188 170 189 217 Q190 247 190.5 277.5 Q191 308 192 339 Q193 370 195.5 400 Q198 430 203 460 Q207 486 211 511 Q215 536 221 561 Q226 581 232.5 600 Q239 619 246 639 Q247 642 249 646.5 Q251 651 253 656 Q255 661 257 667 L256 666 L247 660 Q235 652 221.5 647 Q208 642 194 637 Q144 624 100 598 Q41 560 20 495 Q17 484 16 471.5 Q15 459 15 447 Q16 441 16 435.5 Q16 430 16 425 L16 412 Q16 410 15 409 Q12 406 9 406 Q8 406 5 409 Q3 411 3 411.5 Q3 412 2 414 Q1 416 1 420 L1 423 L1 430 Q0 435 0 444 Q0 455 0 465 Q0 475 2 486 Q12 535 45 572 Q75 605 122 627 Q138 635 155 641 Q172 647 190 652 Q207 657 221.5 663.5 Q236 670 248 681 Q254 686 258 692 Q262 698 267 704 Q269 708 270 709 Q273 713 279 711 Q285 708 285 702 Z " />
<glyph glyph-name="J" unicode="J" horiz-adv-x="334" d="M250 616 Q243 620 236.5 624 Q230 628 222 631 Q202 642 181.5 652 Q161 662 141 672 Q124 680 107.5 686.5 Q91 693 74 697 Q62 700 50 702.5 Q38 705 26 707 Q14 709 2.5 709.5 Q-9 710 -20 709 Q-47 708 -70.5 699.5 Q-94 691 -113 674 Q-140 649 -143 607 Q-146 583 -142 559 Q-141 553 -137 546 Q-137 545 -136.5 544.5 Q-136 544 -136 543 Q-134 536 -140 535 Q-145 533 -149 539 Q-151 544 -152.5 548 Q-154 552 -156 556 Q-160 573 -159.5 589.5 Q-159 606 -157 622 Q-145 686 -83 711 Q-61 721 -38 722 Q-27 724 -15.5 724.5 Q-4 725 8 723 Q66 718 122 695 Q147 685 170.5 673 Q194 661 217 649 Q240 637 262 625.5 Q284 614 307 604 Q324 596 340.5 590 Q357 584 374 581 Q391 576 409 578 Q440 580 453 602 Q458 611 457 621 Q457 622 455 626 Q455 628 454 628 Q451 634 456 638 Q462 640 466 634 Q472 626 472 618 Q473 597 457 581 Q443 567 419 564 Q399 561 380.5 565 Q362 569 342 575 Q306 588 268 607 Q268 607 264 609 Q263 603 262.5 597.5 Q262 592 262 587 Q260 563 259.5 539 Q259 515 258 490 Q258 470 258 450 Q258 430 259 410 Q259 393 260 376.5 Q261 360 262 343 Q263 329 263 315 Q263 301 264 287 Q265 272 266 257.5 Q267 243 267 228 Q268 205 268 183 Q268 161 268 138 Q267 113 266.5 88 Q266 63 264 37 Q262 6 258.5 -24 Q255 -54 248 -83 Q243 -102 237 -119 Q231 -136 221 -152 Q203 -182 175 -198 Q153 -210 126 -207 Q94 -204 65 -184 Q36 -164 21 -134 Q16 -123 11.5 -112 Q7 -101 5 -90 Q3 -82 1 -75 Q-1 -68 -3 -60 Q-8 -28 -6.5 1 Q-5 30 6 57 Q17 85 36 107 Q56 128 81 134 Q89 136 96 136.5 Q103 137 111 135 Q128 132 135 117 Q137 113 138.5 109.5 Q140 106 142 102 Q146 94 139 94 Q132 92 129 99 Q127 101 126.5 104 Q126 107 124 110 Q122 116 117.5 118 Q113 120 108 121 Q96 123 85.5 119.5 Q75 116 66 111 Q56 105 49 97 Q42 89 36 80 Q26 64 19 47.5 Q12 31 10 12 Q7 -11 8 -31 Q10 -44 11.5 -56.5 Q13 -69 17 -81 Q20 -95 24.5 -108.5 Q29 -122 37 -135 Q63 -179 113 -191 Q134 -196 151 -191 Q168 -186 182 -174 Q196 -163 205 -148.5 Q214 -134 221 -117 Q229 -98 233.5 -78 Q238 -58 241 -38 Q246 -5 248.5 28 Q251 61 252 95 Q253 117 253 139 Q253 161 254 184 Q254 198 253.5 213 Q253 228 252 243 Q251 260 250.5 278 Q250 296 248 314 Q247 329 246.5 344.5 Q246 360 245 376 Q243 416 242.5 456 Q242 496 244 535 Q246 552 246.5 568.5 Q247 585 248 602 Q248 606 248.5 609 Q249 612 250 616 Z " />
<glyph glyph-name="K" unicode="K" horiz-adv-x="439" d="M209 703 Q207 703 207 703 Q188 692 168 683.5 Q148 675 128 665 Q118 660 109 656.5 Q100 653 91 648 Q71 637 54.5 622.5 Q38 608 24 591 Q-3 556 -17 518 Q-21 507 -23.5 495 Q-26 483 -26 469 Q-26 453 -19 438 Q-19 436 -17 434 Q-17 428 -21 427 Q-27 425 -30 430 Q-32 434 -33 435 Q-43 457 -41 481 Q-36 523 -17 557 Q-4 581 12.5 602.5 Q29 624 51 641 Q64 651 78 658.5 Q92 666 107 673 Q125 681 143 689.5 Q161 698 180 706 Q190 711 199 717 Q208 723 216 730 Q218 732 219.5 733 Q221 734 223 736 Q229 739 234 736 Q240 731 237 725 Q236 723 235.5 721.5 Q235 720 234 718 Q223 695 212 672 Q201 649 190 626 Q178 600 171 571.5 Q164 543 160 514 Q155 483 153.5 452 Q152 421 151 389 Q150 363 150 337.5 Q150 312 149 286 L149 281 Q151 281 152 282 Q153 283 155 283 Q181 300 203 320.5 Q225 341 246 363 Q278 397 306 433.5 Q334 470 357 511 Q368 528 377 544 Q386 560 396 577 Q418 613 443 641 Q455 655 470.5 666 Q486 677 504 685 Q515 690 526 693.5 Q537 697 549 699 Q554 700 558 700 Q562 700 567 700 Q568 700 569 699 Q575 698 577 691 Q577 684 570 686 Q556 688 545.5 684.5 Q535 681 524 677 Q509 670 494.5 662.5 Q480 655 468 644 Q460 636 452.5 627.5 Q445 619 438 610 Q422 589 408.5 567 Q395 545 382 522 Q350 464 310 413 Q270 362 222 316 Q209 305 195.5 294 Q182 283 167 273 Q166 272 165 271.5 Q164 271 163 269 Q172 265 180 260 Q188 255 196 249 Q224 226 245 193 Q256 176 263.5 159.5 Q271 143 278 126 Q291 88 302 51 Q307 34 310.5 18 Q314 2 319 -15 Q324 -32 328 -48.5 Q332 -65 337 -82 Q340 -95 344 -107 Q348 -119 355 -131 Q360 -138 364 -144.5 Q368 -151 374 -156 Q379 -161 384.5 -164 Q390 -167 397 -168 Q404 -170 412 -168 Q425 -163 432 -156 Q442 -143 447 -131 Q454 -114 459.5 -97 Q465 -80 468 -61 Q468 -56 469 -53 Q469 -52 469.5 -51.5 Q470 -51 470 -50 Q474 -44 479 -47 Q486 -49 484 -56 Q483 -63 482 -69 Q481 -75 479 -82 Q476 -96 472 -109 Q468 -122 463 -135 Q459 -143 454.5 -151 Q450 -159 444 -166 Q430 -182 409 -183 Q392 -185 377 -174 Q370 -170 365 -165 Q360 -160 355 -155 Q340 -137 332 -113 Q327 -99 323 -86 Q319 -73 316 -59 L301 -2 L286 55 Q279 79 271.5 102.5 Q264 126 253 149 Q239 180 217 209 Q196 235 171 250 Q166 253 160.5 255.5 Q155 258 149 259 L149 240 Q149 189 147.5 138 Q146 87 144 36 Q142 4 140 -28 Q138 -60 134 -92 Q131 -123 120 -155 Q113 -172 104 -184 Q97 -193 89 -198 Q79 -204 61 -201 Q43 -198 32 -182 Q16 -160 16 -134 Q17 -132 17 -129.5 Q17 -127 18 -124 Q20 -115 23.5 -107.5 Q27 -100 31 -92 Q31 -91 33 -89 Q36 -86 41 -89 Q46 -91 46 -96 Q44 -100 44 -102 Q40 -110 37 -117.5 Q34 -125 32 -134 Q29 -151 40 -171 Q44 -177 48 -181 Q54 -186 63 -187.5 Q72 -189 78 -186 Q86 -182 91 -174 Q100 -162 107 -145 Q113 -127 116 -109 Q119 -91 121 -72 Q125 -36 126.5 0 Q128 36 130 72 Q132 120 132.5 166.5 Q133 213 134 261 Q135 297 135 333.5 Q135 370 136 407 Q137 445 140 482 Q143 519 151 556 Q158 595 175 631 Q183 648 190.5 664.5 Q198 681 206 698 Q207 700 207.5 700.5 Q208 701 209 703 Z " />
<glyph glyph-name="L" unicode="L" horiz-adv-x="365" d="M213 648 Q211 649 211 649 Q183 661 156 671.5 Q129 682 101 690 Q86 695 71 697.5 Q56 700 41 702 Q12 707 -15 705 Q-41 703 -64.5 698 Q-88 693 -109 681 Q-141 662 -151 628 Q-159 600 -153 573 Q-153 572 -152.5 571 Q-152 570 -152 568 Q-149 563 -154 560 Q-159 558 -164 563 Q-166 565 -166 568 Q-169 577 -169 585 Q-172 613 -165 636 Q-152 672 -122 691 Q-94 709 -59 715 Q-45 717 -30.5 718.5 Q-16 720 -2 720 Q35 719 74 711 Q103 705 132 695 Q161 685 190 673 Q198 670 205.5 666.5 Q213 663 221 660 Q221 660 223 664 Q229 672 236.5 680 Q244 688 253 695 Q264 703 275.5 708 Q287 713 301 714 Q320 715 337 709 Q354 703 368 688 Q383 671 380 656.5 Q377 642 367 635 Q357 627 340 624 Q320 620 300.5 622.5 Q281 625 261 631 Q254 633 248 635.5 Q242 638 235 640 Q231 642 228 642 Q226 638 224 635 Q208 598 200 555 Q195 532 193 507.5 Q191 483 192 458 Q192 432 193 407 Q194 382 196 356 Q199 291 196 228 Q195 202 194.5 176.5 Q194 151 192 125 Q189 83 183 41 Q180 20 175.5 -1 Q171 -22 166 -42 Q161 -61 155 -79 Q149 -97 141 -114 Q141 -114 139 -118 Q144 -119 148.5 -119 Q153 -119 158 -121 Q172 -124 186 -127 Q200 -130 214 -134 Q238 -139 261.5 -144 Q285 -149 308 -153 Q319 -155 329 -156.5 Q339 -158 350 -160 Q358 -161 366.5 -161.5 Q375 -162 383 -164 Q394 -165 405 -165.5 Q416 -166 427 -168 Q441 -169 454.5 -169.5 Q468 -170 481 -169 Q498 -168 518 -161 Q531 -156 540.5 -148 Q550 -140 558 -129 Q560 -127 560.5 -125.5 Q561 -124 563 -122 L567 -118 Q573 -113 578 -118 Q583 -124 578 -129 Q576 -131 574.5 -133.5 Q573 -136 571 -139 Q544 -176 495 -182 Q472 -185 452 -184 Q441 -183 429.5 -182 Q418 -181 407 -180 Q397 -179 388 -178.5 Q379 -178 370 -176 Q359 -175 347.5 -173.5 Q336 -172 325 -170 Q309 -167 293 -164.5 Q277 -162 261 -158 Q241 -154 221.5 -149.5 Q202 -145 182 -140 Q171 -138 160 -136 Q149 -134 138 -132 Q131 -131 128 -136 Q123 -143 118.5 -149 Q114 -155 109 -160 Q102 -169 89 -172 Q81 -174 75 -171 Q67 -169 63 -162.5 Q59 -156 61 -148 Q64 -140 71 -134 Q85 -120 110 -118 Q118 -117 120.5 -116 Q123 -115 127 -107 Q145 -70 154 -27 Q158 -11 160.5 4.5 Q163 20 167 35 Q170 53 171.5 71 Q173 89 175 108 Q178 139 179.5 170.5 Q181 202 182 234 L182 326 Q182 340 181 353.5 Q180 367 180 381 Q178 414 177 446.5 Q176 479 178 511 Q184 584 212 646 Q212 647 212.5 647 Q213 647 213 648 Z M235 654 Q244 652 251 649 Q258 646 266 644 Q300 634 333 638 Q339 640 345 641.5 Q351 643 356 647 Q364 653 364.5 662 Q365 671 357 679 Q348 689 336 694 Q314 704 291 697 Q266 689 247 668 Q244 665 241.5 662 Q239 659 235 654 Z M76 -156 Q79 -158 82 -157.5 Q85 -157 87 -156 Q95 -152 100 -146 Q105 -140 110 -133 Q107 -134 104.5 -134 Q102 -134 100 -135 Q89 -138 81 -145 Q76 -150 76 -156 Z " />
<glyph glyph-name="M" unicode="M" horiz-adv-x="718" d="M161 117 Q164 118 168 120 Q176 128 182 140 Q190 155 194.5 171 Q199 187 204 204 Q227 287 240 373 Q243 397 246.5 421 Q250 445 252 469 Q256 498 259 527.5 Q262 557 265 586 Q267 605 271 622.5 Q275 640 282 657 Q289 674 299 684 Q302 686 305 687.5 Q308 689 312 690 Q325 692 337 680 Q341 675 343.5 671 Q346 667 348 662 Q355 644 358 625 Q362 603 363 582.5 Q364 562 365 542 Q365 513 365 485 Q365 457 363 429 Q361 402 359.5 375.5 Q358 349 356 322 Q354 289 352.5 255 Q351 221 353 186 Q354 180 354 173.5 Q354 167 355 160 L356 160 L356 162 Q369 205 381 248 Q393 291 406 334 Q431 414 461 490 Q471 513 482 535.5 Q493 558 504 580 Q512 594 519.5 607 Q527 620 536 632 Q550 651 568 662 Q577 669 591 671 Q602 672 611 666.5 Q620 661 625 651 Q632 634 634 618 Q638 595 639 573.5 Q640 552 640 530 Q640 504 639.5 478.5 Q639 453 638 427 Q636 382 632 337 Q628 292 625 247 Q623 225 622 203.5 Q621 182 619 159 Q617 121 617.5 82.5 Q618 44 620 4 Q621 -13 622.5 -29 Q624 -45 628 -62 Q631 -73 634.5 -83 Q638 -93 643 -104 Q649 -117 660 -126 Q675 -142 695 -140 Q708 -138 717 -133 Q726 -128 733 -120 Q742 -110 748 -98 Q754 -86 759 -73 Q770 -46 775 -17 Q780 12 782 43 Q783 60 784 76 Q785 92 786 108 Q788 118 789 122 Q791 128 798 127 Q805 127 808 121 Q812 116 806 114 Q804 112 804 111 Q803 106 802.5 101.5 Q802 97 802 92 Q800 71 799 49.5 Q798 28 796 7 Q790 -51 766 -102 Q761 -113 753.5 -123 Q746 -133 735 -141 Q720 -153 703 -154 Q668 -156 642 -125 Q635 -117 630.5 -108 Q626 -99 622 -90 Q613 -67 610 -46 Q607 -25 605 -4 Q602 24 602 50.5 Q602 77 602 103 Q602 160 605.5 214 Q609 268 614 323 Q616 343 617 363 Q618 383 620 403 Q622 445 623.5 487 Q625 529 623 573 Q622 587 621 601.5 Q620 616 616 631 Q615 636 614 641.5 Q613 647 609 652 Q605 657 600 657 Q591 657 583 652 Q575 647 568 641 Q561 635 556 628 Q546 617 538.5 604.5 Q531 592 524 578 Q513 558 502.5 537.5 Q492 517 483 496 Q473 474 465 451.5 Q457 429 449 406 Q426 343 407 278.5 Q388 214 371 148 Q369 143 367.5 137.5 Q366 132 364 127 Q364 125 362 123 Q359 118 352 121 Q345 124 344 130 Q342 138 342 141 Q338 165 337 187.5 Q336 210 336 232 Q336 261 337.5 288.5 Q339 316 341 344 Q343 369 344 394 Q345 419 347 445 Q349 481 349 517 Q349 553 346 591 Q345 604 344 616.5 Q343 629 339 643 Q337 649 335 655 Q333 661 331 667 Q330 669 329 670.5 Q328 672 326 674 Q324 676 321 676 Q319 675 317.5 675 Q316 675 315 673 Q310 670 306.5 665 Q303 660 301 655 Q294 642 290 628 Q286 614 284 599 Q282 581 280 562.5 Q278 544 276 525 Q271 478 265.5 432 Q260 386 252 341 Q247 310 240.5 280 Q234 250 226 221 Q221 201 216 182 Q211 163 203 144 Q200 135 196 127 Q192 119 184 112 Q182 110 179.5 108.5 Q177 107 175 105 Q167 101 159 105 Q151 109 146 117 Q141 125 139 132 Q137 139 135 146 Q132 163 131 179 Q130 195 130 211 Q130 238 131.5 265 Q133 292 135 319 L147 451 Q149 474 151 495.5 Q153 517 155 540 Q157 568 157 596.5 Q157 625 155 654 Q154 658 153.5 661.5 Q153 665 152 670 Q150 668 150 667 Q136 646 126 618 Q118 594 109.5 569.5 Q101 545 93 521 Q87 504 80 487 Q73 470 65 454 Q60 445 54 436.5 Q48 428 40 421 Q35 418 31 415.5 Q27 413 21 412 Q8 409 -6 421 Q-15 428 -18 438 Q-23 448 -25.5 457.5 Q-28 467 -29 476 Q-31 502 -26 523 Q-21 544 -10 563 Q-8 567 -4.5 570 Q-1 573 2 576 Q4 578 12 578 Q19 576 22 572 Q25 569 27 562 Q29 559 23 557 Q18 557 13 563 Q11 561 9.5 559.5 Q8 558 7 556 Q-5 540 -10 514 Q-17 486 -11 458 Q-9 452 -7 445.5 Q-5 439 0 432 Q7 423 15 426 Q16 426 16 426.5 Q16 427 17 427 Q23 430 27.5 434 Q32 438 37 443 Q45 454 51 465 Q57 476 62 489 Q71 515 80 540.5 Q89 566 98 592 Q105 611 111.5 630 Q118 649 128 666 Q131 671 134 675 Q137 679 140 683 Q144 687 147 687 Q157 690 164 679 Q167 674 168 668.5 Q169 663 170 658 Q172 643 172.5 628 Q173 613 173 599 Q173 560 170 522.5 Q167 485 163 447 Q160 415 157 384 Q154 353 152 321 Q150 304 149 287 Q148 270 147 253 Q146 230 146 207 Q146 184 149 159 Q151 141 156 126 Q158 124 158.5 121.5 Q159 119 161 117 Z " />
<glyph glyph-name="N" unicode="N" horiz-adv-x="592" d="M596 -183 Q579 -180 566.5 -171 Q554 -162 544 -149 Q540 -145 537.5 -141 Q535 -137 532 -132 Q520 -112 514 -92 Q507 -71 502 -46 Q499 -33 497 -20.5 Q495 -8 493 5 Q490 27 489 48 Q488 69 487 90 Q486 121 487 151 Q488 181 489 212 Q491 251 492 290.5 Q493 330 495 370 Q496 402 494.5 434 Q493 466 490 498 Q489 511 488 523.5 Q487 536 485 549 Q483 563 479.5 577 Q476 591 471 606 Q467 616 463 626 Q459 636 451 646 Q440 660 425 665.5 Q410 671 396 665 Q382 660 373 648 Q363 637 355.5 623 Q348 609 342 595 Q321 544 309 486 Q305 467 301.5 448 Q298 429 294 410 Q289 385 285 360.5 Q281 336 276 312 Q271 281 265 251 Q259 221 254 191 Q248 157 241.5 123.5 Q235 90 227 58 Q223 42 219 26.5 Q215 11 210 -5 Q208 -11 205.5 -16.5 Q203 -22 201 -28 Q199 -31 193 -37 Q183 -45 173 -31 Q168 -26 166.5 -20.5 Q165 -15 163 -9 Q158 10 156 28.5 Q154 47 153 65 Q151 104 151.5 142 Q152 180 151 219 Q151 245 150.5 271.5 Q150 298 151 324 Q152 351 153.5 378 Q155 405 156 432 Q158 465 158.5 498 Q159 531 160 565 Q161 580 159 595 Q157 610 155 626 Q153 633 151.5 639.5 Q150 646 148 653 Q148 655 147 657.5 Q146 660 145 662 L140 657 Q135 649 131.5 641 Q128 633 124 625 Q114 597 106.5 568.5 Q99 540 92 511 Q88 494 84 478.5 Q80 463 75 446 Q70 432 62 422 Q59 420 56 418 Q53 416 48 415 Q36 415 26 424 Q17 433 12 445 Q5 462 4.5 478.5 Q4 495 6 511 Q8 522 10 532 Q12 542 17 551 Q19 553 20.5 556 Q22 559 24 561 Q25 562 26 562 Q27 562 29 563 Q35 563 38 559 Q41 554 38 551 Q30 543 27 531.5 Q24 520 22 508 Q20 499 19.5 490 Q19 481 21 471 Q23 453 31 439 Q31 437 32 437 Q41 425 49 433 Q58 442 61 457 Q72 493 79 527 Q86 556 93.5 584 Q101 612 112 639 Q115 646 118.5 652 Q122 658 125 665 Q127 667 128.5 669 Q130 671 132 673 Q138 678 145.5 675.5 Q153 673 158 665 Q160 661 161.5 657 Q163 653 165 648 Q169 634 170.5 620 Q172 606 174 592 Q176 566 176 541.5 Q176 517 174 492 Q173 458 171.5 424 Q170 390 168 355 Q166 325 166 294.5 Q166 264 167 233 L167 119 Q168 97 168.5 76 Q169 55 171 34 Q173 9 180 -15 Q181 -17 181.5 -19 Q182 -21 183 -23 L184 -23 Q185 -21 186 -20 Q187 -19 188 -17 Q193 -6 196.5 5.5 Q200 17 203 28 Q208 51 213.5 73.5 Q219 96 224 119 Q228 137 231 154.5 Q234 172 238 190 Q240 205 243 220.5 Q246 236 249 251 Q252 267 255 282.5 Q258 298 260 314 Q263 330 266 345.5 Q269 361 271 376 Q275 395 278 413.5 Q281 432 285 451 Q293 493 303.5 533 Q314 573 331 611 Q337 625 344 637 Q351 649 361 660 Q375 676 393 680 Q412 685 431 677 Q450 669 464 651 Q473 638 480 621 Q488 602 492 584 Q495 573 497 562.5 Q499 552 501 541 Q506 511 507.5 481.5 Q509 452 510 423 Q511 391 510.5 359.5 Q510 328 508 296 Q506 253 505 210.5 Q504 168 502 124 Q502 101 502.5 77.5 Q503 54 506 30 Q507 17 508.5 4.5 Q510 -8 512 -21 Q516 -50 526 -82 Q534 -110 549 -135 Q554 -143 561 -150 Q568 -157 577 -162 Q588 -169 595 -168 Q603 -168 609 -162 Q617 -154 621.5 -145 Q626 -136 629 -125 Q634 -110 636 -94.5 Q638 -79 638 -62 Q639 -42 637.5 -21.5 Q636 -1 634 20 Q633 21 633 24 Q633 27 630 29 Q627 33 629 37 Q633 41 638 38 Q646 35 648 25 Q652 -7 653.5 -37.5 Q655 -68 652 -97 Q647 -136 629 -163 Q627 -167 621 -173 Q614 -180 601 -182 Q600 -182 600 -183 L596 -183 Z " />
<glyph glyph-name="O" unicode="O" horiz-adv-x="718" d="M69 60 Q64 80 61 98.5 Q58 117 56 137 Q51 180 54 221 Q57 262 66 301 Q87 399 135 483 Q146 503 160 521 Q174 539 192 555 Q204 566 218.5 574.5 Q233 583 250 588 Q264 593 280.5 593.5 Q297 594 314 589 Q364 575 383 533 Q390 519 390.5 507 Q391 495 388 482 Q384 470 378.5 459.5 Q373 449 366 439 L351 418 Q350 416 348 414 Q346 412 343 412.5 Q340 413 338 415 Q333 418 335 424 Q336 426 337 426.5 Q338 427 339 429 Q347 440 354.5 450.5 Q362 461 367 473 Q371 481 373.5 489.5 Q376 498 375 508 Q373 531 355.5 550 Q338 569 312 576 Q284 583 257 575 Q241 570 228 562 Q215 554 204 544 Q188 530 176 514 Q164 498 153 481 Q139 457 127.5 432 Q116 407 106 381 Q95 353 87.5 324 Q80 295 75 265 Q66 211 69 154 Q70 140 72 127 Q74 114 76 100 Q78 86 81.5 71.5 Q85 57 89 43 Q97 17 108.5 -7.5 Q120 -32 137 -56 Q153 -82 177 -105 Q207 -134 250 -146 Q292 -158 329 -154 Q355 -152 378.5 -144 Q402 -136 423 -124 Q445 -113 464 -98.5 Q483 -84 500 -67 Q522 -45 540 -20.5 Q558 4 573 30 Q587 53 599 77 Q611 101 620 127 Q637 173 646 221 Q655 269 655 320 Q655 334 654 348.5 Q653 363 651 378 Q649 393 646 408 Q643 423 638 438 Q626 477 605 513 Q584 549 551 581 Q529 603 504.5 620.5 Q480 638 451 651 Q434 659 416.5 663.5 Q399 668 381 670 Q373 672 366 672 Q359 672 351 672 Q328 673 308 669 Q288 665 268 657 Q247 649 228.5 637.5 Q210 626 194 612 Q179 598 163.5 583 Q148 568 133 554 Q130 552 127.5 549 Q125 546 123 544 Q117 540 114 539 Q108 536 104 542 Q99 547 105 551 Q107 553 110 555.5 Q113 558 115 560 Q135 580 156.5 600 Q178 620 201 638 Q221 653 244 664 Q267 675 294 680 Q326 688 362 686 Q397 684 429 673 Q461 662 493 642 Q538 615 570 581 Q602 547 625 505 Q640 479 649 449 Q658 420 664 392 Q674 328 668 264 Q665 235 659 207 Q653 179 645 151 Q616 54 553 -30 Q531 -59 504.5 -84.5 Q478 -110 445 -130 Q426 -141 404.5 -150 Q383 -159 360 -164 Q331 -170 303 -169 Q279 -167 255.5 -161.5 Q232 -156 209 -143 Q192 -135 179 -123.5 Q166 -112 154 -99 Q118 -60 97 -15 Q80 20 69 60 Z " />
<glyph glyph-name="P" unicode="P" horiz-adv-x="588" d="M487 331 Q473 307 459 288 Q447 271 434 255 Q421 239 406 224 Q396 214 385.5 205.5 Q375 197 363 190 Q348 180 327 177 Q314 175 302 178 Q285 181 280 198 Q276 211 281 226 Q284 237 290 245.5 Q296 254 304 262 Q323 283 346.5 297.5 Q370 312 397 322 Q412 328 427 333.5 Q442 339 459 343 Q464 344 467.5 344.5 Q471 345 476 346 Q478 348 478 348 Q498 385 513.5 424 Q529 463 537 507 Q539 521 539.5 534.5 Q540 548 540 562 Q540 584 536 601 Q533 614 528.5 626.5 Q524 639 516 650 Q510 660 501.5 667 Q493 674 484 680 Q461 693 434 696 Q406 697 379 690 Q325 677 286 635 Q277 624 268.5 613.5 Q260 603 252 592 Q223 551 200.5 508 Q178 465 161 417 Q147 381 137.5 344 Q128 307 120 269 Q109 216 100.5 163.5 Q92 111 86 57 Q86 52 86.5 48 Q87 44 87 39 Q88 29 88.5 19 Q89 9 90 -1 Q91 -8 91.5 -14.5 Q92 -21 92 -29 Q94 -40 94.5 -50 Q95 -60 96 -71 L99 -101 Q100 -118 101 -134.5 Q102 -151 101 -168 Q101 -178 100.5 -187.5 Q100 -197 98 -207 Q96 -213 95 -219.5 Q94 -226 90 -232 Q86 -238 83 -240 Q77 -245 70.5 -242.5 Q64 -240 61 -233 Q59 -228 58 -224.5 Q57 -221 57 -216 Q56 -206 55.5 -196 Q55 -186 55 -175 Q56 -140 58 -105 Q60 -70 62 -35 L71 55 Q71 60 70.5 64.5 Q70 69 70 74 Q70 84 69.5 93.5 Q69 103 69 112 Q68 122 68 131.5 Q68 141 68 151 Q67 162 67 172 Q67 182 67 193 L67 239 Q67 254 67 268.5 Q67 283 68 298 Q69 321 69.5 343.5 Q70 366 71 389 Q73 416 76 442 Q79 468 83 494 Q88 527 94.5 559 Q101 591 111 622 Q113 629 115.5 635 Q118 641 120 647 Q120 649 121 650 Q111 650 106 649 Q86 645 67 642 Q48 639 29 635 Q21 634 14.5 633.5 Q8 633 1 631 Q-15 628 -30 624 Q-45 620 -59 612 Q-69 606 -76 599 Q-83 592 -88 581 Q-90 578 -90.5 574.5 Q-91 571 -92 568 Q-92 564 -91 562 Q-89 555 -94 553 Q-100 551 -104 557 Q-107 561 -107 571 Q-106 579 -103.5 585 Q-101 591 -97 598 Q-88 613 -73.5 621.5 Q-59 630 -43 636 Q-32 640 -20.5 642 Q-9 644 2 646 Q15 648 27 650.5 Q39 653 52 655 L106 664 Q111 665 115.5 665 Q120 665 125 666 Q129 666 130 668 Q138 684 150 692 Q164 701 182 698 Q191 696 195 689 Q199 682 194 675 Q191 668 182 664 Q174 660 165.5 658 Q157 656 149 654 Q147 654 145 653.5 Q143 653 141 653 Q138 653 138 650 Q130 633 124.5 615 Q119 597 114 579 Q107 551 103 523 Q99 495 94 466 Q89 436 87.5 406 Q86 376 84 345 L81 267 L81 211 Q82 197 82 182.5 Q82 168 82 154 Q82 151 83 149 Q84 154 84.5 158.5 Q85 163 86 168 Q101 265 125 355 Q148 444 189 520 Q197 534 205 546.5 Q213 559 221 573 Q243 609 272 642 Q315 692 379 706 Q388 708 397 709 Q406 710 416 711 Q436 711 456 706 Q476 701 495 688 Q525 668 539 636 Q551 606 554 574 Q556 543 552.5 514.5 Q549 486 541 458 Q533 430 522 404 Q511 378 498 352 L498 351 Q496 349 493.5 344 Q491 339 487 332 L487 331 Z M182 683 Q174 686 162.5 681 Q151 676 149 669 Q157 671 163.5 672.5 Q170 674 176 678 Q178 679 182 683 Z M86 -151 Q86 -142 86 -132.5 Q86 -123 85 -114 Q84 -104 83.5 -95 Q83 -86 82 -77 Q81 -70 81 -63.5 Q81 -57 80 -50 Q79 -45 79 -40.5 Q79 -36 78 -31 Q77 -34 77 -40 Q75 -78 72.5 -116 Q70 -154 70 -192 Q70 -200 70.5 -208 Q71 -216 73 -224 Q73 -226 74 -228 Q79 -221 81 -213 Q86 -198 86 -182.5 Q86 -167 86 -151 Z M457 312 Q460 316 462.5 320.5 Q465 325 468 330 Q460 328 457 327 Q439 322 422.5 316 Q406 310 389 303 Q342 283 311 247 Q306 240 301 232.5 Q296 225 294 216 Q293 213 292.5 209.5 Q292 206 294 201 Q296 192 304 192 Q314 190 325 192 Q336 194 346 198.5 Q356 203 364 209 Q378 218 389 229.5 Q400 241 411 252 Q424 266 435 281 Q446 296 457 312 Z " />
<glyph glyph-name="Q" unicode="Q" horiz-adv-x="601" d="M341 -131 Q343 -132 343 -132 Q374 -148 409 -154 Q417 -155 425 -155.5 Q433 -156 441 -156 Q471 -155 495 -141 Q509 -134 519.5 -125.5 Q530 -117 540 -107 Q562 -86 580 -61 Q585 -53 589.5 -45.5 Q594 -38 599 -30 Q601 -27 599 -25 Q594 -18 599 -15 Q602 -12 609 -17 Q618 -24 615 -34 Q611 -42 608 -46 Q595 -69 581 -87 Q567 -103 552.5 -117.5 Q538 -132 520 -145 Q495 -163 461 -169 Q449 -171 436.5 -170.5 Q424 -170 411 -168 Q368 -160 330 -140 Q327 -139 326 -140 Q292 -160 254 -169 Q204 -183 149 -162 Q139 -159 130 -153.5 Q121 -148 112 -143 Q84 -124 63 -100 Q42 -76 25 -48 Q15 -33 7 -18 Q-1 -3 -7 14 Q-13 30 -17 46 Q-21 62 -25 78 Q-27 88 -28.5 97.5 Q-30 107 -31 116 Q-36 140 -37 162 Q-39 179 -40 196.5 Q-41 214 -41 231 Q-40 281 -34 328 Q-28 375 -14 420 Q-1 461 21 501 Q35 526 51.5 548 Q68 570 90 589 Q93 592 97 600 Q114 626 135 646.5 Q156 667 185 680 Q196 685 208.5 687.5 Q221 690 235 691 Q257 692 280 691 Q304 688 332 680 Q369 671 402 652 Q426 638 445 620 Q464 602 480 580 Q492 563 501 546 Q510 529 518 512 Q525 495 530.5 478 Q536 461 539 444 Q541 433 542.5 423 Q544 413 546 402 Q552 333 543.5 269.5 Q535 206 518 144 Q505 92 485 47 Q480 34 473.5 21.5 Q467 9 459 -4 Q436 -41 407 -72.5 Q378 -104 342 -130 Q341 -130 341 -131 Z M130 617 Q133 619 136.5 620 Q140 621 143 623 Q155 628 167.5 631 Q180 634 194 633 Q222 631 242 613 Q286 572 289 521 Q290 502 286.5 484.5 Q283 467 272 452 Q269 447 265 442 Q261 437 257 432 Q253 426 247 432 Q241 437 244 442 L248 446 Q256 456 262.5 466.5 Q269 477 271 491 Q276 516 272 539 Q266 568 241 596 Q226 613 207 617 Q188 621 169 615 Q134 605 104 580 Q104 579 103.5 579 Q103 579 103 578 Q82 542 74 505 Q64 465 61.5 423.5 Q59 382 63 338 Q66 300 75 263 Q81 239 89 215 Q97 191 107 167 Q126 122 147 82 Q167 44 192 7.5 Q217 -29 249 -61 Q265 -78 281.5 -92.5 Q298 -107 318 -118 Q323 -121 324.5 -121 Q326 -121 330 -119 Q330 -119 332 -117 Q399 -69 445 5 Q459 27 472 55 Q485 86 494.5 118 Q504 150 512 183 Q524 236 530 290 Q536 344 531 401 Q529 414 527.5 426.5 Q526 439 523 451 Q520 466 515 480.5 Q510 495 504 509 Q496 526 487.5 542.5 Q479 559 467 575 Q448 601 423.5 621.5 Q399 642 368 654 Q316 676 266 677 Q251 678 236 677 Q221 676 207 672 Q179 663 155 643 Q147 637 141 630.5 Q135 624 130 617 Z M312 -129 L311 -129 Q298 -121 286.5 -112.5 Q275 -104 264 -94 Q231 -62 203 -28 Q175 6 153 44 Q134 76 118 108.5 Q102 141 89 175 Q84 189 79 203 Q74 217 70 231 Q65 245 62 258 Q59 271 56 285 Q52 300 50.5 315.5 Q49 331 47 346 Q45 363 45 380.5 Q45 398 46 415 Q48 448 53 480 Q58 512 69 542 L69 543 L67 541 Q45 513 29 482 Q15 455 5 426 Q-5 397 -12 366 Q-20 330 -23 292.5 Q-26 255 -26 217 Q-24 168 -17 119 Q-15 108 -13 96 Q-11 84 -9 72 Q-1 35 15 -2 Q26 -26 40.5 -49 Q55 -72 74 -93 Q105 -127 143 -146 Q193 -168 241 -157 Q260 -153 277 -146 Q294 -139 310 -131 L312 -129 Z " />
<glyph glyph-name="R" unicode="R" horiz-adv-x="564" d="M142 662 Q138 662 134.5 661.5 Q131 661 126 661 Q120 660 114 659.5 Q108 659 101 659 Q75 657 51.5 650.5 Q28 644 6 632 Q-13 620 -24 604 Q-29 596 -31 586.5 Q-33 577 -28 566 L-28 561 Q-28 557 -33 557 Q-38 555 -40 560 Q-42 562 -44 568 Q-49 590 -40 606 Q-29 628 -7 642 Q22 659 54 666 Q68 670 82 671.5 Q96 673 110 674 Q119 675 128.5 675.5 Q138 676 147 677 Q150 677 152 681 Q160 700 171 714 L181 724 Q192 734 204.5 729.5 Q217 725 225 717 Q232 708 227 699 Q223 690 213 683 Q192 669 167 665 Q160 665 159 659 Q146 630 139 599.5 Q132 569 128 537 Q124 505 122 472 Q120 439 118 407 Q117 390 117 373.5 Q117 357 117 340 Q118 325 118 310 Q118 295 119 280 Q119 276 120 274 Q120 275 120.5 275.5 Q121 276 121 278 Q127 304 133.5 330.5 Q140 357 148 383 Q165 438 187 489.5 Q209 541 238 589 Q271 642 314 681 Q348 711 395 720 Q426 726 457 716 Q486 707 503 680 Q509 670 513 660.5 Q517 651 520 640 Q527 613 527 587 Q527 561 524 535 Q519 497 508 462.5 Q497 428 481 394 Q465 358 444 325.5 Q423 293 397 264 Q378 242 359 222 Q340 202 318 183 Q301 168 282 155.5 Q263 143 240 134 Q235 132 230.5 130.5 Q226 129 221 127 Q220 127 219.5 126.5 Q219 126 218 126 L218 124 Q226 110 232.5 95.5 Q239 81 245 66 Q256 39 267 12 Q278 -15 290 -42 Q304 -75 323 -105.5 Q342 -136 368 -162 Q399 -194 439 -203 Q444 -204 454 -204 Q477 -204 495 -197 Q513 -190 529 -176 Q547 -159 565 -135 Q567 -131 569 -129 Q570 -128 570.5 -127 Q571 -126 572 -125 Q575 -120 580 -121 Q586 -123 586 -129 Q586 -135 582 -139 Q578 -143 576 -146 Q566 -160 555.5 -171.5 Q545 -183 531 -194 Q512 -209 487 -215 Q444 -226 403 -205 Q374 -190 354 -167 Q325 -136 305 -102 Q285 -68 269 -31 Q245 32 218 92 Q215 100 211.5 107 Q208 114 204 122 Q199 122 197 121 Q186 120 174 123 Q163 126 156 133 Q148 141 149.5 149.5 Q151 158 160 162 Q171 166 183 160 Q193 155 204 144 Q205 142 208 139 Q216 141 220 143 Q243 151 263.5 163 Q284 175 303 190 Q326 210 347.5 232.5 Q369 255 389 279 Q424 319 449 364 Q467 398 481.5 434 Q496 470 504 509 Q508 527 510 544.5 Q512 562 512 581 Q512 600 509.5 619 Q507 638 499 657 Q497 660 496.5 662.5 Q496 665 494 667 Q479 699 444 705 Q430 708 417 707.5 Q404 707 390 704 Q350 694 320 665 Q279 627 248 576 Q224 536 205 493.5 Q186 451 171 406 Q151 346 138 283 Q134 266 130.5 248.5 Q127 231 124 214 Q121 203 123 190 Q124 177 125 164 Q126 151 128 137 Q130 123 130.5 110 Q131 97 132 83 Q134 63 135.5 43 Q137 23 139 3 Q141 -16 142 -34.5 Q143 -53 144 -72 Q145 -87 145.5 -102 Q146 -117 146 -132 Q146 -160 137 -185 Q135 -193 131 -197 Q121 -212 108 -196 Q103 -191 101.5 -186 Q100 -181 98 -175 Q95 -161 93.5 -147.5 Q92 -134 91 -120 Q85 -32 91 55 Q93 90 96.5 123.5 Q100 157 105 191 Q107 202 106.5 213.5 Q106 225 105 236 Q105 262 104 289 Q103 316 103 342 Q101 375 103 410 Q105 439 106.5 467.5 Q108 496 112 525 Q114 539 116 553.5 Q118 568 120 582 Q123 601 128.5 619.5 Q134 638 141 656 Q142 658 142 658.5 Q142 659 143 661 L142 662 Z M119 -188 Q121 -185 121.5 -182.5 Q122 -180 124 -177 Q133 -150 131 -118 Q131 -107 130.5 -97.5 Q130 -88 130 -77 Q128 -62 127.5 -46.5 Q127 -31 126 -16 Q124 -3 123 9 Q122 21 121 33 Q119 54 118 75.5 Q117 97 115 118 Q115 123 113 131 Q112 130 112 126 Q110 104 108.5 82.5 Q107 61 105 39 Q103 9 102.5 -21 Q102 -51 104 -81 Q104 -96 105 -110.5 Q106 -125 107 -140 Q109 -150 110.5 -159 Q112 -168 114 -177 Q114 -183 119 -188 Z M170 682 L171 682 Q191 687 206 697 Q208 699 209.5 701 Q211 703 213 705 Q214 708 212 710 Q206 715 201 716 Q196 717 190 712 Q186 708 184 705 Q181 700 177.5 695 Q174 690 171 685 Q170 684 170 682 Z M192 136 Q188 140 184.5 143 Q181 146 176 148 Q174 149 170 149 Q166 147 165 146 Q165 144 168 141 Q173 136 179 135.5 Q185 135 192 136 Z " />
<glyph glyph-name="S" unicode="S" horiz-adv-x="374" d="M351 703 Q371 688 363 665 Q361 659 358 654 Q355 649 352 644 Q336 624 320 610 Q303 593 283.5 579 Q264 565 244 552 Q215 533 185 515 Q155 497 123 482 Q119 479 120 474 Q120 448 133 417 Q141 397 150 377.5 Q159 358 170 338 Q175 327 181.5 317.5 Q188 308 195 299 Q208 279 221 260 Q234 241 247 221 Q271 185 289 146 Q289 145 291 141 Q291 140 292 138 Q293 136 294 133.5 Q295 131 297 127 L300 121 Q307 104 312 86.5 Q317 69 320 50 Q327 15 323.5 -20 Q320 -55 305 -88 Q263 -180 162 -203 Q149 -206 136 -206.5 Q123 -207 109 -203 Q61 -189 47 -139 Q39 -108 51 -74 Q59 -53 70 -34.5 Q81 -16 95 1 Q110 20 128.5 35.5 Q147 51 167 65 Q191 82 217 98 Q243 114 269 128 Q275 132 278 133 Q277 135 277 136 Q277 137 276 139 Q256 182 228 224 Q214 244 201 263.5 Q188 283 174 303 Q158 326 148 348 Q141 362 135 376 Q129 390 122 404 Q115 421 110.5 437.5 Q106 454 105 473 L99 470 Q51 448 2 435 Q-11 432 -24 430 Q-37 428 -51 429 Q-80 431 -101 450 Q-115 464 -119 482.5 Q-123 501 -115 518 Q-105 542 -81 560 Q-79 561 -77.5 562 Q-76 563 -74 564 Q-68 566 -66 560 Q-63 556 -67 552 Q-68 551 -68.5 551 Q-69 551 -70 550 Q-78 545 -84.5 537.5 Q-91 530 -96 522 Q-110 502 -102 478.5 Q-94 455 -67 447 Q-59 444 -51 443.5 Q-43 443 -34 444 Q-20 445 -6 448 Q8 451 22 456 Q42 463 61.5 470.5 Q81 478 100 487 Q105 488 105 494 Q108 529 122 558 Q136 587 158 613 Q172 629 187 643 Q202 657 219 669 Q236 681 255 690.5 Q274 700 295 706 Q311 710 331 710 Q343 708 351 703 Z M284 120 Q283 119 282 119 Q224 88 175 53 Q156 39 138.5 24 Q121 9 106 -9 Q93 -25 82.5 -41.5 Q72 -58 65 -78 Q56 -103 60 -129 Q62 -141 68 -152 Q74 -163 83.5 -172 Q93 -181 106.5 -186.5 Q120 -192 137 -191 Q155 -191 175 -185 Q200 -177 222 -163.5 Q244 -150 261 -130 Q291 -95 302 -55.5 Q313 -16 309 29 Q307 52 300.5 73.5 Q294 95 286 115 Q286 116 284 120 Z M350 672 Q354 688 338 693 Q334 695 325 695 Q318 696 311.5 695 Q305 694 299 692 Q279 687 262 678 Q245 669 228 657 Q211 646 196.5 632 Q182 618 168 602 Q144 575 130 538 Q126 528 124 518 Q122 508 120 497 L122 497 Q124 498 124.5 498.5 Q125 499 127 500 Q162 517 194.5 537 Q227 557 259 579 Q292 602 321 631 Q335 645 343 658 Q346 662 350 672 Z " />
<glyph glyph-name="T" unicode="T" horiz-adv-x="320" d="M277 663 Q277 657 276.5 651 Q276 645 276 639 Q275 631 275 622 Q275 613 274 605 Q274 597 273.5 590 Q273 583 273 575 Q272 567 272 559 Q272 551 272 543 Q271 536 271 530 Q271 524 271 517 Q271 510 270.5 503.5 Q270 497 270 490 Q270 484 270 477.5 Q270 471 269 464 L269 436 Q269 429 269 423 Q269 417 268 410 L268 385 L268 361 Q267 354 267 348 Q267 342 267 336 L267 312 Q266 305 266 299 Q266 293 266 286 L266 265 L266 239 Q265 233 265 227 Q265 221 265 215 Q265 208 265 201.5 Q265 195 264 188 Q264 180 264 173 Q264 166 263 158 Q263 151 263 144 Q263 137 262 130 Q262 123 262 116.5 Q262 110 261 103 Q261 95 260.5 86.5 Q260 78 260 70 Q259 59 258.5 47.5 Q258 36 256 25 Q253 -5 249.5 -34.5 Q246 -64 238 -93 Q232 -113 223.5 -132.5 Q215 -152 203 -169 Q174 -207 127 -216 Q120 -217 114 -217.5 Q108 -218 102 -217 Q65 -215 46 -185 Q33 -166 26 -140 Q23 -129 22 -117 Q21 -105 21 -94 Q21 -59 30 -24 Q33 -14 41 -13 Q42 -13 42.5 -12.5 Q43 -12 44 -12 Q49 -9 53 -13 Q57 -17 55 -22 Q53 -26 47 -27 Q46 -28 45.5 -28 Q45 -28 44 -30 Q41 -42 39 -54.5 Q37 -67 36 -81 Q35 -91 35.5 -100.5 Q36 -110 37 -121 Q40 -150 55 -175 Q69 -199 95 -202 Q109 -204 122.5 -201.5 Q136 -199 149 -194 Q183 -178 202 -142 Q224 -99 232 -48 Q236 -25 238.5 -3 Q241 19 243 42 L246 93 Q247 104 247.5 116 Q248 128 248 140 Q249 151 249 163 Q249 175 250 186 Q250 197 250.5 208.5 Q251 220 251 232 L251 272 Q252 283 252 294.5 Q252 306 252 317 Q253 330 253 342.5 Q253 355 253 368 Q253 380 253.5 392 Q254 404 254 416 Q254 427 254 436.5 Q254 446 255 456 Q255 467 255 477 Q255 487 256 498 Q256 508 256 517.5 Q256 527 257 538 Q257 549 257.5 559 Q258 569 259 580 Q259 590 259.5 599.5 Q260 609 260 620 Q261 629 261 638.5 Q261 648 262 658 L262 659 Q261 661 261 663.5 Q261 666 260 668 Q247 673 233 676 Q201 686 165 692 Q143 696 121 698 Q93 702 66 701 Q36 699 7.5 693 Q-21 687 -47 672 Q-58 665 -69 657 Q-80 649 -88 638 Q-100 623 -101 607 Q-103 592 -98 575 Q-94 568 -101 566 Q-109 564 -111 572 Q-113 577 -113.5 581 Q-114 585 -115 590 Q-120 617 -106 638 Q-102 643 -98.5 648.5 Q-95 654 -90 659 Q-57 692 -5 706 Q26 713 61 715 Q72 716 84 715.5 Q96 715 107 714 Q132 712 157 708 Q182 704 207 698 Q242 689 276 678 Q310 667 344 655 Q367 647 390 638.5 Q413 630 436 622 Q458 614 479 610 Q486 608 492.5 607.5 Q499 607 506 606 Q513 605 519 604 Q525 603 531 603 Q586 603 626 627 Q643 638 650 653 Q652 655 652.5 657.5 Q653 660 655 662 Q658 667 665 664 Q671 661 668 653 Q660 636 647.5 624.5 Q635 613 618 605 Q603 599 588.5 595 Q574 591 557 590 Q549 589 540 589 Q531 589 522 589 Q502 591 482.5 594.5 Q463 598 443 605 Q423 612 404 618.5 Q385 625 365 633 Q344 640 323 647 Q302 654 281 662 Q279 662 277 663 Z " />
<glyph glyph-name="U" unicode="U" horiz-adv-x="686" d="M608 394 L602 367 Q588 306 572 246.5 Q556 187 538 127 Q527 88 513 50.5 Q499 13 482 -23 Q468 -52 452 -78.5 Q436 -105 416 -128 Q399 -148 379.5 -163.5 Q360 -179 335 -190 Q327 -194 318 -196.5 Q309 -199 299 -200 Q252 -203 218 -165 Q208 -154 201 -142.5 Q194 -131 189 -118 Q179 -95 175 -76 Q173 -65 170.5 -54 Q168 -43 166 -32 Q165 -23 164.5 -14.5 Q164 -6 163 3 Q162 14 161.5 25.5 Q161 37 161 48 L161 106 Q162 130 162.5 154 Q163 178 165 202 Q167 225 168.5 248.5 Q170 272 172 295 Q175 333 178 371.5 Q181 410 183 448 Q185 468 185.5 488.5 Q186 509 187 529 Q187 541 187 553.5 Q187 566 186 578 Q186 589 184 600.5 Q182 612 180 623 Q177 636 173 648 Q169 660 162 672 Q160 675 158 677.5 Q156 680 154 682 Q140 699 123 693 Q113 690 105.5 684.5 Q98 679 92 672 Q77 656 68 636.5 Q59 617 54 595 Q50 579 49 563 Q48 547 48 530 Q49 519 50 507.5 Q51 496 53 484 Q56 471 60 458 Q64 445 71 432 Q73 428 75.5 425 Q78 422 80 419 Q85 414 82 409 Q78 405 71 410 Q65 415 61 421 Q57 427 55 433 L43 466 Q41 471 40.5 475.5 Q40 480 39 485 Q35 502 34 518 Q33 534 34 551 Q35 571 38 590.5 Q41 610 48 628 Q60 665 87 690 Q94 695 101 700 Q108 705 117 707 Q144 714 164 691 Q172 683 176.5 674 Q181 665 185 656 Q187 648 189.5 639 Q192 630 194 622 Q198 607 200 591 Q201 578 201.5 565.5 Q202 553 202 540 Q201 489 197.5 438 Q194 387 190 336 Q188 301 185 267 Q182 233 180 198 Q178 174 177.5 149.5 Q177 125 176 101 Q174 72 176 44 Q176 34 176 24.5 Q176 15 177 5 Q178 -9 179.5 -24 Q181 -39 184 -53 Q189 -73 194.5 -93 Q200 -113 211 -133 Q218 -144 226 -154 Q234 -164 246 -172 Q260 -183 281 -185 Q296 -187 309 -183.5 Q322 -180 334 -174 Q355 -163 373 -148.5 Q391 -134 405 -117 Q425 -94 440.5 -68 Q456 -42 469 -14 Q486 23 500 60.5 Q514 98 525 137 Q544 197 559.5 257.5 Q575 318 589 379 Q598 417 606 455 Q614 493 622 531 Q630 569 636 607 Q642 645 649 683 L652 698 Q654 702 654 702 Q657 707 662 705 Q668 701 668 697 Q668 692 666 684 Q662 661 658 637.5 Q654 614 651 591 Q643 538 636 486 Q629 434 623 381 Q618 346 615.5 311 Q613 276 611 241 Q609 215 608 188 Q607 161 605 134 L605 73 Q605 62 605.5 50 Q606 38 607 27 Q607 19 607.5 10 Q608 1 609 -8 Q611 -19 611.5 -30.5 Q612 -42 614 -53 Q614 -60 615 -67 Q616 -74 617 -81 Q619 -91 620.5 -101 Q622 -111 624 -121 Q627 -135 631 -149 Q635 -163 643 -177 Q648 -186 657 -194 Q662 -198 670 -195 Q682 -188 686 -178 Q687 -176 687.5 -173 Q688 -170 690 -168 Q690 -165 692 -163 Q695 -160 701 -162 Q707 -166 705 -170 Q702 -178 699 -186.5 Q696 -195 689 -201 Q685 -204 680.5 -206.5 Q676 -209 670 -211 Q665 -212 658 -209 Q651 -207 646.5 -202.5 Q642 -198 637 -193 Q632 -185 628 -177 Q624 -169 620 -161 Q617 -151 614.5 -141 Q612 -131 610 -121 Q608 -111 606.5 -101 Q605 -91 603 -81 Q601 -72 600.5 -63.5 Q600 -55 598 -46 Q597 -38 596.5 -30 Q596 -22 595 -14 Q594 -6 593.5 1.5 Q593 9 593 17 Q592 26 591.5 34.5 Q591 43 591 51 Q590 61 590 70.5 Q590 80 590 90 Q590 110 590.5 130.5 Q591 151 592 171 Q594 201 596 230.5 Q598 260 600 289 Q602 315 604.5 340.5 Q607 366 609 392 L609 394 L608 394 Z " />
<glyph glyph-name="V" unicode="V" horiz-adv-x="776" d="M793 720 Q798 716 797 712 Q797 710 796 709 Q794 703 791 697 Q788 691 785 684 Q775 661 765.5 639 Q756 617 747 594 Q727 540 709 486.5 Q691 433 673 379 Q653 319 635.5 258.5 Q618 198 599 138 Q585 90 569.5 44 Q554 -2 536 -47 Q517 -95 491 -141 Q482 -158 470.5 -173 Q459 -188 445 -201 Q428 -216 407 -222 Q367 -232 332 -194 Q322 -183 315 -171 Q308 -159 302 -146 Q290 -121 284 -93 Q279 -78 277 -62.5 Q275 -47 273 -31 Q267 26 266.5 80 Q266 134 268 188 Q270 226 272 264 Q274 302 278 340 Q281 366 284 392 Q287 418 291 444 Q295 473 299 501 Q303 529 308 558 Q310 578 312.5 598.5 Q315 619 317 640 Q317 648 316.5 654.5 Q316 661 314 669 L314 670 L314 671 L313 672 Q313 674 312 674 L312 675 Q310 673 308 673 Q308 672 307 672 L307 671 Q301 666 296 660 Q288 650 283 639 Q278 628 272 617 Q260 591 247.5 566 Q235 541 222 516 Q213 498 203 481.5 Q193 465 180 450 Q169 437 157 426 Q145 415 129 407 Q111 397 89 397 Q54 399 34 432 Q24 447 18 466 Q18 468 16 472 Q16 474 14 478 Q13 483 11 491 Q5 526 6 554 Q8 581 12.5 606 Q17 631 26 655 Q27 657 28 658.5 Q29 660 30 662 Q34 666 38 663 Q42 662 44 656 L44 653 Q39 644 36 634.5 Q33 625 31 615 Q26 594 23 572.5 Q20 551 21 528 Q22 513 24.5 498 Q27 483 32 468 Q38 449 48 434 Q63 412 86 412 Q103 411 120 421 Q134 428 144.5 437.5 Q155 447 165 458 Q178 472 188 488 Q198 504 206 521 Q220 548 233.5 575.5 Q247 603 261 631 Q266 642 272 653 Q278 664 286 673 Q292 681 296 684 Q300 688 307 688 Q317 689 324 679 Q327 675 328.5 670.5 Q330 666 331 661 Q333 648 332.5 636 Q332 624 330 612 Q328 591 325 570.5 Q322 550 319 529 Q314 496 309.5 463.5 Q305 431 300 399 Q285 280 282 159 Q279 78 285 -4 Q286 -20 288 -35.5 Q290 -51 292 -67 Q297 -92 304 -113 Q309 -128 315 -142.5 Q321 -157 331 -171 Q336 -178 341 -184.5 Q346 -191 353 -196 Q374 -215 399 -208 Q411 -205 420 -199.5 Q429 -194 437 -186 Q449 -175 459 -161 Q469 -147 477 -133 Q496 -100 511 -64 Q526 -28 540 9 Q557 57 572.5 105 Q588 153 602 203 Q624 277 647 350 Q670 423 695 495 Q706 528 718 560.5 Q730 593 742 625 Q749 643 756.5 660.5 Q764 678 772 695 Q774 701 777 706.5 Q780 712 782 718 Q783 719 783 719.5 Q783 720 784 721 Q788 723 793 720 Z " />
<glyph glyph-name="W" unicode="W" horiz-adv-x="984" d="M987 541 Q991 536 990 532 Q986 525 977 528 Q966 532 956 536.5 Q946 541 936 549 Q936 550 935 550 Q935 545 935.5 541 Q936 537 936 532 Q938 509 936 487.5 Q934 466 932 445 Q930 425 928 404.5 Q926 384 921 364 Q916 342 911.5 320.5 Q907 299 901 277 Q895 253 887.5 229 Q880 205 872 182 Q863 155 853 129.5 Q843 104 832 79 Q822 59 811.5 39 Q801 19 787 1 Q774 -16 759 -30.5 Q744 -45 725 -57 Q719 -61 713 -63.5 Q707 -66 699 -67 Q666 -73 636 -44 Q620 -28 610 -5 Q602 12 597.5 29 Q593 46 588 63 Q585 74 582.5 86 Q580 98 578 109 Q576 122 574.5 135 Q573 148 571 161 Q571 162 570 163 Q570 159 568 153 Q557 105 542.5 60.5 Q528 16 508 -27 Q497 -52 484.5 -75 Q472 -98 455 -119 Q446 -131 435.5 -142 Q425 -153 412 -163 Q404 -168 395.5 -173 Q387 -178 376 -180 Q349 -186 324 -166 Q317 -160 312 -153 Q307 -146 302 -138 Q291 -118 281 -94 Q276 -80 272 -66.5 Q268 -53 265 -39 Q261 -24 259.5 -9 Q258 6 256 20 Q251 72 252 122 Q253 172 257 223 Q262 282 266.5 340 Q271 398 276 457 Q283 543 297 629 Q299 643 300 658 Q301 673 301 688 Q301 690 300.5 691 Q300 692 300 694 Q300 695 299 696 Q296 694 293 690.5 Q290 687 289 685 Q289 685 288 683 Q281 669 275.5 654.5 Q270 640 263 626 Q254 604 244 582 Q234 560 221 540 Q195 494 157 462 Q139 447 115 441 Q107 439 99 439 Q91 439 82 444 Q74 447 68.5 452 Q63 457 57 464 Q51 472 46.5 480 Q42 488 38 496 Q29 519 27 541 Q25 563 26 585 Q27 605 30 623.5 Q33 642 38 660 Q39 666 40.5 672 Q42 678 44 683 Q45 685 46 685.5 Q47 686 48 688 Q53 690 57 686 Q64 682 60 678 Q53 664 50.5 648.5 Q48 633 45 617 Q37 582 42 544 Q43 520 54 494 Q61 477 73 466 Q88 451 105 454 Q128 459 149 477 Q166 491 179 507.5 Q192 524 204 543 Q218 565 228.5 588.5 Q239 612 250 636 Q256 650 262 663.5 Q268 677 273 691 Q278 703 286 708 Q292 714 302 709 Q313 704 315 691 Q317 681 316.5 671.5 Q316 662 315 653 Q313 634 310.5 615.5 Q308 597 305 579 Q300 540 295.5 501 Q291 462 288 422 Q283 359 278.5 296.5 Q274 234 269 171 Q267 133 267.5 95.5 Q268 58 271 19 Q274 -27 287 -68 Q292 -85 298.5 -101 Q305 -117 314 -133 Q318 -139 322 -145 Q326 -151 332 -156 Q343 -166 356 -167 Q364 -168 371 -165.5 Q378 -163 384 -160 Q398 -154 408.5 -145 Q419 -136 428 -125 Q444 -108 456.5 -88.5 Q469 -69 480 -48 Q497 -16 510.5 19 Q524 54 535 90 Q548 133 559 182 Q561 189 562 195.5 Q563 202 565 208 Q567 215 567 221.5 Q567 228 567 236 Q565 284 567 333 Q567 356 574 373 Q576 380 580 384 Q585 388 591.5 385.5 Q598 383 601 375 Q604 367 604.5 359.5 Q605 352 605 344 Q605 326 602 309 Q599 292 596 275 Q593 263 590.5 250.5 Q588 238 585 226 Q581 215 583 196 Q585 180 586 164 Q587 148 589 131 Q591 121 592.5 111 Q594 101 596 91 Q599 75 603 59 Q607 43 612 27 Q616 16 619.5 6 Q623 -4 629 -14 Q634 -21 638.5 -27.5 Q643 -34 649 -39 Q674 -60 700 -51 Q710 -47 718.5 -41.5 Q727 -36 735 -29 Q757 -11 773.5 11 Q790 33 804 59 Q820 90 833 122.5 Q846 155 857 190 Q865 212 872 233.5 Q879 255 885 277 Q896 315 904 354 Q912 393 915 435 Q917 452 918.5 469 Q920 486 921 503 Q922 518 921 533.5 Q920 549 919 564 Q919 566 918 567 Q905 581 896.5 595.5 Q888 610 882 625 Q871 651 878 671 Q881 682 894 681 Q901 681 907 675 Q915 663 918 654 Q929 619 932 587 Q932 582 932.5 578.5 Q933 575 933 570 Q934 569 934 568 Q940 563 946 557.5 Q952 552 960 548 L975 542 Q977 542 978 543 Q982 544 987 541 Z M917 589 Q917 591 916 591 Q915 613 908 641 Q905 653 899 665 Q895 669 894 666 Q892 662 892 661 Q888 647 895 627 Q898 621 901 615.5 Q904 610 907 604 Q909 600 911.5 596.5 Q914 593 916 589 L917 589 Z M581 284 Q581 285 582 285 Q584 300 586.5 315 Q589 330 590 346 Q590 351 590 356 Q590 361 589 367 Q582 347 581.5 326.5 Q581 306 581 284 Z " />
<glyph glyph-name="X" unicode="X" horiz-adv-x="777" d="M12 525 Q13 528 13 531.5 Q13 535 14 539 Q19 580 41 613 Q48 624 56 634 Q64 644 73 653 Q74 656 77 657 Q82 660 86 656 Q89 651 87 647 Q86 646 85.5 645 Q85 644 84 643 Q73 632 64.5 620.5 Q56 609 48 596 Q31 566 28 535 Q26 514 33 497 L33 496 Q38 484 45 479.5 Q52 475 64 476 Q72 477 79.5 479.5 Q87 482 95 486 Q112 494 126.5 504.5 Q141 515 155 526 Q173 540 190 555.5 Q207 571 224 587 Q244 606 264 623.5 Q284 641 307 656 Q315 662 324 667 Q333 672 342 677 Q359 686 375 687 Q398 688 411 669 Q422 649 423 629 Q426 607 426 585.5 Q426 564 424 542 Q422 525 420.5 508 Q419 491 418 474 Q417 463 417 451 Q417 439 416 428 Q416 414 415.5 399 Q415 384 414 370 Q414 366 414 362.5 Q414 359 415 354 Q416 357 418 361 Q432 391 446.5 421 Q461 451 477 480 Q495 514 515.5 545.5 Q536 577 560 607 Q573 623 586.5 637.5 Q600 652 616 666 Q628 676 641 683 Q654 690 669 693 Q689 698 707 695 Q713 693 717 692 Q721 691 725 685 Q726 679 723 676 Q721 674 719 674 Q717 674 715 676 Q710 681 705 681 Q700 681 695 682 Q672 682 652 671 Q633 662 615 645 Q593 625 575 602 Q557 579 540 555 Q518 524 500 491 Q482 458 465 424 Q452 398 440.5 373 Q429 348 417 322 Q413 314 414 308 Q414 282 415 257.5 Q416 233 418 207 Q420 181 424 156.5 Q428 132 435 106 Q440 90 445 74.5 Q450 59 458 44 Q462 36 466.5 29 Q471 22 477 16 Q501 -10 537 -5 Q556 -2 572 7 Q608 27 633 57 Q650 76 663.5 96 Q677 116 690 137 Q712 173 732 209.5 Q752 246 770 284 Q772 287 776 295 Q778 297 779 297.5 Q780 298 782 300 Q787 302 790 298 Q795 294 791 290 Q780 273 772 255 Q764 237 755 220 Q736 185 716.5 151 Q697 117 674 84 Q663 69 652 55 Q641 41 627 28 Q613 16 597.5 5.5 Q582 -5 565 -12 Q543 -21 519 -20 Q490 -17 469 4 Q461 12 455 21 Q449 30 444 39 Q436 55 431 70.5 Q426 86 421 102 Q410 143 406 184 Q401 229 400 275 Q400 278 399 280 Q398 279 396 275 Q382 242 369.5 208.5 Q357 175 345 141 Q326 88 307.5 35.5 Q289 -17 270 -70 Q261 -96 250 -121 Q239 -146 227 -170 Q216 -191 203 -205 Q190 -221 173 -227 Q162 -231 151.5 -230.5 Q141 -230 130 -222 Q125 -219 122 -215 Q119 -211 116 -206 Q107 -188 107 -167 Q107 -135 119 -105 Q120 -101 125 -96 Q126 -93 130 -93 Q133 -92 137 -96 Q141 -100 137 -104 Q133 -108 132 -112 Q131 -116 129 -121 Q125 -135 123 -149.5 Q121 -164 123 -179 Q124 -184 125 -188 Q126 -192 128 -197 Q140 -223 166 -214 Q179 -210 189 -198 Q198 -189 205 -178 Q212 -167 217 -156 Q231 -127 243 -98 Q255 -69 266 -39 Q284 13 302.5 65 Q321 117 340 170 Q353 207 367 243.5 Q381 280 397 315 Q399 319 399 323 Q399 341 399.5 359.5 Q400 378 401 396 Q401 410 401.5 425 Q402 440 402 454 Q403 471 404 487.5 Q405 504 407 521 Q409 542 410.5 563 Q412 584 411 605 Q410 616 409 626 Q408 636 405 647 Q402 655 397 663 Q391 672 381 672 Q375 672 370 671 Q365 670 360 668 Q348 664 338 658 Q328 652 318 645 Q298 631 279 615.5 Q260 600 242 583 Q224 567 206 551 Q188 535 169 518 Q145 497 112 478 Q104 473 95 469 Q86 465 75 463 Q64 460 51 462 Q35 465 26 479 Q20 488 16 504 Q15 506 14.5 509 Q14 512 13 514 Q13 516 12.5 519 Q12 522 12 525 Z " />
<glyph glyph-name="Y" unicode="Y" horiz-adv-x="541" d="M500 690 Q500 682 499.5 673.5 Q499 665 499 657 Q499 625 496.5 594.5 Q494 564 492 533 Q490 506 487 479 Q484 452 481 425 Q480 409 479.5 394 Q479 379 477 363 Q474 323 470.5 284 Q467 245 463 205 Q459 159 455 114 Q451 69 447 24 L447 22 L447 21 Q458 11 450 7 Q444 3 444 -6 Q442 -23 439.5 -41 Q437 -59 434 -77 Q425 -127 401 -167 Q392 -183 377 -190 Q365 -195 355 -191.5 Q345 -188 338 -180.5 Q331 -173 327.5 -162 Q324 -151 324 -141 Q322 -106 332 -78.5 Q342 -51 362 -29 Q367 -24 371 -20.5 Q375 -17 380 -12 Q389 -3 400.5 3 Q412 9 426 14 Q429 15 431 20 Q435 68 439 114 Q443 160 448 207 Q448 209 447 211 Q446 209 446 207 Q446 205 445 203 Q437 169 427 136.5 Q417 104 403 73 Q394 53 383 34.5 Q372 16 358 0 Q345 -14 329.5 -25 Q314 -36 294 -41 Q275 -46 255 -45 Q235 -44 213 -34 Q194 -26 178.5 -14 Q163 -2 150 14 Q131 39 118 69 Q108 95 104 120 Q100 145 99 170 Q97 198 98 226 Q99 254 101 282 Q103 320 104 356.5 Q105 393 107 430 Q108 459 108 488.5 Q108 518 106 548 Q104 571 100.5 593.5 Q97 616 89 639 Q82 658 73 671 Q71 674 68.5 677 Q66 680 63 683 Q52 694 40 689 Q34 686 30 682 Q23 676 18.5 668.5 Q14 661 10 653 Q-13 603 -4 543 Q0 514 11 482 Q12 480 13 478 Q14 476 15 474 Q18 467 13 465 Q7 463 2 470 Q0 474 -1.5 477.5 Q-3 481 -4 484 Q-14 513 -18.5 541.5 Q-23 570 -21 598 Q-18 641 5 678 Q9 684 13.5 689.5 Q18 695 25 699 Q36 707 51 704 Q66 700 79 685 Q85 678 88.5 671.5 Q92 665 96 657 Q103 643 106.5 630 Q110 617 113 603 Q120 572 121.5 542 Q123 512 123 483 Q124 438 121.5 394.5 Q119 351 117 307 Q115 275 114 242.5 Q113 210 114 178 Q114 162 115 146.5 Q116 131 119 114 Q124 94 131 74 Q138 54 152 34 Q165 14 184 -2 Q224 -35 268 -30 Q287 -29 306 -19 Q341 -2 363 35 Q377 55 387.5 78 Q398 101 406 125 Q428 187 440 260 Q447 295 452.5 330 Q458 365 463 401 Q466 425 467 449.5 Q468 474 470 499 Q473 546 475.5 592.5 Q478 639 483 686 Q483 688 483.5 689.5 Q484 691 484 693 Q484 699 489 699 Q494 699 499 693 Q499 692 499.5 691.5 Q500 691 500 690 Z M428 -3 Q411 -8 400 -17 Q392 -24 385 -30.5 Q378 -37 372 -44 Q338 -85 339 -141 Q339 -152 343 -160.5 Q347 -169 353 -173.5 Q359 -178 366.5 -177 Q374 -176 382 -166 Q390 -155 395 -143.5 Q400 -132 405 -119 Q413 -98 417.5 -75 Q422 -52 425 -29 Q426 -23 426.5 -16.5 Q427 -10 428 -3 Z " />
<glyph glyph-name="Z" unicode="Z" horiz-adv-x="587" d="M319 221 L349 236 Q374 247 397 251 Q423 254 445 246 Q471 238 482 207 Q489 186 489 161 Q488 141 484 121.5 Q480 102 473 82 Q470 74 467 66 Q464 58 461 50 Q460 49 460 48.5 Q460 48 459 47 L461 47 L462 48 Q526 87 602 107 Q608 109 615 109.5 Q622 110 629 111 Q631 112 638 110 Q644 108 643 102 Q641 96 635 96 Q630 97 625 96.5 Q620 96 615 95 Q589 90 565 81 Q541 72 517 61 Q500 53 483.5 44 Q467 35 451 24 Q449 22 448 20 Q408 -70 344 -147 Q333 -161 321 -172.5 Q309 -184 295 -193 Q290 -196 285 -198.5 Q280 -201 274 -203 Q263 -205 256.5 -198 Q250 -191 252 -180 Q253 -169 257.5 -158.5 Q262 -148 268 -138 Q279 -119 292 -102.5 Q305 -86 319 -70 Q345 -41 374 -16.5 Q403 8 435 30 Q437 31 439 35 Q447 53 454 71.5 Q461 90 466 110 Q468 120 470 129.5 Q472 139 474 149 Q477 178 467 204 Q458 231 427 236 Q405 240 381 232 Q361 226 343.5 217.5 Q326 209 309 199 Q289 187 272 176 Q268 173 260 169 Q255 167 252 170 Q249 172 249 177 Q251 182 254 183 Q261 190 268 196 Q275 202 283 209 Q315 237 346 266.5 Q377 296 405 328 Q440 368 470 411.5 Q500 455 523 504 Q531 521 537.5 537.5 Q544 554 549 571 Q552 583 554 594.5 Q556 606 555 618 Q554 648 537.5 668.5 Q521 689 492 697 Q468 703 440 698 Q413 693 388 682.5 Q363 672 339 658 Q317 647 298 633 Q279 619 259 605 Q238 588 217.5 570.5 Q197 553 177 535 Q158 518 139.5 502.5 Q121 487 101 472 Q77 454 48 445 Q33 440 21 444 Q6 447 -1 460 Q-12 479 -10 505 Q-8 534 3 559.5 Q14 585 31 608 Q42 623 54.5 637 Q67 651 82 662 Q85 664 88 665.5 Q91 667 94 669 Q96 670 100 670 Q105 670 107 665 Q107 658 103 657 Q96 655 90.5 651 Q85 647 80 642 Q57 620 39.5 594.5 Q22 569 11 539 Q4 518 4 495 Q5 489 6 482.5 Q7 476 10 471 Q19 454 37 457 Q46 459 53.5 462 Q61 465 69 469 Q82 476 94 484.5 Q106 493 117 503 Q137 519 155.5 535.5 Q174 552 194 569 Q223 595 253.5 618.5 Q284 642 316 662 Q360 689 404 703 Q433 713 458 714 Q484 716 506 708.5 Q528 701 546 682 Q554 673 559 662 Q564 651 567 638 Q569 629 569.5 620 Q570 611 569 602 Q567 578 560 556 Q553 534 543 512 Q527 476 507 443 Q487 410 464 378 Q435 338 402 302.5 Q369 267 332 234 L319 221 Z M425 4 Q425 5 424 5 Q424 5 422 3 Q402 -12 382.5 -28.5 Q363 -45 346 -63 Q330 -79 316 -95.5 Q302 -112 289 -131 Q283 -140 277.5 -149.5 Q272 -159 269 -170 Q267 -173 267 -176.5 Q267 -180 266 -184 Q266 -190 272 -188 Q282 -184 286 -181 Q299 -173 309 -163 Q319 -153 329 -142 Q373 -90 407 -29 Q412 -21 416 -12.5 Q420 -4 425 4 Z " />
<glyph glyph-name="a" unicode="a" horiz-adv-x="306" d="M317 293 Q316 292 316 291 Q316 290 314 289 Q306 280 297.5 271 Q289 262 281 252 Q264 234 247.5 215.5 Q231 197 212 180 Q200 168 185 159 Q180 157 176 155 Q172 153 167 152 Q147 149 141 168 Q138 174 137.5 181 Q137 188 137 195 Q138 205 140.5 218 Q143 231 146 244 Q150 258 153 274 Q151 272 150 270 Q148 268 147.5 266.5 Q147 265 146 264 Q132 247 119 230.5 Q106 214 92 197 Q78 179 60 165 Q47 156 36 153 Q18 150 4 164 Q-2 170 -5 177.5 Q-8 185 -10 193 Q-13 204 -13.5 216 Q-14 228 -13 239 Q-10 303 33 355 Q44 368 55.5 378 Q67 388 81 395 Q98 402 111 402 Q125 402 134 392.5 Q143 383 143 369 Q143 356 138 343 Q136 341 136 339 Q132 335 127 337 Q122 340 124 345 Q126 353 128 357 Q129 362 129.5 366 Q130 370 128 375 Q125 386 114 388 Q102 389 89 383 Q77 378 68 370 Q59 362 51 352 Q25 320 12 282 Q4 259 1.5 233.5 Q-1 208 9 186 Q14 177 20 170.5 Q26 164 37 168 Q42 170 46.5 173 Q51 176 55 179 Q66 188 75.5 198.5 Q85 209 94 220 Q109 239 123.5 258 Q138 277 153 296 Q155 298 156.5 299.5 Q158 301 160 303 Q165 306 170 304 Q174 301 174 296 Q173 291 172 287.5 Q171 284 170 279 Q166 264 162.5 248.5 Q159 233 155 218 Q152 203 152 189 Q151 183 153 175 Q156 164 167 167 Q173 169 178 172 Q183 175 188 179 Q201 189 212.5 200 Q224 211 235 223 Q251 240 267 258 Q283 276 300 294 Q301 296 302.5 297 Q304 298 306 300 Q309 302 314 300 Q317 297 317 293 Z " />
<glyph glyph-name="b" unicode="b" horiz-adv-x="272" d="M270 298 Q275 302 281.5 299.5 Q288 297 281 289 Q270 278 258.5 269.5 Q247 261 227 253 Q213 247 199 243 Q185 239 171 232 Q169 231 167 227 Q156 198 136 176 Q127 166 116.5 158.5 Q106 151 93 147 Q88 146 83.5 145.5 Q79 145 74 147 Q63 149 58.5 157 Q54 165 58 176 Q64 188 74 198 Q88 212 108 221 Q119 226 131 231 Q143 236 155 241 Q158 242 159 245 Q162 255 164 264.5 Q166 274 166 283 Q167 294 166 304.5 Q165 315 160 324 Q157 332 153 337 Q140 353 120 345 Q108 339 98 329 Q85 318 75.5 304 Q66 290 58 275 Q34 231 24 183 Q22 173 20.5 163.5 Q19 154 17 145 Q16 144 16 143 Q14 136 8 136 Q2 138 2 143 Q2 148 1.5 152 Q1 156 1 161 Q1 169 0.5 178 Q0 187 0 195 L0 223 Q0 265 0.5 306.5 Q1 348 6 392 Q8 416 10.5 440.5 Q13 465 17 491 Q23 526 31 561.5 Q39 597 54 634 Q58 643 66 657.5 Q74 672 84.5 684 Q95 696 107.5 699.5 Q120 703 132 690 Q145 677 148 657 Q154 633 151 608 Q148 570 138.5 533.5 Q129 497 115 462 Q101 424 82 391 Q63 358 41 326 L20 298 L15 291 L14 286 L14 284 L14 266 L14 252 L14 248 L14 231 L14 204 Q18 214 21 223.5 Q24 233 28 242 Q43 283 70 319 Q86 340 105 352 Q116 360 133 362 Q153 362 166 344 Q177 329 180 306 Q183 279 175 251 L175 250 Q186 255 197.5 257.5 Q209 260 220 265 Q235 272 247 279.5 Q259 287 270 298 Z M15 315 Q18 318 24 327 Q30 336 37 345.5 Q44 355 49 363 Q54 371 55 373 Q67 393 78 413.5 Q89 434 97 455 Q101 463 103.5 470 Q106 477 109 485 Q120 516 127.5 547.5 Q135 579 137 612 Q139 629 136.5 650 Q134 671 118 684 Q114 687 109.5 685.5 Q105 684 102 681 Q96 676 91 670 Q75 651 65 623 Q57 603 51.5 583 Q46 563 42 543 Q33 505 29 467 Q25 429 20 390 Q18 371 17 353.5 Q16 336 15 316 L15 315 Z M151 225 Q144 222 137 219 Q131 217 125 214 Q119 211 114 209 Q96 201 83 188 Q74 179 72 172 Q69 163 77 160 L80 160 Q87 159 93.5 161.5 Q100 164 106 168 Q121 177 131 190.5 Q141 204 149 220 L151 225 Z " />
<glyph glyph-name="c" unicode="c" horiz-adv-x="222" d="M231 299 Q234 296 234 292 Q233 291 233 290 Q233 289 232 288 Q223 279 214.5 270 Q206 261 198 252 Q193 247 189 242 Q185 237 181 232 Q168 218 155.5 205 Q143 192 129 180 Q122 174 116 168.5 Q110 163 102 159 Q100 157 99 157 Q98 157 96 156 Q94 154 92 154 Q88 152 82 150 Q73 147 64.5 145 Q56 143 47 143 Q27 142 13 152 Q-1 162 -9 176 Q-10 179 -12 183 Q-13 185 -13.5 187 Q-14 189 -15 191 Q-18 204 -18 219 Q-17 263 5 306 Q13 321 23 334.5 Q33 348 46 360 L48 362 Q51 364 54 367 Q57 370 60 372 Q73 380 84 383 Q105 389 124 380 Q140 374 143 358 Q144 353 143.5 349.5 Q143 346 142 342 Q137 326 129 316 Q128 315 127 314.5 Q126 314 125 313 Q121 309 115 313 Q111 318 116 323 Q125 332 128 345 Q133 361 117 368 Q99 375 80 366 Q69 362 59 352 Q35 333 19.5 304 Q4 275 -2 243 Q-4 233 -4.5 223.5 Q-5 214 -3 204 Q-2 201 -2 198.5 Q-2 196 -1 194 Q1 190 1 187 Q7 173 19 165 Q33 156 48 157 Q54 157 62 159 Q76 162 90 168 L91 169 Q95 171 98.5 173.5 Q102 176 105 178 Q118 188 129.5 199 Q141 210 152 222 Q168 239 184 257 Q200 275 217 293 L223 299 Q226 301 231 299 Z " />
<glyph glyph-name="d" unicode="d" horiz-adv-x="331" d="M331 299 Q336 301 340 296.5 Q344 292 339 287 Q330 276 315.5 261 Q301 246 293 237 Q276 218 259.5 200 Q243 182 224 165 L223 164 Q215 158 205.5 151 Q196 144 186.5 140.5 Q177 137 167.5 138.5 Q158 140 149 152 Q138 169 134.5 188.5 Q131 208 128 228 Q126 225 120.5 218.5 Q115 212 96 193 Q83 182 68 171 Q60 166 51.5 162.5 Q43 159 34 157 Q20 157 8 160.5 Q-4 164 -11 181 Q-15 192 -15 204 Q-16 241 -8 275 Q0 309 20 341 Q27 352 35 359.5 Q43 367 54 375 Q62 382 74 385 Q87 387 95 380 Q111 364 101 339 Q98 329 90 319 Q87 315 83 316 Q78 318 78 322 Q78 324 80 328 Q82 333 86 340.5 Q90 348 90 362 Q89 368 85 369.5 Q81 371 76.5 370 Q72 369 67 366 Q62 363 59 361 Q48 353 40.5 342.5 Q33 332 27 321 Q14 295 6.5 267 Q-1 239 -1 208 Q-1 195 3 184 Q7 174 16 171.5 Q25 169 35 171.5 Q45 174 55 179.5 Q65 185 72 191 Q87 203 100 217 Q113 231 124 246 Q127 250 127 255 Q126 267 126 278.5 Q126 290 126 301 Q126 330 129 360 Q132 390 135 422 Q136 430 136.5 437.5 Q137 445 138 453 Q140 464 141.5 474.5 Q143 485 145 496 Q149 517 153 537.5 Q157 558 162 578 Q167 601 175 623 Q183 645 195 665 Q200 674 205 682 Q210 690 218 697 Q226 705 234 709 Q251 715 265 704 Q272 699 276 691.5 Q280 684 283 675 Q287 666 288.5 656.5 Q290 647 291 637 Q291 629 291.5 621.5 Q292 614 291 606 Q290 592 288 577.5 Q286 563 283 549 Q271 492 249.5 439.5 Q228 387 200 336 L167 282 Q161 274 155.5 265.5 Q150 257 144 249 Q139 241 141 229 Q143 217 145 207 Q146 201 147 193.5 Q148 186 150.5 178 Q153 170 157.5 163.5 Q162 157 168 153 Q178 150 185 153 Q192 156 200 163 Q213 173 224.5 184 Q236 195 247 207 Q263 224 279 242 Q295 260 311 278 Q313 280 321 288.5 Q329 297 331 299 Z M155 474 Q148 423 144 373 Q140 323 141 269 Q153 288 164 306 Q173 320 181.5 334 Q190 348 193 353 Q220 404 241 457.5 Q262 511 272 569 Q274 579 275 589 Q276 599 277 609 Q279 630 276 646 Q274 654 272.5 661.5 Q271 669 268 677 Q263 688 255 694 Q250 697 245 697 Q242 697 239 695.5 Q236 694 233 692 Q227 687 222.5 681 Q218 675 213 669 Q203 653 196 636.5 Q189 620 183 603 Q178 586 173.5 568 Q169 550 166 532 Q163 517 160 502.5 Q157 488 155 474 Z " />
<glyph glyph-name="e" unicode="e" horiz-adv-x="223" d="M232 298 Q236 294 232 289 L228 284 Q188 238 134 201 Q119 190 103 181.5 Q87 173 70 167 Q53 162 40 162 Q0 161 -14 200 Q-20 220 -18 242 Q-16 264 -7 285.5 Q2 307 15.5 327 Q29 347 45 363 Q60 378 78 385 Q91 390 102 388 Q115 384 117 368 Q117 359 112 347 Q89 299 39 283 Q23 278 8 285 Q6 278 4 272 Q2 266 0 259 Q-4 244 -4 227 Q-3 218 -1.5 210 Q0 202 5 194 Q14 178 34 176 Q45 175 54.5 177.5 Q64 180 75 184 Q92 191 107 200 Q122 209 137 220 Q158 236 179 255 Q200 274 215 291 L223 299 Q228 302 232 298 Z M17 303 Q17 302 16 301 Q15 300 15 299 Q15 298 14 298 Q15 297 18 296 Q20 295 22.5 294.5 Q25 294 30 295 Q79 308 99 354 Q101 359 102 366 Q103 373 95 375 Q89 375 82.5 372 Q76 369 70 365 Q59 357 50 348 Q41 339 33 328 Q25 317 17 303 Z " />
<glyph glyph-name="f" unicode="f" horiz-adv-x="236" d="M235 298 Q240 303 245 298 Q250 293 245 288 Q243 286 240 283 Q237 280 234 278 Q226 272 217.5 267.5 Q209 263 201 258 Q184 249 165.5 242 Q147 235 127 228 Q96 217 61 213 Q52 212 42.5 211 Q33 210 24 210 Q20 209 12 209 Q9 209 9 206 Q9 203 9 199.5 Q9 196 8 193 Q8 191 10 187 Q55 145 90 92 Q105 69 116.5 44 Q128 19 134 -9 Q139 -29 140 -49 Q140 -57 140.5 -63.5 Q141 -70 141 -78 Q139 -105 135 -130.5 Q131 -156 121 -182 Q113 -202 99 -218 Q94 -223 88.5 -227 Q83 -231 76 -233 Q55 -237 40 -222 Q33 -217 29 -210 Q25 -203 22 -195 Q12 -170 7 -142 Q1 -116 -2 -87 Q-4 -76 -5 -66.5 Q-6 -57 -6 -46 Q-8 -28 -8.5 -9.5 Q-9 9 -10 27 L-10 95 Q-10 108 -9.5 120.5 Q-9 133 -8 147 Q-8 155 -7.5 164 Q-7 173 -6 181 Q-6 182 -8 186 Q-16 194 -19 198 Q-22 202 -22 207 Q-23 212 -17 216 Q-14 218 -11 218.5 Q-8 219 -6 220 Q-4 221 -4 223 Q-3 229 -2 245.5 Q-1 262 -0.5 280 Q0 298 1 313.5 Q2 329 2 334 Q2 340 2 345.5 Q2 351 3 356 Q4 365 4.5 373.5 Q5 382 6 391 Q6 398 6.5 404.5 Q7 411 8 418 Q9 426 9.5 434.5 Q10 443 11 452 Q13 461 14 470.5 Q15 480 17 490 Q23 526 31 562 Q39 598 53 633 Q55 639 58 645 Q65 662 79 679 Q80 681 81 681.5 Q82 682 83 684 Q86 686 89 689 Q92 692 96 694 Q115 707 131 689 Q137 682 141 673.5 Q145 665 147 656 Q153 632 150 607 Q148 579 142 552.5 Q136 526 128 500 Q125 490 121.5 480.5 Q118 471 114 461 Q103 429 87 399.5 Q71 370 52 341 Q45 331 38 320.5 Q31 310 24 300 Q22 297 20.5 294.5 Q19 292 17 290 Q17 288 15 288 Q15 285 14.5 279 Q14 273 14 272 L13 254 Q12 246 11.5 238.5 Q11 231 10 223 L12 223 L13 223 Q37 223 65 228 Q86 230 105.5 236 Q125 242 145 249 Q151 251 153 252 Q175 260 196.5 270.5 Q218 281 235 298 Z M63 622 Q49 585 41 541 Q37 526 34.5 510.5 Q32 495 30 480 Q29 475 28 466 Q27 457 25.5 447 Q24 437 23 428 Q22 419 22 416 Q21 408 20.5 402 Q20 396 20 389 Q19 380 18.5 371 Q18 362 17 354 Q17 348 16.5 341.5 Q16 335 15 329 L15 312 L18 316 Q23 324 29 332.5 Q35 341 40 349 Q61 381 78.5 414.5 Q96 448 108 484 Q110 489 111.5 494.5 Q113 500 115 507 Q123 533 128.5 558.5 Q134 584 136 610 Q137 615 137 624 Q136 632 135.5 639 Q135 646 133 654 Q130 669 120 680 Q115 685 110 685 Q108 684 106.5 684 Q105 684 103 682 Q95 677 87 667 Q79 657 71 640 Q69 635 67 631 Q65 627 63 622 Z M27 150 Q25 152 21.5 156 Q18 160 15 163 L7 171 Q6 165 6 160 L6 143 Q5 127 4.5 112 Q4 97 4 82 Q4 52 4.5 22.5 Q5 -7 7 -36 Q8 -47 8.5 -58 Q9 -69 11 -80 Q13 -96 16 -111.5 Q19 -127 22 -143 Q24 -155 27.5 -167.5 Q31 -180 36 -191 Q41 -204 49 -212 Q60 -221 72 -220 Q81 -217 88 -209 Q99 -196 105 -182 Q116 -159 120 -135.5 Q124 -112 126 -87 Q127 -78 126.5 -69 Q126 -60 126 -51 Q125 -43 124 -34.5 Q123 -26 121 -18 Q116 6 107.5 28 Q99 50 86 71 Q74 93 59 112 Q44 131 27 150 Z " />
<glyph glyph-name="g" unicode="g" horiz-adv-x="293" d="M304 298 Q308 294 305 290 Q305 289 304 288 Q296 278 287 265 Q278 252 270 241 L231 190 Q214 167 195 144 Q176 121 153 95 Q153 93 152.5 92.5 Q152 92 152 91 L152 74 Q152 66 152 57.5 Q152 49 151 41 Q151 13 148 -14 Q145 -61 135 -102 Q130 -122 123 -141 Q116 -160 105 -177 Q96 -191 84.5 -202.5 Q73 -214 59 -222 Q51 -227 43 -230 Q35 -233 26 -233 Q8 -234 -6 -223 Q-22 -210 -25 -187 Q-27 -173 -25 -160.5 Q-23 -148 -18 -136 Q-11 -119 -2.5 -103 Q6 -87 16 -71 Q32 -48 48 -25.5 Q64 -3 81 20 Q95 39 108.5 57.5 Q122 76 136 95 Q138 99 138 101 Q137 117 137 132 Q137 147 137 163 Q136 175 136 187 Q136 199 135 211 Q135 222 134.5 233 Q134 244 133 255 Q133 257 132.5 259.5 Q132 262 132 264 L132 270 Q131 264 129 260 Q127 256 125.5 252 Q124 248 123 245 Q117 230 110.5 216 Q104 202 96 188 Q91 180 85 173 Q79 166 71 161 Q59 152 46 152 Q26 152 12 169 Q5 177 1.5 186.5 Q-2 196 -4 207 Q-9 230 -7 253 Q-6 301 17 343 Q35 374 65 394 Q84 405 103 405 Q117 404 128 395.5 Q139 387 141 373 Q141 366 140 362 Q140 355 133 357 Q127 357 127 365 Q128 375 122 381.5 Q116 388 106 390 Q98 392 91 390 Q84 388 76 384 Q52 371 36 346 Q17 318 11 283 Q9 272 7.5 260.5 Q6 249 7 238 Q7 226 8.5 214.5 Q10 203 15 192 Q20 179 30 172 Q42 161 57 169 Q69 176 79 189 Q95 210 104 237 Q109 248 112.5 258 Q116 268 120 279 Q122 281 122.5 283.5 Q123 286 125 288 Q129 293 134.5 292.5 Q140 292 142 286 Q146 276 146 268 Q149 238 149 206 Q150 194 150 181.5 Q150 169 151 156 L151 139 L152 115 L159 123 Q165 130 171 137 Q177 144 183 152 Q202 173 220 198 Q228 208 234.5 217.5 Q241 227 249 237 Q250 239 252 241 Q254 244 258.5 250.5 Q263 257 268 263.5 Q273 270 277 275.5 Q281 281 282 282 Q284 285 287 288.5 Q290 292 292 296 L295 299 Q299 301 304 298 Z M138 73 L135 70 Q129 62 122.5 53 Q116 44 110 35 Q91 9 72.5 -16 Q54 -41 36 -67 Q25 -82 16 -98.5 Q7 -115 -1 -132 Q-5 -142 -8 -152.5 Q-11 -163 -12 -174 Q-12 -194 -1 -208 Q11 -220 25 -219 Q36 -219 48 -212 Q61 -205 70.5 -196 Q80 -187 88 -176 Q109 -146 119 -106 Q124 -86 127.5 -66.5 Q131 -47 133 -27 Q134 -13 134.5 0 Q135 13 137 26 Q137 31 137 36 Q137 41 138 46 L138 73 Z " />
<glyph glyph-name="h" unicode="h" horiz-adv-x="295" d="M303 299 Q308 297 307.5 294 Q307 291 306 290 L283 255 Q270 235 258 216 Q246 197 233 178 Q222 161 209.5 145.5 Q197 130 182 117 Q167 104 153 100 Q151 99 142 99 Q133 99 126 107 Q122 112 120.5 117.5 Q119 123 118 128 Q116 138 116 144 Q115 149 115 152.5 Q115 156 114 160 Q113 172 113 184 Q113 196 113 209 Q113 223 113.5 238 Q114 253 114 267 L114 273 L114 298 Q114 306 113 310 Q113 314 111 322 Q110 327 106 327 Q92 324 83 310 Q74 296 67 283 Q59 266 52.5 248.5 Q46 231 40 213 Q36 203 33 193.5 Q30 184 27 175 Q26 173 25 171 Q24 169 23 167 Q20 163 14 163 Q9 164 7 169 Q5 179 4 183 Q3 191 3 198.5 Q3 206 2 214 Q0 234 0 248 Q0 262 0 264 L0 311 L0 320 Q1 340 2 359 Q3 378 5 397 Q5 402 5.5 406 Q6 410 6 414 Q7 423 7.5 431.5 Q8 440 9 448 Q11 458 11.5 467 Q12 476 14 486 Q20 523 27.5 559 Q35 595 49 630 Q52 638 55 645 Q58 652 63 660 Q66 664 68.5 668 Q71 672 74 676 Q81 684 91 691 Q102 697 110 696 Q112 695 114 694.5 Q116 694 118 693 Q120 692 122 690.5 Q124 689 126 687 Q138 673 143 653 Q146 642 146 632 Q147 618 146 605 Q144 567 135 530.5 Q126 494 112 458 Q106 440 98.5 423.5 Q91 407 82 390 Q75 376 67 363.5 Q59 351 51 338 Q42 324 31.5 310 Q21 296 14 282 L14 281 L14 273 L14 259 Q14 254 14.5 240.5 Q15 227 16 220 L16 218 L16 217 L16 210 L16 209 Q16 208 17 207 L17 206 L17 204 L17 197 L17 194 Q18 194 18 193 L18 192 L18 191 L18 193 Q22 203 23 208 Q29 225 35 242.5 Q41 260 49 277 Q57 294 67 310.5 Q77 327 92 336 Q96 338 97 339 Q105 341 107 341 Q117 341 124 328 Q125 325 127 317 Q128 314 128 310.5 Q128 307 128 304 Q128 297 129 294 L129 266 Q128 251 127.5 236.5 Q127 222 127 207 Q127 203 127 199 Q127 195 128 191 Q126 157 131 136 Q131 135 131.5 133 Q132 131 132 130 Q133 123 137 116 Q140 111 146 112 Q152 113 159 118 Q166 122 172 128 L176 132 Q178 133 180 135 L186 141 Q197 152 206 164.5 Q215 177 224 190 Q237 210 249 229 Q261 248 274 268 Q274 269 276 271 L293 297 Q293 298 295 299 Q298 300 303 299 Z M15 326 Q15 324 14.5 321 Q14 318 14 315 L14 308 L15 309 Q15 310 15.5 310 Q16 310 16 311 Q29 329 39 346 Q46 357 52.5 367.5 Q59 378 65 389 Q90 435 106 482 Q116 513 123.5 544.5 Q131 576 133 608 Q133 614 133 620.5 Q133 627 132 633 L129 651 Q126 667 116 677 Q107 686 99 679 Q95 676 91.5 673 Q88 670 85 666 Q83 664 81.5 661.5 Q80 659 78 657 Q72 648 68 638.5 Q64 629 60 619 Q46 581 38 538 Q35 522 32.5 507 Q30 492 27 476 Q25 468 24.5 459 Q24 450 23 441 Q22 433 21.5 426.5 Q21 420 20 412 Q20 405 19.5 398.5 Q19 392 18 385 Q18 376 17 371 Q17 366 16.5 360.5 Q16 355 16 350 Q16 344 15.5 338 Q15 332 15 326 Z " />
<glyph glyph-name="i" unicode="i" horiz-adv-x="168" d="M178 299 Q183 294 178 288 Q176 285 170 277 Q157 260 144.5 243 Q132 226 119 209 Q93 175 61 149 Q56 146 52 144 Q48 142 43 142 Q30 141 22 149.5 Q14 158 9.5 171 Q5 184 3 198 Q1 212 0 221 Q-3 254 -1 289.5 Q1 325 6 363 Q6 368 5 369 Q5 377 7 381 Q10 384 15 384 Q20 382 20 377 L20 361 Q18 348 18 336 Q18 324 16 310 Q13 274 13 230 Q14 216 16 202.5 Q18 189 23 175 Q26 167 30 162 Q38 152 49 158 Q54 161 57.5 164 Q61 167 65 170 Q95 198 119 233 Q130 248 142 263 Q154 278 165 294 Q167 297 170.5 299.5 Q174 302 178 299 Z M13 467 Q4 467 4 475 Q4 478 6 480.5 Q8 483 11 482 Q20 482 20 474 Q20 467 13 467 Z " />
<glyph glyph-name="j" unicode="j" horiz-adv-x="127" d="M136 298 Q140 294 137 290 Q137 290 132 283 Q127 276 120.5 267 Q114 258 106.5 247.5 Q99 237 93 230 Q79 211 63.5 192 Q48 173 32 155 L17 137 Q17 136 16 134 Q15 132 15 130 Q14 117 13.5 104.5 Q13 92 11 79 Q9 64 7.5 48.5 Q6 33 4 18 Q-1 -17 -7 -52.5 Q-13 -88 -22 -123 Q-27 -141 -33 -158.5 Q-39 -176 -50 -193 Q-58 -204 -67 -214 Q-76 -224 -88 -232 Q-100 -239 -113.5 -243 Q-127 -247 -141 -245 Q-162 -243 -176 -229 Q-185 -220 -190.5 -209 Q-196 -198 -199 -186 Q-204 -167 -202.5 -148.5 Q-201 -130 -194 -111 Q-187 -93 -177.5 -76.5 Q-168 -60 -157 -44 Q-139 -18 -119 6 Q-99 30 -78 53 Q-60 73 -41.5 92.5 Q-23 112 -5 132 Q1 138 1 147 L0 316 L-1 378 Q0 385 6 385 Q13 385 13 379 L13 372 L13 353 L13 154 Q34 179 53 203 Q70 223 86.5 245 Q103 267 114 282 Q116 285 121 291.5 Q126 298 127 299 Q131 301 136 298 Z M-1 109 Q-1 113 0 116 Q-1 114 -2 113 Q-5 110 -6 110 Q-23 91 -39.5 73 Q-56 55 -73 37 Q-92 16 -109.5 -5 Q-127 -26 -144 -49 Q-155 -64 -163.5 -79 Q-172 -94 -179 -111 Q-185 -127 -187.5 -143.5 Q-190 -160 -187 -177 Q-182 -199 -170 -214 Q-156 -232 -134 -231 Q-125 -231 -117 -229 Q-109 -227 -101 -223 Q-89 -217 -80 -207.5 Q-71 -198 -63 -187 Q-53 -171 -47 -154.5 Q-41 -138 -36 -121 Q-32 -104 -28.5 -87 Q-25 -70 -22 -53 Q-19 -40 -17 -27 Q-15 -14 -13 0 Q-11 10 -10 20 Q-9 30 -7 41 Q-5 49 -4.5 57.5 Q-4 66 -3 74 Q-3 80 -2.5 86 Q-2 92 -1 99 L-1 109 Z M7 462 Q-1 464 -1 470 Q-1 477 8 477 Q15 477 15 470 Q15 462 7 462 Z " />
<glyph glyph-name="k" unicode="k" horiz-adv-x="269" d="M277 299 Q282 293 278 289 Q273 281 268 273.5 Q263 266 258 259 Q245 242 233 226 Q221 210 208 193 Q200 183 191 174 Q182 165 171 157 Q160 149 146 145.5 Q132 142 119 152 Q107 161 102 175 Q92 194 84 216 Q78 230 71 243 Q64 256 57 270 Q56 276 61 280 Q63 282 66 282 Q81 282 95 287 Q109 292 123 305 Q134 315 142 329 Q144 334 145 338 Q146 342 147 346 Q148 354 143.5 358.5 Q139 363 131 360 Q128 358 125.5 357.5 Q123 357 121 355 Q116 351 112.5 347.5 Q109 344 104 340 Q87 323 74.5 304 Q62 285 50 265 Q22 218 10 164 L10 162 Q7 156 1 156 Q-5 158 -5 164 Q-5 169 -5 173 Q-5 177 -4 182 Q-4 208 -3 235 Q-2 262 0 294 L0 298 Q1 307 1.5 316.5 Q2 326 2 336 Q3 341 3 346.5 Q3 352 4 358 Q4 366 4.5 375 Q5 384 6 393 Q7 400 7.5 406.5 Q8 413 8 420 Q10 428 10 436.5 Q10 445 12 453 Q13 463 14 472.5 Q15 482 17 491 Q23 528 31 563.5 Q39 599 53 634 Q58 647 64.5 658.5 Q71 670 79 681 Q83 685 87.5 689 Q92 693 97 696 Q116 707 131 691 Q143 677 148 657 Q152 633 151 609 Q148 571 138.5 534.5 Q129 498 115 462 Q103 430 87.5 401 Q72 372 53 343 Q44 330 35 317 Q26 304 18 291 Q13 284 13 278 Q13 273 12.5 267.5 Q12 262 12 257 L11 221 L11 214 Q11 213 11 215 Q11 217 12 219 Q39 285 86 341 Q98 356 115 367 Q125 374 134 375 Q156 377 161 355 Q163 346 160.5 338.5 Q158 331 154 323 Q141 296 112 280 Q104 275 94.5 272 Q85 269 74 268 Q90 242 101 210 Q104 203 107 196 Q110 189 114 181 Q119 170 127 164 Q137 156 148 160 Q155 163 161 167 Q167 171 172 176 Q184 187 194 199 Q204 211 214 224 Q225 238 234.5 251 Q244 264 255 278 Q257 282 259.5 285 Q262 288 264 292 Q265 293 267 297 Q272 302 277 299 Z M16 331 Q16 329 15.5 326 Q15 323 15 320 L15 313 L16 314 Q16 315 16.5 315 Q17 315 17 316 Q23 325 29 333.5 Q35 342 41 351 Q84 416 109 486 Q120 517 127.5 548.5 Q135 580 137 612 Q138 634 134 655 Q132 663 129 669.5 Q126 676 121 681 Q113 691 104 683 Q100 681 96.5 677.5 Q93 674 90 671 Q81 660 75 648.5 Q69 637 64 624 Q56 604 51 583.5 Q46 563 41 543 Q38 528 35.5 512.5 Q33 497 30 482 Q28 473 27.5 464 Q27 455 25 446 Q24 439 23.5 432 Q23 425 23 417 L20 390 Q19 382 18.5 373 Q18 364 18 355 Q17 349 17 343 Q17 337 16 331 Z " />
<glyph glyph-name="l" unicode="l" horiz-adv-x="185" d="M194 298 Q199 293 196 288 Q182 267 167.5 245.5 Q153 224 138 203 Q127 186 114.5 170.5 Q102 155 86 142 Q72 131 54.5 125.5 Q37 120 23 138 Q16 147 12.5 155 Q9 163 6 172 Q-1 192 -2.5 217 Q-4 242 -4 268 Q-4 282 -3.5 295 Q-3 308 -2 322 Q-1 342 0 361 Q1 380 3 399 Q4 404 4 408 Q4 412 5 417 L8 450 Q10 460 11 469 Q12 478 14 488 Q20 525 28 560.5 Q36 596 50 631 Q56 647 65 661 Q67 666 70 669.5 Q73 673 76 677 Q83 686 94 692 Q102 698 113 696 Q116 696 120 694 Q126 690 128 687 Q135 680 139 671.5 Q143 663 145 654 Q146 649 146.5 643.5 Q147 638 148 632 L148 605 Q144 567 134.5 530.5 Q125 494 111 459 Q105 441 97 424.5 Q89 408 80 392 Q73 378 65 365.5 Q57 353 49 340 Q40 326 31 313.5 Q22 301 13 288 Q12 288 12 287 Q12 286 11 285 Q11 285 10 283 Q10 268 9.5 253 Q9 238 11 224 Q13 208 15.5 192.5 Q18 177 24 162 Q26 157 28.5 153 Q31 149 34 145 Q40 137 52 139 Q60 141 66 145.5 Q72 150 78 155 Q93 168 105.5 183 Q118 198 129 215 Q143 235 155 254 Q167 273 180 292 Q182 294 182.5 295 Q183 296 185 298 Q189 303 194 298 Z M80 658 Q69 643 61 620 Q45 579 38 540 Q35 524 32 509 Q29 494 27 478 Q25 470 24 461 Q23 452 22 443 Q20 435 20 428.5 Q20 422 19 414 L16 387 Q16 378 15 373 Q15 368 14.5 362.5 Q14 357 14 352 Q13 346 13 340 Q13 334 12 328 Q12 326 11.5 323 Q11 320 11 317 L11 310 L12 311 Q12 312 12.5 312 Q13 312 13 313 Q19 321 25 330 Q31 339 37 347 Q50 367 63 390 Q88 433 105 482 Q116 513 124 544.5 Q132 576 134 609 Q134 615 134 621 Q134 627 133 633 Q133 638 132.5 642.5 Q132 647 131 652 Q129 659 126 665.5 Q123 672 118 678 Q110 686 101 680 Q97 677 93.5 674 Q90 671 87 667 Q84 664 80 658 Z " />
<glyph glyph-name="m" unicode="m" horiz-adv-x="259" d="M269 299 Q274 295 271 289 Q257 264 243.5 238.5 Q230 213 214 188 Q211 183 208 179 Q205 175 201 171 Q197 165 190 162 Q179 156 170 167 Q167 172 166 177 Q165 182 164 188 Q163 202 164 215 Q165 228 167 242 Q170 262 173.5 282.5 Q177 303 179 323 Q181 331 181.5 340 Q182 349 183 358 L183 360 L183 361 Q181 359 180.5 358 Q180 357 179 356 Q171 345 164.5 332.5 Q158 320 152 308 Q126 255 106 193 Q103 189 101 182 Q99 178 98 177 Q89 168 83 179 Q82 182 82 189 Q82 202 82 214 Q82 226 83 238 Q84 251 85 263 Q86 275 88 288 Q90 298 91 307.5 Q92 317 93 328 Q94 336 95 343.5 Q96 351 94 359 Q94 363 93 365 Q91 363 90.5 362 Q90 361 88 359 Q82 349 78 339.5 Q74 330 69 319 Q60 296 53 272.5 Q46 249 38 225 Q34 212 30 199.5 Q26 187 21 174 Q20 171 18 167 Q15 161 9 162 Q3 164 3 169 Q2 173 2 180 Q1 209 0.5 238.5 Q0 268 0 297 Q0 308 0.5 319.5 Q1 331 0 343 Q0 348 -1 354 Q-2 360 -3 365 Q-3 371 2 373 Q8 375 11 369 Q13 363 13 360 Q14 352 14 345.5 Q14 339 14 331 Q15 304 15 276.5 Q15 249 15 222 Q15 217 15.5 212.5 Q16 208 16 203 Q18 208 19 212.5 Q20 217 22 222 Q30 247 37.5 271.5 Q45 296 54 320 Q64 344 75 364 Q77 366 78.5 369 Q80 372 82 374 Q83 375 84 375.5 Q85 376 86 377 Q97 385 105 374 Q109 366 109 355 Q109 347 108 338 Q107 329 106 320 Q105 310 104 300 Q103 290 101 280 Q100 270 99 260.5 Q98 251 97 241 Q96 236 96 231.5 Q96 227 96 222 L96 208 Q96 209 96.5 209.5 Q97 210 97 212 Q117 269 143 321 Q148 332 153.5 342.5 Q159 353 167 363 Q171 369 174 372 Q176 374 178 375 Q185 380 190.5 377.5 Q196 375 197 367 Q198 362 197.5 356.5 Q197 351 197 346 L191 304 Q189 293 187.5 283.5 Q186 274 185 263 Q183 253 182 243 Q181 233 180 222 Q179 217 179 212 Q179 207 178 202 Q178 202 178.5 197 Q179 192 180 187 Q181 182 183 179 Q185 176 188 178 L191 181 Q194 184 194 185 Q202 195 208 204.5 Q214 214 220 225 L256 291 L259 297 Q264 302 269 299 Z " />
<glyph glyph-name="n" unicode="n" horiz-adv-x="237" d="M246 298 Q250 294 247 289 Q235 272 223.5 254.5 Q212 237 200 220 Q191 206 181 192.5 Q171 179 160 167 Q156 164 153 161 Q150 158 145 156 Q129 147 118 163 Q114 168 112.5 174.5 Q111 181 109 188 Q107 200 107 212 Q107 224 108 237 Q109 248 109.5 259 Q110 270 111 281 Q112 289 113.5 301.5 Q115 314 115 343 Q115 348 112.5 347.5 Q110 347 106 344 Q102 341 98.5 337 Q95 333 93 331 Q69 298 52.5 260 Q36 222 24 177 Q23 175 22.5 173 Q22 171 21 169 Q19 162 13 164 Q7 164 6 170 Q5 175 4.5 179 Q4 183 4 188 Q3 200 3 212.5 Q3 225 2 238 Q2 244 1.5 250.5 Q1 257 0.5 268.5 Q0 280 0 297.5 Q0 315 0 342 L0 357 Q0 360 2.5 363.5 Q5 367 9 365 Q15 363 15 357 Q14 341 14 325.5 Q14 310 14 295 Q14 276 14.5 255.5 Q15 235 17 206 L19 210 Q20 212 20 213 Q20 214 21 216 Q30 245 42 271.5 Q54 298 71 323 Q73 327 81 337 Q89 347 98.5 354.5 Q108 362 116.5 363 Q125 364 128 350 Q130 338 129.5 326 Q129 314 127 301 Q126 291 125.5 285.5 Q125 280 124.5 274.5 Q124 269 123.5 261.5 Q123 254 122 242 Q122 237 121.5 228.5 Q121 220 121.5 211 Q122 202 123 193.5 Q124 185 126 180 Q128 174 130 171 Q133 165 138 168 Q144 172 145 173 Q153 180 159 187.5 Q165 195 171 203 Q185 220 196.5 239 Q208 258 221 277 Q224 282 227 286 Q230 290 233 294 Q234 296 235 296.5 Q236 297 237 299 Q242 302 246 298 Z " />
<glyph glyph-name="o" unicode="o" horiz-adv-x="287" d="M297 297 Q302 292 296 288 Q289 281 282 274.5 Q275 268 268 262 Q263 258 258 254 Q253 250 248 246 Q221 226 188 222 Q163 219 141 229 Q135 231 131 235 Q125 239 123 241 Q118 233 113 224 Q108 215 103 207 Q94 194 83 182.5 Q72 171 58 162 Q49 154 37 153 Q22 149 10 162 Q0 174 -3 191 Q-6 204 -7 216 Q-8 228 -8 241 Q-8 265 -2.5 291 Q3 317 16 340 Q23 352 29 361.5 Q35 371 46 380 Q51 385 57 388.5 Q63 392 70 394 Q78 396 83.5 392 Q89 388 90 380 Q91 378 90.5 376 Q90 374 90 372 Q88 366 82 368 Q77 368 76 374 L76 377 Q76 381 72 380 Q69 378 65.5 376.5 Q62 375 59 373 Q50 365 43.5 356.5 Q37 348 32 337 Q16 307 10 271 Q7 251 7 233 Q5 206 14 183 Q16 178 19 173 Q26 164 37 167 Q47 169 57 178 Q74 192 86 208 Q98 224 107 243 Q111 248 112 254 Q114 256 112 258 Q107 267 105.5 276.5 Q104 286 103 297 Q102 303 101.5 309 Q101 315 101 321 Q102 329 103.5 336.5 Q105 344 109 351 Q111 355 117 361 Q122 366 128 365 Q134 364 138 358 Q141 353 142 347.5 Q143 342 144 337 Q146 317 142 298.5 Q138 280 130 262 Q128 256 132 252 Q144 239 161 238 Q202 231 238 257 Q265 276 287 298 Q293 303 297 297 Z M123 282 Q124 284 124 286.5 Q124 289 125 291 Q129 305 130 320.5 Q131 336 126 352 Q125 351 124 349 Q123 347 122 346 Q121 345 121 344 Q114 330 115 311.5 Q116 293 121 276 L123 282 Z " />
<glyph glyph-name="p" unicode="p" horiz-adv-x="257" d="M267 297 Q271 292 266 287 Q264 286 261 283 Q249 274 237 265.5 Q225 257 212 250 Q199 244 187 238 Q175 232 162 226 Q151 221 148 214 Q133 185 111 168 Q94 155 77 152 Q71 150 65 152 Q47 155 52 174 Q57 184 63 190 Q70 197 78.5 202 Q87 207 95 212 Q116 222 139 231 Q143 233 143 235 Q153 259 156 286 Q158 297 157.5 308.5 Q157 320 153 331 Q151 338 145 345 Q134 359 116 353 Q105 349 93 337 Q82 327 74.5 316 Q67 305 59 294 Q46 274 36 253.5 Q26 233 17 211 Q16 209 16 204 Q17 186 17.5 167.5 Q18 149 18 131 L18 73 Q18 59 17.5 45 Q17 31 16 17 Q16 6 15 -5 Q14 -16 13 -27 Q11 -53 8 -80 Q5 -107 -2 -133 Q-5 -147 -9 -159 Q-13 -171 -19 -183 Q-29 -203 -44 -214 Q-49 -219 -59 -222 Q-73 -225 -84 -212 Q-93 -200 -96 -185 Q-99 -173 -99.5 -161 Q-100 -149 -100 -137 Q-98 -106 -91 -76 Q-84 -46 -76 -17 Q-45 98 0 208 Q2 212 2 216 Q2 224 2 232.5 Q2 241 1 249 Q1 262 0.5 274.5 Q0 287 0 299 Q-1 313 -1.5 326 Q-2 339 -2 353 Q-3 358 -3 364 Q-3 370 -3 375 Q-3 383 4 383 Q8 383 11 379 Q11 378 11.5 376.5 Q12 375 12 373 L12 368 L13 335 L13 329 L13 328 Q13 320 13.5 312 Q14 304 14 296 Q14 289 14 280.5 Q14 272 15 264 Q15 254 16 244 Q18 247 20 251 Q22 254 23 257.5 Q24 261 26 263 Q34 280 44 296.5 Q54 313 66 328 Q72 336 79.5 344 Q87 352 95 358 Q109 367 120 368 Q138 371 151 359 Q159 352 163.5 343.5 Q168 335 170 324 Q173 304 170.5 285.5 Q168 267 163 248 Q162 246 162 245 Q162 244 161 242 L161 241 Q162 242 163 242 Q172 247 181 251 Q190 255 199 259 Q213 266 225 274.5 Q237 283 249 292 Q251 294 257 298 Q263 304 267 297 Z M4 74 Q4 97 3.5 118.5 Q3 140 3 163 L3 176 Q2 175 2 174 Q2 173 1 172 Q-10 143 -20.5 114 Q-31 85 -40 55 Q-52 17 -62.5 -20.5 Q-73 -58 -80 -96 Q-82 -106 -83 -115 Q-84 -124 -85 -133 Q-87 -151 -85 -169 Q-83 -176 -82 -182.5 Q-81 -189 -78 -195 Q-76 -197 -74.5 -200 Q-73 -203 -71 -205 Q-67 -210 -59 -207 L-50 -201 Q-39 -192 -31 -175 Q-24 -161 -20 -146.5 Q-16 -132 -13 -117 Q-8 -94 -5.5 -71 Q-3 -48 -1 -25 Q2 -3 2 21 Q3 34 3.5 47 Q4 60 4 74 Z M118 194 Q122 199 125 203 Q128 207 132 212 Q130 212 114.5 205 Q99 198 88 192 Q83 189 78.5 185.5 Q74 182 70 177 Q69 175 68 173.5 Q67 172 66 170 Q62 164 69 166 Q76 166 79 167 Q91 171 100.5 178 Q110 185 118 194 Z " />
<glyph glyph-name="q" unicode="q" horiz-adv-x="296" d="M302 299 Q306 295 304 292 Q304 290 303 289 Q299 285 297 282 Q295 279 293 277 Q290 273 287 269.5 Q284 266 281 263 Q267 246 253.5 230 Q240 214 226 197 Q219 189 212 180 Q205 171 198 163 Q189 152 180.5 142 Q172 132 163 121 Q150 105 137 89.5 Q124 74 111 58 Q102 49 102 35.5 Q102 22 100 10 Q100 8 102 4 Q110 -5 118.5 -13.5 Q127 -22 135 -32 Q157 -60 164 -95 Q166 -106 166.5 -117.5 Q167 -129 166 -140 Q165 -149 162 -163 Q159 -177 154 -191.5 Q149 -206 142 -218 Q135 -230 125 -234 Q116 -238 107 -232 Q100 -227 97 -217 Q93 -209 91.5 -200.5 Q90 -192 88 -183 Q85 -169 84 -156 Q83 -143 82 -129 Q81 -92 82 -55 Q82 -45 82.5 -35.5 Q83 -26 84 -16 Q84 -12 84.5 -8.5 Q85 -5 85 0 Q85 1 84.5 1.5 Q84 2 84 3 Q82 6 79 8.5 Q76 11 74 13 Q66 26 74 37 Q77 41 80.5 44.5 Q84 48 88 52 Q88 52 89 54 L90 55 Q91 69 93 82 Q95 93 96 106 Q97 119 99 128 Q101 144 104.5 160.5 Q108 177 110 193 Q111 198 112 206 Q113 214 115 221 Q117 229 118 238 L116 236 Q115 235 115 232 Q109 221 103 210 Q97 199 89 188 Q85 183 81 179 Q77 175 72 171 Q61 163 50 163 Q38 163 29 169 Q17 176 9.5 186 Q2 196 -3 208 Q-8 220 -9 233.5 Q-10 247 -8 259 Q-4 297 5 319 Q14 341 25 357 Q34 370 49.5 384 Q65 398 83 398 Q98 398 106.5 389 Q115 380 115 366 Q117 352 112 340 Q110 335 108 333 Q103 328 99 333 Q94 336 97 342 Q103 352 101 364 Q101 371 96 379 Q91 385 81 384 Q67 380 54 367 Q35 348 24 321 Q12 295 7 267 Q5 253 5.5 239.5 Q6 226 11 212 Q17 195 32 183 Q49 171 66 184 Q71 188 75 193 Q79 198 83 203 Q91 215 96.5 227 Q102 239 108 251 L123 281 Q123 283 125 285 Q128 290 134 288 Q139 286 139 280 Q138 276 138 271.5 Q138 267 137 263 Q134 244 130.5 226 Q127 208 124 190 Q122 176 119.5 163.5 Q117 151 115 137 Q113 126 112 115 Q111 104 109 93 L106 75 L106 74 L107 74 L161 140 Q168 148 174 155 Q180 162 187 170 Q196 182 205.5 193.5 Q215 205 224 216 Q238 232 250.5 247.5 Q263 263 277 279 Q280 283 285 289 Q290 295 292 296 Q297 302 302 299 Z M87 21 Q87 27 88 31 L87 31 Q81 25 87 21 Z M119 -34 Q116 -32 112.5 -28 Q109 -24 106 -20 Q102 -16 98 -11 Q97 -21 97 -30 Q96 -38 96 -46.5 Q96 -55 96 -61 Q95 -84 95.5 -106 Q96 -128 98 -151 Q99 -162 100.5 -172 Q102 -182 104 -193 Q104 -196 106 -202 Q108 -208 111 -213.5 Q114 -219 117.5 -221 Q121 -223 125 -217 Q129 -211 133 -204 Q149 -174 152 -138 Q154 -115 149 -94 Q145 -77 137.5 -62.5 Q130 -48 119 -34 Z " />
<glyph glyph-name="r" unicode="r" horiz-adv-x="194" d="M202 299 Q205 297 205 293 Q205 291 204 290 Q204 289 203 288 Q198 280 194.5 274 Q191 268 187 261 Q184 255 180 250 Q177 245 174.5 240.5 Q172 236 170 234 Q156 211 142 187.5 Q128 164 114 141 Q105 127 96 113.5 Q87 100 77 87 Q71 80 65.5 74 Q60 68 52 63 Q44 58 36 58 Q28 57 21 64 Q17 69 15.5 74 Q14 79 12 85 Q10 96 10 106 Q10 116 12 127 Q15 147 20.5 166.5 Q26 186 32 206 Q34 214 35.5 222.5 Q37 231 39 240 Q42 259 29 268 Q24 272 20 275 Q16 278 11 282 Q10 283 9 283.5 Q8 284 7 285 Q6 285 6 286 Q5 286 5 287 Q0 290 -3 295 Q-4 295 -4 296 L-5 296 Q-12 305 -16.5 315 Q-21 325 -23 337 Q-26 354 -24 370 Q-22 386 -13 400 Q-13 401 -9 406.5 Q-5 412 -2 415 L-1 415 Q7 423 19 423 Q37 421 44 405 Q48 395 47.5 384 Q47 373 45 363 Q41 345 33.5 328.5 Q26 312 15 297 L16 296 Q17 296 17 295 L18 295 Q22 291 24 290 Q28 287 32 284 Q36 281 40 278 Q56 264 54 243 Q53 232 50 221 Q47 210 44 199 Q39 184 35 169 Q31 154 28 138 Q26 129 25 120 Q24 111 24 102 Q24 90 28 79 Q33 69 42 74 Q48 77 52 81 Q56 85 61 90 Q70 101 77.5 112 Q85 123 93 135 Q109 161 125 187 Q141 213 157 239 Q159 243 162.5 248 Q166 253 169 258 Q173 263 176 270 Q181 277 182 279.5 Q183 282 188 289 Q193 296 193 297 Q198 302 202 299 Z M5 307 Q16 323 23 340 Q30 357 32 376 Q33 384 32.5 393.5 Q32 403 23 407 Q16 410 10.5 406 Q5 402 1 396 Q0 395 -1 393 Q-2 391 -2.5 389.5 Q-3 388 -4 386 Q-15 361 -7 331 Q-4 320 5 307 Z " />
<glyph glyph-name="s" unicode="s" horiz-adv-x="153" d="M163 298 Q168 293 163 288 Q141 263 119.5 239 Q98 215 75 192 L64 181 Q62 179 63 177 Q70 158 73 136 Q76 116 74 92 Q71 56 58 26 Q40 -19 4 -52 Q-17 -70 -40 -75 Q-51 -77 -61 -76 Q-71 -75 -80 -68 Q-94 -57 -97 -36 Q-99 -22 -96.5 -9 Q-94 4 -89 17 Q-81 35 -71 51.5 Q-61 68 -50 83 Q-33 103 -15.5 122 Q2 141 21 159 Q26 164 32 170 Q38 176 44 181 Q45 182 44 185 Q39 198 33 210.5 Q27 223 22 235 Q19 241 15 250.5 Q11 260 7 270 Q3 280 0 288 Q-3 296 -4 298 Q-7 307 -9 316.5 Q-11 326 -10 335 Q-9 351 0 369 Q9 387 29 390 Q36 390 40 384.5 Q44 379 46 373 Q47 364 46 355 Q44 344 40.5 333.5 Q37 323 31 314 Q27 309 23.5 305 Q20 301 18 298 Q15 294 13 291 Q22 265 34 241.5 Q46 218 56 194 Q57 194 59 196 Q82 218 103.5 241.5 Q125 265 145 289 Q147 291 148 292.5 Q149 294 151 296 Q153 298 153 298 Q158 303 163 298 Z M8 307 Q17 316 24 327 Q31 338 33 352 Q33 354 33.5 356 Q34 358 34 360 L34 364 Q34 367 32.5 373.5 Q31 380 26 378 Q23 377 19 373 Q16 370 12.5 364.5 Q9 359 7 350 Q5 342 4.5 333 Q4 324 8 307 Z M60 100 Q61 122 57 145 Q55 151 54 156.5 Q53 162 51 168 Q49 167 47 165 Q37 155 27.5 146 Q18 137 8 127 Q-6 112 -19.5 97 Q-33 82 -45 65 Q-56 50 -65 34.5 Q-74 19 -79 2 Q-82 -8 -83.5 -17.5 Q-85 -27 -83 -38 Q-78 -57 -61 -62 Q-49 -64 -40 -60 Q-20 -55 -2 -38 Q55 18 60 100 Z " />
<glyph glyph-name="t" unicode="t" horiz-adv-x="206" d="M50 502 Q45 476 40.5 450 Q36 424 31 398 Q27 375 23 353.5 Q19 332 15 309 Q13 295 11 281 Q9 267 7 252 Q5 239 4 226 Q3 213 3 200 Q3 187 4 175 Q5 163 9 151 Q10 145 14 140 Q27 116 53 124 Q66 127 76.5 134 Q87 141 97 150 Q128 180 153 217 Q167 237 179 255.5 Q191 274 203 294 Q205 297 208.5 299.5 Q212 302 216 298 Q221 295 217 289 Q213 282 209 275.5 Q205 269 200 262 Q188 242 175 223 Q162 204 148 185 Q137 171 125 157.5 Q113 144 99 133 Q79 116 55 109 Q19 101 1 133 Q-6 146 -9 166 Q-11 180 -11.5 193 Q-12 206 -10 220 Q-8 250 -4 278 Q0 301 3.5 323.5 Q7 346 11 369 Q16 397 21.5 425 Q27 453 32 482 Q34 487 34.5 492.5 Q35 498 37 504 Q29 506 25 506 Q9 511 -6.5 514.5 Q-22 518 -38 523 Q-53 527 -68 530.5 Q-83 534 -99 536 Q-116 538 -131.5 537 Q-147 536 -163 530 Q-178 525 -187 516 Q-189 514 -190.5 511.5 Q-192 509 -193 507 Q-195 505 -195 501 Q-193 496 -198 494 Q-202 490 -205 494 Q-211 498 -209 503 Q-207 516 -199 524 Q-192 532 -183.5 536.5 Q-175 541 -165 545 Q-140 554 -113 551 Q-72 548 -26 534 Q-10 529 5.5 525 Q21 521 38 518 Q49 516 59 515 Q69 514 80 513 Q93 512 105.5 512 Q118 512 131 512 Q173 514 208 528 Q216 531 224 534 Q232 537 240 540 Q246 543 251 538 Q255 531 247 527 Q235 522 225 519 Q212 514 199 509.5 Q186 505 172 503 Q164 501 155.5 500.5 Q147 500 139 499 Q131 498 123.5 498 Q116 498 108 498 Q94 498 80.5 499 Q67 500 53 502 L50 502 Z " />
<glyph glyph-name="u" unicode="u" horiz-adv-x="296" d="M305 289 Q287 261 271 236.5 Q255 212 235 189 Q220 171 202 164 Q194 159 184 161 Q172 161 165 171 Q156 183 155 196 Q153 207 153 218.5 Q153 230 154 241 Q156 261 158.5 279 Q161 297 165 316 L166 319 L164 315 Q163 313 162 311.5 Q161 310 161 309 Q151 290 141.5 271 Q132 252 122 233 Q104 201 82 177 Q75 171 68 165.5 Q61 160 51 157 Q26 151 10 173 Q1 186 -1 205 Q-3 213 -4 221 Q-5 229 -5 237 Q-5 248 -4.5 257.5 Q-4 267 -3 277 Q0 300 2.5 323 Q5 346 8 369 Q8 371 7.5 372.5 Q7 374 8 376 Q8 383 15 383 Q23 383 21 375 Q22 365 19 352 Q17 333 14.5 315 Q12 297 10 278 Q9 265 8.5 252.5 Q8 240 9 227 Q10 218 11.5 208.5 Q13 199 16 191 Q18 185 21 182 Q30 166 48 172 Q59 175 69 185 Q79 194 86.5 205 Q94 216 101 227 Q112 244 121 262 Q130 280 139 298 Q147 313 154.5 328.5 Q162 344 170 360 Q171 362 175 368 Q179 374 186 371 Q192 369 190 361 Q188 356 188 351.5 Q188 347 186 342 Q181 323 177 304.5 Q173 286 171 267 Q169 256 168.5 245 Q168 234 167 223 Q166 209 171 190 Q171 188 172.5 186 Q174 184 175 182 Q181 172 190 175 Q196 176 201 179 Q206 182 211 186 Q225 197 236 213 Q250 231 263 252 Q276 273 290 292 Q296 301 303 300 Q307 299 307 295.5 Q307 292 305 289 Z " />
<glyph glyph-name="v" unicode="v" horiz-adv-x="264" d="M271 299 Q277 297 274 290 Q273 288 272.5 286.5 Q272 285 270 283 Q256 269 243 255 Q230 241 215 228 Q205 220 195 214.5 Q185 209 173 206 Q148 200 129 213 Q122 218 117.5 224.5 Q113 231 109 239 Q109 241 108.5 241 Q108 241 107 243 Q106 238 102 230 Q94 213 86.5 197 Q79 181 69 165 Q64 158 59.5 152 Q55 146 48 141 Q45 138 37 134 Q23 129 13 140 Q4 150 1 164 Q-1 172 -2 179 Q-3 186 -4 194 Q-6 208 -5.5 221 Q-5 234 -4 248 Q-3 261 -2.5 273 Q-2 285 -1 297 Q0 308 0 319.5 Q0 331 1 342 L1 345 L1 351 L1 367 Q1 368 2 370 Q5 373 7 373 Q11 372 12 370 Q13 368 14 367 L14 366 Q14 366 14 357 Q14 348 14 337 Q14 326 13.5 314.5 Q13 303 13 298 L13 288 Q12 277 11 266.5 Q10 256 10 245 L10 198 Q11 189 12 180.5 Q13 172 16 164 Q18 161 19 157.5 Q20 154 22 151 Q27 145 34 148 Q40 151 43.5 155 Q47 159 51 164 Q59 174 65 185 Q71 196 76 207 Q82 221 88 235 Q94 249 100 263 Q102 266 100 271 Q97 292 99 312.5 Q101 333 109 353 Q111 357 113.5 360.5 Q116 364 119 369 Q121 371 122 373 Q128 377 135 376 Q142 373 142 365 Q144 352 139 336 Q134 318 128.5 301 Q123 284 117 267 Q115 264 117 261 Q120 248 126 238 Q141 213 169 219 Q189 225 205 239 Q216 247 225.5 256.5 Q235 266 245 276 Q248 280 251 283 Q254 286 257 289 Q259 293 262 296 Q265 303 271 299 Z M128 357 Q121 349 116 329 Q111 309 113 298 Q118 312 122.5 326.5 Q127 341 128 357 Z " />
<glyph glyph-name="w" unicode="w" horiz-adv-x="403" d="M235 259 Q233 256 232.5 252.5 Q232 249 230 246 Q213 198 178 169 Q170 163 163 158 Q156 153 146 151 Q137 147 128 149 Q114 152 103 164 Q98 170 95 176.5 Q92 183 89 190 Q89 193 87 196 Q86 193 86 193 Q80 182 72.5 172 Q65 162 57 152 Q47 142 36 137 Q18 130 7 143 Q1 149 -4 159 Q-9 175 -10 192 Q-13 227 -7.5 260.5 Q-2 294 6 326 Q9 340 13 353.5 Q17 367 23 381 Q23 387 30 385 Q33 384 35 381 Q37 378 35 376 Q34 371 33.5 367.5 Q33 364 32 360 Q23 333 15.5 305.5 Q8 278 7 249 Q5 237 3.5 224.5 Q2 212 4 199 Q3 181 9 162 Q15 144 31 151 Q37 154 41 158 Q45 162 49 167 Q59 179 67.5 191.5 Q76 204 81 218 Q84 221 82 224 Q80 249 81 272.5 Q82 296 88 319 Q89 322 92 327.5 Q95 333 98.5 336.5 Q102 340 106.5 340 Q111 340 115 333 Q118 325 118 317 Q120 290 114.5 266 Q109 242 99 219 Q98 218 98 211 Q100 204 101.5 197 Q103 190 108 182 Q112 174 115 171 Q119 165 130 163 Q140 163 151 169 Q165 176 174.5 185.5 Q184 195 193 206 Q205 223 212.5 241.5 Q220 260 225 280 Q224 282 224 284 Q222 293 222 300.5 Q222 308 224 316 Q224 320 227 323 Q229 328 235 326 Q242 324 241 318 Q241 313 241.5 308 Q242 303 242 298 Q242 294 241 290.5 Q240 287 240 284 Q240 277 242 273 Q243 266 255 259 Q274 249 293 250.5 Q312 252 330.5 259.5 Q349 267 367 278 Q385 289 402 299 Q407 303 411 297 Q416 293 411 288 Q411 288 408 285 Q391 276 374.5 266 Q358 256 341 248.5 Q324 241 305.5 237.5 Q287 234 267 239 Q249 243 235 259 Z M103 318 Q98 303 96.5 287 Q95 271 95 254 Q100 270 102.5 285.5 Q105 301 103 318 Z " />
<glyph glyph-name="x" unicode="x" horiz-adv-x="179" d="M187 299 Q192 296 190 291 Q190 289 188 287 Q171 267 154 246.5 Q137 226 119 206 Q104 188 83 172 Q73 165 60 162 Q44 159 33 171 Q28 176 24 183 Q20 190 17 198 Q14 206 12 215.5 Q10 225 8 234 Q7 235 7 237 Q-2 223 -11 213 Q-25 193 -39.5 172.5 Q-54 152 -67 130 Q-69 127 -71 123.5 Q-73 120 -75 116 Q-75 115 -75.5 114.5 Q-76 114 -76 113 L-80 105 Q-86 97 -90 103 Q-92 105 -92 112 Q-90 117 -86 125 Q-78 139 -70 151.5 Q-62 164 -53 177 Q-39 197 -25 216 Q-11 235 3 255 L3 256 Q3 257 3.5 257 Q4 257 4 258 Q3 268 2 278 Q1 288 0 299 Q-1 316 -1 332.5 Q-1 349 -1 366 Q0 371 0 380 Q0 382 2 386 Q5 389 10 388 Q14 387 14 381 L14 368 Q14 360 13.5 352 Q13 344 13 336 Q14 326 14 316.5 Q14 307 14 296 Q15 291 15.5 285.5 Q16 280 16 275 Q16 273 17 272 L20 275 Q36 294 52 312 Q68 330 84 349 Q92 358 99.5 367 Q107 376 115 386 Q118 389 120 390 Q126 392 128 387 Q131 382 128 379 Q123 373 118.5 367.5 Q114 362 109 357 L52 291 Q36 274 21 254 Q19 252 19 249 Q21 235 24.5 221.5 Q28 208 34 195 Q36 190 42 182 Q47 172 60 176 Q65 178 69 180.5 Q73 183 78 186 Q91 197 101.5 208 Q112 219 123 231 Q137 247 149.5 263 Q162 279 176 295 L179 298 Q182 301 187 299 Z " />
<glyph glyph-name="y" unicode="y" horiz-adv-x="284" d="M293 299 Q297 296 295 291 Q295 290 294.5 290 Q294 290 294 289 Q283 275 272.5 260 Q262 245 251 231 Q233 207 213.5 183 Q194 159 174 136 Q172 134 172 133 Q171 120 170.5 108 Q170 96 169 84 Q168 73 167.5 61 Q167 49 166 38 Q163 7 158 -23.5 Q153 -54 144 -84 Q137 -104 129 -121.5 Q121 -139 109 -156 Q101 -166 93 -175 Q85 -184 75 -191 Q54 -206 33 -207 Q-12 -210 -27 -167 Q-35 -143 -30 -119 Q-26 -96 -17 -76.5 Q-8 -57 4 -38 Q31 4 65 41 Q85 62 104.5 83 Q124 104 144 125 Q146 127 149 130.5 Q152 134 155 137 Q158 140 158 145 Q159 154 159.5 163.5 Q160 173 160 183 L163 231 Q163 238 163.5 244.5 Q164 251 164 258 Q165 273 165 288 Q165 303 165 318 Q165 327 166 332 L166 337 Q166 336 163 327 Q160 318 158 313 Q151 295 144.5 276.5 Q138 258 130 240 Q124 225 115 210.5 Q106 196 95 184 Q86 173 78 168 Q53 151 31 171 Q18 183 11 202 Q7 213 5 224 Q3 235 1 246 Q-1 260 -1 275 Q-1 290 0 305 Q0 317 1 328.5 Q2 340 3 352 Q4 361 5 370 Q6 379 7 389 Q7 391 7.5 392 Q8 393 8 395 Q11 402 18 400 Q24 399 22 390 Q20 385 20 380 Q20 375 19 370 Q18 363 17.5 356 Q17 349 16 341 Q16 336 15.5 332 Q15 328 15 323 Q14 310 14 297.5 Q14 285 14 271 Q14 237 24 207 Q29 193 38 184 Q45 175 54 175 Q61 175 64 176 Q68 178 71.5 180.5 Q75 183 78 185 Q88 195 95 206 Q102 217 109 229 Q117 243 122.5 257.5 Q128 272 133 286 Q140 304 146 322 Q152 340 158 358 L161 367 Q164 372 170 372 Q177 370 177 365 Q178 360 178.5 356 Q179 352 179 347 L179 287 Q179 281 178.5 275 Q178 269 178 263 Q177 250 177 238 Q177 226 176 214 Q175 204 175 194.5 Q175 185 174 175 Q174 171 174 167 Q174 163 173 158 L176 161 Q228 220 271 283 Q274 286 276.5 289.5 Q279 293 282 297 L285 300 Q290 302 293 299 Z M156 109 Q156 113 157 118 Q145 105 134 93 Q124 82 113.5 71.5 Q103 61 96 53 Q80 36 65.5 19.5 Q51 3 37 -15 Q24 -32 13 -49 Q2 -66 -6 -86 Q-12 -101 -15.5 -116 Q-19 -131 -17 -148 Q-15 -156 -12.5 -163.5 Q-10 -171 -5 -178 Q8 -194 26 -193 Q49 -193 70 -177 Q94 -159 110 -128 Q127 -96 135 -63 Q143 -30 148 5 Q150 13 150 21 Q150 29 152 37 Q153 46 153 54.5 Q153 63 154 72 Q155 77 155 83 Q155 89 156 95 L156 109 Z " />
<glyph glyph-name="z" unicode="z" horiz-adv-x="310" d="M310 298 Q315 303 320 298 Q325 293 320 288 Q317 284 308 275 Q306 273 305.5 272 Q305 271 304 270 Q303 269 302 268 Q301 267 297 262 L294 259 L293 258 Q289 253 285 248.5 Q281 244 277 239 Q265 225 254 212 Q243 199 232 188 Q223 178 213 167 Q205 158 194.5 147 Q184 136 173 125 Q173 124 173.5 124 Q174 124 174 123 Q178 115 185 88 Q192 61 186 13 Q179 -32 160 -79 Q141 -126 113 -163 Q85 -200 51 -220 Q17 -240 -20 -230 Q-34 -226 -46 -216.5 Q-58 -207 -65.5 -192 Q-73 -177 -74 -157.5 Q-75 -138 -66 -115 Q-54 -83 -33 -54 Q-4 -13 36 22 Q50 35 62 45.5 Q74 56 87 67 L118 94 L137 110 Q141 114 145 117.5 Q149 121 154 126 Q154 126 153 127 L153 128 Q148 136 141.5 142.5 Q135 149 127 154 Q124 157 120 159 Q116 161 111 163 Q97 168 82.5 168 Q68 168 54 164 Q44 161 35 157.5 Q26 154 16 150 Q12 148 10 148 Q5 146 2 150 Q-1 155 2 158 Q3 161 7 165 Q20 179 33 193 Q46 207 59 221 Q66 229 72 235.5 Q78 242 85 250 Q90 255 94 260 Q98 265 102.5 269.5 Q107 274 110 278 Q119 287 126.5 297.5 Q134 308 139 320 Q142 326 144.5 335 Q147 344 147.5 353 Q148 362 145 370 Q142 378 135 383 Q128 387 120.5 386.5 Q113 386 106 384 Q92 381 77 373 Q48 357 31 331 Q21 316 15.5 299 Q10 282 12 263 Q12 256 7 255 Q1 253 -1 260 Q-6 284 2 306 Q10 328 26 348 Q49 377 82 391 Q97 397 116 400 Q135 403 148 389 Q163 374 160.5 351.5 Q158 329 150 312 Q141 292 125 274 L124 273 Q121 270 114 261.5 Q107 253 99 245 Q89 234 77.5 221 Q66 208 56 197.5 Q46 187 39 179.5 Q32 172 32 172 Q40 174 47 176 Q53 178 59.5 179 Q66 180 71 181 Q91 183 107.5 178.5 Q124 174 135 167 L138 164 Q148 156 155 150 Q157 147 160 144 Q163 141 165 137 L192 164 Q197 170 203 176.5 Q209 183 214 188 L220 194 Q234 211 251.5 230.5 Q269 250 285 268 Q286 269 287 270.5 Q288 272 289 273 Q291 275 294 278.5 Q297 282 299 284 Q302 287 303 289 Q305 292 307 294 Q309 296 310 298 Z M176 43 Q176 54 175 64.5 Q174 75 172 83 Q170 92 167 100 Q165 104 164 107 Q163 110 161 114 L152 105 Q150 103 148 102 Q146 101 144 99 Q142 96 139 94 Q136 92 133 89 L131 87 Q88 52 45 11 Q2 -30 -26 -70 Q-54 -110 -60 -146 Q-66 -182 -36 -207 Q-23 -218 -5 -218.5 Q13 -219 32.5 -210.5 Q52 -202 71 -186.5 Q90 -171 105 -150 Q118 -134 129.5 -112 Q141 -90 150.5 -65.5 Q160 -41 166.5 -16 Q173 9 175 33 Q176 34 176 35 L176 37 L176 43 Z " />
<glyph glyph-name="C" unicode="C" horiz-adv-x="620" d="M504 658 Q520 647 515 630 Q511 620 502 614 Q493 606 482 601 Q471 596 460 592 Q447 588 434.5 585 Q422 582 408 580 Q398 579 388 578 Q378 577 368 576 Q359 576 350 575.5 Q341 575 332 575 Q321 575 309.5 575.5 Q298 576 287 576 Q273 577 260 577 Q247 577 233 577 Q230 577 229 576 Q212 559 196.5 541.5 Q181 524 167 504 Q136 460 113.5 412 Q91 364 74 311 Q64 281 56.5 250 Q49 219 46 186 Q40 128 44 72 Q45 61 46 51 Q47 41 49 30 Q52 9 58 -12 Q69 -55 92 -93 Q106 -114 123 -129 Q149 -152 183 -158 Q197 -161 209 -161 Q221 -161 233 -159 Q258 -155 280 -146 Q302 -137 322 -125 Q347 -110 368 -92 Q389 -74 408 -54 Q431 -30 450.5 -3.5 Q470 23 489 50 Q506 75 521.5 101 Q537 127 550 156 Q557 170 563 185 Q569 200 575 214 Q577 218 578 219 Q582 224 588 220 Q594 215 591 209 Q588 202 584.5 195 Q581 188 578 180 Q567 153 554 127.5 Q541 102 526 78 Q496 27 458 -20 Q426 -62 387 -97 Q365 -116 341 -132 Q317 -148 289 -159 Q277 -164 264.5 -167.5 Q252 -171 238 -173 Q218 -176 201 -175 Q130 -169 87 -108 Q70 -85 59 -57 Q52 -42 47.5 -26.5 Q43 -11 39 6 Q37 15 35.5 24.5 Q34 34 32 44 Q29 64 28 84 Q27 104 27 124 Q27 202 47 276 Q58 317 72.5 355.5 Q87 394 105 431 Q124 469 146.5 502.5 Q169 536 197 566 Q198 567 199.5 569 Q201 571 203 573 L207 577 Q202 576 197 576 Q192 575 187.5 575 Q183 575 180 575 Q175 574 170.5 574 Q166 574 161 573 Q152 572 143 571 Q134 570 126 568 Q95 563 71 552 Q58 546 48 538 Q38 530 30 519 Q28 514 25.5 509.5 Q23 505 23 500 Q23 494 24 491 Q28 484 21 482 Q17 481 11 488 Q6 496 8 504 Q9 512 12 519 Q15 526 19 532 Q36 554 64 566 Q77 572 91 576 Q105 580 119 582 Q128 584 137.5 585 Q147 586 156 588 Q164 589 171 589 Q178 589 186 590 Q195 591 203.5 591 Q212 591 221 592 Q222 592 222.5 592.5 Q223 593 224 593 Q243 610 263.5 624.5 Q284 639 307 650 Q340 667 377 674 Q384 675 390.5 676 Q397 677 405 677 Q413 678 420 678 Q427 678 435 678 Q449 677 462 674.5 Q475 672 489 666 Q493 664 496.5 662.5 Q500 661 504 658 Z M500 637 Q503 644 496 648 Q489 652 482 655 Q470 660 458.5 661.5 Q447 663 435 664 Q427 664 419 663.5 Q411 663 403 663 Q377 660 357 653 Q310 638 270 609 Q267 607 263 604.5 Q259 602 255 599 Q251 595 247 592 L253 592 Q268 591 282.5 590.5 Q297 590 312 590 Q324 590 336 590 Q348 590 360 591 Q379 591 397 594 Q411 596 423.5 598 Q436 600 448 605 Q459 608 469 612.5 Q479 617 488 624 Q492 626 495 629 Q498 632 500 637 Z " />
<glyph glyph-name="exclam" unicode="&#x21;" horiz-adv-x="80" d="M34 194 Q34 195 33 196 Q33 200 32 203 Q31 206 32 209 Q32 227 32.5 245 Q33 263 34 281 Q35 295 35.5 308.5 Q36 322 36 336 Q37 347 37 359 Q37 371 38 382 Q38 393 38 403 Q38 413 39 423 L39 466 Q40 477 40 488.5 Q40 500 40 511 L40 553 L40 583 L40 622 Q39 631 39 640.5 Q39 650 39 659 Q38 662 38 666 Q38 674 45 674 Q52 676 52 667 Q53 663 53 659.5 Q53 656 54 652 L54 618 L54 596 L54 558 L54 536 L54 496 L54 483 Q54 475 54 466.5 Q54 458 53 450 Q53 437 53 424.5 Q53 412 52 399 Q52 388 51.5 376 Q51 364 51 353 Q50 340 50 327.5 Q50 315 49 302 Q48 287 48 272 Q48 257 47 242 Q47 234 46.5 227 Q46 220 46 213 Q46 209 46.5 206 Q47 203 47 200 Q48 195 43 191 Q37 189 34 194 Z M36 157 Q43 157 43 149 Q43 145 42 142 Q40 137 34 137 Q28 139 28 144 Q28 145 28.5 145.5 Q29 146 29 147 L29 148 Q29 156 36 157 Z " />
<glyph glyph-name="one" unicode="1" horiz-adv-x="162" d="M79 524 Q74 517 69.5 511 Q65 505 60 499 Q43 476 25 453 Q7 430 -13 408 Q-15 407 -15.5 406 Q-16 405 -18 404 Q-22 401 -28 405 Q-31 410 -28 415 Q-12 432 2.5 449.5 Q17 467 31 486 Q39 497 48 508.5 Q57 520 65 531 Q67 533 68.5 534.5 Q70 536 72 538 Q78 544 84 541 Q91 539 93 530 Q94 524 94 518 Q94 512 94 506 Q95 500 95 494.5 Q95 489 95 483 Q95 476 94.5 469.5 Q94 463 94 456 L94 431 L94 405 L94 384 L94 359 L94 336 L94 306 L94 281 Q94 274 93.5 267.5 Q93 261 93 254 Q93 247 93 241 Q93 235 92 229 Q92 221 92 214 Q92 207 91 199 Q91 191 91 183 Q91 175 90 167 Q89 158 89 149 Q89 140 88 131 L85 89 Q84 79 83.5 69 Q83 59 82 48 Q81 37 81 27.5 Q81 18 80 9 Q79 1 79 -7.5 Q79 -16 78 -24 L78 -29 Q79 -38 73 -38 Q70 -39 67 -36.5 Q64 -34 64 -30 Q63 -27 63.5 -24 Q64 -21 64 -17 Q65 -7 65 3 Q65 13 66 23 L69 62 Q70 71 70 80.5 Q70 90 71 100 Q72 109 72.5 118.5 Q73 128 74 137 Q74 145 74.5 153.5 Q75 162 76 170 Q76 178 76 186 Q76 194 77 202 Q77 210 77.5 217 Q78 224 78 232 Q78 240 78.5 247 Q79 254 79 262 L79 291 Q79 297 79.5 303.5 Q80 310 80 317 L80 338 Q80 345 80 351 Q80 357 79 364 L79 387 L79 416 Q79 422 79 428 Q79 434 80 441 L80 466 L80 487 L80 511 Q80 514 79.5 517 Q79 520 79 524 Z " />
<glyph glyph-name="two" unicode="2" horiz-adv-x="222" d="M77 33 Q98 24 117 12 Q136 0 156 -11 Q163 -16 170 -19.5 Q177 -23 185 -27 Q193 -30 200 -29 L202 -29 Q208 -29 210 -36 Q212 -43 204 -43 Q197 -45 191 -43 Q183 -41 176 -38 Q169 -35 161 -30 Q147 -22 132.5 -13.5 Q118 -5 104 4 Q85 15 67 22 Q64 23 62 22 Q53 15 43.5 9.5 Q34 4 23 0 Q15 -3 6 -3 Q-2 -3 -7 3 Q-12 9 -10 17 Q-8 25 1 32 Q13 44 32 44 Q46 44 58 40 Q61 40 62 41 Q88 63 108 92 Q131 124 145 160.5 Q159 197 166 238 Q171 268 172 299 Q172 308 172 317 Q172 326 171 334 Q170 347 169.5 359 Q169 371 167 383 Q162 410 154 436.5 Q146 463 132 488 Q127 497 120 505.5 Q113 514 104 520 Q99 524 92.5 526.5 Q86 529 80 529 Q67 529 58 523 Q38 514 25 499 Q-3 471 -20 434 Q-22 428 -23 426 Q-23 418 -30 420 Q-37 420 -37 428 L-34 440 Q-25 460 -12 477 Q-4 490 6 501.5 Q16 513 28 522 Q44 535 62 541 Q89 549 114 530 Q125 522 132.5 511 Q140 500 147 489 Q162 461 172 427 Q178 404 181 382 Q183 372 184 363 Q185 354 185 344 Q188 298 183 254 Q178 210 164 168 Q152 134 134.5 104 Q117 74 92 48 L85 41 L77 33 Z M5 11 Q17 13 26.5 17.5 Q36 22 45 28 Q33 31 20 26.5 Q7 22 5 11 Z " />
<glyph glyph-name="three" unicode="3" horiz-adv-x="294" d="M76 229 Q79 228 85 228 Q96 227 108 227 Q120 227 131 226 Q156 223 179 216.5 Q202 210 224 198 Q255 181 273 153 Q281 140 285 126.5 Q289 113 287 98 Q286 70 267 47 Q257 35 245 26 Q233 17 219 9 Q199 -2 178 -10 Q157 -18 134 -23 Q122 -26 110 -28 Q98 -30 85 -32 Q76 -34 66.5 -35 Q57 -36 48 -38 Q40 -39 33.5 -39.5 Q27 -40 20 -41 Q6 -42 -7.5 -42.5 Q-21 -43 -35 -42 Q-46 -42 -56 -39 Q-64 -37 -67 -31 Q-72 -23 -67 -17 Q-64 -11 -58 -13 Q-52 -14 -54 -22 Q-56 -25 -52 -25 Q-49 -26 -46 -27 Q-43 -28 -39 -28 Q-27 -29 -15 -28.5 Q-3 -28 9 -27 Q19 -26 28.5 -25.5 Q38 -25 49 -23 Q78 -19 106 -14.5 Q134 -10 162 0 Q179 6 194.5 12.5 Q210 19 224 29 Q235 36 244 43.5 Q253 51 260 62 Q272 80 273 98 Q274 129 254 154 Q244 167 231 176 Q218 185 203 192 Q173 206 143 209 Q135 211 126.5 211.5 Q118 212 110 213 Q102 213 95 213 Q88 213 81 214 Q73 214 69 215 Q54 220 61 232 Q66 240 71 244 L122 295 Q141 314 158.5 334 Q176 354 191 377 Q200 391 208 405 Q216 419 221 435 Q226 452 226 465 Q226 497 198 515 Q183 525 162 528 Q148 531 130 529 Q101 527 75.5 518 Q50 509 28 489 Q18 481 12 470 Q10 468 9.5 465.5 Q9 463 7 461 Q7 459 8 458 Q13 455 11 449 Q7 444 2 445 Q-8 447 -8 460 Q-5 471 1 480 Q14 501 38 515 Q69 535 109 541 Q124 544 140 544 Q171 544 196 533 Q210 525 221 515 Q232 505 237 488 Q241 473 240 457 Q238 440 232 424 Q226 408 218 393 Q207 372 193 353.5 Q179 335 163 318 Q145 297 126 278.5 Q107 260 87 240 L76 229 Z " />
<glyph glyph-name="four" unicode="4" horiz-adv-x="274" d="M201 328 Q187 323 173 320.5 Q159 318 145 316 Q137 314 128.5 313.5 Q120 313 112 312 Q101 310 89 310 Q77 310 65 311 Q54 311 43 312 Q32 313 21 317 Q-2 325 -9 346 Q-11 351 -12 356.5 Q-13 362 -13 367 Q-15 394 -14.5 421 Q-14 448 -14 475 Q-14 489 -15 503 Q-16 517 -16 531 Q-16 534 -16.5 537 Q-17 540 -16 544 Q-16 551 -9 549 Q-2 549 -2 541 Q-1 530 -0.5 520 Q0 510 0 500 L0 440 Q0 423 0 406 Q0 389 1 372 Q1 358 5 347 Q10 336 19 332 Q24 330 29.5 329 Q35 328 40 327 Q62 324 79 325 Q87 325 95 325.5 Q103 326 111 327 Q120 328 128.5 328.5 Q137 329 146 331 Q160 333 173.5 336 Q187 339 199 344 Q201 345 201 348 Q202 377 202.5 404.5 Q203 432 203 460 L203 515 Q203 521 204 523 Q206 530 211 528 Q217 528 220 522 Q222 516 222 513 Q226 498 228 483 Q230 475 231 466 Q232 457 233 449 Q234 438 234.5 427.5 Q235 417 236 406 Q237 395 237 385 Q237 375 235 365 Q230 346 217 337 Q216 337 216 336 L216 334 Q213 268 210 202.5 Q207 137 204 71 Q203 43 202.5 15.5 Q202 -12 200 -40 L200 -45 Q198 -51 192 -49 Q185 -47 185 -40 Q186 -29 186 -17 Q186 -5 187 6 Q189 57 191.5 107 Q194 157 196 208 Q197 237 198 266.5 Q199 296 201 325 L201 328 Z M218 451 Q217 428 217 406.5 Q217 385 217 362 Q219 366 220 369 Q223 383 221 402 Q221 411 220.5 420.5 Q220 430 219 439 Q219 447 218 451 Z " />
<glyph glyph-name="five" unicode="5" horiz-adv-x="402" d="M375 255 Q375 230 369.5 207 Q364 184 354 161 Q339 126 317 96.5 Q295 67 267 41 Q214 -6 147 -25 Q131 -30 115.5 -33.5 Q100 -37 85 -42 Q80 -43 76 -43.5 Q72 -44 68 -44 Q56 -44 56 -33 Q56 -27 61 -25 Q66 -23 69 -28 Q70 -29 72 -29 Q79 -27 86 -26 Q93 -25 100 -23 Q141 -12 177 2 Q200 11 220.5 24 Q241 37 259 54 Q314 103 342 171 Q355 203 359 233 Q362 258 358 282 Q354 306 340 329 Q313 375 263 382 Q243 386 222 383 Q151 376 96 331 Q81 318 69 303.5 Q57 289 49 271 Q47 267 46 262.5 Q45 258 43 253 Q43 252 42.5 251.5 Q42 251 42 250 Q40 244 34 246 Q28 248 29 253 Q29 256 29 259.5 Q29 263 30 266 Q30 272 30.5 278 Q31 284 31 289 Q31 295 31.5 301 Q32 307 32 313 Q33 320 33 326 Q33 332 33 338 Q34 345 34 351.5 Q34 358 34 365 Q35 371 35 377 Q35 383 36 389 Q36 396 36 402.5 Q36 409 37 416 L37 437 Q38 444 38 450 Q38 456 38 463 L38 480 L38 505 Q36 517 35 526 L35 529 Q35 534 39.5 535.5 Q44 537 49 539 L63 541 Q69 542 75 542.5 Q81 543 88 542 Q97 542 106.5 541.5 Q116 541 125 540 L155 537 Q163 536 171 535.5 Q179 535 187 533 L214 530 Q216 529 218 528.5 Q220 528 222 526 Q225 523 223 518 Q220 513 215 515 Q205 517 200 517 Q192 519 184.5 519.5 Q177 520 169 521 Q163 522 157.5 522.5 Q152 523 146 523 Q140 524 133.5 524.5 Q127 525 121 526 Q117 526 113.5 526.5 Q110 527 106 527 Q98 528 90.5 528 Q83 528 75 528 Q70 528 65.5 527 Q61 526 56 526 Q52 526 51 525 Q51 517 51.5 508 Q52 499 52 491 Q53 483 52.5 474 Q52 465 52 457 L52 433 Q51 426 51 419.5 Q51 413 50 406 L50 381 Q49 374 49 368 Q49 362 48 355 Q48 348 48 342 Q48 336 47 330 Q47 324 47 318 Q47 312 46 306 L46 304 L46 302 L46 295 Q60 318 81 337 Q102 356 124 367 Q142 377 161 384 Q180 391 200 395 Q224 399 248 398 Q268 397 285.5 391.5 Q303 386 319 373 Q352 349 366 308 Q375 281 375 255 Z " />
<glyph glyph-name="six" unicode="6" horiz-adv-x="338" d="M316 135 Q319 118 318 103 Q316 79 308.5 57 Q301 35 286 16 Q250 -32 191 -44 Q135 -54 91 -15 Q76 -1 65.5 16 Q55 33 47 52 Q45 57 43 63 Q41 69 39 74 Q36 82 34.5 89 Q33 96 32 101 Q32 103 31.5 104 Q31 105 31 107 Q29 118 27.5 130 Q26 142 24 153 Q22 170 21.5 186 Q21 202 21 218 Q22 229 22 239 Q22 249 23 260 Q32 356 62 448 Q67 462 72 475 Q77 488 84 501 Q89 510 95.5 519 Q102 528 111 535 Q132 550 157 547 Q177 545 193 536 Q209 527 223 514 Q236 501 243 486 Q250 471 254 454 Q255 451 255.5 447.5 Q256 444 257 441 Q257 433 251 432 Q245 430 242 438 Q240 445 239 456 Q229 504 180 526 Q164 533 151 533 Q132 534 116 520 Q108 513 103 504.5 Q98 496 93 486 Q84 468 77.5 449.5 Q71 431 66 412 Q59 389 54 366.5 Q49 344 46 321 Q41 298 40 277 Q38 266 37.5 255.5 Q37 245 36 234 Q36 221 35.5 208.5 Q35 196 36 184 Q37 171 38 159 Q39 147 41 135 Q41 130 41.5 126 Q42 122 43 117 Q43 117 44 115 Q70 148 95 168 Q120 188 140 199 Q164 211 185 217 Q247 231 290 187 Q301 176 307 163 Q313 150 316 135 Z M296 65 Q304 86 304.5 104 Q305 122 301 138 L301 139 Q295 158 283 173 Q271 188 254.5 196 Q238 204 217.5 205 Q197 206 176 199 Q152 190 132 177 Q112 164 97 150.5 Q82 137 71.5 125 Q61 113 56 106 Q54 102 52.5 100.5 Q51 99 50 98 L50 97 Q47 94 49 93 Q52 84 54.5 75 Q57 66 61 57 Q68 39 78 23 Q88 7 103 -6 Q114 -17 125 -21 L126 -21 Q161 -38 207 -24 Q233 -16 256.5 4.5 Q280 25 294 59 Q294 60 295 61 L295 63 L296 64 L296 65 Z " />
<glyph glyph-name="seven" unicode="7" horiz-adv-x="355" d="M354 298 Q354 292 348 291 Q345 290 342 290 Q339 290 336 288 Q319 284 302.5 281 Q286 278 269 274 Q241 267 213.5 260.5 Q186 254 158 246 Q155 246 154 244 Q128 182 98 123 Q68 64 36 4 Q28 -8 21.5 -21 Q15 -34 8 -46 Q6 -51 2 -51 Q-8 -53 -6 -43 L-3 -37 L63 86 Q83 124 101 162 Q119 200 136 238 Q137 239 137 241 Q132 239 127 238 Q122 237 117 235 Q97 230 78 224.5 Q59 219 40 211 L28 205 Q21 202 18 207 Q13 211 19 217 L25 220 Q48 231 79 239 L142 257 Q145 258 146 261 Q160 291 172 322 Q184 353 196 385 Q209 417 221.5 449 Q234 481 248 513 Q250 518 250.5 521.5 Q251 525 253 530 Q253 531 253.5 531.5 Q254 532 254 533 Q251 533 250 532 L226 529 Q221 527 215 526.5 Q209 526 204 525 Q173 520 142 514.5 Q111 509 80 504 Q57 500 34 496.5 Q11 493 -12 489 Q-20 489 -21 495 Q-22 498 -20.5 501 Q-19 504 -16 504 Q-7 506 1.5 507 Q10 508 18 510 Q55 516 91 522 Q127 528 164 534 Q187 538 208.5 541.5 Q230 545 253 549 L255 549 Q261 549 262 548 Q269 544 269 533 Q267 525 264 517 Q261 509 258 501 Q241 459 225 417.5 Q209 376 192 334 Q185 317 178 300 Q171 283 164 266 Q164 265 163.5 264.5 Q163 264 163 263 Q167 263 173 265 Q208 273 243 282 Q278 291 313 299 L343 305 L347 305 Q353 304 354 298 Z " />
<glyph glyph-name="eight" unicode="8" horiz-adv-x="324" d="M70 187 Q62 197 55 207 Q48 217 43 228 Q27 259 23 290 Q22 301 21.5 312 Q21 323 23 334 Q25 364 35.5 391 Q46 418 62 444 Q79 472 101 495 Q123 518 151 535 Q180 554 211 560 Q229 563 246 561.5 Q263 560 280 550 Q312 530 318 493 Q323 461 312 427 Q306 406 296.5 387 Q287 368 276 349 Q262 324 245.5 300 Q229 276 212 253 Q193 226 174 199.5 Q155 173 135 147 Q135 146 134 145 Q139 140 144.5 136.5 Q150 133 156 128 Q173 115 191 102.5 Q209 90 226 76 Q236 69 245 61 Q254 53 262 44 Q273 31 276 19 Q278 8 275 -1 Q272 -10 265 -18 Q252 -31 230 -41 Q218 -46 206 -49.5 Q194 -53 181 -55 Q151 -60 121 -58 Q106 -58 91.5 -55.5 Q77 -53 63 -47 Q25 -29 17 12 Q13 41 21 75 Q28 105 40 132.5 Q52 160 69 186 Q69 187 70 187 Z M122 154 Q124 155 124 157 Q145 186 166 214 Q187 242 207 271 Q222 292 236.5 313 Q251 334 264 357 Q275 375 284 393 Q293 411 299 431 Q303 446 304.5 460.5 Q306 475 304 490 Q299 519 277 534 Q251 552 216 546 Q201 544 187.5 538 Q174 532 161 524 Q115 496 81 447 Q63 421 51 391.5 Q39 362 37 330 Q36 319 36.5 307.5 Q37 296 39 285 Q46 242 74 205 Q75 203 79 199 L91 211 Q98 216 106 215 Q113 215 113 208 Q113 201 105 201 Q102 201 100 199 Q96 196 88 188 L122 154 Z M125 133 Q124 132 120 126 Q117 122 113.5 118 Q110 114 107 109 Q105 108 104 107 Q103 106 101 105 Q95 105 94 109 Q91 113 95 117 Q97 121 100 124.5 Q103 128 106 132 Q108 135 110 137.5 Q112 140 114 142 Q105 151 96.5 159.5 Q88 168 79 176 Q79 175 78.5 174.5 Q78 174 78 173 Q49 128 35 72 Q32 58 30.5 44 Q29 30 31 15 Q39 -22 73 -36 Q87 -41 101 -42.5 Q115 -44 129 -44 Q151 -44 174 -41 Q185 -39 196.5 -37 Q208 -35 219 -30 Q228 -26 236 -22 Q244 -18 252 -10 Q263 1 262 12 Q262 22 254 30 Q242 47 225 59 Q211 70 197 80 Q183 90 169 101 Q158 109 147 117 Q136 125 125 133 Z " />
<glyph glyph-name="nine" unicode="9" horiz-adv-x="262" d="M214 469 Q212 465 211.5 461.5 Q211 458 209 454 Q200 424 186.5 396 Q173 368 153 343 Q142 329 130.5 317 Q119 305 104 295 Q92 286 81 284 Q67 280 56.5 286.5 Q46 293 43 308 Q41 319 42 329 Q43 339 45 350 Q50 370 59 389 Q68 408 79 426 Q105 471 144 505 Q155 516 168 524.5 Q181 533 196 538 Q208 543 219 542 Q222 542 228 540 Q233 537 231 531 Q229 525 223 527 Q215 529 205 526 Q194 522 184 516.5 Q174 511 165 504 Q141 485 122 461.5 Q103 438 87 412 Q79 398 72 383 Q65 368 60 351 Q58 343 56.5 335.5 Q55 328 56 320 Q56 312 58 308 Q63 294 76 298 Q89 301 103 311 Q118 323 130 337 Q142 351 153 366 Q183 412 199 470 Q201 475 202 480 Q203 485 205 490 Q207 494 207 496 Q210 502 216 502 Q222 502 224 496 Q225 493 226 490 Q227 487 227 485 L230 452 Q230 438 230.5 423 Q231 408 231 394 Q231 378 231 363 Q231 348 230 332 Q230 321 229.5 309.5 Q229 298 228 287 Q228 277 227.5 267 Q227 257 226 246 Q223 217 219 187.5 Q215 158 207 129 Q200 101 190 74 Q180 47 164 22 Q156 9 146.5 -2.5 Q137 -14 125 -23 Q112 -34 97 -40.5 Q82 -47 65 -49 Q57 -50 50 -50.5 Q43 -51 35 -50 Q24 -50 13.5 -48.5 Q3 -47 -8 -42 Q-18 -37 -24 -31 Q-30 -24 -32 -11 Q-32 23 -17 48 Q-7 63 13 71 Q19 72 22 69 Q25 64 22 60 L19 57 Q5 52 -2 42.5 Q-9 33 -13 19 Q-15 11 -16.5 3 Q-18 -5 -17 -13 Q-17 -19 -10 -24 Q-5 -28 0 -29.5 Q5 -31 11 -33 Q52 -43 90 -28 Q104 -22 115.5 -12.5 Q127 -3 137 8 Q152 28 163 50 Q174 72 182 95 Q189 115 194 134.5 Q199 154 202 174 Q204 186 205.5 198 Q207 210 209 222 Q210 232 210.5 241.5 Q211 251 212 260 Q213 271 213.5 280.5 Q214 290 214 301 Q215 316 215.5 330.5 Q216 345 216 360 Q216 377 216.5 392.5 Q217 408 217 425 Q216 435 215.5 444.5 Q215 454 215 464 Q214 466 214 469 Z " />
<glyph glyph-name="zero" unicode="0" horiz-adv-x="304" d="M79 529 Q70 526 67 521 Q66 521 66 520 Q63 512 56 516 Q49 519 53 528 Q61 540 75 543 Q82 545 88.5 545.5 Q95 546 102 547 L129 547 Q173 547 205 518 Q243 483 261 435 Q266 423 269.5 410.5 Q273 398 276 386 Q279 371 280.5 356 Q282 341 283 327 Q283 314 283 301.5 Q283 289 281 277 Q278 223 264 168 Q256 139 247.5 110.5 Q239 82 225 55 Q217 38 207 21.5 Q197 5 184 -9 Q175 -19 165 -26.5 Q155 -34 142 -39 Q127 -44 114 -44 Q85 -44 62 -21 Q42 -2 33 27 Q28 38 25 49 Q22 60 20 71 Q18 85 16.5 99.5 Q15 114 13 129 Q13 140 12.5 151.5 Q12 163 12 174 Q13 210 16.5 246 Q20 282 25 317 Q33 361 42 403 Q51 445 64 487 Q67 497 70.5 506 Q74 515 77 525 Q77 525 79 529 Z M97 532 Q95 526 95 526 Q94 524 93 523 Q92 522 92 520 Q84 503 79 485 Q74 467 69 449 Q47 370 36 285 Q34 270 32.5 255 Q31 240 29 226 Q28 214 27.5 202 Q27 190 27 178 Q27 168 27 158 Q27 148 28 137 Q29 118 30.5 99 Q32 80 37 60 Q43 35 53 14 Q58 4 65 -4.5 Q72 -13 82 -20 Q108 -36 136 -25 Q158 -16 174 3 Q186 16 194.5 30.5 Q203 45 211 60 Q227 92 237 125.5 Q247 159 255 194 Q260 217 263 241 Q266 265 268 290 Q270 311 268 333 Q267 344 266 355 Q265 366 263 377 Q261 390 257.5 402 Q254 414 249 427 Q241 449 228.5 468.5 Q216 488 199 505 Q191 512 183 517.5 Q175 523 166 526 Q151 531 134 533 Q124 534 115 533.5 Q106 533 97 532 Z " />
<glyph glyph-name="quotedbl" unicode="&#x22;" horiz-adv-x="72" d="M39 669 Q43 669 45.5 666 Q48 663 46 659 Q45 654 41 652.5 Q37 651 33 653 Q30 654 26 658 Q16 672 19 691 Q21 697 26 698 Q30 698 33 695 Q36 692 34 686 Q32 681 34 677 Q34 675 36 671 Q36 667 39 669 Z M61 674 Q69 672 69 666 Q69 659 61 659 L59 659 Q53 659 48 664 Q43 672 40 679.5 Q37 687 39 695 Q40 697 41 698.5 Q42 700 43 702 Q49 706 52 701 Q58 697 54 692 Q53 690 53 687 Q55 684 55.5 681 Q56 678 58 676 Q58 674 61 674 Z " />
<glyph glyph-name="numbersign" unicode="&#x23;" horiz-adv-x="318" d="M63 220 Q58 219 53 218.5 Q48 218 43 218 Q38 217 34.5 216 Q31 215 27 215 Q20 213 15 220 Q11 227 19 229 Q26 231 33 231.5 Q40 232 48 234 Q51 234 54.5 234 Q58 234 62 235 L64 237 Q64 252 64.5 266.5 Q65 281 66 295 L66 302 L58 302 Q50 301 42 300.5 Q34 300 26 299 Q19 299 16 298 L-1 298 Q-8 298 -11 304 Q-15 312 -7 312 Q-3 313 1 313 Q5 313 9 313 Q19 314 28 314.5 Q37 315 47 316 Q51 316 55 316.5 Q59 317 64 317 Q66 317 67 319 Q67 335 67 350.5 Q67 366 65 383 Q65 388 66 390 Q68 395 74 392 Q81 388 81 384 Q81 373 81.5 363.5 Q82 354 82 343 Q83 337 82.5 331 Q82 325 82 318 L87 318 Q100 319 113 319 Q126 319 139 320 L160 320 L161 321 Q163 337 163.5 352.5 Q164 368 165 384 L165 393 Q163 400 171 399 Q174 398 177 395.5 Q180 393 180 390 Q181 383 181 376.5 Q181 370 181 363 Q180 353 179 343.5 Q178 334 178 324 Q177 323 177 321 L180 321 L265 321 Q272 321 278.5 320.5 Q285 320 292 319 Q294 319 297 318 Q300 317 302 316 Q311 313 309 306 Q309 300 301 303 Q296 305 292 305.5 Q288 306 283 306 L210 306 Q202 307 194 306.5 Q186 306 178 306 Q176 305 176 305 Q175 288 174.5 272.5 Q174 257 172 240 Q173 240 173 239 L176 239 Q187 239 199 239 Q211 239 223 238 Q229 238 235.5 237.5 Q242 237 249 237 Q253 237 260 232 Q267 227 264 223 Q262 218 255 221 Q251 223 248 223 Q246 223 243.5 223.5 Q241 224 238 224 L174 224 Q172 224 172 222 Q171 206 171 190 Q171 174 171 158 L171 151 Q171 143 163 147 Q155 151 156 157 L156 222 L156 224 L153 224 L109 224 Q101 223 95 223 Q89 223 81 222 Q79 222 79 219 Q78 205 77.5 191.5 Q77 178 76 164 Q75 161 74.5 157.5 Q74 154 73 151 Q71 147 67 148 Q61 150 59 153 Q58 155 58 159 Q61 172 61 185.5 Q61 199 63 213 L63 220 Z M80 237 L84 237 Q91 237 97.5 237.5 Q104 238 110 238 Q121 239 132 239 Q143 239 154 239 Q157 239 157 241 Q158 257 158.5 272 Q159 287 160 303 L160 305 Q154 305 148 305.5 Q142 306 137 305 Q123 305 110.5 304.5 Q98 304 84 303 Q82 303 82 301 Q81 290 81 279.5 Q81 269 80 258 L80 237 Z " />
<glyph glyph-name="dollar" unicode="&#x24;" horiz-adv-x="208" d="M94 680 L94 655 L94 649 Q95 641 95 632.5 Q95 624 95 616 Q95 593 95.5 571 Q96 549 96 526 Q96 508 95.5 490 Q95 472 95 454 Q94 440 94 425.5 Q94 411 94 397 Q94 393 96 390 Q121 358 139 326 Q159 291 170 250 Q172 237 173.5 224.5 Q175 212 173 198 Q171 157 149 130 Q127 103 90 88 Q88 87 88 84 Q88 81 88 77.5 Q88 74 87 70 Q87 65 86.5 61 Q86 57 86 52 Q86 50 84 48 Q82 42 77 44 Q71 45 71 51 Q71 53 71.5 55.5 Q72 58 72 60 Q73 66 73 72 Q73 78 73 83 Q66 83 62 84 Q43 84 25 99 Q10 112 6 130 Q3 140 8 152 Q13 163 20 173.5 Q27 184 37 192 Q48 201 63 203 Q70 206 72 198 Q74 192 66 190 Q65 189 64 189 Q63 189 62 188 Q47 185 37 172 Q33 167 29.5 161.5 Q26 156 23 150 Q16 139 23 125 Q36 103 61 98 Q64 97 67 97.5 Q70 98 73 98 Q74 99 74 99 L74 131 Q75 145 75 158.5 Q75 172 75 186 Q76 197 76 208.5 Q76 220 77 231 Q77 245 77 260 Q77 275 78 290 Q78 304 78 317 Q78 330 79 344 L79 386 Q79 388 78.5 388.5 Q78 389 78 391 Q68 404 58.5 416 Q49 428 40 441 Q29 457 22 473.5 Q15 490 12 509 Q9 534 10 556 Q11 590 24 626 Q29 637 34.5 648 Q40 659 49 669 Q61 684 77 690 Q79 691 79 694 L79 716 L79 732 Q79 742 87 740 Q94 740 94 731 Q93 726 93 717 L93 695 Q98 695 103 694.5 Q108 694 113 693 Q121 691 127.5 687 Q134 683 139 676 Q151 661 145 639 Q138 618 123 608 Q118 605 114 605 Q107 605 107 611 Q105 616 111 618 Q126 625 131 644 Q138 663 120 674 Q108 681 94 680 Z M89 103 L90 103 Q125 118 144 149 Q152 160 155 172.5 Q158 185 159 198 Q160 208 159.5 217 Q159 226 158 235 Q152 265 140 294 Q131 314 119 332.5 Q107 351 94 369 Q93 369 93 368 Q93 345 92.5 321.5 Q92 298 92 274 Q91 262 91 250 Q91 238 91 226 Q90 212 90 198.5 Q90 185 90 171 Q89 161 89 151.5 Q89 142 89 132 L89 129 L89 103 Z M79 675 Q78 675 77.5 674.5 Q77 674 76 674 Q58 663 50 646 Q38 625 32 602.5 Q26 580 24 556 Q23 548 23.5 539 Q24 530 25 521 Q28 495 38 474 Q49 451 67 428 Q70 424 73 420.5 Q76 417 80 412 L80 414 Q80 428 80 442 Q80 456 81 470 Q81 487 81.5 503.5 Q82 520 82 537 Q82 560 81.5 582 Q81 604 80 626 L80 664 Q80 666 79.5 669 Q79 672 79 675 Z " />
<glyph glyph-name="percent" unicode="&#x25;" horiz-adv-x="264" d="M228 621 Q221 606 214.5 590.5 Q208 575 200 559 Q171 496 141 434.5 Q111 373 82 310 Q61 265 41.5 220 Q22 175 2 130 Q-6 110 -14 91.5 Q-22 73 -30 54 Q-32 51 -32.5 48 Q-33 45 -34 43 Q-37 34 -43 38 Q-51 40 -48 47 Q-44 59 -37 73 Q-23 106 -9.5 139 Q4 172 18 205 Q41 257 64.5 307.5 Q88 358 113 409 Q136 458 159 506.5 Q182 555 205 603 Q208 609 210.5 615 Q213 621 215 627 Q217 629 218 631 Q219 633 222 633 Q225 634 227.5 631.5 Q230 629 229 625 Q229 623 228 621 Z M228 249 Q235 245 229 239 Q227 235 223 235 L187 226 L157 220 Q159 220 161 220.5 Q163 221 165 220 Q168 220 171.5 220 Q175 220 178 218 Q186 216 189 209.5 Q192 203 187 195 Q183 189 178.5 185 Q174 181 169 177 Q155 166 140.5 157.5 Q126 149 109 144 Q100 141 90 141 Q67 139 67 164 Q66 171 68 177.5 Q70 184 72 190 Q76 200 80.5 209.5 Q85 219 91 227 Q94 232 99 231 Q103 230 105 225 L105 224 Q110 226 114.5 226.5 Q119 227 124 229 L172 238 L214 247 Q216 247 218 249 Q223 254 228 249 Z M162 206 Q152 205 143 204 Q134 203 124 202 Q116 200 108.5 199.5 Q101 199 93 198 Q90 198 90 196 Q88 191 86.5 187.5 Q85 184 84 179 Q81 171 81 166 Q80 154 90 155 Q95 155 103 157 Q129 166 154 183 Q159 187 163 191 Q167 195 172 199 Q173 200 175 204 Q171 206 162 206 Z M18 518 Q10 516 8 523 Q6 530 14 532 Q22 534 31 536 Q40 538 48 540 Q49 540 52 543 Q58 549 65 545 Q65 544 67 544 Q75 546 83.5 547.5 Q92 549 101 551 Q113 554 125 551 Q141 547 138 529 Q136 522 132.5 515.5 Q129 509 124 503 Q103 472 70 459 Q65 457 60.5 456 Q56 455 51 456 Q39 459 36 472 Q33 484 36 495 Q38 503 39 509 Q40 515 42 523 Q43 523 43 524 Q39 523 36 522.5 Q33 522 29 521 Q26 520 23.5 519.5 Q21 519 18 518 Z M49 477 Q49 476 50 475 Q51 469 56 471 Q59 472 62.5 472.5 Q66 473 69 475 Q95 487 113 512 Q116 517 119 521.5 Q122 526 124 532 Q124 537 120 537 Q112 539 104 537 Q93 535 83 533 Q73 531 63 529 Q60 526 60 526 Q50 504 49 483 L49 477 Z " />
<glyph glyph-name="ampersand" unicode="&#x26;" horiz-adv-x="234" d="M182 166 Q178 162 176 159 Q149 129 105 120 Q78 115 55 125 Q18 141 12 178 Q8 200 16 225 Q27 257 44 284.5 Q61 312 87 333 Q101 345 117 353 Q133 361 150 366 L153 366 Q147 368 141 370 Q135 372 129 374 Q111 381 99.5 394 Q88 407 86 427 Q80 462 102 487 Q110 496 119.5 500 Q129 504 140 506 Q161 507 178 496 Q181 493 183 492 L183 494 Q184 502 184 508.5 Q184 515 184 523 Q185 534 185 544 Q185 554 185 565 Q186 576 186 588 Q186 600 186 612 Q186 615 187 616 Q189 621 194 621 Q200 619 200 614 L200 577 L200 552 Q199 538 199 525.5 Q199 513 198 499 Q198 493 197.5 486 Q197 479 197 473 Q196 471 196 467 Q194 461 190 461 Q185 459 183 464 Q181 468 181 469 Q173 491 148 491 Q128 493 115 480 Q102 467 99 446 Q98 438 99.5 430.5 Q101 423 103 415 Q109 401 123 393 Q132 388 141.5 385 Q151 382 161 380 Q168 378 174.5 377.5 Q181 377 188 376 Q196 374 196 369 Q198 362 190 360 Q185 358 181 357.5 Q177 357 172 356 Q109 344 71 297 Q58 280 48 262.5 Q38 245 31 225 Q28 215 26 205.5 Q24 196 25 186 Q27 166 38.5 154 Q50 142 64 137 Q79 132 93.5 133.5 Q108 135 123 140 Q153 153 171 175 Q177 183 182 188 Q183 189 183 190 Q183 191 184 192 Q185 199 191 199 Q198 199 198 191 Q198 187 198 183 Q198 179 197 174 L197 163 Q196 150 195.5 138 Q195 126 195 113 Q196 103 196.5 93 Q197 83 197 72 Q198 66 198 60.5 Q198 55 199 49 Q199 44 199.5 39.5 Q200 35 200 30 Q202 23 194 21 Q191 20 188.5 22.5 Q186 25 186 28 Q185 33 185 37 Q185 41 184 45 Q184 54 183.5 63 Q183 72 182 81 Q180 113 182 145 L182 166 Z " />
<glyph glyph-name="parenleft" unicode="&#x28;" horiz-adv-x="130" d="M27 353 Q27 361 27 370 Q27 379 28 388 Q33 443 47 490 Q61 540 81.5 586 Q102 632 129 676 Q134 683 142 693 Q145 696 150 698 Q156 701 160 694 Q161 688 155 685 Q152 683 150 680 Q140 668 131 652 Q106 609 87.5 564.5 Q69 520 57 472 Q49 442 45 412 L42 379 Q42 371 41.5 363 Q41 355 41 347 Q41 338 41.5 328.5 Q42 319 43 310 Q45 296 47 281.5 Q49 267 51 253 Q54 239 58 225 Q62 211 67 197 Q72 181 78 165.5 Q84 150 90 134 Q93 125 100 118 Q104 113 100 109 Q94 103 90 108 Q88 111 85.5 113.5 Q83 116 81 119 Q72 136 66 157 Q58 176 52 194.5 Q46 213 41 233 Q35 259 32 282 Q30 293 29.5 303 Q29 313 28 323 Q27 331 27 338 Q27 345 27 353 Z " />
<glyph glyph-name="parenright" unicode="&#x29;" horiz-adv-x="108" d="M74 423 Q74 414 74.5 405 Q75 396 74 387 Q74 377 73 367.5 Q72 358 71 348 Q69 319 63.5 290.5 Q58 262 52 233 Q47 206 41 178.5 Q35 151 29 124 Q27 119 25.5 113 Q24 107 22 102 Q21 101 21 100 Q21 99 20 98 Q16 92 11 96 Q5 100 8 105 Q16 125 20 146.5 Q24 168 29 189 Q34 210 37.5 231 Q41 252 45 272 Q47 285 49.5 297.5 Q52 310 54 324 Q55 332 56 341 Q57 350 58 359 Q59 367 59 373.5 Q59 380 60 387 Q60 395 60.5 403.5 Q61 412 61 420 Q61 432 60.5 444 Q60 456 60 469 Q59 480 58.5 490.5 Q58 501 56 512 Q53 552 45 591 Q37 630 26 668 Q24 674 21.5 679.5 Q19 685 17 690 Q14 696 19 700 Q24 703 29 698 Q31 695 32 691.5 Q33 688 35 685 Q40 672 44 658.5 Q48 645 51 631 Q55 615 58 600 Q61 585 64 570 Q66 560 67 551 Q68 542 69 532 Q70 522 71 512.5 Q72 503 73 493 Q73 487 73.5 481.5 Q74 476 74 471 Q74 459 74.5 447 Q75 435 75 423 L74 423 Z " />
<glyph glyph-name="asterisk" unicode="&#x2a;" horiz-adv-x="144" d="M81 630 L81 612 Q81 611 80.5 610 Q80 609 80 608 Q78 600 72 602 Q66 604 66 609 Q66 620 67 625 L67 628 Q66 627 65.5 627 Q65 627 64 626 Q56 618 47.5 610 Q39 602 31 594 Q31 593 30 592.5 Q29 592 29 591 Q23 589 20 593 Q16 597 19 601 Q20 602 20.5 603 Q21 604 22 605 Q32 615 41.5 624 Q51 633 61 643 Q63 645 63 645 L63 646 L48 643 Q38 641 31 639 Q30 639 29.5 638.5 Q29 638 28 638 Q25 633 20 635 Q15 636 14 641 Q13 647 17 649 L23 652 Q30 654 36.5 655.5 Q43 657 50 659 Q46 663 43 665 Q39 668 35.5 671 Q32 674 27 678 Q23 681 23 686 Q26 693 33 691 Q34 690 35 689.5 Q36 689 37 688 Q45 682 52 676 Q59 670 67 663 L68 663 L68 679 Q68 686 69 690 Q71 696 77 695 Q83 693 83 688 L83 667 L83 664 L85 666 Q93 674 100.5 681 Q108 688 116 696 Q121 701 124 702 Q127 705 132 702 Q135 699 135 695 Q134 693 132 691 Q128 688 121 681 Q117 677 113.5 673.5 Q110 670 106 665 Q108 665 109 665.5 Q110 666 112 666 Q117 666 122 666 Q127 666 132 665 Q139 665 141 658 Q144 654 140 650 Q137 647 132 649 Q129 652 125.5 652 Q122 652 118 652 Q111 651 104.5 650.5 Q98 650 92 649 Q87 649 86 646 L86 645 Q95 636 104 627.5 Q113 619 122 610 Q125 608 128 605 Q131 602 134 600 Q137 597 137 593 Q135 583 126 588 Q124 590 122.5 591 Q121 592 119 594 Q110 602 101 610.5 Q92 619 84 628 Q82 628 82 630 L81 630 Z " />
<glyph glyph-name="plus" unicode="&#x2b;" horiz-adv-x="126" d="M68 287 Q76 288 83.5 288.5 Q91 289 99 289 Q106 290 108 283 Q109 280 106.5 277.5 Q104 275 101 275 Q93 274 85.5 274 Q78 274 70 273 Q67 273 67 271 Q67 260 66 255 Q66 254 65.5 253 Q65 252 65 250 Q62 245 56 247 Q51 249 51 254 Q52 258 52 261 Q52 264 53 268 L53 272 Q48 271 40 271 L33 271 Q29 270 26.5 272.5 Q24 275 24 278 Q24 285 33 285 Q38 285 43.5 285.5 Q49 286 54 286 Q54 292 55 295 Q56 299 56 303 Q56 307 57 311 Q57 315 60 317 Q63 319 66 318 Q73 316 71 308 L68 287 Z " />
<glyph glyph-name="hyphen" unicode="&#x2d;" horiz-adv-x="134" d="M93 272 L66 272 L50 272 Q41 272 43 280 Q43 286 51 286 Q60 286 69 286.5 Q78 287 88 286 Q95 286 98 285 Q104 281 101 276 Q99 271 93 271 L93 272 Z " />
<glyph glyph-name="slash" unicode="&#x2f;" horiz-adv-x="218" d="M240 696 Q239 694 239 693 Q239 692 238 691 Q214 628 187 567 Q160 506 133 444 Q115 401 96 358.5 Q77 316 58 273 L-8 129 Q-10 125 -11 122 Q-12 119 -14 115 Q-16 109 -22 111 Q-29 113 -27 119 Q-27 121 -26.5 121.5 Q-26 122 -26 124 Q-12 154 2 184 Q16 214 30 245 Q62 318 94.5 391 Q127 464 159 538 Q173 571 186.5 603.5 Q200 636 214 669 Q217 676 219.5 682.5 Q222 689 225 696 Q225 697 225.5 697.5 Q226 698 226 699 Q230 704 234 703 Q240 701 240 696 Z " />
<glyph glyph-name="equal" unicode="&#x3d;" horiz-adv-x="164" d="M140 262 Q140 254 133 254 L113 254 L87 254 L59 254 L35 254 L30 254 Q25 256 25 261 Q25 267 31 267 Q35 268 42 268 Q53 268 62.5 268.5 Q72 269 82 269 Q91 269 100 268.5 Q109 268 118 268 L131 268 Q138 268 140 262 Z M58 281 Q51 281 51 287 Q51 295 58 295 Q66 295 73.5 295 Q81 295 89 294 L104 294 Q107 294 111 292 Q117 290 115 284 Q114 279 107 279 L103 279 L103 280 L82 280 Q76 280 70 280 Q64 280 58 281 Z " />
<glyph glyph-name="at" unicode="&#x40;" horiz-adv-x="250" d="M139 309 Q143 305 141 299 L138 278 Q137 274 137.5 271 Q138 268 138 264 Q139 258 147 256 Q152 256 156.5 258 Q161 260 165 262 Q173 267 178.5 272.5 Q184 278 189 285 Q211 313 218 348 Q219 360 218 372 Q216 377 213.5 382.5 Q211 388 205 392 Q201 394 197.5 395 Q194 396 189 397 Q174 399 160.5 395.5 Q147 392 133 386 Q93 366 70 331 Q57 311 48 290 Q39 269 35 245 Q30 227 32 207 Q33 196 38 185 Q43 174 53 168 Q63 162 74 161 Q86 160 96.5 163.5 Q107 167 116 172 Q124 177 135 185 Q146 193 157 201 Q168 210 181 220 Q181 221 186.5 225 Q192 229 196 224 L197 224 Q201 219 197 215 Q195 212 193 211 L169 191 Q158 183 148.5 176 Q139 169 128 161 Q111 150 90 147 Q74 145 60 149.5 Q46 154 34 168 Q23 180 20 196 Q15 215 17 232 Q19 249 24 266 Q32 298 48 325 Q64 352 88 374 Q115 399 150 408 Q173 414 196 410 Q226 402 232 373 Q234 362 233 352 Q232 342 229 332 Q217 285 181 255 Q176 250 170.5 247 Q165 244 157 243 Q154 242 150.5 242 Q147 242 144 242 Q128 245 125 261 Q123 265 123 268 Q118 262 113.5 257 Q109 252 103 247 Q99 245 94.5 243 Q90 241 84 241 Q77 242 72.5 246.5 Q68 251 69 257 Q69 265 74 275 Q80 286 89.5 295 Q99 304 110 312 Q115 316 120.5 319 Q126 322 133 324 Q139 324 142 323 Q148 319 147 315 Q147 309 140 309 L139 309 Z M99 264 Q107 272 112.5 281.5 Q118 291 123 302 L122 302 Q119 300 116.5 298 Q114 296 111 294 Q103 287 96.5 279.5 Q90 272 86 263 Q85 261 84.5 259 Q84 257 83 255 Q84 255 85 256 Q89 257 92.5 259.5 Q96 262 99 264 Z " />
<glyph glyph-name="bracketleft" unicode="&#x5b;" horiz-adv-x="118" d="M28 188 Q28 198 27.5 207.5 Q27 217 27 227 Q28 235 28 243 Q28 251 28 259 Q29 269 29 278 Q29 287 30 297 Q31 307 31 316 Q31 325 32 335 Q32 343 32.5 352 Q33 361 34 369 Q34 377 34.5 384 Q35 391 35 399 Q35 407 35.5 415 Q36 423 36 431 Q37 438 37 444.5 Q37 451 37 459 Q38 466 38 472.5 Q38 479 38 486 Q39 492 39 498 Q39 504 40 511 Q40 519 40 526 Q40 533 41 541 Q42 548 42 555 Q42 562 42 569 Q43 576 43 583 Q43 590 44 597 Q44 605 44.5 611.5 Q45 618 45 626 Q46 638 47.5 650 Q49 662 52 673 Q56 694 79 696 Q88 698 96.5 699 Q105 700 114 701 Q118 701 121.5 701 Q125 701 130 700 Q139 698 139 690 Q139 685 135 684 Q131 680 128 684 Q125 687 119 687 Q109 685 99.5 684 Q90 683 80 682 Q79 682 78 681.5 Q77 681 76 681 Q70 679 68 674 Q65 667 64 661 Q63 655 62 648 Q61 635 60 622 Q59 609 58 596 Q58 585 57.5 575 Q57 565 56 555 Q56 547 55.5 538 Q55 529 54 521 Q54 513 53.5 506 Q53 499 53 491 Q53 484 52.5 477.5 Q52 471 52 465 Q52 457 51.5 450.5 Q51 444 51 437 Q51 430 50.5 423.5 Q50 417 50 411 Q50 404 49.5 397.5 Q49 391 49 384 Q48 377 48 371 Q48 365 48 359 Q47 351 47 344 Q47 337 46 329 Q46 321 45.5 314 Q45 307 45 300 Q44 292 44 285.5 Q44 279 43 271 Q43 264 42.5 257.5 Q42 251 42 244 L42 215 Q42 206 42.5 197 Q43 188 43 179 Q44 173 45 167 Q46 161 47 155 Q48 154 48 153 Q48 152 49 151 Q53 137 69 134 Q80 132 89.5 130.5 Q99 129 110 127 Q112 126 113 126 Q114 126 116 125 Q121 121 120 117 Q118 110 112 112 Q101 114 89 116 Q77 118 66 120 Q42 124 34 150 Q31 160 30 169 Q29 178 28 188 Z " />
<glyph glyph-name="bracketright" unicode="&#x5d;" horiz-adv-x="118" d="M65 687 L41 687 Q35 686 29.5 685.5 Q24 685 18 684 Q16 684 15 683.5 Q14 683 12 683 Q6 683 4 690 Q4 696 10 698 Q14 698 17.5 698.5 Q21 699 24 699 Q33 700 42 700.5 Q51 701 59 702 L67 702 Q79 700 80 687 L83 627 Q84 615 84.5 603 Q85 591 85 579 L85 537 L85 502 Q85 491 84.5 479.5 Q84 468 83 457 Q82 445 81.5 432.5 Q81 420 80 407 Q79 395 78 383.5 Q77 372 76 360 Q75 348 74.5 335.5 Q74 323 72 311 Q71 299 70.5 287 Q70 275 68 263 Q67 250 66.5 237.5 Q66 225 64 212 Q62 203 60.5 193.5 Q59 184 57 174 Q54 160 45.5 149.5 Q37 139 26 131 Q9 118 -14 110 Q-20 108 -23 108 Q-31 108 -31 116 Q-31 123 -23 123 L-21 123 Q-10 128 1 133 Q12 138 21 146 Q42 161 45 188 Q47 200 48.5 212.5 Q50 225 52 237 Q53 249 53.5 261 Q54 273 56 285 Q57 299 57.5 311.5 Q58 324 60 337 Q61 351 62 365 Q63 379 64 393 Q66 407 66.5 419 Q67 431 68 444 Q69 455 69 467 Q69 479 70 490 Q70 499 70.5 508.5 Q71 518 71 528 Q71 537 71 546.5 Q71 556 70 565 Q69 591 68.5 616.5 Q68 642 67 668 Q67 673 66.5 676.5 Q66 680 66 685 Q66 686 65.5 686 Q65 686 65 687 Z " />
<glyph glyph-name="asciicircum" unicode="&#x5e;" horiz-adv-x="133" d="M117 629 Q113 629 110 632 Q103 640 98 648 Q92 655 86.5 662 Q81 669 75 677 Q70 682 69 682.5 Q68 683 63 678 Q45 660 32 641 Q30 639 30 637 Q27 629 20 632 Q13 634 15 641 L21 650 Q28 661 36 670 Q44 679 53 688 Q60 695 67 696 Q74 697 80 692 Q84 688 87 684.5 Q90 681 94 676 Q100 668 105.5 661 Q111 654 117 646 Q118 643 121 642 Q127 640 125 634 Q123 629 117 629 Z " />
<glyph glyph-name="underscore" unicode="&#x5f;" horiz-adv-x="206" d="M16 171 Q8 173 9 178 Q12 185 19 185 Q31 186 42.5 186.5 Q54 187 65 187 L112 187 Q120 187 127 186.5 Q134 186 142 186 L174 186 Q183 186 181 179 Q178 172 170 172 L135 172 Q129 173 123 173 Q117 173 111 173 L81 173 L58 173 Q50 173 41.5 172.5 Q33 172 25 172 Q23 172 20.5 171.5 Q18 171 16 171 Z " />
<glyph glyph-name="asciitilde" unicode="&#x7e;" horiz-adv-x="286" d="M201 223 Q181 223 164.5 227 Q148 231 132 237 Q124 240 115 243.5 Q106 247 97 249 Q92 251 87 251.5 Q82 252 77 253 Q71 253 65 252 Q59 251 53 249 Q46 246 39 243 Q32 240 27 235 Q25 233 23.5 230.5 Q22 228 20 226 Q15 220 10 221 Q4 224 7 232 Q11 244 22 250 Q51 268 82 267 Q93 266 102.5 263.5 Q112 261 122 257 Q143 248 164 242 Q185 236 208 238 Q219 239 229.5 243 Q240 247 250 252 Q251 252 253 255 Q257 261 262 258 Q268 255 266 249 Q265 244 259 240 Q249 235 239 231 Q229 227 218 225 Q213 224 208.5 223.5 Q204 223 201 223 Z " />
<glyph glyph-name="colon" unicode="&#x3a;" horiz-adv-x="72" d="M46 322 Q52 318 51 313 Q51 306 45 305 Q43 305 42 304 Q32 300 32 311 Q32 317 36.5 320.5 Q41 324 46 322 Z M40 238 Q49 238 49 229 Q49 220 40 220 Q32 220 32 230 Q32 238 40 238 Z " />
<glyph glyph-name="semicolon" unicode="&#x3b;" horiz-adv-x="74" d="M55 245 Q56 243 57 241 Q58 239 58 237 Q57 232 56 228.5 Q55 225 52 222 Q49 218 45 218 Q38 218 37 223 Q36 227 40 231 Q43 232 43 239 Q41 245 46 247 Q51 251 55 245 Z M39 305 Q33 301 31 309 Q29 314 32.5 318.5 Q36 323 41 323 Q48 323 49 316 Q51 309 44 306 Q42 305 39 305 Z " />
<glyph glyph-name="less" unicode="&#x3c;" horiz-adv-x="152" d="M48 277 Q56 273 62 269 Q68 265 76 261 Q87 254 99.5 248 Q112 242 124 235 Q125 234 129 232 Q135 230 133 224 Q131 218 124 218 Q123 219 122 219 Q121 219 119 220 Q99 231 78 243 Q57 255 37 266 Q37 268 34 268 Q25 275 34 283 Q38 287 41 289 Q55 300 67 311.5 Q79 323 90 335 Q92 337 93 337.5 Q94 338 96 340 Q102 346 106 340 Q110 335 105 330 Q100 325 95.5 320 Q91 315 86 310 Q78 301 68.5 293.5 Q59 286 50 279 L48 277 Z " />
<glyph glyph-name="greater" unicode="&#x3e;" horiz-adv-x="136" d="M95 292 Q90 296 85.5 300 Q81 304 76 308 Q70 313 64.5 318 Q59 323 53 328 Q51 329 50.5 329.5 Q50 330 48 331 Q39 333 41 340 Q44 348 52 345 Q56 343 60 340 Q71 331 82.5 321.5 Q94 312 105 303 Q111 297 110 291 Q110 285 105 282 Q100 277 96 274 Q92 271 87 267 Q71 253 56 240.5 Q41 228 25 215 Q24 213 23 212.5 Q22 212 21 210 Q18 203 12 207 Q6 210 8 216 Q11 221 12 222 Q20 229 26.5 235 Q33 241 41 247 Q53 258 65.5 267.5 Q78 277 90 288 Q94 290 95 292 Z " />
<glyph glyph-name="question" unicode="&#x3f;" horiz-adv-x="242" d="M249 649 Q253 638 252 626.5 Q251 615 246 604 Q242 592 236.5 581.5 Q231 571 225 560 Q214 540 201.5 522 Q189 504 176 486 Q161 464 147.5 441.5 Q134 419 123 396 Q97 342 83 282 Q80 268 77 254 Q74 240 71 226 Q69 219 69 211.5 Q69 204 67 196 Q67 188 66.5 181 Q66 174 66 166 Q66 160 67 157 Q70 152 65 149 Q62 145 56 149 Q51 154 51 160 Q51 168 51.5 175.5 Q52 183 53 191 Q53 196 53.5 201 Q54 206 55 211 Q56 220 57 229 Q58 238 60 247 Q65 273 72 299 Q79 325 88 351 Q101 386 118 418 Q135 450 156 481 Q168 499 180 517 Q192 535 204 554 Q212 566 218.5 578 Q225 590 231 604 Q237 617 237 631 Q238 647 229 660 Q220 673 205 679 Q190 684 181 684 Q160 684 143 678.5 Q126 673 111 665 Q92 654 77 640.5 Q62 627 49 610 Q40 598 32 585.5 Q24 573 17 559 Q15 553 13 549 Q13 547 12.5 545 Q12 543 13 541 Q15 535 10 533 Q5 529 1 535 Q-4 541 -2 548 Q0 553 2 558 Q4 563 6 568 Q21 597 40.5 622 Q60 647 87 666 Q101 677 117 684.5 Q133 692 151 695 Q181 703 208 693 Q240 681 249 649 Z M67 108 Q71 107 71 101 Q67 95 63 95 Q61 96 60 96 Q59 96 57 98 Q52 101 55 106 Q57 112 62 110 Q65 110 67 108 Z " />
<glyph glyph-name="period" unicode="&#x2e;" horiz-adv-x="72" d="M9 181 Q9 191 19 191 Q24 191 26 187.5 Q28 184 29 180 Q30 176 26.5 173.5 Q23 171 19 171 Q9 171 9 181 Z " />
<glyph glyph-name="quotesingle" unicode="&#x27;" horiz-adv-x="52" d="M46 668 Q48 668 48 669 Q52 670 56 667 Q60 663 57 660 Q55 652 48 652 Q41 651 36 657 Q32 665 30 670 Q27 679 30 690 Q32 695 33 695 Q36 699 43 697 Q47 690 45 687 Q42 683 44 677 Q44 674 46 668 Z " />
<glyph glyph-name="backslash" unicode="&#x5c;" horiz-adv-x="256" d="M2 702 Q5 702 9 698 L12 692 Q41 633 65 573 Q89 513 112 451 Q129 408 144 365 Q159 322 173 278 Q185 241 197.5 205 Q210 169 223 133 Q224 130 226 126 Q229 120 223 116 Q221 114 218 115 Q215 116 214 119 Q211 124 209 129 Q192 174 177.5 218 Q163 262 148 307 Q122 383 94.5 457.5 Q67 532 35 606 Q27 626 17.5 646.5 Q8 667 -2 687 Q-2 688 -4 692 Q-8 702 2 702 Z " />
<glyph glyph-name="braceleft" unicode="&#x7b;" horiz-adv-x="152" d="M64 310 Q70 310 72 309 Q83 307 87 296 Q89 292 89.5 287.5 Q90 283 91 278 Q91 268 91 259 Q91 250 90 240 L87 177 Q87 159 93 143 Q98 133 106 128 Q123 118 137 114 Q143 112 148 116 Q153 120 157 114 Q161 109 156 104 Q148 97 138 99 Q115 103 93 119 Q81 129 77 148 Q75 154 74.5 160.5 Q74 167 73 174 L73 199 Q74 208 74.5 217 Q75 226 75 236 Q76 245 76 254.5 Q76 264 76 274 Q76 280 74 290 Q72 296 66 296 Q62 295 59 295 Q56 295 52 294 L45 294 Q37 294 39 304 Q40 306 41 306.5 Q42 307 43 309 Q48 315 52.5 320 Q57 325 62 331 Q75 347 78 371 Q80 385 80.5 398.5 Q81 412 81 426 Q81 434 81 440.5 Q81 447 80 454 Q80 465 79.5 475 Q79 485 78 496 Q78 503 77.5 510 Q77 517 77 525 Q77 536 76.5 546 Q76 556 76 566 Q76 576 76 585.5 Q76 595 78 604 Q80 636 91 662 Q99 682 116 691 Q131 697 146 694 Q147 693 148 693 Q149 693 150 692 Q155 689 153 683 Q149 678 144 679 Q134 683 124 678.5 Q114 674 108 665 Q103 657 101 649 Q99 641 97 633 Q95 625 93.5 616 Q92 607 92 598 Q91 582 91 567 Q91 552 91 537 Q91 525 91.5 513.5 Q92 502 93 490 Q94 481 94 471.5 Q94 462 94 452 Q95 441 95 429 Q95 417 95 405 Q95 381 91 361 Q85 335 66 312 Q66 312 64 310 Z " />
<glyph glyph-name="braceright" unicode="&#x7d;" horiz-adv-x="126" d="M74 307 Q72 309 70 310.5 Q68 312 66 314 Q45 329 39 358 Q34 378 34 396 L34 428 Q36 439 36.5 449.5 Q37 460 39 471 L48 534 Q50 544 51 554 Q52 564 53 574 Q54 582 54.5 589 Q55 596 55 603 Q55 610 55.5 616 Q56 622 55 629 Q55 640 53 651 Q51 662 46 673 Q45 675 45 675.5 Q45 676 44 678 Q40 685 35 686.5 Q30 688 23 687 Q21 687 18.5 686 Q16 685 14 684 Q8 681 4 687 Q1 694 7 697 Q11 699 17 701 Q22 702 26 702.5 Q30 703 34 701 Q49 698 55 686 Q65 670 68 649 Q71 629 69 604 Q69 591 68 578 Q67 565 65 552 Q63 536 60.5 520.5 Q58 505 56 489 Q54 478 53 467.5 Q52 457 50 446 Q48 434 48 421 Q48 408 48 395 Q49 384 50.5 374 Q52 364 55 354 Q60 337 74 326 Q78 323 84 317 Q94 305 84 296 Q76 290 72 288 Q68 284 62 280 Q58 276 56 266 Q56 258 55.5 250 Q55 242 55 234 Q54 228 53.5 221.5 Q53 215 53 209 L47 161 Q45 149 43 142 Q40 128 31 119 Q27 114 23.5 110 Q20 106 16 102 L11 97 Q4 95 1 99 Q-2 103 2 109 L17 124 Q28 136 31 153 L37 192 Q38 199 38 206 Q38 213 39 221 Q40 229 40.5 238 Q41 247 42 256 L42 269 Q43 284 56 293 Q61 298 69 303 Q71 304 74 307 Z " />
<glyph glyph-name="bar" unicode="&#x7c;" horiz-adv-x="116" d="M51 241 L51 330 Q51 347 51.5 365 Q52 383 52 400 Q52 417 52.5 434 Q53 451 53 468 Q53 483 53.5 497.5 Q54 512 54 526 Q55 539 55 551 Q55 563 55 576 Q56 591 56 606 Q56 621 56 636 Q56 645 55.5 654 Q55 663 54 671 Q53 677 53 683 Q53 689 53 694 L53 698 Q56 703 61 703 Q67 701 67 696 Q68 691 68 687 Q68 683 68 678 Q68 673 68.5 667.5 Q69 662 70 656 Q70 654 70.5 650.5 Q71 647 71 645 L71 590 Q70 581 70 572 Q70 563 69 554 Q69 539 69 523.5 Q69 508 68 493 Q68 479 68 466 Q68 453 67 440 Q67 420 66.5 401.5 Q66 383 66 364 Q66 335 65.5 307 Q65 279 65 250 Q65 219 65 188.5 Q65 158 64 126 Q64 121 64.5 115.5 Q65 110 66 105 Q66 98 60 97 Q54 95 52 102 Q51 105 50.5 107.5 Q50 110 50 113 L50 241 L51 241 Z " />
<glyph glyph-name="grave" unicode="&#x60;" horiz-adv-x="66" d="M59 650 Q64 646 63 642 Q61 636 55 636 Q49 636 48 640 L36 655 Q30 663 24.5 670 Q19 677 13 684 L10 687 L9 688 Q8 690 7 692.5 Q6 695 9 698 Q13 701 16.5 699.5 Q20 698 21 697 L21 696 L25 692 Q27 690 28.5 688 Q30 686 32 684 Q38 676 44 668.5 Q50 661 55 653 Q58 650 59 650 Z " />
<glyph glyph-name="ll" unicode="&#xf6c0;" horiz-adv-x="354" d="M364 299 Q369 294 365 289 Q351 267 337 245.5 Q323 224 309 202 Q298 185 285.5 170 Q273 155 258 141 Q251 136 244 131 Q237 126 229 124 Q209 119 194 136 Q188 144 184 152.5 Q180 161 177 170 Q170 192 167 224 Q167 230 166.5 239.5 Q166 249 166 260 Q158 249 151.5 237.5 Q145 226 137 215 Q126 198 113.5 183 Q101 168 86 155 Q79 149 72 144 Q65 139 57 137 Q36 132 22 149 Q18 155 15 158 Q14 160 14 160.5 Q14 161 13 163 Q12 164 12 166 Q11 167 11 170 Q7 181 4.5 194 Q2 207 0 224 Q0 231 -0.5 242.5 Q-1 254 -1 266 L-1 282 L-1 283 L-1 284 Q0 293 0 302 Q0 311 0 320 Q1 340 2 359 Q3 378 5 397 Q5 402 5.5 406 Q6 410 6 414 Q7 423 7.5 431.5 Q8 440 9 448 Q11 458 11.5 467 Q12 476 14 486 Q20 523 27.5 559 Q35 595 49 630 Q52 638 55 645 Q58 652 63 660 Q68 669 74 676 Q81 684 91 691 Q102 697 110 696 Q112 695 114 695 Q116 695 118 693 Q121 692 126 687 Q133 680 137 671.5 Q141 663 143 654 Q146 642 146 632 Q147 618 146 605 Q144 567 134.5 530.5 Q125 494 112 458 Q100 422 82 390 Q75 377 67 364 Q59 351 51 338 Q43 325 34 312 Q25 299 17 286 Q17 286 14 283 L14 282 L14 281 Q13 266 13 251 Q13 236 15 222 Q17 210 18.5 198.5 Q20 187 23 175 Q23 175 25 170 Q25 169 27 167 Q28 165 28.5 163.5 Q29 162 31 160 Q33 158 33 157 Q40 148 51 151 Q59 153 65 157.5 Q71 162 77 167 Q92 181 104.5 196 Q117 211 128 228 Q138 243 147 258 Q156 273 166 287 Q166 295 166 303.5 Q166 312 167 320 Q167 340 168 359 Q169 378 171 397 Q172 402 172 406 Q172 410 172 414 Q173 423 173.5 431.5 Q174 440 176 448 Q177 458 178 467 Q179 476 180 486 Q186 523 193.5 559 Q201 595 215 630 Q218 638 221.5 645 Q225 652 229 660 Q232 664 235 668 Q238 672 241 676 Q249 686 258 691 Q268 697 277 696 Q279 695 280.5 695 Q282 695 284 693 Q289 691 292 687 Q299 680 303 671.5 Q307 663 309 654 Q311 648 311.5 642.5 Q312 637 313 632 L313 605 Q310 567 301 530.5 Q292 494 279 458 Q272 441 264.5 424 Q257 407 248 390 Q241 377 233 364 Q225 351 217 338 Q209 325 200.5 312 Q192 299 183 286 Q182 286 182 285 Q181 284 181 283 L180 282 L180 281 Q179 266 179 251 Q179 236 181 222 Q183 206 185.5 190.5 Q188 175 196 160 Q198 155 200.5 151.5 Q203 148 205 144 Q212 135 223 138 Q231 140 237 144.5 Q243 149 249 154 Q264 168 276.5 183 Q289 198 300 215 Q313 235 325 254 Q337 273 350 293 Q352 297 354 298 Q359 303 364 299 Z M15 326 Q14 323 14 315 L14 308 L15 309 Q15 310 15.5 310 Q16 310 16 311 Q29 329 39 346 Q46 357 52.5 367.5 Q59 378 65 389 Q90 435 106 482 Q116 513 123 544.5 Q130 576 132 608 Q133 621 132 633 Q131 638 130.5 642.5 Q130 647 129 652 Q127 659 124 665.5 Q121 672 116 677 Q107 686 99 679 Q91 674 85 666 Q83 664 81.5 661.5 Q80 659 78 657 Q72 648 68 638.5 Q64 629 59 619 Q45 580 38 538 Q35 523 32 507.5 Q29 492 27 476 Q25 468 24.5 459 Q24 450 23 441 Q22 434 21.5 427 Q21 420 20 412 Q19 405 19 398.5 Q19 392 18 385 Q18 376 17 371 Q17 366 16.5 360.5 Q16 355 16 350 Q15 344 15 338 Q15 332 15 326 Z M181 310 L181 308 Q182 308 182 309 Q182 310 183 311 Q183 311 184 313 Q189 321 194.5 329.5 Q200 338 206 346 Q218 365 231 389 Q244 411 254 434 Q264 457 272 482 Q282 513 289.5 544.5 Q297 576 299 608 Q299 615 299 621 Q299 627 298 633 Q298 641 295 652 Q292 667 282 677 Q274 687 265 679 Q261 676 257.5 673 Q254 670 251 666 L245 657 Q239 648 234.5 638.5 Q230 629 226 619 Q212 582 204 538 Q201 523 198.5 507.5 Q196 492 193 476 Q192 468 191 459 Q190 450 189 441 Q188 434 187.5 427 Q187 420 186 412 Q186 405 185.5 398.5 Q185 392 185 385 Q184 380 184 371 Q183 366 183 360.5 Q183 355 182 350 Q182 344 181.5 338 Q181 332 181 326 L181 310 Z " />
<glyph glyph-name="quotedblleft" unicode="&#x201c;" horiz-adv-x="72" d="M39 669 Q43 669 45.5 666 Q48 663 46 659 Q45 654 41 652.5 Q37 651 33 653 Q30 654 26 658 Q16 672 19 691 Q21 697 26 698 Q30 698 33 695 Q36 692 34 686 Q32 681 34 677 Q34 675 36 671 Q36 667 39 669 Z M61 674 Q69 672 69 666 Q69 659 61 659 L59 659 Q53 659 48 664 Q43 672 40 679.5 Q37 687 39 695 Q40 697 41 698.5 Q42 700 43 702 Q49 706 52 701 Q58 697 54 692 Q53 690 53 687 Q55 684 55.5 681 Q56 678 58 676 Q58 674 61 674 Z " />
<glyph glyph-name="quotedblright" unicode="&#x201d;" horiz-adv-x="71" d="M39 669 Q43 669 45.5 666 Q48 663 46 659 Q45 654 41 652.5 Q37 651 33 653 Q30 654 26 658 Q16 672 19 691 Q21 697 26 698 Q30 698 33 695 Q36 692 34 686 Q32 681 34 677 Q34 675 36 671 Q36 667 39 669 Z M61 674 Q69 672 69 666 Q69 659 61 659 L59 659 Q53 659 48 664 Q43 672 40 679.5 Q37 687 39 695 Q40 697 41 698.5 Q42 700 43 702 Q49 706 52 701 Q58 697 54 692 Q53 690 53 687 Q55 684 55.5 681 Q56 678 58 676 Q58 674 61 674 Z " />
<glyph glyph-name="quoteright" unicode="&#x2019;" horiz-adv-x="54" d="M46 668 Q48 668 48 669 Q52 670 56 667 Q60 663 57 660 Q55 652 48 652 Q41 651 36 657 L30 670 Q27 679 30 690 Q32 695 33 695 Q36 699 43 697 Q47 690 45 687 Q42 683 44 677 Q44 674 46 668 Z " />
<glyph glyph-name="quoteleft" unicode="&#x2018;" horiz-adv-x="55" d="M46 668 Q48 668 48 669 Q52 670 56 667 Q60 663 57 660 Q55 652 48 652 Q41 651 36 657 L30 670 Q27 679 30 690 Q32 695 33 695 Q36 699 43 697 Q47 690 45 687 Q42 683 44 677 Q44 674 46 668 Z " />
<glyph glyph-name="comma" unicode="&#x2c;" horiz-adv-x="57" d="M23 180 Q23 175 20 171 Q13 162 5 157 Q-2 154 -6 158 Q-9 164 -3 169 Q-1 171 2 173.5 Q5 176 7 178 Q8 179 8 180 L8 181 Q5 187 11 191 Q17 193 21 189 L24 180 L23 180 Z " />
<glyph glyph-name="B" unicode="B" horiz-adv-x="609" d="M252 662 Q261 656 256 649 Q252 647 248 641 Q240 629 234.5 616 Q229 603 223 589 Q206 550 195.5 508.5 Q185 467 180 423 Q178 402 176.5 381 Q175 360 175 339 Q175 316 174.5 294.5 Q174 273 175 251 Q174 234 174.5 217.5 Q175 201 175 184 Q174 155 172.5 127.5 Q171 100 168 72 Q164 43 160 15 Q156 -13 150 -40 Q147 -56 142 -70.5 Q137 -85 131 -99 Q127 -107 123 -114.5 Q119 -122 113 -129 Q105 -139 95 -146 Q85 -153 72 -155 Q58 -158 45 -155 Q25 -149 12 -130 Q-1 -106 -1 -83 Q-2 -46 23 -17 Q27 -12 34 -7 Q41 -2 42 -2 Q45 0 51 2 Q57 4 59 -1 Q61 -4 59 -6 Q57 -9 52 -14 Q50 -15 49 -16 Q48 -17 47 -17 Q14 -37 14 -81 Q12 -101 23 -121 Q29 -132 38 -137 Q47 -142 55 -142 Q76 -142 90 -130 Q97 -125 102 -119 Q107 -113 111 -106 Q117 -94 122 -81.5 Q127 -69 130 -55 Q138 -32 142 -8 Q146 16 150 41 Q157 99 159 158 Q160 196 159 235 Q160 280 160 324 Q160 368 164 413 Q173 508 207 590 Q213 606 220 621.5 Q227 637 236 651 Q240 657 242 659 Q246 663 252 662 Z M628 -212 Q633 -213 638.5 -215.5 Q644 -218 642 -222 Q642 -225 639 -226 Q634 -228 628 -226 L618 -224 Q613 -223 609 -222 Q605 -221 600 -220 Q568 -212 536.5 -202 Q505 -192 475 -179 Q464 -175 454.5 -172 Q445 -169 434 -166 Q430 -165 426 -166 Q376 -199 315 -211 Q284 -217 252 -213 Q235 -210 223 -203 Q215 -199 211 -194 Q203 -187 201.5 -179 Q200 -171 203 -163 Q205 -157 209 -153 Q213 -149 218 -145 Q226 -140 234.5 -136.5 Q243 -133 252 -131 Q266 -127 281 -126.5 Q296 -126 310 -126 Q333 -128 356 -132 Q379 -136 402 -142 Q407 -144 412 -144.5 Q417 -145 422 -147 Q426 -149 429 -146 Q480 -111 511 -62 Q542 -13 553 51 Q555 67 556.5 82.5 Q558 98 558 115 Q557 135 554.5 156 Q552 177 544 197 Q523 248 476 280 Q462 290 447 295 Q432 300 416 302 Q377 308 337 298 Q334 297 330 297 Q324 297 321 301 Q318 306 322 310 Q324 312 330 316 Q338 321 346.5 326.5 Q355 332 364 338 Q386 353 406.5 371 Q427 389 444 410 Q459 429 471 449.5 Q483 470 489 494 Q494 511 495 528 Q496 545 492 563 Q475 638 407 680 Q390 691 371 697.5 Q352 704 332 706 Q305 710 279 707.5 Q253 705 228 699 Q154 680 94 631 Q56 599 34 556 Q28 544 24 532 Q20 520 19 507 Q19 502 19 496 Q19 490 21 485 Q24 474 33 471 Q35 471 36 470 Q43 466 42 461 Q39 455 33 457 Q17 460 11 475 Q9 478 8 481.5 Q7 485 6 488 Q3 500 4.5 510.5 Q6 521 8 532 Q18 568 43 599 Q65 628 92 649 Q119 670 152 686 Q176 699 202.5 707 Q229 715 258 720 Q311 728 361 715 Q396 705 425.5 685.5 Q455 666 476 634 Q499 601 506 566.5 Q513 532 505 496 Q500 474 491 454.5 Q482 435 470 417 Q437 372 392 339 Q388 337 382.5 333.5 Q377 330 372 326 Q366 322 358 317 L366 318 L367 318 L370 318 Q391 320 412 317.5 Q433 315 454 307 Q484 295 506.5 274.5 Q529 254 545 226 Q555 210 560 193.5 Q565 177 568 160 Q573 130 572 98 Q571 66 564.5 35 Q558 4 547 -24.5 Q536 -53 521 -75 Q507 -97 489 -115 Q471 -133 450 -150 Q449 -151 448 -151.5 Q447 -152 445 -154 Q446 -155 447 -155 Q465 -162 483 -168 Q501 -174 518 -180 Q544 -190 570.5 -197 Q597 -204 623 -211 Q626 -211 628 -212 Z M406 -162 Q408 -160 410 -159 Q403 -157 397.5 -156 Q392 -155 387 -153 Q364 -147 339.5 -143.5 Q315 -140 292 -140 Q278 -141 265 -143.5 Q252 -146 240 -151 Q228 -155 221 -164 Q208 -178 227 -189 Q239 -196 249 -197 Q275 -203 301 -198 Q358 -189 406 -162 Z " />
<glyph glyph-name="A" unicode="A" horiz-adv-x="482" d="M499 -243 Q499 -243 497 -245 Q496 -246 496 -247 Q492 -249 489 -247 Q484 -245 477.5 -239.5 Q471 -234 460 -220 Q452 -210 447.5 -199 Q443 -188 438 -175 Q433 -157 428.5 -138.5 Q424 -120 422 -102 Q417 -77 414 -52.5 Q411 -28 409 -2 Q407 21 404.5 43.5 Q402 66 400 89 Q399 106 398.5 122 Q398 138 397 154 Q397 196 397 236.5 Q397 277 398 319 L398 325 Q363 323 329 326 Q295 329 260 332 Q260 330 258 326 Q248 281 237 237 Q226 193 215 149 Q203 104 190.5 59 Q178 14 162 -31 Q153 -58 142 -84.5 Q131 -111 117 -137 Q106 -157 92.5 -175 Q79 -193 62 -208 Q51 -217 39 -224 Q27 -231 13 -235 Q-4 -240 -19 -237.5 Q-34 -235 -46 -226.5 Q-58 -218 -66 -205.5 Q-74 -193 -77 -179 Q-80 -157 -75 -141 Q-70 -124 -56 -113 Q-42 -102 -26 -100 Q-16 -98 -7 -101 Q6 -105 12 -118 Q14 -123 13 -125 Q14 -130 9 -132 Q4 -135 0 -129 Q0 -128 -0.5 -127.5 Q-1 -127 -1 -126 Q-6 -114 -18 -114 Q-34 -113 -47 -124.5 Q-60 -136 -62 -153 Q-67 -182 -50 -203 Q-37 -217 -23.5 -221.5 Q-10 -226 8 -221 Q28 -217 46 -202 Q62 -189 74.5 -173.5 Q87 -158 98 -141 Q109 -122 118.5 -101.5 Q128 -81 136 -61 Q148 -30 157.5 0.5 Q167 31 176 63 Q193 121 207.5 179 Q222 237 236 296 L245 332 L245 335 Q237 336 231 337 Q225 338 217 340 Q203 342 189 344.5 Q175 347 162 349 Q142 352 122.5 354 Q103 356 82 355 Q68 354 55.5 351.5 Q43 349 31 343 Q15 336 6 327 Q-14 311 -14 286 Q-14 278 -11 269 Q-9 261 -4 253.5 Q1 246 6 240 Q8 237 14 233 Q19 229 17 223 Q13 216 7 220 L-2 226 Q-13 237 -20 250.5 Q-27 264 -28 280 Q-29 294 -26 305.5 Q-23 317 -13 328 Q-5 340 7.5 347.5 Q20 355 34 360 Q48 365 61 367 Q74 369 88 369 Q122 370 159 364 Q180 361 200.5 357.5 Q221 354 242 350 Q246 350 248 349 Q249 352 249 354 Q249 356 251 358 Q261 402 270.5 445 Q280 488 290 531 Q298 564 307 596.5 Q316 629 328 661 Q334 686 349 712 Q352 717 354.5 722.5 Q357 728 362 733 Q364 735 367 737 Q370 739 373 741 Q384 747 392 738 Q394 735 396.5 731.5 Q399 728 401 724 Q405 716 406 708 Q407 700 409 692 Q412 677 412.5 662.5 Q413 648 414 633 Q416 600 416.5 566.5 Q417 533 416 500 Q416 477 415 454.5 Q414 432 414 409 Q414 377 413.5 345 Q413 313 412 281 Q411 261 411 241.5 Q411 222 411 202 Q411 187 411 172 Q411 157 413 142 Q413 110 416 79 Q420 44 422 10 Q425 -25 429.5 -60 Q434 -95 442 -130 Q445 -144 449 -158 Q453 -172 458 -186 Q460 -190 460 -190 L460 -191 Q461 -193 464.5 -198.5 Q468 -204 473 -212 Q478 -219 484 -225.5 Q490 -232 498 -237 Q503 -239 499 -243 Z M388 339 Q391 339 393.5 339.5 Q396 340 399 341 Q399 343 398.5 344 Q398 345 398 347 Q399 356 399 365 Q399 374 399 382 Q401 416 401 449 Q401 482 402 515 Q402 547 401.5 579 Q401 611 399 643 Q399 656 397.5 668.5 Q396 681 394 694 Q392 701 390.5 708 Q389 715 386 722 Q382 728 380 728.5 Q378 729 374 724 Q367 716 361 705 Q355 693 350.5 681 Q346 669 341 657 Q330 626 321.5 595 Q313 564 305 532 Q296 490 286.5 449.5 Q277 409 268 367 Q266 362 265 357.5 Q264 353 263 348 Q265 347 267 347 Q272 346 277.5 345.5 Q283 345 289 344 Q300 343 311 342.5 Q322 342 333 341 Q347 339 360.5 338.5 Q374 338 388 339 Z " />
</font>
</svg>
