<?xml version="1.0" encoding="UTF-8"?>
<svg xmlns="http://www.w3.org/2000/svg" xmlns:xlink="http://www.w3.org/1999/xlink" version="1.2" >
<font id="Funtastic Youth Sans">
<font-face  font-family="Funtastic Youth Sans" units-per-em="1000" ascent="750" descent="-250" font-style="normal" font-weight="400" font-stretch="normal" cap-height="716" x-height="716" underline-position="-75" underline-thickness="50" />
<missing-glyph  horiz-adv-x="191" d="" />
<glyph glyph-name="NULL" d="" />
<glyph glyph-name="CR" unicode="&#xd;" horiz-adv-x="191" d="" />
<glyph glyph-name="space" unicode="&#x20;" horiz-adv-x="191" d="" />
<glyph glyph-name="exclam" unicode="&#x21;" horiz-adv-x="211" d="M45 -198 L166 -198 L166 -98 L45 -98 L45 -198 L45 -198 Z M45 -9 L166 -9 L166 716 L45 716 L45 -9 L45 -9 Z " />
<glyph glyph-name="quotedbl" unicode="&#x22;" horiz-adv-x="306" d="M20 616 L58 616 L51 516 L97 516 L142 616 L142 728 L20 728 L20 616 L20 616 Z M158 616 L195 616 L188 516 L235 516 L279 616 L279 728 L158 728 L158 616 L158 616 Z " />
<glyph glyph-name="numbersign" unicode="&#x23;" horiz-adv-x="457" d="M367 500 L282 500 L273 409 L208 409 L217 500 L133 500 L123 409 L58 409 L51 340 L115 340 L107 255 L42 255 L34 186 L100 186 L88 82 L172 82 L183 186 L248 186 L237 82 L322 82 L333 186 L393 186 L399 255 L341 255 L350 340 L408 340 L416 409 L357 409 L367 500 L367 500 Z M256 255 L191 255 L200 340 L265 340 L256 255 L256 255 Z " />
<glyph glyph-name="dollar" unicode="&#x24;" horiz-adv-x="400" d="M322 628 C306 641 288 651 268 658 L268 715 L147 715 L147 658 C126 652 108 642 91 628 C59 602 43 570 43 533 L43 338 C43 304 57 274 85 249 C117 219 157 204 203 204 L211 204 C235 204 247 193 247 171 L247 -31 C247 -40 243 -48 236 -54 C227 -61 218 -64 207 -64 C196 -64 186 -61 179 -54 C171 -48 167 -40 167 -31 L167 160 L43 160 L43 -32 C47 -66 65 -95 96 -118 C112 -130 128 -138 147 -144 L147 -198 L268 -198 L268 -144 C286 -138 303 -130 318 -118 C349 -95 367 -66 371 -32 L371 172 C372 196 366 220 355 243 C345 264 330 281 312 293 C289 308 260 316 226 316 L203 316 C192 316 183 319 176 325 C170 332 167 339 167 348 L167 545 C167 554 171 562 179 568 C186 575 196 578 207 578 C218 578 227 575 236 568 C243 562 247 554 247 545 L247 353 L371 353 L371 533 C371 570 355 602 322 628 L322 628 Z " />
<glyph glyph-name="percent" unicode="&#x25;" horiz-adv-x="603" d="M410 715 L103 -197 L181 -197 L488 715 L410 715 L410 715 Z M530 126 C507 140 480 147 448 147 C415 147 387 140 364 126 C342 112 330 96 330 76 L330 -128 C330 -147 342 -163 364 -177 C387 -191 415 -197 448 -197 C480 -197 507 -191 530 -177 C553 -163 564 -147 564 -128 L564 76 C564 96 553 112 530 126 L530 126 Z M476 -134 C476 -138 474 -143 468 -146 C462 -149 455 -150 448 -150 C440 -150 433 -149 427 -146 C421 -143 418 -138 418 -134 L418 82 C418 87 421 91 427 95 C433 98 440 100 448 100 C455 100 462 98 468 95 C474 91 476 87 476 82 L476 -134 L476 -134 Z M233 391 C256 404 268 420 268 440 L268 644 C268 663 256 680 233 694 C211 708 183 715 152 715 C119 715 91 708 68 694 C45 680 34 663 34 644 L34 440 C34 420 45 404 68 391 C91 377 119 370 152 370 C183 370 211 377 233 391 L233 391 Z M122 434 L122 650 C122 655 125 659 131 663 C137 666 143 667 152 667 C159 667 166 666 172 663 C177 659 180 655 180 650 L180 434 C180 429 177 425 172 422 C166 418 159 417 152 417 C143 417 137 418 131 422 C125 425 122 429 122 434 L122 434 Z " />
<glyph glyph-name="ampersand" unicode="&#x26;" horiz-adv-x="449" d="M354 319 L237 319 L237 307 L216 307 C194 307 177 312 167 320 C158 327 154 337 154 349 L154 582 C154 593 158 602 166 610 C174 618 184 622 195 622 C207 622 217 618 224 610 C232 602 237 593 237 582 L237 396 L353 396 L354 568 C354 610 338 646 307 676 C277 705 239 721 195 721 C152 721 114 705 83 676 C53 646 37 610 37 568 L37 362 C37 323 51 289 78 260 C51 231 37 196 37 157 L37 -50 C37 -92 53 -128 83 -158 C114 -188 152 -203 195 -203 C232 -203 266 -191 295 -169 C329 -139 352 -104 353 -54 L354 209 L404 209 L404 307 L354 307 L354 319 L354 319 Z M237 -64 C237 -75 232 -84 224 -92 C217 -100 207 -104 195 -104 C184 -104 174 -100 166 -92 C158 -84 154 -75 154 -64 L154 170 C154 192 169 205 199 209 L237 209 L237 -64 L237 -64 Z " />
<glyph glyph-name="quotesingle" unicode="&#x27;" horiz-adv-x="155" d="M93 516 L138 616 L138 728 L16 728 L16 616 L54 616 L47 516 L93 516 L93 516 Z " />
<glyph glyph-name="parenleft" unicode="&#x28;" horiz-adv-x="243" d="M203 729 C158 729 119 715 87 689 C56 663 40 631 40 595 L40 -78 C40 -115 56 -146 87 -173 C119 -199 158 -212 203 -212 L212 -211 L218 -211 L218 -120 L215 -121 L212 -122 C208 -122 205 -122 203 -122 C192 -122 182 -119 174 -113 C166 -107 163 -99 163 -90 L163 606 C163 615 166 623 174 629 C182 636 192 640 203 640 C206 640 209 639 212 638 L215 638 L218 636 L218 728 L212 729 L203 729 L203 729 Z " />
<glyph glyph-name="parenright" unicode="&#x29;" horiz-adv-x="243" d="M156 689 C124 715 85 728 40 728 L31 728 L26 728 L26 636 L29 637 L31 638 C34 639 37 639 40 639 C51 639 61 636 69 629 C77 623 80 615 80 606 L80 -90 C80 -99 77 -107 69 -113 C61 -120 51 -123 40 -123 C38 -123 35 -122 31 -122 L29 -121 L26 -120 L26 -211 L31 -212 L40 -212 C85 -212 124 -199 156 -173 C188 -147 203 -115 203 -78 L203 594 C203 631 188 663 156 689 L156 689 Z " />
<glyph glyph-name="asterisk" unicode="&#x2a;" horiz-adv-x="285" d="M265 669 L216 714 L176 673 L177 728 L106 728 L107 673 L68 714 L18 669 L91 606 L18 542 L68 498 L106 541 L106 483 L177 483 L176 541 L216 498 L265 542 L190 606 L265 669 L265 669 Z " />
<glyph glyph-name="plus" unicode="&#x2b;" horiz-adv-x="324" d="M218 395 L107 395 L107 311 L14 311 L14 211 L107 211 L107 127 L218 127 L218 211 L311 211 L311 311 L218 311 L218 395 L218 395 Z " />
<glyph glyph-name="comma" unicode="&#x2c;" horiz-adv-x="158" d="M21 -212 L56 -212 L49 -301 L92 -301 L134 -212 L134 -113 L21 -113 L21 -212 L21 -212 Z " />
<glyph glyph-name="hyphen" unicode="&#x2d;" horiz-adv-x="280" d="M19 250 L259 250 L259 350 L19 350 L19 250 L19 250 Z " />
<glyph glyph-name="period" unicode="&#x2e;" horiz-adv-x="130" d="M9 -212 L122 -212 L122 -112 L9 -112 L9 -212 L9 -212 Z " />
<glyph glyph-name="slash" unicode="&#x2f;" horiz-adv-x="325" d="M166 766 L43 -266 L158 -266 L281 766 L166 766 L166 766 Z " />
<glyph glyph-name="zero" unicode="0" horiz-adv-x="452" d="M343 689 C311 715 272 728 226 728 C180 728 141 715 108 689 C76 662 60 630 60 594 L60 -79 C60 -116 76 -147 108 -174 C141 -200 180 -213 226 -213 C272 -213 311 -200 343 -174 C376 -147 392 -116 392 -79 L392 594 C392 630 376 662 343 689 L343 689 Z M267 -91 C267 -100 263 -108 255 -114 C247 -120 237 -123 226 -123 C214 -123 205 -120 197 -114 C189 -108 185 -100 185 -91 L185 606 C185 615 189 622 197 629 C205 635 214 639 226 639 C237 639 247 635 255 629 C263 622 267 615 267 606 L267 -91 L267 -91 Z " />
<glyph glyph-name="one" unicode="1" horiz-adv-x="243" d="M16 617 L60 617 L60 -198 L183 -198 L183 716 L68 716 L16 617 L16 617 Z " />
<glyph glyph-name="two" unicode="2" horiz-adv-x="442" d="M55 592 L55 353 L179 353 L179 604 C179 613 184 621 192 627 C200 634 209 638 220 638 C232 638 241 634 250 627 C258 621 262 613 262 604 L262 562 L262 520 C262 446 262 399 262 376 C260 325 235 279 187 240 C140 201 107 165 84 127 C65 94 53 58 53 -91 L53 -94 L53 -202 L385 -202 L385 -102 L176 -102 L176 32 C176 55 188 80 211 109 C228 129 290 182 290 182 C341 226 372 278 382 338 C385 355 386 373 386 391 L387 507 L386 564 L386 592 C386 630 370 661 338 687 C306 714 266 727 220 727 C175 727 136 714 103 687 C71 661 55 630 55 592 L55 592 Z " />
<glyph glyph-name="three" unicode="3" horiz-adv-x="438" d="M59 573 C59 430 60 357 60 355 L180 355 L180 587 C180 598 185 608 193 616 C201 624 211 628 223 628 C235 628 245 624 254 616 C262 608 266 598 266 587 L266 350 C266 338 262 329 253 321 C242 312 215 308 215 308 L215 208 C215 208 266 202 266 168 L266 -69 C266 -81 262 -91 254 -99 C245 -107 235 -110 223 -110 C211 -110 201 -107 193 -99 C185 -91 180 -81 180 -69 L180 139 L59 139 L59 -56 C59 -99 75 -136 107 -166 C139 -197 178 -212 223 -212 C268 -212 307 -197 339 -166 C371 -136 387 -99 387 -56 L387 154 C387 194 373 230 344 260 C373 289 387 324 387 364 L387 573 C387 616 371 653 339 683 C307 713 268 729 223 729 C178 729 139 713 107 683 C75 653 59 616 59 573 L59 573 Z " />
<glyph glyph-name="four" unicode="4" horiz-adv-x="451" d="M60 716 L60 106 C60 80 68 79 85 79 L268 79 L268 -198 L391 -198 L391 79 L424 79 L424 180 L391 180 L391 716 L268 716 L268 180 L183 180 L183 716 L60 716 L60 716 Z " />
<glyph glyph-name="five" unicode="5" horiz-adv-x="428" d="M382 717 L61 717 L60 261 L208 261 C253 260 265 243 265 227 L265 -67 C265 -79 261 -89 253 -97 C244 -105 234 -108 223 -108 C211 -108 201 -105 192 -97 C184 -89 179 -79 179 -67 L179 209 L59 209 L59 -54 C59 -97 75 -134 107 -164 C139 -195 177 -210 223 -210 C268 -210 306 -195 338 -164 C370 -134 386 -97 386 -54 L386 227 C386 264 366 304 340 328 C316 349 288 360 256 360 C222 360 198 360 182 360 L181 618 L382 618 L382 717 L382 717 Z " />
<glyph glyph-name="six" unicode="6" horiz-adv-x="444" d="M392 -77 L392 2 C392 2 392 2 393 2 L393 171 C393 208 377 246 344 273 C312 299 272 305 227 305 C213 305 199 304 186 301 C186 301 186 360 186 423 L186 606 C186 615 190 623 197 629 C206 635 215 639 227 639 C238 639 247 635 255 629 C264 623 268 616 268 606 L268 404 L393 404 L392 594 C392 631 376 663 344 689 C311 715 272 728 227 728 C181 728 142 715 109 689 C77 663 60 631 60 594 L60 -77 C60 -114 77 -146 109 -172 C142 -199 181 -212 227 -212 C272 -212 311 -199 344 -172 C376 -146 392 -114 392 -77 L392 -77 Z M268 81 C268 82 268 82 268 82 L268 -89 C268 -98 264 -106 255 -113 C247 -119 238 -122 227 -122 C215 -122 206 -119 197 -113 C191 -107 187 -100 186 -92 L186 183 C186 192 190 200 198 206 C206 212 216 216 227 216 C238 216 248 212 256 206 C264 200 268 192 268 183 L268 81 L268 81 Z " />
<glyph glyph-name="seven" unicode="7" horiz-adv-x="345" d="M205 -197 L315 717 L38 717 L38 618 L177 618 L82 -197 L205 -197 L205 -197 Z " />
<glyph glyph-name="eight" unicode="8" horiz-adv-x="411" d="M322 -174 C355 -147 371 -116 371 -79 L371 172 C371 172 371 253 327 296 C327 296 371 345 371 402 L371 594 C371 630 355 662 322 688 C290 714 251 728 205 728 C159 728 120 714 88 688 C55 662 39 630 39 594 L39 402 C39 345 84 296 84 296 C40 253 40 172 40 172 L39 -79 C39 -116 55 -147 88 -174 C120 -200 159 -213 205 -213 C251 -213 290 -200 322 -174 L322 -174 Z M164 605 C164 615 168 622 176 629 C184 635 194 639 205 639 C216 639 226 635 234 629 C242 622 246 615 246 605 L246 348 C246 315 164 315 164 349 L164 605 L164 605 Z M164 -91 L164 194 C164 227 246 229 246 193 L246 -91 C246 -100 242 -107 234 -114 C226 -120 216 -123 205 -123 C194 -123 184 -120 176 -114 C168 -107 164 -100 164 -91 L164 -91 Z " />
<glyph glyph-name="nine" unicode="9" horiz-adv-x="444" d="M101 -174 C133 -200 173 -213 218 -213 C264 -213 303 -200 335 -174 C368 -147 384 -116 384 -79 L384 593 C384 630 368 661 335 687 C303 714 264 727 218 727 C173 727 133 714 101 687 C69 661 52 630 52 593 L52 344 C53 300 68 276 100 249 C133 223 172 210 218 210 C232 210 246 211 259 214 L259 -91 C259 -100 255 -108 247 -114 C239 -120 229 -123 218 -123 C207 -123 197 -120 189 -114 C181 -108 176 -94 176 -85 L177 126 L52 126 L52 -79 C52 -116 69 -147 101 -174 L101 -174 Z M259 332 C259 323 255 315 247 309 C239 303 229 300 218 300 C206 300 197 303 189 309 C181 315 177 323 177 332 L177 604 C177 614 181 621 189 628 C197 634 207 638 218 638 C229 638 239 634 247 628 C254 622 258 615 259 608 L259 332 L259 332 Z " />
<glyph glyph-name="colon" unicode="&#x3a;" horiz-adv-x="178" d="M37 414 L144 414 L144 514 L37 514 L37 414 L37 414 Z M37 0 L144 0 L144 100 L37 100 L37 0 L37 0 Z " />
<glyph glyph-name="semicolon" unicode="&#x3b;" horiz-adv-x="179" d="M39 -2 L72 -2 L66 -91 L106 -91 L144 -2 L144 98 L39 98 L39 -2 L39 -2 Z M39 412 L144 412 L144 512 L39 512 L39 412 L39 412 Z " />
<glyph glyph-name="less" unicode="&#x3c;" horiz-adv-x="425" d="M25 300 C25 282 37 267 54 263 L398 155 L398 250 L235 300 L398 351 L398 446 L54 338 C37 334 25 319 25 300 L25 300 Z " />
<glyph glyph-name="equal" unicode="&#x3d;" horiz-adv-x="294" d="M27 328 L267 328 L267 428 L27 428 L27 328 L27 328 Z M27 174 L267 174 L267 274 L27 274 L27 174 L27 174 Z " />
<glyph glyph-name="greater" unicode="&#x3e;" horiz-adv-x="426" d="M372 338 L28 446 L28 351 L190 300 L28 250 L28 155 L372 263 C388 267 401 282 401 300 C401 319 388 334 372 338 L372 338 Z " />
<glyph glyph-name="question" unicode="&#x3f;" horiz-adv-x="411" d="M130 -199 L251 -199 L251 -99 L130 -99 L130 -199 L130 -199 Z M323 689 C291 715 253 728 207 728 C163 728 124 715 92 689 C60 662 44 631 44 594 L44 354 L167 354 L167 606 C167 615 171 622 179 629 C187 635 196 638 207 638 C218 638 228 635 236 629 C244 622 248 615 248 606 L248 346 C248 328 246 315 243 307 C241 299 235 292 227 284 L192 258 C182 250 172 239 161 224 C152 212 145 199 140 186 C133 169 130 152 130 135 L130 -10 L251 -10 L251 150 C251 161 256 170 264 176 L344 259 C354 270 361 284 366 301 C369 314 371 329 371 347 L371 594 C371 631 355 662 323 689 L323 689 Z " />
<glyph glyph-name="at" unicode="&#x40;" horiz-adv-x="776" d="M634 669 C566 722 484 748 387 748 C292 748 210 722 142 669 C74 615 40 551 40 475 L40 26 C40 -49 74 -113 142 -166 C210 -219 292 -245 387 -245 L676 -245 L678 -151 L387 -152 C325 -152 271 -135 225 -100 C180 -65 158 -23 158 26 L158 475 C158 524 180 566 225 602 C271 637 325 654 387 654 C450 654 505 637 551 602 C595 566 618 524 618 475 L618 180 C618 121 611 81 597 61 C592 53 587 47 581 44 C579 44 576 44 574 44 L537 44 L537 446 C537 478 522 505 494 528 C465 551 430 562 389 562 C348 562 313 551 284 528 C255 505 240 478 240 446 L240 394 L353 443 L353 456 C353 464 356 471 363 477 C370 482 379 485 389 485 C399 485 407 482 414 477 C422 471 426 464 426 456 L426 385 C426 385 305 328 291 317 C264 296 248 273 242 248 C241 242 240 236 240 232 L240 55 C240 32 248 11 264 -9 C279 -26 302 -52 453 -51 L568 -51 C635 -51 682 -25 708 25 C727 61 736 113 736 180 L736 475 C736 551 702 615 634 669 L634 669 Z M390 44 C352 44 353 68 353 76 L353 211 C352 217 354 225 357 235 C361 243 367 250 375 255 C385 264 397 271 411 277 L418 280 L426 284 L426 75 C426 68 425 44 390 44 L390 44 Z " />
<glyph glyph-name="A" unicode="A" horiz-adv-x="384" d="M145 -107 L239 -107 L253 -198 L376 -198 L253 716 L131 716 L8 -198 L131 -198 L145 -107 L145 -107 Z M192 367 L224 -8 L160 -8 L192 367 L192 367 Z " />
<glyph glyph-name="B" unicode="B" horiz-adv-x="415" d="M372 -68 L372 216 C372 278 329 289 329 289 C329 289 372 308 372 367 L372 585 C372 621 357 656 324 681 C292 707 264 716 206 716 C107 716 40 716 40 716 L40 -198 C40 -198 114 -198 206 -198 C259 -198 291 -186 323 -160 C356 -134 372 -104 372 -68 L372 -68 Z M235 -102 C227 -108 217 -111 206 -111 L165 -111 L165 242 C220 242 247 241 247 199 C246 124 247 -80 247 -80 C247 -88 243 -96 235 -102 L235 -102 Z M247 384 C247 350 228 337 165 338 L165 629 L206 629 C217 629 227 626 235 619 C243 613 247 606 247 597 C247 597 247 419 247 384 L247 384 Z " />
<glyph glyph-name="C" unicode="C" horiz-adv-x="435" d="M108 -173 C141 -199 180 -212 226 -212 C272 -212 311 -199 343 -173 C376 -147 392 -115 392 -78 L392 178 L267 178 L267 -90 C267 -99 263 -107 255 -113 C247 -119 237 -123 226 -123 C214 -123 205 -119 197 -113 C189 -107 185 -99 185 -90 L185 606 C185 615 189 623 197 629 C205 636 214 639 226 639 C237 639 247 636 255 629 C263 623 267 615 267 606 L267 338 L392 338 L392 594 C392 631 376 663 343 689 C311 715 272 728 226 728 C180 728 141 715 108 689 C76 663 60 631 60 594 L60 -78 C60 -115 76 -147 108 -173 L108 -173 Z " />
<glyph glyph-name="D" unicode="D" horiz-adv-x="432" d="M335 -162 C368 -136 382 -103 382 -67 L382 109 L382 411 L382 586 C382 622 368 657 335 682 C303 708 274 716 215 716 C116 716 50 716 50 716 L50 586 L50 -67 L50 -198 C50 -198 124 -198 215 -198 C269 -198 303 -187 335 -162 L335 -162 Z M174 630 L215 630 C227 630 236 627 245 620 C253 614 256 607 256 598 L256 411 L256 -79 C256 -88 253 -95 245 -101 C236 -107 227 -111 215 -111 L174 -111 L174 630 L174 630 Z " />
<glyph glyph-name="E" unicode="E" horiz-adv-x="364" d="M305 -99 L183 -99 L183 208 L264 208 L264 308 L183 308 L183 616 L305 616 L305 716 L60 716 L60 -198 L305 -198 L305 -99 L305 -99 Z " />
<glyph glyph-name="F" unicode="F" horiz-adv-x="326" d="M188 209 L261 209 L261 309 L188 309 L188 617 L311 617 L311 716 L65 716 L65 -198 L188 -198 L188 209 L188 209 Z " />
<glyph glyph-name="G" unicode="G" horiz-adv-x="462" d="M114 -174 C146 -200 186 -213 231 -213 C277 -213 316 -200 348 -174 C381 -148 397 -116 397 -79 L397 308 L254 307 L254 208 L272 208 L272 -91 C272 -100 268 -108 260 -114 C252 -120 242 -124 231 -124 C220 -124 210 -120 202 -114 C194 -108 190 -100 190 -91 L190 605 C190 614 194 622 202 628 C210 635 220 638 231 638 C242 638 252 635 260 628 C268 622 272 614 272 605 L272 354 L397 354 L397 593 C397 630 381 662 348 688 C316 714 277 727 231 727 C186 727 146 714 114 688 C81 662 65 630 65 593 L65 -79 C65 -116 81 -148 114 -174 L114 -174 Z " />
<glyph glyph-name="H" unicode="H" horiz-adv-x="429" d="M168 210 L256 210 L256 -198 L379 -198 L379 716 L256 716 L256 309 L168 309 L168 716 L45 716 L45 -198 L168 -198 L168 210 L168 210 Z " />
<glyph glyph-name="I" unicode="I" horiz-adv-x="273" d="M198 716 L75 716 L75 -198 L198 -198 L198 716 L198 716 Z " />
<glyph glyph-name="J" unicode="J" horiz-adv-x="347" d="M235 -179 C267 -153 272 -114 272 -77 L272 716 L150 716 L150 -63 C150 -116 120 -121 100 -121 C73 -122 55 -117 41 -110 L41 -200 C61 -207 85 -210 110 -211 C182 -215 202 -205 235 -179 L235 -179 Z " />
<glyph glyph-name="K" unicode="K" horiz-adv-x="468" d="M198 215 L307 -198 L429 -198 L307 259 L429 716 L307 716 L198 304 L198 716 L75 716 L75 -198 L198 -198 L198 215 L198 215 Z " />
<glyph glyph-name="L" unicode="L" horiz-adv-x="318" d="M188 716 L65 716 L65 -198 L311 -198 L311 -98 L188 -98 L188 716 L188 716 Z " />
<glyph glyph-name="M" unicode="M" horiz-adv-x="583" d="M399 210 L399 -198 L523 -198 L523 715 L398 715 L291 210 L182 715 L60 715 L60 -198 L182 -198 L182 202 L241 -198 L338 -198 L399 210 L399 210 Z " />
<glyph glyph-name="N" unicode="N" horiz-adv-x="457" d="M392 716 L269 716 L269 320 L188 716 L65 716 L65 -198 L188 -198 L188 203 L269 -198 L392 -198 L392 716 L392 716 Z " />
<glyph glyph-name="O" unicode="O" horiz-adv-x="442" d="M397 -78 L397 594 C397 631 381 663 348 689 C316 715 277 728 231 728 C185 728 146 715 113 689 C81 663 65 631 65 594 L65 -78 C65 -115 81 -147 113 -173 C146 -199 185 -212 231 -212 C277 -212 316 -199 348 -173 C381 -147 397 -115 397 -78 L397 -78 Z M272 -90 C272 -99 268 -107 260 -113 C252 -119 242 -123 231 -123 C220 -123 210 -119 202 -113 C194 -107 190 -99 190 -90 L190 606 C190 615 194 623 202 629 C210 636 220 639 231 639 C242 639 252 636 260 629 C268 623 272 615 272 606 L272 -90 L272 -90 Z " />
<glyph glyph-name="P" unicode="P" horiz-adv-x="432" d="M335 682 C303 707 269 716 215 716 C124 716 50 716 50 716 L50 -197 C50 -197 99 -197 174 -197 L174 192 C256 192 382 199 382 302 L382 586 C382 622 368 656 335 682 L335 682 Z M256 319 C256 278 230 276 174 276 L174 629 L215 629 C227 629 236 626 245 620 C253 614 257 604 257 595 C257 474 256 420 256 319 L256 319 Z " />
<glyph glyph-name="Q" unicode="Q" horiz-adv-x="458" d="M259 -195 L321 -251 L351 -228 C351 -228 351 -228 351 -228 L407 -187 L369 -136 C385 -115 393 -92 393 -67 L393 596 C393 632 377 664 344 690 C313 715 274 728 229 728 C183 728 145 715 112 690 C81 664 65 632 65 596 L65 -67 C65 -94 74 -118 91 -139 C108 -160 134 -185 164 -192 C187 -197 230 -198 259 -195 L259 -195 Z M188 608 C188 616 192 624 200 630 C208 637 217 640 229 640 C240 640 250 637 257 630 C265 624 269 616 269 608 L269 -79 C269 -88 265 -96 257 -102 C250 -108 240 -112 229 -112 C217 -112 208 -108 200 -102 C192 -96 188 -88 188 -79 L188 608 L188 608 Z " />
<glyph glyph-name="R" unicode="R" horiz-adv-x="452" d="M392 -198 L392 151 C392 210 349 229 349 229 C349 229 392 240 392 302 L392 586 C392 622 380 655 347 680 C315 706 279 716 226 716 C135 716 60 716 60 716 L60 -198 C60 -198 109 -198 185 -198 L185 180 C248 181 267 168 267 134 C267 101 267 -168 267 -198 L392 -198 L392 -198 Z M267 319 C267 277 241 276 185 276 L185 629 L226 629 C237 629 247 626 255 620 C263 614 267 606 267 597 C267 597 266 394 267 319 L267 319 Z " />
<glyph glyph-name="S" unicode="S" horiz-adv-x="436" d="M385 -90 L385 -89 L385 173 C386 197 380 221 369 245 C358 266 344 283 325 295 C302 310 273 317 238 317 L215 317 C204 317 195 320 188 327 C181 333 178 341 178 350 L178 605 C178 615 182 623 190 629 C198 635 207 639 219 639 C230 639 239 635 248 629 C256 623 260 615 260 605 L260 412 L385 412 L385 594 C385 631 368 662 336 688 C304 715 264 728 219 728 C173 728 134 715 101 688 C69 662 53 631 53 594 L53 340 C53 306 67 276 95 250 C128 221 168 206 215 206 L223 206 C247 206 260 195 260 173 L260 -89 C260 -98 256 -106 248 -112 C239 -118 230 -122 219 -122 C207 -122 198 -118 190 -112 C182 -106 178 -98 178 -89 L178 143 L53 142 L53 -90 C57 -124 75 -153 106 -176 C138 -200 176 -211 219 -211 C262 -211 300 -200 331 -176 C363 -153 381 -124 385 -90 L385 -90 Z " />
<glyph glyph-name="T" unicode="T" horiz-adv-x="363" d="M243 -198 L243 617 L325 617 L325 716 L38 716 L38 617 L120 617 L120 -198 L243 -198 L243 -198 Z " />
<glyph glyph-name="U" unicode="U" horiz-adv-x="461" d="M271 -89 C271 -98 267 -106 259 -112 C251 -118 241 -122 230 -122 C219 -122 209 -118 202 -112 C193 -106 189 -98 189 -89 L189 716 L65 716 L65 -77 C65 -114 81 -146 113 -172 C146 -198 185 -211 230 -211 C276 -211 315 -198 347 -172 C380 -146 396 -114 396 -77 L396 716 L271 716 L271 -89 L271 -89 Z " />
<glyph glyph-name="V" unicode="V" horiz-adv-x="407" d="M203 259 L142 716 L19 716 L142 -198 L265 -198 L388 716 L265 716 L203 259 L203 259 Z " />
<glyph glyph-name="W" unicode="W" horiz-adv-x="624" d="M250 -198 L312 253 L374 -198 L497 -198 L592 716 L469 716 L429 259 L374 716 L250 716 L196 259 L154 716 L31 716 L127 -198 L250 -198 L250 -198 Z " />
<glyph glyph-name="X" unicode="X" horiz-adv-x="403" d="M257 716 L202 470 L148 716 L25 716 L140 259 L25 -197 L148 -197 L202 49 L257 -197 L379 -197 L263 260 L379 716 L257 716 L257 716 Z " />
<glyph glyph-name="Y" unicode="Y" horiz-adv-x="449" d="M286 -197 L286 116 L287 116 L423 716 L300 716 L224 357 L149 716 L26 716 L162 116 L163 116 L163 -197 L286 -197 L286 -197 Z " />
<glyph glyph-name="Z" unicode="Z" horiz-adv-x="363" d="M315 -98 L152 -98 L315 617 L315 716 L29 716 L29 617 L193 617 L29 -98 L29 -197 L315 -197 L315 -98 L315 -98 Z " />
<glyph glyph-name="bracketleft" unicode="&#x5b;" horiz-adv-x="252" d="M50 -198 L215 -198 L215 -98 L172 -98 L172 616 L215 616 L215 716 L50 716 L50 -198 L50 -198 Z " />
<glyph glyph-name="backslash" unicode="&#x5c;" horiz-adv-x="264" d="M24 771 L147 -262 L261 -262 L138 771 L24 771 L24 771 Z " />
<glyph glyph-name="bracketright" unicode="&#x5d;" horiz-adv-x="255" d="M50 616 L93 616 L93 -98 L50 -98 L50 -198 L215 -198 L215 716 L50 716 L50 616 L50 616 Z " />
<glyph glyph-name="asciicircum" unicode="&#x5e;" horiz-adv-x="344" d="M189 750 L158 750 C126 750 121 734 107 701 L30 533 L129 533 L171 624 L213 533 L313 533 L236 701 C223 726 215 750 189 750 L189 750 Z " />
<glyph glyph-name="underscore" unicode="&#x5f;" horiz-adv-x="367" d="M39 -212 L329 -212 L329 -112 L39 -112 L39 -212 L39 -212 Z " />
<glyph glyph-name="grave" unicode="&#x60;" horiz-adv-x="185" d="M21 749 L85 531 L166 531 L118 749 L21 749 L21 749 Z " />
<glyph glyph-name="a" unicode="a" horiz-adv-x="384" d="M145 -107 L239 -107 L253 -198 L376 -198 L253 716 L131 716 L8 -198 L131 -198 L145 -107 L145 -107 Z M192 367 L224 -8 L160 -8 L192 367 L192 367 Z " />
<glyph glyph-name="b" unicode="b" horiz-adv-x="415" d="M372 -68 L372 216 C372 278 329 289 329 289 C329 289 372 308 372 367 L372 585 C372 621 357 656 324 681 C292 707 264 716 206 716 C107 716 40 716 40 716 L40 -198 C40 -198 114 -198 206 -198 C259 -198 291 -186 323 -160 C356 -134 372 -104 372 -68 L372 -68 Z M235 -102 C227 -108 217 -111 206 -111 L165 -111 L165 242 C220 242 247 241 247 199 C246 124 247 -80 247 -80 C247 -88 243 -96 235 -102 L235 -102 Z M247 384 C247 350 228 337 165 338 L165 629 L206 629 C217 629 227 626 235 619 C243 613 247 606 247 597 C247 597 247 419 247 384 L247 384 Z " />
<glyph glyph-name="c" unicode="c" horiz-adv-x="435" d="M108 -173 C141 -199 180 -212 226 -212 C272 -212 311 -199 343 -173 C376 -147 392 -115 392 -78 L392 178 L267 178 L267 -90 C267 -99 263 -107 255 -113 C247 -119 237 -123 226 -123 C214 -123 205 -119 197 -113 C189 -107 185 -99 185 -90 L185 606 C185 615 189 623 197 629 C205 636 214 639 226 639 C237 639 247 636 255 629 C263 623 267 615 267 606 L267 338 L392 338 L392 594 C392 631 376 663 343 689 C311 715 272 728 226 728 C180 728 141 715 108 689 C76 663 60 631 60 594 L60 -78 C60 -115 76 -147 108 -173 L108 -173 Z " />
<glyph glyph-name="d" unicode="d" horiz-adv-x="432" d="M335 -162 C368 -136 382 -103 382 -67 L382 109 L382 411 L382 586 C382 622 368 657 335 682 C303 708 274 716 215 716 C116 716 50 716 50 716 L50 586 L50 -67 L50 -198 C50 -198 124 -198 215 -198 C269 -198 303 -187 335 -162 L335 -162 Z M174 630 L215 630 C227 630 236 627 245 620 C253 614 256 607 256 598 L256 411 L256 -79 C256 -88 253 -95 245 -101 C236 -107 227 -111 215 -111 L174 -111 L174 630 L174 630 Z " />
<glyph glyph-name="e" unicode="e" horiz-adv-x="364" d="M305 -99 L183 -99 L183 208 L264 208 L264 308 L183 308 L183 616 L305 616 L305 716 L60 716 L60 -198 L305 -198 L305 -99 Z " />
<glyph glyph-name="f" unicode="f" horiz-adv-x="326" d="M188 209 L261 209 L261 309 L188 309 L188 617 L311 617 L311 716 L65 716 L65 -198 L188 -198 L188 209 L188 209 Z " />
<glyph glyph-name="g" unicode="g" horiz-adv-x="462" d="M114 -174 C146 -200 186 -213 231 -213 C277 -213 316 -200 348 -174 C381 -148 397 -116 397 -79 L397 308 L254 307 L254 208 L272 208 L272 -91 C272 -100 268 -108 260 -114 C252 -120 242 -124 231 -124 C220 -124 210 -120 202 -114 C194 -108 190 -100 190 -91 L190 605 C190 614 194 622 202 628 C210 635 220 638 231 638 C242 638 252 635 260 628 C268 622 272 614 272 605 L272 354 L397 354 L397 593 C397 630 381 662 348 688 C316 714 277 727 231 727 C186 727 146 714 114 688 C81 662 65 630 65 593 L65 -79 C65 -116 81 -148 114 -174 L114 -174 Z " />
<glyph glyph-name="h" unicode="h" horiz-adv-x="429" d="M168 210 L256 210 L256 -198 L379 -198 L379 716 L256 716 L256 309 L168 309 L168 716 L45 716 L45 -198 L168 -198 L168 210 L168 210 Z " />
<glyph glyph-name="i" unicode="i" horiz-adv-x="273" d="M198 716 L75 716 L75 -198 L198 -198 L198 716 L198 716 Z " />
<glyph glyph-name="j" unicode="j" horiz-adv-x="347" d="M235 -179 C267 -153 272 -114 272 -77 L272 716 L150 716 L150 -63 C150 -116 120 -121 100 -121 C73 -122 55 -117 41 -110 L41 -200 C61 -207 85 -210 110 -211 C182 -215 202 -205 235 -179 L235 -179 Z " />
<glyph glyph-name="k" unicode="k" horiz-adv-x="468" d="M198 215 L307 -198 L429 -198 L307 259 L429 716 L307 716 L198 304 L198 716 L75 716 L75 -198 L198 -198 L198 215 L198 215 Z " />
<glyph glyph-name="l" unicode="l" horiz-adv-x="318" d="M188 716 L65 716 L65 -198 L311 -198 L311 -98 L188 -98 L188 716 L188 716 Z " />
<glyph glyph-name="m" unicode="m" horiz-adv-x="583" d="M399 210 L399 -198 L523 -198 L523 715 L398 715 L291 210 L182 715 L60 715 L60 -198 L182 -198 L182 202 L241 -198 L338 -198 L399 210 L399 210 Z " />
<glyph glyph-name="n" unicode="n" horiz-adv-x="457" d="M392 716 L269 716 L269 320 L188 716 L65 716 L65 -198 L188 -198 L188 203 L269 -198 L392 -198 L392 716 L392 716 Z " />
<glyph glyph-name="o" unicode="o" horiz-adv-x="442" d="M397 -78 L397 594 C397 631 381 663 348 689 C316 715 277 728 231 728 C185 728 146 715 113 689 C81 663 65 631 65 594 L65 -78 C65 -115 81 -147 113 -173 C146 -199 185 -212 231 -212 C277 -212 316 -199 348 -173 C381 -147 397 -115 397 -78 L397 -78 Z M272 -90 C272 -99 268 -107 260 -113 C252 -119 242 -123 231 -123 C220 -123 210 -119 202 -113 C194 -107 190 -99 190 -90 L190 606 C190 615 194 623 202 629 C210 636 220 639 231 639 C242 639 252 636 260 629 C268 623 272 615 272 606 L272 -90 L272 -90 Z " />
<glyph glyph-name="p" unicode="p" horiz-adv-x="432" d="M335 682 C303 707 269 716 215 716 C124 716 50 716 50 716 L50 -197 C50 -197 99 -197 174 -197 L174 192 C256 192 382 199 382 302 L382 586 C382 622 368 656 335 682 L335 682 Z M256 319 C256 278 230 276 174 276 L174 629 L215 629 C227 629 236 626 245 620 C253 614 257 604 257 595 C257 474 256 420 256 319 L256 319 Z " />
<glyph glyph-name="q" unicode="q" horiz-adv-x="458" d="M259 -195 L321 -251 L351 -228 C351 -228 351 -228 351 -228 L407 -187 L369 -136 C385 -115 393 -92 393 -67 L393 596 C393 632 377 664 344 690 C313 715 274 728 229 728 C183 728 145 715 112 690 C81 664 65 632 65 596 L65 -67 C65 -94 74 -118 91 -139 C108 -160 134 -185 164 -192 C187 -197 230 -198 259 -195 L259 -195 Z M188 608 C188 616 192 624 200 630 C208 637 217 640 229 640 C240 640 250 637 257 630 C265 624 269 616 269 608 L269 -79 C269 -88 265 -96 257 -102 C250 -108 240 -112 229 -112 C217 -112 208 -108 200 -102 C192 -96 188 -88 188 -79 L188 608 L188 608 Z " />
<glyph glyph-name="r" unicode="r" horiz-adv-x="452" d="M392 -198 L392 151 C392 210 349 229 349 229 C349 229 392 240 392 302 L392 586 C392 622 380 655 347 680 C315 706 279 716 226 716 C135 716 60 716 60 716 L60 -198 C60 -198 109 -198 185 -198 L185 180 C248 181 267 168 267 134 C267 101 267 -168 267 -198 L392 -198 L392 -198 Z M267 319 C267 277 241 276 185 276 L185 629 L226 629 C237 629 247 626 255 620 C263 614 267 606 267 597 C267 597 266 394 267 319 L267 319 Z " />
<glyph glyph-name="s" unicode="s" horiz-adv-x="436" d="M385 -90 L385 -89 L385 173 C386 197 380 221 369 245 C358 266 344 283 325 295 C302 310 273 317 238 317 L215 317 C204 317 195 320 188 327 C181 333 178 341 178 350 L178 605 C178 615 182 623 190 629 C198 635 207 639 219 639 C230 639 239 635 248 629 C256 623 260 615 260 605 L260 412 L385 412 L385 594 C385 631 368 662 336 688 C304 715 264 728 219 728 C173 728 134 715 101 688 C69 662 53 631 53 594 L53 340 C53 306 67 276 95 250 C128 221 168 206 215 206 L223 206 C247 206 260 195 260 173 L260 -89 C260 -98 256 -106 248 -112 C239 -118 230 -122 219 -122 C207 -122 198 -118 190 -112 C182 -106 178 -98 178 -89 L178 143 L53 142 L53 -90 C57 -124 75 -153 106 -176 C138 -200 176 -211 219 -211 C262 -211 300 -200 331 -176 C363 -153 381 -124 385 -90 L385 -90 Z " />
<glyph glyph-name="t" unicode="t" horiz-adv-x="363" d="M243 -198 L243 617 L325 617 L325 716 L38 716 L38 617 L120 617 L120 -198 L243 -198 L243 -198 Z " />
<glyph glyph-name="u" unicode="u" horiz-adv-x="461" d="M271 -89 C271 -98 267 -106 259 -112 C251 -118 241 -122 230 -122 C219 -122 209 -118 202 -112 C193 -106 189 -98 189 -89 L189 716 L65 716 L65 -77 C65 -114 81 -146 113 -172 C146 -198 185 -211 230 -211 C276 -211 315 -198 347 -172 C380 -146 396 -114 396 -77 L396 716 L271 716 L271 -89 L271 -89 Z " />
<glyph glyph-name="v" unicode="v" horiz-adv-x="407" d="M203 259 L142 716 L19 716 L142 -198 L265 -198 L388 716 L265 716 L203 259 L203 259 Z " />
<glyph glyph-name="w" unicode="w" horiz-adv-x="624" d="M250 -198 L312 253 L374 -198 L497 -198 L592 716 L469 716 L429 259 L374 716 L250 716 L196 259 L154 716 L31 716 L127 -198 L250 -198 L250 -198 Z " />
<glyph glyph-name="x" unicode="x" horiz-adv-x="403" d="M257 716 L202 470 L148 716 L25 716 L140 259 L25 -197 L148 -197 L202 49 L257 -197 L379 -197 L263 260 L379 716 L257 716 L257 716 Z " />
<glyph glyph-name="y" unicode="y" horiz-adv-x="449" d="M286 -197 L286 116 L287 116 L423 716 L300 716 L224 357 L149 716 L26 716 L162 116 L163 116 L163 -197 L286 -197 L286 -197 Z " />
<glyph glyph-name="z" unicode="z" horiz-adv-x="363" d="M315 -98 L152 -98 L315 617 L315 716 L29 716 L29 617 L193 617 L29 -98 L29 -197 L315 -197 L315 -98 L315 -98 Z " />
<glyph glyph-name="braceleft" unicode="&#x7b;" horiz-adv-x="304" d="M137 688 C105 662 90 630 90 593 L90 345 C90 343 89 341 89 339 C89 336 88 333 87 331 C85 323 82 318 77 314 C71 308 45 305 45 305 L45 207 C60 207 71 204 77 198 C82 195 85 189 87 182 C88 179 89 176 89 173 C89 171 90 170 90 168 L90 -79 C90 -116 105 -148 137 -174 C169 -200 208 -213 253 -213 L264 -213 L264 -122 C260 -123 256 -124 253 -124 C242 -124 232 -121 224 -114 C216 -108 212 -100 212 -91 C212 -91 212 175 212 178 C211 186 210 193 208 201 C203 222 193 241 178 256 C193 272 203 290 208 312 C210 319 211 327 212 334 C212 337 212 605 212 605 C212 614 216 622 224 628 C232 635 242 638 253 638 C257 638 261 638 264 636 L264 727 L253 727 C208 727 169 714 137 688 L137 688 Z " />
<glyph glyph-name="bar" unicode="&#x7c;" horiz-adv-x="211" d="M45 -308 L166 -308 L166 778 L45 778 L45 -308 L45 -308 Z " />
<glyph glyph-name="braceright" unicode="&#x7d;" horiz-adv-x="310" d="M227 315 C222 319 219 324 217 332 C216 334 215 337 215 340 C215 342 214 594 214 594 C214 631 199 663 167 689 C135 715 96 728 51 728 L40 728 L40 637 C43 639 47 639 51 639 C62 639 72 636 80 629 C88 623 92 615 92 606 C92 606 92 338 92 335 C93 328 94 320 96 313 C101 291 111 273 126 257 C111 242 101 223 96 202 C94 194 93 187 92 179 C92 176 92 -90 92 -90 C92 -99 88 -107 80 -113 C72 -120 62 -123 51 -123 C48 -123 44 -122 40 -121 L40 -212 L51 -212 C96 -212 135 -199 167 -173 C199 -147 214 -115 214 -78 L214 169 C214 171 216 180 217 183 C219 190 222 196 227 199 C233 205 244 208 259 208 L260 307 L259 307 C244 307 233 309 227 315 L227 315 Z " />
<glyph glyph-name="asciitilde" unicode="&#x7e;" horiz-adv-x="383" d="M319 229 C300 247 280 258 258 263 C245 265 232 264 219 262 C202 258 185 249 170 236 C132 204 112 241 110 244 C109 246 107 248 106 250 L106 251 L105 253 L47 218 L47 216 L49 214 C57 202 85 161 122 153 C135 151 147 151 160 155 C178 158 195 167 212 180 C244 206 263 187 272 178 C275 175 284 164 285 162 L343 198 L342 200 C342 200 338 209 319 229 L319 229 Z " />
<glyph glyph-name="quoteleft" unicode="&#x2018;" horiz-adv-x="155" d="M93 516 L138 616 L138 728 L16 728 L16 616 L54 616 L47 516 L93 516 L93 516 Z " />
<glyph glyph-name="quoteright" unicode="&#x2019;" horiz-adv-x="152" d="M93 516 L138 616 L138 728 L16 728 L16 616 L54 616 L47 516 L93 516 L93 516 Z " />
<glyph glyph-name="quotedblleft" unicode="&#x201c;" horiz-adv-x="297" d="M20 616 L58 616 L51 516 L97 516 L142 616 L142 728 L20 728 L20 616 L20 616 Z M158 616 L195 616 L188 516 L235 516 L279 616 L279 728 L158 728 L158 616 L158 616 Z " />
<glyph glyph-name="quotedblright" unicode="&#x201d;" horiz-adv-x="296" d="M20 616 L58 616 L51 516 L97 516 L142 616 L142 728 L20 728 L20 616 L20 616 Z M158 616 L195 616 L188 516 L235 516 L279 616 L279 728 L158 728 L158 616 L158 616 Z " />
</font>
</svg>
