<?xml version="1.0" encoding="UTF-8"?>
<svg xmlns="http://www.w3.org/2000/svg" xmlns:xlink="http://www.w3.org/1999/xlink" version="1.2" >
<font id="Funtastic Youth Script">
<font-face  font-family="Funtastic Youth Script" units-per-em="1000" ascent="750" descent="-250" font-style="normal" font-weight="100" font-stretch="normal" cap-height="1000" x-height="248" underline-position="-75" underline-thickness="50" />
<missing-glyph  horiz-adv-x="132" d="" />
<glyph glyph-name="NULL" d="" />
<glyph glyph-name="CR" unicode="&#xd;" horiz-adv-x="132" d="" />
<glyph glyph-name="space" unicode="&#x20;" horiz-adv-x="132" d="" />
<glyph glyph-name="exclam" unicode="&#x21;" horiz-adv-x="112" d="M4 88 C2 90 0 89 -1 87 C-2 86 -3 84 -4 83 C-8 73 -12 64 -15 54 C-15 53 -15 51 -14 50 C-12 48 -10 49 -9 50 C-8 51 -7 53 -7 54 C-4 64 0 74 4 84 C4 84 4 84 5 84 C5 86 5 87 4 88 L4 88 Z M195 581 C193 582 191 581 190 579 C189 575 187 571 185 568 C173 543 163 518 152 494 C128 435 105 375 86 316 C74 287 64 259 53 231 C41 197 27 164 18 130 C15 126 13 121 11 117 C10 115 10 113 12 113 C14 112 16 113 17 115 C17 116 17 117 17 118 C18 124 22 129 24 135 C34 167 47 198 59 230 C59 230 84 297 93 322 C99 339 104 356 111 373 C111 373 111 373 111 373 C120 397 130 420 139 444 C153 481 170 518 186 554 C186 556 188 558 189 559 C195 564 196 571 198 577 C197 578 197 580 195 581 L195 581 Z " />
<glyph glyph-name="quotedbl" unicode="&#x22;" horiz-adv-x="164" d="M205 574 C203 574 201 572 201 570 C197 561 194 552 191 543 C191 542 190 541 190 540 C191 539 192 536 195 539 C196 539 196 540 197 541 C200 549 203 558 206 567 C208 572 208 573 205 574 L205 574 Z M192 571 C189 572 189 570 187 567 C185 561 184 560 182 554 C180 549 178 545 178 545 C178 543 179 541 182 541 C183 541 185 543 185 544 C188 551 191 558 193 566 C194 568 194 571 192 571 L192 571 Z " />
<glyph glyph-name="numbersign" unicode="&#x23;" horiz-adv-x="137" d="M77 199 C78 202 79 204 80 206 C83 214 86 221 90 228 C91 232 91 235 88 235 C86 236 85 235 83 231 C79 221 75 212 71 202 C71 200 70 199 70 199 C62 198 53 197 44 196 C45 199 46 200 47 202 C51 212 55 222 59 232 C60 234 60 237 57 238 C55 238 54 237 52 235 C52 234 52 234 52 233 C47 222 42 211 38 199 C37 196 36 195 36 195 C31 194 21 193 15 192 C14 192 13 191 11 191 C10 190 9 188 10 186 C11 185 14 184 16 185 C22 186 27 187 34 188 C31 182 29 177 27 171 C23 171 20 170 16 170 C15 170 13 170 12 169 C11 168 10 166 10 165 C9 163 11 162 13 162 C14 162 16 163 17 163 C19 163 21 164 24 164 C22 158 21 154 19 149 C18 146 16 143 15 140 C15 138 15 136 17 135 C19 134 20 135 21 137 C22 138 22 139 22 141 C25 147 29 158 32 164 C32 164 55 167 58 167 C55 162 53 156 51 151 C50 147 50 145 52 144 C54 143 56 145 57 148 C58 149 58 149 58 150 C60 155 63 162 65 168 C65 168 66 168 69 168 C74 169 79 169 83 170 C85 170 86 170 87 171 C88 172 90 173 90 174 C90 175 88 177 86 177 C85 178 83 177 81 177 C77 177 73 176 68 176 C70 181 73 188 74 192 C74 192 80 193 83 193 C91 194 95 194 102 195 C104 196 106 196 107 196 C109 197 110 199 109 200 C108 202 104 202 103 202 C95 201 86 200 77 199 L77 199 Z M35 172 C37 178 39 184 41 189 C41 189 42 189 43 189 C51 190 58 191 67 192 C65 186 63 181 61 176 C60 175 60 175 60 175 C53 174 43 173 35 172 L35 172 Z " />
<glyph glyph-name="dollar" unicode="&#x24;" horiz-adv-x="103" d="M5 106 C4 103 3 102 3 101 C-3 85 -9 69 -15 52 C-16 50 -17 48 -18 45 C-18 44 -18 42 -16 41 C-14 40 -13 41 -12 43 C-11 44 -11 46 -10 47 C-3 67 4 86 11 105 C12 107 13 108 15 110 C21 114 26 119 29 126 C32 133 36 140 38 147 C45 168 48 189 52 210 C54 219 55 229 58 238 C65 258 70 267 78 287 C80 292 81 295 83 298 C83 297 84 295 83 294 C83 285 81 276 77 268 C76 267 76 265 76 264 C74 261 79 259 82 261 C82 262 83 263 83 264 C87 272 89 280 90 288 C91 295 91 302 87 308 C87 308 87 309 87 310 C91 319 95 329 99 338 C99 339 99 341 99 343 C98 344 96 344 95 344 C93 344 93 342 92 340 C89 332 86 323 82 314 C82 314 81 313 80 313 C76 314 71 314 67 310 C64 307 63 303 61 299 C59 291 58 283 57 275 C53 256 51 233 44 216 C38 202 34 188 29 174 C29 173 28 172 27 172 C25 172 24 170 23 168 C21 164 19 159 17 154 C11 143 8 138 2 127 C1 125 -3 118 -4 116 C-7 109 -4 103 5 106 L5 106 Z M16 118 C26 146 36 174 45 202 C39 173 36 142 16 118 C16 118 16 118 16 118 L16 118 Z M78 303 C72 289 68 279 63 266 C65 283 70 310 78 303 L78 303 Z M20 146 C20 146 14 132 12 125 C11 122 10 119 8 114 C8 114 -1 108 2 114 C2 115 14 136 20 146 L20 146 Z " />
<glyph glyph-name="percent" unicode="&#x25;" horiz-adv-x="118" d="M100 300 C98 301 96 300 95 297 C92 292 90 288 88 283 C64 237 39 191 18 144 C12 131 6 118 0 105 C-1 103 -1 101 1 100 C3 99 5 100 6 103 C7 105 8 109 10 112 C20 133 30 155 40 177 C59 217 80 256 102 295 C102 295 102 296 103 297 C102 298 101 299 100 300 L100 300 Z M70 177 C70 180 70 181 67 182 C65 182 64 180 63 178 C58 167 53 154 51 142 C50 135 50 128 50 121 C50 119 51 116 54 116 C57 115 59 117 60 119 C62 121 63 124 64 127 C69 140 71 154 73 168 C73 171 73 174 71 176 C71 176 70 177 70 177 L70 177 Z M57 127 C55 132 61 156 65 164 C64 151 62 139 57 127 L57 127 Z M47 237 C49 239 50 242 52 244 C55 254 57 264 57 274 C57 278 57 281 57 283 C56 285 55 286 53 287 C52 287 50 286 49 285 C47 283 46 281 45 278 C41 270 37 261 36 252 C35 248 35 243 36 239 C37 233 43 232 47 237 L47 237 Z M51 274 C50 263 49 250 42 242 C42 242 41 243 41 244 C41 250 46 268 51 274 L51 274 Z " />
<glyph glyph-name="ampersand" unicode="&#x26;" horiz-adv-x="103" d="M96 300 C92 300 90 290 89 288 C80 266 78 261 70 240 C68 233 62 218 62 218 C62 218 63 243 48 241 C26 238 39 202 39 202 C32 200 27 196 24 191 C19 182 14 173 12 164 C12 161 11 157 12 154 C12 150 15 146 20 149 C27 152 32 158 34 160 C36 163 39 167 41 169 C41 167 40 165 38 161 C29 139 24 121 16 98 C12 84 7 69 3 55 C3 53 3 51 5 50 C7 50 8 52 8 54 C12 68 17 82 21 96 C29 123 36 148 47 174 C49 176 51 179 51 181 C51 182 50 183 49 184 C49 184 47 184 46 183 C45 182 44 180 42 179 C36 172 33 169 27 161 C25 159 20 152 17 153 C15 155 17 162 17 165 C20 174 23 180 28 188 C30 191 31 192 34 194 C36 196 38 196 40 197 C42 197 44 197 45 197 C47 199 45 200 46 202 C43 205 43 208 42 213 C41 216 41 219 41 223 C42 229 44 235 51 235 C62 236 57 206 57 206 C58 202 62 202 64 205 C64 206 65 207 65 208 C67 215 69 221 73 228 C80 248 88 269 96 290 C97 292 98 294 98 295 C98 298 99 299 96 300 L96 300 Z " />
<glyph glyph-name="quotesingle" unicode="&#x27;" horiz-adv-x="159" d="M190 566 C191 569 192 571 189 572 C187 573 186 572 185 570 C185 569 184 569 184 568 C181 559 176 547 173 540 C172 535 175 534 178 536 C179 536 180 539 180 540 C184 549 185 553 188 561 C189 562 189 564 190 566 L190 566 Z " />
<glyph glyph-name="parenleft" unicode="&#x28;" horiz-adv-x="137" d="M23 47 C18 5 17 -31 19 -68 C19 -92 19 -117 21 -141 C23 -158 24 -175 26 -193 C26 -194 26 -196 27 -197 C27 -198 28 -199 29 -199 C31 -198 32 -197 32 -196 C32 -194 32 -192 32 -191 C29 -169 27 -148 26 -126 C24 -93 21 -61 22 -28 C24 19 28 65 35 112 C39 156 50 200 64 243 C97 354 146 460 211 560 C233 595 256 629 283 661 C293 673 303 685 315 695 C318 698 321 700 324 703 C327 705 329 707 328 710 C327 712 324 712 320 709 C313 702 306 696 299 689 C284 673 270 655 256 637 C212 576 173 512 140 445 C101 369 72 291 50 210 C35 155 27 98 23 47 L23 47 Z " />
<glyph glyph-name="parenright" unicode="&#x29;" horiz-adv-x="135" d="M125 457 C127 499 128 536 127 572 C125 597 123 621 121 646 C120 663 116 680 115 697 C115 699 114 700 114 702 C113 703 111 704 111 703 C110 703 109 701 109 700 C108 699 109 697 108 695 C111 674 114 652 116 631 C119 598 122 565 123 532 C123 486 120 439 115 393 C108 349 100 305 88 262 C57 150 11 44 -51 -56 C-72 -90 -95 -124 -121 -156 C-129 -168 -138 -180 -150 -190 C-153 -193 -156 -196 -159 -198 C-163 -201 -164 -203 -163 -205 C-162 -207 -159 -207 -156 -204 C-148 -198 -142 -191 -135 -185 C-122 -168 -108 -151 -95 -133 C-52 -72 -13 -8 18 60 C54 135 81 214 101 294 C113 350 123 406 125 457 L125 457 Z " />
<glyph glyph-name="asterisk" unicode="&#x2a;" horiz-adv-x="112" d="M63 256 C63 257 62 259 61 261 C59 264 59 265 57 268 C55 272 54 274 51 273 C49 271 49 270 50 268 C53 261 54 260 57 253 C59 250 58 248 56 245 C51 240 46 234 40 229 C39 228 38 227 40 225 C41 223 43 223 45 225 C46 226 56 236 58 238 C56 235 52 225 51 223 C51 221 51 219 53 218 C55 218 56 219 57 221 C58 222 58 224 59 225 C60 230 62 233 63 238 C65 234 66 233 67 229 C68 227 70 225 71 222 C73 220 77 223 77 225 C77 227 76 228 75 230 C72 236 70 241 67 248 C73 253 76 256 81 261 C83 262 86 266 86 267 C87 269 88 271 86 272 C85 273 82 272 79 268 C77 267 73 262 71 260 C72 263 73 267 74 268 C75 272 75 274 73 275 C70 275 69 274 68 270 C66 266 65 261 63 256 L63 256 Z " />
<glyph glyph-name="plus" unicode="&#x2b;" horiz-adv-x="123" d="M54 198 C54 200 55 201 55 202 C59 211 62 221 66 230 C66 230 67 232 67 232 C68 235 68 237 65 237 C63 238 62 237 60 235 C60 234 59 232 59 231 C55 221 51 211 47 201 C46 198 45 197 45 197 C39 197 27 195 21 194 C19 194 17 194 16 193 C14 192 14 191 14 189 C14 187 16 187 19 187 C30 189 40 190 42 190 C42 188 41 187 41 186 C36 175 32 165 28 155 C27 154 27 153 26 152 C26 150 26 148 28 147 C30 146 31 147 32 149 C32 150 33 151 34 153 C39 164 44 176 49 188 C50 190 51 191 51 191 C63 192 78 194 90 195 C92 195 93 195 94 196 C96 196 96 200 94 201 C93 202 91 202 89 201 C78 201 66 200 54 198 L54 198 Z " />
<glyph glyph-name="comma" unicode="&#x2c;" horiz-adv-x="73" d="M20 166 C17 169 13 160 9 154 C7 150 3 144 3 142 C3 140 4 138 7 138 C8 139 9 140 11 143 C16 151 18 153 22 161 C23 163 22 165 20 166 L20 166 Z " />
<glyph glyph-name="hyphen" unicode="&#x2d;" horiz-adv-x="124" d="M65 187 C65 187 37 185 24 184 C23 184 22 184 21 184 C19 183 18 182 19 180 C19 179 21 177 25 177 C31 178 37 179 42 179 C55 180 68 180 81 181 C85 181 86 184 85 185 C85 186 85 188 81 188 C76 188 70 187 65 187 L65 187 Z " />
<glyph glyph-name="period" unicode="&#x2e;" horiz-adv-x="81" d="M18 150 C17 152 15 151 14 149 C13 146 11 143 10 139 C11 138 11 136 13 135 C13 135 16 136 16 137 C18 140 19 143 20 146 C20 148 20 150 18 150 L18 150 Z " />
<glyph glyph-name="slash" unicode="&#x2f;" horiz-adv-x="150" d="M281 695 C280 696 280 697 278 698 C276 699 274 697 273 695 C269 685 264 675 259 665 C216 577 176 489 139 398 C98 296 58 194 24 89 C-1 13 -25 -63 -50 -138 C-53 -147 -56 -156 -60 -165 C-61 -167 -61 -169 -59 -170 C-57 -171 -55 -170 -54 -168 C-53 -166 -53 -165 -52 -163 C-49 -155 -46 -146 -43 -138 C-26 -81 -8 -24 10 33 C42 134 77 234 117 332 C142 393 167 455 194 516 C221 575 250 633 280 691 C280 692 280 693 281 695 L281 695 Z " />
<glyph glyph-name="zero" unicode="0" horiz-adv-x="61" d="M23 213 C26 219 29 221 33 224 C34 225 35 227 36 229 C36 230 34 232 33 232 C32 232 30 231 29 231 C28 231 28 230 28 230 C14 214 4 196 -1 176 C-2 170 -4 164 -2 158 C-1 152 4 149 9 152 C12 154 15 156 17 158 C28 169 37 182 43 196 C45 202 46 207 46 213 C46 220 41 223 34 220 C33 220 32 219 30 218 C28 217 25 215 23 213 L23 213 Z M2 164 C3 170 4 176 6 182 C8 189 10 196 17 200 C23 205 27 209 33 214 C35 215 37 217 39 216 C40 214 41 211 40 209 C40 206 39 202 38 199 C32 185 24 173 13 162 C12 160 10 159 8 157 C5 156 3 156 2 160 C2 161 2 162 2 163 C2 163 2 163 2 164 L2 164 Z " />
<glyph glyph-name="one" unicode="1" horiz-adv-x="47" d="M24 219 C24 218 23 217 23 216 C15 193 7 170 -1 147 C-1 146 -2 145 -2 144 C-1 143 -1 141 0 141 C1 141 3 142 4 142 C4 143 5 144 5 145 C12 170 21 195 30 220 C32 224 33 228 34 233 C35 235 35 237 33 238 C31 239 29 238 28 236 C24 232 21 228 17 223 C16 221 15 219 18 218 C19 216 21 217 23 219 C23 219 23 219 24 219 L24 219 Z " />
<glyph glyph-name="two" unicode="2" horiz-adv-x="73" d="M-2 155 C-1 156 -1 156 0 157 C6 164 13 172 20 179 C31 192 42 204 51 217 C53 220 54 222 55 225 C57 230 54 235 48 234 C46 234 44 233 41 233 C30 227 20 220 13 209 C12 208 11 206 11 205 C10 203 11 201 13 200 C15 199 17 200 18 202 C18 204 19 205 20 207 C26 216 35 222 45 226 C46 227 47 227 49 227 C49 227 49 227 49 227 C49 225 48 224 47 222 C42 215 37 207 31 200 C18 186 6 172 -7 158 C-7 157 -8 156 -9 155 C-10 153 -9 151 -7 150 C-6 150 -5 150 -4 150 C10 150 24 151 37 152 C40 152 42 153 42 155 C41 157 40 159 37 158 C31 158 24 157 19 157 C12 156 5 155 -2 155 L-2 155 Z " />
<glyph glyph-name="three" unicode="3" horiz-adv-x="78" d="M-4 151 C-4 152 -4 152 -4 152 C-2 156 -1 160 3 162 C4 163 5 165 5 166 C4 167 2 169 1 168 C-1 168 -3 167 -4 165 C-7 162 -9 158 -10 153 C-12 149 -10 145 -5 146 C-2 146 2 147 4 149 C15 155 25 162 34 170 C40 176 45 182 49 189 C51 192 52 195 52 198 C53 203 50 206 46 206 C45 206 43 206 42 206 C39 205 36 204 32 204 C33 205 34 206 34 206 C40 212 45 219 50 225 C52 227 52 230 50 232 C49 234 46 234 44 234 C33 231 23 226 14 219 C11 217 9 214 7 212 C5 209 5 207 7 206 C9 204 11 205 13 207 C14 209 15 210 17 212 C23 219 32 222 40 225 C41 226 42 226 43 226 C42 225 41 224 41 223 C35 217 30 211 24 204 C23 203 21 201 20 200 C19 199 19 196 20 196 C20 195 22 194 24 194 C26 194 28 195 30 196 C34 197 38 199 43 200 C46 200 47 199 46 196 C43 191 41 187 38 183 C27 170 14 161 0 153 C-1 152 -2 152 -4 151 L-4 151 Z " />
<glyph glyph-name="four" unicode="4" horiz-adv-x="69" d="M6 195 C8 197 8 198 9 199 C16 209 23 219 30 229 C31 232 31 234 30 235 C28 237 26 236 24 233 C21 229 18 225 15 220 C11 214 6 208 2 201 C1 198 -1 195 1 191 C3 188 7 189 10 189 C16 190 22 192 27 193 C28 194 29 194 30 194 C30 193 29 192 29 191 C21 176 14 160 6 145 C5 143 5 141 7 140 C9 139 12 140 12 143 C13 144 13 145 13 146 C21 162 29 178 37 194 C37 196 39 197 41 198 C44 200 48 201 51 203 C53 204 54 206 53 208 C52 210 50 210 48 209 C47 209 45 208 44 208 C49 217 54 225 59 234 C59 235 60 236 60 237 C60 238 59 240 58 241 C57 241 56 241 54 240 C54 240 53 239 53 238 C47 227 42 216 36 205 C35 204 34 203 33 202 C27 200 22 198 16 196 C13 196 10 195 6 195 L6 195 Z " />
<glyph glyph-name="five" unicode="5" horiz-adv-x="69" d="M16 202 C20 208 23 214 26 219 C27 221 28 222 30 222 C36 223 42 223 48 224 C51 224 53 226 52 228 C52 230 50 232 47 231 C41 230 34 229 28 228 C25 228 23 226 21 224 C17 216 12 208 8 200 C7 198 5 196 7 194 C9 191 11 193 14 194 C20 196 26 198 33 200 C35 201 38 202 40 199 C42 196 41 194 39 191 C32 178 23 166 9 157 C7 156 6 156 4 155 C2 154 2 155 2 157 C4 161 6 165 8 169 C9 171 10 173 8 175 C7 176 4 176 2 174 C2 174 1 173 1 172 C-1 167 -3 162 -4 157 C-5 152 -1 148 4 150 C8 151 12 152 15 155 C27 163 37 175 44 188 C45 190 46 193 47 195 C48 201 45 206 39 207 C34 207 30 206 25 205 C22 204 20 203 16 202 L16 202 Z " />
<glyph glyph-name="six" unicode="6" horiz-adv-x="63" d="M-5 161 C-5 161 -5 160 -5 159 C-4 150 2 146 10 151 C11 151 11 151 11 151 C22 159 30 169 34 181 C35 183 35 185 35 188 C35 192 32 195 28 194 C26 194 25 193 23 193 C20 191 16 189 12 186 C9 184 8 182 9 181 C11 179 13 179 16 181 C19 184 23 186 27 189 C28 189 29 189 30 189 C30 189 30 187 30 186 C29 184 29 183 28 181 C24 171 17 164 9 157 C8 156 6 155 5 155 C3 154 2 155 1 157 C1 159 1 162 1 164 C2 172 4 179 8 186 C15 201 24 214 34 225 C35 227 37 227 38 229 C39 230 39 232 39 233 C39 234 38 235 37 235 C36 235 34 235 33 234 C30 231 28 227 25 224 C16 212 7 200 1 185 C-2 178 -4 170 -5 161 L-5 161 Z " />
<glyph glyph-name="seven" unicode="7" horiz-adv-x="64" d="M17 187 C12 179 7 169 1 160 C-1 157 -3 155 -5 153 C-6 151 -7 149 -8 147 C-8 146 -7 144 -6 144 C-5 143 -3 144 -2 144 C-1 146 0 147 1 149 C8 161 14 172 21 183 C23 188 26 192 32 191 C32 191 33 191 33 191 C34 192 35 193 35 195 C35 196 34 197 33 198 C32 199 31 198 30 199 C32 202 33 204 35 207 C38 213 42 219 45 226 C48 232 45 236 38 235 C31 234 23 231 16 229 C13 228 13 225 14 223 C15 221 17 221 19 222 C25 224 31 226 37 228 C38 229 39 229 40 229 C39 227 39 225 38 223 C34 216 29 208 25 200 C24 198 22 196 19 195 C17 195 15 193 15 192 C15 191 16 189 17 187 L17 187 Z " />
<glyph glyph-name="eight" unicode="8" horiz-adv-x="56" d="M-11 154 C-11 135 10 144 15 157 C21 168 24 180 18 193 C17 195 18 197 19 198 C27 204 33 210 38 218 C40 221 41 224 42 227 C44 234 38 238 32 236 C31 236 30 236 29 235 C16 230 11 212 10 200 C-3 185 -10 176 -11 154 L-11 154 Z M13 193 C15 189 16 186 16 181 C16 174 15 168 12 162 C8 156 4 149 -2 149 C-13 149 3 191 13 193 L13 193 Z M36 230 C34 222 29 213 21 208 C11 198 17 227 36 230 L36 230 Z " />
<glyph glyph-name="nine" unicode="9" horiz-adv-x="64" d="M27 197 C26 196 25 194 25 194 C15 179 6 164 -4 150 C-5 149 -6 148 -6 147 C-6 146 -6 144 -5 143 C-4 143 -2 143 -1 143 C0 144 1 145 1 146 C14 167 27 188 40 209 C43 214 45 220 48 225 C49 229 50 233 47 236 C43 239 39 237 36 235 C23 227 13 215 6 202 C5 200 4 197 4 195 C4 192 6 190 9 190 C12 190 15 191 18 192 C21 193 23 195 27 197 L27 197 Z M43 230 C41 222 37 214 33 207 C29 210 27 210 24 206 C21 201 17 198 11 197 C12 206 35 230 43 230 L43 230 Z " />
<glyph glyph-name="colon" unicode="&#x3a;" horiz-adv-x="97" d="M49 226 C48 226 46 225 46 224 C43 220 41 216 39 212 C38 210 39 207 41 207 C44 206 45 207 46 209 C48 213 50 217 51 221 C52 221 52 222 52 223 C51 224 51 226 49 226 L49 226 Z M38 166 C37 168 35 167 34 165 C33 162 31 159 30 155 C31 154 31 152 33 151 C33 151 36 152 36 153 C38 156 39 159 40 162 C40 164 40 166 38 166 L38 166 Z " />
<glyph glyph-name="semicolon" unicode="&#x3b;" horiz-adv-x="97" d="M39 169 C38 170 36 169 34 167 C31 161 27 155 24 149 C23 148 23 146 22 145 C21 143 23 140 26 140 C27 141 28 141 28 142 C33 149 37 156 41 164 C42 166 41 168 39 169 L39 169 Z M53 227 C51 228 49 227 48 226 C46 223 44 219 42 215 C41 214 42 211 43 210 C44 209 47 209 48 211 C50 215 52 219 55 223 C54 225 54 227 53 227 L53 227 Z " />
<glyph glyph-name="less" unicode="&#x3c;" horiz-adv-x="142" d="M30 184 C31 185 33 185 34 186 C49 192 64 199 79 205 C82 206 85 207 88 208 C90 209 92 210 91 213 C91 215 88 216 86 215 C83 215 81 214 79 213 C61 205 43 197 25 189 C24 188 23 188 23 188 C19 185 19 182 23 180 C25 179 27 178 29 178 C40 174 50 171 60 168 C71 164 81 161 92 158 C94 157 95 156 97 156 C98 157 100 158 100 158 C101 160 100 162 98 162 C96 163 95 163 93 164 C73 170 53 176 33 183 C33 183 31 183 30 184 L30 184 Z " />
<glyph glyph-name="equal" unicode="&#x3d;" horiz-adv-x="100" d="M70 202 C68 203 66 203 64 203 C58 203 52 203 45 203 C45 203 32 203 25 203 C24 203 23 203 22 202 C20 202 19 200 20 199 C20 198 20 196 22 196 C23 196 68 195 69 196 C70 196 71 198 72 198 C72 200 71 201 70 202 L70 202 Z M51 178 C50 179 48 179 46 179 C37 178 28 178 19 177 C16 177 14 176 14 173 C14 171 16 171 19 171 C28 171 37 171 46 172 C48 172 50 171 51 172 C52 173 53 174 54 175 C54 176 52 178 51 178 L51 178 Z " />
<glyph glyph-name="greater" unicode="&#x3e;" horiz-adv-x="133" d="M89 187 C87 186 86 185 84 184 C67 177 49 169 32 161 C30 160 29 160 28 159 C28 158 27 157 27 156 C28 155 29 154 30 154 C32 154 33 154 35 155 C55 164 76 173 97 182 C98 182 99 183 100 183 C103 186 103 190 99 192 C97 193 95 193 93 194 C73 200 53 207 33 214 C31 214 30 215 28 215 C26 215 24 215 24 212 C23 210 24 209 26 208 C26 208 27 208 28 208 C46 201 65 195 84 188 C85 188 87 188 89 187 L89 187 Z " />
<glyph glyph-name="question" unicode="&#x3f;" horiz-adv-x="279" d="M377 674 C376 685 370 691 359 693 C356 693 353 693 351 693 C337 691 325 687 313 682 C269 663 230 636 196 602 C182 588 169 573 159 557 C155 552 152 546 150 541 C148 538 148 534 148 531 C148 527 150 526 152 526 C155 526 156 528 155 531 C155 535 157 539 159 543 C164 551 169 559 174 566 C212 614 259 650 314 675 C323 678 331 681 340 684 C346 686 352 687 359 686 C366 685 369 682 370 675 C371 670 372 664 371 659 C370 645 366 632 362 619 C350 579 333 541 313 505 C296 473 277 441 259 410 C223 349 191 287 165 222 C132 138 105 53 78 -33 C77 -35 77 -38 79 -38 C82 -39 83 -37 84 -35 C96 4 108 43 121 82 C139 138 158 193 181 247 C208 310 240 369 275 427 C292 455 309 484 324 513 C342 549 358 585 370 623 C374 637 377 650 378 666 C378 668 378 671 377 674 L377 674 Z M66 -112 C64 -114 63 -116 62 -118 C61 -120 63 -122 66 -122 C67 -121 69 -121 70 -119 C71 -117 72 -115 71 -112 C69 -110 67 -110 66 -112 L66 -112 Z " />
<glyph glyph-name="at" unicode="&#x40;" horiz-adv-x="132" d="M59 171 C63 163 67 162 74 168 C76 170 79 172 81 175 C89 186 95 198 99 211 C101 218 101 224 100 231 C99 242 91 250 80 251 C74 252 68 251 62 247 C58 244 53 241 48 237 C34 222 24 205 17 185 C13 174 10 162 10 149 C11 138 14 128 22 120 C28 115 35 115 43 116 C51 118 57 122 63 127 C72 137 79 145 88 156 C89 157 90 158 91 159 C92 162 92 164 90 165 C88 166 86 165 84 163 C83 161 80 157 78 155 C70 144 68 142 61 134 C57 130 49 123 42 121 C33 120 28 120 22 127 C16 136 15 145 16 156 C17 174 24 190 32 206 C39 218 47 229 58 237 C62 240 67 244 73 245 C83 247 92 241 93 230 C94 226 93 221 93 217 C90 202 83 189 73 177 C71 175 70 173 66 171 C66 173 65 175 65 177 C63 181 60 182 57 180 C56 179 55 178 54 177 C51 174 49 172 45 169 C44 167 39 165 38 165 C39 172 46 183 52 190 C52 187 52 185 54 184 C57 183 58 185 59 187 C60 188 61 190 62 192 C63 194 62 197 60 199 C58 201 56 201 53 200 C51 199 48 196 46 194 C41 188 32 176 31 165 C31 160 35 156 40 158 C43 159 47 161 50 163 C53 165 56 168 59 171 L59 171 Z " />
<glyph glyph-name="A" unicode="A" horiz-adv-x="320" d="M433 728 C429 734 424 736 416 733 C411 731 407 728 403 724 C395 718 388 711 382 704 C362 682 344 659 327 636 C220 494 123 346 37 192 C35 189 33 186 29 184 C23 180 17 177 12 173 C5 168 -1 163 -7 157 C-9 156 -19 147 -21 141 C-22 139 -22 137 -21 136 C-20 134 -19 133 -16 133 C-14 134 -14 136 -14 137 C-14 140 -13 143 -11 145 C-7 149 -4 152 0 155 C7 162 15 167 23 173 L28 176 L28 175 L27 175 L27 175 C26 173 26 171 25 170 C19 159 13 148 7 136 C0 121 -8 106 -13 90 C-14 87 -14 83 -14 80 C-14 73 -6 70 0 75 C1 75 2 77 3 79 C3 81 1 82 -1 81 C-3 81 -4 81 -6 81 C-7 83 -6 86 -6 87 C-5 92 -3 97 -1 102 C-1 102 -1 102 -1 102 C0 103 1 105 1 106 C1 106 1 106 1 107 C2 108 25 154 35 175 C38 181 42 185 48 188 C84 208 121 223 159 236 C206 251 305 276 305 276 C305 276 274 183 260 144 C244 98 228 53 211 7 C204 -13 197 -33 189 -54 C182 -74 175 -95 167 -115 C159 -135 154 -156 142 -176 C142 -176 142 -177 143 -177 C143 -178 144 -178 145 -177 C146 -176 147 -175 148 -174 C149 -171 151 -168 152 -165 C170 -117 188 -69 206 -20 C222 24 238 68 253 112 C270 160 286 207 302 255 L302 255 L309 276 C312 277 314 276 316 273 C316 273 316 273 317 273 C318 272 320 273 320 275 C320 276 320 276 320 277 C319 280 316 281 313 281 C313 281 312 281 311 281 L319 304 C319 306 320 308 321 310 C344 380 367 450 390 520 C405 566 419 613 429 660 C433 676 436 693 436 709 C436 716 436 722 433 728 L433 728 Z M428 688 C425 664 420 641 413 618 C404 585 395 552 385 520 C376 489 366 459 356 429 C344 391 331 353 319 316 C315 306 312 296 309 287 C309 286 309 286 309 285 C308 284 307 281 302 280 C292 277 282 275 273 273 C228 262 184 251 140 235 C110 224 80 211 51 196 C49 195 48 195 46 194 C47 197 48 198 49 200 C97 289 150 375 206 459 C250 525 296 591 345 653 C359 671 373 688 388 704 C394 710 400 715 407 721 C410 723 414 725 417 727 C422 729 425 728 427 724 C428 719 429 715 429 710 C429 702 429 695 428 688 L428 688 Z " />
<glyph glyph-name="B" unicode="B" horiz-adv-x="379" d="M354 249 C352 279 337 300 312 312 C296 319 280 321 263 322 C241 323 217 320 195 315 C177 310 159 305 140 301 C138 300 135 299 133 299 C133 299 132 300 132 300 C135 303 139 307 141 310 C153 323 165 336 177 349 C212 385 245 422 275 463 C303 496 328 531 348 568 C358 586 366 603 372 622 C374 632 378 641 376 651 C374 661 367 667 357 664 C351 663 346 662 341 659 C332 654 324 649 318 643 C294 628 274 608 256 587 C222 550 192 510 165 468 C133 420 105 369 78 318 L77 318 L75 313 L75 313 L72 307 L75 315 L76 319 C98 379 122 441 145 502 C177 581 211 659 251 735 C251 736 251 737 251 737 C253 740 252 742 250 743 C248 743 247 742 245 740 C245 740 245 739 244 738 C218 688 195 636 175 584 C136 496 103 406 71 317 C61 291 50 265 37 240 C21 206 6 173 -7 139 C-11 132 -14 124 -16 117 C-16 115 -17 112 -14 110 C-12 109 -10 110 -7 115 C-4 120 -1 127 3 134 C18 167 31 202 44 236 C51 254 59 272 68 289 C79 307 86 326 96 343 C126 397 156 450 191 500 C218 538 246 574 279 606 C295 622 311 636 331 647 C337 651 343 654 350 657 C353 658 357 658 360 659 C364 659 367 656 369 652 C370 649 370 646 370 642 C369 635 367 626 363 618 C357 595 345 575 333 554 C308 511 279 472 247 434 C215 397 183 362 150 327 C143 321 138 314 132 308 C130 306 128 304 126 302 C124 296 126 292 132 293 C133 293 134 293 135 293 C139 294 142 294 145 295 C160 299 174 303 192 307 C219 314 247 317 275 314 C290 313 304 309 315 302 C331 294 340 282 344 264 C348 252 347 240 345 228 C344 214 340 202 335 190 C325 162 311 138 294 115 C266 75 234 38 198 4 C159 -33 118 -67 73 -96 C49 -111 23 -125 -3 -135 C-16 -139 -30 -142 -43 -142 C-52 -142 -61 -142 -68 -138 C-71 -137 -73 -136 -75 -134 C-66 -118 -58 -103 -51 -88 C-30 -50 -8 -10 10 29 C15 38 18 48 21 58 C22 61 23 64 22 67 C23 74 20 76 14 74 C12 73 9 72 7 70 C2 65 -3 61 -7 56 C-34 26 -58 -9 -75 -46 C-82 -60 -87 -76 -90 -92 C-92 -107 -91 -121 -83 -134 C-81 -136 -82 -138 -83 -139 C-101 -174 -137 -242 -137 -242 C-140 -245 -140 -246 -138 -247 C-136 -247 -135 -246 -133 -243 C-133 -243 -133 -243 -133 -243 C-115 -209 -95 -174 -78 -139 C-66 -148 -52 -149 -38 -147 C-30 -146 -21 -144 -14 -142 C11 -136 35 -124 56 -111 C97 -87 137 -57 174 -25 C217 14 258 57 292 104 C311 129 328 155 339 183 C348 205 354 227 354 249 L354 249 Z M1 142 C1 147 19 189 25 197 C17 178 10 161 1 142 L1 142 Z M-79 -130 C-82 -125 -83 -121 -84 -117 C-86 -106 -85 -95 -82 -83 C-79 -66 -72 -51 -64 -35 C-48 -6 -29 22 -7 46 C-3 51 2 56 7 61 C11 65 14 67 15 67 C15 67 16 67 16 65 C16 64 16 62 16 60 C15 58 14 55 14 53 C10 44 7 36 3 28 C-16 -13 -38 -54 -60 -95 C-65 -104 -71 -114 -75 -124 C-77 -125 -78 -127 -79 -130 L-79 -130 Z " />
<glyph glyph-name="C" unicode="C" horiz-adv-x="298" d="M342 687 C338 693 331 695 323 692 C317 691 312 688 307 685 C299 679 291 672 283 665 C267 651 253 634 240 617 C201 568 168 516 137 462 C72 347 21 226 -18 99 C-34 47 -47 -5 -54 -59 C-56 -77 -58 -95 -56 -113 C-55 -122 -53 -131 -48 -139 C-43 -147 -35 -151 -26 -149 C-20 -148 -15 -146 -10 -143 C-3 -139 5 -134 11 -129 C25 -118 38 -106 49 -92 C73 -65 96 -37 119 -9 C161 42 201 93 240 147 C250 160 260 174 268 189 C269 191 270 192 270 193 C269 197 267 195 266 194 C266 194 265 193 265 193 C255 174 243 157 230 140 C177 70 122 2 66 -65 C49 -85 32 -103 13 -120 C6 -126 -1 -131 -9 -136 C-13 -139 -18 -141 -23 -143 C-34 -146 -41 -142 -46 -133 C-46 -132 -47 -130 -47 -129 L-47 -129 C-47 -129 -47 -129 -48 -128 C-48 -128 -48 -128 -48 -128 C-49 -124 -53 -109 -52 -86 L-52 -86 C-52 -74 -51 -62 -49 -49 C-44 -16 -37 18 -28 50 C8 184 60 312 126 433 C157 492 193 548 234 600 C252 623 270 644 291 664 C298 670 305 676 313 680 C318 683 322 685 327 686 C332 688 337 686 339 680 C340 676 341 672 341 667 C341 660 341 652 339 644 C337 625 331 608 325 590 C309 540 287 493 262 447 C222 372 177 299 126 230 C125 228 124 226 123 225 C122 223 122 220 125 219 C126 218 128 219 129 221 C136 230 143 240 150 250 C190 309 227 370 261 432 C286 479 309 527 327 577 C335 600 342 623 346 647 C346 649 347 652 347 654 C349 677 345 683 342 687 L342 687 Z " />
<glyph glyph-name="D" unicode="D" horiz-adv-x="395" d="M473 641 C471 654 469 666 462 677 C455 689 445 697 431 701 C424 703 417 703 410 703 C395 702 380 697 366 691 C348 683 331 674 315 663 C271 635 233 601 198 565 C197 563 194 560 192 559 C192 560 231 654 256 696 C257 698 258 699 258 700 C258 702 257 703 256 704 C255 705 254 704 253 703 C251 702 251 701 250 700 C242 684 234 669 226 653 C211 621 198 587 185 554 C184 551 181 547 178 544 C157 520 138 495 118 470 C95 438 72 406 54 370 C48 358 43 346 38 333 C37 332 37 330 37 328 C37 327 37 325 39 324 C41 324 42 325 44 327 C44 327 44 328 45 328 C50 346 58 362 66 378 C96 432 132 481 172 528 C173 529 176 532 176 533 C176 532 174 527 173 525 C154 476 135 427 117 377 C66 241 20 104 -27 -34 C-42 -75 -69 -159 -69 -159 C-69 -160 -69 -163 -68 -163 C-65 -164 -64 -160 -64 -159 C-64 -159 -5 19 25 107 C73 250 125 391 181 532 C184 540 188 547 195 553 C227 589 263 621 302 649 C324 664 346 677 370 687 C383 692 396 696 409 697 C431 698 447 690 457 671 C460 666 462 660 463 654 C467 639 468 622 468 605 C466 578 462 551 455 524 C445 485 433 447 419 409 C378 300 326 196 263 96 C229 41 191 -12 148 -60 C129 -81 110 -101 87 -119 C76 -128 64 -137 51 -143 C44 -146 37 -149 30 -150 C19 -151 9 -148 4 -137 C2 -133 0 -128 -1 -124 C-2 -111 -2 -98 -1 -86 C2 -67 6 -49 12 -31 C24 5 36 41 49 77 C54 92 60 107 67 122 C68 124 68 126 66 127 C64 128 63 127 62 126 C60 123 59 119 57 116 C48 91 39 66 29 41 C19 10 7 -20 0 -52 C-5 -72 -9 -91 -8 -111 C-8 -121 -7 -131 -2 -140 C5 -151 14 -157 27 -156 C32 -155 37 -154 42 -153 C52 -149 62 -143 72 -137 C84 -128 97 -118 108 -107 C136 -81 161 -52 185 -22 C228 32 266 91 301 151 C353 242 399 337 433 436 C450 483 465 530 472 580 C474 600 476 621 473 641 L473 641 Z " />
<glyph glyph-name="E" unicode="E" horiz-adv-x="401" d="M125 194 C122 192 121 190 120 189 C95 166 71 141 49 115 C5 61 -34 4 -66 -58 C-77 -80 -86 -102 -92 -125 C-95 -137 -97 -148 -95 -160 C-93 -173 -86 -182 -73 -185 C-69 -186 -64 -186 -59 -186 C-47 -185 -37 -182 -26 -177 C-4 -169 15 -157 35 -144 C63 -125 90 -103 115 -81 C166 -36 214 12 261 62 C293 94 324 128 355 161 C360 167 364 173 371 176 C372 177 373 179 373 179 C372 180 371 181 370 181 C368 181 367 180 366 179 C364 178 363 176 361 175 C348 161 334 147 321 133 C287 97 254 61 220 26 C180 -15 139 -55 96 -92 C68 -115 40 -136 9 -155 C-7 -164 -23 -172 -41 -177 C-48 -180 -56 -181 -64 -181 C-79 -180 -88 -173 -90 -158 C-91 -147 -89 -136 -87 -126 C-82 -106 -74 -87 -65 -68 C-25 13 28 85 90 151 C103 164 117 177 131 190 C133 192 134 194 136 196 C138 199 136 202 132 202 C130 202 129 202 127 201 C123 200 118 199 114 198 C100 195 86 192 72 193 C54 194 44 203 40 220 C38 228 38 236 39 243 C40 254 42 264 44 275 C52 304 64 331 77 358 C107 420 144 479 184 535 C217 581 253 624 293 663 C312 681 332 698 354 712 C368 722 383 730 399 736 C407 739 416 741 425 741 C439 740 449 734 454 721 C457 712 458 704 458 695 C457 679 453 664 448 650 C434 612 416 577 395 544 C372 509 348 475 320 445 C318 443 317 441 315 439 C315 437 315 435 317 434 C319 433 320 434 322 435 C323 437 325 440 327 441 C347 464 366 489 383 514 C411 554 434 597 452 642 C458 657 463 673 464 689 C465 702 465 714 460 726 C455 737 446 744 434 747 C429 748 424 748 419 748 C406 747 394 742 383 737 C364 728 347 716 331 703 C297 676 268 645 240 613 C196 562 158 507 124 450 C99 409 76 368 57 324 C48 301 40 278 36 254 C33 241 33 229 36 216 C40 201 50 191 65 189 C77 186 90 187 102 189 C109 191 116 192 125 194 L125 194 Z " />
<glyph glyph-name="F" unicode="F" horiz-adv-x="293" d="M94 254 C95 257 96 259 97 260 C112 304 128 347 144 391 C168 454 194 516 223 576 C224 580 227 582 230 584 C260 601 289 619 316 640 C328 649 339 659 349 670 C356 677 363 686 367 695 C372 704 374 713 373 723 C372 737 360 747 346 745 C339 744 333 742 327 738 C319 734 313 728 306 721 C295 710 286 697 277 684 C258 656 242 625 226 594 C224 589 221 586 216 583 C156 551 93 524 28 501 C27 500 25 500 23 499 C21 498 19 496 20 494 C22 491 24 491 26 492 C28 493 30 493 32 494 C94 517 155 543 213 575 C214 575 216 576 218 577 C217 574 216 573 216 571 C205 548 195 525 185 501 C151 423 122 342 94 261 C92 255 89 253 83 251 C62 246 41 239 20 234 C18 233 16 232 15 231 C13 230 13 227 15 226 C18 224 25 224 26 227 C27 229 29 230 32 231 C49 236 68 241 86 246 C86 246 87 246 89 246 C88 244 87 242 87 240 C53 141 19 41 -14 -58 C-35 -120 -54 -181 -75 -243 C-75 -244 -75 -244 -75 -245 C-75 -246 -74 -247 -74 -248 C-73 -248 -72 -247 -71 -247 C-70 -245 -70 -243 -69 -242 C-53 -190 -36 -138 -20 -86 C6 -8 32 70 58 147 C68 179 80 211 90 242 C92 246 94 249 98 249 C102 250 106 251 110 252 C171 266 231 280 291 296 C294 297 297 298 299 299 C301 300 302 301 301 303 C300 305 298 305 296 304 C293 303 289 301 286 300 C265 295 244 289 223 284 C187 275 151 267 115 259 C108 257 102 256 94 254 L94 254 Z M231 592 C232 593 232 594 232 595 C248 626 264 656 284 684 C292 695 301 705 310 715 C316 723 323 728 332 733 C336 736 341 738 347 738 C358 739 365 733 366 723 C367 718 366 712 364 707 C362 697 355 688 349 680 C336 664 320 651 304 639 C282 622 259 607 235 594 C234 593 233 593 231 592 L231 592 Z " />
<glyph glyph-name="G" unicode="G" horiz-adv-x="337" d="M408 668 C399 691 380 702 355 699 C342 698 331 694 320 688 C300 678 283 664 267 649 C240 626 217 599 196 571 C155 518 119 461 88 401 C64 356 42 310 25 261 C16 233 7 204 5 174 C4 164 4 153 7 142 C12 121 26 112 47 114 C59 115 69 118 80 122 C103 132 125 144 147 156 C174 173 201 189 229 205 C240 211 251 216 263 221 C267 223 271 223 275 224 C282 225 286 221 286 215 C286 211 286 207 286 204 C284 188 278 174 273 160 C254 112 230 67 203 23 C202 22 201 20 200 19 C172 -1 146 -23 123 -47 C104 -65 87 -85 73 -108 C70 -112 67 -117 65 -122 C64 -124 59 -135 59 -141 C59 -147 64 -150 70 -148 C70 -148 71 -148 71 -148 C78 -145 89 -136 89 -136 L89 -136 C98 -127 108 -118 116 -108 C148 -71 176 -30 203 12 C204 14 206 15 208 17 C215 22 223 27 231 32 C254 46 276 60 300 72 C304 74 307 75 311 77 C312 77 314 77 315 76 C316 75 317 75 318 75 C319 75 320 77 320 78 C320 80 318 82 316 83 C314 83 312 83 311 82 C306 81 302 79 298 77 C270 64 243 47 217 31 C216 31 213 29 213 29 C213 29 216 33 217 35 C234 64 251 95 265 126 C275 146 283 166 289 187 C291 196 293 204 293 213 C292 225 286 231 274 230 C269 229 263 228 258 226 C246 220 234 214 222 207 C191 190 161 171 130 153 C111 143 92 133 71 125 C62 122 52 119 41 119 C28 119 19 126 14 138 C11 145 10 153 10 161 C9 175 11 190 14 204 C20 234 30 264 41 292 C75 376 118 454 169 528 C196 565 224 601 257 632 C275 650 294 666 317 679 C329 686 341 691 355 693 C377 696 394 686 402 666 C403 664 403 662 404 660 C408 646 409 632 408 618 C407 597 403 576 397 556 C386 515 370 476 351 438 C325 385 296 334 265 284 C263 282 262 280 262 279 C261 277 262 275 263 274 C265 273 267 274 268 275 C269 277 270 278 271 280 C293 314 312 350 331 386 C352 427 372 468 388 511 C401 546 411 582 414 620 C414 636 414 652 408 668 L408 668 Z M191 4 C167 -35 140 -73 109 -107 C101 -116 92 -125 83 -133 C79 -136 74 -139 70 -141 C66 -143 65 -142 66 -138 C67 -133 69 -128 71 -124 C77 -112 84 -102 92 -92 C120 -55 154 -23 191 5 C191 5 193 6 193 6 C193 6 192 4 191 4 L191 4 Z " />
<glyph glyph-name="H" unicode="H" horiz-adv-x="388" d="M534 731 C532 732 530 732 529 730 C527 728 526 726 526 724 C520 711 514 698 510 684 C480 602 451 520 422 438 C404 386 386 334 368 282 C367 279 365 278 363 278 C356 278 349 277 343 277 C322 276 300 275 279 274 C249 273 219 272 188 270 C171 269 153 267 135 265 C109 262 83 258 57 252 C57 252 56 251 55 251 C55 252 56 254 56 254 C70 293 83 331 96 369 C136 480 178 590 229 697 C231 703 234 708 236 713 C237 717 237 719 234 720 C232 721 230 720 228 717 C226 714 223 710 221 707 C204 678 187 649 170 619 C136 557 104 494 77 429 C71 414 65 398 60 383 C59 379 58 375 58 371 C58 369 59 367 62 366 C63 366 65 366 66 367 C67 368 67 370 67 371 C66 373 66 374 66 376 C66 378 67 380 68 383 C72 396 78 410 83 424 C119 513 162 598 212 680 C213 681 213 682 214 683 C214 682 214 681 213 680 C198 643 182 607 167 570 C133 487 104 403 74 318 C67 297 59 275 52 253 C51 251 50 250 48 250 C45 249 42 248 40 248 C19 242 -1 237 -21 229 C-25 227 -29 224 -34 222 C-35 221 -37 219 -38 217 C-39 215 -39 213 -37 212 C-35 211 -34 212 -32 213 C-31 215 -29 216 -27 217 C-23 220 -18 222 -13 224 C6 231 26 237 46 242 C47 242 47 242 48 242 C48 241 47 240 47 239 C4 119 -38 -2 -80 -122 C-86 -137 -91 -151 -96 -166 C-97 -167 -96 -170 -96 -170 C-94 -171 -94 -168 -93 -167 C-92 -165 -92 -162 -91 -160 C-62 -78 -33 3 -4 84 C15 136 33 188 51 240 C52 242 52 244 55 244 C99 255 144 262 190 264 C212 266 235 266 258 268 C291 269 324 271 358 273 C360 273 362 273 365 273 C364 272 364 271 364 270 C328 165 292 60 256 -46 C243 -85 230 -125 217 -164 C216 -168 215 -172 214 -176 C214 -178 214 -179 215 -179 C216 -179 217 -178 218 -177 C218 -176 218 -174 218 -173 C222 -160 225 -147 230 -134 C276 1 322 136 368 271 C368 271 368 272 368 272 L371 281 C371 281 372 282 372 282 C386 322 399 361 414 401 C439 469 463 537 489 606 C504 646 516 687 535 727 C536 728 535 730 534 731 L534 731 Z " />
<glyph glyph-name="I" unicode="I" horiz-adv-x="110" d="M227 704 C227 710 221 713 216 708 C213 705 210 702 207 699 C199 690 193 680 188 671 C155 617 128 560 107 500 C90 453 75 405 66 355 C63 338 61 321 62 305 C62 300 63 295 65 291 C67 286 72 285 76 287 C78 288 79 289 78 291 C78 293 76 294 74 294 C72 293 70 294 70 297 C69 301 69 306 69 310 C68 328 71 346 75 363 C83 406 94 448 109 490 C130 552 157 612 192 668 C198 678 205 687 213 697 C215 699 217 702 219 704 C219 704 220 704 220 704 C220 705 221 705 221 704 C221 704 221 703 221 703 C221 703 221 703 221 703 C221 702 221 700 221 699 C221 699 221 699 221 698 C221 698 221 698 221 698 L221 698 C220 693 220 687 219 681 C213 655 205 630 198 605 C178 542 156 480 133 418 C86 293 38 167 -9 42 C-34 -26 -59 -94 -83 -162 C-84 -164 -85 -166 -85 -168 C-85 -169 -85 -169 -85 -169 C-84 -170 -83 -171 -82 -170 C-82 -169 -82 -169 -82 -169 C-81 -165 -80 -161 -80 -157 C-76 -148 -73 -138 -70 -128 C-7 36 54 201 117 365 C145 440 174 514 198 590 C208 621 218 651 225 683 C226 690 227 697 227 704 L227 704 Z " />
<glyph glyph-name="J" unicode="J" horiz-adv-x="322" d="M436 683 C435 692 433 701 428 709 C422 718 414 722 403 722 C395 722 388 720 381 718 C367 712 355 705 343 697 C313 677 286 655 261 630 C200 571 146 506 98 436 C76 405 57 373 41 339 C33 323 27 308 23 291 C22 287 22 283 22 280 C22 278 24 276 26 277 C28 277 29 279 29 281 C29 284 29 287 30 290 C31 295 33 300 34 305 C44 333 57 359 72 384 C104 439 142 491 184 540 C217 580 253 618 293 652 C314 671 337 688 362 702 C371 707 380 711 389 714 C395 716 401 717 407 715 C417 713 422 707 426 698 C429 689 429 680 429 671 C429 650 426 629 421 609 C414 578 405 548 395 518 C353 396 300 277 236 163 C235 160 233 157 230 156 C182 122 136 86 94 45 C67 19 42 -8 20 -39 C9 -54 -1 -70 -7 -88 C-10 -95 -12 -102 -11 -110 C-11 -121 -4 -127 8 -125 C16 -123 23 -119 29 -115 C40 -108 50 -99 59 -90 C85 -65 109 -37 130 -9 C169 42 202 95 233 149 C233 150 233 150 233 150 C234 151 235 152 235 153 C236 154 237 154 237 155 C243 159 250 163 257 167 C258 168 259 169 259 171 C258 173 256 172 255 172 C252 170 250 169 247 167 C245 165 242 164 240 162 C242 165 243 168 244 169 C303 275 353 385 393 499 C410 544 425 590 433 637 C436 652 437 668 436 683 L436 683 Z M216 127 C186 76 154 27 117 -20 C99 -42 80 -64 59 -84 C49 -93 39 -102 27 -109 C22 -112 17 -115 12 -117 C10 -118 7 -119 5 -119 C-1 -120 -4 -117 -5 -112 C-5 -106 -4 -100 -2 -94 C2 -79 10 -66 18 -53 C37 -23 61 4 86 30 C123 67 163 101 205 132 C212 137 218 141 225 146 C225 146 228 148 228 148 C228 148 220 134 216 127 L216 127 Z " />
<glyph glyph-name="K" unicode="K" horiz-adv-x="345" d="M619 686 C619 687 617 687 617 687 C616 687 615 686 614 686 C610 683 605 679 601 676 C579 657 557 638 535 619 C454 548 377 473 304 394 C232 316 164 235 102 149 C62 92 24 33 -11 -28 C-32 -65 -52 -103 -72 -141 C-73 -142 -74 -144 -75 -145 C-75 -144 -74 -143 -74 -142 C-71 -132 -68 -122 -64 -112 C-40 -49 -16 15 8 79 C46 180 85 282 123 384 C148 452 173 520 198 589 C209 618 219 647 225 678 C227 685 227 692 227 700 C227 707 221 709 215 704 C212 701 209 697 207 694 C200 683 192 672 186 661 C166 624 149 587 132 549 C103 487 77 424 57 359 C49 332 41 305 37 278 C36 274 36 270 36 266 C36 263 38 261 40 261 C42 262 43 264 43 266 C43 266 43 266 43 267 C45 276 46 286 48 295 C55 331 66 366 78 401 C103 474 134 545 169 615 C180 638 191 660 205 681 C213 692 221 699 221 699 C221 697 221 694 220 692 C219 678 215 664 211 651 C200 611 187 572 173 533 C144 454 115 374 85 295 C44 184 2 73 -40 -38 C-54 -75 -68 -111 -82 -148 C-83 -153 -84 -158 -86 -162 C-86 -164 -86 -166 -84 -167 C-82 -168 -80 -167 -79 -165 C-77 -163 -76 -161 -74 -158 C-64 -139 -54 -121 -44 -102 C-3 -22 42 55 93 129 C97 134 101 140 105 146 C106 145 107 144 107 143 C109 136 112 129 115 123 C137 71 159 19 181 -33 C194 -61 206 -91 218 -120 C220 -123 221 -126 222 -129 C222 -131 222 -132 225 -132 C227 -131 227 -129 227 -128 C226 -125 225 -123 224 -121 C209 -84 194 -48 178 -11 C162 25 145 60 131 97 C124 115 117 132 111 150 C110 152 110 153 112 155 C125 173 138 190 151 208 C220 299 297 385 378 467 C425 514 474 559 523 604 C549 627 577 650 603 674 C608 677 613 680 618 684 C619 684 619 685 619 686 L619 686 Z " />
<glyph glyph-name="L" unicode="L" horiz-adv-x="256" d="M297 72 C297 73 296 74 296 74 C295 74 294 74 293 74 C288 73 283 73 278 71 C267 66 257 62 247 57 C204 34 163 10 122 -15 C83 -39 45 -63 10 -91 C-16 -111 -41 -132 -66 -152 C-70 -156 -75 -159 -79 -162 C-80 -162 -80 -163 -80 -163 C-81 -163 -81 -163 -82 -163 C-82 -163 -82 -164 -82 -164 C-83 -164 -84 -162 -84 -161 C-84 -161 -84 -160 -84 -160 C-84 -159 -84 -158 -84 -157 C-84 -157 -84 -157 -84 -157 C-84 -151 -81 -141 -81 -141 C-81 -141 -81 -140 -80 -140 C-73 -115 -65 -90 -56 -66 C-29 13 0 92 28 171 C69 288 111 405 155 522 C170 562 185 603 200 643 C205 658 209 672 213 687 C213 689 213 691 212 693 C212 697 208 698 205 696 C203 694 202 693 201 691 C197 685 193 680 190 674 C169 638 150 601 132 565 C112 525 94 485 79 444 C76 434 73 425 70 415 C69 412 71 410 73 410 C75 409 77 411 78 414 C81 426 85 438 89 450 C111 508 137 564 166 619 C178 640 190 660 201 680 C202 681 205 685 205 685 C205 685 204 682 204 681 C197 659 191 636 183 614 C161 552 138 490 116 427 C57 264 -1 100 -60 -64 C-69 -89 -77 -114 -85 -139 C-88 -147 -90 -154 -89 -162 C-89 -168 -85 -171 -79 -168 C-76 -166 -73 -165 -70 -163 C-62 -156 -53 -149 -45 -142 C-9 -111 28 -81 67 -56 C113 -25 160 3 208 30 C227 41 247 51 267 62 C276 66 284 70 294 70 C294 70 295 70 295 70 C298 70 297 72 297 72 L297 72 Z " />
<glyph glyph-name="M" unicode="M" horiz-adv-x="414" d="M507 569 C511 584 515 598 516 613 C516 619 516 624 514 629 C513 636 506 637 499 634 C496 633 492 631 490 629 C483 624 477 619 471 613 C453 596 438 576 422 557 C373 495 329 431 287 366 C236 287 191 207 147 127 C146 124 145 123 144 120 C147 131 151 142 155 152 C179 215 203 277 227 340 C254 411 282 482 306 554 C309 566 312 578 315 591 C316 596 316 602 316 608 C315 615 309 616 302 612 C299 610 296 609 294 606 C286 597 277 588 269 578 C246 549 226 517 206 486 C153 402 105 315 62 227 C61 227 59 222 59 221 C59 223 74 265 80 284 C91 314 101 343 111 373 C119 398 127 422 135 447 C142 468 149 489 155 509 C161 529 167 549 174 569 C179 587 184 605 189 622 C193 634 196 646 199 657 C199 660 199 662 199 665 C199 668 195 669 191 667 C189 665 188 663 186 662 C182 655 178 649 174 642 C127 558 89 472 65 383 C63 375 62 366 60 358 C60 356 61 354 62 353 C64 351 66 351 68 353 C70 354 70 356 69 357 C69 359 69 360 69 362 C69 366 70 369 71 373 C77 395 83 418 90 440 C102 478 117 515 134 552 C149 583 165 615 183 645 C185 649 188 652 190 655 L191 657 L191 655 L191 655 C191 654 190 653 190 653 C188 646 187 639 185 632 C178 608 171 583 164 558 C157 535 150 512 143 489 C135 462 126 434 117 407 C106 374 95 341 84 309 C73 277 63 246 52 215 C47 201 42 187 36 173 C20 135 2 97 -11 58 C-12 54 -13 50 -14 46 C-14 44 -14 42 -12 42 C-9 41 -8 43 -6 45 C-6 46 -6 47 -5 48 C5 74 15 100 24 126 C31 143 37 161 44 178 C81 261 125 343 172 424 C199 469 227 514 259 557 C270 572 280 586 294 599 C297 602 300 605 304 607 C307 610 309 609 309 606 C310 601 309 597 309 593 C306 575 301 557 295 540 C287 517 280 494 271 471 C257 431 242 391 226 350 C212 313 198 275 183 237 C167 196 152 155 136 114 C131 103 127 91 122 80 C121 78 121 76 124 75 C126 75 128 76 129 78 C130 80 131 82 132 84 C157 133 183 182 210 231 C264 326 323 419 390 509 C412 538 434 567 459 595 C469 605 479 615 491 624 C494 626 497 628 501 630 C505 631 507 631 509 627 C509 625 510 623 510 621 C510 613 509 606 508 598 C502 570 493 542 483 513 C464 463 444 412 423 362 C393 291 363 221 332 150 C291 56 250 -39 209 -133 C204 -143 200 -153 195 -163 C194 -164 192 -166 195 -167 C197 -168 198 -165 198 -164 C202 -155 206 -145 210 -136 C246 -53 283 30 319 112 C359 205 400 298 439 391 C464 450 488 509 507 569 L507 569 Z " />
<glyph glyph-name="N" unicode="N" horiz-adv-x="348" d="M440 602 C444 620 448 637 448 655 C448 662 448 669 445 675 C442 682 436 685 428 684 C424 683 421 682 417 680 C412 677 406 674 401 670 C388 660 377 648 366 635 C344 610 325 583 306 555 C265 493 229 428 195 363 C156 287 121 210 87 132 C76 107 64 81 52 56 C51 54 49 49 49 49 C49 49 49 53 49 55 C52 67 54 79 57 90 C69 129 80 168 92 207 C104 245 116 283 127 321 C140 362 153 403 166 445 C175 474 184 503 192 533 C199 557 206 582 212 606 C216 621 218 635 220 649 C221 654 221 659 220 663 C218 671 212 672 205 667 C203 666 201 664 199 662 C194 657 189 651 185 646 C166 619 151 591 136 563 C98 486 67 408 46 327 C44 317 42 307 41 296 C40 294 41 291 41 288 C42 286 43 285 45 286 C47 286 48 288 48 290 C47 298 49 306 51 315 C57 338 63 360 70 383 C88 442 111 500 139 556 C153 584 168 611 186 637 C186 637 188 640 188 640 C188 640 201 656 205 660 C205 660 209 663 211 664 C211 664 211 664 211 664 C212 663 213 662 213 659 C213 659 213 659 213 659 C213 658 213 657 213 655 C213 655 213 655 213 655 C213 653 213 651 213 649 C213 648 213 648 213 647 C213 645 212 643 212 640 C207 610 199 580 191 550 C181 515 171 480 161 445 C144 388 126 331 109 275 C90 212 71 148 52 85 C49 74 46 63 44 52 C43 50 43 47 43 44 C43 40 47 39 50 42 C51 43 53 45 54 46 C57 51 60 56 62 62 C75 91 88 120 100 149 C140 243 184 337 234 428 C263 480 293 532 329 581 C345 604 362 626 382 647 C391 656 401 665 412 672 C417 675 422 678 427 679 C432 679 436 678 438 675 C440 672 441 669 442 666 C442 659 443 652 442 645 C441 628 437 611 432 594 C424 562 414 530 403 499 C385 446 367 394 348 342 C315 250 281 158 247 66 C226 8 204 -51 183 -110 C178 -125 172 -140 167 -155 C166 -156 164 -159 167 -159 C170 -160 170 -157 170 -155 C177 -137 183 -119 189 -101 C217 -23 246 55 275 132 C313 239 352 345 391 451 C409 501 427 551 440 602 L440 602 Z " />
<glyph glyph-name="O" unicode="O" horiz-adv-x="381" d="M409 533 C409 558 408 582 403 606 C400 625 394 643 384 659 C378 670 369 679 357 685 C339 695 319 694 299 686 C283 679 270 669 257 658 C237 641 220 621 205 601 C177 564 154 524 134 482 C99 411 74 338 59 261 C59 259 58 256 56 254 C35 222 17 189 2 153 C-21 100 -36 45 -36 -13 C-36 -35 -34 -58 -28 -80 C-24 -97 -17 -113 -5 -126 C7 -139 22 -147 40 -147 C56 -148 71 -144 86 -137 C107 -127 126 -114 144 -99 C177 -70 205 -37 230 -1 C269 53 300 111 326 172 C349 227 367 283 382 340 C395 391 403 442 407 494 C408 507 409 520 409 533 L409 533 Z M398 443 C383 337 352 234 305 135 C279 78 247 25 208 -24 C185 -54 160 -81 130 -104 C114 -116 97 -128 78 -135 C67 -139 56 -142 45 -142 C23 -142 6 -133 -6 -116 C-17 -101 -23 -84 -27 -66 C-33 -36 -33 -6 -30 25 C-23 86 -2 143 27 198 C36 214 45 229 55 245 C55 246 56 246 56 247 L57 248 L57 247 C56 242 56 238 55 233 C53 217 53 200 53 184 C54 184 54 183 54 183 C54 180 55 178 58 178 C60 179 61 180 61 184 C60 209 62 235 66 260 C67 262 68 264 69 266 C95 304 125 339 158 372 C192 407 230 438 270 467 C273 469 276 471 280 473 C282 474 284 475 287 475 C289 475 290 475 291 477 C291 479 291 481 289 481 C286 482 284 482 282 481 C278 480 275 478 273 476 C261 467 249 458 237 449 C177 401 123 346 78 285 C75 281 72 277 69 273 C69 277 70 282 71 286 C90 371 120 452 164 528 C184 564 206 597 233 628 C248 643 264 658 282 670 C294 678 306 684 321 686 C340 688 356 683 369 670 C380 658 387 644 392 628 C398 608 401 587 403 565 C406 525 403 484 398 443 L398 443 Z " />
<glyph glyph-name="P" unicode="P" horiz-adv-x="309" d="M421 601 C419 614 416 626 409 637 C398 655 382 663 361 661 C345 659 330 653 317 646 C291 632 268 614 247 593 C216 563 189 529 164 494 C130 447 102 397 77 345 C76 343 76 342 75 340 C75 340 74 340 74 340 C74 341 75 342 75 343 C92 399 108 455 125 511 C136 549 149 586 161 624 C168 644 173 664 179 684 C180 685 181 686 182 688 C183 691 183 693 181 695 C178 696 176 695 175 691 C174 689 173 686 172 684 C165 660 159 637 151 613 C123 523 96 433 71 342 C68 331 65 320 60 309 C52 288 43 266 34 245 C33 243 31 241 30 239 C15 225 2 210 -9 192 C-15 181 -21 169 -22 156 C-23 144 -20 133 -11 125 C-9 124 -10 123 -10 121 C-35 43 -57 -36 -79 -115 C-82 -128 -85 -140 -87 -152 C-88 -155 -88 -157 -85 -158 C-82 -159 -81 -156 -81 -154 C-79 -151 -78 -148 -77 -145 C-55 -77 -32 -10 -10 57 C-4 76 2 95 8 114 C8 115 8 117 10 116 C25 114 39 116 53 119 C77 125 101 135 123 147 C169 172 210 205 247 243 C295 292 335 347 368 407 C386 441 402 475 412 512 C420 541 424 571 421 601 L421 601 Z M39 248 C44 259 54 285 55 286 C54 285 49 263 45 253 C44 251 38 246 38 246 L39 248 L39 248 Z M-16 148 C-17 157 -15 165 -12 173 C-4 192 8 207 21 222 C23 224 25 225 27 227 C15 195 4 162 -8 130 C-13 135 -16 141 -16 148 L-16 148 Z M-72 -113 C-51 -35 -30 44 -6 121 C-4 121 -2 120 0 119 C1 118 3 118 5 117 C-19 40 -45 -37 -72 -113 L-72 -113 Z M7 122 C3 124 0 125 -3 127 C-3 127 -3 129 -3 130 C2 145 7 161 13 176 C19 194 26 212 32 231 C34 235 42 242 42 242 L42 240 C30 201 19 162 7 122 L7 122 Z M411 534 C404 497 390 461 372 427 C336 355 290 290 232 234 C197 200 159 171 116 149 C93 138 70 128 46 123 C35 121 24 120 13 122 C12 122 12 122 10 122 C11 123 11 125 11 126 C23 164 34 203 46 242 C46 244 48 246 49 247 C55 251 61 255 67 259 C71 262 75 264 79 267 C81 268 82 269 82 271 C81 273 79 274 77 273 C76 273 74 272 73 271 C66 267 60 262 53 258 C52 257 51 257 50 256 C50 258 51 258 51 259 C55 275 60 291 65 307 C66 310 67 313 68 316 C97 382 132 444 174 502 C200 537 227 570 258 598 C278 616 299 632 324 644 C336 650 349 654 362 655 C379 657 393 651 402 637 C409 627 413 615 415 603 C418 580 416 557 411 534 L411 534 Z " />
<glyph glyph-name="Q" unicode="Q" horiz-adv-x="363" d="M184 -23 C216 20 243 65 267 112 C321 218 361 329 388 444 C398 483 404 522 405 562 C406 580 405 599 402 617 C399 633 395 649 386 662 C372 680 354 688 331 685 C316 682 301 676 288 667 C269 656 253 642 237 627 C206 598 179 564 154 528 C109 464 74 394 45 322 C18 253 0 182 -8 110 C-11 76 -12 41 -9 8 C-7 -12 -4 -33 2 -52 C4 -56 4 -61 4 -67 C5 -81 9 -94 17 -105 C25 -117 36 -123 51 -124 C64 -125 77 -121 89 -114 C102 -107 114 -98 125 -88 C127 -86 129 -84 132 -82 C132 -82 132 -82 133 -82 C134 -83 145 -95 151 -100 C171 -117 193 -131 215 -144 C228 -151 240 -157 253 -161 C261 -163 270 -164 278 -163 C289 -161 297 -155 303 -146 C304 -145 305 -143 304 -142 C302 -141 301 -142 300 -144 C291 -156 280 -160 266 -158 C255 -157 245 -153 234 -148 C204 -134 176 -114 151 -91 C146 -87 141 -82 136 -78 C137 -77 138 -76 138 -76 C155 -59 170 -42 184 -23 L184 -23 Z M87 -110 C77 -115 66 -119 55 -119 C40 -119 28 -113 20 -100 C15 -93 13 -84 11 -75 C11 -74 11 -74 11 -73 C13 -76 15 -79 17 -81 C18 -83 20 -84 21 -85 C22 -86 24 -86 25 -85 C25 -85 25 -85 25 -85 C25 -85 25 -85 25 -85 C25 -85 26 -85 26 -85 C26 -85 26 -85 26 -84 C26 -84 26 -83 26 -83 C26 -83 26 -83 26 -83 C26 -80 25 -78 24 -77 C24 -77 24 -77 24 -77 C20 -71 16 -65 12 -59 C11 -56 10 -53 11 -49 C13 -37 16 -25 24 -15 C28 -7 35 -2 43 -1 C49 0 54 -1 59 -4 C64 -8 70 -11 74 -15 C81 -22 88 -29 95 -37 C106 -50 130 -78 130 -78 C130 -78 102 -102 87 -110 L87 -110 Z M135 -75 C134 -75 134 -75 134 -75 C133 -75 133 -75 133 -75 C132 -74 106 -41 93 -26 C87 -19 79 -12 72 -5 C67 -1 61 3 55 5 C44 8 34 5 25 -3 C16 -12 12 -22 8 -34 C8 -36 7 -38 6 -40 C6 -39 5 -38 5 -37 C0 -17 -2 4 -4 25 C-6 55 -5 85 -1 116 C4 173 17 229 36 284 C65 370 105 451 157 527 C183 564 211 599 245 629 C263 645 282 660 303 670 C314 676 326 679 338 680 C358 681 372 672 383 655 C391 642 395 628 397 612 C401 589 401 565 399 541 C396 504 389 466 380 429 C355 324 318 223 270 126 C247 79 221 34 190 -8 C174 -31 135 -74 135 -75 L135 -75 Z " />
<glyph glyph-name="R" unicode="R" horiz-adv-x="312" d="M419 663 C414 674 405 681 392 683 C385 685 378 684 371 683 C355 680 340 673 326 666 C300 653 276 635 253 616 C197 570 149 518 105 462 C83 434 64 404 48 373 C46 369 45 366 44 363 C43 360 44 358 46 357 C48 357 50 358 51 360 C57 375 64 389 72 402 C95 441 123 476 153 510 C187 550 224 587 265 620 C286 637 308 652 332 664 C347 671 363 677 380 678 C399 679 412 670 416 653 C419 640 417 628 415 615 C411 593 404 572 395 551 C380 511 360 473 339 436 C289 349 234 265 176 183 C156 156 136 130 115 104 C114 103 113 103 112 102 C109 100 106 99 104 96 C98 90 93 84 88 77 C84 71 71 62 71 61 C71 63 71 64 72 64 C101 138 129 211 155 286 C171 330 186 374 202 418 C203 421 203 425 204 428 C204 429 203 431 202 432 C200 432 198 431 197 430 C196 430 195 428 194 427 C192 423 189 420 187 416 C150 349 115 280 86 209 C71 176 58 142 49 107 C45 94 42 80 42 67 C42 63 43 59 44 55 C46 50 51 47 56 48 C58 49 60 49 62 50 C61 49 61 48 61 48 C53 28 46 8 35 -10 C31 -17 27 -24 24 -30 C14 -51 4 -71 -3 -92 C-4 -95 -5 -97 -5 -100 C-5 -101 -4 -103 -3 -103 C-2 -104 0 -103 1 -102 C2 -100 3 -98 4 -96 C13 -77 21 -57 30 -38 C36 -25 41 -12 48 2 C54 13 61 25 68 36 C80 56 93 75 109 92 C111 94 112 95 114 97 C115 94 115 93 115 91 C115 81 115 71 114 61 C112 30 112 0 116 -31 C118 -47 121 -64 128 -79 C130 -84 133 -89 136 -94 C142 -101 150 -102 158 -96 C161 -95 163 -94 164 -92 C168 -88 172 -84 175 -80 C197 -52 219 -24 240 4 C251 18 261 32 271 46 C272 47 273 49 271 50 C268 52 267 50 266 48 C264 45 261 41 258 37 C234 5 210 -27 185 -60 C179 -68 172 -76 165 -84 C162 -87 158 -90 155 -93 C150 -96 145 -95 141 -91 C139 -89 138 -87 137 -84 C134 -79 131 -73 129 -67 C123 -47 121 -28 119 -7 C118 15 118 38 120 61 C121 71 121 81 121 91 C122 95 121 99 117 102 C122 108 127 114 132 120 C169 167 203 215 237 265 C278 326 317 389 353 453 C373 489 392 526 407 565 C415 587 422 610 424 633 C424 643 423 654 419 663 L419 663 Z M54 54 C54 54 54 54 53 54 C53 54 52 54 52 54 C51 55 50 56 49 58 C47 65 49 76 49 77 C49 77 49 77 49 77 C52 101 60 124 68 147 C88 206 114 264 142 320 C157 351 173 381 191 410 C191 411 194 414 194 415 C193 414 186 391 183 381 C147 273 108 166 66 60 C64 57 59 53 54 54 L54 54 Z M57 29 C58 30 64 47 67 52 C68 54 74 58 75 58 C74 57 58 30 57 29 L57 29 Z " />
<glyph glyph-name="S" unicode="S" horiz-adv-x="280" d="M427 703 C423 704 418 704 414 704 C403 703 392 699 381 695 C358 686 337 673 317 659 C240 606 172 541 115 467 C95 442 78 415 66 386 C41 333 36 280 52 230 C59 208 70 188 81 169 C92 152 102 134 112 116 C120 102 126 87 130 70 C130 68 129 67 127 65 C89 40 51 15 13 -11 C-16 -31 -45 -52 -72 -75 C-80 -83 -88 -91 -96 -100 L-96 -100 C-96 -100 -97 -100 -98 -102 C-98 -102 -101 -105 -102 -106 C-104 -110 -107 -114 -108 -118 C-109 -120 -109 -122 -109 -123 C-109 -123 -109 -123 -109 -123 L-109 -123 C-109 -127 -106 -131 -101 -132 C-99 -133 -96 -133 -93 -133 C-84 -134 -75 -132 -67 -129 C-31 -118 3 -102 35 -82 C58 -68 79 -53 98 -33 C122 -8 136 20 136 52 C135 57 135 62 135 65 C154 78 174 90 195 101 C196 101 196 103 197 104 C196 104 195 105 194 105 C193 105 192 104 190 104 C184 100 178 97 172 93 C159 85 147 77 134 69 C134 74 133 76 133 76 L133 76 C131 82 129 88 127 94 C120 114 109 132 98 151 C87 168 76 184 67 202 C39 258 39 318 67 382 C80 413 99 442 120 469 C157 517 199 560 245 599 C278 627 312 652 348 673 C363 682 379 689 395 694 C403 697 411 699 420 698 C430 697 436 691 437 681 C438 677 438 673 437 669 C435 656 430 642 424 629 C409 594 390 561 369 529 C337 480 300 434 260 389 C239 364 216 339 192 316 C190 315 189 313 187 311 C186 309 186 307 188 306 C190 305 192 306 193 307 C195 309 197 312 199 314 C225 339 250 366 273 393 C320 449 364 506 399 568 C413 593 427 617 436 643 C440 655 444 667 444 679 C444 691 439 700 427 703 L427 703 Z M130 33 C125 10 114 -9 98 -27 C82 -45 63 -59 43 -72 C8 -95 -28 -112 -67 -124 C-75 -127 -84 -128 -92 -128 C-94 -128 -97 -128 -99 -127 C-101 -126 -102 -126 -103 -125 C-104 -123 -104 -122 -104 -120 C-103 -117 -102 -115 -100 -112 C-100 -112 -100 -112 -100 -112 C-99 -111 -97 -107 -97 -107 C-97 -107 -87 -95 -81 -90 C-61 -71 -40 -54 -18 -38 C25 -6 70 23 116 52 C120 55 125 58 131 62 C132 52 131 42 130 33 L130 33 Z " />
<glyph glyph-name="T" unicode="T" horiz-adv-x="145" d="M254 624 C252 622 251 621 250 620 C240 605 230 591 220 577 C198 542 178 506 160 469 C125 400 96 330 68 259 C40 189 14 119 -12 48 C-31 -6 -50 -61 -66 -116 C-68 -124 -71 -131 -73 -139 C-74 -141 -73 -143 -71 -143 C-69 -143 -68 -142 -68 -140 C-64 -129 -63 -118 -60 -108 C-36 -34 -11 40 16 113 C46 195 76 276 112 356 C135 412 161 467 191 521 C210 555 231 588 255 618 C258 622 261 624 266 623 C282 622 299 620 315 619 C336 617 358 615 380 614 C398 613 416 612 436 613 C443 613 450 614 457 616 C472 620 478 632 470 644 C468 648 465 651 462 654 C443 673 420 686 393 694 C361 702 331 695 303 673 C296 668 290 663 283 657 C276 649 269 641 262 633 C260 631 258 630 255 630 C242 631 229 632 216 633 C183 636 149 638 115 638 C65 639 14 636 -37 626 C-53 623 -68 618 -84 614 C-87 614 -89 613 -92 612 C-95 611 -96 608 -95 607 C-94 604 -92 604 -90 605 C-89 605 -88 606 -87 606 C-84 607 -81 608 -77 609 C-29 623 21 629 70 631 C97 632 124 632 151 631 C178 629 206 628 232 626 C239 626 246 625 254 624 L254 624 Z M265 630 C266 631 266 631 267 632 C279 646 292 659 306 670 C334 690 362 695 390 687 C416 680 438 667 456 649 C460 646 462 642 464 638 C469 631 466 626 458 623 C453 622 449 621 444 620 C426 618 409 618 391 619 C363 621 335 623 307 625 C294 626 282 628 269 629 C268 629 267 629 265 630 L265 630 Z " />
<glyph glyph-name="U" unicode="U" horiz-adv-x="341" d="M441 641 C440 642 439 642 439 642 C437 643 436 643 434 642 C434 642 433 641 431 639 C430 638 430 638 429 637 C428 635 425 633 423 628 C418 620 413 611 408 602 C391 567 375 531 361 494 C333 423 308 350 285 277 C283 272 281 268 279 263 C240 200 197 139 151 80 C130 53 108 26 83 2 C73 -8 63 -17 51 -24 C45 -28 39 -32 32 -34 C21 -38 12 -34 7 -24 C4 -19 2 -12 0 -6 C-3 8 -4 23 -3 38 C-2 77 4 115 12 153 C22 202 35 250 50 298 C71 369 96 440 122 509 C141 559 159 608 181 656 C187 668 192 681 200 692 C201 694 201 696 199 697 C198 698 196 698 194 696 C193 695 192 694 191 692 C189 689 187 686 186 682 C178 665 169 647 162 630 C127 543 96 455 67 367 C40 285 17 202 2 118 C-3 90 -7 62 -7 34 C-8 21 -7 8 -5 -4 C-4 -13 -1 -22 4 -30 C10 -39 19 -43 30 -41 C35 -40 39 -38 43 -36 C50 -32 58 -28 64 -23 C75 -13 86 -3 97 8 C118 29 136 53 155 76 C197 130 235 186 271 243 C273 245 274 248 276 250 C276 248 275 245 275 244 C257 185 241 126 225 67 C207 -3 189 -72 171 -142 C165 -163 153 -207 154 -208 C154 -208 154 -209 155 -209 C156 -209 157 -208 157 -208 C166 -173 175 -138 184 -103 C201 -38 218 27 235 92 C250 147 265 202 282 257 C283 260 285 264 287 268 C291 276 297 284 301 293 C345 367 383 444 412 524 C423 555 434 585 440 616 C441 622 441 629 442 635 C442 639 441 641 441 641 L441 641 Z M436 623 C432 599 426 577 418 554 C392 476 358 402 318 330 C310 316 302 303 295 289 C294 288 290 282 290 282 L292 290 C323 387 357 484 402 577 C410 593 419 609 427 625 C433 635 437 636 437 636 C437 636 438 635 436 623 L436 623 Z " />
<glyph glyph-name="V" unicode="V" horiz-adv-x="311" d="M523 685 C522 685 521 684 521 684 C510 669 498 653 487 638 C396 504 308 369 222 232 C172 151 124 69 75 -12 C55 -44 36 -76 17 -107 C13 -113 9 -118 5 -124 C4 -126 2 -127 0 -129 C-1 -126 -1 -124 -1 -122 C0 -113 1 -105 2 -96 C7 -67 13 -38 19 -9 C31 44 43 96 55 149 C69 211 84 272 100 334 C116 397 134 460 154 523 C169 573 184 623 199 673 C201 679 202 686 204 694 C204 696 203 699 201 700 C199 701 198 701 196 700 L196 700 C196 700 196 700 196 700 C196 700 195 699 193 698 C193 698 193 698 193 698 C192 696 190 694 188 691 C186 689 185 686 183 683 C183 683 182 683 182 682 C175 670 168 658 161 646 C136 599 115 550 94 501 C91 495 89 488 87 482 C86 480 86 479 86 477 C86 475 87 473 89 473 C92 473 93 475 93 477 C95 483 97 490 100 496 C104 505 108 514 111 523 C128 560 143 598 162 634 C171 650 191 688 196 691 L195 684 C195 683 195 683 194 682 C188 660 182 638 176 616 C160 562 144 509 129 455 C108 380 88 304 70 228 C58 178 46 128 35 77 C23 23 11 -32 0 -86 C-3 -97 -4 -107 -5 -117 C-6 -120 -6 -123 -6 -126 C-5 -130 -5 -132 -2 -133 C1 -134 4 -132 6 -130 C8 -128 10 -126 11 -123 C16 -118 20 -112 23 -106 C38 -82 52 -59 66 -35 C112 42 157 120 204 197 C272 308 343 417 415 525 C446 572 478 619 510 666 C514 671 518 677 523 682 C523 682 524 684 523 685 L523 685 Z " />
<glyph glyph-name="W" unicode="W" horiz-adv-x="493" d="M615 610 C614 609 613 608 613 607 C604 586 597 564 588 544 C538 429 487 315 437 201 C407 133 376 65 345 -3 C332 -31 319 -58 303 -84 C298 -91 293 -99 288 -106 C285 -109 281 -113 277 -115 C273 -118 268 -117 265 -113 C264 -111 262 -109 261 -106 C259 -99 256 -93 255 -85 C249 -61 247 -36 246 -11 C245 35 246 81 250 127 C253 159 256 191 260 223 C266 267 273 312 279 356 C282 379 285 401 288 424 C289 428 288 432 288 436 C288 438 287 440 284 441 C282 442 280 441 278 439 C277 437 276 436 275 434 C272 430 270 426 268 421 C260 405 252 388 244 371 C202 276 159 181 116 87 C107 68 97 49 88 30 C85 25 81 20 77 15 C77 14 76 14 76 14 C75 13 74 12 73 12 C72 12 72 12 71 12 C70 13 69 15 69 16 C69 16 69 17 69 17 C68 23 67 30 66 36 C66 56 67 77 69 97 C74 137 79 177 85 218 C91 262 98 306 105 350 C116 416 128 482 140 548 C145 576 150 604 154 632 C155 637 155 642 155 647 C155 649 154 652 151 652 C149 653 147 652 145 650 C143 647 142 645 140 642 C137 635 134 628 131 621 C115 581 102 540 90 499 C80 466 72 432 69 398 C68 388 67 378 70 368 C71 365 72 363 74 361 C75 359 77 358 79 360 C80 361 80 363 79 365 C76 370 75 377 75 383 C75 398 77 412 80 426 C90 484 107 540 127 595 C133 610 139 624 146 638 L147 640 L147 640 L148 644 L148 641 L148 641 L148 638 C147 629 146 619 144 609 C137 569 130 529 124 489 C112 416 100 343 89 271 C79 208 70 146 64 83 C63 66 62 48 62 30 C62 24 63 18 64 12 C67 4 73 3 79 8 C82 11 85 14 88 18 C94 28 100 38 105 49 C123 88 140 126 158 165 C190 237 222 310 255 382 C261 397 270 412 277 427 C278 429 280 431 281 433 L282 434 L282 433 C282 431 282 430 282 429 C281 421 281 413 279 406 C276 377 272 349 268 321 C263 285 259 249 255 213 C251 184 248 155 246 125 C244 97 243 68 242 39 C241 3 242 -33 247 -69 C249 -81 251 -93 255 -104 C257 -108 259 -112 261 -116 C266 -122 273 -124 279 -120 C282 -119 284 -117 286 -115 C289 -112 292 -108 296 -104 C305 -91 313 -76 321 -62 C342 -21 361 21 380 63 C446 214 512 364 579 515 C592 545 605 575 615 606 C616 607 615 608 615 610 L615 610 Z " />
<glyph glyph-name="X" unicode="X" horiz-adv-x="421" d="M486 678 C485 678 484 678 483 677 C481 675 479 673 478 670 C467 655 456 641 445 626 C348 493 250 361 153 228 C152 227 152 227 151 226 C151 227 151 228 151 229 C154 263 158 297 161 331 C165 372 169 413 173 454 C177 490 181 526 181 562 C181 577 182 591 178 605 C177 608 176 611 175 614 C172 619 166 620 161 616 C159 614 157 612 155 610 C152 605 149 600 146 595 C137 576 127 557 119 537 C112 522 106 507 102 491 C102 490 101 488 102 487 C102 486 103 484 104 484 C105 484 107 485 108 486 C108 486 108 487 108 488 C110 492 111 497 113 502 C123 534 138 564 154 594 C156 598 159 602 161 606 C163 608 165 612 168 611 C169 610 171 606 171 604 C173 597 174 590 174 583 C176 552 174 520 171 489 C169 464 167 439 165 414 C163 385 160 357 157 328 C154 293 151 259 148 224 C147 221 147 219 145 217 C105 162 65 107 26 52 C-4 10 -32 -33 -59 -77 C-67 -91 -74 -106 -82 -120 C-83 -122 -84 -125 -84 -127 C-84 -128 -83 -130 -82 -131 C-81 -131 -79 -130 -78 -129 C-78 -129 -78 -128 -78 -128 C-73 -119 -69 -109 -64 -100 C-41 -56 -14 -14 14 27 C56 90 100 151 145 211 C145 212 146 212 147 213 C146 210 146 208 146 205 C144 180 141 155 139 130 C138 107 136 84 135 62 C133 26 132 -9 132 -45 C131 -72 132 -98 136 -125 C138 -135 140 -144 145 -153 C150 -163 159 -166 169 -160 C174 -157 179 -153 183 -149 C197 -135 209 -119 220 -103 C282 -14 342 76 398 169 C407 183 415 198 423 213 C425 216 421 217 421 217 L421 217 C415 205 408 194 401 183 C358 110 312 40 265 -29 C244 -60 223 -90 201 -120 C193 -131 185 -142 174 -151 C171 -153 167 -156 163 -157 C159 -160 154 -158 151 -154 C149 -151 147 -148 146 -145 C144 -136 141 -128 140 -119 C136 -94 135 -70 135 -45 C134 7 137 58 141 110 C144 143 147 177 149 211 C150 216 151 221 155 225 C161 233 167 241 172 249 C246 349 319 449 393 549 C424 591 453 634 486 675 C486 676 486 677 486 678 L486 678 Z " />
<glyph glyph-name="Y" unicode="Y" horiz-adv-x="243" d="M336 634 C334 635 332 633 331 631 C329 628 328 625 326 622 C314 598 302 574 289 550 C241 463 188 379 126 302 C110 280 92 259 73 240 C66 234 59 228 52 223 C49 221 45 219 41 218 C37 217 34 219 32 223 C31 226 31 229 30 232 C29 244 31 256 33 268 C37 295 44 321 52 347 C71 415 95 483 121 550 C138 594 155 638 172 683 C172 683 172 684 173 684 C173 684 173 684 173 683 C175 683 177 682 178 683 C179 684 180 686 180 688 C180 693 180 698 180 703 C180 705 180 707 177 707 C175 708 173 707 172 705 C171 702 171 700 170 698 C159 668 149 638 138 609 C112 541 87 472 65 402 C52 361 39 319 30 276 C28 263 25 248 26 234 C26 230 27 225 28 221 C30 215 35 212 41 213 C41 213 41 213 41 213 C45 214 50 216 55 219 C59 222 64 225 68 228 C68 228 72 232 73 233 C77 237 86 247 86 247 C94 254 101 262 107 270 C154 326 196 386 234 447 C268 502 299 558 328 615 C329 616 329 617 330 618 C330 617 330 616 330 615 C326 601 323 587 319 573 C302 514 283 456 263 397 C233 310 201 223 164 138 C144 93 123 49 99 6 C97 2 94 -1 91 -4 C72 -22 53 -41 35 -61 C25 -72 15 -84 7 -98 C5 -101 3 -105 2 -109 C1 -112 1 -114 3 -116 C5 -118 8 -117 10 -116 C13 -115 16 -113 19 -111 C30 -103 38 -93 47 -82 C65 -59 80 -34 94 -9 C96 -7 98 -4 99 -2 C102 0 104 2 107 4 L136 31 C141 35 145 39 149 43 C150 44 151 46 152 47 C152 48 151 50 150 50 C150 51 148 50 148 49 C145 47 143 43 141 41 C128 30 116 19 104 8 C104 8 105 10 105 10 C138 72 167 136 193 200 C232 296 266 394 299 493 C312 531 324 570 334 609 C336 616 337 622 338 629 C339 631 338 633 336 634 L336 634 Z M87 -15 C72 -41 56 -66 36 -88 C30 -95 23 -101 16 -107 C13 -109 10 -111 7 -112 C7 -112 7 -112 6 -112 C7 -110 7 -109 7 -108 C10 -103 12 -98 15 -94 C25 -82 34 -69 44 -58 C58 -43 72 -29 86 -14 L88 -13 C88 -13 87 -15 87 -15 L87 -15 Z " />
<glyph glyph-name="Z" unicode="Z" horiz-adv-x="390" d="M571 680 C570 695 561 704 546 705 C538 706 530 704 523 702 C503 697 484 689 466 680 C425 659 386 634 348 606 C275 552 209 491 148 423 C111 383 76 340 45 294 C37 280 28 266 22 251 C19 246 18 241 17 235 C16 233 17 232 19 231 C22 231 23 233 23 235 C24 243 27 250 31 257 C41 273 51 289 62 305 C135 412 224 504 325 584 C365 615 407 643 450 667 C471 679 493 689 516 696 C525 699 535 701 545 700 C557 699 564 693 565 680 C565 675 565 670 564 665 C561 656 558 646 555 638 C545 613 531 590 516 568 C482 514 443 464 403 414 C309 299 208 189 101 85 C81 64 60 45 39 25 C36 21 33 18 31 15 C29 13 28 10 29 8 C30 6 33 6 35 6 C40 8 45 9 49 11 C66 18 83 25 100 31 C129 42 158 52 187 60 C197 62 206 64 215 63 C223 62 226 58 223 49 C221 42 217 35 213 28 C204 15 193 3 182 -9 C158 -34 130 -57 102 -78 C99 -80 96 -82 92 -83 C72 -91 51 -100 32 -112 C25 -116 18 -120 11 -125 C9 -126 8 -128 6 -130 C4 -133 5 -137 9 -137 C11 -137 13 -137 15 -136 C21 -133 27 -131 33 -128 C55 -116 74 -103 94 -90 C97 -88 100 -86 104 -85 C115 -81 127 -76 139 -72 C174 -60 210 -52 245 -43 C266 -38 287 -34 308 -30 C311 -29 314 -28 317 -30 C319 -31 321 -28 320 -27 C320 -25 319 -24 317 -23 C316 -23 313 -23 311 -24 C297 -26 283 -29 269 -32 C219 -42 170 -55 120 -72 C120 -73 119 -73 118 -73 C123 -68 128 -65 133 -61 C158 -42 181 -21 201 3 C210 14 218 25 225 37 C227 43 230 48 230 55 C231 61 229 65 224 67 C220 68 217 69 214 69 C205 70 195 68 186 66 C156 58 126 48 97 36 C79 29 61 22 42 14 C40 13 38 13 36 12 C35 12 35 12 35 12 C35 12 35 13 35 13 C37 14 38 16 40 18 C46 25 53 32 60 39 C129 106 197 175 262 247 C325 316 387 386 445 460 C476 500 506 541 532 584 C544 603 555 622 563 642 C567 655 571 667 571 680 L571 680 Z M18 -128 C33 -116 51 -108 68 -100 C52 -111 35 -121 18 -128 L18 -128 Z " />
<glyph glyph-name="bracketleft" unicode="&#x5b;" horiz-adv-x="160" d="M13 -100 C13 -108 13 -119 13 -130 C13 -133 14 -137 14 -140 C15 -151 19 -160 29 -165 C39 -170 49 -173 60 -172 C65 -172 69 -170 71 -166 C72 -165 73 -163 74 -161 C74 -159 74 -157 72 -156 C70 -156 69 -157 68 -158 C67 -159 67 -159 67 -160 C65 -164 62 -166 58 -166 C53 -166 48 -165 43 -164 C25 -160 19 -152 18 -134 C18 -121 18 -107 18 -93 C21 -60 25 -26 30 7 C36 47 45 86 54 126 C68 184 83 242 100 299 C112 343 125 387 137 431 C153 482 173 532 192 582 C204 612 216 641 231 670 C234 677 238 684 243 690 C250 699 259 705 270 707 C274 708 279 709 284 707 C286 707 288 707 289 710 C289 712 288 714 286 715 C284 715 283 715 281 715 C278 715 276 716 272 715 C257 713 246 706 238 694 C232 686 227 677 223 669 C208 638 196 606 183 574 C164 523 144 472 129 420 C111 355 92 289 75 223 C59 165 45 107 34 49 C24 1 18 -48 13 -100 L13 -100 Z " />
<glyph glyph-name="backslash" unicode="&#x5c;" horiz-adv-x="198" d="M66 666 C66 666 66 666 66 666 C66 670 66 673 66 677 C66 679 65 680 62 680 C60 680 59 679 59 677 C58 676 58 674 59 673 C59 658 60 643 62 628 C64 600 66 570 68 541 C71 518 72 495 75 472 C78 442 81 412 85 382 C89 345 94 308 99 272 C106 226 112 179 119 133 C127 87 134 40 143 -6 C153 -62 164 -117 175 -173 C177 -184 179 -196 182 -207 C182 -209 183 -210 185 -210 C187 -210 187 -209 187 -207 C187 -206 187 -205 187 -203 C180 -167 173 -130 165 -94 C158 -57 150 -20 144 17 C136 61 128 105 121 149 C115 190 110 231 104 272 C100 303 96 333 92 364 C89 389 86 415 84 441 C81 466 79 491 77 517 C75 542 73 568 71 594 C69 618 68 642 66 666 L66 666 Z " />
<glyph glyph-name="bracketright" unicode="&#x5d;" horiz-adv-x="167" d="M197 686 C197 688 197 691 196 695 C193 706 188 710 176 710 C167 710 159 708 151 705 C149 705 147 703 146 702 C146 701 146 699 147 698 C147 697 149 697 151 697 C151 696 152 697 152 698 C160 701 169 703 178 703 C184 703 187 701 189 695 C190 690 190 685 190 681 C189 672 188 663 186 655 C177 616 168 577 158 538 C139 467 120 397 102 326 C78 232 56 137 35 43 C23 -13 9 -69 -9 -124 C-14 -137 -18 -150 -25 -161 C-28 -166 -32 -171 -36 -175 C-43 -183 -54 -185 -64 -184 C-71 -183 -72 -178 -68 -173 C-68 -172 -67 -172 -67 -172 C-67 -170 -67 -169 -68 -168 C-68 -167 -70 -167 -71 -167 C-73 -167 -74 -168 -75 -170 C-79 -175 -78 -184 -71 -187 C-68 -189 -65 -190 -62 -190 C-50 -190 -39 -187 -31 -177 C-28 -173 -24 -169 -22 -164 C-17 -155 -12 -146 -8 -136 C-2 -116 4 -97 10 -77 C24 -29 35 20 46 70 C73 194 105 318 137 441 C156 509 175 577 191 646 C194 658 196 671 197 686 L197 686 Z " />
<glyph glyph-name="asciicircum" unicode="&#x5e;" horiz-adv-x="153" d="M177 558 C177 556 178 555 178 554 C178 549 179 543 179 537 C180 533 181 532 184 532 C186 532 187 534 186 538 C186 545 185 552 184 559 C184 560 183 561 183 562 C181 567 178 568 174 565 C172 563 171 561 169 559 C162 552 158 547 151 540 C150 539 148 536 147 535 C147 534 147 532 147 532 C148 531 150 530 151 531 C153 531 154 532 155 533 C159 538 163 542 167 546 C170 550 173 553 177 558 L177 558 Z " />
<glyph glyph-name="underscore" unicode="&#x5f;" horiz-adv-x="150" d="M46 134 C54 134 79 136 96 137 C97 137 99 138 100 138 C102 139 104 140 103 142 C102 144 101 144 99 144 C89 143 78 142 68 142 C50 141 32 140 14 139 C14 139 12 139 12 139 C10 139 8 138 8 135 C9 133 10 132 12 132 C13 132 16 132 17 132 C28 133 35 133 46 134 L46 134 Z " />
<glyph glyph-name="grave" unicode="&#x60;" horiz-adv-x="162" d="M176 547 C176 548 175 548 175 549 L163 566 C162 567 162 568 161 568 C159 570 156 570 155 568 C153 566 154 564 156 562 L160 557 C163 554 165 550 168 546 L172 543 C174 542 176 544 176 547 L176 547 Z " />
<glyph glyph-name="a" unicode="a" horiz-adv-x="107" d="M107 217 C107 217 44 148 22 141 C16 140 13 141 12 146 C12 152 13 157 13 157 C17 172 23 187 31 200 C35 206 39 213 43 219 C44 222 40 224 39 222 C39 222 2 154 -22 155 C-26 155 -27 158 -27 162 C-26 177 -16 191 -12 197 C-3 208 1 212 6 216 C9 218 14 223 18 223 C20 223 19 220 18 217 C16 211 12 205 8 201 C6 199 5 197 7 195 C9 193 13 196 13 197 C19 203 23 211 25 220 C27 228 22 231 15 228 C10 225 5 222 2 219 C-11 207 -21 194 -27 181 C-30 172 -32 164 -31 158 C-29 152 -22 147 -9 156 C-2 160 5 167 11 174 C13 176 14 177 15 178 L16 179 C16 179 11 168 10 163 C9 158 7 153 7 148 C7 147 7 143 8 142 C10 137 14 134 21 135 C38 139 89 192 101 205 C107 211 112 215 107 217 L107 217 Z " />
<glyph glyph-name="b" unicode="b" horiz-adv-x="130" d="M205 565 C203 573 197 576 189 572 C186 570 183 568 180 566 C170 558 162 549 154 539 C134 514 117 488 101 460 C37 344 1 224 -36 100 C-37 97 -37 94 -35 94 C-31 94 -31 96 -30 98 C-25 111 -20 125 -15 138 C-13 144 -10 150 -7 156 L-7 156 C-7 156 15 216 48 226 C57 228 60 223 61 220 C62 216 62 210 61 205 C59 197 53 182 46 171 C45 169 45 168 44 167 C43 167 43 166 42 166 C41 165 40 164 39 164 C37 163 35 162 33 161 C32 160 30 159 29 159 C23 155 18 152 13 148 C11 145 8 142 6 139 C3 135 5 133 5 132 C6 131 8 131 10 131 C21 134 34 146 39 152 C40 154 42 156 43 158 L43 158 C44 159 44 160 45 161 C46 161 48 164 48 164 C83 184 115 203 127 211 C133 216 133 214 131 217 C131 217 54 173 53 172 C54 173 55 175 55 177 C61 188 65 197 66 203 C69 213 68 224 61 229 C59 230 56 231 53 231 C42 231 26 223 12 203 C2 189 -5 175 -13 159 C-12 159 0 201 6 218 C33 246 53 270 74 300 C110 353 141 408 171 464 C183 487 193 510 202 535 C205 545 206 555 205 565 L205 565 Z M9 135 C6 139 34 157 39 160 C36 152 11 132 9 135 L9 135 Z M196 535 C187 508 175 482 161 457 C136 411 111 365 82 321 C59 286 33 251 6 224 C34 306 64 385 105 459 C120 485 136 510 155 534 C163 544 171 553 181 561 C184 563 188 565 191 567 C196 569 198 568 199 563 C201 554 199 545 196 535 L196 535 Z " />
<glyph glyph-name="c" unicode="c" horiz-adv-x="73" d="M73 217 C50 196 42 187 15 164 C9 159 4 156 -3 151 C-23 138 -26 144 -27 149 C-28 153 -26 162 -24 168 C-18 186 -9 202 6 215 C9 217 12 219 15 221 C17 222 19 222 20 221 C21 220 21 218 21 217 C19 213 18 210 16 207 C14 204 14 202 16 201 C18 200 20 201 22 203 C26 208 28 213 29 219 C30 227 24 231 16 228 C12 226 8 224 4 221 C-13 206 -21 194 -28 174 C-28 174 -36 152 -30 144 C-28 142 -25 139 -20 139 C1 140 54 193 71 209 C73 211 76 215 73 217 L73 217 Z " />
<glyph glyph-name="d" unicode="d" horiz-adv-x="128" d="M243 562 C241 571 236 574 227 570 C213 564 202 550 192 537 C172 512 155 485 139 458 C96 380 63 299 38 215 C37 213 36 211 35 209 C30 203 25 197 19 191 C10 182 1 174 -7 166 C-12 161 -27 152 -27 163 C-27 167 -26 170 -25 173 C-18 188 -5 209 10 217 C11 217 12 218 13 218 C15 218 17 217 17 215 C17 214 17 213 17 212 C16 207 15 202 11 197 C10 196 9 194 11 192 C13 191 14 191 16 193 C17 193 17 194 18 195 C31 212 22 237 0 217 C-16 202 -32 182 -32 163 C-32 155 -27 151 -19 153 C-16 154 -13 155 -10 157 C-5 160 -1 164 3 168 C11 176 19 184 27 192 C29 194 34 200 34 200 C34 200 33 198 33 196 C30 180 19 141 22 125 C23 116 32 114 39 119 C49 126 72 150 80 159 C95 175 111 194 127 211 C130 214 131 215 128 217 C117 206 93 177 81 165 C72 155 57 139 48 131 C38 122 31 115 26 122 C23 126 24 137 25 144 L25 144 C25 145 26 149 26 149 C29 167 33 184 37 201 C37 203 39 205 40 207 C66 236 90 266 112 298 C148 351 179 406 209 461 C221 484 231 508 240 532 C243 542 245 552 243 562 L243 562 Z M234 533 C225 506 213 480 199 455 C174 409 149 363 120 319 C97 284 41 215 41 215 C44 227 47 236 50 246 C74 319 105 389 143 457 C158 483 174 508 193 532 C204 545 214 556 228 565 C233 567 236 566 237 561 C239 552 237 542 234 533 L234 533 Z " />
<glyph glyph-name="e" unicode="e" horiz-adv-x="73" d="M74 217 C74 217 70 214 67 211 C49 193 41 185 17 165 C11 160 6 156 -1 152 C-21 138 -24 145 -25 150 C-26 154 -24 162 -22 169 C-19 178 -15 187 -10 195 C-5 196 2 198 10 201 C25 207 30 213 31 219 C31 224 29 228 25 229 C25 229 25 229 25 229 C25 229 25 229 24 229 C17 231 3 220 2 219 C-14 205 -20 193 -26 174 C-26 174 -34 153 -28 145 C-26 142 -23 140 -18 140 C3 141 57 194 74 211 C74 211 76 216 74 217 L74 217 Z M8 215 C11 218 14 220 17 221 C18 222 23 224 25 223 C27 222 27 221 25 218 C23 215 16 208 6 204 C-1 202 -4 201 -6 200 C-2 206 2 211 8 215 L8 215 Z " />
<glyph glyph-name="f" unicode="f" horiz-adv-x="116" d="M241 549 C240 553 239 556 237 558 C230 565 215 554 215 554 C213 553 212 552 211 551 C206 547 201 543 197 538 C179 522 164 502 149 483 C119 446 92 406 68 364 C21 281 -14 191 -36 98 C-42 71 -47 45 -50 19 C-52 10 -53 2 -54 -7 C-54 -13 -58 -66 -42 -62 C-42 -62 -42 -62 -41 -62 C-40 -61 -39 -61 -38 -60 C-36 -58 -33 -54 -32 -52 C-28 -45 -22 -35 -19 -28 C4 20 10 72 9 124 C9 133 8 141 4 149 C3 152 4 153 6 155 C22 164 38 173 54 182 C74 192 91 200 115 211 C118 212 118 215 117 217 C117 217 106 213 102 211 C77 199 51 187 27 173 C18 168 9 163 1 157 C-3 155 -3 153 -2 150 C3 139 4 128 4 116 C4 99 3 82 1 66 C-3 36 -10 8 -21 -20 C-25 -30 -33 -46 -41 -56 C-41 -56 -42 -57 -43 -57 C-43 -57 -43 -57 -43 -57 C-43 -57 -43 -57 -43 -57 C-43 -57 -43 -57 -43 -57 C-43 -57 -44 -57 -44 -57 C-44 -57 -44 -57 -44 -57 C-44 -57 -44 -57 -44 -57 C-44 -57 -44 -57 -44 -57 C-44 -57 -44 -57 -44 -57 C-50 -54 -49 -29 -48 -18 C-48 -18 -48 -18 -48 -18 C-47 -2 -43 28 -43 31 C-40 47 -37 63 -34 80 C-25 123 -10 170 5 211 C5 211 29 234 36 241 C46 251 58 264 66 272 C78 284 89 296 101 308 C103 311 156 369 191 422 C198 433 204 443 210 454 C222 476 233 499 239 523 C241 532 242 541 241 549 L241 549 Z M234 531 C230 511 223 492 214 474 C209 466 205 458 200 449 L200 449 C200 449 200 449 200 449 C187 426 171 403 155 382 C153 378 149 375 147 371 C141 363 134 354 125 344 C109 324 99 314 99 314 L99 314 C56 267 8 220 8 220 C42 309 80 380 130 448 C145 469 160 489 177 508 C185 518 194 528 204 537 C209 542 214 546 219 550 C220 551 225 553 228 554 C229 554 232 555 234 552 C234 552 234 552 234 552 C234 552 234 552 234 552 C234 551 234 550 235 549 C235 549 235 549 235 549 C236 543 235 537 234 531 L234 531 Z " />
<glyph glyph-name="g" unicode="g" horiz-adv-x="91" d="M91 217 L21 146 L28 163 L28 163 C31 173 35 183 39 193 C43 204 48 215 53 226 C54 227 54 229 52 231 C50 232 48 230 47 229 C47 228 47 228 46 227 C35 209 22 191 7 175 C3 170 -2 165 -6 161 C-18 151 -23 156 -23 160 C-24 163 -24 166 -24 169 C-21 185 -12 199 0 211 C1 212 3 213 4 214 C7 215 9 214 8 211 C8 209 8 208 7 206 C5 198 0 187 3 186 C7 185 10 194 10 195 C12 199 12 201 13 204 C14 207 15 210 15 213 C14 219 8 222 3 219 C-10 212 -21 195 -26 179 C-28 174 -29 169 -29 164 C-29 152 -20 147 -10 152 C-3 155 1 159 6 164 C16 174 25 185 34 197 C34 198 37 202 37 202 C37 202 36 197 35 195 C27 176 22 159 15 140 C14 138 13 136 12 135 C-9 108 -30 80 -47 51 C-61 28 -74 5 -83 -20 C-87 -31 -90 -42 -90 -53 C-90 -57 -89 -60 -88 -64 C-85 -71 -78 -73 -71 -71 C-64 -68 -56 -59 -49 -46 C-39 -27 -31 -8 -23 11 C-9 48 2 85 13 122 C16 131 19 136 27 145 C58 179 61 181 88 208 C95 215 93 215 91 217 L91 217 Z M7 112 L7 113 C6 109 4 105 3 102 C-7 69 -17 36 -30 3 C-37 -13 -41 -23 -50 -39 C-58 -55 -68 -65 -74 -67 C-80 -69 -83 -67 -84 -62 C-86 -57 -85 -52 -85 -46 C-83 -33 -79 -21 -73 -9 C-62 18 -48 43 -32 67 C-20 84 -8 101 4 117 L12 129 L7 112 L7 112 Z " />
<glyph glyph-name="h" unicode="h" horiz-adv-x="160" d="M206 564 C204 572 196 576 188 571 C175 563 168 557 154 539 C134 514 117 487 102 460 C58 382 23 302 0 217 C-1 212 -2 209 -6 194 C-8 187 -8 187 -13 163 C-16 152 -18 134 -16 126 C-14 116 -7 117 -1 121 C6 127 15 140 24 155 C36 173 51 196 55 196 C57 196 58 193 59 185 C61 169 61 161 64 144 C66 132 68 123 76 125 C82 126 100 145 133 181 C146 195 166 213 160 217 C160 217 100 149 78 130 C70 124 69 140 67 151 C65 165 65 173 63 187 C62 196 60 200 56 200 C42 202 -1 123 -8 122 C-11 122 -11 124 -12 126 C-18 141 3 212 3 212 C30 243 50 267 74 300 C112 352 141 408 171 463 C183 486 194 510 202 535 C205 544 208 554 206 564 L206 564 Z M196 535 C187 508 175 482 162 457 C137 411 111 365 82 321 C58 285 33 254 5 221 C30 304 62 384 105 459 C120 485 137 510 155 534 C167 548 177 560 191 567 C195 569 200 568 201 563 C202 554 200 544 196 535 L196 535 Z " />
<glyph glyph-name="i" unicode="i" horiz-adv-x="75" d="M15 246 C19 244 18 244 23 255 C28 264 28 263 25 265 C22 267 19 263 17 259 C14 251 11 247 15 246 L15 246 Z M75 217 C75 217 -9 122 -19 124 C-24 126 -18 148 -12 168 C-7 186 0 204 8 220 C10 223 9 225 7 226 C5 227 3 226 2 223 C-6 204 -13 185 -18 166 C-21 155 -24 145 -25 135 C-25 129 -24 124 -20 122 C-16 121 -12 124 -9 126 C-1 132 16 147 30 162 C47 180 57 192 73 208 C77 212 79 215 75 217 L75 217 Z " />
<glyph glyph-name="j" unicode="j" horiz-adv-x="64" d="M64 217 C64 217 61 214 60 213 C35 188 11 164 -14 140 L-14 140 L-22 132 C-10 161 -2 191 9 222 C10 225 9 228 7 228 C4 229 3 227 2 224 C-7 196 -16 167 -25 138 C-28 129 -30 124 -35 119 C-38 116 -46 108 -48 106 C-73 77 -107 36 -131 -6 C-139 -20 -147 -34 -152 -49 C-153 -53 -154 -57 -154 -61 C-154 -69 -150 -73 -143 -73 C-139 -72 -135 -71 -132 -69 C-124 -65 -118 -58 -113 -52 C-96 -33 -83 -11 -72 12 C-55 46 -42 82 -27 118 C-24 125 -25 123 -23 125 C5 154 32 178 63 209 C65 211 69 215 64 217 L64 217 Z M-83 -3 C-93 -22 -105 -39 -120 -54 C-124 -58 -129 -62 -134 -65 C-136 -67 -140 -68 -143 -68 C-147 -68 -150 -65 -149 -61 C-149 -57 -148 -53 -147 -50 C-143 -37 -137 -27 -131 -16 C-105 31 -73 72 -37 110 L-37 110 L-32 115 L-83 -3 Z M12 242 C16 241 15 240 20 251 C25 261 25 260 22 262 C18 264 16 259 14 256 C11 248 8 244 12 242 L12 242 Z " />
<glyph glyph-name="k" unicode="k" horiz-adv-x="104" d="M214 560 C212 566 207 569 201 568 C196 566 186 561 175 550 C165 540 156 528 147 516 C127 488 110 458 94 427 C61 363 32 298 6 233 C-3 211 -7 198 -13 180 C-15 174 -16 169 -19 163 C-28 148 -35 131 -40 114 C-41 111 -42 107 -42 103 C-42 100 -39 99 -37 102 C-34 106 -33 110 -32 112 C-27 126 -23 138 -18 152 C-12 170 0 184 14 196 C15 197 17 199 19 199 C21 194 12 181 3 178 C1 177 -1 176 0 173 C0 171 0 168 1 166 C2 157 5 149 10 142 C15 135 21 132 28 137 C33 141 40 147 43 150 C52 158 79 184 96 201 C105 210 108 213 104 217 C104 217 81 193 62 174 C52 164 41 152 28 142 C21 137 16 139 12 146 C7 153 5 160 4 169 C3 173 3 173 7 175 C9 175 11 177 11 177 C18 183 24 190 24 199 C24 203 22 205 17 204 C15 203 12 201 10 199 C5 195 0 190 -4 185 C-5 185 -6 183 -7 182 C-4 191 -1 199 2 207 C3 210 4 213 6 215 C23 235 39 255 56 275 C90 316 122 358 151 402 C171 432 189 463 202 497 C208 511 213 525 215 540 C216 547 217 554 214 560 L214 560 Z M208 535 C203 513 194 493 185 472 C167 435 145 401 121 368 C87 320 45 273 7 224 C7 224 7 224 7 224 C37 288 67 361 99 425 C115 457 132 489 154 518 C163 530 172 541 183 551 C187 554 190 556 193 558 C195 560 197 560 198 561 C205 564 209 562 210 555 C211 548 210 541 208 535 L208 535 Z " />
<glyph glyph-name="l" unicode="l" horiz-adv-x="108" d="M212 559 C211 567 203 570 194 566 C191 565 188 563 185 560 C175 553 166 544 159 534 C138 510 121 483 105 456 C59 380 23 300 -1 215 C-3 209 -6 195 -8 186 C-15 157 -26 119 -11 115 C-8 114 -4 115 2 119 C9 125 13 128 22 136 C32 144 94 198 104 207 C110 212 113 213 108 217 C108 217 21 141 13 134 C10 131 3 126 -1 123 C-10 117 -13 119 -14 122 C-15 128 -15 132 -10 157 C-10 156 -5 185 0 201 L3 210 C3 210 29 241 54 272 L54 272 C54 272 87 313 119 363 C125 372 168 446 175 459 C187 481 198 506 206 527 C209 537 213 552 212 559 L212 559 Z M201 530 C191 503 179 477 165 452 C139 406 113 361 83 318 C58 283 34 254 5 221 C8 232 9 236 12 245 C38 318 69 388 109 455 C124 481 141 506 160 529 C168 539 176 548 186 555 C189 558 193 560 197 562 C201 564 207 563 207 557 C207 549 204 539 201 530 L201 530 Z " />
<glyph glyph-name="m" unicode="m" horiz-adv-x="129" d="M129 217 C129 217 114 202 102 190 C92 179 88 174 66 153 C57 145 60 153 62 161 C63 167 64 172 65 176 C67 187 68 189 72 206 C74 213 69 214 65 211 C48 194 42 184 27 170 C30 178 33 185 35 191 C38 199 39 201 41 207 C43 212 43 215 41 217 C34 223 16 201 7 191 C4 187 0 183 -7 176 C-10 172 -14 167 -18 162 L-11 179 C-10 183 -8 186 -6 191 L4 215 C4 215 4 216 4 217 C5 218 4 219 2 219 C1 219 0 218 0 217 L-16 180 L-16 180 C-19 173 -22 166 -25 159 C-26 155 -26 153 -24 152 C-22 152 -20 155 -17 158 C-16 160 -4 173 -1 177 C16 195 32 214 38 215 C38 215 39 215 38 211 C36 206 23 170 23 170 C23 170 22 167 24 165 C26 164 28 165 31 169 C35 173 37 175 41 180 C50 190 52 192 59 199 C60 200 61 201 62 202 L62 202 L62 203 C63 203 64 204 65 205 L68 208 C68 208 68 207 68 206 C68 206 68 206 68 206 C67 203 59 170 56 157 L56 157 C56 157 55 151 57 148 C58 148 58 148 58 148 C59 147 60 147 63 148 C72 153 103 186 125 208 C128 212 132 215 129 217 L129 217 Z " />
<glyph glyph-name="n" unicode="n" horiz-adv-x="97" d="M97 217 C97 217 76 196 66 186 C56 175 42 159 42 159 C42 159 27 143 25 143 C25 144 25 146 26 151 L26 151 C27 156 29 163 31 170 C34 184 36 190 37 198 C38 201 39 206 38 208 C38 209 36 211 36 211 C36 211 36 211 36 211 C34 212 32 212 31 211 C20 207 -3 176 -3 176 C-8 168 -17 158 -17 158 C-16 162 -14 168 -13 170 C-7 188 -5 191 3 212 C5 215 5 218 3 219 C1 219 0 217 0 216 C-2 212 -3 207 -5 203 C-9 191 -11 188 -15 176 C-16 172 -24 156 -19 154 C-18 154 -18 154 -17 154 C-17 154 -16 154 -16 155 C-5 162 24 209 33 209 C33 209 33 209 33 209 C33 209 33 209 33 209 C33 209 33 209 33 209 C34 209 34 209 34 209 C36 208 33 202 33 199 C33 199 33 199 33 199 L33 199 C30 189 24 165 21 155 C20 152 18 144 21 141 C21 140 22 140 22 140 C22 140 22 140 22 140 C23 139 23 139 23 139 C23 139 23 139 23 139 C23 139 23 139 24 139 C24 139 24 139 24 139 L24 139 C27 139 30 142 35 147 C44 156 59 172 90 206 C93 209 101 216 97 217 L97 217 Z " />
<glyph glyph-name="o" unicode="o" horiz-adv-x="58" d="M58 217 L58 217 C50 210 42 202 32 199 C30 198 28 198 25 198 L26 198 C26 199 26 199 26 199 C26 202 28 210 25 216 C25 216 25 217 25 217 C25 217 25 217 25 217 C25 217 25 217 24 218 C24 218 24 218 24 218 C24 220 23 220 22 221 C22 221 22 221 22 221 C20 222 19 222 17 221 C16 222 15 223 14 224 C10 225 6 223 4 221 C-10 208 -22 179 -27 162 C-29 156 -29 148 -28 143 C-25 133 -17 131 -9 136 C8 150 15 168 23 188 C23 190 24 192 24 194 C37 193 50 204 59 213 C62 216 58 217 58 217 L58 217 Z M20 191 C18 186 3 150 -10 138 C-18 134 -22 137 -23 139 C-33 160 2 224 12 220 C13 220 13 220 13 220 C13 219 12 219 12 219 C5 212 8 197 19 194 C20 194 20 194 21 194 C20 193 20 192 20 191 L20 191 Z M23 206 C23 206 23 206 23 206 C23 201 22 198 22 198 C19 198 17 199 15 201 C10 206 12 216 19 218 C22 217 23 210 23 208 C23 208 23 207 23 207 C23 207 23 207 23 206 C23 206 23 206 23 206 L23 206 Z " />
<glyph glyph-name="p" unicode="p" horiz-adv-x="104" d="M104 217 C104 217 96 212 94 211 C75 199 58 188 39 177 C48 189 55 205 57 211 C60 222 48 218 43 215 C21 202 3 176 -9 155 C-14 147 -19 137 -24 128 C-23 132 -21 134 -20 138 C-12 163 -5 185 4 210 C5 213 8 220 7 222 C6 223 5 223 4 223 C2 223 0 221 0 219 C-8 195 -14 171 -22 146 C-28 127 -34 108 -42 89 C-51 68 -60 47 -67 25 C-74 4 -80 -17 -83 -39 C-83 -40 -83 -42 -83 -43 C-83 -44 -82 -45 -81 -46 C-80 -46 -79 -45 -79 -44 C-78 -43 -77 -41 -77 -39 C-73 -26 -70 -12 -66 2 C-54 48 -38 93 -16 135 C-5 156 8 176 24 194 C32 202 40 213 52 215 C53 215 56 214 51 204 C46 193 40 183 33 174 C32 172 30 171 28 169 C20 163 16 161 8 155 C6 153 0 147 -2 145 C-4 143 -6 141 -4 139 C-2 137 0 138 2 139 C4 140 6 142 8 143 C17 150 24 157 31 165 C32 167 33 168 34 169 C57 183 81 198 104 212 C105 213 106 214 104 217 L104 217 Z M0 142 C0 145 12 154 20 159 C20 159 21 160 22 160 C16 154 4 143 0 142 L0 142 Z " />
<glyph glyph-name="q" unicode="q" horiz-adv-x="79" d="M79 217 L79 217 C63 202 48 186 32 170 C19 157 6 145 -5 130 C6 158 19 185 35 212 C36 213 38 216 35 217 C33 219 32 216 30 214 C23 203 15 191 6 180 C-5 165 -21 154 -24 158 C-26 160 -23 169 -21 175 C-20 177 -18 182 -18 182 L-18 182 C-16 188 -13 194 -9 199 L-9 199 C-2 208 6 217 8 217 C10 217 9 210 6 205 C2 200 -2 193 -7 185 C-9 183 -9 181 -7 180 C-5 178 0 184 1 187 C6 193 9 198 12 207 C13 208 14 211 14 213 C14 216 14 219 11 220 C9 222 6 221 3 219 C1 218 -1 216 -3 214 C-15 201 -22 187 -27 169 C-31 153 -21 150 -11 157 C-5 161 1 167 6 173 C8 175 14 182 14 182 L7 167 C-7 139 -18 109 -28 80 C-36 57 -43 33 -48 9 C-50 -1 -52 -12 -52 -23 C-52 -28 -52 -38 -47 -38 C-47 -38 -47 -38 -47 -38 C-41 -39 -33 -10 -33 -10 C-33 -10 -33 -10 -33 -10 C-29 1 -26 11 -23 22 C-22 26 -16 54 -11 82 C-9 95 -8 109 -6 122 C6 140 22 154 37 168 C51 183 65 197 79 212 C83 216 79 217 79 217 L79 217 Z M-20 57 C-20 55 -24 32 -30 10 C-30 9 -31 8 -31 7 C-33 2 -36 -11 -36 -11 C-36 -10 -43 -35 -47 -35 C-51 -34 -48 -8 -48 -8 L-48 -8 C-47 1 -45 9 -43 17 C-37 41 -30 65 -22 88 C-18 98 -15 107 -11 117 C-14 97 -16 77 -20 57 L-20 57 Z " />
<glyph glyph-name="r" unicode="r" horiz-adv-x="117" d="M117 217 C116 217 37 127 10 81 L3 69 L4 75 C5 77 5 80 5 82 C12 118 13 153 7 189 C6 198 4 206 4 215 C21 229 34 243 46 260 C49 265 52 270 55 276 C56 277 64 295 58 299 C52 303 40 294 37 292 C35 290 34 289 32 288 C19 275 10 259 3 241 C0 233 -2 219 0 210 C0 206 1 202 1 198 C5 179 7 160 7 141 C7 117 3 93 -1 69 C-2 68 -2 66 -2 64 C-2 63 -2 61 0 61 C1 61 3 61 4 62 C5 63 6 64 7 66 C10 72 14 78 17 83 C43 127 81 167 114 207 C116 210 123 215 117 217 L117 217 Z M7 238 C18 268 34 283 40 288 C47 294 53 298 55 296 C60 293 38 260 38 260 L38 260 C29 245 17 232 3 220 C3 226 6 235 7 238 L7 238 Z " />
<glyph glyph-name="s" unicode="s" horiz-adv-x="138" d="M138 217 C124 203 94 175 81 161 C57 138 15 97 12 94 C12 96 12 96 12 97 C12 119 8 142 5 164 C3 177 2 190 3 203 L3 203 C3 206 3 206 4 215 C18 227 100 309 78 314 C72 315 61 308 57 305 C12 273 -9 223 0 169 C5 137 6 117 8 90 C8 90 9 90 7 88 C-7 71 -21 54 -32 35 C-42 18 -48 0 -49 -19 C-49 -27 -48 -34 -44 -40 C-40 -47 -32 -48 -25 -42 C-22 -39 -19 -36 -16 -32 C8 0 12 47 13 85 C13 87 13 90 13 90 C34 112 100 176 115 190 C121 196 128 202 138 211 C140 214 142 216 138 217 L138 217 Z M39 280 C39 280 50 292 56 297 C62 302 69 307 73 309 C75 310 78 312 78 309 C78 303 65 287 65 287 C46 264 26 241 5 221 C11 245 25 265 39 280 L39 280 Z M7 60 C5 40 3 22 -3 2 C-8 -13 -15 -27 -27 -39 C-39 -49 -44 -29 -44 -20 C-44 -3 -39 13 -31 28 C-19 50 -6 68 8 85 C8 76 8 68 7 60 L7 60 Z " />
<glyph glyph-name="t" unicode="t" horiz-adv-x="94" d="M68 379 C68 380 69 381 69 382 C89 425 111 466 135 508 C140 516 146 525 151 534 C152 535 152 537 150 538 C149 540 147 539 145 538 C144 537 144 536 143 535 C142 533 140 530 139 528 C136 522 133 517 130 512 L130 512 C130 512 97 455 62 378 C61 378 61 378 60 378 C41 375 22 373 3 369 C-27 364 -56 357 -84 346 C-88 345 -92 343 -95 341 C-98 340 -99 337 -98 335 C-97 334 -95 333 -92 335 C-89 337 -86 338 -83 339 C-73 343 -62 347 -51 351 C-20 360 11 366 42 371 C48 372 54 372 60 373 C30 308 -1 230 -15 162 C-16 158 -21 134 -17 122 C-17 122 -17 122 -17 122 C-17 122 -17 122 -17 122 C-16 117 -13 114 -9 113 L-9 113 C-5 113 -2 115 2 119 C12 129 18 135 26 143 C40 156 45 161 52 169 C58 175 81 197 90 207 C92 210 98 215 94 217 C94 217 11 131 -5 119 C-6 118 -9 116 -10 118 C-14 121 -13 136 -11 149 C-9 163 -4 188 2 208 C18 263 41 319 65 372 C65 374 67 374 68 374 C77 375 86 376 95 377 C150 383 205 386 261 387 C308 387 356 387 403 387 C407 387 408 387 408 392 C295 391 182 392 68 379 L68 379 Z " />
<glyph glyph-name="u" unicode="u" horiz-adv-x="87" d="M87 217 C87 217 18 145 16 146 C14 146 17 160 20 171 C25 188 37 216 34 217 C33 218 31 218 29 215 C25 209 20 200 16 194 C9 183 -5 160 -10 159 C-17 157 5 217 4 216 C5 220 6 221 4 222 C-1 224 -16 171 -16 165 C-17 155 -10 153 -5 159 C3 167 25 201 25 201 C19 179 4 149 15 144 C16 144 17 143 20 145 C37 162 56 181 76 201 C83 208 91 214 87 217 L87 217 Z " />
<glyph glyph-name="v" unicode="v" horiz-adv-x="84" d="M-15 130 C-11 149 3 211 12 241 C12 244 12 246 10 247 C8 248 6 246 6 244 C4 236 2 228 -2 212 C-8 185 -11 170 -20 129 C-22 118 -25 110 -16 114 C-15 115 -12 118 -11 119 C-7 124 -4 128 0 133 C16 157 31 181 42 209 C52 208 72 211 81 213 C86 214 86 214 84 217 C70 214 53 213 42 212 C42 215 42 216 42 217 C42 219 41 220 38 221 C36 221 34 220 33 218 C32 216 32 213 34 212 C36 211 39 210 38 208 C23 177 8 144 -17 118 L-15 130 Z " />
<glyph glyph-name="w" unicode="w" horiz-adv-x="102" d="M103 217 C103 217 76 212 64 210 C60 210 60 210 59 214 C58 216 56 218 54 218 C52 217 50 215 51 212 C51 211 52 210 52 210 C54 208 54 206 53 204 C46 185 37 166 26 149 C24 146 21 140 18 141 C16 142 16 151 16 155 C16 169 20 184 24 197 C24 200 27 205 23 207 C21 208 20 206 19 205 C14 196 10 187 4 179 C-2 171 -6 166 -8 164 C-9 165 -9 167 -9 168 C-9 181 -1 204 5 216 C5 216 11 227 14 233 C16 236 16 239 16 239 C14 241 12 240 10 237 C1 221 -17 187 -12 166 C-11 162 -8 161 -5 163 C2 168 11 183 16 190 C21 198 19 198 17 188 C15 177 13 166 13 154 C13 149 13 140 19 138 C28 135 54 190 59 206 C64 206 82 208 97 212 C105 214 104 214 103 217 L103 217 Z " />
<glyph glyph-name="x" unicode="x" horiz-adv-x="80" d="M80 217 C80 217 63 194 45 172 C25 145 4 118 3 118 C1 118 14 182 16 189 C17 193 18 197 20 198 C34 213 44 222 58 236 C61 239 62 240 61 242 C59 244 57 242 54 239 C42 226 30 215 17 202 C19 216 20 221 21 231 C22 237 21 239 17 239 C13 239 9 233 5 226 C1 219 -2 215 1 214 C4 212 6 217 9 221 C11 225 13 229 16 232 C15 225 15 221 14 220 C13 209 13 207 12 201 C11 197 11 196 9 194 C-2 182 -14 168 -20 162 C-26 155 -21 153 -16 159 C-8 169 4 182 10 189 C9 181 7 174 5 161 C2 148 -1 128 -2 122 C-3 117 -1 114 2 114 C5 113 7 116 10 119 C12 122 36 153 48 168 C65 190 72 198 79 208 C81 210 84 216 80 217 L80 217 Z " />
<glyph glyph-name="y" unicode="y" horiz-adv-x="102" d="M102 217 C102 217 99 215 97 213 C70 187 48 165 24 137 C22 135 21 133 19 131 C29 160 35 179 44 206 C45 208 52 218 46 218 C44 219 44 218 43 217 C42 215 41 214 39 211 C31 198 14 168 2 161 C-2 158 -4 160 -5 165 C-6 171 -6 175 -5 180 C-4 191 -1 202 3 212 C5 217 9 221 7 225 C7 227 5 227 4 225 C3 224 2 223 2 222 C0 217 -2 212 -3 207 C-6 197 -12 172 -7 162 C-5 157 0 155 10 163 C19 171 29 188 37 199 C36 195 25 162 17 135 C16 133 14 127 13 126 C11 123 -2 108 -5 104 C-28 73 -64 35 -88 -7 C-96 -21 -104 -35 -109 -50 C-110 -54 -111 -58 -111 -62 C-111 -69 -107 -74 -100 -73 C-96 -73 -92 -71 -89 -70 C-81 -65 -75 -59 -70 -53 C-53 -34 -40 -12 -29 11 C-11 47 3 84 17 122 C30 136 45 154 58 168 C73 183 83 192 98 207 C100 209 107 214 102 217 L102 217 Z M8 107 C6 103 5 99 3 95 C-9 61 -23 28 -40 -4 C-50 -22 -62 -40 -77 -55 C-81 -59 -86 -63 -91 -66 C-93 -68 -97 -69 -100 -69 C-104 -69 -107 -66 -106 -62 C-106 -58 -105 -54 -104 -51 C-100 -37 -94 -28 -88 -17 C-62 30 11 116 11 116 C11 116 8 108 8 107 L8 107 Z " />
<glyph glyph-name="z" unicode="z" horiz-adv-x="116" d="M115 217 C89 198 64 177 40 155 C31 148 23 140 14 132 C14 132 15 132 15 132 C16 135 17 138 17 139 C19 145 20 150 20 154 C20 154 20 154 20 155 C20 156 20 158 20 159 C20 159 20 160 20 160 C20 160 20 160 20 160 C16 171 -1 164 -1 164 L3 167 C5 170 7 172 9 174 C15 179 17 182 23 188 C29 195 33 200 38 207 C43 215 45 223 40 227 C34 233 17 226 12 224 C8 222 4 220 1 218 L1 218 L-1 217 L-1 217 L-1 217 C-1 217 -1 217 -1 217 L-1 217 L-1 217 C-2 217 -5 215 -4 214 C-3 213 -2 213 -1 212 C-1 212 -1 212 -1 212 C-1 212 -1 212 -1 212 C1 212 3 213 4 214 C4 214 4 214 4 214 C21 224 34 227 36 224 C38 223 43 221 25 199 C16 188 7 179 -2 170 C-5 166 -8 164 -7 161 C-6 158 -2 160 2 161 C14 166 17 160 16 153 C16 153 16 153 16 153 C16 152 16 152 16 151 C15 143 9 129 9 129 L9 129 C9 127 8 126 8 126 C8 126 8 125 7 125 C5 122 -7 109 -9 107 C-34 78 -72 32 -97 -10 C-105 -24 -112 -38 -117 -53 C-118 -57 -119 -61 -120 -66 C-120 -73 -115 -77 -108 -77 C-104 -76 -101 -75 -97 -73 C-90 -69 -84 -62 -78 -56 C-62 -37 -49 -15 -37 8 C-23 35 -2 90 7 110 C8 114 10 119 11 123 C26 137 83 189 117 213 C117 213 117 213 117 213 C119 215 115 217 115 217 L115 217 Z M-1 101 C-3 95 -5 91 -6 87 C-20 53 -31 25 -49 -7 C-59 -26 -70 -43 -85 -58 C-97 -70 -104 -73 -109 -73 C-119 -73 -113 -57 -112 -54 C-108 -41 -103 -31 -97 -20 C-71 27 5 116 5 116 C5 116 2 107 -1 101 L-1 101 Z " />
<glyph glyph-name="braceleft" unicode="&#x7b;" horiz-adv-x="188" d="M42 187 C42 191 45 193 47 196 C56 207 65 218 74 229 C105 271 131 316 152 365 C167 401 182 437 196 473 C216 525 237 577 261 628 C269 644 277 660 285 676 C289 683 295 689 300 695 C304 699 308 702 314 704 C317 705 321 706 324 704 C325 702 328 702 329 704 C331 706 330 708 328 710 C325 712 322 713 318 713 C311 711 305 708 299 704 C292 698 287 691 282 683 C276 673 270 663 266 653 C252 622 237 591 224 559 C205 512 186 465 168 417 C154 383 140 349 122 317 C101 276 75 237 44 202 C42 199 39 196 37 193 C34 187 36 183 42 180 C42 180 43 179 44 179 C51 177 54 172 55 165 C55 163 55 161 55 159 C54 149 54 138 52 127 C48 106 44 85 39 64 C28 16 18 -33 15 -83 C15 -101 14 -119 17 -136 C19 -149 23 -161 31 -171 C37 -179 45 -184 55 -185 C64 -186 72 -185 79 -181 C90 -176 98 -169 107 -162 C109 -161 111 -158 112 -156 C113 -154 113 -151 111 -150 C109 -149 107 -151 106 -152 C105 -154 104 -157 102 -158 C94 -165 86 -172 76 -177 C62 -183 46 -182 35 -167 C29 -161 26 -153 23 -145 C20 -132 19 -119 19 -106 C19 -81 22 -55 25 -30 C29 -1 36 28 42 56 C49 83 56 110 59 137 C60 148 61 159 60 169 C59 176 55 181 49 184 C47 184 44 185 42 187 L42 187 Z " />
<glyph glyph-name="bar" unicode="&#x7c;" horiz-adv-x="174" d="M207 658 C208 661 207 663 204 663 C202 663 201 661 200 658 C200 657 199 655 199 654 C195 638 192 622 188 606 C181 581 175 557 169 532 C161 502 153 471 145 441 C136 411 129 381 121 351 C113 321 105 291 98 261 C90 232 82 202 74 172 C66 144 58 115 51 87 C43 57 35 28 27 -2 C20 -26 13 -49 7 -73 C-2 -107 -13 -141 -23 -175 C-24 -175 -24 -176 -24 -176 C-24 -178 -23 -180 -21 -180 C-19 -180 -18 -179 -18 -177 C-17 -176 -17 -175 -17 -174 C-9 -148 -2 -122 5 -96 C16 -59 26 -22 36 15 C47 53 57 91 67 129 C76 161 84 193 93 225 C101 254 108 283 116 313 C124 340 131 367 138 394 C145 421 152 448 159 474 C166 501 173 527 180 554 C186 579 194 605 200 631 C202 640 205 649 207 658 L207 658 Z " />
<glyph glyph-name="braceright" unicode="&#x7d;" horiz-adv-x="149" d="M-96 -178 C-96 -177 -97 -177 -97 -176 C-98 -174 -99 -173 -102 -174 C-104 -175 -104 -177 -103 -179 C-102 -184 -98 -186 -93 -184 C-76 -180 -61 -172 -48 -159 C-32 -141 -19 -120 -9 -98 C-3 -84 2 -69 7 -55 C21 -11 32 33 43 77 C49 99 53 122 60 144 C65 164 71 185 87 200 C90 203 90 205 87 209 C82 214 78 221 76 228 C75 236 73 243 73 251 C72 265 74 280 76 294 C83 336 94 377 109 417 C126 463 142 508 156 555 C165 586 174 616 177 648 C178 659 179 671 177 682 C174 696 164 702 151 700 C138 698 127 692 118 684 C117 683 115 682 115 681 C114 679 114 677 115 676 C116 674 118 675 120 676 C121 677 122 678 124 679 C132 687 142 691 154 693 C162 694 168 690 170 682 C170 681 171 679 171 678 C171 671 172 664 171 657 C170 638 167 619 163 601 C152 556 138 513 123 471 C113 440 102 410 92 380 C80 343 72 305 68 267 C66 244 68 223 83 204 C82 203 82 202 81 201 C75 196 71 188 67 180 C61 165 56 150 52 134 C41 89 30 44 18 -1 C10 -34 -1 -66 -15 -98 C-24 -120 -37 -140 -55 -158 C-65 -168 -77 -174 -90 -178 C-92 -178 -94 -178 -96 -178 L-96 -178 Z " />
<glyph glyph-name="asciitilde" unicode="&#x7e;" horiz-adv-x="110" d="M49 175 C48 180 46 184 44 190 C40 201 36 201 28 193 C23 188 19 183 16 176 C16 174 18 173 20 173 C21 173 24 178 26 181 C30 186 31 188 36 192 C39 187 40 183 42 177 C45 168 49 166 54 172 C60 179 67 187 73 195 C74 197 74 199 72 200 C69 201 67 197 64 194 C60 189 60 189 56 184 C55 182 51 178 49 175 L49 175 Z " />
<glyph glyph-name="dotlessi" unicode="&#x131;" horiz-adv-x="75" d="M15 246 C19 244 18 244 23 255 C28 264 28 263 25 265 C22 267 19 263 17 259 C14 251 11 247 15 246 L15 246 Z M75 217 C75 217 -9 122 -19 124 C-24 126 -18 148 -12 168 C-7 186 0 204 8 220 C10 223 9 225 7 226 C5 227 3 226 2 223 C-6 204 -13 185 -18 166 C-21 155 -24 145 -25 135 C-25 129 -24 124 -20 122 C-16 121 -12 124 -9 126 C-1 132 16 147 30 162 C47 180 57 192 73 208 C77 212 79 215 75 217 L75 217 Z " />
<glyph glyph-name="Lslash" unicode="&#x141;" horiz-adv-x="231" d="M356 73 C356 74 355 74 355 74 C354 75 353 75 352 75 C347 74 342 73 337 71 C327 67 316 62 306 57 C263 35 222 10 181 -15 C142 -38 104 -62 69 -90 C43 -110 18 -131 -7 -152 C-11 -155 -16 -159 -20 -162 C-20 -162 -21 -162 -21 -162 C-22 -163 -22 -163 -23 -163 C-23 -163 -23 -163 -23 -163 C-24 -163 -25 -162 -25 -160 C-25 -160 -25 -160 -25 -159 C-25 -158 -25 -158 -25 -157 C-25 -157 -25 -157 -25 -157 C-25 -151 -22 -141 -22 -141 C-22 -140 -22 -140 -21 -139 C-14 -114 -6 -90 3 -65 C30 14 59 92 87 171 C94 190 100 210 107 229 C119 230 134 231 146 232 C147 232 149 232 151 233 C153 233 154 235 153 237 C153 239 151 239 149 239 C139 238 128 237 118 236 C116 236 113 236 110 236 C144 332 178 427 214 522 C230 563 245 603 259 644 C264 658 268 673 272 688 C272 690 272 692 271 694 C271 697 267 698 264 696 C263 695 261 693 260 692 C256 686 252 680 249 674 C228 639 209 602 191 565 C171 526 153 486 138 444 C135 435 132 425 129 416 C128 413 130 411 132 410 C134 410 136 411 137 414 C140 426 144 438 148 450 C170 508 196 564 225 619 C236 640 249 660 261 681 C261 682 264 686 264 686 C264 686 263 682 263 681 C256 659 250 637 242 615 C220 552 197 490 175 428 C152 364 129 300 106 236 C92 235 78 235 65 234 C63 234 63 234 62 234 C60 233 58 232 58 230 C59 228 60 227 62 227 C63 227 67 227 67 227 C78 227 85 228 96 228 C98 229 100 229 104 229 C69 131 34 34 -1 -63 C-10 -88 -18 -114 -26 -139 C-29 -146 -31 -154 -30 -161 C-30 -168 -26 -170 -19 -167 C-16 -166 -14 -164 -11 -162 C-3 -155 6 -148 14 -141 C50 -111 87 -81 126 -55 C172 -25 219 4 267 31 C286 42 306 52 326 62 C334 67 344 71 353 70 C353 70 354 70 354 70 C357 70 356 72 356 73 L356 73 Z " />
<glyph glyph-name="lslash" unicode="&#x142;" horiz-adv-x="109" d="M110 349 C113 354 116 359 119 363 C128 377 136 391 145 406 C146 407 147 409 148 411 C157 426 166 443 175 459 C187 482 198 506 206 528 C210 537 213 553 212 559 C211 568 203 571 195 567 C191 565 188 563 185 561 C175 553 167 544 159 535 C139 510 121 484 105 456 C85 421 66 385 50 348 C19 346 -11 344 -42 341 C-43 341 -45 341 -45 339 C-46 337 -43 337 -43 337 C-43 337 -43 337 -43 337 C-12 340 18 342 48 344 C30 302 11 260 -1 215 C-4 204 -6 197 -8 186 C-14 157 -25 119 -11 115 C-7 114 -3 116 2 120 C22 134 80 188 104 207 C109 212 114 213 109 217 C101 211 12 132 0 124 C-9 117 -12 119 -13 123 C-14 128 -14 132 -10 158 C-10 157 -4 185 0 201 L3 215 C3 215 29 241 54 272 L54 272 C54 272 80 304 108 346 C111 346 114 346 117 346 C164 346 212 346 259 346 C263 346 264 346 264 351 C213 350 161 350 110 349 L110 349 Z M109 456 C124 481 141 506 160 529 C168 539 176 548 186 556 C190 558 193 560 197 562 C202 564 207 563 207 557 C207 550 204 539 201 530 C191 503 179 477 165 452 C145 418 126 383 104 349 C87 349 70 348 53 348 C70 385 88 421 109 456 L109 456 Z M84 318 C60 284 33 252 4 221 C8 231 9 236 13 245 C24 279 37 312 52 344 C68 345 85 345 102 346 C96 336 90 327 84 318 L84 318 Z " />
<glyph glyph-name="Zcaron" unicode="&#x17d;" horiz-adv-x="390" d="" />
<glyph glyph-name="zcaron" unicode="&#x17e;" horiz-adv-x="115" d="M115 217 C89 198 64 177 40 155 C31 148 23 140 14 132 C14 132 15 132 15 132 C16 135 17 138 17 139 C19 145 20 150 20 154 C20 154 20 154 20 155 C20 156 20 158 20 159 C20 159 20 160 20 160 C20 160 20 160 20 160 C16 171 -1 164 -1 164 L3 167 C5 170 7 172 9 174 C15 179 17 182 23 188 C29 195 33 200 38 207 C43 215 45 223 40 227 C34 233 17 226 12 224 C8 222 4 220 1 218 L1 218 L-1 217 L-1 217 L-1 217 C-1 217 -1 217 -1 217 L-1 217 L-1 217 C-2 217 -5 215 -4 214 C-3 213 -2 213 -1 212 C-1 212 -1 212 -1 212 C-1 212 -1 212 -1 212 C1 212 3 213 4 214 C4 214 4 214 4 214 C21 224 34 227 36 224 C38 223 43 221 25 199 C16 188 7 179 -2 170 C-5 166 -8 164 -7 161 C-6 158 -2 160 2 161 C14 166 17 160 16 153 C16 153 16 153 16 153 C16 152 16 152 16 151 C15 143 9 129 9 129 L9 129 C9 127 8 126 8 126 C8 126 8 125 7 125 C5 122 -7 109 -9 107 C-34 78 -72 32 -97 -10 C-105 -24 -112 -38 -117 -53 C-118 -57 -119 -61 -120 -66 C-120 -73 -115 -77 -108 -77 C-104 -76 -101 -75 -97 -73 C-90 -69 -84 -62 -78 -56 C-62 -37 -49 -15 -37 8 C-23 35 -2 90 7 110 C8 114 10 119 11 123 C26 137 83 189 117 213 C117 213 117 213 117 213 C119 215 115 217 115 217 L115 217 Z M-1 101 C-3 95 -5 91 -6 87 C-20 53 -31 25 -49 -7 C-59 -26 -70 -43 -85 -58 C-97 -70 -104 -73 -109 -73 C-119 -73 -113 -57 -112 -54 C-108 -41 -103 -31 -97 -20 C-71 27 5 116 5 116 C5 116 2 107 -1 101 L-1 101 Z M57 291 C51 285 45 279 38 274 C37 274 34 271 33 272 C31 272 32 277 32 278 C32 283 32 288 33 293 C33 296 28 297 28 294 C27 287 27 281 27 274 C27 271 28 266 32 266 C37 266 42 271 46 274 C51 278 56 283 60 288 C63 290 59 294 57 291 L57 291 Z " />
<glyph glyph-name="caron" unicode="&#x2c7;" horiz-adv-x="161" d="M207 561 C201 555 195 549 188 544 C187 544 184 541 183 542 C181 542 182 547 182 548 C182 553 182 558 183 563 C183 566 178 567 178 564 C177 557 177 551 177 544 C177 541 178 536 182 536 C187 536 192 541 196 544 C201 548 206 553 210 558 C213 560 209 564 207 561 L207 561 Z " />
<glyph glyph-name="quoteleft" unicode="&#x2018;" horiz-adv-x="167" d="M190 566 C191 569 192 571 189 572 C187 573 186 572 185 570 C185 569 184 569 184 568 L173 540 C172 535 175 534 178 536 C179 536 180 539 180 540 C184 549 185 553 188 561 C189 562 189 564 190 566 L190 566 Z " />
<glyph glyph-name="quoteright" unicode="&#x2019;" horiz-adv-x="167" d="M190 566 C191 569 192 571 189 572 C187 573 186 572 185 570 C185 569 184 569 184 568 L173 540 C172 535 175 534 178 536 C179 536 180 539 180 540 C184 549 185 553 188 561 C189 562 189 564 190 566 L190 566 Z " />
<glyph glyph-name="quotedblleft" unicode="&#x201c;" horiz-adv-x="172" d="M205 574 C203 574 201 572 201 570 C197 561 194 552 191 543 C191 542 190 541 190 540 C191 539 192 536 195 539 C196 539 196 540 197 541 L206 567 C208 572 208 573 205 574 L205 574 L205 574 Z M192 571 C189 572 189 570 187 567 L182 554 C180 549 178 545 178 545 C178 543 179 541 182 541 C183 541 185 543 185 544 C188 551 191 558 193 566 C194 568 194 571 192 571 L192 571 Z " />
<glyph glyph-name="quotedblright" unicode="&#x201d;" horiz-adv-x="171" d="M205 574 C203 574 201 572 201 570 C197 561 194 552 191 543 C191 542 190 541 190 540 C191 539 192 536 195 539 C196 539 196 540 197 541 L206 567 C208 572 208 573 205 574 L205 574 L205 574 Z M192 571 C189 572 189 570 187 567 L182 554 C180 549 178 545 178 545 C178 543 179 541 182 541 C183 541 185 543 185 544 C188 551 191 558 193 566 C194 568 194 571 192 571 L192 571 Z " />
<glyph glyph-name="fraction" unicode="&#x2044;" horiz-adv-x="132" d="M271 695 C270 696 270 697 268 698 C266 699 264 697 263 695 C259 685 254 675 249 665 C206 577 166 489 129 398 C88 296 48 194 14 89 C-11 13 -35 -63 -60 -138 C-63 -147 -66 -156 -70 -165 C-71 -167 -71 -169 -69 -170 C-67 -171 -65 -170 -64 -168 L-62 -163 L-53 -138 C-36 -81 -18 -24 0 33 C32 134 67 234 107 332 C132 393 157 455 184 516 C211 575 240 633 270 691 C270 692 270 693 271 695 L271 695 Z " />
<glyph glyph-name="l_l" unicode="&#xf6c0;" horiz-adv-x="172" d="M311 564 C310 572 301 575 293 571 C290 570 287 568 284 565 C274 558 265 549 258 539 C237 515 220 488 204 461 C160 384 123 307 100 223 C100 221 99 219 99 218 C90 209 78 198 60 183 C29 158 17 148 4 138 C-14 124 -12 146 -7 168 C-7 168 -3 188 0 203 C1 205 2 210 3 212 C26 237 48 263 68 291 C100 337 128 385 155 434 C166 454 176 476 183 494 C186 503 189 516 188 522 C187 529 180 532 173 529 C170 527 167 525 165 523 C156 517 148 509 141 500 C123 479 107 456 93 431 C53 362 9 274 -6 193 C-11 167 -21 134 -10 130 C-5 128 -1 129 5 133 C10 136 24 146 32 153 C40 160 78 192 87 200 C88 201 92 205 96 209 C94 202 92 195 91 190 C77 132 49 5 64 -22 C66 -25 67 -21 66 -19 C56 -1 69 71 75 105 C84 144 93 186 97 201 C98 204 100 212 100 212 C125 241 152 270 174 302 C211 354 243 408 273 463 C286 486 297 511 305 532 C308 542 312 557 311 564 L311 564 Z M12 246 C35 310 63 372 97 431 C111 454 125 475 142 496 C149 504 157 512 166 519 C168 521 172 523 175 525 C179 527 184 526 184 520 C184 514 181 505 179 497 C170 473 159 450 147 428 C124 388 101 348 75 310 C54 279 31 250 6 222 C6 222 5 221 5 221 L4 220 L5 223 L12 246 Z M300 535 C290 508 278 482 264 457 C238 411 212 366 182 323 C159 288 133 256 105 224 C104 223 103 222 102 221 L102 221 L102 222 C105 231 108 241 111 250 C137 323 168 393 208 460 C223 486 240 511 259 534 C267 543 275 553 285 560 C288 563 292 565 296 567 C300 569 306 568 306 562 C306 554 303 544 300 535 L300 535 Z " />
<glyph glyph-name="f_f" unicode="&#xfb00;" horiz-adv-x="228" d="M63 -18 C64 -2 68 28 69 31 C71 47 74 64 78 80 C86 121 98 162 112 201 C112 201 112 201 112 201 C114 209 121 226 121 226 L121 227 L121 227 C124 234 127 241 130 248 C143 260 156 273 169 286 C217 335 262 387 298 445 C316 475 333 507 345 540 C346 542 349 552 348 555 C346 561 341 561 338 560 C338 560 338 560 337 560 C332 558 325 553 323 552 C323 552 323 551 322 551 C317 547 312 543 308 539 C291 522 275 502 260 483 C230 446 204 406 180 364 C159 327 140 289 124 250 C115 242 106 234 97 226 C66 200 34 176 -2 156 C-2 156 -2 156 -2 156 C-2 156 -2 156 -2 156 C-3 156 -3 155 -3 154 L-3 154 C-3 154 -4 153 -3 151 C-3 151 -3 151 -3 151 C-3 151 -3 151 -3 151 L-3 151 C-3 151 -3 150 -3 150 C3 139 3 128 3 116 C3 99 2 83 0 66 C-4 37 -11 8 -22 -20 C-23 -23 -24 -25 -25 -28 C-28 -34 -36 -49 -41 -56 C-42 -56 -43 -57 -43 -57 C-44 -57 -44 -57 -44 -57 C-44 -57 -44 -57 -44 -57 C-44 -57 -44 -57 -44 -57 C-44 -57 -44 -57 -44 -57 C-44 -57 -45 -57 -45 -57 C-45 -57 -45 -57 -45 -57 C-45 -57 -45 -57 -45 -57 C-45 -57 -45 -57 -45 -57 C-45 -57 -45 -57 -45 -57 C-45 -57 -45 -57 -45 -57 C-50 -53 -50 -32 -49 -18 L-49 -18 C-48 -2 -44 28 -43 31 C-41 47 -38 64 -34 80 C-25 123 -10 173 4 214 C38 241 70 278 100 308 C102 311 156 370 190 422 C197 433 203 443 210 454 C222 476 232 499 238 523 C240 532 242 541 240 549 C240 553 238 556 236 558 C229 565 214 554 214 554 C213 553 211 552 210 551 C205 547 200 543 196 539 C178 522 163 502 148 483 C118 446 91 406 68 364 C20 281 -15 191 -36 98 C-42 72 -47 45 -51 19 C-52 10 -53 2 -54 -7 C-55 -13 -59 -66 -43 -62 C-43 -62 -42 -62 -42 -62 C-41 -61 -40 -61 -39 -60 C-37 -58 -34 -54 -33 -52 C-28 -45 -23 -35 -20 -28 C2 18 9 67 9 117 C8 137 4 147 3 151 C2 152 2 152 2 152 C2 152 9 156 13 158 C51 181 86 209 120 239 C101 193 87 146 76 98 C70 72 65 45 61 19 C60 10 59 2 58 -7 C57 -13 53 -66 69 -62 C69 -62 70 -62 70 -62 C71 -61 72 -61 73 -60 C75 -58 78 -54 79 -52 C84 -45 89 -35 92 -28 C115 20 122 72 121 124 C120 133 120 142 116 149 C114 152 115 153 117 155 C133 164 149 173 165 182 C185 192 203 201 227 212 C229 213 230 215 228 217 C228 217 217 213 214 211 C188 200 163 187 138 173 C130 168 121 163 112 157 C109 155 108 153 109 150 C115 139 115 128 115 116 C116 99 114 83 112 66 C108 37 101 8 90 -20 C89 -23 88 -25 87 -28 C84 -34 76 -49 71 -56 C70 -56 70 -57 69 -57 C69 -57 68 -57 68 -57 C68 -57 68 -57 68 -57 C68 -57 68 -57 68 -57 C68 -57 68 -57 68 -57 C68 -57 68 -57 68 -57 C68 -57 67 -57 67 -57 C67 -57 67 -57 67 -57 C67 -57 67 -57 67 -57 C67 -57 67 -57 67 -57 C67 -57 67 -57 67 -57 C63 -53 63 -32 63 -18 C63 -18 63 -18 63 -18 L63 -18 Z M241 448 C256 469 272 489 288 508 C297 518 305 528 315 537 C320 542 325 546 331 550 C332 551 336 553 340 554 C340 554 340 554 341 554 C341 554 341 554 341 554 C344 554 343 549 342 545 C318 483 282 426 240 374 C208 334 172 295 134 260 C163 326 199 390 241 448 L241 448 Z M9 227 L9 227 C39 306 80 380 129 448 C144 469 159 489 176 508 C185 518 193 528 203 537 C208 542 213 546 219 550 C220 551 224 553 227 554 C228 554 231 555 233 552 C233 552 233 552 233 552 C233 552 233 552 233 552 C233 551 234 550 234 549 C234 549 234 549 234 549 C235 543 234 537 233 531 C229 511 222 493 213 474 C209 466 204 458 200 450 L200 450 L200 450 C186 426 170 404 154 382 C153 380 152 379 151 378 C149 375 147 373 146 371 C140 363 133 354 124 344 C108 324 98 314 98 314 L98 314 C55 267 7 222 7 222 L9 227 L9 227 Z " />
<glyph glyph-name="fi" unicode="&#xfb01;" horiz-adv-x="191" d="M191 217 C191 217 107 122 97 124 C92 126 98 148 104 168 C109 186 116 204 124 220 C126 223 125 225 123 226 C121 227 119 226 118 223 L115 216 C111 215 105 212 102 211 C77 199 51 187 27 173 C18 168 9 163 1 157 C-3 155 -3 153 -2 150 C3 139 4 128 4 116 C4 99 3 82 1 66 C-3 36 -10 8 -21 -20 C-25 -30 -33 -46 -41 -56 C-41 -56 -42 -57 -43 -57 L-44 -57 C-50 -54 -49 -29 -48 -18 C-47 -2 -43 28 -43 31 L-34 80 C-25 123 -10 170 5 211 C5 211 29 234 36 241 L66 272 L101 308 C103 311 156 369 191 422 L210 454 C222 476 233 499 239 523 C241 532 242 541 241 549 C240 553 239 556 237 558 C230 565 215 554 215 554 L211 551 C206 547 201 543 197 538 C179 522 164 502 149 483 C119 446 92 406 68 364 C21 281 -14 191 -36 98 C-42 71 -47 45 -50 19 C-52 10 -53 2 -54 -7 C-54 -13 -58 -66 -42 -62 L-41 -62 L-38 -60 L-32 -52 C-28 -45 -22 -35 -19 -28 C4 20 10 72 9 124 C9 133 8 141 4 149 C3 152 4 153 6 155 L54 182 L112 210 L98 166 C95 155 92 145 91 135 C91 129 92 124 96 122 C100 121 104 124 107 126 C115 132 132 147 146 162 C163 180 173 192 189 208 C193 212 195 215 191 217 L191 217 Z M234 531 C230 511 223 492 214 474 L200 449 C187 426 171 403 155 382 C153 378 149 375 147 371 C141 363 134 354 125 344 C109 324 99 314 99 314 C56 267 8 220 8 220 C42 309 80 380 130 448 C145 469 160 489 177 508 C185 518 194 528 204 537 C209 542 214 546 219 550 C220 551 225 553 228 554 C229 554 232 555 234 552 C234 551 234 550 235 549 C236 543 235 537 234 531 L234 531 Z M131 246 C135 244 134 244 139 255 C144 264 144 263 141 265 C138 267 135 263 133 259 C130 251 127 247 131 246 L131 246 Z " />
<glyph glyph-name="fl" unicode="&#xfb02;" horiz-adv-x="224" d="M328 559 C327 567 319 570 310 566 C307 565 304 563 301 560 C291 553 282 544 275 534 C254 510 237 483 221 456 C175 380 139 301 115 216 L102 211 C77 199 51 187 27 173 C18 168 9 163 1 157 C-3 155 -3 153 -2 150 C3 139 4 128 4 116 C4 99 3 82 1 66 C-3 36 -10 8 -21 -20 C-25 -30 -33 -46 -41 -56 C-41 -56 -42 -57 -43 -57 L-44 -57 C-50 -54 -49 -29 -48 -18 C-47 -2 -43 28 -43 31 L-34 80 C-25 123 -10 170 5 211 C5 211 29 234 36 241 L66 272 L101 308 C103 311 156 369 191 422 L210 454 C222 476 233 499 239 523 C241 532 242 541 241 549 C240 553 239 556 237 558 C230 565 215 554 215 554 L211 551 C206 547 201 543 197 538 C179 522 164 502 149 483 C119 446 92 406 68 364 C21 281 -14 191 -36 98 C-42 71 -47 45 -50 19 C-52 10 -53 2 -54 -7 C-54 -13 -58 -66 -42 -62 L-41 -62 L-38 -60 L-32 -52 C-28 -45 -22 -35 -19 -28 C4 20 10 72 9 124 C9 133 8 141 4 149 C3 152 4 153 6 155 L54 182 C73 192 90 200 113 210 C111 203 109 193 108 186 C101 157 90 119 105 115 C108 114 112 115 118 119 L138 136 L220 207 C226 212 229 213 224 217 C224 217 137 141 129 134 C126 131 119 126 115 123 C106 117 103 119 102 122 C101 128 101 132 106 157 C106 156 111 185 116 201 L119 210 C119 210 145 241 170 272 C170 272 203 313 235 363 C241 372 284 446 291 459 C303 481 314 506 322 527 C325 537 329 552 328 559 L328 559 Z M234 531 C230 511 223 492 214 474 L200 449 C187 426 171 403 155 382 C153 378 149 375 147 371 C141 363 134 354 125 344 C109 324 99 314 99 314 C56 267 8 220 8 220 C42 309 80 380 130 448 C145 469 160 489 177 508 C185 518 194 528 204 537 C209 542 214 546 219 550 C220 551 225 553 228 554 C229 554 232 555 234 552 C234 551 234 550 235 549 C236 543 235 537 234 531 L234 531 Z M317 530 C307 503 295 477 281 452 C255 406 229 361 199 318 C174 283 150 254 121 221 L128 245 C154 318 185 388 225 455 C240 481 257 506 276 529 C284 539 292 548 302 555 C305 558 309 560 313 562 C317 564 323 563 323 557 C323 549 320 539 317 530 L317 530 Z " />
</font>
</svg>
